0
SECTION
2
HEADER
9
$ACADVER
1
AC1015
9
$DWGCODEPAGE
3
ANSI_1252
9
$HANDSEED
5
1b2
9
$ANGBASE
50
0
9
$ANGDIR
70
0
9
$ATTMODE
70
1
9
$AUNITS
70
0
9
$AUPREC
70
0
9
$CECOLOR
62
256
9
$CELTSCALE
40
1
9
$CELTYPE
6
ByLayer
9
$CELWEIGHT
370
18
9
$CLAYER
8
0
9
$CMLJUST
70
0
9
$CMLSCALE
40
1
9
$CMLSTYLE
2
Standard
9
$DIMSTYLE
2
Standard
9
$TEXTSIZE
40
0.2
9
$TEXTSTYLE
7
Standard
9
$LUNITS
70
2
9
$LUPREC
70
4
9
$EXTNAMES
290
1
9
$INSUNITS
70
4
9
$LTSCALE
40
1
9
$LWDISPLAY
290
1
9
$PDMODE
70
0
9
$PDSIZE
40
0
9
$PLINEGEN
70
0
0
ENDSEC
0
SECTION
2
CLASSES
0
CLASS
1
RASTERVARIABLES
2
AcDbRasterVariables
3
ISM
90
0
280
0
281
0
0
ENDSEC
0
SECTION
2
TABLES
0
TABLE
2
VPORT
5
1a8
100
AcDbSymbolTable
0
VPORT
5
1
100
AcDbSymbolTableRecord
100
AcDbViewportTableRecord
2
*Active
70
0
10
0
20
0
11
1
21
1
12
-1
22
1
13
0
23
0
14
0.5
24
0.5
15
10
25
10
16
0
26
0
36
1
17
0
27
0
37
0
0
ENDTAB
0
TABLE
2
LTYPE
5
1a9
100
AcDbSymbolTable
0
LTYPE
5
14
100
AcDbSymbolTableRecord
100
AcDbLinetypeTableRecord
70
0
2
ByBlock
3

72
65
73
0
40
0
0
LTYPE
5
15
100
AcDbSymbolTableRecord
100
AcDbLinetypeTableRecord
70
0
2
ByLayer
3

72
65
73
0
40
0
0
LTYPE
5
16
100
AcDbSymbolTableRecord
100
AcDbLinetypeTableRecord
70
0
2
CONTINUOUS
3
Solid line
72
65
73
0
40
0
0
LTYPE
5
6A
100
AcDbSymbolTableRecord
100
AcDbLinetypeTableRecord
70
0
2
CENTER
3
____ _ ____ _ ____ _ ____
72
65
73
4
40
47.5
49
22
74
0
49
-8.5
74
0
49
8.5
74
0
49
-8.5
74
0
0
LTYPE
5
6B
100
AcDbSymbolTableRecord
100
AcDbLinetypeTableRecord
70
0
2
DASHED
3
__ __ __ __ __ __ __ __ __
72
65
73
2
40
25.72
49
12.86
74
0
49
-12.86
74
0
0
ENDTAB
0
TABLE
2
LAYER
5
1aa
100
AcDbSymbolTable
0
LAYER
5
10
100
AcDbSymbolTableRecord
100
AcDbLayerTableRecord
2
0
70
0
62
7
6
CONTINUOUS
290
1
370
-3
390
0
0
LAYER
5
6D
100
AcDbSymbolTableRecord
100
AcDbLayerTableRecord
2
80
70
0
62
-6
6
CONTINUOUS
290
1
370
-3
390
0
0
LAYER
5
6F
100
AcDbSymbolTableRecord
100
AcDbLayerTableRecord
2
81
70
0
62
-3
6
CONTINUOUS
290
1
370
-3
390
0
0
LAYER
5
71
100
AcDbSymbolTableRecord
100
AcDbLayerTableRecord
2
1
70
0
62
4
6
CONTINUOUS
290
1
370
-3
390
0
0
LAYER
5
112
100
AcDbSymbolTableRecord
100
AcDbLayerTableRecord
2
2
70
0
62
7
6
CONTINUOUS
290
1
370
-3
390
0
0
LAYER
5
195
100
AcDbSymbolTableRecord
100
AcDbLayerTableRecord
2
SK1
70
0
62
4
6
CONTINUOUS
290
1
370
-3
390
0
0
LAYER
5
196
100
AcDbSymbolTableRecord
100
AcDbLayerTableRecord
2
SK6
70
0
62
5
6
CONTINUOUS
290
1
370
-3
390
0
0
LAYER
5
197
100
AcDbSymbolTableRecord
100
AcDbLayerTableRecord
2
SK2
70
0
62
7
6
CONTINUOUS
290
1
370
-3
390
0
0
ENDTAB
0
TABLE
2
STYLE
5
1ab
100
AcDbSymbolTable
0
STYLE
5
11
100
AcDbSymbolTableRecord
100
AcDbTextStyleTableRecord
2
Standard
3
txt
70
0
71
0
40
0
41
1
42
0
50
0
0
STYLE
5
F7
100
AcDbSymbolTableRecord
100
AcDbTextStyleTableRecord
2
iso_b_vert
3
simplex.shx
70
0
71
0
40
0
41
1
42
0
50
0
0
STYLE
5
F8
100
AcDbSymbolTableRecord
100
AcDbTextStyleTableRecord
2
DWGDirectTextStyle
3
simplex
70
0
71
0
40
0
41
1
42
0
50
0
0
ENDTAB
0
TABLE
2
DIMSTYLE
5
1ac
100
AcDbSymbolTable
100
AcDbDimStyleTable
0
DIMSTYLE
105
27
100
AcDbSymbolTableRecord
100
AcDbDimStyleTableRecord
2
Standard
70
0
3
<>
41
0.18
42
0.0625
44
0.18
140
0.18
147
0.09
73
0
74
0
77
1
271
2
275
0
278
52
280
0
340
11
0
ENDTAB
0
TABLE
2
VIEW
5
1ad
100
AcDbSymbolTable
0
ENDTAB
0
TABLE
2
UCS
5
1ae
100
AcDbSymbolTable
0
ENDTAB
0
TABLE
2
APPID
5
1af
100
AcDbSymbolTable
0
APPID
5
12
100
AcDbSymbolTableRecord
100
AcDbRegAppTableRecord
2
ACAD
70
0
0
ENDTAB
0
TABLE
2
BLOCK_RECORD
5
1b0
100
AcDbSymbolTable
0
BLOCK_RECORD
5
1F
100
AcDbSymbolTableRecord
100
AcDbBlockTableRecord
2
*Model_Space
340
0
70
0
0
BLOCK_RECORD
5
1B
100
AcDbSymbolTableRecord
100
AcDbBlockTableRecord
2
*Paper_Space
340
0
70
0
0
BLOCK_RECORD
5
23
100
AcDbSymbolTableRecord
100
AcDbBlockTableRecord
2
*Paper_Space0
340
0
70
0
0
BLOCK_RECORD
5
FA
100
AcDbSymbolTableRecord
100
AcDbBlockTableRecord
2
DimnDraft3D1
340
0
70
0
0
BLOCK_RECORD
5
109
100
AcDbSymbolTableRecord
100
AcDbBlockTableRecord
2
_CLOSED
340
0
70
0
0
BLOCK_RECORD
5
110
100
AcDbSymbolTableRecord
100
AcDbBlockTableRecord
2
DimnDraft3D2
340
0
70
0
0
BLOCK_RECORD
5
11F
100
AcDbSymbolTableRecord
100
AcDbBlockTableRecord
2
DimnDraft3D3
340
0
70
0
0
BLOCK_RECORD
5
12D
100
AcDbSymbolTableRecord
100
AcDbBlockTableRecord
2
DimnDraft3D4
340
0
70
0
0
ENDTAB
0
ENDSEC
0
SECTION
2
BLOCKS
0
BLOCK
5
20
100
AcDbEntity
8
0
100
AcDbBlockBegin
2
*Model_Space
70
0
10
0
20
0
30
0
3
*Model_Space
0
ENDBLK
5
21
100
AcDbEntity
8
0
100
AcDbBlockEnd
0
BLOCK
5
1C
100
AcDbEntity
8
0
100
AcDbBlockBegin
2
*Paper_Space
70
0
10
0
20
0
30
0
3
*Paper_Space
0
ENDBLK
5
1D
100
AcDbEntity
8
0
100
AcDbBlockEnd
0
BLOCK
5
24
100
AcDbEntity
8
0
100
AcDbBlockBegin
2
*Paper_Space0
70
0
10
0
20
0
30
0
3
*Paper_Space0
0
ENDBLK
5
25
100
AcDbEntity
8
0
100
AcDbBlockEnd
0
BLOCK
5
106
100
AcDbEntity
8
0
100
AcDbBlockBegin
2
DimnDraft3D1
70
0
10
0
20
0
30
0
3
DimnDraft3D1
0
MTEXT
5
FB
100
AcDbEntity
8
SK2
62
256
6
ByLayer
370
13
48
1
60
0
100
AcDbMText
10
-162.013042
20
-1.500658
30
0
210
0
220
0
230
1
1
\W0.6740;25
40
4.5
41
0
44
1.084337
50
90
71
7
72
5
7
iso_b_vert
0
LINE
5
FD
100
AcDbEntity
8
SK2
62
256
6
ByLayer
370
13
48
1
60
0
100
AcDbLine
10
-152.725542
20
12.5625
30
0
11
-164.063042
21
12.5625
31
0
39
0
210
0
220
0
230
1
0
LINE
5
FE
100
AcDbEntity
8
SK2
62
256
6
ByLayer
370
13
48
1
60
0
100
AcDbLine
10
-152.725542
20
-12.4375
30
0
11
-164.063042
21
-12.4375
31
0
39
0
210
0
220
0
230
1
0
LINE
5
FF
100
AcDbEntity
8
SK2
62
256
6
ByLayer
370
13
48
1
60
0
100
AcDbLine
10
-160.888042
20
12.5625
30
0
11
-160.888042
21
-12.4375
31
0
39
0
210
0
220
0
230
1
0
LINE
5
100
100
AcDbEntity
8
SK2
62
256
6
ByLayer
370
13
48
1
60
0
100
AcDbLine
10
-160.888042
20
12.5625
30
0
11
-160.037303
21
9.387503
31
0
39
0
210
0
220
0
230
1
0
LINE
5
101
100
AcDbEntity
8
SK2
62
256
6
ByLayer
370
13
48
1
60
0
100
AcDbLine
10
-160.888042
20
12.5625
30
0
11
-161.73878
21
9.387497
31
0
39
0
210
0
220
0
230
1
0
LINE
5
102
100
AcDbEntity
8
SK2
62
256
6
ByLayer
370
13
48
1
60
0
100
AcDbLine
10
-160.037303
20
9.387503
30
0
11
-161.73878
21
9.387497
31
0
39
0
210
0
220
0
230
1
0
LINE
5
103
100
AcDbEntity
8
SK2
62
256
6
ByLayer
370
13
48
1
60
0
100
AcDbLine
10
-160.888042
20
-12.4375
30
0
11
-161.73878
21
-9.262503
31
0
39
0
210
0
220
0
230
1
0
LINE
5
104
100
AcDbEntity
8
SK2
62
256
6
ByLayer
370
13
48
1
60
0
100
AcDbLine
10
-160.888042
20
-12.4375
30
0
11
-160.037303
21
-9.262497
31
0
39
0
210
0
220
0
230
1
0
LINE
5
105
100
AcDbEntity
8
SK2
62
256
6
ByLayer
370
13
48
1
60
0
100
AcDbLine
10
-161.73878
20
-9.262503
30
0
11
-160.037303
21
-9.262497
31
0
39
0
210
0
220
0
230
1
0
ENDBLK
5
107
100
AcDbEntity
8
0
100
AcDbBlockEnd
0
BLOCK
5
10A
100
AcDbEntity
8
0
100
AcDbBlockBegin
2
_CLOSED
70
0
10
0
20
0
30
0
3
_CLOSED
0
LINE
5
10C
100
AcDbEntity
8
0
62
256
6
ByLayer
370
-2
48
1
60
0
100
AcDbLine
10
-1
20
0.166667
30
0
11
0
21
0
31
0
39
0
210
0
220
0
230
1
0
LINE
5
10D
100
AcDbEntity
8
0
62
256
6
ByLayer
370
-2
48
1
60
0
100
AcDbLine
10
0
20
0
30
0
11
-1
21
-0.166667
31
0
39
0
210
0
220
0
230
1
0
LINE
5
10E
100
AcDbEntity
8
0
62
256
6
ByLayer
370
-2
48
1
60
0
100
AcDbLine
10
-1
20
0.166667
30
0
11
-1
21
-0.166667
31
0
39
0
210
0
220
0
230
1
0
LINE
5
10F
100
AcDbEntity
8
0
62
256
6
ByLayer
370
-2
48
1
60
0
100
AcDbLine
10
0
20
0
30
0
11
-1
21
0
31
0
39
0
210
0
220
0
230
1
0
ENDBLK
5
10B
100
AcDbEntity
8
0
100
AcDbBlockEnd
0
BLOCK
5
11C
100
AcDbEntity
8
0
100
AcDbBlockBegin
2
DimnDraft3D2
70
0
10
0
20
0
30
0
3
DimnDraft3D2
0
MTEXT
5
111
100
AcDbEntity
8
2
62
256
6
ByLayer
370
13
48
1
60
0
100
AcDbMText
10
58.839756
20
2.174342
30
0
210
0
220
0
230
1
1
\W0.6740;32
40
4.5
41
0
44
1.084337
50
90
71
7
72
5
7
iso_b_vert
0
LINE
5
113
100
AcDbEntity
8
2
62
256
6
ByLayer
370
13
48
1
60
0
100
AcDbLine
10
1.5875
20
-12.4375
30
0
11
63.139756
21
-12.4375
31
0
39
0
210
0
220
0
230
1
0
LINE
5
114
100
AcDbEntity
8
2
62
256
6
ByLayer
370
13
48
1
60
0
100
AcDbLine
10
21.799458
20
19.9125
30
0
11
63.139756
21
19.9125
31
0
39
0
210
0
220
0
230
1
0
LINE
5
115
100
AcDbEntity
8
2
62
256
6
ByLayer
370
13
48
1
60
0
100
AcDbLine
10
59.964756
20
-12.4375
30
0
11
59.964756
21
19.9125
31
0
39
0
210
0
220
0
230
1
0
LINE
5
116
100
AcDbEntity
8
2
62
256
6
ByLayer
370
13
48
1
60
0
100
AcDbLine
10
59.964756
20
-12.4375
30
0
11
59.114017
21
-9.262503
31
0
39
0
210
0
220
0
230
1
0
LINE
5
117
100
AcDbEntity
8
2
62
256
6
ByLayer
370
13
48
1
60
0
100
AcDbLine
10
59.964756
20
-12.4375
30
0
11
60.815494
21
-9.262497
31
0
39
0
210
0
220
0
230
1
0
LINE
5
118
100
AcDbEntity
8
2
62
256
6
ByLayer
370
13
48
1
60
0
100
AcDbLine
10
59.114017
20
-9.262503
30
0
11
60.815494
21
-9.262497
31
0
39
0
210
0
220
0
230
1
0
LINE
5
119
100
AcDbEntity
8
2
62
256
6
ByLayer
370
13
48
1
60
0
100
AcDbLine
10
59.964756
20
19.9125
30
0
11
60.815494
21
16.737503
31
0
39
0
210
0
220
0
230
1
0
LINE
5
11A
100
AcDbEntity
8
2
62
256
6
ByLayer
370
13
48
1
60
0
100
AcDbLine
10
59.964756
20
19.9125
30
0
11
59.114017
21
16.737497
31
0
39
0
210
0
220
0
230
1
0
LINE
5
11B
100
AcDbEntity
8
2
62
256
6
ByLayer
370
13
48
1
60
0
100
AcDbLine
10
60.815494
20
16.737503
30
0
11
59.114017
21
16.737497
31
0
39
0
210
0
220
0
230
1
0
ENDBLK
5
11D
100
AcDbEntity
8
0
100
AcDbBlockEnd
0
BLOCK
5
12A
100
AcDbEntity
8
0
100
AcDbBlockBegin
2
DimnDraft3D3
70
0
10
0
20
0
30
0
3
DimnDraft3D3
0
MTEXT
5
120
100
AcDbEntity
8
SK2
62
256
6
ByLayer
370
13
48
1
60
0
100
AcDbMText
10
-68.145279
20
28.5375
30
0
210
0
220
0
230
1
1
\W0.6217;170
40
4.5
41
0
44
1.084337
50
0
71
7
72
5
7
iso_b_vert
0
LINE
5
121
100
AcDbEntity
8
SK2
62
256
6
ByLayer
370
13
48
1
60
0
100
AcDbLine
10
-151.138042
20
14.15
30
0
11
-151.138042
21
30.5875
31
0
39
0
210
0
220
0
230
1
0
LINE
5
122
100
AcDbEntity
8
SK2
62
256
6
ByLayer
370
13
48
1
60
0
100
AcDbLine
10
20.211958
20
21.5
30
0
11
20.211958
21
30.5875
31
0
39
0
210
0
220
0
230
1
0
LINE
5
123
100
AcDbEntity
8
SK2
62
256
6
ByLayer
370
13
48
1
60
0
100
AcDbLine
10
-151.138042
20
27.4125
30
0
11
20.211958
21
27.4125
31
0
39
0
210
0
220
0
230
1
0
LINE
5
124
100
AcDbEntity
8
SK2
62
256
6
ByLayer
370
13
48
1
60
0
100
AcDbLine
10
-151.138042
20
27.4125
30
0
11
-147.963045
21
28.263239
31
0
39
0
210
0
220
0
230
1
0
LINE
5
125
100
AcDbEntity
8
SK2
62
256
6
ByLayer
370
13
48
1
60
0
100
AcDbLine
10
-151.138042
20
27.4125
30
0
11
-147.963039
21
26.561761
31
0
39
0
210
0
220
0
230
1
0
LINE
5
126
100
AcDbEntity
8
SK2
62
256
6
ByLayer
370
13
48
1
60
0
100
AcDbLine
10
-147.963045
20
28.263239
30
0
11
-147.963039
21
26.561761
31
0
39
0
210
0
220
0
230
1
0
LINE
5
127
100
AcDbEntity
8
SK2
62
256
6
ByLayer
370
13
48
1
60
0
100
AcDbLine
10
20.211958
20
27.4125
30
0
11
17.036961
21
26.561761
31
0
39
0
210
0
220
0
230
1
0
LINE
5
128
100
AcDbEntity
8
SK2
62
256
6
ByLayer
370
13
48
1
60
0
100
AcDbLine
10
20.211958
20
27.4125
30
0
11
17.036955
21
28.263239
31
0
39
0
210
0
220
0
230
1
0
LINE
5
129
100
AcDbEntity
8
SK2
62
256
6
ByLayer
370
13
48
1
60
0
100
AcDbLine
10
17.036961
20
26.561761
30
0
11
17.036955
21
28.263239
31
0
39
0
210
0
220
0
230
1
0
ENDBLK
5
12B
100
AcDbEntity
8
0
100
AcDbBlockEnd
0
BLOCK
5
139
100
AcDbEntity
8
0
100
AcDbBlockBegin
2
DimnDraft3D4
70
0
10
0
20
0
30
0
3
DimnDraft3D4
0
MTEXT
5
12E
100
AcDbEntity
8
2
62
256
6
ByLayer
370
13
48
1
60
0
100
AcDbMText
10
28.278944
20
34.282822
30
0
210
0
220
0
230
1
1
\W0.8602;45%%d0'
40
4.5
41
0
44
1.084337
50
309.341669246936
71
7
72
5
7
iso_b_vert
0
LINE
5
12F
100
AcDbEntity
8
2
62
256
6
ByLayer
370
13
48
1
60
0
100
AcDbLine
10
29.587288
20
10.072203
30
0
11
32.304082
21
7.355408
31
0
39
0
210
0
220
0
230
1
0
LINE
5
130
100
AcDbEntity
8
2
62
256
6
ByLayer
370
13
48
1
60
0
100
AcDbLine
10
21.799458
20
19.9125
30
0
11
37.5054
21
19.9125
31
0
39
0
210
0
220
0
230
1
0
ARC
5
131
100
AcDbEntity
8
2
62
256
6
ByLayer
370
13
48
1
60
0
100
AcDbCircle
39
0
10
19.74699
20
19.9125
30
0
40
14.5834095392674
210
0
220
0
230
1
100
AcDbArc
50
0
51
64.437049
0
ARC
5
132
100
AcDbEntity
8
2
62
256
6
ByLayer
370
13
48
1
60
0
100
AcDbCircle
39
0
10
19.74699
20
19.9125
30
0
40
14.5834095392674
210
0
220
0
230
1
100
AcDbArc
50
315
51
0
0
LINE
5
133
100
AcDbEntity
8
2
62
256
6
ByLayer
370
13
48
1
60
0
100
AcDbLine
10
30.059018
20
9.600472
30
0
11
31.545848
21
12.531973
31
0
39
0
210
0
220
0
230
1
0
LINE
5
134
100
AcDbEntity
8
2
62
256
6
ByLayer
370
13
48
1
60
0
100
AcDbLine
10
30.059018
20
9.600472
30
0
11
32.812406
21
11.395815
31
0
39
0
210
0
220
0
230
1
0
LINE
5
135
100
AcDbEntity
8
2
62
256
6
ByLayer
370
13
48
1
60
0
100
AcDbLine
10
31.545848
20
12.531973
30
0
11
32.812406
21
11.395815
31
0
39
0
210
0
220
0
230
1
0
LINE
5
136
100
AcDbEntity
8
2
62
256
6
ByLayer
370
13
48
1
60
0
100
AcDbLine
10
34.3304
20
19.9125
30
0
11
35.007841
21
16.696068
31
0
39
0
210
0
220
0
230
1
0
LINE
5
137
100
AcDbEntity
8
2
62
256
6
ByLayer
370
13
48
1
60
0
100
AcDbLine
10
34.3304
20
19.9125
30
0
11
33.308863
21
16.788262
31
0
39
0
210
0
220
0
230
1
0
LINE
5
138
100
AcDbEntity
8
2
62
256
6
ByLayer
370
13
48
1
60
0
100
AcDbLine
10
35.007841
20
16.696068
30
0
11
33.308863
21
16.788262
31
0
39
0
210
0
220
0
230
1
0
ENDBLK
5
13A
100
AcDbEntity
8
0
100
AcDbBlockEnd
0
ENDSEC
0
SECTION
2
ENTITIES
0
ARC
5
AE
100
AcDbEntity
8
1
62
256
6
ByLayer
370
18
48
1
60
0
100
AcDbCircle
39
0
10
0
20
14.0375
30
0
40
1.60000000000004
210
0
220
0
230
-1
100
AcDbArc
50
195
51
270
0
ELLIPSE
5
AF
100
AcDbEntity
8
1
62
256
6
ByLayer
370
18
48
1
60
0
100
AcDbEllipse
10
12.125659
20
12.975521
30
0
11
1.43802502630059
21
-1.43802502630058
31
0
210
0
220
0
230
1
40
0.990268
41
-2.93155916368153
42
-1.57079632679488
0
ELLIPSE
5
B0
100
AcDbEntity
8
1
62
256
6
ByLayer
370
18
48
1
60
0
100
AcDbEllipse
10
17.988938
20
7.695285
30
0
11
-1.83847763108502
21
1.83847763108503
31
0
210
0
220
0
230
1
40
0.990268
41
1.5707963267949
42
1.91213409899431
0
ELLIPSE
5
B1
100
AcDbEntity
8
1
62
256
6
ByLayer
370
18
48
1
60
0
100
AcDbEllipse
10
11.607017
20
12.881143
30
0
11
-1.35707247041405
21
1.35707247041405
31
0
210
0
220
0
230
1
40
0.990268
41
-1.5707963267949
42
-0.214021182884591
0
ELLIPSE
5
B2
100
AcDbEntity
8
1
62
256
6
ByLayer
370
18
48
1
60
0
100
AcDbEllipse
10
12.345094
20
13.61922
30
0
11
1.40266734206888
21
-1.40266734206886
31
0
210
0
220
0
230
1
40
0.990268
41
1.5707963267949
42
-2.58952638707943
0
ELLIPSE
5
B3
100
AcDbEntity
8
1
62
256
6
ByLayer
370
18
48
1
60
0
100
AcDbEllipse
10
0
20
-12.444481
30
0
11
1.60000000000018
21
1.61702248813196E-15
31
0
210
0
220
0
230
-1
40
0.004363
41
-1.5707963267949
42
-0.261799387798628
0
ELLIPSE
5
B4
100
AcDbEntity
8
1
62
256
6
ByLayer
370
18
48
1
60
0
100
AcDbEllipse
10
11.62195
20
12.896076
30
0
11
1.46313130705361
21
-1.4631313070536
31
0
210
0
220
0
230
1
40
0.990268
41
1.5707963267949
42
2.80465678020651
0
ELLIPSE
5
B5
100
AcDbEntity
8
1
62
256
6
ByLayer
370
18
48
1
60
0
100
AcDbEllipse
10
16.037811
20
9.646412
30
0
11
-1.83847763108502
21
1.83847763108503
31
0
210
0
220
0
230
1
40
0.990268
41
1.22945855459527
42
1.57079632679491
0
ELLIPSE
5
B6
100
AcDbEntity
8
1
62
256
6
ByLayer
370
18
48
1
60
0
100
AcDbEllipse
10
13.748046
20
13.992393
30
0
11
0.106066328163708
21
-0.106067725832153
31
0
210
0
220
0
230
-1
40
0.127648
41
2.11893574839482
42
-3.13000874050845
0
ELLIPSE
5
B7
100
AcDbEntity
8
1
62
256
6
ByLayer
370
18
48
1
60
0
100
AcDbEllipse
10
11.640316
20
10.872671
30
0
11
0.561266007566825
21
-0.561266007566819
31
0
210
0
220
0
230
1
40
0.990268
41
3.14159265358976
42
-2.9056290134564
0
ELLIPSE
5
B8
100
AcDbEntity
8
1
62
256
6
ByLayer
370
18
48
1
60
0
100
AcDbEllipse
10
19.459804
20
10.834435
30
0
11
-1.82292128189892
21
1.82292128189892
31
0
210
0
220
0
230
1
40
0.990268
41
-3.01133392757918
42
-2.37673201801798
0
ELLIPSE
5
B9
100
AcDbEntity
8
1
62
256
6
ByLayer
370
18
48
1
60
0
100
AcDbEllipse
10
19.459804
20
10.834435
30
0
11
-1.82292128189892
21
1.82292128189892
31
0
210
0
220
0
230
1
40
0.990268
41
-1.1115537308922
42
-0.130198626053966
0
ELLIPSE
5
BA
100
AcDbEntity
8
1
62
256
6
ByLayer
370
18
48
1
60
0
100
AcDbEllipse
10
19.167463
20
11.263273
30
0
11
-1.83847763108502
21
1.83847763108503
31
0
210
0
220
0
230
1
40
0.990268
41
2.59022580457217
42
3.14158324156896
0
ELLIPSE
5
BB
100
AcDbEntity
8
1
62
256
6
ByLayer
370
18
48
1
60
0
100
AcDbEllipse
10
19.600102
20
10.253554
30
0
11
-1.83847763108502
21
1.83847763108503
31
0
210
0
220
0
230
1
40
0.990268
41
-1.70019095845332E-05
42
0.107528658462845
0
ELLIPSE
5
BC
100
AcDbEntity
8
1
62
256
6
ByLayer
370
18
48
1
60
0
100
AcDbEllipse
10
19.640935
20
10.830146
30
0
11
1.6617009357884
21
-1.66170093578838
31
0
210
0
220
0
230
1
40
0.990268
41
-3.14155306000097
42
-2.61959295892642
0
ELLIPSE
5
BD
100
AcDbEntity
8
1
62
256
6
ByLayer
370
18
48
1
60
0
100
AcDbEllipse
10
18.714593
20
10.089224
30
0
11
2.01525432638167
21
-2.01525432638165
31
0
210
0
220
0
230
1
40
0.990268
41
2.39981959110459
42
2.67081146665935
0
ELLIPSE
5
BE
100
AcDbEntity
8
1
62
256
6
ByLayer
370
18
48
1
60
0
100
AcDbEllipse
10
18.714593
20
10.089224
30
0
11
2.01525432638167
21
-2.01525432638165
31
0
210
0
220
0
230
1
40
0.990268
41
0.470779627249016
42
0.722395840895142
0
ELLIPSE
5
BF
100
AcDbEntity
8
1
62
256
6
ByLayer
370
18
48
1
60
0
100
AcDbEllipse
10
7.809095
20
5.96483
30
0
11
1.09955104474509
21
-1.09955104474508
31
0
210
0
220
0
230
1
40
0.990268
41
0.217928651012358
42
0.790287831593861
0
ELLIPSE
5
C0
100
AcDbEntity
8
1
62
256
6
ByLayer
370
18
48
1
60
0
100
AcDbEllipse
10
7.809095
20
5.96483
30
0
11
1.09955104474509
21
-1.09955104474508
31
0
210
0
220
0
230
1
40
0.990268
41
0.790287831593861
42
3.03328650900652
0
ELLIPSE
5
C1
100
AcDbEntity
8
1
62
256
6
ByLayer
370
18
48
1
60
0
100
AcDbEllipse
10
7.907505
20
6.06324
30
0
11
-1.09955104474508
21
1.09955104474508
31
0
210
0
220
0
230
1
40
0.990268
41
-0.162443732833647
42
3.68089343523405E-06
0
ELLIPSE
5
C2
100
AcDbEntity
8
1
62
256
6
ByLayer
370
18
48
1
60
0
100
AcDbEllipse
10
7.907505
20
6.06324
30
0
11
-1.09955104474508
21
1.09955104474508
31
0
210
0
220
0
230
1
40
0.990268
41
-2.96971094742663
42
-2.69989624043705
0
ELLIPSE
5
C3
100
AcDbEntity
8
1
62
256
6
ByLayer
370
18
48
1
60
0
100
AcDbEllipse
10
18.894192
20
10.268823
30
0
11
-1.96222131779267
21
1.96222131779267
31
0
210
0
220
0
230
1
40
0.990268
41
-2.75093204053224
42
-2.41256110063415
0
ELLIPSE
5
C4
100
AcDbEntity
8
1
62
256
6
ByLayer
370
18
48
1
60
0
100
AcDbEllipse
10
18.894192
20
10.268823
30
0
11
-1.96222131779267
21
1.96222131779267
31
0
210
0
220
0
230
1
40
0.990268
41
-0.797289940239744
42
-0.405829408586254
0
ELLIPSE
5
C5
100
AcDbEntity
8
1
62
256
6
ByLayer
370
18
48
1
60
0
100
AcDbEllipse
10
19.966719
20
3.483626
30
0
11
-0.561266007566821
21
0.561266007566823
31
0
210
0
220
0
230
1
40
0.990268
41
1.5707963267949
42
3.14159265358976
0
ELLIPSE
5
C6
100
AcDbEntity
8
1
62
256
6
ByLayer
370
18
48
1
60
0
100
AcDbEllipse
10
19.49804
20
3.014947
30
0
11
0.561266007566825
21
-0.561266007566819
31
0
210
0
220
0
230
1
40
0.990268
41
-1.57079632679486
42
-3.78537178116061E-14
0
ELLIPSE
5
C7
100
AcDbEntity
8
1
62
256
6
ByLayer
370
18
48
1
60
0
100
AcDbEllipse
10
19.928483
20
11.303114
30
0
11
-1.82292128189892
21
1.82292128189892
31
0
210
0
220
0
230
1
40
0.990268
41
0
42
6.28318530717959
0
ELLIPSE
5
C8
100
AcDbEntity
8
1
62
256
6
ByLayer
370
18
48
1
60
0
100
AcDbEllipse
10
27.747972
20
11.264879
30
0
11
-0.561266007566821
21
0.561266007566823
31
0
210
0
220
0
230
1
40
0.990268
41
3.14159265358979
42
-1.57079632679488
0
ELLIPSE
5
C9
100
AcDbEntity
8
1
62
256
6
ByLayer
370
18
48
1
60
0
100
AcDbEllipse
10
19.890248
20
19.122603
30
0
11
-0.561266007566821
21
0.561266007566823
31
0
210
0
220
0
230
1
40
0.990268
41
-1.57079632679488
42
0
0
ELLIPSE
5
CA
100
AcDbEntity
8
1
62
256
6
ByLayer
370
18
48
1
60
0
100
AcDbEllipse
10
12.108995
20
11.34135
30
0
11
-0.561266007566821
21
0.561266007566823
31
0
210
0
220
0
230
1
40
0.990268
41
0
42
1.57079632679493
0
ELLIPSE
5
CB
100
AcDbEntity
8
1
62
256
6
ByLayer
370
18
48
1
60
0
100
AcDbEllipse
10
20.033108
20
10.686559
30
0
11
1.83847763108503
21
-1.83847763108501
31
0
210
0
220
0
230
1
40
0.990268
41
1.75543419162034
42
-2.52337906249783
0
ELLIPSE
5
CC
100
AcDbEntity
8
1
62
256
6
ByLayer
370
18
48
1
60
0
100
AcDbEllipse
10
19.816788
20
11.191419
30
0
11
1.66170093578839
21
-1.66170093578838
31
0
210
0
220
0
230
1
40
0.990268
41
0.816730901207763
42
1.55691688150453
0
ELLIPSE
5
CD
100
AcDbEntity
8
1
62
256
6
ByLayer
370
18
48
1
60
0
100
AcDbEllipse
10
19.816788
20
11.191419
30
0
11
1.66170093578839
21
-1.66170093578838
31
0
210
0
220
0
230
1
40
0.990268
41
-2.32486175238203
42
-1.58467577208526
0
ELLIPSE
5
CE
100
AcDbEntity
8
1
62
256
6
ByLayer
370
18
48
1
60
0
100
AcDbEllipse
10
19.865993
20
11.240624
30
0
11
-1.30814754519511
21
1.30814754519511
31
0
210
0
220
0
230
1
40
0.990268
41
-2.29808254187559
42
-1.6114549825917
0
ELLIPSE
5
CF
100
AcDbEntity
8
1
62
256
6
ByLayer
370
18
48
1
60
0
100
AcDbEllipse
10
19.865993
20
11.240624
30
0
11
-1.30814754519511
21
1.30814754519511
31
0
210
0
220
0
230
1
40
0.990268
41
0.843510111714196
42
1.53013767099808
0
ELLIPSE
5
D0
100
AcDbEntity
8
1
62
256
6
ByLayer
370
18
48
1
60
0
100
AcDbEllipse
10
19.649673
20
11.745484
30
0
11
-1.48492424049175
21
1.48492424049175
31
0
210
0
220
0
230
1
40
0.990268
41
1.77932982788654
42
-2.54727469876405
0
ELLIPSE
5
D1
100
AcDbEntity
8
1
62
256
6
ByLayer
370
18
48
1
60
0
100
AcDbEllipse
10
20.082313
20
10.735764
30
0
11
-1.48492424049175
21
1.48492424049175
31
0
210
0
220
0
230
1
40
0.990268
41
-1.36226282570325
42
0.594317954825751
0
ELLIPSE
5
D2
100
AcDbEntity
8
1
62
256
6
ByLayer
370
18
48
1
60
0
100
AcDbEllipse
10
19.600468
20
11.696278
30
0
11
1.83847763108503
21
-1.83847763108501
31
0
210
0
220
0
230
1
40
0.990268
41
-1.38615846196948
42
0.618213591091967
0
ELLIPSE
5
D3
100
AcDbEntity
8
1
62
256
6
ByLayer
370
18
48
1
60
0
100
AcDbEllipse
10
8.301146
20
6.456881
30
0
11
2.28749043713849
21
-2.28749043713847
31
0
210
0
220
0
230
1
40
0.990268
41
0
42
6.28318530717959
0
ELLIPSE
5
D4
100
AcDbEntity
8
1
62
256
6
ByLayer
370
18
48
1
60
0
100
AcDbEllipse
10
7.907505
20
6.06324
30
0
11
-1.09955104474508
21
1.09955104474508
31
0
210
0
220
0
230
1
40
0.990268
41
-2.25683883522686
42
-1.65269868924046
0
ELLIPSE
5
D5
100
AcDbEntity
8
1
62
256
6
ByLayer
370
18
48
1
60
0
100
AcDbEllipse
10
8.225862
20
6.381597
30
0
11
2.8284271247462
21
-2.82842712474618
31
0
210
0
220
0
230
1
40
0.990268
41
0
42
6.28318530717959
0
ELLIPSE
5
D6
100
AcDbEntity
8
1
62
256
6
ByLayer
370
18
48
1
60
0
100
AcDbEllipse
10
8.279988
20
6.435723
30
0
11
-1.09955104474508
21
1.09955104474508
31
0
210
0
220
0
230
1
40
0.990268
41
2.53609151554596
42
2.97914892075614
0
ELLIPSE
5
D7
100
AcDbEntity
8
1
62
256
6
ByLayer
370
18
48
1
60
0
100
AcDbEllipse
10
8.301146
20
6.456881
30
0
11
1.36287119209428
21
-1.36287119209427
31
0
210
0
220
0
230
1
40
0.990268
41
0
42
6.28318530717959
0
ELLIPSE
5
D8
100
AcDbEntity
8
1
62
256
6
ByLayer
370
18
48
1
60
0
100
AcDbEllipse
10
7.907505
20
6.06324
30
0
11
-1.09955104474508
21
1.09955104474508
31
0
210
0
220
0
230
1
40
0.990268
41
-1.20964128403026
42
-0.605501138043875
0
ELLIPSE
5
D9
100
AcDbEntity
8
1
62
256
6
ByLayer
370
18
48
1
60
0
100
AcDbEllipse
10
8.279988
20
6.435723
30
0
11
-1.09955104474508
21
1.09955104474508
31
0
210
0
220
0
230
1
40
0.990268
41
-1.65269868924045
42
-1.20964128403024
0
ELLIPSE
5
DA
100
AcDbEntity
8
1
62
256
6
ByLayer
370
18
48
1
60
0
100
AcDbEllipse
10
8.279988
20
6.435723
30
0
11
-1.09955104474508
21
1.09955104474508
31
0
210
0
220
0
230
1
40
0.990268
41
0.441696413152752
42
0.884753818362942
0
ELLIPSE
5
DB
100
AcDbEntity
8
1
62
256
6
ByLayer
370
18
48
1
60
0
100
AcDbEllipse
10
8.279988
20
6.435723
30
0
11
-1.09955104474508
21
1.09955104474508
31
0
210
0
220
0
230
1
40
0.990268
41
-0.605501138043858
42
-0.162443732833647
0
ELLIPSE
5
DC
100
AcDbEntity
8
1
62
256
6
ByLayer
370
18
48
1
60
0
100
AcDbEllipse
10
8.279988
20
6.435723
30
0
11
-1.09955104474508
21
1.09955104474508
31
0
210
0
220
0
230
1
40
0.990268
41
-2.69989624043703
42
-2.25683883522685
0
ELLIPSE
5
DD
100
AcDbEntity
8
1
62
256
6
ByLayer
370
18
48
1
60
0
100
AcDbEllipse
10
8.279988
20
6.435723
30
0
11
-1.09955104474508
21
1.09955104474508
31
0
210
0
220
0
230
1
40
0.990268
41
1.48889396434934
42
1.93195136955954
0
POINT
5
6C
100
AcDbEntity
8
80
62
256
6
ByLayer
370
18
48
1
60
0
100
AcDbPoint
10
0
20
0
30
0
39
0
210
0
220
0
230
1
50
360
0
POINT
5
6E
100
AcDbEntity
8
81
62
256
6
ByLayer
370
18
48
1
60
0
100
AcDbPoint
10
18.861958
20
19.5625
30
0
39
0
210
0
220
0
230
1
50
360
0
POINT
5
70
100
AcDbEntity
8
1
62
256
6
ByLayer
370
18
48
1
60
0
100
AcDbPoint
10
-151.138042
20
-12.4375
30
0
39
0
210
0
220
0
230
1
50
360
0
SPLINE
5
DE
100
AcDbEntity
8
1
62
256
6
ByLayer
370
18
48
1
60
0
100
AcDbSpline
70
4
71
1
72
4
73
2
40
0
40
0
40
1
40
1
41
1
10
17.9867382556379
20
12.4834993193081
30
0
41
1
10
18.1013475621799
20
12.5999706061862
30
0
0
SPLINE
5
DF
100
AcDbEntity
8
1
62
256
6
ByLayer
370
18
48
1
60
0
100
AcDbSpline
70
4
71
3
72
20
73
16
40
0
40
0
40
0
40
0
40
0.161867607870342
40
0.161867607870342
40
0.323735215740685
40
0.323735215740685
40
0.485602823611027
40
0.485602823611027
40
0.647470431481369
40
0.647470431481369
40
0.809338039351712
40
0.809338039351712
40
0.971205647222054
40
0.971205647222054
40
1
40
1
40
1
40
1
41
1
10
17.6584695360884
20
11.9676392781302
30
0
41
1
10
17.6651001043771
20
11.9742698464189
30
0
41
1
10
17.6627145160572
20
11.9698790382769
30
0
41
1
10
17.6445240850089
20
11.9430413193007
30
0
41
1
10
17.6293950280266
20
11.9214283447973
30
0
41
1
10
17.5933879773462
20
11.8672287209777
30
0
41
1
10
17.5724680598738
20
11.8345492491973
30
0
41
1
10
17.5296517847482
20
11.7629323780482
30
0
41
1
10
17.5075247208983
20
11.72367959711
30
0
41
1
10
17.4636851692691
20
11.6395634887887
30
0
41
1
10
17.4418708820266
20
11.5944726733774
30
0
41
1
10
17.4004631779504
20
11.5008430236113
30
0
41
1
10
17.3807974298097
20
11.4522072902913
30
0
41
1
10
17.3592210058098
20
11.3930526384234
30
0
41
1
10
17.3560052511829
20
11.3840691114923
30
0
41
1
10
17.3528334762931
20
11.3750364059951
30
0
0
SPLINE
5
E0
100
AcDbEntity
8
1
62
256
6
ByLayer
370
18
48
1
60
0
100
AcDbSpline
70
4
71
3
72
10
73
6
40
0
40
0
40
0
40
0
40
0.480451838058397
40
0.480451838058397
40
1
40
1
40
1
40
1
41
1
10
18.8779382059499
20
12.9908094680875
30
0
41
1
10
18.824105612673
20
12.980922215064
30
0
41
1
10
18.7705716175153
20
12.9691771946808
30
0
41
1
10
18.6597776763685
20
12.9407929209238
30
0
41
1
10
18.6023226965855
20
12.9237439791314
30
0
41
1
10
18.5459447803988
20
12.9046515975482
30
0
0
SPLINE
5
E1
100
AcDbEntity
8
1
62
256
6
ByLayer
370
18
48
1
60
0
100
AcDbSpline
70
4
71
3
72
18
73
14
40
0
40
0
40
0
40
0
40
0.122309748500173
40
0.122309748500173
40
0.371054435457118
40
0.371054435457118
40
0.49542677893559
40
0.49542677893559
40
0.619799122414062
40
0.619799122414062
40
0.868543809371005
40
0.868543809371005
40
1
40
1
40
1
40
1
41
1
10
20.8359164669316
20
8.89845782483366
30
0
41
1
10
20.8805474959753
20
8.93626063846457
30
0
41
1
10
20.9236556319478
20
8.97564866730661
30
0
41
1
10
21.0495564037014
20
9.09955414807422
30
0
41
1
10
21.1276476012505
20
9.18888175253019
30
0
41
1
10
21.2352344602726
20
9.33243049678921
30
0
41
1
10
21.269601234147
20
9.38206715457059
30
0
41
1
10
21.3339980101835
20
9.48289444242442
30
0
41
1
10
21.3641592046592
20
9.5342345782388
30
0
41
1
10
21.4487380371514
20
9.69091235871829
30
0
41
1
10
21.4972685093741
20
9.79890507282525
30
0
41
1
10
21.5598384153714
20
9.96901722651165
30
0
41
1
10
21.5793397065922
20
10.0289202427774
30
0
41
1
10
21.5966431545928
20
10.0891871434237
30
0
0
SPLINE
5
E2
100
AcDbEntity
8
1
62
256
6
ByLayer
370
18
48
1
60
0
100
AcDbSpline
70
4
71
3
72
8
73
4
40
0
40
0
40
0
40
0
40
1
40
1
40
1
40
1
41
1
10
18.0281080178897
20
12.6324763764737
30
0
41
1
10
17.9187756725349
20
12.5790181439379
30
0
41
1
10
17.8050059659338
20
12.5239723328203
30
0
41
1
10
17.6882039534597
20
12.4678416373333
30
0
0
SPLINE
5
E3
100
AcDbEntity
8
1
62
256
6
ByLayer
370
18
48
1
60
0
100
AcDbSpline
70
4
71
3
72
8
73
4
40
0
40
0
40
0
40
0
40
1
40
1
40
1
40
1
41
1
10
21.7033601729416
20
11.3385606559624
30
0
41
1
10
21.8536748608604
20
11.3102612951172
30
0
41
1
10
22.0038059788943
20
11.2817967130556
30
0
41
1
10
22.1538464790639
20
11.2532508485661
30
0
0
SPLINE
5
E4
100
AcDbEntity
8
1
62
256
6
ByLayer
370
18
48
1
60
0
100
AcDbSpline
70
4
71
3
72
8
73
4
40
0
40
0
40
0
40
0
40
1
40
1
40
1
40
1
41
1
10
18.18427869646
20
12.6738299528649
30
0
41
1
10
18.2962928210942
20
12.7612764260768
30
0
41
1
10
18.4168815965955
20
12.8385466689994
30
0
41
1
10
18.5459447803989
20
12.9046515975481
30
0
0
SPLINE
5
E5
100
AcDbEntity
8
1
62
256
6
ByLayer
370
18
48
1
60
0
100
AcDbSpline
70
4
71
3
72
22
73
18
40
0
40
0
40
0
40
0
40
0.062499999999999
40
0.062499999999999
40
0.124999999999998
40
0.124999999999998
40
0.187499999999997
40
0.187499999999997
40
0.249999999999996
40
0.249999999999996
40
0.374999999999997
40
0.374999999999997
40
0.499999999999998
40
0.499999999999998
40
0.749999999999999
40
0.749999999999999
40
1
40
1
40
1
40
1
41
1
10
17.5768550887803
20
11.8860248308221
30
0
41
1
10
17.5740381358399
20
11.8832078778818
30
0
41
1
10
17.5733966172063
20
11.8850414504561
30
0
41
1
10
17.575885239979
20
11.8963954337272
30
0
41
1
10
17.579026256053
20
11.9058383903203
30
0
41
1
10
17.5880363234343
20
11.9291940073263
30
0
41
1
10
17.5940007677122
20
11.9433452926673
30
0
41
1
10
17.6078773774443
20
11.9739919588808
30
0
41
1
10
17.6158001197856
20
11.9905346705793
30
0
41
1
10
17.6420699855476
20
12.0425124343988
30
0
41
1
10
17.6630559001831
20
12.0804707483215
30
0
41
1
10
17.7094592232407
20
12.1570805661776
30
0
41
1
10
17.734992196253
20
12.1960182665417
30
0
41
1
10
17.8179641250265
20
12.3127718181169
30
0
41
1
10
17.8822311791424
20
12.3909146879827
30
0
41
1
10
18.0235127245756
20
12.5385866503885
30
0
41
1
10
18.100701135637
20
12.6085831551287
30
0
41
1
10
18.18427869646
20
12.6738299528649
30
0
0
SPLINE
5
E6
100
AcDbEntity
8
1
62
256
6
ByLayer
370
18
48
1
60
0
100
AcDbSpline
70
4
71
3
72
14
73
10
40
0
40
0
40
0
40
0
40
0.25
40
0.25
40
0.5
40
0.5
40
0.75
40
0.75
40
1
40
1
40
1
40
1
41
1
10
18.5459447803989
20
12.9046515975482
30
0
41
1
10
18.5289364174886
20
12.894588119387
30
0
41
1
10
18.4980868835712
20
12.8799461458571
30
0
41
1
10
18.4229238583153
20
12.8448342822333
30
0
41
1
10
18.3779087562641
20
12.8239237406552
30
0
41
1
10
18.2836240663143
20
12.7776309462415
30
0
41
1
10
18.2338651570098
20
12.752058475931
30
0
41
1
10
18.1318826995575
20
12.6958068735574
30
0
41
1
10
18.0796761800603
20
12.6651210790543
30
0
41
1
10
18.0281080178897
20
12.6324763764737
30
0
0
SPLINE
5
E7
100
AcDbEntity
8
1
62
256
6
ByLayer
370
18
48
1
60
0
100
AcDbSpline
70
4
71
3
72
8
73
4
40
0
40
0
40
0
40
0
40
1
40
1
40
1
40
1
41
1
10
18.5184736752005
20
9.99945044289913
30
0
41
1
10
18.3949264634276
20
9.85600372370817
30
0
41
1
10
18.271588576097
20
9.7125569787658
30
0
41
1
10
18.1483539389153
20
9.56911046470438
30
0
0
SPLINE
5
E8
100
AcDbEntity
8
1
62
256
6
ByLayer
370
18
48
1
60
0
100
AcDbSpline
70
4
71
3
72
8
73
4
40
0
40
0
40
0
40
0
40
1
40
1
40
1
40
1
41
1
10
17.4797286572307
20
11.1295863523208
30
0
41
1
10
17.6625933964813
20
11.1338647269123
30
0
41
1
10
17.8455332851472
20
11.1382089154826
30
0
41
1
10
18.0286252068006
20
11.1426867883721
30
0
0
SPLINE
5
E9
100
AcDbEntity
8
1
62
256
6
ByLayer
370
18
48
1
60
0
100
AcDbSpline
70
4
71
3
72
8
73
4
40
0
40
0
40
0
40
0
40
1
40
1
40
1
40
1
41
1
10
21.4852211973793
20
12.8137267361824
30
0
41
1
10
21.3948107992786
20
12.7031044612021
30
0
41
1
10
21.3042816825799
20
12.5924664868917
30
0
41
1
10
21.2135117045417
20
12.4817970014353
30
0
0
SPLINE
5
EA
100
AcDbEntity
8
1
62
256
6
ByLayer
370
18
48
1
60
0
100
AcDbSpline
70
4
71
3
72
10
73
6
40
0
40
0
40
0
40
0
40
0.5
40
0.5
40
1
40
1
40
1
40
1
41
1
10
8.56431188001204
20
4.91190754378474
30
0
41
1
10
8.48276606566947
20
4.878275316507
30
0
41
1
10
8.40143986482695
20
4.84498844082714
30
0
41
1
10
8.24241639395382
20
4.78031940359273
30
0
41
1
10
8.16427912715898
20
4.74875392196915
30
0
41
1
10
8.08718535680572
20
4.71777229314654
30
0
0
SPLINE
5
EB
100
AcDbEntity
8
1
62
256
6
ByLayer
370
18
48
1
60
0
100
AcDbSpline
70
4
71
3
72
10
73
6
40
0
40
0
40
0
40
0
40
0.5
40
0.5
40
1
40
1
40
1
40
1
41
1
10
9.89241681006769
20
7.12015710364872
30
0
41
1
10
9.81998634920058
20
7.17051680149803
30
0
41
1
10
9.74676908400846
20
7.22190232155322
30
0
41
1
10
9.60073367547585
20
7.32561836737338
30
0
41
1
10
9.52785567483136
20
7.37798905268147
30
0
41
1
10
9.45514334760139
20
7.43096770025196
30
0
0
SPLINE
5
EC
100
AcDbEntity
8
1
62
256
6
ByLayer
370
18
48
1
60
0
100
AcDbSpline
70
4
71
3
72
10
73
6
40
0
40
0
40
0
40
0
40
0.5
40
0.5
40
1
40
1
40
1
40
1
41
1
10
7.37101240669972
20
7.69689803968356
30
0
41
1
10
7.28946659235714
20
7.66326581240583
30
0
41
1
10
7.20814039151463
20
7.62997893672596
30
0
41
1
10
7.0491169206415
20
7.56530989949155
30
0
41
1
10
6.97097965384665
20
7.53374441786801
30
0
41
1
10
6.8938858834934
20
7.50276278904539
30
0
0
SPLINE
5
ED
100
AcDbEntity
8
1
62
256
6
ByLayer
370
18
48
1
60
0
100
AcDbSpline
70
4
71
3
72
10
73
6
40
0
40
0
40
0
40
0
40
0.5
40
0.5
40
1
40
1
40
1
40
1
41
1
10
6.68990855684353
20
5.77363768691174
30
0
41
1
10
6.75735734184877
20
5.71829631320054
30
0
41
1
10
6.82608421791508
20
5.66242040401957
30
0
41
1
10
6.9645589481068
20
5.55114367985854
30
0
41
1
10
7.03436088143008
20
5.49569692722923
30
0
41
1
10
7.10483233172624
20
5.44047740272495
30
0
0
SPLINE
5
EE
100
AcDbEntity
8
1
62
256
6
ByLayer
370
18
48
1
60
0
100
AcDbSpline
70
4
71
3
72
10
73
6
40
0
40
0
40
0
40
0
40
0.5
40
0.5
40
1
40
1
40
1
40
1
41
1
10
8.4951400101055
20
8.1760224974139
30
0
41
1
10
8.41286579641917
20
8.13999251706713
30
0
41
1
10
8.33001522205075
20
8.10386556780873
30
0
41
1
10
8.16279040170321
20
8.03135532151808
30
0
41
1
10
8.07894399935719
20
7.99520361773466
30
0
41
1
10
7.99566379931565
20
7.95953755919217
30
0
0
SPLINE
5
EF
100
AcDbEntity
8
1
62
256
6
ByLayer
370
18
48
1
60
0
100
AcDbSpline
70
4
71
3
72
8
73
4
40
0
40
0
40
0
40
0
40
1
40
1
40
1
40
1
41
1
10
7.64991189433943
20
5.02858288974977
30
0
41
1
10
7.79769571353677
20
4.92090669271221
30
0
41
1
10
7.94314668303889
20
4.81791999347416
30
0
41
1
10
8.08718535680572
20
4.71777229314654
30
0
0
SPLINE
5
F0
100
AcDbEntity
8
1
62
256
6
ByLayer
370
18
48
1
60
0
100
AcDbSpline
70
4
71
3
72
8
73
4
40
0
40
0
40
0
40
0
40
1
40
1
40
1
40
1
41
1
10
6.74093646137533
20
6.28975837794491
30
0
41
1
10
6.72197234144932
20
6.11197171749026
30
0
41
1
10
6.7052591105666
20
5.94080182331496
30
0
41
1
10
6.68990855684353
20
5.77363768691174
30
0
0
SPLINE
5
F1
100
AcDbEntity
8
1
62
256
6
ByLayer
370
18
48
1
60
0
100
AcDbSpline
70
4
71
3
72
8
73
4
40
0
40
0
40
0
40
0
40
1
40
1
40
1
40
1
41
1
10
9.81903921795231
20
6.58168672503197
30
0
41
1
10
9.84255779740738
20
6.76402784501565
30
0
41
1
10
9.86715945780031
20
6.94308616870117
30
0
41
1
10
9.89241681006769
20
7.12015710364872
30
0
0
SPLINE
5
F2
100
AcDbEntity
8
1
62
256
6
ByLayer
370
18
48
1
60
0
100
AcDbSpline
70
4
71
3
72
10
73
6
40
0
40
0
40
0
40
0
40
0.5
40
0.5
40
1
40
1
40
1
40
1
41
1
10
9.68843948341782
20
5.39103200151504
30
0
41
1
10
9.69615857476776
20
5.47509119980887
30
0
41
1
10
9.70427402831274
20
5.56067369184228
30
0
41
1
10
9.72126037527903
20
5.73293349829405
30
0
41
1
10
9.73013669598902
20
5.81967842166858
30
0
41
1
10
9.73946738794962
20
5.90715269254824
30
0
0
SPLINE
5
F3
100
AcDbEntity
8
1
62
256
6
ByLayer
370
18
48
1
60
0
100
AcDbSpline
70
4
71
3
72
10
73
6
40
0
40
0
40
0
40
0
40
0.5
40
0.5
40
1
40
1
40
1
40
1
41
1
10
6.8938858834934
20
7.50276278904539
30
0
41
1
10
6.88118511628159
20
7.41372191488969
30
0
41
1
10
6.86857927361075
20
7.3236490337305
30
0
41
1
10
6.84403224830368
20
7.14382854893788
30
0
41
1
10
6.83207986027242
20
7.05400755824215
30
0
41
1
10
6.82050829137802
20
6.96429241042867
30
0
0
SPLINE
5
F4
100
AcDbEntity
8
1
62
256
6
ByLayer
370
18
48
1
60
0
100
AcDbSpline
70
4
71
3
72
8
73
4
40
0
40
0
40
0
40
0
40
1
40
1
40
1
40
1
41
1
10
8.91006378498821
20
7.84286221322711
30
0
41
1
10
8.76683442531987
20
7.95509286979373
30
0
41
1
10
8.62927188532802
20
8.06596799854199
30
0
41
1
10
8.4951400101055
20
8.1760224974139
30
0
0
SPLINE
5
F5
100
AcDbEntity
8
1
62
256
6
ByLayer
370
18
48
1
60
0
100
AcDbSpline
70
4
71
3
72
10
73
6
40
0
40
0
40
0
40
0
40
0.5
40
0.5
40
1
40
1
40
1
40
1
41
1
10
9.68843948341782
20
5.39103200151504
30
0
41
1
10
9.60616526973149
20
5.35500202116828
30
0
41
1
10
9.52331469536307
20
5.31887507190987
30
0
41
1
10
9.35608987501553
20
5.24636482561922
30
0
41
1
10
9.27224347266946
20
5.21021312183578
30
0
41
1
10
9.18896327262792
20
5.17454706329332
30
0
0
LINE
5
72
100
AcDbEntity
8
1
62
256
6
ByLayer
370
18
48
1
60
0
100
AcDbLine
10
17.986446
20
12.499058
30
0
11
17.979234
21
12.491846
31
0
39
0
210
0
220
0
230
1
0
LINE
5
73
100
AcDbEntity
8
1
62
256
6
ByLayer
370
18
48
1
60
0
100
AcDbLine
10
18.19463
20
12.525036
30
0
11
17.761625
21
12.092031
31
0
39
0
210
0
220
0
230
1
0
LINE
5
74
100
AcDbEntity
8
1
62
256
6
ByLayer
370
18
48
1
60
0
100
AcDbLine
10
5.397435
20
9.210024
30
0
11
5.356442
21
9.169031
31
0
39
0
210
0
220
0
230
1
0
LINE
5
75
100
AcDbEntity
8
1
62
256
6
ByLayer
370
18
48
1
60
0
100
AcDbLine
10
11.013296
20
3.512177
30
0
11
11.054289
21
3.55317
31
0
39
0
210
0
220
0
230
1
0
LINE
5
76
100
AcDbEntity
8
1
62
256
6
ByLayer
370
18
48
1
60
0
100
AcDbLine
10
20.847944
20
8.899173
30
0
11
20.979253
21
9.030482
31
0
39
0
210
0
220
0
230
1
0
LINE
5
77
100
AcDbEntity
8
1
62
256
6
ByLayer
370
18
48
1
60
0
100
AcDbLine
10
21.00594
20
9.424796
30
0
11
21.438945
21
9.857801
31
0
39
0
210
0
220
0
230
1
0
LINE
5
78
100
AcDbEntity
8
SK1
62
256
6
ByLayer
370
18
48
1
60
0
100
AcDbLine
10
-151.138042
20
12.4375
30
0
11
-151.138042
21
-12.4375
31
0
39
0
210
0
220
0
230
1
0
LINE
5
7A
100
AcDbEntity
8
1
62
256
6
ByLayer
370
18
48
1
60
0
100
AcDbLine
10
1.545481
20
13.62339
30
0
11
1.784601
21
14.515798
31
0
39
0
210
0
220
0
230
1
0
LINE
5
7B
100
AcDbEntity
8
1
62
256
6
ByLayer
370
18
48
1
60
0
100
AcDbLine
10
13.070842
20
14.344968
30
0
11
13.530453
21
13.885358
31
0
39
0
210
0
220
0
230
1
0
LINE
5
7C
100
AcDbEntity
8
1
62
256
6
ByLayer
370
18
48
1
60
0
100
AcDbLine
10
1.545481
20
13.62339
30
0
11
1.545481
21
-12.442674
31
0
39
0
210
0
220
0
230
1
0
LINE
5
7D
100
AcDbEntity
8
1
62
256
6
ByLayer
370
18
48
1
60
0
100
AcDbLine
10
0
20
-12.4375
30
0
11
0
21
12.4375
31
0
39
0
210
0
220
0
230
1
0
LINE
5
7E
100
AcDbEntity
8
1
62
256
6
ByLayer
370
18
48
1
60
0
100
AcDbLine
10
13.410503
20
13.765388
30
0
11
12.950882
21
14.225008
31
0
39
0
210
0
220
0
230
1
0
LINE
5
7F
100
AcDbEntity
8
1
62
256
6
ByLayer
370
18
48
1
60
0
100
AcDbLine
10
13.73411
20
15.008236
30
0
11
13.070842
21
14.344968
31
0
39
0
210
0
220
0
230
1
0
LINE
5
80
100
AcDbEntity
8
1
62
256
6
ByLayer
370
18
48
1
60
0
100
AcDbLine
10
19.363687
20
2.889433
30
0
11
4.016958
21
-12.457296
31
0
39
0
210
0
220
0
230
1
0
LINE
5
81
100
AcDbEntity
8
1
62
256
6
ByLayer
370
18
48
1
60
0
100
AcDbLine
10
2.484231
20
-12.457961
30
0
11
1.784601
21
14.515798
31
0
39
0
210
0
220
0
230
1
0
LINE
5
82
100
AcDbEntity
8
1
62
256
6
ByLayer
370
18
48
1
60
0
100
AcDbLine
10
2.72157
20
18.012612
30
0
11
1.784601
21
14.515798
31
0
39
0
210
0
220
0
230
1
0
LINE
5
83
100
AcDbEntity
8
1
62
256
6
ByLayer
370
18
48
1
60
0
100
AcDbLine
10
1.545481
20
-12.442674
30
0
11
2.484231
21
-12.457961
31
0
39
0
210
0
220
0
230
1
0
LINE
5
84
100
AcDbEntity
8
1
62
256
6
ByLayer
370
18
48
1
60
0
100
AcDbLine
10
14.188392
20
14.553955
30
0
11
13.642143
21
14.098611
31
0
39
0
210
0
220
0
230
1
0
LINE
5
85
100
AcDbEntity
8
1
62
256
6
ByLayer
370
18
48
1
60
0
100
AcDbLine
10
14.217226
20
7.825826
30
0
11
16.168353
21
5.874699
31
0
39
0
210
0
220
0
230
1
0
LINE
5
86
100
AcDbEntity
8
1
62
256
6
ByLayer
370
18
48
1
60
0
100
AcDbLine
10
16.997123
20
17.352022
30
0
11
16.336533
21
18.012612
31
0
39
0
210
0
220
0
230
1
0
LINE
5
87
100
AcDbEntity
8
1
62
256
6
ByLayer
370
18
48
1
60
0
100
AcDbLine
10
16.336597
20
18.012612
30
0
11
17.6577
21
18.012612
31
0
39
0
210
0
220
0
230
1
0
LINE
5
88
100
AcDbEntity
8
1
62
256
6
ByLayer
370
18
48
1
60
0
100
AcDbLine
10
16.336533
20
18.012612
30
0
11
2.72157
21
18.012612
31
0
39
0
210
0
220
0
230
1
0
LINE
5
89
100
AcDbEntity
8
1
62
256
6
ByLayer
370
18
48
1
60
0
100
AcDbLine
10
12.950882
20
14.225008
30
0
11
13.070842
21
14.344968
31
0
39
0
210
0
220
0
230
1
0
LINE
5
8A
100
AcDbEntity
8
1
62
256
6
ByLayer
370
18
48
1
60
0
100
AcDbLine
10
13.73411
20
15.008236
30
0
11
14.188392
21
14.553955
31
0
39
0
210
0
220
0
230
1
0
LINE
5
8B
100
AcDbEntity
8
1
62
256
6
ByLayer
370
18
48
1
60
0
100
AcDbLine
10
16.888813
20
5.364306
30
0
11
19.363687
21
2.889433
31
0
39
0
210
0
220
0
230
1
0
LINE
5
8C
100
AcDbEntity
8
1
62
256
6
ByLayer
370
18
48
1
60
0
100
AcDbLine
10
10.701629
20
11.551491
30
0
11
13.706833
21
8.546287
31
0
39
0
210
0
220
0
230
1
0
LINE
5
8D
100
AcDbEntity
8
1
62
256
6
ByLayer
370
18
48
1
60
0
100
AcDbLine
10
4.016958
20
-12.457296
30
0
11
2.484231
21
-12.457961
31
0
39
0
210
0
220
0
230
1
0
LINE
5
8E
100
AcDbEntity
8
1
62
256
6
ByLayer
370
18
48
1
60
0
100
AcDbLine
10
15.40528
20
15.760167
30
0
11
14.188392
21
14.553955
31
0
39
0
210
0
220
0
230
1
0
LINE
5
8F
100
AcDbEntity
8
SK1
62
256
6
ByLayer
370
18
48
1
60
0
100
AcDbLine
10
-151.138042
20
-12.4375
30
0
11
0
21
-12.4375
31
0
39
0
210
0
220
0
230
1
0
LINE
5
90
100
AcDbEntity
8
SK1
62
256
6
ByLayer
370
18
48
1
60
0
100
AcDbLine
10
0
20
-12.4375
30
0
11
0
21
12.4375
31
0
39
0
210
0
220
0
230
1
0
LINE
5
91
100
AcDbEntity
8
SK1
62
256
6
ByLayer
370
18
48
1
60
0
100
AcDbLine
10
-151.138042
20
12.4375
30
0
11
0
21
12.4375
31
0
39
0
210
0
220
0
230
1
0
LINE
5
92
100
AcDbEntity
8
1
62
256
6
ByLayer
370
18
48
1
60
0
100
AcDbLine
10
11.553191
20
10.785546
30
0
11
11.51038
21
10.742735
31
0
39
0
210
0
220
0
230
1
0
LINE
5
93
100
AcDbEntity
8
1
62
256
6
ByLayer
370
18
48
1
60
0
100
AcDbLine
10
18.942236
20
2.459143
30
0
11
18.937816
21
2.463563
31
0
39
0
210
0
220
0
230
1
0
LINE
5
94
100
AcDbEntity
8
1
62
256
6
ByLayer
370
18
48
1
60
0
100
AcDbLine
10
18.100384
20
9.52114
30
0
11
18.148354
21
9.56911
31
0
39
0
210
0
220
0
230
1
0
LINE
5
95
100
AcDbEntity
8
1
62
256
6
ByLayer
370
18
48
1
60
0
100
AcDbLine
10
9.366985
20
5.53467
30
0
11
9.331757
21
5.236048
31
0
39
0
210
0
220
0
230
1
0
LINE
5
96
100
AcDbEntity
8
1
62
256
6
ByLayer
370
18
48
1
60
0
100
AcDbLine
10
6.861103
20
7.266633
30
0
11
6.99853
21
7.324415
31
0
39
0
210
0
220
0
230
1
0
LINE
5
97
100
AcDbEntity
8
80
62
256
6
ByLayer
370
18
48
1
60
0
100
AcDbLine
10
0
20
0
30
0
11
-5
21
0
31
0
39
0
210
0
220
0
230
1
0
LINE
5
98
100
AcDbEntity
8
81
62
256
6
ByLayer
370
18
48
1
60
0
100
AcDbLine
10
18.861958
20
19.5625
30
0
11
28.861958
21
19.5625
31
0
39
0
210
0
220
0
230
1
0
LINE
5
99
100
AcDbEntity
8
1
62
256
6
ByLayer
370
18
48
1
60
0
100
AcDbLine
10
20.527985
20
2.92236
30
0
11
20.059306
21
2.453681
31
0
39
0
210
0
220
0
230
1
0
LINE
5
9A
100
AcDbEntity
8
1
62
256
6
ByLayer
370
18
48
1
60
0
100
AcDbLine
10
28.309238
20
10.703613
30
0
11
20.527985
21
2.92236
31
0
39
0
210
0
220
0
230
1
0
LINE
5
9B
100
AcDbEntity
8
1
62
256
6
ByLayer
370
18
48
1
60
0
100
AcDbLine
10
11.07905
20
11.433937
30
0
11
11.547728
21
11.902616
31
0
39
0
210
0
220
0
230
1
0
LINE
5
9C
100
AcDbEntity
8
1
62
256
6
ByLayer
370
18
48
1
60
0
100
AcDbLine
10
20.446052
20
19.678407
30
0
11
28.303776
21
11.820683
31
0
39
0
210
0
220
0
230
1
0
LINE
5
9D
100
AcDbEntity
8
1
62
256
6
ByLayer
370
18
48
1
60
0
100
AcDbLine
10
18.942236
20
2.459143
30
0
11
19.410915
21
2.927822
31
0
39
0
210
0
220
0
230
1
0
LINE
5
9E
100
AcDbEntity
8
1
62
256
6
ByLayer
370
18
48
1
60
0
100
AcDbLine
10
11.547728
20
11.902616
30
0
11
19.328982
21
19.683869
31
0
39
0
210
0
220
0
230
1
0
LINE
5
9F
100
AcDbEntity
8
1
62
256
6
ByLayer
370
18
48
1
60
0
100
AcDbLine
10
19.410915
20
2.927822
30
0
11
11.553191
21
10.785546
31
0
39
0
210
0
220
0
230
1
0
LINE
5
A0
100
AcDbEntity
8
1
62
256
6
ByLayer
370
18
48
1
60
0
100
AcDbLine
10
17.576855
20
11.886025
30
0
11
17.65847
21
11.967639
31
0
39
0
210
0
220
0
230
1
0
LINE
5
A1
100
AcDbEntity
8
1
62
256
6
ByLayer
370
18
48
1
60
0
100
AcDbLine
10
17.479729
20
11.129586
30
0
11
17.381318
21
11.031176
31
0
39
0
210
0
220
0
230
1
0
LINE
5
A2
100
AcDbEntity
8
1
62
256
6
ByLayer
370
18
48
1
60
0
100
AcDbLine
10
7.371012
20
7.696898
30
0
11
6.99853
21
7.324415
31
0
39
0
210
0
220
0
230
1
0
LINE
5
A3
100
AcDbEntity
8
1
62
256
6
ByLayer
370
18
48
1
60
0
100
AcDbLine
10
9.082661
20
7.058485
30
0
11
9.508759
21
6.736499
31
0
39
0
210
0
220
0
230
1
0
LINE
5
A4
100
AcDbEntity
8
1
62
256
6
ByLayer
370
18
48
1
60
0
100
AcDbLine
10
9.082661
20
7.058485
30
0
11
9.455143
21
7.430968
31
0
39
0
210
0
220
0
230
1
0
LINE
5
A5
100
AcDbEntity
8
1
62
256
6
ByLayer
370
18
48
1
60
0
100
AcDbLine
10
9.892417
20
7.120157
30
0
11
9.508759
21
6.736499
31
0
39
0
210
0
220
0
230
1
0
LINE
5
A6
100
AcDbEntity
8
1
62
256
6
ByLayer
370
18
48
1
60
0
100
AcDbLine
10
7.623181
20
7.587055
30
0
11
8.111482
21
7.792365
31
0
39
0
210
0
220
0
230
1
0
LINE
5
A7
100
AcDbEntity
8
1
62
256
6
ByLayer
370
18
48
1
60
0
100
AcDbLine
10
8.111482
20
7.792365
30
0
11
8.537581
21
7.470379
31
0
39
0
210
0
220
0
230
1
0
LINE
5
A8
100
AcDbEntity
8
1
62
256
6
ByLayer
370
18
48
1
60
0
100
AcDbLine
10
8.910064
20
7.842862
30
0
11
8.537581
21
7.470379
31
0
39
0
210
0
220
0
230
1
0
LINE
5
A9
100
AcDbEntity
8
1
62
256
6
ByLayer
370
18
48
1
60
0
100
AcDbLine
10
9.819039
20
6.581687
30
0
11
9.446556
21
6.209204
31
0
39
0
210
0
220
0
230
1
0
LINE
5
AA
100
AcDbEntity
8
1
62
256
6
ByLayer
370
18
48
1
60
0
100
AcDbLine
10
9.508759
20
6.736499
30
0
11
9.446556
21
6.209204
31
0
39
0
210
0
220
0
230
1
0
LINE
5
AB
100
AcDbEntity
8
1
62
256
6
ByLayer
370
18
48
1
60
0
100
AcDbLine
10
9.366985
20
5.53467
30
0
11
9.739467
21
5.907153
31
0
39
0
210
0
220
0
230
1
0
LINE
5
AC
100
AcDbEntity
8
1
62
256
6
ByLayer
370
18
48
1
60
0
100
AcDbLine
10
8.49514
20
8.176022
30
0
11
8.111482
21
7.792365
31
0
39
0
210
0
220
0
230
1
0
LINE
5
AD
100
AcDbEntity
8
1
62
256
6
ByLayer
370
18
48
1
60
0
100
AcDbLine
10
7.623181
20
7.587055
30
0
11
7.995664
21
7.959538
31
0
39
0
210
0
220
0
230
1
0
MTEXT
5
F6
100
AcDbEntity
8
SK6
62
256
6
ByLayer
370
13
48
1
60
0
100
AcDbMText
10
-119.757841
20
-37.499425
30
0
210
0
220
0
230
1
1
\W0.7579;PSSNR 3225P 12
40
3.5
41
0
44
1.084337
50
0
71
7
72
5
7
iso_b_vert
0
DIMENSION
5
108
100
AcDbEntity
8
SK2
62
256
6
ByLayer
370
13
48
1
60
0
100
AcDbDimension
2
DimnDraft3D1
10
-160.888042
20
-12.4375
30
0
11
-160.888042
21
0.0625
31
0
70
32
71
5
72
1
41
1
210
0
220
0
230
1
3
Standard
100
AcDbAlignedDimension
13
-152.725542
23
12.5625
33
0
14
-152.725542
24
-12.4375
34
0
50
90
100
AcDbRotatedDimension
1001
ACAD
1000
DSTYLE
1002
{
1070
    74
1070
     0
1070
   279
1070
     0
1070
   172
1070
     1
1070
   173
1070
     1
1070
   340
1005
F7
1070
   271
1070
     1
1070
   272
1070
     2
1070
    77
1070
     1
1070
    73
1070
     0
1070
   171
1070
     3
1070
   274
1070
     4
1070
   177
1070
   150
1070
   176
1070
     9
1070
   178
1070
    43
1070
    78
1070
     8
1070
    48
1040
-0.005
1070
    41
1041
3.175
1070
   147
1041
2.25
1070
    42
1041
1.5875
1070
    44
1041
3.175
1070
   140
1041
4.5
1070
   343
1005
109
1070
   344
1005
109
1002
}
0
DIMENSION
5
11E
100
AcDbEntity
8
2
62
256
6
ByLayer
370
13
48
1
60
0
100
AcDbDimension
2
DimnDraft3D2
10
59.964756
20
19.9125
30
0
11
59.964756
21
3.7375
31
0
70
32
71
5
72
1
41
1
210
0
220
0
230
1
3
Standard
100
AcDbAlignedDimension
13
1.5875
23
-12.4375
33
0
14
21.799458
24
19.9125
34
0
50
90
100
AcDbRotatedDimension
1001
ACAD
1000
DSTYLE
1002
{
1070
    74
1070
     0
1070
   279
1070
     0
1070
   172
1070
     1
1070
   173
1070
     1
1070
   340
1005
F7
1070
   271
1070
     1
1070
   272
1070
     2
1070
    77
1070
     1
1070
    73
1070
     0
1070
   171
1070
     3
1070
   274
1070
     4
1070
   177
1070
   150
1070
   176
1070
     9
1070
   178
1070
    43
1070
    78
1070
     8
1070
    48
1040
-0.005
1070
    41
1041
3.175
1070
   147
1041
2.25
1070
    42
1041
1.5875
1070
    44
1041
3.175
1070
   140
1041
4.5
1070
   343
1005
109
1070
   344
1005
109
1002
}
0
DIMENSION
5
12C
100
AcDbEntity
8
SK2
62
256
6
ByLayer
370
13
48
1
60
0
100
AcDbDimension
2
DimnDraft3D3
10
20.211958
20
27.4125
30
0
11
-65.463042
21
27.4125
31
0
70
32
71
5
72
1
41
1
210
0
220
0
230
1
3
Standard
100
AcDbAlignedDimension
13
-151.138042
23
14.15
33
0
14
20.211958
24
21.5
34
0
50
0
100
AcDbRotatedDimension
1001
ACAD
1000
DSTYLE
1002
{
1070
   279
1070
     0
1070
   172
1070
     1
1070
   173
1070
     1
1070
   340
1005
F7
1070
   271
1070
     1
1070
   272
1070
     2
1070
    77
1070
     1
1070
    73
1070
     0
1070
   171
1070
     3
1070
   274
1070
     4
1070
   177
1070
   150
1070
   176
1070
     9
1070
   178
1070
    43
1070
    78
1070
     8
1070
    48
1040
-0.005
1070
    41
1041
3.175
1070
   147
1041
2.25
1070
    42
1041
1.5875
1070
    44
1041
3.175
1070
   140
1041
4.5
1070
   343
1005
109
1070
   344
1005
109
1002
}
0
DIMENSION
5
13B
100
AcDbEntity
8
2
62
256
6
ByLayer
370
13
48
1
60
0
100
AcDbDimension
2
DimnDraft3D4
10
18.624458
20
19.9125
30
0
11
34.505706
21
32.010303
31
0
70
34
71
5
72
1
41
1
210
0
220
0
230
1
3
Standard
100
AcDb2LineAngularDimension
13
19.979474
23
19.680016
33
0
14
28.464756
24
11.194735
34
0
15
20.211958
25
19.9125
35
0
16
33.220304
26
14.331671
36
0
40
0
0
ENDSEC
0
SECTION
2
OBJECTS
0
DICTIONARY
5
1a5
330
0
100
AcDbDictionary
280
0
281
1
3
ACAD_GROUP
350
1a6
3
ACAD_MLINESTYLE
350
1a7
0
DICTIONARY
5
1a6
330
0
100
AcDbDictionary
280
0
281
1
0
DICTIONARY
5
1a7
330
0
100
AcDbDictionary
280
0
281
1
3
Standard
350
18
0
MLINESTYLE
5
18
330
1a7
100
AcDbMlineStyle
2
Standard
70
0
3

62
256
51
90
52
90
71
2
49
-0.5
62
256
6
ByLayer
49
0.5
62
256
6
ByLayer
0
RASTERVARIABLES
5
194
330

100
AcDbRasterVariables
90
0
70
1
71
1
72
1
0
ENDSEC
0
EOF
