0
SECTION
2
HEADER
9
$ACADVER
1
AC1015
9
$DWGCODEPAGE
3
ANSI_1252
9
$HANDSEED
5
1b2
9
$ANGBASE
50
0
9
$ANGDIR
70
0
9
$ATTMODE
70
1
9
$AUNITS
70
0
9
$AUPREC
70
0
9
$CECOLOR
62
256
9
$CELTSCALE
40
1
9
$CELTYPE
6
ByLayer
9
$CELWEIGHT
370
18
9
$CLAYER
8
0
9
$CMLJUST
70
0
9
$CMLSCALE
40
1
9
$CMLSTYLE
2
Standard
9
$DIMSTYLE
2
Standard
9
$TEXTSIZE
40
0.2
9
$TEXTSTYLE
7
Standard
9
$LUNITS
70
2
9
$LUPREC
70
4
9
$EXTNAMES
290
1
9
$INSUNITS
70
4
9
$LTSCALE
40
1
9
$LWDISPLAY
290
1
9
$PDMODE
70
0
9
$PDSIZE
40
0
9
$PLINEGEN
70
0
0
ENDSEC
0
SECTION
2
CLASSES
0
CLASS
1
RASTERVARIABLES
2
AcDbRasterVariables
3
ISM
90
0
280
0
281
0
0
ENDSEC
0
SECTION
2
TABLES
0
TABLE
2
VPORT
5
1a8
100
AcDbSymbolTable
0
VPORT
5
1
100
AcDbSymbolTableRecord
100
AcDbViewportTableRecord
2
*Active
70
0
10
0
20
0
11
1
21
1
12
-1
22
1
13
0
23
0
14
0.5
24
0.5
15
10
25
10
16
0
26
0
36
1
17
0
27
0
37
0
0
ENDTAB
0
TABLE
2
LTYPE
5
1a9
100
AcDbSymbolTable
0
LTYPE
5
14
100
AcDbSymbolTableRecord
100
AcDbLinetypeTableRecord
70
0
2
ByBlock
3

72
65
73
0
40
0
0
LTYPE
5
15
100
AcDbSymbolTableRecord
100
AcDbLinetypeTableRecord
70
0
2
ByLayer
3

72
65
73
0
40
0
0
LTYPE
5
16
100
AcDbSymbolTableRecord
100
AcDbLinetypeTableRecord
70
0
2
CONTINUOUS
3
Solid line
72
65
73
0
40
0
0
LTYPE
5
6A
100
AcDbSymbolTableRecord
100
AcDbLinetypeTableRecord
70
0
2
CENTER
3
____ _ ____ _ ____ _ ____
72
65
73
4
40
47.5
49
22
74
0
49
-8.5
74
0
49
8.5
74
0
49
-8.5
74
0
0
LTYPE
5
6B
100
AcDbSymbolTableRecord
100
AcDbLinetypeTableRecord
70
0
2
DASHED
3
__ __ __ __ __ __ __ __ __
72
65
73
2
40
25.72
49
12.86
74
0
49
-12.86
74
0
0
ENDTAB
0
TABLE
2
LAYER
5
1aa
100
AcDbSymbolTable
0
LAYER
5
10
100
AcDbSymbolTableRecord
100
AcDbLayerTableRecord
2
0
70
0
62
7
6
CONTINUOUS
290
1
370
-3
390
0
0
LAYER
5
6D
100
AcDbSymbolTableRecord
100
AcDbLayerTableRecord
2
80
70
0
62
-6
6
CONTINUOUS
290
1
370
-3
390
0
0
LAYER
5
6F
100
AcDbSymbolTableRecord
100
AcDbLayerTableRecord
2
81
70
0
62
-3
6
CONTINUOUS
290
1
370
-3
390
0
0
LAYER
5
71
100
AcDbSymbolTableRecord
100
AcDbLayerTableRecord
2
1
70
0
62
4
6
CONTINUOUS
290
1
370
-3
390
0
0
LAYER
5
112
100
AcDbSymbolTableRecord
100
AcDbLayerTableRecord
2
2
70
0
62
7
6
CONTINUOUS
290
1
370
-3
390
0
0
LAYER
5
195
100
AcDbSymbolTableRecord
100
AcDbLayerTableRecord
2
SK1
70
0
62
4
6
CONTINUOUS
290
1
370
-3
390
0
0
LAYER
5
196
100
AcDbSymbolTableRecord
100
AcDbLayerTableRecord
2
SK6
70
0
62
5
6
CONTINUOUS
290
1
370
-3
390
0
0
LAYER
5
197
100
AcDbSymbolTableRecord
100
AcDbLayerTableRecord
2
SK2
70
0
62
7
6
CONTINUOUS
290
1
370
-3
390
0
0
ENDTAB
0
TABLE
2
STYLE
5
1ab
100
AcDbSymbolTable
0
STYLE
5
11
100
AcDbSymbolTableRecord
100
AcDbTextStyleTableRecord
2
Standard
3
txt
70
0
71
0
40
0
41
1
42
0
50
0
0
STYLE
5
F7
100
AcDbSymbolTableRecord
100
AcDbTextStyleTableRecord
2
iso_b_vert
3
simplex.shx
70
0
71
0
40
0
41
1
42
0
50
0
0
STYLE
5
F8
100
AcDbSymbolTableRecord
100
AcDbTextStyleTableRecord
2
DWGDirectTextStyle
3
simplex
70
0
71
0
40
0
41
1
42
0
50
0
0
ENDTAB
0
TABLE
2
DIMSTYLE
5
1ac
100
AcDbSymbolTable
100
AcDbDimStyleTable
0
DIMSTYLE
105
27
100
AcDbSymbolTableRecord
100
AcDbDimStyleTableRecord
2
Standard
70
0
3
<>
41
0.18
42
0.0625
44
0.18
140
0.18
147
0.09
73
0
74
0
77
1
271
2
275
0
278
52
280
0
340
11
0
ENDTAB
0
TABLE
2
VIEW
5
1ad
100
AcDbSymbolTable
0
ENDTAB
0
TABLE
2
UCS
5
1ae
100
AcDbSymbolTable
0
ENDTAB
0
TABLE
2
APPID
5
1af
100
AcDbSymbolTable
0
APPID
5
12
100
AcDbSymbolTableRecord
100
AcDbRegAppTableRecord
2
ACAD
70
0
0
ENDTAB
0
TABLE
2
BLOCK_RECORD
5
1b0
100
AcDbSymbolTable
0
BLOCK_RECORD
5
1F
100
AcDbSymbolTableRecord
100
AcDbBlockTableRecord
2
*Model_Space
340
0
70
0
0
BLOCK_RECORD
5
1B
100
AcDbSymbolTableRecord
100
AcDbBlockTableRecord
2
*Paper_Space
340
0
70
0
0
BLOCK_RECORD
5
23
100
AcDbSymbolTableRecord
100
AcDbBlockTableRecord
2
*Paper_Space0
340
0
70
0
0
BLOCK_RECORD
5
FA
100
AcDbSymbolTableRecord
100
AcDbBlockTableRecord
2
DimnDraft3D1
340
0
70
0
0
BLOCK_RECORD
5
109
100
AcDbSymbolTableRecord
100
AcDbBlockTableRecord
2
_CLOSED
340
0
70
0
0
BLOCK_RECORD
5
110
100
AcDbSymbolTableRecord
100
AcDbBlockTableRecord
2
DimnDraft3D2
340
0
70
0
0
BLOCK_RECORD
5
11F
100
AcDbSymbolTableRecord
100
AcDbBlockTableRecord
2
DimnDraft3D3
340
0
70
0
0
BLOCK_RECORD
5
12D
100
AcDbSymbolTableRecord
100
AcDbBlockTableRecord
2
DimnDraft3D4
340
0
70
0
0
ENDTAB
0
ENDSEC
0
SECTION
2
BLOCKS
0
BLOCK
5
20
100
AcDbEntity
8
0
100
AcDbBlockBegin
2
*Model_Space
70
0
10
0
20
0
30
0
3
*Model_Space
0
ENDBLK
5
21
100
AcDbEntity
8
0
100
AcDbBlockEnd
0
BLOCK
5
1C
100
AcDbEntity
8
0
100
AcDbBlockBegin
2
*Paper_Space
70
0
10
0
20
0
30
0
3
*Paper_Space
0
ENDBLK
5
1D
100
AcDbEntity
8
0
100
AcDbBlockEnd
0
BLOCK
5
24
100
AcDbEntity
8
0
100
AcDbBlockBegin
2
*Paper_Space0
70
0
10
0
20
0
30
0
3
*Paper_Space0
0
ENDBLK
5
25
100
AcDbEntity
8
0
100
AcDbBlockEnd
0
BLOCK
5
106
100
AcDbEntity
8
0
100
AcDbBlockBegin
2
DimnDraft3D1
70
0
10
0
20
0
30
0
3
DimnDraft3D1
0
MTEXT
5
FB
100
AcDbEntity
8
SK2
62
256
6
ByLayer
370
13
48
1
60
0
100
AcDbMText
10
-142.020074
20
-1.625658
30
0
210
0
220
0
230
1
1
\W0.6740;25
40
4.5
41
0
44
1.084337
50
90
71
7
72
5
7
iso_b_vert
0
LINE
5
FD
100
AcDbEntity
8
SK2
62
256
6
ByLayer
370
13
48
1
60
0
100
AcDbLine
10
-132.732574
20
-12.5625
30
0
11
-144.070074
21
-12.5625
31
0
39
0
210
0
220
0
230
1
0
LINE
5
FE
100
AcDbEntity
8
SK2
62
256
6
ByLayer
370
13
48
1
60
0
100
AcDbLine
10
-132.732574
20
12.4375
30
0
11
-144.070074
21
12.4375
31
0
39
0
210
0
220
0
230
1
0
LINE
5
FF
100
AcDbEntity
8
SK2
62
256
6
ByLayer
370
13
48
1
60
0
100
AcDbLine
10
-140.895074
20
-12.5625
30
0
11
-140.895074
21
12.4375
31
0
39
0
210
0
220
0
230
1
0
LINE
5
100
100
AcDbEntity
8
SK2
62
256
6
ByLayer
370
13
48
1
60
0
100
AcDbLine
10
-140.895074
20
-12.5625
30
0
11
-141.745813
21
-9.387503
31
0
39
0
210
0
220
0
230
1
0
LINE
5
101
100
AcDbEntity
8
SK2
62
256
6
ByLayer
370
13
48
1
60
0
100
AcDbLine
10
-140.895074
20
-12.5625
30
0
11
-140.044336
21
-9.387497
31
0
39
0
210
0
220
0
230
1
0
LINE
5
102
100
AcDbEntity
8
SK2
62
256
6
ByLayer
370
13
48
1
60
0
100
AcDbLine
10
-141.745813
20
-9.387503
30
0
11
-140.044336
21
-9.387497
31
0
39
0
210
0
220
0
230
1
0
LINE
5
103
100
AcDbEntity
8
SK2
62
256
6
ByLayer
370
13
48
1
60
0
100
AcDbLine
10
-140.895074
20
12.4375
30
0
11
-140.044336
21
9.262503
31
0
39
0
210
0
220
0
230
1
0
LINE
5
104
100
AcDbEntity
8
SK2
62
256
6
ByLayer
370
13
48
1
60
0
100
AcDbLine
10
-140.895074
20
12.4375
30
0
11
-141.745813
21
9.262497
31
0
39
0
210
0
220
0
230
1
0
LINE
5
105
100
AcDbEntity
8
SK2
62
256
6
ByLayer
370
13
48
1
60
0
100
AcDbLine
10
-140.044336
20
9.262503
30
0
11
-141.745813
21
9.262497
31
0
39
0
210
0
220
0
230
1
0
ENDBLK
5
107
100
AcDbEntity
8
0
100
AcDbBlockEnd
0
BLOCK
5
10A
100
AcDbEntity
8
0
100
AcDbBlockBegin
2
_CLOSED
70
0
10
0
20
0
30
0
3
_CLOSED
0
LINE
5
10C
100
AcDbEntity
8
0
62
256
6
ByLayer
370
-2
48
1
60
0
100
AcDbLine
10
-1
20
0.166667
30
0
11
0
21
0
31
0
39
0
210
0
220
0
230
1
0
LINE
5
10D
100
AcDbEntity
8
0
62
256
6
ByLayer
370
-2
48
1
60
0
100
AcDbLine
10
0
20
0
30
0
11
-1
21
-0.166667
31
0
39
0
210
0
220
0
230
1
0
LINE
5
10E
100
AcDbEntity
8
0
62
256
6
ByLayer
370
-2
48
1
60
0
100
AcDbLine
10
-1
20
0.166667
30
0
11
-1
21
-0.166667
31
0
39
0
210
0
220
0
230
1
0
LINE
5
10F
100
AcDbEntity
8
0
62
256
6
ByLayer
370
-2
48
1
60
0
100
AcDbLine
10
0
20
0
30
0
11
-1
21
0
31
0
39
0
210
0
220
0
230
1
0
ENDBLK
5
10B
100
AcDbEntity
8
0
100
AcDbBlockEnd
0
BLOCK
5
11C
100
AcDbEntity
8
0
100
AcDbBlockBegin
2
DimnDraft3D2
70
0
10
0
20
0
30
0
3
DimnDraft3D2
0
MTEXT
5
111
100
AcDbEntity
8
2
62
256
6
ByLayer
370
13
48
1
60
0
100
AcDbMText
10
58.832723
20
-5.300658
30
0
210
0
220
0
230
1
1
\W0.6740;32
40
4.5
41
0
44
1.084337
50
90
71
7
72
5
7
iso_b_vert
0
LINE
5
113
100
AcDbEntity
8
2
62
256
6
ByLayer
370
13
48
1
60
0
100
AcDbLine
10
21.792426
20
-19.9125
30
0
11
63.132723
21
-19.9125
31
0
39
0
210
0
220
0
230
1
0
LINE
5
114
100
AcDbEntity
8
2
62
256
6
ByLayer
370
13
48
1
60
0
100
AcDbLine
10
1.5875
20
12.4375
30
0
11
63.132723
21
12.4375
31
0
39
0
210
0
220
0
230
1
0
LINE
5
115
100
AcDbEntity
8
2
62
256
6
ByLayer
370
13
48
1
60
0
100
AcDbLine
10
59.957723
20
-19.9125
30
0
11
59.957723
21
12.4375
31
0
39
0
210
0
220
0
230
1
0
LINE
5
116
100
AcDbEntity
8
2
62
256
6
ByLayer
370
13
48
1
60
0
100
AcDbLine
10
59.957723
20
-19.9125
30
0
11
59.106984
21
-16.737503
31
0
39
0
210
0
220
0
230
1
0
LINE
5
117
100
AcDbEntity
8
2
62
256
6
ByLayer
370
13
48
1
60
0
100
AcDbLine
10
59.957723
20
-19.9125
30
0
11
60.808462
21
-16.737497
31
0
39
0
210
0
220
0
230
1
0
LINE
5
118
100
AcDbEntity
8
2
62
256
6
ByLayer
370
13
48
1
60
0
100
AcDbLine
10
59.106984
20
-16.737503
30
0
11
60.808462
21
-16.737497
31
0
39
0
210
0
220
0
230
1
0
LINE
5
119
100
AcDbEntity
8
2
62
256
6
ByLayer
370
13
48
1
60
0
100
AcDbLine
10
59.957723
20
12.4375
30
0
11
60.808462
21
9.262503
31
0
39
0
210
0
220
0
230
1
0
LINE
5
11A
100
AcDbEntity
8
2
62
256
6
ByLayer
370
13
48
1
60
0
100
AcDbLine
10
59.957723
20
12.4375
30
0
11
59.106984
21
9.262497
31
0
39
0
210
0
220
0
230
1
0
LINE
5
11B
100
AcDbEntity
8
2
62
256
6
ByLayer
370
13
48
1
60
0
100
AcDbLine
10
60.808462
20
9.262503
30
0
11
59.106984
21
9.262497
31
0
39
0
210
0
220
0
230
1
0
ENDBLK
5
11D
100
AcDbEntity
8
0
100
AcDbBlockEnd
0
BLOCK
5
12A
100
AcDbEntity
8
0
100
AcDbBlockBegin
2
DimnDraft3D3
70
0
10
0
20
0
30
0
3
DimnDraft3D3
0
MTEXT
5
120
100
AcDbEntity
8
SK2
62
256
6
ByLayer
370
13
48
1
60
0
100
AcDbMText
10
-58.152311
20
-35.2875
30
0
210
0
220
0
230
1
1
\W0.6217;150
40
4.5
41
0
44
1.084337
50
0
71
7
72
5
7
iso_b_vert
0
LINE
5
121
100
AcDbEntity
8
SK2
62
256
6
ByLayer
370
13
48
1
60
0
100
AcDbLine
10
-131.145074
20
-14.15
30
0
11
-131.145074
21
-39.5875
31
0
39
0
210
0
220
0
230
1
0
LINE
5
122
100
AcDbEntity
8
SK2
62
256
6
ByLayer
370
13
48
1
60
0
100
AcDbLine
10
20.204926
20
-21.5
30
0
11
20.204926
21
-39.5875
31
0
39
0
210
0
220
0
230
1
0
LINE
5
123
100
AcDbEntity
8
SK2
62
256
6
ByLayer
370
13
48
1
60
0
100
AcDbLine
10
-131.145074
20
-36.4125
30
0
11
20.204926
21
-36.4125
31
0
39
0
210
0
220
0
230
1
0
LINE
5
124
100
AcDbEntity
8
SK2
62
256
6
ByLayer
370
13
48
1
60
0
100
AcDbLine
10
-131.145074
20
-36.4125
30
0
11
-127.970077
21
-35.561761
31
0
39
0
210
0
220
0
230
1
0
LINE
5
125
100
AcDbEntity
8
SK2
62
256
6
ByLayer
370
13
48
1
60
0
100
AcDbLine
10
-131.145074
20
-36.4125
30
0
11
-127.970071
21
-37.263239
31
0
39
0
210
0
220
0
230
1
0
LINE
5
126
100
AcDbEntity
8
SK2
62
256
6
ByLayer
370
13
48
1
60
0
100
AcDbLine
10
-127.970077
20
-35.561761
30
0
11
-127.970071
21
-37.263239
31
0
39
0
210
0
220
0
230
1
0
LINE
5
127
100
AcDbEntity
8
SK2
62
256
6
ByLayer
370
13
48
1
60
0
100
AcDbLine
10
20.204926
20
-36.4125
30
0
11
17.029929
21
-37.263239
31
0
39
0
210
0
220
0
230
1
0
LINE
5
128
100
AcDbEntity
8
SK2
62
256
6
ByLayer
370
13
48
1
60
0
100
AcDbLine
10
20.204926
20
-36.4125
30
0
11
17.029923
21
-35.561761
31
0
39
0
210
0
220
0
230
1
0
LINE
5
129
100
AcDbEntity
8
SK2
62
256
6
ByLayer
370
13
48
1
60
0
100
AcDbLine
10
17.029929
20
-37.263239
30
0
11
17.029923
21
-35.561761
31
0
39
0
210
0
220
0
230
1
0
ENDBLK
5
12B
100
AcDbEntity
8
0
100
AcDbBlockEnd
0
BLOCK
5
139
100
AcDbEntity
8
0
100
AcDbBlockBegin
2
DimnDraft3D4
70
0
10
0
20
0
30
0
3
DimnDraft3D4
0
MTEXT
5
12E
100
AcDbEntity
8
2
62
256
6
ByLayer
370
13
48
1
60
0
100
AcDbMText
10
33.492222
20
-38.561941
30
0
210
0
220
0
230
1
1
\W0.8602;45%%d0'
40
4.5
41
0
44
1.084337
50
50.6583307530646
71
7
72
5
7
iso_b_vert
0
LINE
5
12F
100
AcDbEntity
8
2
62
256
6
ByLayer
370
13
48
1
60
0
100
AcDbLine
10
21.792426
20
-19.9125
30
0
11
46.498367
21
-19.9125
31
0
39
0
210
0
220
0
230
1
0
LINE
5
130
100
AcDbEntity
8
2
62
256
6
ByLayer
370
13
48
1
60
0
100
AcDbLine
10
29.580255
20
-10.072203
30
0
11
38.661011
21
-0.991447
31
0
39
0
210
0
220
0
230
1
0
ARC
5
131
100
AcDbEntity
8
2
62
256
6
ByLayer
370
13
48
1
60
0
100
AcDbCircle
39
0
10
19.739958
20
-19.9125
30
0
40
23.5834095392675
210
0
220
0
230
1
100
AcDbArc
50
304.506914
51
0
0
ARC
5
132
100
AcDbEntity
8
2
62
256
6
ByLayer
370
13
48
1
60
0
100
AcDbCircle
39
0
10
19.739958
20
-19.9125
30
0
40
23.5834095392675
210
0
220
0
230
1
100
AcDbArc
50
0
51
45
0
LINE
5
133
100
AcDbEntity
8
2
62
256
6
ByLayer
370
13
48
1
60
0
100
AcDbLine
10
43.323367
20
-19.9125
30
0
11
42.366429
21
-16.767881
31
0
39
0
210
0
220
0
230
1
0
LINE
5
134
100
AcDbEntity
8
2
62
256
6
ByLayer
370
13
48
1
60
0
100
AcDbLine
10
43.323367
20
-19.9125
30
0
11
44.066945
21
-16.710705
31
0
39
0
210
0
220
0
230
1
0
LINE
5
135
100
AcDbEntity
8
2
62
256
6
ByLayer
370
13
48
1
60
0
100
AcDbLine
10
42.366429
20
-16.767881
30
0
11
44.066945
21
-16.710705
31
0
39
0
210
0
220
0
230
1
0
LINE
5
136
100
AcDbEntity
8
2
62
256
6
ByLayer
370
13
48
1
60
0
100
AcDbLine
10
36.415947
20
-3.236511
30
0
11
39.205742
21
-4.974729
31
0
39
0
210
0
220
0
230
1
0
LINE
5
137
100
AcDbEntity
8
2
62
256
6
ByLayer
370
13
48
1
60
0
100
AcDbLine
10
36.415947
20
-3.236511
30
0
11
37.962875
21
-6.136755
31
0
39
0
210
0
220
0
230
1
0
LINE
5
138
100
AcDbEntity
8
2
62
256
6
ByLayer
370
13
48
1
60
0
100
AcDbLine
10
39.205742
20
-4.974729
30
0
11
37.962875
21
-6.136755
31
0
39
0
210
0
220
0
230
1
0
ENDBLK
5
13A
100
AcDbEntity
8
0
100
AcDbBlockEnd
0
ENDSEC
0
SECTION
2
ENTITIES
0
ARC
5
AE
100
AcDbEntity
8
1
62
256
6
ByLayer
370
18
48
1
60
0
100
AcDbCircle
39
0
10
0
20
-14.0375
30
0
40
1.60000000000019
210
0
220
0
230
-1
100
AcDbArc
50
90
51
165
0
ELLIPSE
5
AF
100
AcDbEntity
8
1
62
256
6
ByLayer
370
18
48
1
60
0
100
AcDbEllipse
10
11.614721
20
-12.895879
30
0
11
-1.46313130705356
21
-1.46313130705365
31
0
210
0
220
0
230
1
40
0.990268
41
0.33693587338325
42
1.57079632679486
0
ELLIPSE
5
B0
100
AcDbEntity
8
1
62
256
6
ByLayer
370
18
48
1
60
0
100
AcDbEllipse
10
13.740816
20
-13.992196
30
0
11
0.106066328164442
21
0.106067725832737
31
0
210
0
220
0
230
-1
40
0.127648
41
3.13000874051112
42
-2.11893574839819
0
ELLIPSE
5
B1
100
AcDbEntity
8
1
62
256
6
ByLayer
370
18
48
1
60
0
100
AcDbEllipse
10
11.599788
20
-12.880946
30
0
11
1.357072470414
21
1.3570724704141
31
0
210
0
220
0
230
1
40
0.990268
41
-2.92757147070525
42
-1.57079632679493
0
ELLIPSE
5
B2
100
AcDbEntity
8
1
62
256
6
ByLayer
370
18
48
1
60
0
100
AcDbEllipse
10
12.337864
20
-13.619023
30
0
11
-1.40266734206883
21
-1.40266734206892
31
0
210
0
220
0
230
1
40
0.990268
41
-0.552066266510457
42
1.57079632679486
0
ELLIPSE
5
B3
100
AcDbEntity
8
1
62
256
6
ByLayer
370
18
48
1
60
0
100
AcDbEllipse
10
0
20
12.444481
30
0
11
1.60000000000017
21
1.61702248813195E-15
31
0
210
0
220
0
230
-1
40
0.004363
41
0.261799387799413
42
1.5707963267949
0
ELLIPSE
5
B4
100
AcDbEntity
8
1
62
256
6
ByLayer
370
18
48
1
60
0
100
AcDbEllipse
10
12.11843
20
-12.975324
30
0
11
-1.43802502630054
21
-1.43802502630064
31
0
210
0
220
0
230
1
40
0.990268
41
-1.57079632679494
42
-0.210033489908385
0
ELLIPSE
5
B5
100
AcDbEntity
8
1
62
256
6
ByLayer
370
18
48
1
60
0
100
AcDbEllipse
10
17.981709
20
-7.695088
30
0
11
1.83847763108497
21
1.83847763108511
31
0
210
0
220
0
230
1
40
0.990268
41
1.22945855459542
42
1.57079632679484
0
ELLIPSE
5
B6
100
AcDbEntity
8
1
62
256
6
ByLayer
370
18
48
1
60
0
100
AcDbEllipse
10
16.030582
20
-9.646215
30
0
11
1.83847763108495
21
1.83847763108509
31
0
210
0
220
0
230
1
40
0.990268
41
1.57079632679486
42
1.91213409899427
0
ELLIPSE
5
B7
100
AcDbEntity
8
1
62
256
6
ByLayer
370
18
48
1
60
0
100
AcDbEllipse
10
7.801865
20
-5.964633
30
0
11
-1.09955104474504
21
-1.09955104474512
31
0
210
0
220
0
230
1
40
0.990268
41
0.101630058428158
42
2.35130521061971
0
ELLIPSE
5
B8
100
AcDbEntity
8
1
62
256
6
ByLayer
370
18
48
1
60
0
100
AcDbEllipse
10
7.801865
20
-5.964633
30
0
11
-1.09955104474504
21
-1.09955104474512
31
0
210
0
220
0
230
1
40
0.990268
41
2.35130456442698
42
2.92366374384679
0
ELLIPSE
5
B9
100
AcDbEntity
8
1
62
256
6
ByLayer
370
18
48
1
60
0
100
AcDbEllipse
10
7.900276
20
-6.063043
30
0
11
1.09955104474504
21
1.09955104474512
31
0
210
0
220
0
230
1
40
0.990268
41
-0.441696413152769
42
-0.18746644814973
0
ELLIPSE
5
BA
100
AcDbEntity
8
1
62
256
6
ByLayer
370
18
48
1
60
0
100
AcDbEllipse
10
7.900276
20
-6.063043
30
0
11
1.09955104474504
21
1.09955104474512
31
0
210
0
220
0
230
1
40
0.990268
41
3.14158897269633
42
-2.97914892075617
0
ELLIPSE
5
BB
100
AcDbEntity
8
1
62
256
6
ByLayer
370
18
48
1
60
0
100
AcDbEllipse
10
11.633283
20
-10.872671
30
0
11
-0.561266007566804
21
-0.561266007566841
31
0
210
0
220
0
230
1
40
0.990268
41
-0.236331114194147
42
-1.80793876115133E-14
0
ELLIPSE
5
BC
100
AcDbEntity
8
1
62
256
6
ByLayer
370
18
48
1
60
0
100
AcDbEllipse
10
19.452772
20
-10.834435
30
0
11
1.82292128189885
21
1.82292128189899
31
0
210
0
220
0
230
1
40
0.990268
41
-3.01139384918243
42
-2.0296462220917
0
ELLIPSE
5
BD
100
AcDbEntity
8
1
62
256
6
ByLayer
370
18
48
1
60
0
100
AcDbEllipse
10
19.452772
20
-10.834435
30
0
11
1.82292128189885
21
1.82292128189899
31
0
210
0
220
0
230
1
40
0.990268
41
-0.765056951285255
42
-0.130258939301668
0
ELLIPSE
5
BE
100
AcDbEntity
8
1
62
256
6
ByLayer
370
18
48
1
60
0
100
AcDbEllipse
10
19.160233
20
-11.263077
30
0
11
1.83847763108495
21
1.8384776310851
31
0
210
0
220
0
230
1
40
0.990268
41
9.57661374041478E-06
42
0.551086961033587
0
ELLIPSE
5
BF
100
AcDbEntity
8
1
62
256
6
ByLayer
370
18
48
1
60
0
100
AcDbEllipse
10
19.592873
20
-10.253357
30
0
11
1.83847763108495
21
1.8384776310851
31
0
210
0
220
0
230
1
40
0.990268
41
3.03406399512691
42
-3.14157565168024
0
ELLIPSE
5
C0
100
AcDbEntity
8
1
62
256
6
ByLayer
370
18
48
1
60
0
100
AcDbEllipse
10
18.707363
20
-10.089027
30
0
11
-2.01525432638159
21
-2.01525432638173
31
0
210
0
220
0
230
1
40
0.990268
41
2.42718123634714
42
2.67081315138582
0
ELLIPSE
5
C1
100
AcDbEntity
8
1
62
256
6
ByLayer
370
18
48
1
60
0
100
AcDbEllipse
10
18.707363
20
-10.089027
30
0
11
-2.01525432638159
21
-2.01525432638173
31
0
210
0
220
0
230
1
40
0.990268
41
0.47078131197548
42
0.727401241103836
0
ELLIPSE
5
C2
100
AcDbEntity
8
1
62
256
6
ByLayer
370
18
48
1
60
0
100
AcDbEllipse
10
19.633706
20
-10.829949
30
0
11
-1.66170093578833
21
-1.66170093578844
31
0
210
0
220
0
230
1
40
0.990268
41
-0.550743400502659
42
-3.90130387127278E-05
0
ELLIPSE
5
C3
100
AcDbEntity
8
1
62
256
6
ByLayer
370
18
48
1
60
0
100
AcDbEllipse
10
18.886962
20
-10.268626
30
0
11
1.96222131779259
21
1.96222131779275
31
0
210
0
220
0
230
1
40
0.990268
41
-2.73570214287653
42
-2.3443026530464
0
ELLIPSE
5
C4
100
AcDbEntity
8
1
62
256
6
ByLayer
370
18
48
1
60
0
100
AcDbEllipse
10
18.886962
20
-10.268626
30
0
11
1.96222131779259
21
1.96222131779275
31
0
210
0
220
0
230
1
40
0.990268
41
-0.729031492611782
42
-0.390599504379728
0
ELLIPSE
5
C5
100
AcDbEntity
8
1
62
256
6
ByLayer
370
18
48
1
60
0
100
AcDbEllipse
10
19.809558
20
-11.191222
30
0
11
-1.66170093578833
21
-1.66170093578844
31
0
210
0
220
0
230
1
40
0.990268
41
-1.55691688150457
42
-0.816730901207808
0
ELLIPSE
5
C6
100
AcDbEntity
8
1
62
256
6
ByLayer
370
18
48
1
60
0
100
AcDbEllipse
10
19.858763
20
-11.240427
30
0
11
1.30814754519506
21
1.30814754519516
31
0
210
0
220
0
230
1
40
0.990268
41
-1.53013767099813
42
-0.84351011171424
0
ELLIPSE
5
C7
100
AcDbEntity
8
1
62
256
6
ByLayer
370
18
48
1
60
0
100
AcDbEllipse
10
19.858763
20
-11.240427
30
0
11
1.30814754519506
21
1.30814754519516
31
0
210
0
220
0
230
1
40
0.990268
41
1.61145498259167
42
2.29808254187555
0
ELLIPSE
5
C8
100
AcDbEntity
8
1
62
256
6
ByLayer
370
18
48
1
60
0
100
AcDbEllipse
10
20.075083
20
-10.735567
30
0
11
1.48492424049169
21
1.48492424049181
31
0
210
0
220
0
230
1
40
0.990268
41
2.54727469876402
42
-1.77932982788658
0
ELLIPSE
5
C9
100
AcDbEntity
8
1
62
256
6
ByLayer
370
18
48
1
60
0
100
AcDbEllipse
10
19.642443
20
-11.745287
30
0
11
1.48492424049169
21
1.48492424049181
31
0
210
0
220
0
230
1
40
0.990268
41
-0.594317954825779
42
1.36226282570321
0
ELLIPSE
5
CA
100
AcDbEntity
8
1
62
256
6
ByLayer
370
18
48
1
60
0
100
AcDbEllipse
10
20.025878
20
-10.686362
30
0
11
-1.83847763108496
21
-1.83847763108508
31
0
210
0
220
0
230
1
40
0.990268
41
-0.618213591092003
42
1.38615846196943
0
ELLIPSE
5
CB
100
AcDbEntity
8
1
62
256
6
ByLayer
370
18
48
1
60
0
100
AcDbEllipse
10
19.593238
20
-11.696082
30
0
11
-1.83847763108496
21
-1.83847763108508
31
0
210
0
220
0
230
1
40
0.990268
41
2.52337906249779
42
-1.75543419162037
0
ELLIPSE
5
CC
100
AcDbEntity
8
1
62
256
6
ByLayer
370
18
48
1
60
0
100
AcDbEllipse
10
19.809558
20
-11.191222
30
0
11
-1.66170093578833
21
-1.66170093578844
31
0
210
0
220
0
230
1
40
0.990268
41
1.58467577208523
42
2.324861752382
0
ELLIPSE
5
CD
100
AcDbEntity
8
1
62
256
6
ByLayer
370
18
48
1
60
0
100
AcDbEllipse
10
8.272758
20
-6.435526
30
0
11
1.09955104474504
21
1.09955104474512
31
0
210
0
220
0
230
1
40
0.990268
41
-2.97914892075617
42
-2.53609151554599
0
ELLIPSE
5
CE
100
AcDbEntity
8
1
62
256
6
ByLayer
370
18
48
1
60
0
100
AcDbEllipse
10
8.272758
20
-6.435526
30
0
11
1.09955104474504
21
1.09955104474512
31
0
210
0
220
0
230
1
40
0.990268
41
1.20964128403023
42
1.65269868924041
0
ELLIPSE
5
CF
100
AcDbEntity
8
1
62
256
6
ByLayer
370
18
48
1
60
0
100
AcDbEllipse
10
8.293917
20
-6.456684
30
0
11
-1.36287119209423
21
-1.36287119209432
31
0
210
0
220
0
230
1
40
0.990268
41
0
42
6.28318530717959
0
ELLIPSE
5
D0
100
AcDbEntity
8
1
62
256
6
ByLayer
370
18
48
1
60
0
100
AcDbEllipse
10
8.272758
20
-6.435526
30
0
11
1.09955104474504
21
1.09955104474512
31
0
210
0
220
0
230
1
40
0.990268
41
-0.88475381836299
42
-0.441696413152782
0
ELLIPSE
5
D1
100
AcDbEntity
8
1
62
256
6
ByLayer
370
18
48
1
60
0
100
AcDbEllipse
10
8.272758
20
-6.435526
30
0
11
1.09955104474504
21
1.09955104474512
31
0
210
0
220
0
230
1
40
0.990268
41
0.162443732833611
42
0.605501138043829
0
ELLIPSE
5
D2
100
AcDbEntity
8
1
62
256
6
ByLayer
370
18
48
1
60
0
100
AcDbEllipse
10
8.272758
20
-6.435526
30
0
11
1.09955104474504
21
1.09955104474512
31
0
210
0
220
0
230
1
40
0.990268
41
-1.93195136955958
42
-1.4888939643494
0
ELLIPSE
5
D3
100
AcDbEntity
8
1
62
256
6
ByLayer
370
18
48
1
60
0
100
AcDbEllipse
10
8.272758
20
-6.435526
30
0
11
1.09955104474504
21
1.09955104474512
31
0
210
0
220
0
230
1
40
0.990268
41
2.25683883522681
42
2.69989624043701
0
ELLIPSE
5
D4
100
AcDbEntity
8
1
62
256
6
ByLayer
370
18
48
1
60
0
100
AcDbEllipse
10
8.293917
20
-6.456684
30
0
11
-2.28749043713841
21
-2.28749043713856
31
0
210
0
220
0
230
1
40
0.990268
41
0
42
6.28318530717959
0
ELLIPSE
5
D5
100
AcDbEntity
8
1
62
256
6
ByLayer
370
18
48
1
60
0
100
AcDbEllipse
10
7.900276
20
-6.063043
30
0
11
1.09955104474504
21
1.09955104474512
31
0
210
0
220
0
230
1
40
0.990268
41
-2.536091515546
42
-1.93195136955955
0
ELLIPSE
5
D6
100
AcDbEntity
8
1
62
256
6
ByLayer
370
18
48
1
60
0
100
AcDbEllipse
10
7.900276
20
-6.063043
30
0
11
1.09955104474504
21
1.09955104474512
31
0
210
0
220
0
230
1
40
0.990268
41
-1.48889396434937
42
-0.88475381836298
0
ELLIPSE
5
D7
100
AcDbEntity
8
1
62
256
6
ByLayer
370
18
48
1
60
0
100
AcDbEllipse
10
8.218633
20
-6.3814
30
0
11
-2.8284271247461
21
-2.82842712474628
31
0
210
0
220
0
230
1
40
0.990268
41
0
42
6.28318530717959
0
ELLIPSE
5
D8
100
AcDbEntity
8
1
62
256
6
ByLayer
370
18
48
1
60
0
100
AcDbEllipse
10
19.959686
20
-3.483626
30
0
11
0.5612660075668
21
0.561266007566844
31
0
210
0
220
0
230
1
40
0.990268
41
0
42
1.57079632679486
0
ELLIPSE
5
D9
100
AcDbEntity
8
1
62
256
6
ByLayer
370
18
48
1
60
0
100
AcDbEllipse
10
19.921451
20
-11.303114
30
0
11
1.82292128189885
21
1.82292128189899
31
0
210
0
220
0
230
1
40
0.990268
41
0
42
6.28318530717959
0
ELLIPSE
5
DA
100
AcDbEntity
8
1
62
256
6
ByLayer
370
18
48
1
60
0
100
AcDbEllipse
10
12.101962
20
-11.34135
30
0
11
0.5612660075668
21
0.561266007566844
31
0
210
0
220
0
230
1
40
0.990268
41
1.57079632679486
42
3.14159265358976
0
ELLIPSE
5
DB
100
AcDbEntity
8
1
62
256
6
ByLayer
370
18
48
1
60
0
100
AcDbEllipse
10
19.883215
20
-19.122603
30
0
11
0.5612660075668
21
0.561266007566844
31
0
210
0
220
0
230
1
40
0.990268
41
3.14159265358976
42
-1.57079632679493
0
ELLIPSE
5
DC
100
AcDbEntity
8
1
62
256
6
ByLayer
370
18
48
1
60
0
100
AcDbEllipse
10
19.491007
20
-3.014947
30
0
11
-0.561266007566804
21
-0.561266007566841
31
0
210
0
220
0
230
1
40
0.990268
41
3.14159265358976
42
-1.57079632679491
0
ELLIPSE
5
DD
100
AcDbEntity
8
1
62
256
6
ByLayer
370
18
48
1
60
0
100
AcDbEllipse
10
27.740939
20
-11.264879
30
0
11
0.5612660075668
21
0.561266007566844
31
0
210
0
220
0
230
1
40
0.990268
41
-1.57079632679493
42
-7.23175504460535E-14
0
POINT
5
6C
100
AcDbEntity
8
80
62
256
6
ByLayer
370
18
48
1
60
0
100
AcDbPoint
10
0
20
0
30
0
39
0
210
0
220
0
230
1
50
360
0
POINT
5
6E
100
AcDbEntity
8
81
62
256
6
ByLayer
370
18
48
1
60
0
100
AcDbPoint
10
18.854926
20
-19.5625
30
0
39
0
210
0
220
0
230
1
50
360
0
POINT
5
70
100
AcDbEntity
8
1
62
256
6
ByLayer
370
18
48
1
60
0
100
AcDbPoint
10
-131.145074
20
12.4375
30
0
39
0
210
0
220
0
230
1
50
360
0
SPLINE
5
DE
100
AcDbEntity
8
1
62
256
6
ByLayer
370
18
48
1
60
0
100
AcDbSpline
70
4
71
2
72
6
73
3
40
0
40
0
40
0
40
1
40
1
40
1
41
1
10
18.0934273073064
20
-12.6006415743725
30
0
41
1
10
18.0396579225744
20
-12.5655122932341
30
0
41
1
10
18.0029521923436
20
-12.5114164852791
30
0
0
SPLINE
5
DF
100
AcDbEntity
8
1
62
256
6
ByLayer
370
18
48
1
60
0
100
AcDbSpline
70
4
71
3
72
10
73
6
40
0
40
0
40
0
40
0
40
0.759748821290401
40
0.759748821290401
40
1
40
1
40
1
40
1
41
1
10
18.5387153675294
20
-12.9044547770622
30
0
41
1
10
18.6503819377849
20
-12.9422706616074
30
0
41
1
10
18.7651252738125
20
-12.971826948359
30
0
41
1
10
18.9203641923767
20
-12.9994967355598
30
0
41
1
10
18.9577573486582
20
-13.0052446267223
30
0
41
1
10
18.9952061558561
20
-13.0101013693786
30
0
0
SPLINE
5
E0
100
AcDbEntity
8
1
62
256
6
ByLayer
370
18
48
1
60
0
100
AcDbSpline
70
4
71
3
72
20
73
16
40
0
40
0
40
0
40
0
40
0.0969941124006984
40
0.0969941124006984
40
0.222682216778637
40
0.222682216778637
40
0.348370321156575
40
0.348370321156575
40
0.599746529912451
40
0.599746529912451
40
0.725434634290389
40
0.725434634290389
40
0.851122738668327
40
0.851122738668327
40
1
40
1
40
1
40
1
41
1
10
21.5753326473966
20
-10.041502833731
30
0
41
1
10
21.5619810337588
20
-9.99810270430663
30
0
41
1
10
21.5474670049403
20
-9.95496067017159
30
0
41
1
10
21.5113905052509
20
-9.85660850836379
30
0
41
1
10
21.4890167775449
20
-9.80159282749747
30
0
41
1
10
21.4400700142455
20
-9.69268014306294
30
0
41
1
10
21.4134023138345
20
-9.6386365909552
30
0
41
1
10
21.3281878512722
20
-9.48082194354799
30
0
41
1
10
21.2641712698176
20
-9.38059184573598
30
0
41
1
10
21.1572411721776
20
-9.23776560335787
30
0
41
1
10
21.1197740952632
20
-9.19141436653845
30
0
41
1
10
21.0410936527379
20
-9.10129327482935
30
0
41
1
10
20.999812836259
20
-9.05748712806482
30
0
41
1
10
20.90699649354
20
-8.96620734503796
30
0
41
1
10
20.8547622817799
20
-8.91926776925118
30
0
41
1
10
20.800632371331
20
-8.87485796112165
30
0
0
SPLINE
5
E1
100
AcDbEntity
8
1
62
256
6
ByLayer
370
18
48
1
60
0
100
AcDbSpline
70
4
71
3
72
20
73
16
40
0
40
0
40
0
40
0
40
0.0300112147584285
40
0.0300112147584285
40
0.19167601229869
40
0.19167601229869
40
0.353340809838952
40
0.353340809838952
40
0.676670404919478
40
0.676670404919478
40
0.75750280368961
40
0.75750280368961
40
0.838335202459741
40
0.838335202459741
40
1
40
1
40
1
40
1
41
1
10
17.345161958068
20
-11.3735793920913
30
0
41
1
10
17.3484681744112
20
-11.3830119126373
30
0
41
1
10
17.3518225212159
20
-11.392391339336
30
0
41
1
10
17.3735449280527
20
-11.4519522402735
30
0
41
1
10
17.3932196728859
20
-11.500614683284
30
0
41
1
10
17.4346607132069
20
-11.5943190218827
30
0
41
1
10
17.4564143372203
20
-11.639284799758
30
0
41
1
10
17.522223391776
20
-11.7655615603032
30
0
41
1
10
17.5682844574816
20
-11.8401134629871
30
0
41
1
10
17.6129250078028
20
-11.907325416738
30
0
41
1
10
17.6211708969423
20
-11.919464417872
30
0
41
1
10
17.6356081173807
20
-11.9405470819905
30
0
41
1
10
17.6417644535684
20
-11.9494421024046
30
0
41
1
10
17.6553156011403
20
-11.969426251832
30
0
41
1
10
17.6578504771662
20
-11.9740528115918
30
0
41
1
10
17.6512401232204
20
-11.9674424576461
30
0
0
SPLINE
5
E2
100
AcDbEntity
8
1
62
256
6
ByLayer
370
18
48
1
60
0
100
AcDbSpline
70
4
71
3
72
8
73
4
40
0
40
0
40
0
40
0
40
1
40
1
40
1
40
1
41
1
10
17.6431301100485
20
-12.4494710041814
30
0
41
1
10
17.773550413307
20
-12.5120595551735
30
0
41
1
10
17.9001283179655
20
-12.5732385018222
30
0
41
1
10
18.0208786050183
20
-12.6322795559868
30
0
0
SPLINE
5
E3
100
AcDbEntity
8
1
62
256
6
ByLayer
370
18
48
1
60
0
100
AcDbSpline
70
4
71
3
72
8
73
4
40
0
40
0
40
0
40
0
40
1
40
1
40
1
40
1
41
1
10
18.0213957939312
20
-11.1424899678861
30
0
41
1
10
17.8383038722777
20
-11.1380120949966
30
0
41
1
10
17.6553639836119
20
-11.1336679064263
30
0
41
1
10
17.4724992443613
20
-11.1293895318348
30
0
0
SPLINE
5
E4
100
AcDbEntity
8
1
62
256
6
ByLayer
370
18
48
1
60
0
100
AcDbSpline
70
4
71
3
72
8
73
4
40
0
40
0
40
0
40
0
40
1
40
1
40
1
40
1
41
1
10
18.5387153675294
20
-12.9044547770622
30
0
41
1
10
18.4096348190294
20
-12.8383409544819
30
0
41
1
10
18.2890483522659
20
-12.7610678518021
30
0
41
1
10
18.177049283578
20
-12.6736331323692
30
0
0
SPLINE
5
E5
100
AcDbEntity
8
1
62
256
6
ByLayer
370
18
48
1
60
0
100
AcDbSpline
70
4
71
3
72
8
73
4
40
0
40
0
40
0
40
0
40
1
40
1
40
1
40
1
41
1
10
18.1411245260458
20
-9.56891364421841
30
0
41
1
10
18.2643591632276
20
-9.71236015827982
30
0
41
1
10
18.3876970505582
20
-9.8558069032222
30
0
41
1
10
18.5112442623311
20
-9.99925362241314
30
0
0
SPLINE
5
E6
100
AcDbEntity
8
1
62
256
6
ByLayer
370
18
48
1
60
0
100
AcDbSpline
70
4
71
3
72
20
73
16
40
0
40
0
40
0
40
0
40
0.25
40
0.25
40
0.499999999999999
40
0.499999999999999
40
0.625
40
0.625
40
0.750000000000001
40
0.750000000000001
40
0.812500000000001
40
0.812500000000001
40
0.875000000000002
40
0.875000000000002
40
1
40
1
40
1
40
1
41
1
10
18.1770492835784
20
-12.6736331323695
30
0
41
1
10
18.093358702909
20
-12.6082981030186
30
0
41
1
10
18.0164291892031
20
-12.5384788887924
30
0
41
1
10
17.8761152304021
20
-12.3919445457325
30
0
41
1
10
17.8126949746327
20
-12.3151326235693
30
0
41
1
10
17.728825400518
20
-12.1974134501226
30
0
41
1
10
17.7028607744715
20
-12.1578824668683
30
0
41
1
10
17.6561140527805
20
-12.0807908214338
30
0
41
1
10
17.6351356605481
20
-12.0428662483152
30
0
41
1
10
17.6087990558744
20
-11.9908059241212
30
0
41
1
10
17.6008502219244
20
-11.974225711227
30
0
41
1
10
17.5869158337579
20
-11.9434832742508
30
0
41
1
10
17.5809383841798
20
-11.9293189958849
30
0
41
1
10
17.567325466639
20
-11.894088376561
30
0
41
1
10
17.5640006058955
20
-11.8802029403202
30
0
41
1
10
17.5696256759104
20
-11.8858280103351
30
0
0
SPLINE
5
E7
100
AcDbEntity
8
1
62
256
6
ByLayer
370
18
48
1
60
0
100
AcDbSpline
70
4
71
3
72
8
73
4
40
0
40
0
40
0
40
0
40
1
40
1
40
1
40
1
41
1
10
22.1466170661944
20
-11.2530540280801
30
0
41
1
10
21.9965765660249
20
-11.2815998925696
30
0
41
1
10
21.846445447991
20
-11.3100644746312
30
0
41
1
10
21.6961307600722
20
-11.3383638354764
30
0
0
SPLINE
5
E8
100
AcDbEntity
8
1
62
256
6
ByLayer
370
18
48
1
60
0
100
AcDbSpline
70
4
71
3
72
16
73
12
40
0
40
0
40
0
40
0
40
0.250000000000001
40
0.250000000000001
40
0.500000000000001
40
0.500000000000001
40
0.750000000000002
40
0.750000000000002
40
0.875000000000001
40
0.875000000000001
40
1
40
1
40
1
40
1
41
1
10
18.0208786050179
20
-12.6322795559861
30
0
41
1
10
18.0724954685778
20
-12.664955088488
30
0
41
1
10
18.124145341742
20
-12.6953180799879
30
0
41
1
10
18.2261691525944
20
-12.751615980391
30
0
41
1
10
18.2765602827781
20
-12.7775187843963
30
0
41
1
10
18.3709401908043
20
-12.8238516420262
30
0
41
1
10
18.4158030881923
20
-12.8446878311168
30
0
41
1
10
18.4721860465372
20
-12.8710272966505
30
0
41
1
10
18.4891452097438
20
-12.8789940546561
30
0
41
1
10
18.5182244762636
20
-12.8932160958267
30
0
41
1
10
18.530209043504
20
-12.8994217702694
30
0
41
1
10
18.5387153675294
20
-12.9044547770622
30
0
0
SPLINE
5
E9
100
AcDbEntity
8
1
62
256
6
ByLayer
370
18
48
1
60
0
100
AcDbSpline
70
4
71
3
72
8
73
4
40
0
40
0
40
0
40
0
40
1
40
1
40
1
40
1
41
1
10
21.2062822916723
20
-12.4816001809493
30
0
41
1
10
21.2970522697106
20
-12.5922696664057
30
0
41
1
10
21.3875813864092
20
-12.7029076407161
30
0
41
1
10
21.4779917845099
20
-12.8135299156964
30
0
0
SPLINE
5
EA
100
AcDbEntity
8
1
62
256
6
ByLayer
370
18
48
1
60
0
100
AcDbSpline
70
4
71
3
72
10
73
6
40
0
40
0
40
0
40
0
40
0.5
40
0.5
40
1
40
1
40
1
40
1
41
1
10
9.68121007054839
20
-5.39083518102905
30
0
41
1
10
9.59893585686211
20
-5.35480520068228
30
0
41
1
10
9.51608528249369
20
-5.31867825142388
30
0
41
1
10
9.34886046214615
20
-5.2461680051332
30
0
41
1
10
9.26501405980008
20
-5.21001630134978
30
0
41
1
10
9.18173385975854
20
-5.17435024280732
30
0
0
SPLINE
5
EB
100
AcDbEntity
8
1
62
256
6
ByLayer
370
18
48
1
60
0
100
AcDbSpline
70
4
71
3
72
8
73
4
40
0
40
0
40
0
40
0
40
1
40
1
40
1
40
1
41
1
10
9.73223797508024
20
-5.90695587206221
30
0
41
1
10
9.71327385515417
20
-5.72916921160757
30
0
41
1
10
9.69656062427146
20
-5.55799931743226
30
0
41
1
10
9.68121007054839
20
-5.39083518102905
30
0
0
SPLINE
5
EC
100
AcDbEntity
8
1
62
256
6
ByLayer
370
18
48
1
60
0
100
AcDbSpline
70
4
71
3
72
8
73
4
40
0
40
0
40
0
40
0
40
1
40
1
40
1
40
1
41
1
10
7.09760291885686
20
-5.44028058223893
30
0
41
1
10
6.95437355918853
20
-5.55251123880555
30
0
41
1
10
6.81681101919662
20
-5.66338636755381
30
0
41
1
10
6.6826791439741
20
-5.77344086642572
30
0
0
SPLINE
5
ED
100
AcDbEntity
8
1
62
256
6
ByLayer
370
18
48
1
60
0
100
AcDbSpline
70
4
71
3
72
10
73
6
40
0
40
0
40
0
40
0
40
0.5
40
0.5
40
1
40
1
40
1
40
1
41
1
10
8.48791059723607
20
-8.17582567692787
30
0
41
1
10
8.55535938224136
20
-8.1204843032167
30
0
41
1
10
8.62408625830767
20
-8.0646083940357
30
0
41
1
10
8.76256098849939
20
-7.95333166987467
30
0
41
1
10
8.83236292182266
20
-7.89788491724539
30
0
41
1
10
8.90283437211883
20
-7.84266539274108
30
0
0
SPLINE
5
EE
100
AcDbEntity
8
1
62
256
6
ByLayer
370
18
48
1
60
0
100
AcDbSpline
70
4
71
3
72
10
73
6
40
0
40
0
40
0
40
0
40
0.5
40
0.5
40
1
40
1
40
1
40
1
41
1
10
8.07995594393628
20
-4.71757547266054
30
0
41
1
10
8.00752548306917
20
-4.76793517050984
30
0
41
1
10
7.93430821787706
20
-4.81932069056504
30
0
41
1
10
7.78827280934445
20
-4.9230367363852
30
0
41
1
10
7.71539480870001
20
-4.97540742169329
30
0
41
1
10
7.64268248147005
20
-5.02838606926378
30
0
0
SPLINE
5
EF
100
AcDbEntity
8
1
62
256
6
ByLayer
370
18
48
1
60
0
100
AcDbSpline
70
4
71
3
72
8
73
4
40
0
40
0
40
0
40
0
40
1
40
1
40
1
40
1
41
1
10
6.81327887850864
20
-6.96409558994264
30
0
41
1
10
6.83679745796366
20
-7.14643670992632
30
0
41
1
10
6.86139911835659
20
-7.32549503361184
30
0
41
1
10
6.88665647062396
20
-7.5025659685594
30
0
0
SPLINE
5
F0
100
AcDbEntity
8
1
62
256
6
ByLayer
370
18
48
1
60
0
100
AcDbSpline
70
4
71
3
72
10
73
6
40
0
40
0
40
0
40
0
40
0.5
40
0.5
40
1
40
1
40
1
40
1
41
1
10
8.48791059723612
20
-8.17582567692787
30
0
41
1
10
8.40563638354979
20
-8.13979569658113
30
0
41
1
10
8.32278580918137
20
-8.10366874732273
30
0
41
1
10
8.15556098883377
20
-8.03115850103205
30
0
41
1
10
8.0717145864877
20
-7.99500679724864
30
0
41
1
10
7.98843438644622
20
-7.95934073870615
30
0
0
SPLINE
5
F1
100
AcDbEntity
8
1
62
256
6
ByLayer
370
18
48
1
60
0
100
AcDbSpline
70
4
71
3
72
10
73
6
40
0
40
0
40
0
40
0
40
0.5
40
0.5
40
1
40
1
40
1
40
1
41
1
10
7.36378299383034
20
-7.69670121919756
30
0
41
1
10
7.28223717948777
20
-7.66306899191983
30
0
41
1
10
7.2009109786452
20
-7.62978211623997
30
0
41
1
10
7.04188750777212
20
-7.56511307900556
30
0
41
1
10
6.96375024097722
20
-7.53354759738198
30
0
41
1
10
6.88665647062396
20
-7.5025659685594
30
0
0
SPLINE
5
F2
100
AcDbEntity
8
1
62
256
6
ByLayer
370
18
48
1
60
0
100
AcDbSpline
70
4
71
3
72
10
73
6
40
0
40
0
40
0
40
0
40
0.5
40
0.5
40
1
40
1
40
1
40
1
41
1
10
9.88518739719825
20
-7.1199602831627
30
0
41
1
10
9.8724866299865
20
-7.030919409007
30
0
41
1
10
9.85988078731566
20
-6.94084652784781
30
0
41
1
10
9.83533376200853
20
-6.76102604305515
30
0
41
1
10
9.82338137397733
20
-6.67120505235945
30
0
41
1
10
9.81180980508293
20
-6.58148990454598
30
0
0
SPLINE
5
F3
100
AcDbEntity
8
1
62
256
6
ByLayer
370
18
48
1
60
0
100
AcDbSpline
70
4
71
3
72
10
73
6
40
0
40
0
40
0
40
0
40
0.5
40
0.5
40
1
40
1
40
1
40
1
41
1
10
6.6826791439741
20
-5.77344086642572
30
0
41
1
10
6.69039823532404
20
-5.85750006471955
30
0
41
1
10
6.69851368886907
20
-5.94308255675293
30
0
41
1
10
6.71550003583531
20
-6.11534236320472
30
0
41
1
10
6.72437635654535
20
-6.20208728657923
30
0
41
1
10
6.73370704850595
20
-6.28956155745891
30
0
0
SPLINE
5
F4
100
AcDbEntity
8
1
62
256
6
ByLayer
370
18
48
1
60
0
100
AcDbSpline
70
4
71
3
72
10
73
6
40
0
40
0
40
0
40
0
40
0.5
40
0.5
40
1
40
1
40
1
40
1
41
1
10
8.55708246714261
20
-4.91171072329871
30
0
41
1
10
8.47553665280003
20
-4.87807849602098
30
0
41
1
10
8.39421045195752
20
-4.84479162034111
30
0
41
1
10
8.23518698108444
20
-4.7801225831067
30
0
41
1
10
8.15704971428954
20
-4.74855710148313
30
0
41
1
10
8.07995594393628
20
-4.71757547266054
30
0
0
SPLINE
5
F5
100
AcDbEntity
8
1
62
256
6
ByLayer
370
18
48
1
60
0
100
AcDbSpline
70
4
71
3
72
8
73
4
40
0
40
0
40
0
40
0
40
1
40
1
40
1
40
1
41
1
10
9.44791393473201
20
-7.43077087976593
30
0
41
1
10
9.59569775392936
20
-7.32309468272834
30
0
41
1
10
9.74114872343148
20
-7.22010798349029
30
0
41
1
10
9.88518739719825
20
-7.1199602831627
30
0
0
LINE
5
72
100
AcDbEntity
8
1
62
256
6
ByLayer
370
18
48
1
60
0
100
AcDbLine
10
11.04706
20
-3.552973
30
0
11
11.006067
21
-3.51198
31
0
39
0
210
0
220
0
230
1
0
LINE
5
73
100
AcDbEntity
8
1
62
256
6
ByLayer
370
18
48
1
60
0
100
AcDbLine
10
5.349213
20
-9.168834
30
0
11
5.390206
21
-9.209827
31
0
39
0
210
0
220
0
230
1
0
LINE
5
74
100
AcDbEntity
8
1
62
256
6
ByLayer
370
18
48
1
60
0
100
AcDbLine
10
21.431716
20
-9.857604
30
0
11
20.998711
21
-9.424599
31
0
39
0
210
0
220
0
230
1
0
LINE
5
75
100
AcDbEntity
8
1
62
256
6
ByLayer
370
18
48
1
60
0
100
AcDbLine
10
17.972005
20
-12.49165
30
0
11
17.980293
21
-12.499937
31
0
39
0
210
0
220
0
230
1
0
LINE
5
76
100
AcDbEntity
8
1
62
256
6
ByLayer
370
18
48
1
60
0
100
AcDbLine
10
20.971555
20
-9.029817
30
0
11
20.84091
21
-8.899172
31
0
39
0
210
0
220
0
230
1
0
LINE
5
77
100
AcDbEntity
8
1
62
256
6
ByLayer
370
18
48
1
60
0
100
AcDbLine
10
17.754395
20
-12.091834
30
0
11
18.1874
21
-12.52484
31
0
39
0
210
0
220
0
230
1
0
LINE
5
78
100
AcDbEntity
8
1
62
256
6
ByLayer
370
18
48
1
60
0
100
AcDbLine
10
16.329078
20
-18.012704
30
0
11
17.650741
21
-18.012704
31
0
39
0
210
0
220
0
230
1
0
LINE
5
79
100
AcDbEntity
8
1
62
256
6
ByLayer
370
18
48
1
60
0
100
AcDbLine
10
14.181162
20
-14.553758
30
0
11
15.398051
21
-15.75997
31
0
39
0
210
0
220
0
230
1
0
LINE
5
7A
100
AcDbEntity
8
1
62
256
6
ByLayer
370
18
48
1
60
0
100
AcDbLine
10
16.98989
20
-17.351828
30
0
11
16.329015
21
-18.012704
31
0
39
0
210
0
220
0
230
1
0
LINE
5
7B
100
AcDbEntity
8
1
62
256
6
ByLayer
370
18
48
1
60
0
100
AcDbLine
10
13.523224
20
-13.885161
30
0
11
13.063613
21
-14.344772
31
0
39
0
210
0
220
0
230
1
0
LINE
5
7C
100
AcDbEntity
8
1
62
256
6
ByLayer
370
18
48
1
60
0
100
AcDbLine
10
12.943653
20
-14.224812
30
0
11
13.403274
21
-13.765191
31
0
39
0
210
0
220
0
230
1
0
LINE
5
7D
100
AcDbEntity
8
1
62
256
6
ByLayer
370
18
48
1
60
0
100
AcDbLine
10
4.010043
20
12.457178
30
0
11
2.476994
21
12.457843
31
0
39
0
210
0
220
0
230
1
0
LINE
5
7E
100
AcDbEntity
8
1
62
256
6
ByLayer
370
18
48
1
60
0
100
AcDbLine
10
13.634914
20
-14.098414
30
0
11
14.181162
21
-14.553758
31
0
39
0
210
0
220
0
230
1
0
LINE
5
7F
100
AcDbEntity
8
1
62
256
6
ByLayer
370
18
48
1
60
0
100
AcDbLine
10
16.161123
20
-5.874502
30
0
11
14.209996
21
-7.82563
31
0
39
0
210
0
220
0
230
1
0
LINE
5
80
100
AcDbEntity
8
1
62
256
6
ByLayer
370
18
48
1
60
0
100
AcDbLine
10
14.181162
20
-14.553758
30
0
11
13.726881
21
-15.00804
31
0
39
0
210
0
220
0
230
1
0
LINE
5
81
100
AcDbEntity
8
1
62
256
6
ByLayer
370
18
48
1
60
0
100
AcDbLine
10
1.778005
20
-14.491181
30
0
11
2.476994
21
12.457843
31
0
39
0
210
0
220
0
230
1
0
LINE
5
82
100
AcDbEntity
8
1
62
256
6
ByLayer
370
18
48
1
60
0
100
AcDbLine
10
1.545481
20
-13.62339
30
0
11
1.778005
21
-14.491181
31
0
39
0
210
0
220
0
230
1
0
LINE
5
83
100
AcDbEntity
8
1
62
256
6
ByLayer
370
18
48
1
60
0
100
AcDbLine
10
0
20
-12.4375
30
0
11
0
21
12.4375
31
0
39
0
210
0
220
0
230
1
0
LINE
5
84
100
AcDbEntity
8
1
62
256
6
ByLayer
370
18
48
1
60
0
100
AcDbLine
10
19.356458
20
-2.889236
30
0
11
16.881584
21
-5.36411
31
0
39
0
210
0
220
0
230
1
0
LINE
5
85
100
AcDbEntity
8
1
62
256
6
ByLayer
370
18
48
1
60
0
100
AcDbLine
10
13.699603
20
-8.54609
30
0
11
10.694399
21
-11.551294
31
0
39
0
210
0
220
0
230
1
0
LINE
5
86
100
AcDbEntity
8
1
62
256
6
ByLayer
370
18
48
1
60
0
100
AcDbLine
10
1.545481
20
12.442674
30
0
11
2.476994
21
12.457843
31
0
39
0
210
0
220
0
230
1
0
LINE
5
87
100
AcDbEntity
8
1
62
256
6
ByLayer
370
18
48
1
60
0
100
AcDbLine
10
13.063613
20
-14.344772
30
0
11
13.726881
21
-15.00804
31
0
39
0
210
0
220
0
230
1
0
LINE
5
88
100
AcDbEntity
8
1
62
256
6
ByLayer
370
18
48
1
60
0
100
AcDbLine
10
12.943653
20
-14.224812
30
0
11
13.063613
21
-14.344772
31
0
39
0
210
0
220
0
230
1
0
LINE
5
89
100
AcDbEntity
8
1
62
256
6
ByLayer
370
18
48
1
60
0
100
AcDbLine
10
4.010043
20
12.457178
30
0
11
19.356458
21
-2.889236
31
0
39
0
210
0
220
0
230
1
0
LINE
5
8A
100
AcDbEntity
8
1
62
256
6
ByLayer
370
18
48
1
60
0
100
AcDbLine
10
1.545481
20
12.442674
30
0
11
1.545481
21
-13.62339
31
0
39
0
210
0
220
0
230
1
0
LINE
5
8B
100
AcDbEntity
8
1
62
256
6
ByLayer
370
18
48
1
60
0
100
AcDbLine
10
16.329015
20
-18.012704
30
0
11
2.721595
21
-18.012704
31
0
39
0
210
0
220
0
230
1
0
LINE
5
8C
100
AcDbEntity
8
1
62
256
6
ByLayer
370
18
48
1
60
0
100
AcDbLine
10
2.721595
20
-18.012704
30
0
11
1.778005
21
-14.491181
31
0
39
0
210
0
220
0
230
1
0
LINE
5
8D
100
AcDbEntity
8
SK1
62
256
6
ByLayer
370
18
48
1
60
0
100
AcDbLine
10
0
20
-12.4375
30
0
11
0
21
12.4375
31
0
39
0
210
0
220
0
230
1
0
LINE
5
8F
100
AcDbEntity
8
SK1
62
256
6
ByLayer
370
18
48
1
60
0
100
AcDbLine
10
-131.145074
20
-12.4375
30
0
11
0
21
-12.4375
31
0
39
0
210
0
220
0
230
1
0
LINE
5
90
100
AcDbEntity
8
SK1
62
256
6
ByLayer
370
18
48
1
60
0
100
AcDbLine
10
-131.145074
20
12.4375
30
0
11
-131.145074
21
-12.4375
31
0
39
0
210
0
220
0
230
1
0
LINE
5
91
100
AcDbEntity
8
SK1
62
256
6
ByLayer
370
18
48
1
60
0
100
AcDbLine
10
-131.145074
20
12.4375
30
0
11
0
21
12.4375
31
0
39
0
210
0
220
0
230
1
0
LINE
5
92
100
AcDbEntity
8
1
62
256
6
ByLayer
370
18
48
1
60
0
100
AcDbLine
10
6.854515
20
-7.266706
30
0
11
6.9913
21
-7.324218
31
0
39
0
210
0
220
0
230
1
0
LINE
5
93
100
AcDbEntity
8
1
62
256
6
ByLayer
370
18
48
1
60
0
100
AcDbLine
10
9.324528
20
-5.235851
30
0
11
9.359755
21
-5.534473
31
0
39
0
210
0
220
0
230
1
0
LINE
5
94
100
AcDbEntity
8
1
62
256
6
ByLayer
370
18
48
1
60
0
100
AcDbLine
10
11.50315
20
-10.742537
30
0
11
11.546158
21
-10.785546
31
0
39
0
210
0
220
0
230
1
0
LINE
5
95
100
AcDbEntity
8
1
62
256
6
ByLayer
370
18
48
1
60
0
100
AcDbLine
10
18.930783
20
-2.463563
30
0
11
18.935203
21
-2.459143
31
0
39
0
210
0
220
0
230
1
0
LINE
5
96
100
AcDbEntity
8
1
62
256
6
ByLayer
370
18
48
1
60
0
100
AcDbLine
10
18.141125
20
-9.568914
30
0
11
18.093351
21
-9.52114
31
0
39
0
210
0
220
0
230
1
0
LINE
5
97
100
AcDbEntity
8
80
62
256
6
ByLayer
370
18
48
1
60
0
100
AcDbLine
10
0
20
0
30
0
11
-5
21
0
31
0
39
0
210
0
220
0
230
1
0
LINE
5
98
100
AcDbEntity
8
81
62
256
6
ByLayer
370
18
48
1
60
0
100
AcDbLine
10
18.854926
20
-19.5625
30
0
11
28.854926
21
-19.5625
31
0
39
0
210
0
220
0
230
1
0
LINE
5
99
100
AcDbEntity
8
1
62
256
6
ByLayer
370
18
48
1
60
0
100
AcDbLine
10
17.374089
20
-11.030979
30
0
11
17.472499
21
-11.12939
31
0
39
0
210
0
220
0
230
1
0
LINE
5
9A
100
AcDbEntity
8
1
62
256
6
ByLayer
370
18
48
1
60
0
100
AcDbLine
10
17.65124
20
-11.967442
30
0
11
17.569626
21
-11.885828
31
0
39
0
210
0
220
0
230
1
0
LINE
5
9B
100
AcDbEntity
8
1
62
256
6
ByLayer
370
18
48
1
60
0
100
AcDbLine
10
9.732238
20
-5.906956
30
0
11
9.359755
21
-5.534473
31
0
39
0
210
0
220
0
230
1
0
LINE
5
9C
100
AcDbEntity
8
1
62
256
6
ByLayer
370
18
48
1
60
0
100
AcDbLine
10
9.447914
20
-7.430771
30
0
11
9.075431
21
-7.058288
31
0
39
0
210
0
220
0
230
1
0
LINE
5
9D
100
AcDbEntity
8
1
62
256
6
ByLayer
370
18
48
1
60
0
100
AcDbLine
10
9.50153
20
-6.736303
30
0
11
9.075431
21
-7.058288
31
0
39
0
210
0
220
0
230
1
0
LINE
5
9E
100
AcDbEntity
8
1
62
256
6
ByLayer
370
18
48
1
60
0
100
AcDbLine
10
7.615952
20
-7.586858
30
0
11
8.104253
21
-7.792168
31
0
39
0
210
0
220
0
230
1
0
LINE
5
9F
100
AcDbEntity
8
1
62
256
6
ByLayer
370
18
48
1
60
0
100
AcDbLine
10
8.530352
20
-7.470183
30
0
11
8.902834
21
-7.842665
31
0
39
0
210
0
220
0
230
1
0
LINE
5
A0
100
AcDbEntity
8
1
62
256
6
ByLayer
370
18
48
1
60
0
100
AcDbLine
10
8.487911
20
-8.175826
30
0
11
8.104253
21
-7.792168
31
0
39
0
210
0
220
0
230
1
0
LINE
5
A1
100
AcDbEntity
8
1
62
256
6
ByLayer
370
18
48
1
60
0
100
AcDbLine
10
9.439327
20
-6.209007
30
0
11
9.50153
21
-6.736303
31
0
39
0
210
0
220
0
230
1
0
LINE
5
A2
100
AcDbEntity
8
1
62
256
6
ByLayer
370
18
48
1
60
0
100
AcDbLine
10
8.530352
20
-7.470183
30
0
11
8.104253
21
-7.792168
31
0
39
0
210
0
220
0
230
1
0
LINE
5
A3
100
AcDbEntity
8
1
62
256
6
ByLayer
370
18
48
1
60
0
100
AcDbLine
10
7.363783
20
-7.696701
30
0
11
6.9913
21
-7.324218
31
0
39
0
210
0
220
0
230
1
0
LINE
5
A4
100
AcDbEntity
8
1
62
256
6
ByLayer
370
18
48
1
60
0
100
AcDbLine
10
9.439327
20
-6.209007
30
0
11
9.81181
21
-6.58149
31
0
39
0
210
0
220
0
230
1
0
LINE
5
A5
100
AcDbEntity
8
1
62
256
6
ByLayer
370
18
48
1
60
0
100
AcDbLine
10
9.885187
20
-7.11996
30
0
11
9.50153
21
-6.736303
31
0
39
0
210
0
220
0
230
1
0
LINE
5
A6
100
AcDbEntity
8
1
62
256
6
ByLayer
370
18
48
1
60
0
100
AcDbLine
10
7.615952
20
-7.586858
30
0
11
7.988434
21
-7.959341
31
0
39
0
210
0
220
0
230
1
0
LINE
5
A7
100
AcDbEntity
8
1
62
256
6
ByLayer
370
18
48
1
60
0
100
AcDbLine
10
19.403882
20
-2.927822
30
0
11
18.935203
21
-2.459143
31
0
39
0
210
0
220
0
230
1
0
LINE
5
A8
100
AcDbEntity
8
1
62
256
6
ByLayer
370
18
48
1
60
0
100
AcDbLine
10
11.546158
20
-10.785546
30
0
11
19.403882
21
-2.927822
31
0
39
0
210
0
220
0
230
1
0
LINE
5
A9
100
AcDbEntity
8
1
62
256
6
ByLayer
370
18
48
1
60
0
100
AcDbLine
10
11.540696
20
-11.902616
30
0
11
11.072017
21
-11.433937
31
0
39
0
210
0
220
0
230
1
0
LINE
5
AA
100
AcDbEntity
8
1
62
256
6
ByLayer
370
18
48
1
60
0
100
AcDbLine
10
19.321949
20
-19.683869
30
0
11
11.540696
21
-11.902616
31
0
39
0
210
0
220
0
230
1
0
LINE
5
AB
100
AcDbEntity
8
1
62
256
6
ByLayer
370
18
48
1
60
0
100
AcDbLine
10
20.052273
20
-2.453681
30
0
11
20.520952
21
-2.92236
31
0
39
0
210
0
220
0
230
1
0
LINE
5
AC
100
AcDbEntity
8
1
62
256
6
ByLayer
370
18
48
1
60
0
100
AcDbLine
10
28.296743
20
-11.820683
30
0
11
20.439019
21
-19.678407
31
0
39
0
210
0
220
0
230
1
0
LINE
5
AD
100
AcDbEntity
8
1
62
256
6
ByLayer
370
18
48
1
60
0
100
AcDbLine
10
20.520952
20
-2.92236
30
0
11
28.302205
21
-10.703613
31
0
39
0
210
0
220
0
230
1
0
MTEXT
5
F6
100
AcDbEntity
8
SK6
62
256
6
ByLayer
370
13
48
1
60
0
100
AcDbMText
10
-104.562205
20
21.423222
30
0
210
0
220
0
230
1
1
\W0.7618;PSSNL 2525M 12
40
3.5
41
0
44
1.084337
50
0
71
7
72
5
7
iso_b_vert
0
DIMENSION
5
108
100
AcDbEntity
8
SK2
62
256
6
ByLayer
370
13
48
1
60
0
100
AcDbDimension
2
DimnDraft3D1
10
-140.895074
20
12.4375
30
0
11
-140.895074
21
-0.0625
31
0
70
32
71
5
72
1
41
1
210
0
220
0
230
1
3
Standard
100
AcDbAlignedDimension
13
-132.732574
23
-12.5625
33
0
14
-132.732574
24
12.4375
34
0
50
90
100
AcDbRotatedDimension
1001
ACAD
1000
DSTYLE
1002
{
1070
    74
1070
     0
1070
   279
1070
     0
1070
   172
1070
     1
1070
   173
1070
     1
1070
   340
1005
F7
1070
   271
1070
     1
1070
   272
1070
     2
1070
    77
1070
     1
1070
    73
1070
     0
1070
   171
1070
     3
1070
   274
1070
     4
1070
   177
1070
   150
1070
   176
1070
     9
1070
   178
1070
    43
1070
    78
1070
     8
1070
    48
1040
-0.005
1070
    41
1041
3.175
1070
   147
1041
2.25
1070
    42
1041
1.5875
1070
    44
1041
3.175
1070
   140
1041
4.5
1070
   343
1005
109
1070
   344
1005
109
1002
}
0
DIMENSION
5
11E
100
AcDbEntity
8
2
62
256
6
ByLayer
370
13
48
1
60
0
100
AcDbDimension
2
DimnDraft3D2
10
59.957723
20
12.4375
30
0
11
59.957723
21
-3.7375
31
0
70
32
71
5
72
1
41
1
210
0
220
0
230
1
3
Standard
100
AcDbAlignedDimension
13
21.792426
23
-19.9125
33
0
14
1.5875
24
12.4375
34
0
50
90
100
AcDbRotatedDimension
1001
ACAD
1000
DSTYLE
1002
{
1070
    74
1070
     0
1070
   279
1070
     0
1070
   172
1070
     1
1070
   173
1070
     1
1070
   340
1005
F7
1070
   271
1070
     1
1070
   272
1070
     2
1070
    77
1070
     1
1070
    73
1070
     0
1070
   171
1070
     3
1070
   274
1070
     4
1070
   177
1070
   150
1070
   176
1070
     9
1070
   178
1070
    43
1070
    78
1070
     8
1070
    48
1040
-0.005
1070
    41
1041
3.175
1070
   147
1041
2.25
1070
    42
1041
1.5875
1070
    44
1041
3.175
1070
   140
1041
4.5
1070
   343
1005
109
1070
   344
1005
109
1002
}
0
DIMENSION
5
12C
100
AcDbEntity
8
SK2
62
256
6
ByLayer
370
13
48
1
60
0
100
AcDbDimension
2
DimnDraft3D3
10
20.204926
20
-36.4125
30
0
11
-55.470074
21
-36.4125
31
0
70
32
71
5
72
1
41
1
210
0
220
0
230
1
3
Standard
100
AcDbAlignedDimension
13
-131.145074
23
-14.15
33
0
14
20.204926
24
-21.5
34
0
50
0
100
AcDbRotatedDimension
1001
ACAD
1000
DSTYLE
1002
{
1070
   279
1070
     0
1070
   172
1070
     1
1070
   173
1070
     1
1070
   340
1005
F7
1070
   271
1070
     1
1070
   272
1070
     2
1070
    77
1070
     1
1070
    73
1070
     0
1070
   171
1070
     3
1070
   274
1070
     4
1070
   177
1070
   150
1070
   176
1070
     9
1070
   178
1070
    43
1070
    78
1070
     8
1070
    48
1040
-0.005
1070
    41
1041
3.175
1070
   147
1041
2.25
1070
    42
1041
1.5875
1070
    44
1041
3.175
1070
   140
1041
4.5
1070
   343
1005
109
1070
   344
1005
109
1002
}
0
DIMENSION
5
13B
100
AcDbEntity
8
2
62
256
6
ByLayer
370
13
48
1
60
0
100
AcDbDimension
2
DimnDraft3D4
10
28.457723
20
-11.194735
30
0
11
34.498673
21
-32.010303
31
0
70
34
71
5
72
1
41
1
210
0
220
0
230
1
3
Standard
100
AcDb2LineAngularDimension
13
20.204926
23
-19.9125
33
0
14
18.617426
24
-19.9125
34
0
15
19.972442
25
-19.680016
35
0
16
41.528187
26
-10.88752
36
0
40
0
0
ENDSEC
0
SECTION
2
OBJECTS
0
DICTIONARY
5
1a5
330
0
100
AcDbDictionary
280
0
281
1
3
ACAD_GROUP
350
1a6
3
ACAD_MLINESTYLE
350
1a7
0
DICTIONARY
5
1a6
330
0
100
AcDbDictionary
280
0
281
1
0
DICTIONARY
5
1a7
330
0
100
AcDbDictionary
280
0
281
1
3
Standard
350
18
0
MLINESTYLE
5
18
330
1a7
100
AcDbMlineStyle
2
Standard
70
0
3

62
256
51
90
52
90
71
2
49
-0.5
62
256
6
ByLayer
49
0.5
62
256
6
ByLayer
0
RASTERVARIABLES
5
194
330

100
AcDbRasterVariables
90
0
70
1
71
1
72
1
0
ENDSEC
0
EOF
