0
SECTION
2
HEADER
9
$ACADVER
1
AC1015
9
$DWGCODEPAGE
3
ANSI_1252
9
$HANDSEED
5
1bb
9
$ANGBASE
50
0
9
$ANGDIR
70
0
9
$ATTMODE
70
1
9
$AUNITS
70
0
9
$AUPREC
70
0
9
$CECOLOR
62
256
9
$CELTSCALE
40
1
9
$CELTYPE
6
ByLayer
9
$CELWEIGHT
370
18
9
$CLAYER
8
0
9
$CMLJUST
70
0
9
$CMLSCALE
40
1
9
$CMLSTYLE
2
Standard
9
$DIMSTYLE
2
Standard
9
$TEXTSIZE
40
0.2
9
$TEXTSTYLE
7
Standard
9
$LUNITS
70
2
9
$LUPREC
70
4
9
$EXTNAMES
290
1
9
$INSUNITS
70
4
9
$LTSCALE
40
1
9
$LWDISPLAY
290
1
9
$PDMODE
70
0
9
$PDSIZE
40
0
9
$PLINEGEN
70
0
0
ENDSEC
0
SECTION
2
CLASSES
0
CLASS
1
RASTERVARIABLES
2
AcDbRasterVariables
3
ISM
90
0
280
0
281
0
0
ENDSEC
0
SECTION
2
TABLES
0
TABLE
2
VPORT
5
1b1
100
AcDbSymbolTable
0
VPORT
5
1
100
AcDbSymbolTableRecord
100
AcDbViewportTableRecord
2
*Active
70
0
10
0
20
0
11
1
21
1
12
-1
22
1
13
0
23
0
14
0.5
24
0.5
15
10
25
10
16
0
26
0
36
1
17
0
27
0
37
0
0
ENDTAB
0
TABLE
2
LTYPE
5
1b2
100
AcDbSymbolTable
0
LTYPE
5
14
100
AcDbSymbolTableRecord
100
AcDbLinetypeTableRecord
70
0
2
ByBlock
3

72
65
73
0
40
0
0
LTYPE
5
15
100
AcDbSymbolTableRecord
100
AcDbLinetypeTableRecord
70
0
2
ByLayer
3

72
65
73
0
40
0
0
LTYPE
5
16
100
AcDbSymbolTableRecord
100
AcDbLinetypeTableRecord
70
0
2
CONTINUOUS
3
Solid line
72
65
73
0
40
0
0
LTYPE
5
6A
100
AcDbSymbolTableRecord
100
AcDbLinetypeTableRecord
70
0
2
CENTER
3
____ _ ____ _ ____ _ ____
72
65
73
4
40
47.5
49
22
74
0
49
-8.5
74
0
49
8.5
74
0
49
-8.5
74
0
0
LTYPE
5
6B
100
AcDbSymbolTableRecord
100
AcDbLinetypeTableRecord
70
0
2
DASHED
3
__ __ __ __ __ __ __ __ __
72
65
73
2
40
25.72
49
12.86
74
0
49
-12.86
74
0
0
ENDTAB
0
TABLE
2
LAYER
5
1b3
100
AcDbSymbolTable
0
LAYER
5
10
100
AcDbSymbolTableRecord
100
AcDbLayerTableRecord
2
0
70
0
62
7
6
CONTINUOUS
290
1
370
-3
390
0
0
LAYER
5
6D
100
AcDbSymbolTableRecord
100
AcDbLayerTableRecord
2
80
70
0
62
-6
6
CONTINUOUS
290
1
370
-3
390
0
0
LAYER
5
6F
100
AcDbSymbolTableRecord
100
AcDbLayerTableRecord
2
81
70
0
62
-3
6
CONTINUOUS
290
1
370
-3
390
0
0
LAYER
5
71
100
AcDbSymbolTableRecord
100
AcDbLayerTableRecord
2
1
70
0
62
4
6
CONTINUOUS
290
1
370
-3
390
0
0
LAYER
5
11C
100
AcDbSymbolTableRecord
100
AcDbLayerTableRecord
2
2
70
0
62
7
6
CONTINUOUS
290
1
370
-3
390
0
0
LAYER
5
19e
100
AcDbSymbolTableRecord
100
AcDbLayerTableRecord
2
SK1
70
0
62
4
6
CONTINUOUS
290
1
370
-3
390
0
0
LAYER
5
19f
100
AcDbSymbolTableRecord
100
AcDbLayerTableRecord
2
SK6
70
0
62
5
6
CONTINUOUS
290
1
370
-3
390
0
0
LAYER
5
1a0
100
AcDbSymbolTableRecord
100
AcDbLayerTableRecord
2
SK2
70
0
62
7
6
CONTINUOUS
290
1
370
-3
390
0
0
ENDTAB
0
TABLE
2
STYLE
5
1b4
100
AcDbSymbolTable
0
STYLE
5
11
100
AcDbSymbolTableRecord
100
AcDbTextStyleTableRecord
2
Standard
3
txt
70
0
71
0
40
0
41
1
42
0
50
0
0
STYLE
5
101
100
AcDbSymbolTableRecord
100
AcDbTextStyleTableRecord
2
iso_b_vert
3
simplex.shx
70
0
71
0
40
0
41
1
42
0
50
0
0
STYLE
5
102
100
AcDbSymbolTableRecord
100
AcDbTextStyleTableRecord
2
DWGDirectTextStyle
3
simplex
70
0
71
0
40
0
41
1
42
0
50
0
0
ENDTAB
0
TABLE
2
DIMSTYLE
5
1b5
100
AcDbSymbolTable
100
AcDbDimStyleTable
0
DIMSTYLE
105
27
100
AcDbSymbolTableRecord
100
AcDbDimStyleTableRecord
2
Standard
70
0
3
<>
41
0.18
42
0.0625
44
0.18
140
0.18
147
0.09
73
0
74
0
77
1
271
2
275
0
278
52
280
0
340
11
0
ENDTAB
0
TABLE
2
VIEW
5
1b6
100
AcDbSymbolTable
0
ENDTAB
0
TABLE
2
UCS
5
1b7
100
AcDbSymbolTable
0
ENDTAB
0
TABLE
2
APPID
5
1b8
100
AcDbSymbolTable
0
APPID
5
12
100
AcDbSymbolTableRecord
100
AcDbRegAppTableRecord
2
ACAD
70
0
0
ENDTAB
0
TABLE
2
BLOCK_RECORD
5
1b9
100
AcDbSymbolTable
0
BLOCK_RECORD
5
1F
100
AcDbSymbolTableRecord
100
AcDbBlockTableRecord
2
*Model_Space
340
0
70
0
0
BLOCK_RECORD
5
1B
100
AcDbSymbolTableRecord
100
AcDbBlockTableRecord
2
*Paper_Space
340
0
70
0
0
BLOCK_RECORD
5
23
100
AcDbSymbolTableRecord
100
AcDbBlockTableRecord
2
*Paper_Space0
340
0
70
0
0
BLOCK_RECORD
5
104
100
AcDbSymbolTableRecord
100
AcDbBlockTableRecord
2
DimnDraft3D1
340
0
70
0
0
BLOCK_RECORD
5
113
100
AcDbSymbolTableRecord
100
AcDbBlockTableRecord
2
_CLOSED
340
0
70
0
0
BLOCK_RECORD
5
11A
100
AcDbSymbolTableRecord
100
AcDbBlockTableRecord
2
DimnDraft3D2
340
0
70
0
0
BLOCK_RECORD
5
129
100
AcDbSymbolTableRecord
100
AcDbBlockTableRecord
2
DimnDraft3D3
340
0
70
0
0
BLOCK_RECORD
5
137
100
AcDbSymbolTableRecord
100
AcDbBlockTableRecord
2
DimnDraft3D4
340
0
70
0
0
ENDTAB
0
ENDSEC
0
SECTION
2
BLOCKS
0
BLOCK
5
20
100
AcDbEntity
8
0
100
AcDbBlockBegin
2
*Model_Space
70
0
10
0
20
0
30
0
3
*Model_Space
0
ENDBLK
5
21
100
AcDbEntity
8
0
100
AcDbBlockEnd
0
BLOCK
5
1C
100
AcDbEntity
8
0
100
AcDbBlockBegin
2
*Paper_Space
70
0
10
0
20
0
30
0
3
*Paper_Space
0
ENDBLK
5
1D
100
AcDbEntity
8
0
100
AcDbBlockEnd
0
BLOCK
5
24
100
AcDbEntity
8
0
100
AcDbBlockBegin
2
*Paper_Space0
70
0
10
0
20
0
30
0
3
*Paper_Space0
0
ENDBLK
5
25
100
AcDbEntity
8
0
100
AcDbBlockEnd
0
BLOCK
5
110
100
AcDbEntity
8
0
100
AcDbBlockBegin
2
DimnDraft3D1
70
0
10
0
20
0
30
0
3
DimnDraft3D1
0
MTEXT
5
105
100
AcDbEntity
8
SK2
62
256
6
ByLayer
370
13
48
1
60
0
100
AcDbMText
10
-269.845037
20
-1.488158
30
0
210
0
220
0
230
1
1
\W0.6740;50
40
4.5
41
0
44
1.084337
50
90
71
7
72
5
7
iso_b_vert
0
LINE
5
107
100
AcDbEntity
8
SK2
62
256
6
ByLayer
370
13
48
1
60
0
100
AcDbLine
10
-260.557537
20
25.075
30
0
11
-271.895037
21
25.075
31
0
39
0
210
0
220
0
230
1
0
LINE
5
108
100
AcDbEntity
8
SK2
62
256
6
ByLayer
370
13
48
1
60
0
100
AcDbLine
10
-260.557537
20
-24.925
30
0
11
-271.895037
21
-24.925
31
0
39
0
210
0
220
0
230
1
0
LINE
5
109
100
AcDbEntity
8
SK2
62
256
6
ByLayer
370
13
48
1
60
0
100
AcDbLine
10
-268.720037
20
25.075
30
0
11
-268.720037
21
-24.925
31
0
39
0
210
0
220
0
230
1
0
LINE
5
10A
100
AcDbEntity
8
SK2
62
256
6
ByLayer
370
13
48
1
60
0
100
AcDbLine
10
-268.720037
20
25.075
30
0
11
-267.869298
21
21.900003
31
0
39
0
210
0
220
0
230
1
0
LINE
5
10B
100
AcDbEntity
8
SK2
62
256
6
ByLayer
370
13
48
1
60
0
100
AcDbLine
10
-268.720037
20
25.075
30
0
11
-269.570775
21
21.899997
31
0
39
0
210
0
220
0
230
1
0
LINE
5
10C
100
AcDbEntity
8
SK2
62
256
6
ByLayer
370
13
48
1
60
0
100
AcDbLine
10
-267.869298
20
21.900003
30
0
11
-269.570775
21
21.899997
31
0
39
0
210
0
220
0
230
1
0
LINE
5
10D
100
AcDbEntity
8
SK2
62
256
6
ByLayer
370
13
48
1
60
0
100
AcDbLine
10
-268.720037
20
-24.925
30
0
11
-269.570775
21
-21.750003
31
0
39
0
210
0
220
0
230
1
0
LINE
5
10E
100
AcDbEntity
8
SK2
62
256
6
ByLayer
370
13
48
1
60
0
100
AcDbLine
10
-268.720037
20
-24.925
30
0
11
-267.869298
21
-21.749997
31
0
39
0
210
0
220
0
230
1
0
LINE
5
10F
100
AcDbEntity
8
SK2
62
256
6
ByLayer
370
13
48
1
60
0
100
AcDbLine
10
-269.570775
20
-21.750003
30
0
11
-267.869298
21
-21.749997
31
0
39
0
210
0
220
0
230
1
0
ENDBLK
5
111
100
AcDbEntity
8
0
100
AcDbBlockEnd
0
BLOCK
5
114
100
AcDbEntity
8
0
100
AcDbBlockBegin
2
_CLOSED
70
0
10
0
20
0
30
0
3
_CLOSED
0
LINE
5
116
100
AcDbEntity
8
0
62
256
6
ByLayer
370
-2
48
1
60
0
100
AcDbLine
10
-1
20
0.166667
30
0
11
0
21
0
31
0
39
0
210
0
220
0
230
1
0
LINE
5
117
100
AcDbEntity
8
0
62
256
6
ByLayer
370
-2
48
1
60
0
100
AcDbLine
10
0
20
0
30
0
11
-1
21
-0.166667
31
0
39
0
210
0
220
0
230
1
0
LINE
5
118
100
AcDbEntity
8
0
62
256
6
ByLayer
370
-2
48
1
60
0
100
AcDbLine
10
-1
20
0.166667
30
0
11
-1
21
-0.166667
31
0
39
0
210
0
220
0
230
1
0
LINE
5
119
100
AcDbEntity
8
0
62
256
6
ByLayer
370
-2
48
1
60
0
100
AcDbLine
10
0
20
0
30
0
11
-1
21
0
31
0
39
0
210
0
220
0
230
1
0
ENDBLK
5
115
100
AcDbEntity
8
0
100
AcDbBlockEnd
0
BLOCK
5
126
100
AcDbEntity
8
0
100
AcDbBlockBegin
2
DimnDraft3D2
70
0
10
0
20
0
30
0
3
DimnDraft3D2
0
MTEXT
5
11B
100
AcDbEntity
8
2
62
256
6
ByLayer
370
13
48
1
60
0
100
AcDbMText
10
79.1443
20
3.686842
30
0
210
0
220
0
230
1
1
\W0.6740;60
40
4.5
41
0
44
1.084337
50
90
71
7
72
5
7
iso_b_vert
0
LINE
5
11D
100
AcDbEntity
8
2
62
256
6
ByLayer
370
13
48
1
60
0
100
AcDbLine
10
-10.978105
20
-24.925
30
0
11
83.4443
21
-24.925
31
0
39
0
210
0
220
0
230
1
0
LINE
5
11E
100
AcDbEntity
8
2
62
256
6
ByLayer
370
13
48
1
60
0
100
AcDbLine
10
43.967463
20
35.425
30
0
11
83.4443
21
35.425
31
0
39
0
210
0
220
0
230
1
0
LINE
5
11F
100
AcDbEntity
8
2
62
256
6
ByLayer
370
13
48
1
60
0
100
AcDbLine
10
80.2693
20
-24.925
30
0
11
80.2693
21
35.425
31
0
39
0
210
0
220
0
230
1
0
LINE
5
120
100
AcDbEntity
8
2
62
256
6
ByLayer
370
13
48
1
60
0
100
AcDbLine
10
80.2693
20
-24.925
30
0
11
79.418562
21
-21.750003
31
0
39
0
210
0
220
0
230
1
0
LINE
5
121
100
AcDbEntity
8
2
62
256
6
ByLayer
370
13
48
1
60
0
100
AcDbLine
10
80.2693
20
-24.925
30
0
11
81.120039
21
-21.749997
31
0
39
0
210
0
220
0
230
1
0
LINE
5
122
100
AcDbEntity
8
2
62
256
6
ByLayer
370
13
48
1
60
0
100
AcDbLine
10
79.418562
20
-21.750003
30
0
11
81.120039
21
-21.749997
31
0
39
0
210
0
220
0
230
1
0
LINE
5
123
100
AcDbEntity
8
2
62
256
6
ByLayer
370
13
48
1
60
0
100
AcDbLine
10
80.2693
20
35.425
30
0
11
81.120039
21
32.250003
31
0
39
0
210
0
220
0
230
1
0
LINE
5
124
100
AcDbEntity
8
2
62
256
6
ByLayer
370
13
48
1
60
0
100
AcDbLine
10
80.2693
20
35.425
30
0
11
79.418562
21
32.249997
31
0
39
0
210
0
220
0
230
1
0
LINE
5
125
100
AcDbEntity
8
2
62
256
6
ByLayer
370
13
48
1
60
0
100
AcDbLine
10
81.120039
20
32.250003
30
0
11
79.418562
21
32.249997
31
0
39
0
210
0
220
0
230
1
0
ENDBLK
5
127
100
AcDbEntity
8
0
100
AcDbBlockEnd
0
BLOCK
5
134
100
AcDbEntity
8
0
100
AcDbBlockBegin
2
DimnDraft3D3
70
0
10
0
20
0
30
0
3
DimnDraft3D3
0
MTEXT
5
12A
100
AcDbEntity
8
SK2
62
256
6
ByLayer
370
13
48
1
60
0
100
AcDbMText
10
-111.539773
20
44.05
30
0
210
0
220
0
230
1
1
\W0.7138;300
40
4.5
41
0
44
1.084337
50
0
71
7
72
5
7
iso_b_vert
0
LINE
5
12B
100
AcDbEntity
8
SK2
62
256
6
ByLayer
370
13
48
1
60
0
100
AcDbLine
10
-258.970037
20
26.6625
30
0
11
-258.970037
21
46.1
31
0
39
0
210
0
220
0
230
1
0
LINE
5
12C
100
AcDbEntity
8
SK2
62
256
6
ByLayer
370
13
48
1
60
0
100
AcDbLine
10
42.379963
20
37.0125
30
0
11
42.379963
21
46.1
31
0
39
0
210
0
220
0
230
1
0
LINE
5
12D
100
AcDbEntity
8
SK2
62
256
6
ByLayer
370
13
48
1
60
0
100
AcDbLine
10
-258.970037
20
42.925
30
0
11
42.379963
21
42.925
31
0
39
0
210
0
220
0
230
1
0
LINE
5
12E
100
AcDbEntity
8
SK2
62
256
6
ByLayer
370
13
48
1
60
0
100
AcDbLine
10
-258.970037
20
42.925
30
0
11
-255.79504
21
43.775739
31
0
39
0
210
0
220
0
230
1
0
LINE
5
12F
100
AcDbEntity
8
SK2
62
256
6
ByLayer
370
13
48
1
60
0
100
AcDbLine
10
-258.970037
20
42.925
30
0
11
-255.795033
21
42.074261
31
0
39
0
210
0
220
0
230
1
0
LINE
5
130
100
AcDbEntity
8
SK2
62
256
6
ByLayer
370
13
48
1
60
0
100
AcDbLine
10
-255.79504
20
43.775739
30
0
11
-255.795033
21
42.074261
31
0
39
0
210
0
220
0
230
1
0
LINE
5
131
100
AcDbEntity
8
SK2
62
256
6
ByLayer
370
13
48
1
60
0
100
AcDbLine
10
42.379963
20
42.925
30
0
11
39.204967
21
42.074261
31
0
39
0
210
0
220
0
230
1
0
LINE
5
132
100
AcDbEntity
8
SK2
62
256
6
ByLayer
370
13
48
1
60
0
100
AcDbLine
10
42.379963
20
42.925
30
0
11
39.20496
21
43.775739
31
0
39
0
210
0
220
0
230
1
0
LINE
5
133
100
AcDbEntity
8
SK2
62
256
6
ByLayer
370
13
48
1
60
0
100
AcDbLine
10
39.204967
20
42.074261
30
0
11
39.20496
21
43.775739
31
0
39
0
210
0
220
0
230
1
0
ENDBLK
5
135
100
AcDbEntity
8
0
100
AcDbBlockEnd
0
BLOCK
5
142
100
AcDbEntity
8
0
100
AcDbBlockBegin
2
DimnDraft3D4
70
0
10
0
20
0
30
0
3
DimnDraft3D4
0
MTEXT
5
138
100
AcDbEntity
8
2
62
256
6
ByLayer
370
13
48
1
60
0
100
AcDbMText
10
62.528089
20
12.647281
30
0
210
0
220
0
230
1
1
\W0.8292;75%%d0'
40
4.5
41
0
44
1.084337
50
52.4999999999999
71
7
72
5
7
iso_b_vert
0
LINE
5
139
100
AcDbEntity
8
2
62
256
6
ByLayer
370
13
48
1
60
0
100
AcDbLine
10
49.180176
20
7.97851
30
0
11
50.778549
21
2.013298
31
0
39
0
210
0
220
0
230
1
0
LINE
5
13A
100
AcDbEntity
8
2
62
256
6
ByLayer
370
13
48
1
60
0
100
AcDbLine
10
43.967463
20
35.425
30
0
11
76.41625
21
35.425
31
0
39
0
210
0
220
0
230
1
0
ARC
5
13B
100
AcDbEntity
8
2
62
256
6
ByLayer
370
13
48
1
60
0
100
AcDbCircle
39
0
10
41.825911
20
35.425
30
0
40
31.4153391948483
210
0
220
0
230
1
100
AcDbArc
50
285
51
0
0
LINE
5
13C
100
AcDbEntity
8
2
62
256
6
ByLayer
370
13
48
1
60
0
100
AcDbLine
10
49.956799
20
5.080113
30
0
11
52.761031
21
6.794944
31
0
39
0
210
0
220
0
230
1
0
LINE
5
13D
100
AcDbEntity
8
2
62
256
6
ByLayer
370
13
48
1
60
0
100
AcDbLine
10
49.956799
20
5.080113
30
0
11
53.242756
21
5.163084
31
0
39
0
210
0
220
0
230
1
0
LINE
5
13E
100
AcDbEntity
8
2
62
256
6
ByLayer
370
13
48
1
60
0
100
AcDbLine
10
52.761031
20
6.794944
30
0
11
53.242756
21
5.163084
31
0
39
0
210
0
220
0
230
1
0
LINE
5
13F
100
AcDbEntity
8
2
62
256
6
ByLayer
370
13
48
1
60
0
100
AcDbLine
10
73.24125
20
35.425
30
0
11
74.011574
21
32.22954
31
0
39
0
210
0
220
0
230
1
0
LINE
5
140
100
AcDbEntity
8
2
62
256
6
ByLayer
370
13
48
1
60
0
100
AcDbLine
10
73.24125
20
35.425
30
0
11
72.310638
21
32.272483
31
0
39
0
210
0
220
0
230
1
0
LINE
5
141
100
AcDbEntity
8
2
62
256
6
ByLayer
370
13
48
1
60
0
100
AcDbLine
10
74.011574
20
32.22954
30
0
11
72.310638
21
32.272483
31
0
39
0
210
0
220
0
230
1
0
ENDBLK
5
143
100
AcDbEntity
8
0
100
AcDbBlockEnd
0
ENDSEC
0
SECTION
2
ENTITIES
0
ARC
5
BC
100
AcDbEntity
8
1
62
256
6
ByLayer
370
18
48
1
60
0
100
AcDbCircle
39
0
10
0
20
26.525
30
0
40
1.6000000000017
210
0
220
0
230
-1
100
AcDbArc
50
195
51
270
0
ELLIPSE
5
BD
100
AcDbEntity
8
1
62
256
6
ByLayer
370
18
48
1
60
0
100
AcDbEllipse
10
25.977916
20
15.550407
30
0
11
-3.89711431703018
21
2.24999999999966
31
0
210
0
220
0
230
1
40
0.989133
41
0.779934954875853
42
1.03885649688207
0
ELLIPSE
5
BE
100
AcDbEntity
8
1
62
256
6
ByLayer
370
18
48
1
60
0
100
AcDbEllipse
10
27.629146
20
3.865371
30
0
11
3.18060308996838
21
-1.83632205017822
31
0
210
0
220
0
230
1
40
0.989133
41
0.360532387223634
42
0.779934954875844
0
ELLIPSE
5
BF
100
AcDbEntity
8
1
62
256
6
ByLayer
370
18
48
1
60
0
100
AcDbEllipse
10
16.559953
20
38.850923
30
0
11
8.83345911860173
21
-5.09999999999921
31
0
210
0
220
0
230
1
40
0.989133
41
-0.927201099144791
42
-0.915384654745233
0
ELLIPSE
5
C0
100
AcDbEntity
8
1
62
256
6
ByLayer
370
18
48
1
60
0
100
AcDbEllipse
10
28.63246
20
5.603162
30
0
11
-3.04306114157531
21
1.75691216924863
31
0
210
0
220
0
230
1
40
0.989133
41
1.67453683414051
42
-2.36165769871395
0
ELLIPSE
5
C1
100
AcDbEntity
8
1
62
256
6
ByLayer
370
18
48
1
60
0
100
AcDbEllipse
10
27.617991
20
3.84605
30
0
11
-3.05070807372832
21
1.76132712758565
31
0
210
0
220
0
230
1
40
0.989133
41
-2.84168318222129
42
-2.36165769871394
0
ELLIPSE
5
C2
100
AcDbEntity
8
1
62
256
6
ByLayer
370
18
48
1
60
0
100
AcDbEllipse
10
24.769248
20
20.061216
30
0
11
-3.89711431703018
21
2.24999999999966
31
0
210
0
220
0
230
1
40
0.989133
41
0.521013412869624
42
0.779934954875845
0
ELLIPSE
5
C3
100
AcDbEntity
8
1
62
256
6
ByLayer
370
18
48
1
60
0
100
AcDbEllipse
10
31.02311
20
4.734962
30
0
11
0.144888873943358
21
0.0388228567653855
31
0
210
0
220
0
230
1
40
0.104528
41
-1.6749465668895
42
-0.0925141299721191
0
ELLIPSE
5
C4
100
AcDbEntity
8
1
62
256
6
ByLayer
370
18
48
1
60
0
100
AcDbEllipse
10
31.172987
20
5.822955
30
0
11
0.037416645402988
21
-0.145259124997355
31
0
210
0
220
0
230
-1
40
0.091882
41
-0.116757266112282
42
1.4656745889603
0
ELLIPSE
5
C5
100
AcDbEntity
8
1
62
256
6
ByLayer
370
18
48
1
60
0
100
AcDbEllipse
10
0
20
-24.931981
30
0
11
1.60000000000012
21
1.6170224881319E-15
31
0
210
0
220
0
230
-1
40
0.004363
41
-1.57079632864049
42
-0.261799387798883
0
ELLIPSE
5
C6
100
AcDbEntity
8
1
62
256
6
ByLayer
370
18
48
1
60
0
100
AcDbEllipse
10
27.599555
20
5.749096
30
0
11
2.92225603988225
21
-1.68716531126668
31
0
210
0
220
0
230
1
40
0.989133
41
-2.36165769871394
42
-1.16521191023538
0
ELLIPSE
5
C7
100
AcDbEntity
8
1
62
256
6
ByLayer
370
18
48
1
60
0
100
AcDbEllipse
10
32.224072
20
19.976578
30
0
11
3.89711431703018
21
-2.24999999999965
31
0
210
0
220
0
230
1
40
0.989133
41
-0.416986885476046
42
-1.65139582246402E-05
0
ELLIPSE
5
C8
100
AcDbEntity
8
1
62
256
6
ByLayer
370
18
48
1
60
0
100
AcDbEllipse
10
33.003543
20
18.938935
30
0
11
-3.89711431703017
21
2.24999999999965
31
0
210
0
220
0
230
1
40
0.989133
41
-1.49872692901717E-05
42
0.204120222204715
0
ELLIPSE
5
C9
100
AcDbEntity
8
1
62
256
6
ByLayer
370
18
48
1
60
0
100
AcDbEllipse
10
32.804168
20
19.470867
30
0
11
3.72390923627328
21
-2.14999999999967
31
0
210
0
220
0
230
1
40
0.989133
41
-3.14157387213263
42
-2.94128306086109
0
ELLIPSE
5
CA
100
AcDbEntity
8
1
62
256
6
ByLayer
370
18
48
1
60
0
100
AcDbEllipse
10
24.637792
20
5.809776
30
0
11
-1.12583302491982
21
0.649999999999894
31
0
210
0
220
0
230
1
40
0.989133
41
1.9649289615959
42
2.35073128167075
0
ELLIPSE
5
CB
100
AcDbEntity
8
1
62
256
6
ByLayer
370
18
48
1
60
0
100
AcDbEllipse
10
25.405225
20
7.131573
30
0
11
2.0622229927618
21
-1.19062499999982
31
0
210
0
220
0
230
1
40
0.989133
41
-1.52935632962508
42
-0.790861371919055
0
ELLIPSE
5
CC
100
AcDbEntity
8
1
62
256
6
ByLayer
370
18
48
1
60
0
100
AcDbEllipse
10
31.801865
20
18.05143
30
0
11
-4.97964607176078
21
2.87499999999956
31
0
210
0
220
0
230
1
40
0.989133
41
-2.29412239319583
42
-2.26471459604935
0
ELLIPSE
5
CD
100
AcDbEntity
8
1
62
256
6
ByLayer
370
18
48
1
60
0
100
AcDbEllipse
10
31.801865
20
18.05143
30
0
11
-4.97964607176078
21
2.87499999999956
31
0
210
0
220
0
230
1
40
0.989133
41
-0.951325418709299
42
-0.847463772045756
0
ELLIPSE
5
CE
100
AcDbEntity
8
1
62
256
6
ByLayer
370
18
48
1
60
0
100
AcDbEllipse
10
15.130529
20
6.747317
30
0
11
2.23001541474504
21
-1.2874999999998
31
0
210
0
220
0
230
1
40
0.989133
41
0.199948371610568
42
0.528342889570456
0
ELLIPSE
5
CF
100
AcDbEntity
8
1
62
256
6
ByLayer
370
18
48
1
60
0
100
AcDbEllipse
10
15.130529
20
6.747317
30
0
11
2.23001541474504
21
-1.2874999999998
31
0
210
0
220
0
230
1
40
0.989133
41
0.528342889570458
42
3.05595071641992
0
ELLIPSE
5
D0
100
AcDbEntity
8
1
62
256
6
ByLayer
370
18
48
1
60
0
100
AcDbEllipse
10
15.233447
20
6.925574
30
0
11
-2.23001541474504
21
1.2874999999998
31
0
210
0
220
0
230
1
40
0.989133
41
-0.208023055346919
42
9.0450690953051E-06
0
ELLIPSE
5
D1
100
AcDbEntity
8
1
62
256
6
ByLayer
370
18
48
1
60
0
100
AcDbEllipse
10
15.233447
20
6.925574
30
0
11
-2.23001541474504
21
1.2874999999998
31
0
210
0
220
0
230
1
40
0.989133
41
-3.0228431579982
42
-2.70014992000685
0
ELLIPSE
5
D2
100
AcDbEntity
8
1
62
256
6
ByLayer
370
18
48
1
60
0
100
AcDbEllipse
10
32.691326
20
19.592023
30
0
11
-3.94907584125724
21
2.27999999999965
31
0
210
0
220
0
230
1
40
0.989133
41
-3.0118391692049
42
-2.49602900695758
0
ELLIPSE
5
D3
100
AcDbEntity
8
1
62
256
6
ByLayer
370
18
48
1
60
0
100
AcDbEllipse
10
32.691326
20
19.592023
30
0
11
-3.94907584125724
21
2.27999999999965
31
0
210
0
220
0
230
1
40
0.989133
41
-0.87202189631466
42
-0.129820602087861
0
ELLIPSE
5
D4
100
AcDbEntity
8
1
62
256
6
ByLayer
370
18
48
1
60
0
100
AcDbEllipse
10
33.591641
20
19.957551
30
0
11
-3.46410161513793
21
1.99999999999969
31
0
210
0
220
0
230
1
40
0.989133
41
-1.57069617680672
42
0.756918303846125
0
ELLIPSE
5
D5
100
AcDbEntity
8
1
62
256
6
ByLayer
370
18
48
1
60
0
100
AcDbEllipse
10
33.554885
20
19.893888
30
0
11
3.89711431703018
21
-2.24999999999965
31
0
210
0
220
0
230
1
40
0.989133
41
1.56210834631535
42
-2.37588621927595
0
ELLIPSE
5
D6
100
AcDbEntity
8
1
62
256
6
ByLayer
370
18
48
1
60
0
100
AcDbEllipse
10
33.16515
20
20.412709
30
0
11
3.71524898223543
21
-2.14499999999967
31
0
210
0
220
0
230
1
40
0.989133
41
0.905825100443314
42
1.42198968018589
0
ELLIPSE
5
D7
100
AcDbEntity
8
1
62
256
6
ByLayer
370
18
48
1
60
0
100
AcDbEllipse
10
33.201906
20
20.476373
30
0
11
-3.28223628034319
21
1.89499999999971
31
0
210
0
220
0
230
1
40
0.989133
41
0.915071755290941
42
1.41274302533825
0
ELLIPSE
5
D8
100
AcDbEntity
8
1
62
256
6
ByLayer
370
18
48
1
60
0
100
AcDbEllipse
10
33.201906
20
20.476373
30
0
11
-3.28223628034319
21
1.89499999999971
31
0
210
0
220
0
230
1
40
0.989133
41
-2.22652089829885
42
-1.72884962825155
0
ELLIPSE
5
D9
100
AcDbEntity
8
1
62
256
6
ByLayer
370
18
48
1
60
0
100
AcDbEllipse
10
32.81217
20
20.995194
30
0
11
-3.46410161513793
21
1.99999999999969
31
0
210
0
220
0
230
1
40
0.989133
41
1.57089647678309
42
-2.38467434974367
0
ELLIPSE
5
DA
100
AcDbEntity
8
1
62
256
6
ByLayer
370
18
48
1
60
0
100
AcDbEllipse
10
32.775414
20
20.931531
30
0
11
3.89711431703018
21
-2.24999999999965
31
0
210
0
220
0
230
1
40
0.989133
41
-1.57948430727444
42
0.765706434313837
0
ELLIPSE
5
DB
100
AcDbEntity
8
1
62
256
6
ByLayer
370
18
48
1
60
0
100
AcDbEllipse
10
33.16515
20
20.412709
30
0
11
3.71524898223543
21
-2.14499999999967
31
0
210
0
220
0
230
1
40
0.989133
41
-2.23576755314648
42
-1.71960297340391
0
ELLIPSE
5
DC
100
AcDbEntity
8
1
62
256
6
ByLayer
370
18
48
1
60
0
100
AcDbEllipse
10
15.636661
20
7.623963
30
0
11
-2.23001541474504
21
1.2874999999998
31
0
210
0
220
0
230
1
40
0.989133
41
-0.605754817613669
42
-0.20802305534692
0
ELLIPSE
5
DD
100
AcDbEntity
8
1
62
256
6
ByLayer
370
18
48
1
60
0
100
AcDbEllipse
10
15.636661
20
7.623963
30
0
11
-2.23001541474504
21
1.2874999999998
31
0
210
0
220
0
230
1
40
0.989133
41
0.441442733582933
42
0.839174495849668
0
ELLIPSE
5
DE
100
AcDbEntity
8
1
62
256
6
ByLayer
370
18
48
1
60
0
100
AcDbEllipse
10
15.652467
20
7.651338
30
0
11
4.53364298881177
21
-2.6174999999996
31
0
210
0
220
0
230
1
40
0.989133
41
0
42
6.28318530717959
0
ELLIPSE
5
DF
100
AcDbEntity
8
1
62
256
6
ByLayer
370
18
48
1
60
0
100
AcDbEllipse
10
15.233447
20
6.925574
30
0
11
-2.23001541474504
21
1.2874999999998
31
0
210
0
220
0
230
1
40
0.989133
41
-2.30241815774015
42
-1.65295236881024
0
ELLIPSE
5
E0
100
AcDbEntity
8
1
62
256
6
ByLayer
370
18
48
1
60
0
100
AcDbEllipse
10
15.652467
20
7.651338
30
0
11
2.55251541474506
21
-1.47369546181343
31
0
210
0
220
0
230
1
40
0.989133
41
0
42
6.28318530717959
0
ELLIPSE
5
E1
100
AcDbEntity
8
1
62
256
6
ByLayer
370
18
48
1
60
0
100
AcDbEllipse
10
15.636661
20
7.623963
30
0
11
-2.23001541474504
21
1.2874999999998
31
0
210
0
220
0
230
1
40
0.989133
41
2.53583783597609
42
2.93356959824283
0
ELLIPSE
5
E2
100
AcDbEntity
8
1
62
256
6
ByLayer
370
18
48
1
60
0
100
AcDbEllipse
10
15.636661
20
7.623963
30
0
11
-2.23001541474504
21
1.2874999999998
31
0
210
0
220
0
230
1
40
0.989133
41
-1.65295236881024
42
-1.25522060654351
0
ELLIPSE
5
E3
100
AcDbEntity
8
1
62
256
6
ByLayer
370
18
48
1
60
0
100
AcDbEllipse
10
15.636661
20
7.623963
30
0
11
-2.23001541474504
21
1.2874999999998
31
0
210
0
220
0
230
1
40
0.989133
41
1.48864028477953
42
1.88637204704626
0
ELLIPSE
5
E4
100
AcDbEntity
8
1
62
256
6
ByLayer
370
18
48
1
60
0
100
AcDbEllipse
10
15.59623
20
7.553933
30
0
11
5.1961524227069
21
-2.99999999999954
31
0
210
0
220
0
230
1
40
0.989133
41
0
42
6.28318530717959
0
ELLIPSE
5
E5
100
AcDbEntity
8
1
62
256
6
ByLayer
370
18
48
1
60
0
100
AcDbEllipse
10
15.636661
20
7.623963
30
0
11
-2.23001541474504
21
1.2874999999998
31
0
210
0
220
0
230
1
40
0.989133
41
-2.70014992000683
42
-2.30241815774015
0
ELLIPSE
5
E6
100
AcDbEntity
8
1
62
256
6
ByLayer
370
18
48
1
60
0
100
AcDbEllipse
10
15.233447
20
6.925574
30
0
11
-2.23001541474504
21
1.2874999999998
31
0
210
0
220
0
230
1
40
0.989133
41
-1.25522060654351
42
-0.605754817613656
0
ELLIPSE
5
E7
100
AcDbEntity
8
1
62
256
6
ByLayer
370
18
48
1
60
0
100
AcDbEllipse
10
25.988728
20
8.142231
30
0
11
-2.0622229927618
21
1.19062499999982
31
0
210
0
220
0
230
1
40
0.989133
41
0.779934954875853
42
2.35073128167073
0
ELLIPSE
5
E8
100
AcDbEntity
8
1
62
256
6
ByLayer
370
18
48
1
60
0
100
AcDbEllipse
10
33.27483
20
20.602681
30
0
11
-3.94907584125724
21
2.27999999999965
31
0
210
0
220
0
230
1
40
0.989133
41
0
42
6.28318530717959
0
ELLIPSE
5
E9
100
AcDbEntity
8
1
62
256
6
ByLayer
370
18
48
1
60
0
100
AcDbEllipse
10
45.873049
20
13.238039
30
0
11
-2.0622229927618
21
1.19062499999982
31
0
210
0
220
0
230
1
40
0.989133
41
2.35073128167077
42
-2.36165769871395
0
ELLIPSE
5
EA
100
AcDbEntity
8
1
62
256
6
ByLayer
370
18
48
1
60
0
100
AcDbEllipse
10
40.560931
20
33.063131
30
0
11
-2.0622229927618
21
1.19062499999982
31
0
210
0
220
0
230
1
40
0.989133
41
-2.36165769871394
42
-0.790861371919028
0
ELLIPSE
5
EB
100
AcDbEntity
8
1
62
256
6
ByLayer
370
18
48
1
60
0
100
AcDbEllipse
10
20.676611
20
27.967323
30
0
11
-2.0622229927618
21
1.19062499999982
31
0
210
0
220
0
230
1
40
0.989133
41
-0.790861371919039
42
0.779934954875844
0
POINT
5
6C
100
AcDbEntity
8
80
62
256
6
ByLayer
370
18
48
1
60
0
100
AcDbPoint
10
0
20
0
30
0
39
0
210
0
220
0
230
1
50
360
0
POINT
5
6E
100
AcDbEntity
8
81
62
256
6
ByLayer
370
18
48
1
60
0
100
AcDbPoint
10
41.029963
20
35.075
30
0
39
0
210
0
220
0
230
1
50
360
0
POINT
5
70
100
AcDbEntity
8
1
62
256
6
ByLayer
370
18
48
1
60
0
100
AcDbPoint
10
-258.970037
20
-24.925
30
0
39
0
210
0
220
0
230
1
50
360
0
SPLINE
5
EC
100
AcDbEntity
8
1
62
256
6
ByLayer
370
18
48
1
60
0
100
AcDbSpline
70
4
71
3
72
8
73
4
40
0
40
0
40
0
40
0
40
1
40
1
40
1
40
1
41
1
10
30.0239738636511
20
22.7763815581271
30
0
41
1
10
30.1212297823294
20
22.8450515976725
30
0
41
1
10
30.2215850452348
20
22.9098238188731
30
0
41
1
10
30.325095576013
20
22.9706310278057
30
0
0
SPLINE
5
ED
100
AcDbEntity
8
1
62
256
6
ByLayer
370
18
48
1
60
0
100
AcDbSpline
70
4
71
3
72
16
73
12
40
0
40
0
40
0
40
0
40
0.159195348336533
40
0.159195348336533
40
0.346300744341307
40
0.346300744341307
40
0.720511536350854
40
0.720511536350854
40
0.907616932355628
40
0.907616932355628
40
1
40
1
40
1
40
1
41
1
10
36.812951920128
20
19.0145483961623
30
0
41
1
10
36.8047254486245
20
18.9107610779873
30
0
41
1
10
36.7928808168498
20
18.8065656699015
30
0
41
1
10
36.7592964365393
20
18.5817520577241
30
0
41
1
10
36.7362783564108
20
18.4616986555557
30
0
41
1
10
36.6527360221562
20
18.1057244209661
30
0
41
1
10
36.5778220169254
20
17.8739606136
30
0
41
1
10
36.4354973830647
20
17.5349290525874
30
0
41
1
10
36.3829335687076
20
17.4232884851743
30
0
41
1
10
36.2983364223999
20
17.2618257846702
30
0
41
1
10
36.2693301958778
20
17.209186911758
30
0
41
1
10
36.2392876523123
20
17.1572733939777
30
0
0
SPLINE
5
EE
100
AcDbEntity
8
1
62
256
6
ByLayer
370
18
48
1
60
0
100
AcDbSpline
70
4
71
3
72
16
73
12
40
0
40
0
40
0
40
0
40
0.0558030316808476
40
0.0558030316808476
40
0.244642425344678
40
0.244642425344678
40
0.433481819008509
40
0.433481819008509
40
0.622321212672339
40
0.622321212672339
40
1
40
1
40
1
40
1
41
1
10
28.7825343936824
20
20.9031462170184
30
0
41
1
10
28.794005473763
20
20.9414235560506
30
0
41
1
10
28.8061819558761
20
20.9797714847854
30
0
41
1
10
28.862543037638
20
21.1474602560905
30
0
41
1
10
28.9137886435708
20
21.276214819984
30
0
41
1
10
29.0315243398737
20
21.5303171154283
30
0
41
1
10
29.0980163143433
20
21.6556972178879
30
0
41
1
10
29.2465476629176
20
21.9018899556364
30
0
41
1
10
29.3288176659795
20
22.0228543012417
30
0
41
1
10
29.5937811090809
20
22.369950349275
30
0
41
1
10
29.7959001756747
20
22.5831807219751
30
0
41
1
10
30.0239738636485
20
22.7763815581293
30
0
0
SPLINE
5
EF
100
AcDbEntity
8
1
62
256
6
ByLayer
370
18
48
1
60
0
100
AcDbSpline
70
4
71
3
72
8
73
4
40
0
40
0
40
0
40
0
40
1
40
1
40
1
40
1
41
1
10
29.8710600795982
20
22.6050445035163
30
0
41
1
10
29.5503509185098
20
22.3358009783079
30
0
41
1
10
29.2274405958935
20
22.065143854967
30
0
41
1
10
28.896755603361
20
21.7894937955163
30
0
0
SPLINE
5
F0
100
AcDbEntity
8
1
62
256
6
ByLayer
370
18
48
1
60
0
100
AcDbSpline
70
4
71
3
72
8
73
4
40
0
40
0
40
0
40
0
40
1
40
1
40
1
40
1
41
1
10
35.8142078155802
20
23.7289583317934
30
0
41
1
10
35.7326901826938
20
23.6140562887205
30
0
41
1
10
35.6511450323243
20
23.4991414675255
30
0
41
1
10
35.5695601661496
20
23.3842082135846
30
0
0
SPLINE
5
F1
100
AcDbEntity
8
1
62
256
6
ByLayer
370
18
48
1
60
0
100
AcDbSpline
70
4
71
3
72
8
73
4
40
0
40
0
40
0
40
0
40
1
40
1
40
1
40
1
41
1
10
29.2030743312292
20
18.8443665921063
30
0
41
1
10
29.373681773597
20
18.9157454739111
30
0
41
1
10
29.5443044258996
20
18.9871431464606
30
0
41
1
10
29.7149490145766
20
19.0585679375647
30
0
0
SPLINE
5
F2
100
AcDbEntity
8
1
62
256
6
ByLayer
370
18
48
1
60
0
100
AcDbSpline
70
4
71
3
72
8
73
4
40
0
40
0
40
0
40
0
40
1
40
1
40
1
40
1
41
1
10
30.8342513615476
20
17.5685372265308
30
0
41
1
10
30.7281667941504
20
17.4111692453025
30
0
41
1
10
30.6221170515627
20
17.2538112253666
30
0
41
1
10
30.5160914407383
20
17.0964601193144
30
0
0
SPLINE
5
F3
100
AcDbEntity
8
1
62
256
6
ByLayer
370
18
48
1
60
0
100
AcDbSpline
70
4
71
3
72
8
73
4
40
0
40
0
40
0
40
0
40
1
40
1
40
1
40
1
41
1
10
36.6888625131204
20
21.8941775025508
30
0
41
1
10
36.8350074005751
20
21.9231675663674
30
0
41
1
10
36.9811254606594
20
21.952122040176
30
0
41
1
10
37.1272249250893
20
21.9810518590015
30
0
0
SPLINE
5
F4
100
AcDbEntity
8
1
62
256
6
ByLayer
370
18
48
1
60
0
100
AcDbSpline
70
4
71
3
72
10
73
6
40
0
40
0
40
0
40
0
40
0.5
40
0.5
40
1
40
1
40
1
40
1
41
1
10
12.9761434323864
20
8.80565876209761
30
0
41
1
10
12.9916385949306
20
8.64656889433968
30
0
41
1
10
13.0077764706127
20
8.48567505883057
30
0
41
1
10
13.0411479391538
20
8.16504198611457
30
0
41
1
10
13.058399505831
20
8.00510840338617
30
0
41
1
10
13.0763245007537
20
7.84563059481977
30
0
0
SPLINE
5
F5
100
AcDbEntity
8
1
62
256
6
ByLayer
370
18
48
1
60
0
100
AcDbSpline
70
4
71
3
72
8
73
4
40
0
40
0
40
0
40
0
40
1
40
1
40
1
40
1
41
1
10
15.1181576186317
20
5.12751420680524
30
0
41
1
10
15.41882826415
20
5.00338777421737
30
0
41
1
10
15.7129413798917
20
4.88732538499951
30
0
41
1
10
16.0031902711398
20
4.77601229017944
30
0
0
SPLINE
5
F6
100
AcDbEntity
8
1
62
256
6
ByLayer
370
18
48
1
60
0
100
AcDbSpline
70
4
71
3
72
10
73
6
40
0
40
0
40
0
40
0
40
0.5
40
0.5
40
1
40
1
40
1
40
1
41
1
10
18.3260193405446
20
6.49221900601361
30
0
41
1
10
18.1992799519861
20
6.39531339203768
30
0
41
1
10
18.071534110418
20
6.29801623689085
30
0
41
1
10
17.8133343848692
20
6.10236841482177
30
0
41
1
10
17.6840982905238
20
6.00494693634323
30
0
41
1
10
17.5555876581907
20
5.90866875789658
30
0
0
SPLINE
5
F7
100
AcDbEntity
8
1
62
256
6
ByLayer
370
18
48
1
60
0
100
AcDbSpline
70
4
71
3
72
10
73
6
40
0
40
0
40
0
40
0
40
0.5
40
0.5
40
1
40
1
40
1
40
1
41
1
10
17.9739104558702
20
9.36514559988979
30
0
41
1
10
17.8278074574649
20
9.42117743120892
30
0
41
1
10
17.6798117275578
20
9.47878051362596
30
0
41
1
10
17.3842700038916
20
9.59600121561118
30
0
41
1
10
17.2365460122384
20
9.65568536990219
30
0
41
1
10
17.0888778033621
20
9.71664751651565
30
0
0
SPLINE
5
F8
100
AcDbEntity
8
1
62
256
6
ByLayer
370
18
48
1
60
0
100
AcDbSpline
70
4
71
3
72
10
73
6
40
0
40
0
40
0
40
0
40
0.5
40
0.5
40
1
40
1
40
1
40
1
41
1
10
13.7177353111665
20
9.3392570051447
30
0
41
1
10
13.5912837807702
20
9.24716461174728
30
0
41
1
10
13.4648096411169
20
9.15568073379393
30
0
41
1
10
13.2174178104591
20
8.97776332551172
30
0
41
1
10
13.0959496847374
20
8.8909214821399
30
0
41
1
10
12.9761434323864
20
8.80565876209761
30
0
0
SPLINE
5
F9
100
AcDbEntity
8
1
62
256
6
ByLayer
370
18
48
1
60
0
100
AcDbSpline
70
4
71
3
72
8
73
4
40
0
40
0
40
0
40
0
40
1
40
1
40
1
40
1
41
1
10
18.0740915242375
20
8.4051174326118
30
0
41
1
10
18.0375940287009
20
8.72983387640437
30
0
41
1
10
18.0046932173279
20
9.0490969340201
30
0
41
1
10
17.9739104558702
20
9.36514559988979
30
0
0
SPLINE
5
FA
100
AcDbEntity
8
1
62
256
6
ByLayer
370
18
48
1
60
0
100
AcDbSpline
70
4
71
3
72
10
73
6
40
0
40
0
40
0
40
0
40
0.5
40
0.5
40
1
40
1
40
1
40
1
41
1
10
15.2989725017911
20
10.5218654779317
30
0
41
1
10
15.1722331132328
20
10.4249598639559
30
0
41
1
10
15.0444872716646
20
10.327662708809
30
0
41
1
10
14.7862875461158
20
10.1320148867399
30
0
41
1
10
14.6570514517705
20
10.0345934082614
30
0
41
1
10
14.5285408194372
20
9.93831522981478
30
0
0
SPLINE
5
FB
100
AcDbEntity
8
1
62
256
6
ByLayer
370
18
48
1
60
0
100
AcDbSpline
70
4
71
3
72
8
73
4
40
0
40
0
40
0
40
0
40
1
40
1
40
1
40
1
41
1
10
16.1551653507254
20
10.1204115562359
30
0
41
1
10
15.859939133422
20
10.2539680151101
30
0
41
1
10
15.57610151913
20
10.3878280949123
30
0
41
1
10
15.2989725017911
20
10.5218654779317
30
0
0
SPLINE
5
FC
100
AcDbEntity
8
1
62
256
6
ByLayer
370
18
48
1
60
0
100
AcDbSpline
70
4
71
3
72
8
73
4
40
0
40
0
40
0
40
0
40
1
40
1
40
1
40
1
41
1
10
13.1992314451197
20
6.84280833042934
30
0
41
1
10
13.241173368871
20
6.52752191292302
30
0
41
1
10
13.2843496816939
20
6.22605654589165
30
0
41
1
10
13.3282523170607
20
5.93273216822143
30
0
0
SPLINE
5
FD
100
AcDbEntity
8
1
62
256
6
ByLayer
370
18
48
1
60
0
100
AcDbSpline
70
4
71
3
72
10
73
6
40
0
40
0
40
0
40
0
40
0.5
40
0.5
40
1
40
1
40
1
40
1
41
1
10
16.7447821499198
20
5.3096105332265
30
0
41
1
10
16.6183306195236
20
5.21751813982905
30
0
41
1
10
16.4918564798703
20
5.12603426187576
30
0
41
1
10
16.2444646492125
20
4.94811685359355
30
0
41
1
10
16.1229965234909
20
4.86127501022173
30
0
41
1
10
16.0031902711398
20
4.77601229017944
30
0
0
SPLINE
5
FE
100
AcDbEntity
8
1
62
256
6
ByLayer
370
18
48
1
60
0
100
AcDbSpline
70
4
71
3
72
10
73
6
40
0
40
0
40
0
40
0
40
0.5
40
0.5
40
1
40
1
40
1
40
1
41
1
10
18.3260193405446
20
6.49221900601361
30
0
41
1
10
18.3039200083562
20
6.63987011640614
30
0
41
1
10
18.2818735387803
20
6.79052996708984
30
0
41
1
10
18.2387260345852
20
7.09423044935662
30
0
41
1
10
18.217597382563
20
7.2474487232821
30
0
41
1
10
18.1969984686035
20
7.4022951682216
30
0
0
SPLINE
5
FF
100
AcDbEntity
8
1
62
256
6
ByLayer
370
18
48
1
60
0
100
AcDbSpline
70
4
71
3
72
10
73
6
40
0
40
0
40
0
40
0
40
0.5
40
0.5
40
1
40
1
40
1
40
1
41
1
10
13.3282523170607
20
5.93273216822143
30
0
41
1
10
13.4677511458219
20
5.86526157953688
30
0
41
1
10
13.6098382818351
20
5.79742451229444
30
0
41
1
10
13.8956039698475
20
5.66327121985998
30
0
41
1
10
14.0394508761556
20
5.59687175676606
30
0
41
1
10
14.184445165995
20
5.53127824652566
30
0
0
LINE
5
72
100
AcDbEntity
8
1
62
256
6
ByLayer
370
18
48
1
60
0
100
AcDbLine
10
36.121186
20
17.726578
30
0
11
36.672528
21
18.681531
31
0
39
0
210
0
220
0
230
1
0
LINE
5
73
100
AcDbEntity
8
1
62
256
6
ByLayer
370
18
48
1
60
0
100
AcDbLine
10
10.400077
20
10.553933
30
0
11
10.350835
21
10.468643
31
0
39
0
210
0
220
0
230
1
0
LINE
5
74
100
AcDbEntity
8
1
62
256
6
ByLayer
370
18
48
1
60
0
100
AcDbLine
10
29.657771
20
22.143888
30
0
11
29.106429
21
21.188935
31
0
39
0
210
0
220
0
230
1
0
LINE
5
75
100
AcDbEntity
8
1
62
256
6
ByLayer
370
18
48
1
60
0
100
AcDbLine
10
20.74314
20
4.468643
30
0
11
20.792382
21
4.553933
31
0
39
0
210
0
220
0
230
1
0
LINE
5
76
100
AcDbEntity
8
1
62
256
6
ByLayer
370
18
48
1
60
0
100
AcDbLine
10
18.614388
20
29.157948
30
0
11
18.094176
21
28.256915
31
0
39
0
210
0
220
0
230
1
0
LINE
5
77
100
AcDbEntity
8
1
62
256
6
ByLayer
370
18
48
1
60
0
100
AcDbLine
10
47.366702
20
11.062623
30
0
11
47.935272
21
12.047414
31
0
39
0
210
0
220
0
230
1
0
LINE
5
78
100
AcDbEntity
8
1
62
256
6
ByLayer
370
18
48
1
60
0
100
AcDbLine
10
29.134072
20
21.714074
30
0
11
29.080259
21
21.620867
31
0
39
0
210
0
220
0
230
1
0
LINE
5
79
100
AcDbEntity
8
1
62
256
6
ByLayer
370
18
48
1
60
0
100
AcDbLine
10
36.225574
20
17.133519
30
0
11
36.241663
21
17.161388
31
0
39
0
210
0
220
0
230
1
0
LINE
5
7A
100
AcDbEntity
8
SK1
62
256
6
ByLayer
370
18
48
1
60
0
100
AcDbLine
10
-258.970037
20
-24.925
30
0
11
0
21
-24.925
31
0
39
0
210
0
220
0
230
1
0
LINE
5
7C
100
AcDbEntity
8
SK1
62
256
6
ByLayer
370
18
48
1
60
0
100
AcDbLine
10
-258.970037
20
24.925
30
0
11
0
21
24.925
31
0
39
0
210
0
220
0
230
1
0
LINE
5
7D
100
AcDbEntity
8
SK1
62
256
6
ByLayer
370
18
48
1
60
0
100
AcDbLine
10
0
20
-24.925
30
0
11
0
21
24.925
31
0
39
0
210
0
220
0
230
1
0
LINE
5
7E
100
AcDbEntity
8
SK1
62
256
6
ByLayer
370
18
48
1
60
0
100
AcDbLine
10
-258.970037
20
24.925
30
0
11
-258.970037
21
-24.925
31
0
39
0
210
0
220
0
230
1
0
LINE
5
7F
100
AcDbEntity
8
1
62
256
6
ByLayer
370
18
48
1
60
0
100
AcDbLine
10
1.545481
20
26.11089
30
0
11
1.545481
21
-24.930174
31
0
39
0
210
0
220
0
230
1
0
LINE
5
80
100
AcDbEntity
8
1
62
256
6
ByLayer
370
18
48
1
60
0
100
AcDbLine
10
45.973602
20
-3.179075
30
0
11
47.3667
21
-0.766158
31
0
39
0
210
0
220
0
230
1
0
LINE
5
81
100
AcDbEntity
8
1
62
256
6
ByLayer
370
18
48
1
60
0
100
AcDbLine
10
32.018045
20
6.470795
30
0
11
31.167754
21
4.77222
31
0
39
0
210
0
220
0
230
1
0
LINE
5
82
100
AcDbEntity
8
1
62
256
6
ByLayer
370
18
48
1
60
0
100
AcDbLine
10
20.433479
20
18.950076
30
0
11
21.642146
21
14.439267
31
0
39
0
210
0
220
0
230
1
0
LINE
5
83
100
AcDbEntity
8
1
62
256
6
ByLayer
370
18
48
1
60
0
100
AcDbLine
10
31.843339
20
7.122808
30
0
11
36.534547
21
8.346872
31
0
39
0
210
0
220
0
230
1
0
LINE
5
84
100
AcDbEntity
8
1
62
256
6
ByLayer
370
18
48
1
60
0
100
AcDbLine
10
46.891055
20
11.049166
30
0
11
47.3667
21
11.173275
31
0
39
0
210
0
220
0
230
1
0
LINE
5
85
100
AcDbEntity
8
1
62
256
6
ByLayer
370
18
48
1
60
0
100
AcDbLine
10
30.949956
20
5.585055
30
0
11
31.167754
21
4.77222
31
0
39
0
210
0
220
0
230
1
0
LINE
5
86
100
AcDbEntity
8
1
62
256
6
ByLayer
370
18
48
1
60
0
100
AcDbLine
10
30.822639
20
6.060202
30
0
11
30.949954
21
5.585054
31
0
39
0
210
0
220
0
230
1
0
LINE
5
87
100
AcDbEntity
8
1
62
256
6
ByLayer
370
18
48
1
60
0
100
AcDbLine
10
3.907215
20
-22.746009
30
0
11
2.224782
21
27.00285
31
0
39
0
210
0
220
0
230
1
0
LINE
5
88
100
AcDbEntity
8
1
62
256
6
ByLayer
370
18
48
1
60
0
100
AcDbLine
10
3.907215
20
-22.746009
30
0
11
3.907215
21
-24.968634
31
0
39
0
210
0
220
0
230
1
0
LINE
5
89
100
AcDbEntity
8
1
62
256
6
ByLayer
370
18
48
1
60
0
100
AcDbLine
10
2.224782
20
27.00285
30
0
11
17.825317
21
28.801061
31
0
39
0
210
0
220
0
230
1
0
LINE
5
8A
100
AcDbEntity
8
1
62
256
6
ByLayer
370
18
48
1
60
0
100
AcDbLine
10
30.949954
20
5.585054
30
0
11
31.118872
21
5.971368
31
0
39
0
210
0
220
0
230
1
0
LINE
5
8B
100
AcDbEntity
8
1
62
256
6
ByLayer
370
18
48
1
60
0
100
AcDbLine
10
17.944494
20
28.815509
30
0
11
20.281434
21
20.09393
31
0
39
0
210
0
220
0
230
1
0
LINE
5
8C
100
AcDbEntity
8
1
62
256
6
ByLayer
370
18
48
1
60
0
100
AcDbLine
10
31.843339
20
7.122808
30
0
11
31.211703
21
5.679085
31
0
39
0
210
0
220
0
230
1
0
LINE
5
8D
100
AcDbEntity
8
1
62
256
6
ByLayer
370
18
48
1
60
0
100
AcDbLine
10
12.952735
20
-24.707487
30
0
11
45.973602
21
-3.179075
31
0
39
0
210
0
220
0
230
1
0
LINE
5
8E
100
AcDbEntity
8
1
62
256
6
ByLayer
370
18
48
1
60
0
100
AcDbLine
10
1.704882
20
26.705781
30
0
11
2.224782
21
27.00285
31
0
39
0
210
0
220
0
230
1
0
LINE
5
8F
100
AcDbEntity
8
1
62
256
6
ByLayer
370
18
48
1
60
0
100
AcDbLine
10
6.391977
20
-24.180587
30
0
11
3.907215
21
-22.746009
31
0
39
0
210
0
220
0
230
1
0
LINE
5
90
100
AcDbEntity
8
1
62
256
6
ByLayer
370
18
48
1
60
0
100
AcDbLine
10
1.545481
20
26.11089
30
0
11
1.704882
21
26.705781
31
0
39
0
210
0
220
0
230
1
0
LINE
5
91
100
AcDbEntity
8
1
62
256
6
ByLayer
370
18
48
1
60
0
100
AcDbLine
10
31.118872
20
5.971368
30
0
11
31.16364
21
5.804294
31
0
39
0
210
0
220
0
230
1
0
LINE
5
92
100
AcDbEntity
8
1
62
256
6
ByLayer
370
18
48
1
60
0
100
AcDbLine
10
6.391977
20
-24.180587
30
0
11
5.183249
21
-24.968634
31
0
39
0
210
0
220
0
230
1
0
LINE
5
93
100
AcDbEntity
8
1
62
256
6
ByLayer
370
18
48
1
60
0
100
AcDbLine
10
0
20
-24.925
30
0
11
0
21
24.925
31
0
39
0
210
0
220
0
230
1
0
LINE
5
94
100
AcDbEntity
8
1
62
256
6
ByLayer
370
18
48
1
60
0
100
AcDbLine
10
31.073773
20
6.139682
30
0
11
31.118872
21
5.971368
31
0
39
0
210
0
220
0
230
1
0
LINE
5
95
100
AcDbEntity
8
1
62
256
6
ByLayer
370
18
48
1
60
0
100
AcDbLine
10
31.16364
20
5.804294
30
0
11
31.279905
21
5.834631
31
0
39
0
210
0
220
0
230
1
0
LINE
5
96
100
AcDbEntity
8
1
62
256
6
ByLayer
370
18
48
1
60
0
100
AcDbLine
10
47.3667
20
2.01829
30
0
11
6.391977
21
-24.180587
31
0
39
0
210
0
220
0
230
1
0
LINE
5
97
100
AcDbEntity
8
1
62
256
6
ByLayer
370
18
48
1
60
0
100
AcDbLine
10
32.018045
20
6.470795
30
0
11
31.843339
21
7.122808
31
0
39
0
210
0
220
0
230
1
0
LINE
5
98
100
AcDbEntity
8
1
62
256
6
ByLayer
370
18
48
1
60
0
100
AcDbLine
10
31.012083
20
4.715863
30
0
11
30.662844
21
6.019241
31
0
39
0
210
0
220
0
230
1
0
LINE
5
99
100
AcDbEntity
8
1
62
256
6
ByLayer
370
18
48
1
60
0
100
AcDbLine
10
1.545481
20
-24.930174
30
0
11
3.907215
21
-24.968634
31
0
39
0
210
0
220
0
230
1
0
LINE
5
9A
100
AcDbEntity
8
1
62
256
6
ByLayer
370
18
48
1
60
0
100
AcDbLine
10
22.083242
20
13.36949
30
0
11
24.348373
21
4.915907
31
0
39
0
210
0
220
0
230
1
0
LINE
5
9B
100
AcDbEntity
8
1
62
256
6
ByLayer
370
18
48
1
60
0
100
AcDbLine
10
3.907215
20
-24.968634
30
0
11
5.183249
21
-24.968634
31
0
39
0
210
0
220
0
230
1
0
LINE
5
9C
100
AcDbEntity
8
1
62
256
6
ByLayer
370
18
48
1
60
0
100
AcDbLine
10
5.183249
20
-24.968634
30
0
11
12.952735
21
-24.707487
31
0
39
0
210
0
220
0
230
1
0
LINE
5
9D
100
AcDbEntity
8
1
62
256
6
ByLayer
370
18
48
1
60
0
100
AcDbLine
10
47.3667
20
2.01829
30
0
11
47.3667
21
-0.766158
31
0
39
0
210
0
220
0
230
1
0
LINE
5
9E
100
AcDbEntity
8
1
62
256
6
ByLayer
370
18
48
1
60
0
100
AcDbLine
10
47.3667
20
2.01829
30
0
11
47.3667
21
11.173275
31
0
39
0
210
0
220
0
230
1
0
LINE
5
9F
100
AcDbEntity
8
1
62
256
6
ByLayer
370
18
48
1
60
0
100
AcDbLine
10
30.490835
20
17.052714
30
0
11
30.516091
21
17.09646
31
0
39
0
210
0
220
0
230
1
0
LINE
5
A0
100
AcDbEntity
8
1
62
256
6
ByLayer
370
18
48
1
60
0
100
AcDbLine
10
29.203074
20
18.844367
30
0
11
29.14605
21
18.745598
31
0
39
0
210
0
220
0
230
1
0
LINE
5
A1
100
AcDbEntity
8
1
62
256
6
ByLayer
370
18
48
1
60
0
100
AcDbLine
10
25.105529
20
4.791514
30
0
11
24.972413
21
4.560951
31
0
39
0
210
0
220
0
230
1
0
LINE
5
A2
100
AcDbEntity
8
1
62
256
6
ByLayer
370
18
48
1
60
0
100
AcDbLine
10
24.972413
20
4.560951
30
0
11
30.857245
21
6.069073
31
0
39
0
210
0
220
0
230
1
0
LINE
5
A3
100
AcDbEntity
8
1
62
256
6
ByLayer
370
18
48
1
60
0
100
AcDbLine
10
23.658216
20
7.491608
30
0
11
23.694384
21
7.554253
31
0
39
0
210
0
220
0
230
1
0
LINE
5
A4
100
AcDbEntity
8
1
62
256
6
ByLayer
370
18
48
1
60
0
100
AcDbLine
10
46.449817
20
10.887884
30
0
11
46.485985
21
10.950529
31
0
39
0
210
0
220
0
230
1
0
LINE
5
A5
100
AcDbEntity
8
1
62
256
6
ByLayer
370
18
48
1
60
0
100
AcDbLine
10
31.456212
20
6.237686
30
0
11
26.018161
21
4.844062
31
0
39
0
210
0
220
0
230
1
0
LINE
5
A6
100
AcDbEntity
8
1
62
256
6
ByLayer
370
18
48
1
60
0
100
AcDbLine
10
18.382266
20
27.379345
30
0
11
18.346098
21
27.3167
31
0
39
0
210
0
220
0
230
1
0
LINE
5
A7
100
AcDbEntity
8
1
62
256
6
ByLayer
370
18
48
1
60
0
100
AcDbLine
10
13.015199
20
8.419717
30
0
11
13.314521
21
8.640868
31
0
39
0
210
0
220
0
230
1
0
LINE
5
A8
100
AcDbEntity
8
1
62
256
6
ByLayer
370
18
48
1
60
0
100
AcDbLine
10
17.793784
20
6.703907
30
0
11
17.862879
21
6.140143
31
0
39
0
210
0
220
0
230
1
0
LINE
5
A9
100
AcDbEntity
8
80
62
256
6
ByLayer
370
18
48
1
60
0
100
AcDbLine
10
0
20
0
30
0
11
-5
21
0
31
0
39
0
210
0
220
0
230
1
0
LINE
5
AA
100
AcDbEntity
8
81
62
256
6
ByLayer
370
18
48
1
60
0
100
AcDbLine
10
41.029963
20
35.075
30
0
11
51.029963
21
35.075
31
0
39
0
210
0
220
0
230
1
0
LINE
5
AB
100
AcDbEntity
8
1
62
256
6
ByLayer
370
18
48
1
60
0
100
AcDbLine
10
14.125326
20
9.239927
30
0
11
14.528541
21
9.938315
31
0
39
0
210
0
220
0
230
1
0
LINE
5
AC
100
AcDbEntity
8
1
62
256
6
ByLayer
370
18
48
1
60
0
100
AcDbLine
10
16.685663
20
9.018259
30
0
11
17.556276
21
8.641781
31
0
39
0
210
0
220
0
230
1
0
LINE
5
AD
100
AcDbEntity
8
1
62
256
6
ByLayer
370
18
48
1
60
0
100
AcDbLine
10
13.717735
20
9.339257
30
0
11
13.314521
21
8.640868
31
0
39
0
210
0
220
0
230
1
0
LINE
5
AE
100
AcDbEntity
8
1
62
256
6
ByLayer
370
18
48
1
60
0
100
AcDbLine
10
17.97391
20
9.365146
30
0
11
17.556276
21
8.641781
31
0
39
0
210
0
220
0
230
1
0
LINE
5
AF
100
AcDbEntity
8
1
62
256
6
ByLayer
370
18
48
1
60
0
100
AcDbLine
10
18.074092
20
8.405117
30
0
11
17.670877
21
7.706729
31
0
39
0
210
0
220
0
230
1
0
LINE
5
B0
100
AcDbEntity
8
1
62
256
6
ByLayer
370
18
48
1
60
0
100
AcDbLine
10
16.685663
20
9.018259
30
0
11
17.088878
21
9.716648
31
0
39
0
210
0
220
0
230
1
0
LINE
5
B1
100
AcDbEntity
8
1
62
256
6
ByLayer
370
18
48
1
60
0
100
AcDbLine
10
14.125326
20
9.239927
30
0
11
14.881338
21
9.798501
31
0
39
0
210
0
220
0
230
1
0
LINE
5
B2
100
AcDbEntity
8
1
62
256
6
ByLayer
370
18
48
1
60
0
100
AcDbLine
10
16.155165
20
10.120412
30
0
11
15.751951
21
9.422023
31
0
39
0
210
0
220
0
230
1
0
LINE
5
B3
100
AcDbEntity
8
1
62
256
6
ByLayer
370
18
48
1
60
0
100
AcDbLine
10
14.881338
20
9.798501
30
0
11
15.751951
21
9.422023
31
0
39
0
210
0
220
0
230
1
0
LINE
5
B4
100
AcDbEntity
8
1
62
256
6
ByLayer
370
18
48
1
60
0
100
AcDbLine
10
17.556276
20
8.641781
30
0
11
17.670877
21
7.706729
31
0
39
0
210
0
220
0
230
1
0
LINE
5
B5
100
AcDbEntity
8
1
62
256
6
ByLayer
370
18
48
1
60
0
100
AcDbLine
10
15.298973
20
10.521865
30
0
11
14.881338
21
9.798501
31
0
39
0
210
0
220
0
230
1
0
LINE
5
B6
100
AcDbEntity
8
1
62
256
6
ByLayer
370
18
48
1
60
0
100
AcDbLine
10
17.793784
20
6.703907
30
0
11
18.196998
21
7.402295
31
0
39
0
210
0
220
0
230
1
0
LINE
5
B7
100
AcDbEntity
8
1
62
256
6
ByLayer
370
18
48
1
60
0
100
AcDbLine
10
23.694384
20
7.554253
30
0
11
18.382266
21
27.379345
31
0
39
0
210
0
220
0
230
1
0
LINE
5
B8
100
AcDbEntity
8
1
62
256
6
ByLayer
370
18
48
1
60
0
100
AcDbLine
10
26.601665
20
5.85472
30
0
11
26.018161
21
4.844062
31
0
39
0
210
0
220
0
230
1
0
LINE
5
B9
100
AcDbEntity
8
1
62
256
6
ByLayer
370
18
48
1
60
0
100
AcDbLine
10
46.485985
20
10.950529
30
0
11
26.601665
21
5.85472
31
0
39
0
210
0
220
0
230
1
0
LINE
5
BA
100
AcDbEntity
8
1
62
256
6
ByLayer
370
18
48
1
60
0
100
AcDbLine
10
42.855276
20
33.651109
30
0
11
48.167393
21
13.826017
31
0
39
0
210
0
220
0
230
1
0
LINE
5
BB
100
AcDbEntity
8
1
62
256
6
ByLayer
370
18
48
1
60
0
100
AcDbLine
10
20.063674
20
30.254833
30
0
11
39.947995
21
35.350642
31
0
39
0
210
0
220
0
230
1
0
MTEXT
5
100
100
AcDbEntity
8
SK6
62
256
6
ByLayer
370
13
48
1
60
0
100
AcDbMText
10
-205.92317
20
-49.986925
30
0
210
0
220
0
230
1
1
\W0.7875;PSKNR 5050T 25
40
3.5
41
0
44
1.084337
50
0
71
7
72
5
7
iso_b_vert
0
DIMENSION
5
112
100
AcDbEntity
8
SK2
62
256
6
ByLayer
370
13
48
1
60
0
100
AcDbDimension
2
DimnDraft3D1
10
-268.720037
20
-24.925
30
0
11
-268.720037
21
0.075
31
0
70
32
71
5
72
1
41
1
210
0
220
0
230
1
3
Standard
100
AcDbAlignedDimension
13
-260.557537
23
25.075
33
0
14
-260.557537
24
-24.925
34
0
50
90
100
AcDbRotatedDimension
1001
ACAD
1000
DSTYLE
1002
{
1070
    74
1070
     0
1070
   279
1070
     0
1070
   172
1070
     1
1070
   173
1070
     1
1070
   340
1005
101
1070
   271
1070
     1
1070
   272
1070
     2
1070
    77
1070
     1
1070
    73
1070
     0
1070
   171
1070
     3
1070
   274
1070
     4
1070
   177
1070
   150
1070
   176
1070
     9
1070
   178
1070
    43
1070
    78
1070
     8
1070
    48
1040
-0.005
1070
    41
1041
3.175
1070
   147
1041
2.25
1070
    42
1041
1.5875
1070
    44
1041
3.175
1070
   140
1041
4.5
1070
   343
1005
113
1070
   344
1005
113
1002
}
0
DIMENSION
5
128
100
AcDbEntity
8
2
62
256
6
ByLayer
370
13
48
1
60
0
100
AcDbDimension
2
DimnDraft3D2
10
80.2693
20
35.425
30
0
11
80.2693
21
5.25
31
0
70
32
71
5
72
1
41
1
210
0
220
0
230
1
3
Standard
100
AcDbAlignedDimension
13
-10.978105
23
-24.925
33
0
14
43.967463
24
35.425
34
0
50
90
100
AcDbRotatedDimension
1001
ACAD
1000
DSTYLE
1002
{
1070
    74
1070
     0
1070
   279
1070
     0
1070
   172
1070
     1
1070
   173
1070
     1
1070
   340
1005
101
1070
   271
1070
     1
1070
   272
1070
     2
1070
    77
1070
     1
1070
    73
1070
     0
1070
   171
1070
     3
1070
   274
1070
     4
1070
   177
1070
   150
1070
   176
1070
     9
1070
   178
1070
    43
1070
    78
1070
     8
1070
    48
1040
-0.005
1070
    41
1041
3.175
1070
   147
1041
2.25
1070
    42
1041
1.5875
1070
    44
1041
3.175
1070
   140
1041
4.5
1070
   343
1005
113
1070
   344
1005
113
1002
}
0
DIMENSION
5
136
100
AcDbEntity
8
SK2
62
256
6
ByLayer
370
13
48
1
60
0
100
AcDbDimension
2
DimnDraft3D3
10
42.379963
20
42.925
30
0
11
-108.295037
21
42.925
31
0
70
32
71
5
72
1
41
1
210
0
220
0
230
1
3
Standard
100
AcDbAlignedDimension
13
-258.970037
23
26.6625
33
0
14
42.379963
24
37.0125
34
0
50
0
100
AcDbRotatedDimension
1001
ACAD
1000
DSTYLE
1002
{
1070
   279
1070
     0
1070
   172
1070
     1
1070
   173
1070
     1
1070
   340
1005
101
1070
   271
1070
     1
1070
   272
1070
     2
1070
    77
1070
     1
1070
    73
1070
     0
1070
   171
1070
     3
1070
   274
1070
     4
1070
   177
1070
   150
1070
   176
1070
     9
1070
   178
1070
    43
1070
    78
1070
     8
1070
    48
1040
-0.005
1070
    41
1041
3.175
1070
   147
1041
2.25
1070
    42
1041
1.5875
1070
    44
1041
3.175
1070
   140
1041
4.5
1070
   343
1005
113
1070
   344
1005
113
1002
}
0
DIMENSION
5
144
100
AcDbEntity
8
2
62
256
6
ByLayer
370
13
48
1
60
0
100
AcDbDimension
2
DimnDraft3D4
10
37.617463
20
35.425
30
0
11
63.179285
21
19.03998
31
0
70
34
71
5
72
1
41
1
210
0
220
0
230
1
3
Standard
100
AcDb2LineAngularDimension
13
42.298824
23
33.660063
33
0
14
48.7693
24
9.511917
34
0
15
42.379963
25
35.425
35
0
16
66.749375
26
16.300553
36
0
40
0
0
ENDSEC
0
SECTION
2
OBJECTS
0
DICTIONARY
5
1ae
330
0
100
AcDbDictionary
280
0
281
1
3
ACAD_GROUP
350
1af
3
ACAD_MLINESTYLE
350
1b0
0
DICTIONARY
5
1af
330
0
100
AcDbDictionary
280
0
281
1
0
DICTIONARY
5
1b0
330
0
100
AcDbDictionary
280
0
281
1
3
Standard
350
18
0
MLINESTYLE
5
18
330
1b0
100
AcDbMlineStyle
2
Standard
70
0
3

62
256
51
90
52
90
71
2
49
-0.5
62
256
6
ByLayer
49
0.5
62
256
6
ByLayer
0
RASTERVARIABLES
5
19d
330

100
AcDbRasterVariables
90
0
70
1
71
1
72
1
0
ENDSEC
0
EOF
