0
SECTION
2
HEADER
9
$ACADVER
1
AC1015
9
$DWGCODEPAGE
3
ANSI_1252
9
$HANDSEED
5
1bc
9
$ANGBASE
50
0
9
$ANGDIR
70
0
9
$ATTMODE
70
1
9
$AUNITS
70
0
9
$AUPREC
70
0
9
$CECOLOR
62
256
9
$CELTSCALE
40
1
9
$CELTYPE
6
ByLayer
9
$CELWEIGHT
370
18
9
$CLAYER
8
0
9
$CMLJUST
70
0
9
$CMLSCALE
40
1
9
$CMLSTYLE
2
Standard
9
$DIMSTYLE
2
Standard
9
$TEXTSIZE
40
0.2
9
$TEXTSTYLE
7
Standard
9
$LUNITS
70
2
9
$LUPREC
70
4
9
$EXTNAMES
290
1
9
$INSUNITS
70
4
9
$LTSCALE
40
1
9
$LWDISPLAY
290
1
9
$PDMODE
70
0
9
$PDSIZE
40
0
9
$PLINEGEN
70
0
0
ENDSEC
0
SECTION
2
CLASSES
0
CLASS
1
RASTERVARIABLES
2
AcDbRasterVariables
3
ISM
90
0
280
0
281
0
0
ENDSEC
0
SECTION
2
TABLES
0
TABLE
2
VPORT
5
1b2
100
AcDbSymbolTable
0
VPORT
5
1
100
AcDbSymbolTableRecord
100
AcDbViewportTableRecord
2
*Active
70
0
10
0
20
0
11
1
21
1
12
-1
22
1
13
0
23
0
14
0.5
24
0.5
15
10
25
10
16
0
26
0
36
1
17
0
27
0
37
0
0
ENDTAB
0
TABLE
2
LTYPE
5
1b3
100
AcDbSymbolTable
0
LTYPE
5
14
100
AcDbSymbolTableRecord
100
AcDbLinetypeTableRecord
70
0
2
ByBlock
3

72
65
73
0
40
0
0
LTYPE
5
15
100
AcDbSymbolTableRecord
100
AcDbLinetypeTableRecord
70
0
2
ByLayer
3

72
65
73
0
40
0
0
LTYPE
5
16
100
AcDbSymbolTableRecord
100
AcDbLinetypeTableRecord
70
0
2
CONTINUOUS
3
Solid line
72
65
73
0
40
0
0
LTYPE
5
6A
100
AcDbSymbolTableRecord
100
AcDbLinetypeTableRecord
70
0
2
CENTER
3
____ _ ____ _ ____ _ ____
72
65
73
4
40
47.5
49
22
74
0
49
-8.5
74
0
49
8.5
74
0
49
-8.5
74
0
0
LTYPE
5
6B
100
AcDbSymbolTableRecord
100
AcDbLinetypeTableRecord
70
0
2
DASHED
3
__ __ __ __ __ __ __ __ __
72
65
73
2
40
25.72
49
12.86
74
0
49
-12.86
74
0
0
ENDTAB
0
TABLE
2
LAYER
5
1b4
100
AcDbSymbolTable
0
LAYER
5
10
100
AcDbSymbolTableRecord
100
AcDbLayerTableRecord
2
0
70
0
62
7
6
CONTINUOUS
290
1
370
-3
390
0
0
LAYER
5
6D
100
AcDbSymbolTableRecord
100
AcDbLayerTableRecord
2
1
70
0
62
4
6
CONTINUOUS
290
1
370
-3
390
0
0
LAYER
5
6F
100
AcDbSymbolTableRecord
100
AcDbLayerTableRecord
2
80
70
0
62
-6
6
CONTINUOUS
290
1
370
-3
390
0
0
LAYER
5
71
100
AcDbSymbolTableRecord
100
AcDbLayerTableRecord
2
81
70
0
62
-3
6
CONTINUOUS
290
1
370
-3
390
0
0
LAYER
5
11D
100
AcDbSymbolTableRecord
100
AcDbLayerTableRecord
2
2
70
0
62
7
6
CONTINUOUS
290
1
370
-3
390
0
0
LAYER
5
19f
100
AcDbSymbolTableRecord
100
AcDbLayerTableRecord
2
SK1
70
0
62
4
6
CONTINUOUS
290
1
370
-3
390
0
0
LAYER
5
1a0
100
AcDbSymbolTableRecord
100
AcDbLayerTableRecord
2
SK6
70
0
62
5
6
CONTINUOUS
290
1
370
-3
390
0
0
LAYER
5
1a1
100
AcDbSymbolTableRecord
100
AcDbLayerTableRecord
2
SK2
70
0
62
7
6
CONTINUOUS
290
1
370
-3
390
0
0
ENDTAB
0
TABLE
2
STYLE
5
1b5
100
AcDbSymbolTable
0
STYLE
5
11
100
AcDbSymbolTableRecord
100
AcDbTextStyleTableRecord
2
Standard
3
txt
70
0
71
0
40
0
41
1
42
0
50
0
0
STYLE
5
102
100
AcDbSymbolTableRecord
100
AcDbTextStyleTableRecord
2
iso_b_vert
3
simplex.shx
70
0
71
0
40
0
41
1
42
0
50
0
0
STYLE
5
103
100
AcDbSymbolTableRecord
100
AcDbTextStyleTableRecord
2
DWGDirectTextStyle
3
simplex
70
0
71
0
40
0
41
1
42
0
50
0
0
ENDTAB
0
TABLE
2
DIMSTYLE
5
1b6
100
AcDbSymbolTable
100
AcDbDimStyleTable
0
DIMSTYLE
105
27
100
AcDbSymbolTableRecord
100
AcDbDimStyleTableRecord
2
Standard
70
0
3
<>
41
0.18
42
0.0625
44
0.18
140
0.18
147
0.09
73
0
74
0
77
1
271
2
275
0
278
52
280
0
340
11
0
ENDTAB
0
TABLE
2
VIEW
5
1b7
100
AcDbSymbolTable
0
ENDTAB
0
TABLE
2
UCS
5
1b8
100
AcDbSymbolTable
0
ENDTAB
0
TABLE
2
APPID
5
1b9
100
AcDbSymbolTable
0
APPID
5
12
100
AcDbSymbolTableRecord
100
AcDbRegAppTableRecord
2
ACAD
70
0
0
ENDTAB
0
TABLE
2
BLOCK_RECORD
5
1ba
100
AcDbSymbolTable
0
BLOCK_RECORD
5
1F
100
AcDbSymbolTableRecord
100
AcDbBlockTableRecord
2
*Model_Space
340
0
70
0
0
BLOCK_RECORD
5
1B
100
AcDbSymbolTableRecord
100
AcDbBlockTableRecord
2
*Paper_Space
340
0
70
0
0
BLOCK_RECORD
5
23
100
AcDbSymbolTableRecord
100
AcDbBlockTableRecord
2
*Paper_Space0
340
0
70
0
0
BLOCK_RECORD
5
105
100
AcDbSymbolTableRecord
100
AcDbBlockTableRecord
2
DimnDraft3D1
340
0
70
0
0
BLOCK_RECORD
5
114
100
AcDbSymbolTableRecord
100
AcDbBlockTableRecord
2
_CLOSED
340
0
70
0
0
BLOCK_RECORD
5
11B
100
AcDbSymbolTableRecord
100
AcDbBlockTableRecord
2
DimnDraft3D2
340
0
70
0
0
BLOCK_RECORD
5
12A
100
AcDbSymbolTableRecord
100
AcDbBlockTableRecord
2
DimnDraft3D3
340
0
70
0
0
BLOCK_RECORD
5
138
100
AcDbSymbolTableRecord
100
AcDbBlockTableRecord
2
DimnDraft3D4
340
0
70
0
0
ENDTAB
0
ENDSEC
0
SECTION
2
BLOCKS
0
BLOCK
5
20
100
AcDbEntity
8
0
100
AcDbBlockBegin
2
*Model_Space
70
0
10
0
20
0
30
0
3
*Model_Space
0
ENDBLK
5
21
100
AcDbEntity
8
0
100
AcDbBlockEnd
0
BLOCK
5
1C
100
AcDbEntity
8
0
100
AcDbBlockBegin
2
*Paper_Space
70
0
10
0
20
0
30
0
3
*Paper_Space
0
ENDBLK
5
1D
100
AcDbEntity
8
0
100
AcDbBlockEnd
0
BLOCK
5
24
100
AcDbEntity
8
0
100
AcDbBlockBegin
2
*Paper_Space0
70
0
10
0
20
0
30
0
3
*Paper_Space0
0
ENDBLK
5
25
100
AcDbEntity
8
0
100
AcDbBlockEnd
0
BLOCK
5
111
100
AcDbEntity
8
0
100
AcDbBlockBegin
2
DimnDraft3D1
70
0
10
0
20
0
30
0
3
DimnDraft3D1
0
MTEXT
5
106
100
AcDbEntity
8
SK2
62
256
6
ByLayer
370
13
48
1
60
0
100
AcDbMText
10
-114.1807
20
-1.500658
30
0
210
0
220
0
230
1
1
\W0.6740;20
40
4.5
41
0
44
1.084337
50
90
71
7
72
5
7
iso_b_vert
0
LINE
5
108
100
AcDbEntity
8
SK2
62
256
6
ByLayer
370
13
48
1
60
0
100
AcDbLine
10
-104.8932
20
10.0625
30
0
11
-116.2307
21
10.0625
31
0
39
0
210
0
220
0
230
1
0
LINE
5
109
100
AcDbEntity
8
SK2
62
256
6
ByLayer
370
13
48
1
60
0
100
AcDbLine
10
-104.8932
20
-9.9375
30
0
11
-116.2307
21
-9.9375
31
0
39
0
210
0
220
0
230
1
0
LINE
5
10A
100
AcDbEntity
8
SK2
62
256
6
ByLayer
370
13
48
1
60
0
100
AcDbLine
10
-113.0557
20
10.0625
30
0
11
-113.0557
21
-9.9375
31
0
39
0
210
0
220
0
230
1
0
LINE
5
10B
100
AcDbEntity
8
SK2
62
256
6
ByLayer
370
13
48
1
60
0
100
AcDbLine
10
-113.0557
20
10.0625
30
0
11
-112.204961
21
6.887503
31
0
39
0
210
0
220
0
230
1
0
LINE
5
10C
100
AcDbEntity
8
SK2
62
256
6
ByLayer
370
13
48
1
60
0
100
AcDbLine
10
-113.0557
20
10.0625
30
0
11
-113.906438
21
6.887497
31
0
39
0
210
0
220
0
230
1
0
LINE
5
10D
100
AcDbEntity
8
SK2
62
256
6
ByLayer
370
13
48
1
60
0
100
AcDbLine
10
-112.204961
20
6.887503
30
0
11
-113.906438
21
6.887497
31
0
39
0
210
0
220
0
230
1
0
LINE
5
10E
100
AcDbEntity
8
SK2
62
256
6
ByLayer
370
13
48
1
60
0
100
AcDbLine
10
-113.0557
20
-9.9375
30
0
11
-113.906438
21
-6.762503
31
0
39
0
210
0
220
0
230
1
0
LINE
5
10F
100
AcDbEntity
8
SK2
62
256
6
ByLayer
370
13
48
1
60
0
100
AcDbLine
10
-113.0557
20
-9.9375
30
0
11
-112.204961
21
-6.762497
31
0
39
0
210
0
220
0
230
1
0
LINE
5
110
100
AcDbEntity
8
SK2
62
256
6
ByLayer
370
13
48
1
60
0
100
AcDbLine
10
-113.906438
20
-6.762503
30
0
11
-112.204961
21
-6.762497
31
0
39
0
210
0
220
0
230
1
0
ENDBLK
5
112
100
AcDbEntity
8
0
100
AcDbBlockEnd
0
BLOCK
5
115
100
AcDbEntity
8
0
100
AcDbBlockBegin
2
_CLOSED
70
0
10
0
20
0
30
0
3
_CLOSED
0
LINE
5
117
100
AcDbEntity
8
0
62
256
6
ByLayer
370
-2
48
1
60
0
100
AcDbLine
10
-1
20
0.166667
30
0
11
0
21
0
31
0
39
0
210
0
220
0
230
1
0
LINE
5
118
100
AcDbEntity
8
0
62
256
6
ByLayer
370
-2
48
1
60
0
100
AcDbLine
10
0
20
0
30
0
11
-1
21
-0.166667
31
0
39
0
210
0
220
0
230
1
0
LINE
5
119
100
AcDbEntity
8
0
62
256
6
ByLayer
370
-2
48
1
60
0
100
AcDbLine
10
-1
20
0.166667
30
0
11
-1
21
-0.166667
31
0
39
0
210
0
220
0
230
1
0
LINE
5
11A
100
AcDbEntity
8
0
62
256
6
ByLayer
370
-2
48
1
60
0
100
AcDbLine
10
0
20
0
30
0
11
-1
21
0
31
0
39
0
210
0
220
0
230
1
0
ENDBLK
5
116
100
AcDbEntity
8
0
100
AcDbBlockEnd
0
BLOCK
5
127
100
AcDbEntity
8
0
100
AcDbBlockBegin
2
DimnDraft3D2
70
0
10
0
20
0
30
0
3
DimnDraft3D2
0
MTEXT
5
11C
100
AcDbEntity
8
2
62
256
6
ByLayer
370
13
48
1
60
0
100
AcDbMText
10
56.498083
20
1.174342
30
0
210
0
220
0
230
1
1
\W0.6740;25
40
4.5
41
0
44
1.084337
50
90
71
7
72
5
7
iso_b_vert
0
LINE
5
11E
100
AcDbEntity
8
2
62
256
6
ByLayer
370
13
48
1
60
0
100
AcDbLine
10
-5.472081
20
-9.9375
30
0
11
60.798083
21
-9.9375
31
0
39
0
210
0
220
0
230
1
0
LINE
5
11F
100
AcDbEntity
8
2
62
256
6
ByLayer
370
13
48
1
60
0
100
AcDbLine
10
24.6318
20
15.4125
30
0
11
60.798083
21
15.4125
31
0
39
0
210
0
220
0
230
1
0
LINE
5
120
100
AcDbEntity
8
2
62
256
6
ByLayer
370
13
48
1
60
0
100
AcDbLine
10
57.623083
20
-9.9375
30
0
11
57.623083
21
15.4125
31
0
39
0
210
0
220
0
230
1
0
LINE
5
121
100
AcDbEntity
8
2
62
256
6
ByLayer
370
13
48
1
60
0
100
AcDbLine
10
57.623083
20
-9.9375
30
0
11
56.772344
21
-6.762503
31
0
39
0
210
0
220
0
230
1
0
LINE
5
122
100
AcDbEntity
8
2
62
256
6
ByLayer
370
13
48
1
60
0
100
AcDbLine
10
57.623083
20
-9.9375
30
0
11
58.473821
21
-6.762497
31
0
39
0
210
0
220
0
230
1
0
LINE
5
123
100
AcDbEntity
8
2
62
256
6
ByLayer
370
13
48
1
60
0
100
AcDbLine
10
56.772344
20
-6.762503
30
0
11
58.473821
21
-6.762497
31
0
39
0
210
0
220
0
230
1
0
LINE
5
124
100
AcDbEntity
8
2
62
256
6
ByLayer
370
13
48
1
60
0
100
AcDbLine
10
57.623083
20
15.4125
30
0
11
58.473821
21
12.237503
31
0
39
0
210
0
220
0
230
1
0
LINE
5
125
100
AcDbEntity
8
2
62
256
6
ByLayer
370
13
48
1
60
0
100
AcDbLine
10
57.623083
20
15.4125
30
0
11
56.772344
21
12.237497
31
0
39
0
210
0
220
0
230
1
0
LINE
5
126
100
AcDbEntity
8
2
62
256
6
ByLayer
370
13
48
1
60
0
100
AcDbLine
10
58.473821
20
12.237503
30
0
11
56.772344
21
12.237497
31
0
39
0
210
0
220
0
230
1
0
ENDBLK
5
128
100
AcDbEntity
8
0
100
AcDbBlockEnd
0
BLOCK
5
135
100
AcDbEntity
8
0
100
AcDbBlockBegin
2
DimnDraft3D3
70
0
10
0
20
0
30
0
3
DimnDraft3D3
0
MTEXT
5
12B
100
AcDbEntity
8
SK2
62
256
6
ByLayer
370
13
48
1
60
0
100
AcDbMText
10
-42.812936
20
24.0375
30
0
210
0
220
0
230
1
1
\W0.6217;125
40
4.5
41
0
44
1.084337
50
0
71
7
72
5
7
iso_b_vert
0
LINE
5
12C
100
AcDbEntity
8
SK2
62
256
6
ByLayer
370
13
48
1
60
0
100
AcDbLine
10
-103.3057
20
11.65
30
0
11
-103.3057
21
26.0875
31
0
39
0
210
0
220
0
230
1
0
LINE
5
12D
100
AcDbEntity
8
SK2
62
256
6
ByLayer
370
13
48
1
60
0
100
AcDbLine
10
23.0443
20
17
30
0
11
23.0443
21
26.0875
31
0
39
0
210
0
220
0
230
1
0
LINE
5
12E
100
AcDbEntity
8
SK2
62
256
6
ByLayer
370
13
48
1
60
0
100
AcDbLine
10
-103.3057
20
22.9125
30
0
11
23.0443
21
22.9125
31
0
39
0
210
0
220
0
230
1
0
LINE
5
12F
100
AcDbEntity
8
SK2
62
256
6
ByLayer
370
13
48
1
60
0
100
AcDbLine
10
-103.3057
20
22.9125
30
0
11
-100.130703
21
23.763239
31
0
39
0
210
0
220
0
230
1
0
LINE
5
130
100
AcDbEntity
8
SK2
62
256
6
ByLayer
370
13
48
1
60
0
100
AcDbLine
10
-103.3057
20
22.9125
30
0
11
-100.130697
21
22.061761
31
0
39
0
210
0
220
0
230
1
0
LINE
5
131
100
AcDbEntity
8
SK2
62
256
6
ByLayer
370
13
48
1
60
0
100
AcDbLine
10
-100.130703
20
23.763239
30
0
11
-100.130697
21
22.061761
31
0
39
0
210
0
220
0
230
1
0
LINE
5
132
100
AcDbEntity
8
SK2
62
256
6
ByLayer
370
13
48
1
60
0
100
AcDbLine
10
23.0443
20
22.9125
30
0
11
19.869303
21
22.061761
31
0
39
0
210
0
220
0
230
1
0
LINE
5
133
100
AcDbEntity
8
SK2
62
256
6
ByLayer
370
13
48
1
60
0
100
AcDbLine
10
23.0443
20
22.9125
30
0
11
19.869297
21
23.763239
31
0
39
0
210
0
220
0
230
1
0
LINE
5
134
100
AcDbEntity
8
SK2
62
256
6
ByLayer
370
13
48
1
60
0
100
AcDbLine
10
19.869303
20
22.061761
30
0
11
19.869297
21
23.763239
31
0
39
0
210
0
220
0
230
1
0
ENDBLK
5
136
100
AcDbEntity
8
0
100
AcDbBlockEnd
0
BLOCK
5
143
100
AcDbEntity
8
0
100
AcDbBlockBegin
2
DimnDraft3D4
70
0
10
0
20
0
30
0
3
DimnDraft3D4
0
MTEXT
5
139
100
AcDbEntity
8
2
62
256
6
ByLayer
370
13
48
1
60
0
100
AcDbMText
10
34.173694
20
-0.161477
30
0
210
0
220
0
230
1
1
\W0.8292;75%%d0'
40
4.5
41
0
44
1.084337
50
52.4999999999999
71
7
72
5
7
iso_b_vert
0
LINE
5
13A
100
AcDbEntity
8
2
62
256
6
ByLayer
370
13
48
1
60
0
100
AcDbLine
10
26.533958
20
1.69967
30
0
11
28.749535
21
-6.568975
31
0
39
0
210
0
220
0
230
1
0
LINE
5
13B
100
AcDbEntity
8
2
62
256
6
ByLayer
370
13
48
1
60
0
100
AcDbLine
10
24.6318
20
15.4125
30
0
11
45.616514
21
15.4125
31
0
39
0
210
0
220
0
230
1
0
ARC
5
13C
100
AcDbEntity
8
2
62
256
6
ByLayer
370
13
48
1
60
0
100
AcDbCircle
39
0
10
22.859616
20
15.4125
30
0
40
19.5818979132041
210
0
220
0
230
1
100
AcDbArc
50
255.122193
51
29.877807
0
LINE
5
13D
100
AcDbEntity
8
2
62
256
6
ByLayer
370
13
48
1
60
0
100
AcDbLine
10
27.927784
20
-3.502161
30
0
11
25.017033
21
-5.029213
31
0
39
0
210
0
220
0
230
1
0
LINE
5
13E
100
AcDbEntity
8
2
62
256
6
ByLayer
370
13
48
1
60
0
100
AcDbLine
10
27.927784
20
-3.502161
30
0
11
24.643468
21
-3.36925
31
0
39
0
210
0
220
0
230
1
0
LINE
5
13F
100
AcDbEntity
8
2
62
256
6
ByLayer
370
13
48
1
60
0
100
AcDbLine
10
25.017033
20
-5.029213
30
0
11
24.643468
21
-3.36925
31
0
39
0
210
0
220
0
230
1
0
LINE
5
140
100
AcDbEntity
8
2
62
256
6
ByLayer
370
13
48
1
60
0
100
AcDbLine
10
42.441514
20
15.4125
30
0
11
41.463089
21
18.5505
31
0
39
0
210
0
220
0
230
1
0
LINE
5
141
100
AcDbEntity
8
2
62
256
6
ByLayer
370
13
48
1
60
0
100
AcDbLine
10
42.441514
20
15.4125
30
0
11
43.163174
21
18.619306
31
0
39
0
210
0
220
0
230
1
0
LINE
5
142
100
AcDbEntity
8
2
62
256
6
ByLayer
370
13
48
1
60
0
100
AcDbLine
10
41.463089
20
18.5505
30
0
11
43.163174
21
18.619306
31
0
39
0
210
0
220
0
230
1
0
ENDBLK
5
144
100
AcDbEntity
8
0
100
AcDbBlockEnd
0
ENDSEC
0
SECTION
2
ENTITIES
0
ARC
5
B5
100
AcDbEntity
8
1
62
256
6
ByLayer
370
18
48
1
60
0
100
AcDbCircle
39
0
10
0
20
11.5375
30
0
40
1.60000000000139
210
0
220
0
230
-1
100
AcDbArc
50
201.943263
51
270
0
ELLIPSE
5
B6
100
AcDbEntity
8
1
62
256
6
ByLayer
370
18
48
1
60
0
100
AcDbEllipse
10
16.168047
20
-0.732901
30
0
11
-1.66206754824633
21
0.959595146391346
31
0
210
0
220
0
230
1
40
0.989133
41
-2.90785328253503
42
-2.3616576987139
0
ELLIPSE
5
B7
100
AcDbEntity
8
1
62
256
6
ByLayer
370
18
48
1
60
0
100
AcDbEllipse
10
14.320403
20
8.022357
30
0
11
-2.16506350946111
21
1.24999999999999
31
0
210
0
220
0
230
1
40
0.989133
41
0.431768933602937
42
0.779934954875912
0
ELLIPSE
5
B8
100
AcDbEntity
8
1
62
256
6
ByLayer
370
18
48
1
60
0
100
AcDbEllipse
10
15.039615
20
5.338221
30
0
11
-2.16506350946111
21
1.24999999999999
31
0
210
0
220
0
230
1
40
0.989133
41
0.779934954875899
42
1.12810097614887
0
ELLIPSE
5
B9
100
AcDbEntity
8
1
62
256
6
ByLayer
370
18
48
1
60
0
100
AcDbEllipse
10
18.028222
20
-0.239916
30
0
11
0.14488887394336
21
0.0388228567653773
31
0
210
0
220
0
230
1
40
0.104528
41
-1.67494656688965
42
-0.0925141299717393
0
ELLIPSE
5
BA
100
AcDbEntity
8
1
62
256
6
ByLayer
370
18
48
1
60
0
100
AcDbEllipse
10
0
20
10.908576
30
0
11
1.59993786395946
21
0.114775077287671
31
0
210
0
220
0
230
-1
40
0.122853
41
0.270612263087629
42
0.39179505830898
0
ELLIPSE
5
BB
100
AcDbEntity
8
1
62
256
6
ByLayer
370
18
48
1
60
0
100
AcDbEllipse
10
16.179202
20
-0.71358
30
0
11
1.79196256448638
21
-1.03459006898393
31
0
210
0
220
0
230
1
40
0.989133
41
0.347524416887365
42
0.779934954875893
0
ELLIPSE
5
BC
100
AcDbEntity
8
1
62
256
6
ByLayer
370
18
48
1
60
0
100
AcDbEllipse
10
9.211525
20
21.653124
30
0
11
8.83345911860131
21
-5.09999999999994
31
0
210
0
220
0
230
1
40
0.989133
41
-0.981723761835579
42
-0.8827002426233
0
ELLIPSE
5
BD
100
AcDbEntity
8
1
62
256
6
ByLayer
370
18
48
1
60
0
100
AcDbEllipse
10
16.719389
20
0.222051
30
0
11
1.71790963346733
21
-0.991835589325799
31
0
210
0
220
0
230
1
40
0.989133
41
-1.34292763842948
42
0.779934954875889
0
ELLIPSE
5
BE
100
AcDbEntity
8
1
62
256
6
ByLayer
370
18
48
1
60
0
100
AcDbEllipse
10
18.097467
20
0.72064
30
0
11
0.0374166454009224
21
-0.14525912498633
31
0
210
0
220
0
230
-1
40
0.091882
41
-0.116757266120724
42
1.46567458902843
0
ELLIPSE
5
BF
100
AcDbEntity
8
1
62
256
6
ByLayer
370
18
48
1
60
0
100
AcDbEllipse
10
16.048336
20
0.358058
30
0
11
1.76121377589441
21
-1.0168372476131
31
0
210
0
220
0
230
1
40
0.989133
41
-2.3616576987139
42
-1.00089486182741
0
ELLIPSE
5
C0
100
AcDbEntity
8
1
62
256
6
ByLayer
370
18
48
1
60
0
100
AcDbEllipse
10
0
20
-9.944481
30
0
11
1.59999999999976
21
1.61702248813154E-15
31
0
210
0
220
0
230
-1
40
0.004363
41
-1.5707963267949
42
-0.261799387798693
0
ELLIPSE
5
C1
100
AcDbEntity
8
1
62
256
6
ByLayer
370
18
48
1
60
0
100
AcDbEllipse
10
14.241283
20
0.599869
30
0
11
0.687407664253901
21
-0.396874999999995
31
0
210
0
220
0
230
1
40
0.989133
41
-1.22994827919921
42
-0.790861371919
0
ELLIPSE
5
C2
100
AcDbEntity
8
1
62
256
6
ByLayer
370
18
48
1
60
0
100
AcDbEllipse
10
18.164569
20
7.309342
30
0
11
-2.23261349095629
21
1.28899999999998
31
0
210
0
220
0
230
1
40
0.989133
41
-3.00378875506537
42
-2.40021027658261
0
ELLIPSE
5
C3
100
AcDbEntity
8
1
62
256
6
ByLayer
370
18
48
1
60
0
100
AcDbEllipse
10
18.164569
20
7.309342
30
0
11
-2.23261349095629
21
1.28899999999998
31
0
210
0
220
0
230
1
40
0.989133
41
-1.08368653339263
42
-0.137772422977142
0
ELLIPSE
5
C4
100
AcDbEntity
8
1
62
256
6
ByLayer
370
18
48
1
60
0
100
AcDbEllipse
10
24.948225
20
3.343766
30
0
11
0.687407664253901
21
-0.396874999999995
31
0
210
0
220
0
230
1
40
0.989133
41
-0.79086137191901
42
-1.48832205403564E-05
0
ELLIPSE
5
C5
100
AcDbEntity
8
1
62
256
6
ByLayer
370
18
48
1
60
0
100
AcDbEllipse
10
11.380912
20
11.274919
30
0
11
0.687407664253901
21
-0.396874999999995
31
0
210
0
220
0
230
1
40
0.989133
41
3.1415784360912
42
-3.07740016823358
0
ELLIPSE
5
C6
100
AcDbEntity
8
1
62
256
6
ByLayer
370
18
48
1
60
0
100
AcDbEllipse
10
17.777857
20
7.64973
30
0
11
-2.25166604983955
21
1.29999999999999
31
0
210
0
220
0
230
1
40
0.989133
41
2.62663683541887
42
3.14158544016469
0
ELLIPSE
5
C7
100
AcDbEntity
8
1
62
256
6
ByLayer
370
18
48
1
60
0
100
AcDbEllipse
10
18.43741
20
6.771725
30
0
11
-2.25166604983955
21
1.29999999999999
31
0
210
0
220
0
230
1
40
0.989133
41
-1.45215084228109E-05
42
0.0846121574213449
0
ELLIPSE
5
C8
100
AcDbEntity
8
1
62
256
6
ByLayer
370
18
48
1
60
0
100
AcDbEllipse
10
18.339651
20
7.335567
30
0
11
2.03515969889344
21
-1.17499999999999
31
0
210
0
220
0
230
1
40
0.989133
41
-3.14155596050925
42
-2.65021557969497
0
ELLIPSE
5
C9
100
AcDbEntity
8
1
62
256
6
ByLayer
370
18
48
1
60
0
100
AcDbEllipse
10
17.60775
20
6.344904
30
0
11
2.46817240078566
21
-1.42499999999998
31
0
210
0
220
0
230
1
40
0.989133
41
2.42922775492082
42
2.6602441333448
0
ELLIPSE
5
CA
100
AcDbEntity
8
1
62
256
6
ByLayer
370
18
48
1
60
0
100
AcDbEllipse
10
17.60775
20
6.344904
30
0
11
2.46817240078566
21
-1.42499999999998
31
0
210
0
220
0
230
1
40
0.989133
41
0.481344414974514
42
0.702140634744904
0
ELLIPSE
5
CB
100
AcDbEntity
8
1
62
256
6
ByLayer
370
18
48
1
60
0
100
AcDbEllipse
10
8.001239
20
-0.162754
30
0
11
1.34666950288481
21
-0.777499999999991
31
0
210
0
220
0
230
1
40
0.989133
41
0.230677167281684
42
0.528343167787839
0
ELLIPSE
5
CC
100
AcDbEntity
8
1
62
256
6
ByLayer
370
18
48
1
60
0
100
AcDbEllipse
10
8.001239
20
-0.162754
30
0
11
1.34666950288481
21
-0.777499999999991
31
0
210
0
220
0
230
1
40
0.989133
41
0.528343167787839
42
3.00156180614744
0
ELLIPSE
5
CD
100
AcDbEntity
8
1
62
256
6
ByLayer
370
18
48
1
60
0
100
AcDbEllipse
10
8.074751
20
-0.035427
30
0
11
-1.34666950288481
21
0.777499999999991
31
0
210
0
220
0
230
1
40
0.989133
41
-0.18536023387514
42
6.70511971876463E-06
0
ELLIPSE
5
CE
100
AcDbEntity
8
1
62
256
6
ByLayer
370
18
48
1
60
0
100
AcDbEllipse
10
8.074751
20
-0.035427
30
0
11
-1.34666950288481
21
0.777499999999991
31
0
210
0
220
0
230
1
40
0.989133
41
-2.97050106399116
42
-2.72281274147853
0
ELLIPSE
5
CF
100
AcDbEntity
8
1
62
256
6
ByLayer
370
18
48
1
60
0
100
AcDbEllipse
10
17.74191
20
6.577276
30
0
11
-2.40322049550183
21
1.38749999999998
31
0
210
0
220
0
230
1
40
0.989133
41
-2.7266171205979
42
-2.42119858960137
0
ELLIPSE
5
D0
100
AcDbEntity
8
1
62
256
6
ByLayer
370
18
48
1
60
0
100
AcDbEllipse
10
17.74191
20
6.577276
30
0
11
-2.40322049550183
21
1.38749999999998
31
0
210
0
220
0
230
1
40
0.989133
41
-0.777246525958916
42
-0.414954824409723
0
ELLIPSE
5
D1
100
AcDbEntity
8
1
62
256
6
ByLayer
370
18
48
1
60
0
100
AcDbEllipse
10
18.431087
20
7.770966
30
0
11
2.03515969889344
21
-1.17499999999999
31
0
210
0
220
0
230
1
40
0.989133
41
-2.34777825342352
42
-1.60759227312676
0
ELLIPSE
5
D2
100
AcDbEntity
8
1
62
256
6
ByLayer
370
18
48
1
60
0
100
AcDbEllipse
10
18.467844
20
7.83463
30
0
11
-1.60214699700122
21
0.924999999999989
31
0
210
0
220
0
230
1
40
0.989133
41
-2.32099904291708
42
-1.6343714836332
0
ELLIPSE
5
D3
100
AcDbEntity
8
1
62
256
6
ByLayer
370
18
48
1
60
0
100
AcDbEllipse
10
18.467844
20
7.83463
30
0
11
-1.60214699700122
21
0.924999999999989
31
0
210
0
220
0
230
1
40
0.989133
41
0.820593610672702
42
1.50722116995659
0
ELLIPSE
5
D4
100
AcDbEntity
8
1
62
256
6
ByLayer
370
18
48
1
60
0
100
AcDbEllipse
10
18.138067
20
8.273633
30
0
11
-1.81865334794733
21
1.04999999999999
31
0
210
0
220
0
230
1
40
0.989133
41
1.75641332684505
42
-2.57019119980555
0
ELLIPSE
5
D5
100
AcDbEntity
8
1
62
256
6
ByLayer
370
18
48
1
60
0
100
AcDbEllipse
10
18.79762
20
7.395627
30
0
11
-1.81865334794733
21
1.04999999999999
31
0
210
0
220
0
230
1
40
0.989133
41
-1.38517932674474
42
0.571401453784253
0
ELLIPSE
5
D6
100
AcDbEntity
8
1
62
256
6
ByLayer
370
18
48
1
60
0
100
AcDbEllipse
10
18.101311
20
8.209969
30
0
11
2.25166604983955
21
-1.29999999999999
31
0
210
0
220
0
230
1
40
0.989133
41
-1.40907496301096
42
0.595297090050467
0
ELLIPSE
5
D7
100
AcDbEntity
8
1
62
256
6
ByLayer
370
18
48
1
60
0
100
AcDbEllipse
10
18.760864
20
7.331964
30
0
11
2.25166604983955
21
-1.29999999999999
31
0
210
0
220
0
230
1
40
0.989133
41
1.73251769057883
42
-2.54629556353933
0
ELLIPSE
5
D8
100
AcDbEntity
8
1
62
256
6
ByLayer
370
18
48
1
60
0
100
AcDbEllipse
10
18.431087
20
7.770966
30
0
11
2.03515969889344
21
-1.17499999999999
31
0
210
0
220
0
230
1
40
0.989133
41
0.793814400166267
42
1.53400038046304
0
ELLIPSE
5
D9
100
AcDbEntity
8
1
62
256
6
ByLayer
370
18
48
1
60
0
100
AcDbEllipse
10
8.3688
20
0.473881
30
0
11
1.66916950288481
21
-0.963695461813644
31
0
210
0
220
0
230
1
40
0.989133
41
0
42
6.28318530717959
0
ELLIPSE
5
DA
100
AcDbEntity
8
1
62
256
6
ByLayer
370
18
48
1
60
0
100
AcDbEllipse
10
8.352995
20
0.446506
30
0
11
-1.34666950288481
21
0.777499999999991
31
0
210
0
220
0
230
1
40
0.989133
41
0.418779912111254
42
0.86183731732145
0
ELLIPSE
5
DB
100
AcDbEntity
8
1
62
256
6
ByLayer
370
18
48
1
60
0
100
AcDbEllipse
10
8.352995
20
0.446506
30
0
11
-1.34666950288481
21
0.777499999999991
31
0
210
0
220
0
230
1
40
0.989133
41
-1.67561519028194
42
-1.23255778507175
0
ELLIPSE
5
DC
100
AcDbEntity
8
1
62
256
6
ByLayer
370
18
48
1
60
0
100
AcDbEllipse
10
8.074751
20
-0.035427
30
0
11
-1.34666950288481
21
0.777499999999991
31
0
210
0
220
0
230
1
40
0.989133
41
-1.23255778507174
42
-0.628417639085366
0
ELLIPSE
5
DD
100
AcDbEntity
8
1
62
256
6
ByLayer
370
18
48
1
60
0
100
AcDbEllipse
10
8.352995
20
0.446506
30
0
11
-1.34666950288481
21
0.777499999999991
31
0
210
0
220
0
230
1
40
0.989133
41
-0.628417639085377
42
-0.185360233875155
0
ELLIPSE
5
DE
100
AcDbEntity
8
1
62
256
6
ByLayer
370
18
48
1
60
0
100
AcDbEllipse
10
8.352995
20
0.446506
30
0
11
-1.34666950288481
21
0.777499999999991
31
0
210
0
220
0
230
1
40
0.989133
41
-2.72281274147853
42
-2.27975533626835
0
ELLIPSE
5
DF
100
AcDbEntity
8
1
62
256
6
ByLayer
370
18
48
1
60
0
100
AcDbEllipse
10
8.352995
20
0.446506
30
0
11
-1.34666950288481
21
0.777499999999991
31
0
210
0
220
0
230
1
40
0.989133
41
1.46597746330785
42
1.90903486851806
0
ELLIPSE
5
E0
100
AcDbEntity
8
1
62
256
6
ByLayer
370
18
48
1
60
0
100
AcDbEllipse
10
8.3688
20
0.473881
30
0
11
2.80159218124267
21
-1.61749999999998
31
0
210
0
220
0
230
1
40
0.989133
41
0
42
6.28318530717959
0
ELLIPSE
5
E1
100
AcDbEntity
8
1
62
256
6
ByLayer
370
18
48
1
60
0
100
AcDbEllipse
10
8.074751
20
-0.035427
30
0
11
-1.34666950288481
21
0.777499999999991
31
0
210
0
220
0
230
1
40
0.989133
41
-2.27975533626834
42
-1.67561519028194
0
ELLIPSE
5
E2
100
AcDbEntity
8
1
62
256
6
ByLayer
370
18
48
1
60
0
100
AcDbEllipse
10
8.352995
20
0.446506
30
0
11
-1.34666950288481
21
0.777499999999991
31
0
210
0
220
0
230
1
40
0.989133
41
2.51317501450445
42
2.95623241971463
0
ELLIPSE
5
E3
100
AcDbEntity
8
1
62
256
6
ByLayer
370
18
48
1
60
0
100
AcDbEllipse
10
8.312564
20
0.376476
30
0
11
3.46410161513777
21
-1.99999999999998
31
0
210
0
220
0
230
1
40
0.989133
41
0
42
6.28318530717959
0
ELLIPSE
5
E4
100
AcDbEntity
8
1
62
256
6
ByLayer
370
18
48
1
60
0
100
AcDbEllipse
10
25.298327
20
3.950161
30
0
11
-0.687407664253901
21
0.396874999999995
31
0
210
0
220
0
230
1
40
0.989133
41
2.3507312816708
42
-2.36165769871391
0
ELLIPSE
5
E5
100
AcDbEntity
8
1
62
256
6
ByLayer
370
18
48
1
60
0
100
AcDbEllipse
10
22.437956
20
14.62521
30
0
11
-0.687407664253901
21
0.396874999999995
31
0
210
0
220
0
230
1
40
0.989133
41
-2.36165769871391
42
-0.790861371919002
0
ELLIPSE
5
E6
100
AcDbEntity
8
1
62
256
6
ByLayer
370
18
48
1
60
0
100
AcDbEllipse
10
11.731015
20
11.881314
30
0
11
-0.687407664253901
21
0.396874999999995
31
0
210
0
220
0
230
1
40
0.989133
41
-0.790861371918988
42
0.779934954875893
0
ELLIPSE
5
E7
100
AcDbEntity
8
1
62
256
6
ByLayer
370
18
48
1
60
0
100
AcDbEllipse
10
14.591386
20
1.206264
30
0
11
-0.687407664253901
21
0.396874999999995
31
0
210
0
220
0
230
1
40
0.989133
41
0.779934954875905
42
2.35073128167079
0
ELLIPSE
5
E8
100
AcDbEntity
8
1
62
256
6
ByLayer
370
18
48
1
60
0
100
AcDbEllipse
10
18.514671
20
7.915737
30
0
11
-2.23261349095629
21
1.28899999999998
31
0
210
0
220
0
230
1
40
0.989133
41
0
42
6.28318530717959
0
POINT
5
6C
100
AcDbEntity
8
1
62
256
6
ByLayer
370
18
48
1
60
0
100
AcDbPoint
10
-103.3057
20
-9.9375
30
0
39
0
210
0
220
0
230
1
50
360
0
POINT
5
6E
100
AcDbEntity
8
80
62
256
6
ByLayer
370
18
48
1
60
0
100
AcDbPoint
10
0
20
0
30
0
39
0
210
0
220
0
230
1
50
360
0
POINT
5
70
100
AcDbEntity
8
81
62
256
6
ByLayer
370
18
48
1
60
0
100
AcDbPoint
10
21.6943
20
15.0625
30
0
39
0
210
0
220
0
230
1
50
360
0
SPLINE
5
E9
100
AcDbEntity
8
1
62
256
6
ByLayer
370
18
48
1
60
0
100
AcDbSpline
70
4
71
1
72
4
73
2
40
0
40
0
40
1
40
1
41
1
10
16.3142785696531
20
8.50525307896254
30
0
41
1
10
16.422183784951
20
8.68725257660674
30
0
0
SPLINE
5
EA
100
AcDbEntity
8
1
62
256
6
ByLayer
370
18
48
1
60
0
100
AcDbSpline
70
4
71
3
72
18
73
14
40
0
40
0
40
0
40
0
40
0.190616616066945
40
0.190616616066945
40
0.38123323213389
40
0.38123323213389
40
0.571849848200835
40
0.571849848200835
40
0.76246646426778
40
0.76246646426778
40
0.953083080334725
40
0.953083080334725
40
1
40
1
40
1
40
1
41
1
10
16.146094205924
20
7.98444695222682
30
0
41
1
10
16.1510472282757
20
7.99302583859097
30
0
41
1
10
16.1498499819598
20
7.98875440542827
30
0
41
1
10
16.1386929428963
20
7.95947955607639
30
0
41
1
10
16.1291878413377
20
7.93541616869845
30
0
41
1
10
16.1071841970402
20
7.87521663667346
30
0
41
1
10
16.0946666663799
20
7.83897870202193
30
0
41
1
10
16.0701564519491
20
7.76013150430717
30
0
41
1
10
16.0580150048953
20
7.71716592781729
30
0
41
1
10
16.0354586250373
20
7.62584659626202
30
0
41
1
10
16.0249988504448
20
7.57724897600346
30
0
41
1
10
16.0138143361724
20
7.51490641651972
30
0
41
1
10
16.0116922732007
20
7.50249932114926
30
0
41
1
10
16.0096609429158
20
7.49000341629682
30
0
0
SPLINE
5
EB
100
AcDbEntity
8
1
62
256
6
ByLayer
370
18
48
1
60
0
100
AcDbSpline
70
4
71
3
72
10
73
6
40
0
40
0
40
0
40
0
40
0.222997670307579
40
0.222997670307579
40
1
40
1
40
1
40
1
41
1
10
16.9840531911473
20
9.20357651453821
30
0
41
1
10
16.9688645005446
20
9.19590406696906
30
0
41
1
10
16.9537470124096
20
9.18806286724825
30
0
41
1
10
16.8862758204263
20
9.15213905596104
30
0
41
1
10
16.8345012987548
20
9.12202083912823
30
0
41
1
10
16.7842578406028
20
9.09017703819214
30
0
0
SPLINE
5
EC
100
AcDbEntity
8
1
62
256
6
ByLayer
370
18
48
1
60
0
100
AcDbSpline
70
4
71
3
72
18
73
14
40
0
40
0
40
0
40
0
40
0.0584533814794643
40
0.0584533814794643
40
0.318836987498409
40
0.318836987498409
40
0.449028790507881
40
0.449028790507881
40
0.579220593517352
40
0.579220593517352
40
0.839604199536294
40
0.839604199536294
40
1
40
1
40
1
40
1
41
1
10
20.0126082282984
20
5.82012932845112
30
0
41
1
10
20.0273871503907
20
5.84227148465809
30
0
41
1
10
20.0417737003045
20
5.86464367713046
30
0
41
1
10
20.1180789416281
20
5.98785261307893
30
0
41
1
10
20.1727838795014
20
6.09308261727872
30
0
41
1
10
20.243304338733
20
6.25798511539304
30
0
41
1
10
20.2649357634796
20
6.31434039244675
30
0
41
1
10
20.3036191553187
20
6.42754726477321
30
0
41
1
10
20.320763158119
20
6.4845750876195
30
0
41
1
10
20.3658323928993
20
6.65686514146563
30
0
41
1
10
20.3874123635691
20
6.7733350642381
30
0
41
1
10
20.4091088209644
20
6.96390180846484
30
0
41
1
10
20.41421736466
20
7.03730799177274
30
0
41
1
10
20.4163353390512
20
7.11034979190904
30
0
0
SPLINE
5
ED
100
AcDbEntity
8
1
62
256
6
ByLayer
370
18
48
1
60
0
100
AcDbSpline
70
4
71
3
72
8
73
4
40
0
40
0
40
0
40
0
40
1
40
1
40
1
40
1
41
1
10
16.3449824032822
20
8.69867689833941
30
0
41
1
10
16.2445087966846
20
8.61416300043138
30
0
41
1
10
16.1395185724837
20
8.52672143261896
30
0
41
1
10
16.0315452351486
20
8.43734621194699
30
0
0
SPLINE
5
EE
100
AcDbEntity
8
1
62
256
6
ByLayer
370
18
48
1
60
0
100
AcDbSpline
70
4
71
3
72
22
73
18
40
0
40
0
40
0
40
0
40
0.062499999999999
40
0.062499999999999
40
0.124999999999998
40
0.124999999999998
40
0.187499999999997
40
0.187499999999997
40
0.249999999999996
40
0.249999999999996
40
0.374999999999997
40
0.374999999999997
40
0.499999999999998
40
0.499999999999998
40
0.749999999999999
40
0.749999999999999
40
1
40
1
40
1
40
1
41
1
10
16.0851283634594
20
7.87885101555193
30
0
41
1
10
16.083024104779
20
7.87520633260525
30
0
41
1
10
16.0819323146071
20
7.87659781825425
30
0
41
1
10
16.0815931239079
20
7.88774669106996
30
0
41
1
10
16.0823754243862
20
7.89743689984556
30
0
41
1
10
16.0855356796301
20
7.92183287744823
30
0
41
1
10
16.0879491345337
20
7.9367884810114
30
0
41
1
10
16.0941168889007
20
7.96946432958711
30
0
41
1
10
16.0978700747173
20
7.98723181690244
30
0
41
1
10
16.1110071385044
20
8.0434342059219
30
0
41
1
10
16.1223603824234
20
8.08496836237799
30
0
41
1
10
16.149215729772
20
8.16981276799726
30
0
41
1
10
16.1647620383449
20
8.21342644928995
30
0
41
1
10
16.2176135998454
20
8.34576667438654
30
0
41
1
10
16.2614816404669
20
8.43647276088294
30
0
41
1
10
16.3636549656732
20
8.61262135206613
30
0
41
1
10
16.4220183318522
20
8.6985578781896
30
0
41
1
10
16.4877178485999
20
8.78141976669394
30
0
0
SPLINE
5
EF
100
AcDbEntity
8
1
62
256
6
ByLayer
370
18
48
1
60
0
100
AcDbSpline
70
4
71
3
72
14
73
10
40
0
40
0
40
0
40
0
40
0.25
40
0.25
40
0.5
40
0.5
40
0.75
40
0.75
40
1
40
1
40
1
40
1
41
1
10
16.7842578406028
20
9.09017703819217
30
0
41
1
10
16.770038451401
20
9.07582635890361
30
0
41
1
10
16.7434611203293
20
9.05378402278333
30
0
41
1
10
16.6786239624882
20
9.00097380072748
30
0
41
1
10
16.6397847372002
20
8.96959691537228
30
0
41
1
10
16.5590454075164
20
8.90158443287731
30
0
41
1
10
16.5167142213508
20
8.86464302761468
30
0
41
1
10
16.4308747353655
20
8.78527003974102
30
0
41
1
10
16.3873847031782
20
8.74283702854669
30
0
41
1
10
16.3449824032822
20
8.69867689833941
30
0
0
SPLINE
5
F0
100
AcDbEntity
8
1
62
256
6
ByLayer
370
18
48
1
60
0
100
AcDbSpline
70
4
71
3
72
8
73
4
40
0
40
0
40
0
40
0
40
1
40
1
40
1
40
1
41
1
10
17.4529560023642
20
6.3118626287949
30
0
41
1
10
17.36672664639
20
6.14203885465088
30
0
41
1
10
17.2807004413819
20
5.97226307894181
30
0
41
1
10
17.1947743842549
20
5.80251121890174
30
0
0
SPLINE
5
F1
100
AcDbEntity
8
1
62
256
6
ByLayer
370
18
48
1
60
0
100
AcDbSpline
70
4
71
3
72
8
73
4
40
0
40
0
40
0
40
0
40
1
40
1
40
1
40
1
41
1
10
16.4877178485999
20
8.78141976669394
30
0
41
1
10
16.5757710746682
20
8.89247471750815
30
0
41
1
10
16.6745729143046
20
8.99572758871955
30
0
41
1
10
16.7842578406028
20
9.09017703819208
30
0
0
SPLINE
5
F2
100
AcDbEntity
8
1
62
256
6
ByLayer
370
18
48
1
60
0
100
AcDbSpline
70
4
71
3
72
8
73
4
40
0
40
0
40
0
40
0
40
1
40
1
40
1
40
1
41
1
10
16.1754657528039
20
7.15942891767583
30
0
41
1
10
16.3522969542592
20
7.20816659668901
30
0
41
1
10
16.5291854644731
20
7.25698521940143
30
0
41
1
10
16.7061897857396
20
7.30596810864543
30
0
0
SPLINE
5
F3
100
AcDbEntity
8
1
62
256
6
ByLayer
370
18
48
1
60
0
100
AcDbSpline
70
4
71
3
72
8
73
4
40
0
40
0
40
0
40
0
40
1
40
1
40
1
40
1
41
1
10
19.667400612458
20
9.73942162412558
30
0
41
1
10
19.6059942017274
20
9.61213903742774
30
0
41
1
10
19.5444760882127
20
9.48481252138168
30
0
41
1
10
19.4827312657273
20
9.35739720324
30
0
0
SPLINE
5
F4
100
AcDbEntity
8
1
62
256
6
ByLayer
370
18
48
1
60
0
100
AcDbSpline
70
4
71
3
72
8
73
4
40
0
40
0
40
0
40
0
40
1
40
1
40
1
40
1
41
1
10
20.2294974823519
20
8.36329172338944
30
0
41
1
10
20.3820172701295
20
8.3698661566311
30
0
41
1
10
20.5343976888502
20
8.37623551968053
30
0
41
1
10
20.6867092439091
20
8.38250392535147
30
0
0
SPLINE
5
F5
100
AcDbEntity
8
1
62
256
6
ByLayer
370
18
48
1
60
0
100
AcDbSpline
70
4
71
3
72
8
73
4
40
0
40
0
40
0
40
0
40
1
40
1
40
1
40
1
41
1
10
8.07437831142693
20
-1.06805173167376
30
0
41
1
10
8.24348390318914
20
-1.13749587209705
30
0
41
1
10
8.40923294257766
20
-1.20279325799402
30
0
41
1
10
8.57294994166267
20
-1.26558021908954
30
0
0
SPLINE
5
F6
100
AcDbEntity
8
1
62
256
6
ByLayer
370
18
48
1
60
0
100
AcDbSpline
70
4
71
3
72
8
73
4
40
0
40
0
40
0
40
0
40
1
40
1
40
1
40
1
41
1
10
8.63161223122137
20
1.96106315446951
30
0
41
1
10
8.46590881237483
20
2.03640003123886
30
0
41
1
10
8.30605241536364
20
2.11190377312423
30
0
41
1
10
8.14973577662289
20
2.18750853433042
30
0
0
SPLINE
5
F7
100
AcDbEntity
8
1
62
256
6
ByLayer
370
18
48
1
60
0
100
AcDbSpline
70
4
71
3
72
8
73
4
40
0
40
0
40
0
40
0
40
1
40
1
40
1
40
1
41
1
10
6.89251388864486
20
-0.058375498805276
30
0
41
1
10
6.91625085580876
20
-0.23522427484869
30
0
41
1
10
6.94062731276557
20
-0.404973847348515
30
0
41
1
10
6.9653909136988
20
-0.570425596928573
30
0
0
SPLINE
5
F8
100
AcDbEntity
8
1
62
256
6
ByLayer
370
18
48
1
60
0
100
AcDbSpline
70
4
71
3
72
10
73
6
40
0
40
0
40
0
40
0
40
0.5
40
0.5
40
1
40
1
40
1
40
1
41
1
10
9.96890188710671
20
-0.234190464540546
30
0
41
1
10
9.95644940485721
20
-0.150992347257414
30
0
41
1
10
9.94402406130024
20
-0.0662006635856756
30
0
41
1
10
9.91965669247344
20
0.104685592078908
30
0
41
1
10
9.90770388167238
20
0.190846818893533
30
0
41
1
10
9.8960248620528
20
0.277859633582778
30
0
0
SPLINE
5
F9
100
AcDbEntity
8
1
62
256
6
ByLayer
370
18
48
1
60
0
100
AcDbSpline
70
4
71
3
72
10
73
6
40
0
40
0
40
0
40
0
40
0.5
40
0.5
40
1
40
1
40
1
40
1
41
1
10
6.75378383117891
20
1.15611877978142
30
0
41
1
10
6.76251501069555
20
1.0664751770947
30
0
41
1
10
6.77158604181062
20
0.97587365384905
30
0
41
1
10
6.79030559778244
20
0.795205099368104
30
0
41
1
10
6.79996059193587
20
0.705063937373239
30
0
41
1
10
6.8099656805955
20
0.615151789212973
30
0
0
SPLINE
5
FA
100
AcDbEntity
8
1
62
256
6
ByLayer
370
18
48
1
60
0
100
AcDbSpline
70
4
71
3
72
10
73
6
40
0
40
0
40
0
40
0
40
0.5
40
0.5
40
1
40
1
40
1
40
1
41
1
10
9.96890188710671
20
-0.234190464540546
30
0
41
1
10
9.89748577786361
20
-0.28879560342196
30
0
41
1
10
9.82553590442825
20
-0.343609013791252
30
0
41
1
10
9.68022509436094
20
-0.453786422665388
30
0
41
1
10
9.6073222453191
20
-0.508799603037914
30
0
41
1
10
9.53485969410616
20
-0.563170521470624
30
0
0
SPLINE
5
FB
100
AcDbEntity
8
1
62
256
6
ByLayer
370
18
48
1
60
0
100
AcDbSpline
70
4
71
3
72
10
73
6
40
0
40
0
40
0
40
0
40
0.5
40
0.5
40
1
40
1
40
1
40
1
41
1
10
8.9902969590259
20
-0.965517054604589
30
0
41
1
10
8.91906551339076
20
-1.01730824901844
30
0
41
1
10
8.8479710443998
20
-1.06867433393657
30
0
41
1
10
8.70886417367336
20
-1.16864427241026
30
0
41
1
10
8.64046782690212
20
-1.21752965049191
30
0
41
1
10
8.57294994166267
20
-1.26558021908954
30
0
0
SPLINE
5
FC
100
AcDbEntity
8
1
62
256
6
ByLayer
370
18
48
1
60
0
100
AcDbSpline
70
4
71
3
72
10
73
6
40
0
40
0
40
0
40
0
40
0.5
40
0.5
40
1
40
1
40
1
40
1
41
1
10
9.75729480458682
20
1.49235391216945
30
0
41
1
10
9.67496901398204
20
1.52392660309798
30
0
41
1
10
9.59163889331165
20
1.55633076662477
30
0
41
1
10
9.42515133696679
20
1.62221247267058
30
0
41
1
10
9.3419262015255
20
1.65571461930938
30
0
41
1
10
9.25872317435102
20
1.68988239958523
30
0
0
SPLINE
5
FD
100
AcDbEntity
8
1
62
256
6
ByLayer
370
18
48
1
60
0
100
AcDbSpline
70
4
71
3
72
10
73
6
40
0
40
0
40
0
40
0
40
0.5
40
0.5
40
1
40
1
40
1
40
1
41
1
10
6.9653909136988
20
-0.570425596928573
30
0
41
1
10
7.04399540157073
20
-0.608443773260717
30
0
41
1
10
7.12397120979915
20
-0.646657776361394
30
0
41
1
10
7.28481095328914
20
-0.72232178122357
30
0
41
1
10
7.36573827208269
20
-0.759803863042606
30
0
41
1
10
7.44726736829728
20
-0.796870976789478
30
0
0
SPLINE
5
FE
100
AcDbEntity
8
1
62
256
6
ByLayer
370
18
48
1
60
0
100
AcDbSpline
70
4
71
3
72
10
73
6
40
0
40
0
40
0
40
0
40
0.5
40
0.5
40
1
40
1
40
1
40
1
41
1
10
7.17113084854208
20
1.45618194426638
30
0
41
1
10
7.09989940290697
20
1.4043907498525
30
0
41
1
10
7.02880493391598
20
1.3530246649344
30
0
41
1
10
6.88969806318954
20
1.2530547264607
30
0
41
1
10
6.8213017164183
20
1.20416934837903
30
0
41
1
10
6.75378383117888
20
1.15611877978139
30
0
0
SPLINE
5
FF
100
AcDbEntity
8
1
62
256
6
ByLayer
370
18
48
1
60
0
100
AcDbSpline
70
4
71
3
72
8
73
4
40
0
40
0
40
0
40
0
40
1
40
1
40
1
40
1
41
1
10
9.81347665400341
20
0.951386921600999
30
0
41
1
10
9.79314185975517
20
1.13412843399047
30
0
41
1
10
9.77465804517573
20
1.31408436247875
30
0
41
1
10
9.75729480458682
20
1.49235391216945
30
0
0
SPLINE
5
100
100
AcDbEntity
8
1
62
256
6
ByLayer
370
18
48
1
60
0
100
AcDbSpline
70
4
71
3
72
10
73
6
40
0
40
0
40
0
40
0
40
0.5
40
0.5
40
1
40
1
40
1
40
1
41
1
10
8.14973577662289
20
2.18750853433042
30
0
41
1
10
8.07831966737979
20
2.13290339544901
30
0
41
1
10
8.00636979394443
20
2.07808998507971
30
0
41
1
10
7.86105898387717
20
1.96791257620558
30
0
41
1
10
7.7881561348353
20
1.91289939583305
30
0
41
1
10
7.7156935836224
20
1.85852847740034
30
0
0
LINE
5
72
100
AcDbEntity
8
1
62
256
6
ByLayer
370
18
48
1
60
0
100
AcDbLine
10
4.848462
20
2.376476
30
0
11
4.81784
21
2.323437
31
0
39
0
210
0
220
0
230
1
0
LINE
5
73
100
AcDbEntity
8
1
62
256
6
ByLayer
370
18
48
1
60
0
100
AcDbLine
10
11.746043
20
-1.676563
30
0
11
11.776665
21
-1.623524
31
0
39
0
210
0
220
0
230
1
0
LINE
5
74
100
AcDbEntity
8
1
62
256
6
ByLayer
370
18
48
1
60
0
100
AcDbLine
10
16.310927
20
8.521713
30
0
11
16.304492
21
8.510567
31
0
39
0
210
0
220
0
230
1
0
LINE
5
75
100
AcDbEntity
8
1
62
256
6
ByLayer
370
18
48
1
60
0
100
AcDbLine
10
20.025593
20
5.832731
30
0
11
20.093648
21
5.950605
31
0
39
0
210
0
220
0
230
1
0
LINE
5
76
100
AcDbEntity
8
1
62
256
6
ByLayer
370
18
48
1
60
0
100
AcDbLine
10
16.509198
20
8.631964
30
0
11
16.185744
21
8.071725
31
0
39
0
210
0
220
0
230
1
0
LINE
5
77
100
AcDbEntity
8
1
62
256
6
ByLayer
370
18
48
1
60
0
100
AcDbLine
10
20.029523
20
6.34973
30
0
11
20.352977
21
6.909969
31
0
39
0
210
0
220
0
230
1
0
LINE
5
78
100
AcDbEntity
8
1
62
256
6
ByLayer
370
18
48
1
60
0
100
AcDbLine
10
11.043607
20
12.278189
30
0
11
10.693505
21
11.671794
31
0
39
0
210
0
220
0
230
1
0
LINE
5
79
100
AcDbEntity
8
1
62
256
6
ByLayer
370
18
48
1
60
0
100
AcDbLine
10
25.635633
20
2.946891
30
0
11
25.985735
21
3.553286
31
0
39
0
210
0
220
0
230
1
0
LINE
5
7A
100
AcDbEntity
8
SK1
62
256
6
ByLayer
370
18
48
1
60
0
100
AcDbLine
10
-103.3057
20
9.9375
30
0
11
-103.3057
21
-9.9375
31
0
39
0
210
0
220
0
230
1
0
LINE
5
7C
100
AcDbEntity
8
1
62
256
6
ByLayer
370
18
48
1
60
0
100
AcDbLine
10
18.136184
20
0.57677
30
0
11
18.465297
21
1.329019
31
0
39
0
210
0
220
0
230
1
0
LINE
5
7D
100
AcDbEntity
8
1
62
256
6
ByLayer
370
18
48
1
60
0
100
AcDbLine
10
18.465297
20
1.329019
30
0
11
20.130443
21
1.763501
31
0
39
0
210
0
220
0
230
1
0
LINE
5
7E
100
AcDbEntity
8
1
62
256
6
ByLayer
370
18
48
1
60
0
100
AcDbLine
10
18.017195
20
-0.259015
30
0
11
17.763536
21
0.687653
31
0
39
0
210
0
220
0
230
1
0
LINE
5
7F
100
AcDbEntity
8
1
62
256
6
ByLayer
370
18
48
1
60
0
100
AcDbLine
10
17.923336
20
0.728598
30
0
11
18.172866
21
-0.202658
31
0
39
0
210
0
220
0
230
1
0
LINE
5
80
100
AcDbEntity
8
1
62
256
6
ByLayer
370
18
48
1
60
0
100
AcDbLine
10
10.924653
20
11.664968
30
0
11
11.836621
21
8.261455
31
0
39
0
210
0
220
0
230
1
0
LINE
5
81
100
AcDbEntity
8
1
62
256
6
ByLayer
370
18
48
1
60
0
100
AcDbLine
10
24.961053
20
-1.579508
30
0
11
24.961053
21
3.001425
31
0
39
0
210
0
220
0
230
1
0
LINE
5
82
100
AcDbEntity
8
1
62
256
6
ByLayer
370
18
48
1
60
0
100
AcDbLine
10
24.961053
20
-1.579508
30
0
11
12.173245
21
-9.953891
31
0
39
0
210
0
220
0
230
1
0
LINE
5
83
100
AcDbEntity
8
1
62
256
6
ByLayer
370
18
48
1
60
0
100
AcDbLine
10
11.911642
20
7.405057
30
0
11
12.630854
21
4.720922
31
0
39
0
210
0
220
0
230
1
0
LINE
5
84
100
AcDbEntity
8
1
62
256
6
ByLayer
370
18
48
1
60
0
100
AcDbLine
10
24.961053
20
-1.579508
30
0
11
24.961053
21
-3.197353
31
0
39
0
210
0
220
0
230
1
0
LINE
5
85
100
AcDbEntity
8
1
62
256
6
ByLayer
370
18
48
1
60
0
100
AcDbLine
10
18.070852
20
0.766426
30
0
11
18.08812
21
0.701979
31
0
39
0
210
0
220
0
230
1
0
LINE
5
86
100
AcDbEntity
8
1
62
256
6
ByLayer
370
18
48
1
60
0
100
AcDbLine
10
12.994927
20
3.9386
30
0
11
14.088882
21
-0.144096
31
0
39
0
210
0
220
0
230
1
0
LINE
5
87
100
AcDbEntity
8
1
62
256
6
ByLayer
370
18
48
1
60
0
100
AcDbLine
10
18.172866
20
-0.202658
30
0
11
18.630664
21
0.711859
31
0
39
0
210
0
220
0
230
1
0
LINE
5
88
100
AcDbEntity
8
1
62
256
6
ByLayer
370
18
48
1
60
0
100
AcDbLine
10
1.545481
20
10.96663
30
0
11
1.545481
21
-9.942674
31
0
39
0
210
0
220
0
230
1
0
LINE
5
89
100
AcDbEntity
8
1
62
256
6
ByLayer
370
18
48
1
60
0
100
AcDbLine
10
0
20
-9.9375
30
0
11
0
21
9.9375
31
0
39
0
210
0
220
0
230
1
0
LINE
5
8A
100
AcDbEntity
8
1
62
256
6
ByLayer
370
18
48
1
60
0
100
AcDbLine
10
12.173245
20
-9.953891
30
0
11
15.129249
21
-9.850778
31
0
39
0
210
0
220
0
230
1
0
LINE
5
8B
100
AcDbEntity
8
1
62
256
6
ByLayer
370
18
48
1
60
0
100
AcDbLine
10
1.717723
20
11.05817
30
0
11
9.924962
21
11.554795
31
0
39
0
210
0
220
0
230
1
0
LINE
5
8C
100
AcDbEntity
8
1
62
256
6
ByLayer
370
18
48
1
60
0
100
AcDbLine
10
14.126482
20
-0.268328
30
0
11
14.101105
21
-0.173623
31
0
39
0
210
0
220
0
230
1
0
LINE
5
8D
100
AcDbEntity
8
1
62
256
6
ByLayer
370
18
48
1
60
0
100
AcDbLine
10
12.173245
20
-9.953891
30
0
11
2.428427
21
-9.957053
31
0
39
0
210
0
220
0
230
1
0
LINE
5
8E
100
AcDbEntity
8
1
62
256
6
ByLayer
370
18
48
1
60
0
100
AcDbLine
10
1.545481
20
-9.942674
30
0
11
2.428427
21
-9.957053
31
0
39
0
210
0
220
0
230
1
0
LINE
5
8F
100
AcDbEntity
8
1
62
256
6
ByLayer
370
18
48
1
60
0
100
AcDbLine
10
24.875149
20
-3.346143
30
0
11
24.961053
21
-3.197353
31
0
39
0
210
0
220
0
230
1
0
LINE
5
90
100
AcDbEntity
8
1
62
256
6
ByLayer
370
18
48
1
60
0
100
AcDbLine
10
15.129249
20
-9.850778
30
0
11
24.875149
21
-3.346143
31
0
39
0
210
0
220
0
230
1
0
LINE
5
91
100
AcDbEntity
8
1
62
256
6
ByLayer
370
18
48
1
60
0
100
AcDbLine
10
1.545481
20
10.96663
30
0
11
1.717723
21
11.05817
31
0
39
0
210
0
220
0
230
1
0
LINE
5
92
100
AcDbEntity
8
1
62
256
6
ByLayer
370
18
48
1
60
0
100
AcDbLine
10
18.08812
20
0.701979
30
0
11
18.204316
21
0.732298
31
0
39
0
210
0
220
0
230
1
0
LINE
5
93
100
AcDbEntity
8
1
62
256
6
ByLayer
370
18
48
1
60
0
100
AcDbLine
10
2.428427
20
-9.957053
30
0
11
1.717723
21
11.05817
31
0
39
0
210
0
220
0
230
1
0
LINE
5
94
100
AcDbEntity
8
1
62
256
6
ByLayer
370
18
48
1
60
0
100
AcDbLine
10
18.465297
20
1.329019
30
0
11
18.630664
21
0.711859
31
0
39
0
210
0
220
0
230
1
0
LINE
5
95
100
AcDbEntity
8
SK1
62
256
6
ByLayer
370
18
48
1
60
0
100
AcDbLine
10
-103.3057
20
-9.9375
30
0
11
0
21
-9.9375
31
0
39
0
210
0
220
0
230
1
0
LINE
5
96
100
AcDbEntity
8
SK1
62
256
6
ByLayer
370
18
48
1
60
0
100
AcDbLine
10
-103.3057
20
9.9375
30
0
11
0
21
9.9375
31
0
39
0
210
0
220
0
230
1
0
LINE
5
97
100
AcDbEntity
8
SK1
62
256
6
ByLayer
370
18
48
1
60
0
100
AcDbLine
10
0
20
-9.9375
30
0
11
0
21
9.9375
31
0
39
0
210
0
220
0
230
1
0
LINE
5
98
100
AcDbEntity
8
1
62
256
6
ByLayer
370
18
48
1
60
0
100
AcDbLine
10
13.794477
20
0.954625
30
0
11
13.826604
21
1.010271
31
0
39
0
210
0
220
0
230
1
0
LINE
5
99
100
AcDbEntity
8
1
62
256
6
ByLayer
370
18
48
1
60
0
100
AcDbLine
10
25.152537
20
2.581263
30
0
11
24.960983
21
2.532173
31
0
39
0
210
0
220
0
230
1
0
LINE
5
9A
100
AcDbEntity
8
1
62
256
6
ByLayer
370
18
48
1
60
0
100
AcDbLine
10
18.238028
20
0.809262
30
0
11
14.445596
21
-0.162634
31
0
39
0
210
0
220
0
230
1
0
LINE
5
9B
100
AcDbEntity
8
1
62
256
6
ByLayer
370
18
48
1
60
0
100
AcDbLine
10
10.966233
20
11.685321
30
0
11
10.934106
21
11.629675
31
0
39
0
210
0
220
0
230
1
0
LINE
5
9C
100
AcDbEntity
8
1
62
256
6
ByLayer
370
18
48
1
60
0
100
AcDbLine
10
17.165527
20
5.751853
30
0
11
17.194774
21
5.802511
31
0
39
0
210
0
220
0
230
1
0
LINE
5
9D
100
AcDbEntity
8
1
62
256
6
ByLayer
370
18
48
1
60
0
100
AcDbLine
10
16.175466
20
7.159429
30
0
11
16.107156
21
7.041112
31
0
39
0
210
0
220
0
230
1
0
LINE
5
9E
100
AcDbEntity
8
1
62
256
6
ByLayer
370
18
48
1
60
0
100
AcDbLine
10
6.780716
20
0.891373
30
0
11
6.892887
21
0.974249
31
0
39
0
210
0
220
0
230
1
0
LINE
5
9F
100
AcDbEntity
8
1
62
256
6
ByLayer
370
18
48
1
60
0
100
AcDbLine
10
9.617781
20
-0.204073
30
0
11
9.651056
21
-0.47557
31
0
39
0
210
0
220
0
230
1
0
LINE
5
A0
100
AcDbEntity
8
80
62
256
6
ByLayer
370
18
48
1
60
0
100
AcDbLine
10
0
20
0
30
0
11
-5
21
0
31
0
39
0
210
0
220
0
230
1
0
LINE
5
A1
100
AcDbEntity
8
81
62
256
6
ByLayer
370
18
48
1
60
0
100
AcDbLine
10
21.6943
20
15.0625
30
0
11
31.6943
21
15.0625
31
0
39
0
210
0
220
0
230
1
0
LINE
5
A2
100
AcDbEntity
8
1
62
256
6
ByLayer
370
18
48
1
60
0
100
AcDbLine
10
16.085128
20
7.878851
30
0
11
16.146094
21
7.984447
31
0
39
0
210
0
220
0
230
1
0
LINE
5
A3
100
AcDbEntity
8
1
62
256
6
ByLayer
370
18
48
1
60
0
100
AcDbLine
10
8.631612
20
1.961063
30
0
11
8.353368
21
1.479131
31
0
39
0
210
0
220
0
230
1
0
LINE
5
A4
100
AcDbEntity
8
1
62
256
6
ByLayer
370
18
48
1
60
0
100
AcDbLine
10
9.813477
20
0.951387
30
0
11
9.535233
21
0.469454
31
0
39
0
210
0
220
0
230
1
0
LINE
5
A5
100
AcDbEntity
8
1
62
256
6
ByLayer
370
18
48
1
60
0
100
AcDbLine
10
9.470703
20
0.995963
30
0
11
9.535233
21
0.469454
31
0
39
0
210
0
220
0
230
1
0
LINE
5
A6
100
AcDbEntity
8
1
62
256
6
ByLayer
370
18
48
1
60
0
100
AcDbLine
10
9.617781
20
-0.204073
30
0
11
9.896025
21
0.27786
31
0
39
0
210
0
220
0
230
1
0
LINE
5
A7
100
AcDbEntity
8
1
62
256
6
ByLayer
370
18
48
1
60
0
100
AcDbLine
10
7.43745
20
1.376596
30
0
11
7.863144
21
1.691117
31
0
39
0
210
0
220
0
230
1
0
LINE
5
A8
100
AcDbEntity
8
1
62
256
6
ByLayer
370
18
48
1
60
0
100
AcDbLine
10
7.43745
20
1.376596
30
0
11
7.715694
21
1.858528
31
0
39
0
210
0
220
0
230
1
0
LINE
5
A9
100
AcDbEntity
8
1
62
256
6
ByLayer
370
18
48
1
60
0
100
AcDbLine
10
8.149736
20
2.187509
30
0
11
7.863144
21
1.691117
31
0
39
0
210
0
220
0
230
1
0
LINE
5
AA
100
AcDbEntity
8
1
62
256
6
ByLayer
370
18
48
1
60
0
100
AcDbLine
10
8.980479
20
1.20795
30
0
11
9.470703
21
0.995963
31
0
39
0
210
0
220
0
230
1
0
LINE
5
AB
100
AcDbEntity
8
1
62
256
6
ByLayer
370
18
48
1
60
0
100
AcDbLine
10
7.171131
20
1.456182
30
0
11
6.892887
21
0.974249
31
0
39
0
210
0
220
0
230
1
0
LINE
5
AC
100
AcDbEntity
8
1
62
256
6
ByLayer
370
18
48
1
60
0
100
AcDbLine
10
8.980479
20
1.20795
30
0
11
9.258723
21
1.689882
31
0
39
0
210
0
220
0
230
1
0
LINE
5
AD
100
AcDbEntity
8
1
62
256
6
ByLayer
370
18
48
1
60
0
100
AcDbLine
10
9.757295
20
1.492354
30
0
11
9.470703
21
0.995963
31
0
39
0
210
0
220
0
230
1
0
LINE
5
AE
100
AcDbEntity
8
1
62
256
6
ByLayer
370
18
48
1
60
0
100
AcDbLine
10
7.863144
20
1.691117
30
0
11
8.353368
21
1.479131
31
0
39
0
210
0
220
0
230
1
0
LINE
5
AF
100
AcDbEntity
8
1
62
256
6
ByLayer
370
18
48
1
60
0
100
AcDbLine
10
25.152537
20
2.581263
30
0
11
25.502639
21
3.187657
31
0
39
0
210
0
220
0
230
1
0
LINE
5
B0
100
AcDbEntity
8
1
62
256
6
ByLayer
370
18
48
1
60
0
100
AcDbLine
10
23.202738
20
14.821203
30
0
11
26.063109
21
4.146154
31
0
39
0
210
0
220
0
230
1
0
LINE
5
B1
100
AcDbEntity
8
1
62
256
6
ByLayer
370
18
48
1
60
0
100
AcDbLine
10
11.526702
20
12.643817
30
0
11
22.233644
21
15.387714
31
0
39
0
210
0
220
0
230
1
0
LINE
5
B2
100
AcDbEntity
8
1
62
256
6
ByLayer
370
18
48
1
60
0
100
AcDbLine
10
13.826604
20
1.010271
30
0
11
10.966233
21
11.685321
31
0
39
0
210
0
220
0
230
1
0
LINE
5
B3
100
AcDbEntity
8
1
62
256
6
ByLayer
370
18
48
1
60
0
100
AcDbLine
10
14.795698
20
0.44376
30
0
11
14.445596
21
-0.162634
31
0
39
0
210
0
220
0
230
1
0
LINE
5
B4
100
AcDbEntity
8
1
62
256
6
ByLayer
370
18
48
1
60
0
100
AcDbLine
10
25.502639
20
3.187657
30
0
11
14.795698
21
0.44376
31
0
39
0
210
0
220
0
230
1
0
MTEXT
5
101
100
AcDbEntity
8
SK6
62
256
6
ByLayer
370
13
48
1
60
0
100
AcDbMText
10
-79.425499
20
-34.999425
30
0
210
0
220
0
230
1
1
\W0.7553;PSKNR 2020K 12
40
3.5
41
0
44
1.084337
50
0
71
7
72
5
7
iso_b_vert
0
DIMENSION
5
113
100
AcDbEntity
8
SK2
62
256
6
ByLayer
370
13
48
1
60
0
100
AcDbDimension
2
DimnDraft3D1
10
-113.0557
20
-9.9375
30
0
11
-113.0557
21
0.0625
31
0
70
32
71
5
72
1
41
1
210
0
220
0
230
1
3
Standard
100
AcDbAlignedDimension
13
-104.8932
23
10.0625
33
0
14
-104.8932
24
-9.9375
34
0
50
90
100
AcDbRotatedDimension
1001
ACAD
1000
DSTYLE
1002
{
1070
    74
1070
     0
1070
   279
1070
     0
1070
   172
1070
     1
1070
   173
1070
     1
1070
   340
1005
102
1070
   271
1070
     1
1070
   272
1070
     2
1070
    77
1070
     1
1070
    73
1070
     0
1070
   171
1070
     3
1070
   274
1070
     4
1070
   177
1070
   150
1070
   176
1070
     9
1070
   178
1070
    43
1070
    78
1070
     8
1070
    48
1040
-0.005
1070
    41
1041
3.175
1070
   147
1041
2.25
1070
    42
1041
1.5875
1070
    44
1041
3.175
1070
   140
1041
4.5
1070
   343
1005
114
1070
   344
1005
114
1002
}
0
DIMENSION
5
129
100
AcDbEntity
8
2
62
256
6
ByLayer
370
13
48
1
60
0
100
AcDbDimension
2
DimnDraft3D2
10
57.623083
20
15.4125
30
0
11
57.623083
21
2.7375
31
0
70
32
71
5
72
1
41
1
210
0
220
0
230
1
3
Standard
100
AcDbAlignedDimension
13
-5.472081
23
-9.9375
33
0
14
24.6318
24
15.4125
34
0
50
90
100
AcDbRotatedDimension
1001
ACAD
1000
DSTYLE
1002
{
1070
    74
1070
     0
1070
   279
1070
     0
1070
   172
1070
     1
1070
   173
1070
     1
1070
   340
1005
102
1070
   271
1070
     1
1070
   272
1070
     2
1070
    77
1070
     1
1070
    73
1070
     0
1070
   171
1070
     3
1070
   274
1070
     4
1070
   177
1070
   150
1070
   176
1070
     9
1070
   178
1070
    43
1070
    78
1070
     8
1070
    48
1040
-0.005
1070
    41
1041
3.175
1070
   147
1041
2.25
1070
    42
1041
1.5875
1070
    44
1041
3.175
1070
   140
1041
4.5
1070
   343
1005
114
1070
   344
1005
114
1002
}
0
DIMENSION
5
137
100
AcDbEntity
8
SK2
62
256
6
ByLayer
370
13
48
1
60
0
100
AcDbDimension
2
DimnDraft3D3
10
23.0443
20
22.9125
30
0
11
-40.1307
21
22.9125
31
0
70
32
71
5
72
1
41
1
210
0
220
0
230
1
3
Standard
100
AcDbAlignedDimension
13
-103.3057
23
11.65
33
0
14
23.0443
24
17
34
0
50
0
100
AcDbRotatedDimension
1001
ACAD
1000
DSTYLE
1002
{
1070
   279
1070
     0
1070
   172
1070
     1
1070
   173
1070
     1
1070
   340
1005
102
1070
   271
1070
     1
1070
   272
1070
     2
1070
    77
1070
     1
1070
    73
1070
     0
1070
   171
1070
     3
1070
   274
1070
     4
1070
   177
1070
   150
1070
   176
1070
     9
1070
   178
1070
    43
1070
    78
1070
     8
1070
    48
1040
-0.005
1070
    41
1041
3.175
1070
   147
1041
2.25
1070
    42
1041
1.5875
1070
    44
1041
3.175
1070
   140
1041
4.5
1070
   343
1005
114
1070
   344
1005
114
1002
}
0
DIMENSION
5
145
100
AcDbEntity
8
2
62
256
6
ByLayer
370
13
48
1
60
0
100
AcDbDimension
2
DimnDraft3D4
10
21.4568
20
15.4125
30
0
11
34.82489
21
6.231222
31
0
70
34
71
5
72
1
41
1
210
0
220
0
230
1
3
Standard
100
AcDb2LineAngularDimension
13
23.017254
23
14.824188
33
0
14
26.123083
24
3.233078
34
0
15
23.0443
25
15.4125
35
0
16
38.39498
26
3.491796
36
0
40
0
0
ENDSEC
0
SECTION
2
OBJECTS
0
DICTIONARY
5
1af
330
0
100
AcDbDictionary
280
0
281
1
3
ACAD_GROUP
350
1b0
3
ACAD_MLINESTYLE
350
1b1
0
DICTIONARY
5
1b0
330
0
100
AcDbDictionary
280
0
281
1
0
DICTIONARY
5
1b1
330
0
100
AcDbDictionary
280
0
281
1
3
Standard
350
18
0
MLINESTYLE
5
18
330
1b1
100
AcDbMlineStyle
2
Standard
70
0
3

62
256
51
90
52
90
71
2
49
-0.5
62
256
6
ByLayer
49
0.5
62
256
6
ByLayer
0
RASTERVARIABLES
5
19e
330

100
AcDbRasterVariables
90
0
70
1
71
1
72
1
0
ENDSEC
0
EOF
