0
SECTION
2
HEADER
9
$ACADVER
1
AC1015
9
$DWGCODEPAGE
3
ANSI_1252
9
$HANDSEED
5
1b9
9
$ANGBASE
50
0
9
$ANGDIR
70
0
9
$ATTMODE
70
1
9
$AUNITS
70
0
9
$AUPREC
70
0
9
$CECOLOR
62
256
9
$CELTSCALE
40
1
9
$CELTYPE
6
ByLayer
9
$CELWEIGHT
370
18
9
$CLAYER
8
0
9
$CMLJUST
70
0
9
$CMLSCALE
40
1
9
$CMLSTYLE
2
Standard
9
$DIMSTYLE
2
Standard
9
$TEXTSIZE
40
0.2
9
$TEXTSTYLE
7
Standard
9
$LUNITS
70
2
9
$LUPREC
70
4
9
$EXTNAMES
290
1
9
$INSUNITS
70
4
9
$LTSCALE
40
1
9
$LWDISPLAY
290
1
9
$PDMODE
70
0
9
$PDSIZE
40
0
9
$PLINEGEN
70
0
0
ENDSEC
0
SECTION
2
CLASSES
0
CLASS
1
RASTERVARIABLES
2
AcDbRasterVariables
3
ISM
90
0
280
0
281
0
0
ENDSEC
0
SECTION
2
TABLES
0
TABLE
2
VPORT
5
1af
100
AcDbSymbolTable
0
VPORT
5
1
100
AcDbSymbolTableRecord
100
AcDbViewportTableRecord
2
*Active
70
0
10
0
20
0
11
1
21
1
12
-1
22
1
13
0
23
0
14
0.5
24
0.5
15
10
25
10
16
0
26
0
36
1
17
0
27
0
37
0
0
ENDTAB
0
TABLE
2
LTYPE
5
1b0
100
AcDbSymbolTable
0
LTYPE
5
14
100
AcDbSymbolTableRecord
100
AcDbLinetypeTableRecord
70
0
2
ByBlock
3

72
65
73
0
40
0
0
LTYPE
5
15
100
AcDbSymbolTableRecord
100
AcDbLinetypeTableRecord
70
0
2
ByLayer
3

72
65
73
0
40
0
0
LTYPE
5
16
100
AcDbSymbolTableRecord
100
AcDbLinetypeTableRecord
70
0
2
CONTINUOUS
3
Solid line
72
65
73
0
40
0
0
LTYPE
5
6A
100
AcDbSymbolTableRecord
100
AcDbLinetypeTableRecord
70
0
2
CENTER
3
____ _ ____ _ ____ _ ____
72
65
73
4
40
47.5
49
22
74
0
49
-8.5
74
0
49
8.5
74
0
49
-8.5
74
0
0
LTYPE
5
6B
100
AcDbSymbolTableRecord
100
AcDbLinetypeTableRecord
70
0
2
DASHED
3
__ __ __ __ __ __ __ __ __
72
65
73
2
40
25.72
49
12.86
74
0
49
-12.86
74
0
0
ENDTAB
0
TABLE
2
LAYER
5
1b1
100
AcDbSymbolTable
0
LAYER
5
10
100
AcDbSymbolTableRecord
100
AcDbLayerTableRecord
2
0
70
0
62
7
6
CONTINUOUS
290
1
370
-3
390
0
0
LAYER
5
6D
100
AcDbSymbolTableRecord
100
AcDbLayerTableRecord
2
80
70
0
62
-6
6
CONTINUOUS
290
1
370
-3
390
0
0
LAYER
5
6F
100
AcDbSymbolTableRecord
100
AcDbLayerTableRecord
2
81
70
0
62
-3
6
CONTINUOUS
290
1
370
-3
390
0
0
LAYER
5
71
100
AcDbSymbolTableRecord
100
AcDbLayerTableRecord
2
1
70
0
62
4
6
CONTINUOUS
290
1
370
-3
390
0
0
LAYER
5
11B
100
AcDbSymbolTableRecord
100
AcDbLayerTableRecord
2
2
70
0
62
7
6
CONTINUOUS
290
1
370
-3
390
0
0
LAYER
5
19c
100
AcDbSymbolTableRecord
100
AcDbLayerTableRecord
2
SK1
70
0
62
4
6
CONTINUOUS
290
1
370
-3
390
0
0
LAYER
5
19d
100
AcDbSymbolTableRecord
100
AcDbLayerTableRecord
2
SK6
70
0
62
5
6
CONTINUOUS
290
1
370
-3
390
0
0
LAYER
5
19e
100
AcDbSymbolTableRecord
100
AcDbLayerTableRecord
2
SK2
70
0
62
7
6
CONTINUOUS
290
1
370
-3
390
0
0
ENDTAB
0
TABLE
2
STYLE
5
1b2
100
AcDbSymbolTable
0
STYLE
5
11
100
AcDbSymbolTableRecord
100
AcDbTextStyleTableRecord
2
Standard
3
txt
70
0
71
0
40
0
41
1
42
0
50
0
0
STYLE
5
100
100
AcDbSymbolTableRecord
100
AcDbTextStyleTableRecord
2
iso_b_vert
3
simplex.shx
70
0
71
0
40
0
41
1
42
0
50
0
0
STYLE
5
101
100
AcDbSymbolTableRecord
100
AcDbTextStyleTableRecord
2
DWGDirectTextStyle
3
simplex
70
0
71
0
40
0
41
1
42
0
50
0
0
ENDTAB
0
TABLE
2
DIMSTYLE
5
1b3
100
AcDbSymbolTable
100
AcDbDimStyleTable
0
DIMSTYLE
105
27
100
AcDbSymbolTableRecord
100
AcDbDimStyleTableRecord
2
Standard
70
0
3
<>
41
0.18
42
0.0625
44
0.18
140
0.18
147
0.09
73
0
74
0
77
1
271
2
275
0
278
52
280
0
340
11
0
ENDTAB
0
TABLE
2
VIEW
5
1b4
100
AcDbSymbolTable
0
ENDTAB
0
TABLE
2
UCS
5
1b5
100
AcDbSymbolTable
0
ENDTAB
0
TABLE
2
APPID
5
1b6
100
AcDbSymbolTable
0
APPID
5
12
100
AcDbSymbolTableRecord
100
AcDbRegAppTableRecord
2
ACAD
70
0
0
ENDTAB
0
TABLE
2
BLOCK_RECORD
5
1b7
100
AcDbSymbolTable
0
BLOCK_RECORD
5
1F
100
AcDbSymbolTableRecord
100
AcDbBlockTableRecord
2
*Model_Space
340
0
70
0
0
BLOCK_RECORD
5
1B
100
AcDbSymbolTableRecord
100
AcDbBlockTableRecord
2
*Paper_Space
340
0
70
0
0
BLOCK_RECORD
5
23
100
AcDbSymbolTableRecord
100
AcDbBlockTableRecord
2
*Paper_Space0
340
0
70
0
0
BLOCK_RECORD
5
103
100
AcDbSymbolTableRecord
100
AcDbBlockTableRecord
2
DimnDraft3D1
340
0
70
0
0
BLOCK_RECORD
5
112
100
AcDbSymbolTableRecord
100
AcDbBlockTableRecord
2
_CLOSED
340
0
70
0
0
BLOCK_RECORD
5
119
100
AcDbSymbolTableRecord
100
AcDbBlockTableRecord
2
DimnDraft3D2
340
0
70
0
0
BLOCK_RECORD
5
128
100
AcDbSymbolTableRecord
100
AcDbBlockTableRecord
2
DimnDraft3D3
340
0
70
0
0
BLOCK_RECORD
5
136
100
AcDbSymbolTableRecord
100
AcDbBlockTableRecord
2
DimnDraft3D4
340
0
70
0
0
ENDTAB
0
ENDSEC
0
SECTION
2
BLOCKS
0
BLOCK
5
20
100
AcDbEntity
8
0
100
AcDbBlockBegin
2
*Model_Space
70
0
10
0
20
0
30
0
3
*Model_Space
0
ENDBLK
5
21
100
AcDbEntity
8
0
100
AcDbBlockEnd
0
BLOCK
5
1C
100
AcDbEntity
8
0
100
AcDbBlockBegin
2
*Paper_Space
70
0
10
0
20
0
30
0
3
*Paper_Space
0
ENDBLK
5
1D
100
AcDbEntity
8
0
100
AcDbBlockEnd
0
BLOCK
5
24
100
AcDbEntity
8
0
100
AcDbBlockBegin
2
*Paper_Space0
70
0
10
0
20
0
30
0
3
*Paper_Space0
0
ENDBLK
5
25
100
AcDbEntity
8
0
100
AcDbBlockEnd
0
BLOCK
5
10F
100
AcDbEntity
8
0
100
AcDbBlockBegin
2
DimnDraft3D1
70
0
10
0
20
0
30
0
3
DimnDraft3D1
0
MTEXT
5
104
100
AcDbEntity
8
SK2
62
256
6
ByLayer
370
13
48
1
60
0
100
AcDbMText
10
-269.845037
20
-1.638158
30
0
210
0
220
0
230
1
1
\W0.6740;50
40
4.5
41
0
44
1.084337
50
90
71
7
72
5
7
iso_b_vert
0
LINE
5
106
100
AcDbEntity
8
SK2
62
256
6
ByLayer
370
13
48
1
60
0
100
AcDbLine
10
-260.557537
20
-25.075
30
0
11
-271.895037
21
-25.075
31
0
39
0
210
0
220
0
230
1
0
LINE
5
107
100
AcDbEntity
8
SK2
62
256
6
ByLayer
370
13
48
1
60
0
100
AcDbLine
10
-260.557537
20
24.925
30
0
11
-271.895037
21
24.925
31
0
39
0
210
0
220
0
230
1
0
LINE
5
108
100
AcDbEntity
8
SK2
62
256
6
ByLayer
370
13
48
1
60
0
100
AcDbLine
10
-268.720037
20
-25.075
30
0
11
-268.720037
21
24.925
31
0
39
0
210
0
220
0
230
1
0
LINE
5
109
100
AcDbEntity
8
SK2
62
256
6
ByLayer
370
13
48
1
60
0
100
AcDbLine
10
-268.720037
20
-25.075
30
0
11
-269.570775
21
-21.900003
31
0
39
0
210
0
220
0
230
1
0
LINE
5
10A
100
AcDbEntity
8
SK2
62
256
6
ByLayer
370
13
48
1
60
0
100
AcDbLine
10
-268.720037
20
-25.075
30
0
11
-267.869298
21
-21.899997
31
0
39
0
210
0
220
0
230
1
0
LINE
5
10B
100
AcDbEntity
8
SK2
62
256
6
ByLayer
370
13
48
1
60
0
100
AcDbLine
10
-269.570775
20
-21.900003
30
0
11
-267.869298
21
-21.899997
31
0
39
0
210
0
220
0
230
1
0
LINE
5
10C
100
AcDbEntity
8
SK2
62
256
6
ByLayer
370
13
48
1
60
0
100
AcDbLine
10
-268.720037
20
24.925
30
0
11
-267.869298
21
21.750003
31
0
39
0
210
0
220
0
230
1
0
LINE
5
10D
100
AcDbEntity
8
SK2
62
256
6
ByLayer
370
13
48
1
60
0
100
AcDbLine
10
-268.720037
20
24.925
30
0
11
-269.570775
21
21.749997
31
0
39
0
210
0
220
0
230
1
0
LINE
5
10E
100
AcDbEntity
8
SK2
62
256
6
ByLayer
370
13
48
1
60
0
100
AcDbLine
10
-267.869298
20
21.750003
30
0
11
-269.570775
21
21.749997
31
0
39
0
210
0
220
0
230
1
0
ENDBLK
5
110
100
AcDbEntity
8
0
100
AcDbBlockEnd
0
BLOCK
5
113
100
AcDbEntity
8
0
100
AcDbBlockBegin
2
_CLOSED
70
0
10
0
20
0
30
0
3
_CLOSED
0
LINE
5
115
100
AcDbEntity
8
0
62
256
6
ByLayer
370
-2
48
1
60
0
100
AcDbLine
10
-1
20
0.166667
30
0
11
0
21
0
31
0
39
0
210
0
220
0
230
1
0
LINE
5
116
100
AcDbEntity
8
0
62
256
6
ByLayer
370
-2
48
1
60
0
100
AcDbLine
10
0
20
0
30
0
11
-1
21
-0.166667
31
0
39
0
210
0
220
0
230
1
0
LINE
5
117
100
AcDbEntity
8
0
62
256
6
ByLayer
370
-2
48
1
60
0
100
AcDbLine
10
-1
20
0.166667
30
0
11
-1
21
-0.166667
31
0
39
0
210
0
220
0
230
1
0
LINE
5
118
100
AcDbEntity
8
0
62
256
6
ByLayer
370
-2
48
1
60
0
100
AcDbLine
10
0
20
0
30
0
11
-1
21
0
31
0
39
0
210
0
220
0
230
1
0
ENDBLK
5
114
100
AcDbEntity
8
0
100
AcDbBlockEnd
0
BLOCK
5
125
100
AcDbEntity
8
0
100
AcDbBlockBegin
2
DimnDraft3D2
70
0
10
0
20
0
30
0
3
DimnDraft3D2
0
MTEXT
5
11A
100
AcDbEntity
8
2
62
256
6
ByLayer
370
13
48
1
60
0
100
AcDbMText
10
79.1443
20
-6.813158
30
0
210
0
220
0
230
1
1
\W0.6740;60
40
4.5
41
0
44
1.084337
50
90
71
7
72
5
7
iso_b_vert
0
LINE
5
11C
100
AcDbEntity
8
2
62
256
6
ByLayer
370
13
48
1
60
0
100
AcDbLine
10
43.967463
20
-35.425
30
0
11
83.4443
21
-35.425
31
0
39
0
210
0
220
0
230
1
0
LINE
5
11D
100
AcDbEntity
8
2
62
256
6
ByLayer
370
13
48
1
60
0
100
AcDbLine
10
-10.978105
20
24.925
30
0
11
83.4443
21
24.925
31
0
39
0
210
0
220
0
230
1
0
LINE
5
11E
100
AcDbEntity
8
2
62
256
6
ByLayer
370
13
48
1
60
0
100
AcDbLine
10
80.2693
20
-35.425
30
0
11
80.2693
21
24.925
31
0
39
0
210
0
220
0
230
1
0
LINE
5
11F
100
AcDbEntity
8
2
62
256
6
ByLayer
370
13
48
1
60
0
100
AcDbLine
10
80.2693
20
-35.425
30
0
11
79.418562
21
-32.250003
31
0
39
0
210
0
220
0
230
1
0
LINE
5
120
100
AcDbEntity
8
2
62
256
6
ByLayer
370
13
48
1
60
0
100
AcDbLine
10
80.2693
20
-35.425
30
0
11
81.120039
21
-32.249997
31
0
39
0
210
0
220
0
230
1
0
LINE
5
121
100
AcDbEntity
8
2
62
256
6
ByLayer
370
13
48
1
60
0
100
AcDbLine
10
79.418562
20
-32.250003
30
0
11
81.120039
21
-32.249997
31
0
39
0
210
0
220
0
230
1
0
LINE
5
122
100
AcDbEntity
8
2
62
256
6
ByLayer
370
13
48
1
60
0
100
AcDbLine
10
80.2693
20
24.925
30
0
11
81.120039
21
21.750003
31
0
39
0
210
0
220
0
230
1
0
LINE
5
123
100
AcDbEntity
8
2
62
256
6
ByLayer
370
13
48
1
60
0
100
AcDbLine
10
80.2693
20
24.925
30
0
11
79.418562
21
21.749997
31
0
39
0
210
0
220
0
230
1
0
LINE
5
124
100
AcDbEntity
8
2
62
256
6
ByLayer
370
13
48
1
60
0
100
AcDbLine
10
81.120039
20
21.750003
30
0
11
79.418562
21
21.749997
31
0
39
0
210
0
220
0
230
1
0
ENDBLK
5
126
100
AcDbEntity
8
0
100
AcDbBlockEnd
0
BLOCK
5
133
100
AcDbEntity
8
0
100
AcDbBlockBegin
2
DimnDraft3D3
70
0
10
0
20
0
30
0
3
DimnDraft3D3
0
MTEXT
5
129
100
AcDbEntity
8
SK2
62
256
6
ByLayer
370
13
48
1
60
0
100
AcDbMText
10
-111.539773
20
-50.8
30
0
210
0
220
0
230
1
1
\W0.7138;300
40
4.5
41
0
44
1.084337
50
0
71
7
72
5
7
iso_b_vert
0
LINE
5
12A
100
AcDbEntity
8
SK2
62
256
6
ByLayer
370
13
48
1
60
0
100
AcDbLine
10
-258.970037
20
-26.6625
30
0
11
-258.970037
21
-55.1
31
0
39
0
210
0
220
0
230
1
0
LINE
5
12B
100
AcDbEntity
8
SK2
62
256
6
ByLayer
370
13
48
1
60
0
100
AcDbLine
10
42.379963
20
-37.0125
30
0
11
42.379963
21
-55.1
31
0
39
0
210
0
220
0
230
1
0
LINE
5
12C
100
AcDbEntity
8
SK2
62
256
6
ByLayer
370
13
48
1
60
0
100
AcDbLine
10
-258.970037
20
-51.925
30
0
11
42.379963
21
-51.925
31
0
39
0
210
0
220
0
230
1
0
LINE
5
12D
100
AcDbEntity
8
SK2
62
256
6
ByLayer
370
13
48
1
60
0
100
AcDbLine
10
-258.970037
20
-51.925
30
0
11
-255.79504
21
-51.074261
31
0
39
0
210
0
220
0
230
1
0
LINE
5
12E
100
AcDbEntity
8
SK2
62
256
6
ByLayer
370
13
48
1
60
0
100
AcDbLine
10
-258.970037
20
-51.925
30
0
11
-255.795033
21
-52.775739
31
0
39
0
210
0
220
0
230
1
0
LINE
5
12F
100
AcDbEntity
8
SK2
62
256
6
ByLayer
370
13
48
1
60
0
100
AcDbLine
10
-255.79504
20
-51.074261
30
0
11
-255.795033
21
-52.775739
31
0
39
0
210
0
220
0
230
1
0
LINE
5
130
100
AcDbEntity
8
SK2
62
256
6
ByLayer
370
13
48
1
60
0
100
AcDbLine
10
42.379963
20
-51.925
30
0
11
39.204967
21
-52.775739
31
0
39
0
210
0
220
0
230
1
0
LINE
5
131
100
AcDbEntity
8
SK2
62
256
6
ByLayer
370
13
48
1
60
0
100
AcDbLine
10
42.379963
20
-51.925
30
0
11
39.20496
21
-51.074261
31
0
39
0
210
0
220
0
230
1
0
LINE
5
132
100
AcDbEntity
8
SK2
62
256
6
ByLayer
370
13
48
1
60
0
100
AcDbLine
10
39.204967
20
-52.775739
30
0
11
39.20496
21
-51.074261
31
0
39
0
210
0
220
0
230
1
0
ENDBLK
5
134
100
AcDbEntity
8
0
100
AcDbBlockEnd
0
BLOCK
5
140
100
AcDbEntity
8
0
100
AcDbBlockBegin
2
DimnDraft3D4
70
0
10
0
20
0
30
0
3
DimnDraft3D4
0
MTEXT
5
137
100
AcDbEntity
8
2
62
256
6
ByLayer
370
13
48
1
60
0
100
AcDbMText
10
57.172954
20
-16.75642
30
0
210
0
220
0
230
1
1
\W0.8292;75%%d0'
40
4.5
41
0
44
1.084337
50
307.5
71
7
72
5
7
iso_b_vert
0
LINE
5
138
100
AcDbEntity
8
2
62
256
6
ByLayer
370
13
48
1
60
0
100
AcDbLine
10
43.967463
20
-35.425
30
0
11
67.41625
21
-35.425
31
0
39
0
210
0
220
0
230
1
0
ARC
5
139
100
AcDbEntity
8
2
62
256
6
ByLayer
370
13
48
1
60
0
100
AcDbCircle
39
0
10
41.825911
20
-35.425
30
0
40
22.4153391948484
210
0
220
0
230
1
100
AcDbArc
50
0
51
75
0
LINE
5
13A
100
AcDbEntity
8
2
62
256
6
ByLayer
370
13
48
1
60
0
100
AcDbLine
10
64.24125
20
-35.425
30
0
11
63.278824
21
-32.282056
31
0
39
0
210
0
220
0
230
1
0
LINE
5
13B
100
AcDbEntity
8
2
62
256
6
ByLayer
370
13
48
1
60
0
100
AcDbLine
10
64.24125
20
-35.425
30
0
11
64.979238
21
-32.221912
31
0
39
0
210
0
220
0
230
1
0
LINE
5
13C
100
AcDbEntity
8
2
62
256
6
ByLayer
370
13
48
1
60
0
100
AcDbLine
10
63.278824
20
-32.282056
30
0
11
64.979238
21
-32.221912
31
0
39
0
210
0
220
0
230
1
0
LINE
5
13D
100
AcDbEntity
8
2
62
256
6
ByLayer
370
13
48
1
60
0
100
AcDbLine
10
47.627428
20
-13.773445
30
0
11
50.912373
21
-13.889622
31
0
39
0
210
0
220
0
230
1
0
LINE
5
13E
100
AcDbEntity
8
2
62
256
6
ByLayer
370
13
48
1
60
0
100
AcDbLine
10
47.627428
20
-13.773445
30
0
11
50.41419
21
-15.516533
31
0
39
0
210
0
220
0
230
1
0
LINE
5
13F
100
AcDbEntity
8
2
62
256
6
ByLayer
370
13
48
1
60
0
100
AcDbLine
10
50.912373
20
-13.889622
30
0
11
50.41419
21
-15.516533
31
0
39
0
210
0
220
0
230
1
0
ENDBLK
5
141
100
AcDbEntity
8
0
100
AcDbBlockEnd
0
ENDSEC
0
SECTION
2
ENTITIES
0
ARC
5
BB
100
AcDbEntity
8
1
62
256
6
ByLayer
370
18
48
1
60
0
100
AcDbCircle
39
0
10
0
20
-26.525
30
0
40
1.59999999999862
210
0
220
0
230
-1
100
AcDbArc
50
90
51
165
0
ELLIPSE
5
BC
100
AcDbEntity
8
1
62
256
6
ByLayer
370
18
48
1
60
0
100
AcDbEllipse
10
31.172987
20
-5.822955
30
0
11
0.0374166453987705
21
0.145259124975471
31
0
210
0
220
0
230
-1
40
0.091882
41
-1.46567458909536
42
0.116757266126948
0
ELLIPSE
5
BD
100
AcDbEntity
8
1
62
256
6
ByLayer
370
18
48
1
60
0
100
AcDbEllipse
10
31.02311
20
-4.734962
30
0
11
-0.144888873943358
21
0.0388228567653856
31
0
210
0
220
0
230
1
40
0.104528
41
-3.04907852361807
42
-1.46664608670041
0
ELLIPSE
5
BE
100
AcDbEntity
8
1
62
256
6
ByLayer
370
18
48
1
60
0
100
AcDbEllipse
10
27.617991
20
-3.84605
30
0
11
3.05070807372839
21
1.76132712758554
31
0
210
0
220
0
230
1
40
0.989133
41
-0.779934954875811
42
-0.299909471368457
0
ELLIPSE
5
BF
100
AcDbEntity
8
1
62
256
6
ByLayer
370
18
48
1
60
0
100
AcDbEllipse
10
28.63246
20
-5.603162
30
0
11
3.04306114157537
21
1.75691216924852
31
0
210
0
220
0
230
1
40
0.989133
41
-0.779934954875814
42
1.46705581944956
0
ELLIPSE
5
C0
100
AcDbEntity
8
1
62
256
6
ByLayer
370
18
48
1
60
0
100
AcDbEllipse
10
24.769248
20
-20.061216
30
0
11
3.89711431703026
21
2.24999999999951
31
0
210
0
220
0
230
1
40
0.989133
41
2.36165769871398
42
2.6205792407202
0
ELLIPSE
5
C1
100
AcDbEntity
8
1
62
256
6
ByLayer
370
18
48
1
60
0
100
AcDbEllipse
10
16.559953
20
-38.850923
30
0
11
-8.83345911860192
21
-5.09999999999889
31
0
210
0
220
0
230
1
40
0.989133
41
-2.22620799884451
42
-2.21439155444496
0
ELLIPSE
5
C2
100
AcDbEntity
8
1
62
256
6
ByLayer
370
18
48
1
60
0
100
AcDbEllipse
10
0
20
24.931981
30
0
11
1.59999999999979
21
1.61702248813157E-15
31
0
210
0
220
0
230
-1
40
0.004363
41
0.261799387799475
42
1.5707963267949
0
ELLIPSE
5
C3
100
AcDbEntity
8
1
62
256
6
ByLayer
370
18
48
1
60
0
100
AcDbEllipse
10
25.977916
20
-15.550407
30
0
11
3.89711431703025
21
2.24999999999951
31
0
210
0
220
0
230
1
40
0.989133
41
2.10273615670778
42
2.361657698714
0
ELLIPSE
5
C4
100
AcDbEntity
8
1
62
256
6
ByLayer
370
18
48
1
60
0
100
AcDbEllipse
10
27.629146
20
-3.865371
30
0
11
-3.18060308996845
21
-1.83632205017811
31
0
210
0
220
0
230
1
40
0.989133
41
2.36165769871399
42
2.7810602663662
0
ELLIPSE
5
C5
100
AcDbEntity
8
1
62
256
6
ByLayer
370
18
48
1
60
0
100
AcDbEllipse
10
27.599555
20
-5.749096
30
0
11
-2.92225603988231
21
-1.68716531126657
31
0
210
0
220
0
230
1
40
0.989133
41
-1.97638074335411
42
-0.779934954875797
0
ELLIPSE
5
C6
100
AcDbEntity
8
1
62
256
6
ByLayer
370
18
48
1
60
0
100
AcDbEllipse
10
25.405225
20
-7.131573
30
0
11
-2.06222299276184
21
-1.19062499999974
31
0
210
0
220
0
230
1
40
0.989133
41
-2.3507312816707
42
-1.61223632396467
0
ELLIPSE
5
C7
100
AcDbEntity
8
1
62
256
6
ByLayer
370
18
48
1
60
0
100
AcDbEllipse
10
32.691326
20
-19.592023
30
0
11
3.94907584125733
21
2.27999999999951
31
0
210
0
220
0
230
1
40
0.989133
41
-3.01177200423626
42
-2.2695707103039
0
ELLIPSE
5
C8
100
AcDbEntity
8
1
62
256
6
ByLayer
370
18
48
1
60
0
100
AcDbEllipse
10
32.691326
20
-19.592023
30
0
11
3.94907584125733
21
2.27999999999951
31
0
210
0
220
0
230
1
40
0.989133
41
-0.645563599545693
42
-0.129753437119199
0
ELLIPSE
5
C9
100
AcDbEntity
8
1
62
256
6
ByLayer
370
18
48
1
60
0
100
AcDbEllipse
10
32.224072
20
-19.976578
30
0
11
3.89711431703026
21
2.24999999999951
31
0
210
0
220
0
230
1
40
0.989133
41
1.65419829336914E-05
42
0.416986913450112
0
ELLIPSE
5
CA
100
AcDbEntity
8
1
62
256
6
ByLayer
370
18
48
1
60
0
100
AcDbEllipse
10
33.003543
20
-18.938935
30
0
11
-3.89711431703026
21
-2.24999999999951
31
0
210
0
220
0
230
1
40
0.989133
41
-0.204120127453826
42
1.50820631771439E-05
0
ELLIPSE
5
CB
100
AcDbEntity
8
1
62
256
6
ByLayer
370
18
48
1
60
0
100
AcDbEllipse
10
32.804168
20
-19.470867
30
0
11
-3.72390923627336
21
-2.14999999999953
31
0
210
0
220
0
230
1
40
0.989133
41
-0.200309605660107
42
-1.87943942172896E-05
0
ELLIPSE
5
CC
100
AcDbEntity
8
1
62
256
6
ByLayer
370
18
48
1
60
0
100
AcDbEllipse
10
24.637792
20
-5.809776
30
0
11
1.12583302491984
21
0.649999999999853
31
0
210
0
220
0
230
1
40
0.989133
41
0.790861371919127
42
1.17666369199397
0
ELLIPSE
5
CD
100
AcDbEntity
8
1
62
256
6
ByLayer
370
18
48
1
60
0
100
AcDbEllipse
10
31.801865
20
-18.05143
30
0
11
4.97964607176088
21
2.87499999999937
31
0
210
0
220
0
230
1
40
0.989133
41
-2.2940771769844
42
-2.19021558720296
0
ELLIPSE
5
CE
100
AcDbEntity
8
1
62
256
6
ByLayer
370
18
48
1
60
0
100
AcDbEllipse
10
31.801865
20
-18.05143
30
0
11
4.97964607176088
21
2.87499999999937
31
0
210
0
220
0
230
1
40
0.989133
41
-0.876826369341316
42
-0.847487753811577
0
ELLIPSE
5
CF
100
AcDbEntity
8
1
62
256
6
ByLayer
370
18
48
1
60
0
100
AcDbEllipse
10
15.130529
20
-6.747317
30
0
11
-2.23001541474509
21
-1.28749999999972
31
0
210
0
220
0
230
1
40
0.989133
41
0.0813222837411755
42
2.61324973415674
0
ELLIPSE
5
D0
100
AcDbEntity
8
1
62
256
6
ByLayer
370
18
48
1
60
0
100
AcDbEllipse
10
15.130529
20
-6.747317
30
0
11
-2.23001541474509
21
-1.28749999999972
31
0
210
0
220
0
230
1
40
0.989133
41
2.61324973415674
42
2.94331332722719
0
ELLIPSE
5
D1
100
AcDbEntity
8
1
62
256
6
ByLayer
370
18
48
1
60
0
100
AcDbEllipse
10
15.233447
20
-6.925574
30
0
11
2.23001541474509
21
1.28749999999972
31
0
210
0
220
0
230
1
40
0.989133
41
-0.441442733582904
42
-0.119612331117955
0
ELLIPSE
5
D2
100
AcDbEntity
8
1
62
256
6
ByLayer
370
18
48
1
60
0
100
AcDbEllipse
10
15.233447
20
-6.925574
30
0
11
2.23001541474509
21
1.28749999999972
31
0
210
0
220
0
230
1
40
0.989133
41
3.14158360852076
42
-2.93356959824281
0
ELLIPSE
5
D3
100
AcDbEntity
8
1
62
256
6
ByLayer
370
18
48
1
60
0
100
AcDbEllipse
10
32.81217
20
-20.995194
30
0
11
3.46410161513801
21
1.99999999999956
31
0
210
0
220
0
230
1
40
0.989133
41
-0.756918303846076
42
1.57069617680675
0
ELLIPSE
5
D4
100
AcDbEntity
8
1
62
256
6
ByLayer
370
18
48
1
60
0
100
AcDbEllipse
10
33.16515
20
-20.412709
30
0
11
-3.71524898223551
21
-2.14499999999953
31
0
210
0
220
0
230
1
40
0.989133
41
-1.42198968018584
42
-0.905825100443276
0
ELLIPSE
5
D5
100
AcDbEntity
8
1
62
256
6
ByLayer
370
18
48
1
60
0
100
AcDbEllipse
10
32.775414
20
-20.931531
30
0
11
-3.89711431703026
21
-2.24999999999951
31
0
210
0
220
0
230
1
40
0.989133
41
2.37588621927598
42
-1.56210834631531
0
ELLIPSE
5
D6
100
AcDbEntity
8
1
62
256
6
ByLayer
370
18
48
1
60
0
100
AcDbEllipse
10
33.16515
20
-20.412709
30
0
11
-3.71524898223551
21
-2.14499999999953
31
0
210
0
220
0
230
1
40
0.989133
41
1.71960297340395
42
2.23576755314652
0
ELLIPSE
5
D7
100
AcDbEntity
8
1
62
256
6
ByLayer
370
18
48
1
60
0
100
AcDbEllipse
10
33.201906
20
-20.476373
30
0
11
3.28223628034326
21
1.89499999999959
31
0
210
0
220
0
230
1
40
0.989133
41
1.72884962825158
42
2.22652089829888
0
ELLIPSE
5
D8
100
AcDbEntity
8
1
62
256
6
ByLayer
370
18
48
1
60
0
100
AcDbEllipse
10
33.201906
20
-20.476373
30
0
11
3.28223628034326
21
1.89499999999959
31
0
210
0
220
0
230
1
40
0.989133
41
-1.41274302533821
42
-0.915071755290908
0
ELLIPSE
5
D9
100
AcDbEntity
8
1
62
256
6
ByLayer
370
18
48
1
60
0
100
AcDbEllipse
10
33.591641
20
-19.957551
30
0
11
3.46410161513801
21
1.99999999999956
31
0
210
0
220
0
230
1
40
0.989133
41
2.38467434974371
42
-1.57089647678304
0
ELLIPSE
5
DA
100
AcDbEntity
8
1
62
256
6
ByLayer
370
18
48
1
60
0
100
AcDbEllipse
10
33.554885
20
-19.893888
30
0
11
-3.89711431703026
21
-2.24999999999951
31
0
210
0
220
0
230
1
40
0.989133
41
-0.765706434313807
42
1.57948430727448
0
ELLIPSE
5
DB
100
AcDbEntity
8
1
62
256
6
ByLayer
370
18
48
1
60
0
100
AcDbEllipse
10
15.233447
20
-6.925574
30
0
11
2.23001541474509
21
1.28749999999972
31
0
210
0
220
0
230
1
40
0.989133
41
-2.53583783597612
42
-1.88637204704622
0
ELLIPSE
5
DC
100
AcDbEntity
8
1
62
256
6
ByLayer
370
18
48
1
60
0
100
AcDbEllipse
10
15.636661
20
-7.623963
30
0
11
2.23001541474509
21
1.28749999999972
31
0
210
0
220
0
230
1
40
0.989133
41
-2.93356959824284
42
-2.53583783597611
0
ELLIPSE
5
DD
100
AcDbEntity
8
1
62
256
6
ByLayer
370
18
48
1
60
0
100
AcDbEllipse
10
15.636661
20
-7.623963
30
0
11
2.23001541474509
21
1.28749999999972
31
0
210
0
220
0
230
1
40
0.989133
41
1.25522060654356
42
1.6529523688103
0
ELLIPSE
5
DE
100
AcDbEntity
8
1
62
256
6
ByLayer
370
18
48
1
60
0
100
AcDbEllipse
10
15.59623
20
-7.553933
30
0
11
-5.19615242270701
21
-2.99999999999935
31
0
210
0
220
0
230
1
40
0.989133
41
0
42
6.28318530717959
0
ELLIPSE
5
DF
100
AcDbEntity
8
1
62
256
6
ByLayer
370
18
48
1
60
0
100
AcDbEllipse
10
15.636661
20
-7.623963
30
0
11
2.23001541474509
21
1.28749999999972
31
0
210
0
220
0
230
1
40
0.989133
41
-0.839174495849623
42
-0.441442733582908
0
ELLIPSE
5
E0
100
AcDbEntity
8
1
62
256
6
ByLayer
370
18
48
1
60
0
100
AcDbEllipse
10
15.636661
20
-7.623963
30
0
11
2.23001541474509
21
1.28749999999972
31
0
210
0
220
0
230
1
40
0.989133
41
2.30241815774017
42
2.70014992000691
0
ELLIPSE
5
E1
100
AcDbEntity
8
1
62
256
6
ByLayer
370
18
48
1
60
0
100
AcDbEllipse
10
15.652467
20
-7.651338
30
0
11
-2.55251541474511
21
-1.47369546181333
31
0
210
0
220
0
230
1
40
0.989133
41
0
42
6.28318530717959
0
ELLIPSE
5
E2
100
AcDbEntity
8
1
62
256
6
ByLayer
370
18
48
1
60
0
100
AcDbEllipse
10
15.636661
20
-7.623963
30
0
11
2.23001541474509
21
1.28749999999972
31
0
210
0
220
0
230
1
40
0.989133
41
0.208023055346941
42
0.605754817613691
0
ELLIPSE
5
E3
100
AcDbEntity
8
1
62
256
6
ByLayer
370
18
48
1
60
0
100
AcDbEllipse
10
15.636661
20
-7.623963
30
0
11
2.23001541474509
21
1.28749999999972
31
0
210
0
220
0
230
1
40
0.989133
41
-1.88637204704619
42
-1.48864028477951
0
ELLIPSE
5
E4
100
AcDbEntity
8
1
62
256
6
ByLayer
370
18
48
1
60
0
100
AcDbEllipse
10
15.233447
20
-6.925574
30
0
11
2.23001541474509
21
1.28749999999972
31
0
210
0
220
0
230
1
40
0.989133
41
-1.48864028477952
42
-0.839174495849624
0
ELLIPSE
5
E5
100
AcDbEntity
8
1
62
256
6
ByLayer
370
18
48
1
60
0
100
AcDbEllipse
10
15.652467
20
-7.651338
30
0
11
-4.53364298881187
21
-2.61749999999943
31
0
210
0
220
0
230
1
40
0.989133
41
0
42
6.28318530717959
0
ELLIPSE
5
E6
100
AcDbEntity
8
1
62
256
6
ByLayer
370
18
48
1
60
0
100
AcDbEllipse
10
20.676611
20
-27.967323
30
0
11
2.06222299276184
21
1.19062499999974
31
0
210
0
220
0
230
1
40
0.989133
41
2.36165769871398
42
-2.35073128167069
0
ELLIPSE
5
E7
100
AcDbEntity
8
1
62
256
6
ByLayer
370
18
48
1
60
0
100
AcDbEllipse
10
40.560931
20
-33.063131
30
0
11
2.06222299276184
21
1.19062499999974
31
0
210
0
220
0
230
1
40
0.989133
41
-2.3507312816707
42
-0.779934954875827
0
ELLIPSE
5
E8
100
AcDbEntity
8
1
62
256
6
ByLayer
370
18
48
1
60
0
100
AcDbEllipse
10
45.873049
20
-13.238039
30
0
11
2.06222299276184
21
1.19062499999974
31
0
210
0
220
0
230
1
40
0.989133
41
-0.779934954875811
42
0.790861371919111
0
ELLIPSE
5
E9
100
AcDbEntity
8
1
62
256
6
ByLayer
370
18
48
1
60
0
100
AcDbEllipse
10
25.988728
20
-8.142231
30
0
11
2.06222299276184
21
1.19062499999974
31
0
210
0
220
0
230
1
40
0.989133
41
0.790861371919097
42
2.361657698714
0
ELLIPSE
5
EA
100
AcDbEntity
8
1
62
256
6
ByLayer
370
18
48
1
60
0
100
AcDbEllipse
10
33.27483
20
-20.602681
30
0
11
3.94907584125733
21
2.27999999999951
31
0
210
0
220
0
230
1
40
0.989133
41
0
42
6.28318530717959
0
POINT
5
6C
100
AcDbEntity
8
80
62
256
6
ByLayer
370
18
48
1
60
0
100
AcDbPoint
10
0
20
0
30
0
39
0
210
0
220
0
230
1
50
360
0
POINT
5
6E
100
AcDbEntity
8
81
62
256
6
ByLayer
370
18
48
1
60
0
100
AcDbPoint
10
41.029963
20
-35.075
30
0
39
0
210
0
220
0
230
1
50
360
0
POINT
5
70
100
AcDbEntity
8
1
62
256
6
ByLayer
370
18
48
1
60
0
100
AcDbPoint
10
-258.970037
20
24.925
30
0
39
0
210
0
220
0
230
1
50
360
0
SPLINE
5
EB
100
AcDbEntity
8
1
62
256
6
ByLayer
370
18
48
1
60
0
100
AcDbSpline
70
4
71
3
72
16
73
12
40
0
40
0
40
0
40
0
40
0.0915354358628177
40
0.0915354358628177
40
0.276642368524417
40
0.276642368524417
40
0.646856233847616
40
0.646856233847616
40
0.831963166509217
40
0.831963166509217
40
1
40
1
40
1
40
1
41
1
10
36.2397708380066
20
-17.1581085129661
30
0
41
1
10
36.2698874046508
20
-17.210176970272
30
0
41
1
10
36.2989677442928
20
-17.2629853475534
30
0
41
1
10
36.3836991996912
20
-17.4248432921264
30
0
41
1
10
36.4362918710706
20
-17.5366890806959
30
0
41
1
10
36.5783581940233
20
-17.8755058798453
30
0
41
1
10
36.653110455663
20
-18.107060259189
30
0
41
1
10
36.7364618439561
20
-18.4626111764958
30
0
41
1
10
36.7594249153883
20
-18.5825051766205
30
0
41
1
10
36.793961046691
20
-18.8138942627141
30
0
41
1
10
36.8063645921954
20
-18.9254055390823
30
0
41
1
10
36.814618823305
20
-19.0362435024964
30
0
0
SPLINE
5
EC
100
AcDbEntity
8
1
62
256
6
ByLayer
370
18
48
1
60
0
100
AcDbSpline
70
4
71
3
72
10
73
6
40
0
40
0
40
0
40
0
40
0.0059638445891735
40
0.0059638445891735
40
1
40
1
40
1
40
1
41
1
10
30.3306317916361
20
-22.9738777256067
30
0
41
1
10
30.3300030292261
20
-22.9735096223045
30
0
41
1
10
30.3293743995046
20
-22.9731413803255
30
0
41
1
10
30.223989919457
20
-22.9113724267824
30
0
41
1
10
30.1224155009409
20
-22.8458888047548
30
0
41
1
10
30.0239738636364
20
-22.7763815581158
30
0
0
SPLINE
5
ED
100
AcDbEntity
8
1
62
256
6
ByLayer
370
18
48
1
60
0
100
AcDbSpline
70
4
71
3
72
16
73
12
40
0
40
0
40
0
40
0
40
0.349113221500194
40
0.349113221500194
40
0.52366983225029
40
0.52366983225029
40
0.698226443000387
40
0.698226443000387
40
0.872783053750484
40
0.872783053750484
40
1
40
1
40
1
40
1
41
1
10
30.0239738636364
20
-22.7763815581158
30
0
41
1
10
29.7954667441524
20
-22.5828135628591
30
0
41
1
10
29.593676740537
20
-22.3697100355716
30
0
41
1
10
29.3296627397102
20
-22.024012892123
30
0
41
1
10
29.2481590358429
20
-21.9044092361406
30
0
41
1
10
29.0986000129491
20
-21.656814088692
30
0
41
1
10
29.031518111908
20
-21.5303150840923
30
0
41
1
10
28.9136839218826
20
-21.2759773842066
30
0
41
1
10
28.8626740974498
20
-21.1476852446602
30
0
41
1
10
28.7880234948913
20
-20.9258640916495
30
0
41
1
10
28.760704417266
20
-20.8322733242982
30
0
41
1
10
28.7376428133518
20
-20.7396030183321
30
0
0
SPLINE
5
EE
100
AcDbEntity
8
1
62
256
6
ByLayer
370
18
48
1
60
0
100
AcDbSpline
70
4
71
3
72
8
73
4
40
0
40
0
40
0
40
0
40
1
40
1
40
1
40
1
41
1
10
28.9288266231795
20
-21.8162319652498
30
0
41
1
10
29.2097830638397
20
-22.0505106147864
30
0
41
1
10
29.4852409710927
20
-22.2812580756944
30
0
41
1
10
29.7586340476271
20
-22.5106794908711
30
0
0
SPLINE
5
EF
100
AcDbEntity
8
1
62
256
6
ByLayer
370
18
48
1
60
0
100
AcDbSpline
70
4
71
3
72
8
73
4
40
0
40
0
40
0
40
0
40
1
40
1
40
1
40
1
41
1
10
35.5695601661495
20
-23.3842082135838
30
0
41
1
10
35.6511450323242
20
-23.4991414675247
30
0
41
1
10
35.7326901826937
20
-23.6140562887196
30
0
41
1
10
35.8142078155801
20
-23.7289583317925
30
0
0
SPLINE
5
F0
100
AcDbEntity
8
1
62
256
6
ByLayer
370
18
48
1
60
0
100
AcDbSpline
70
4
71
3
72
8
73
4
40
0
40
0
40
0
40
0
40
1
40
1
40
1
40
1
41
1
10
37.1272249250892
20
-21.9810518590007
30
0
41
1
10
36.9811254606594
20
-21.9521220401752
30
0
41
1
10
36.8350074005751
20
-21.9231675663665
30
0
41
1
10
36.6888625131203
20
-21.8941775025499
30
0
0
SPLINE
5
F1
100
AcDbEntity
8
1
62
256
6
ByLayer
370
18
48
1
60
0
100
AcDbSpline
70
4
71
3
72
8
73
4
40
0
40
0
40
0
40
0
40
1
40
1
40
1
40
1
41
1
10
29.7149490145766
20
-19.0585679375638
30
0
41
1
10
29.5443044258995
20
-18.9871431464598
30
0
41
1
10
29.3736817735969
20
-18.9157454739103
30
0
41
1
10
29.2030743312292
20
-18.8443665921055
30
0
0
SPLINE
5
F2
100
AcDbEntity
8
1
62
256
6
ByLayer
370
18
48
1
60
0
100
AcDbSpline
70
4
71
3
72
8
73
4
40
0
40
0
40
0
40
0
40
1
40
1
40
1
40
1
41
1
10
30.5160914407382
20
-17.0964601193136
30
0
41
1
10
30.6221170515626
20
-17.2538112253658
30
0
41
1
10
30.7281667941504
20
-17.4111692453016
30
0
41
1
10
30.8342513615474
20
-17.5685372265299
30
0
0
SPLINE
5
F3
100
AcDbEntity
8
1
62
256
6
ByLayer
370
18
48
1
60
0
100
AcDbSpline
70
4
71
3
72
10
73
6
40
0
40
0
40
0
40
0
40
0.5
40
0.5
40
1
40
1
40
1
40
1
41
1
10
13.7177353111664
20
-9.33925700514389
30
0
41
1
10
13.5912837807701
20
-9.24716461174646
30
0
41
1
10
13.4648096411168
20
-9.15568073379315
30
0
41
1
10
13.217417810459
20
-8.97776332551094
30
0
41
1
10
13.0959496847373
20
-8.89092148213912
30
0
41
1
10
12.9761434323863
20
-8.80565876209683
30
0
0
SPLINE
5
F4
100
AcDbEntity
8
1
62
256
6
ByLayer
370
18
48
1
60
0
100
AcDbSpline
70
4
71
3
72
10
73
6
40
0
40
0
40
0
40
0
40
0.5
40
0.5
40
1
40
1
40
1
40
1
41
1
10
17.9739104558701
20
-9.365145599889
30
0
41
1
10
17.9894056184143
20
-9.20605573213108
30
0
41
1
10
18.0055434940964
20
-9.04516189662195
30
0
41
1
10
18.0389149626375
20
-8.72452882390596
30
0
41
1
10
18.0561665293147
20
-8.56459524117756
30
0
41
1
10
18.0740915242374
20
-8.40511743261114
30
0
0
SPLINE
5
F5
100
AcDbEntity
8
1
62
256
6
ByLayer
370
18
48
1
60
0
100
AcDbSpline
70
4
71
3
72
10
73
6
40
0
40
0
40
0
40
0
40
0.5
40
0.5
40
1
40
1
40
1
40
1
41
1
10
13.3282523170607
20
-5.93273216822065
30
0
41
1
10
13.3061529848723
20
-6.08038327861318
30
0
41
1
10
13.2841065152964
20
-6.23104312929688
30
0
41
1
10
13.2409590111014
20
-6.53474361156364
30
0
41
1
10
13.2198303590791
20
-6.68796188548913
30
0
41
1
10
13.1992314451197
20
-6.8428083304286
30
0
0
SPLINE
5
F6
100
AcDbEntity
8
1
62
256
6
ByLayer
370
18
48
1
60
0
100
AcDbSpline
70
4
71
3
72
8
73
4
40
0
40
0
40
0
40
0
40
1
40
1
40
1
40
1
41
1
10
13.0763245007536
20
-7.84563059481889
30
0
41
1
10
13.0398270052171
20
-8.17034703861144
30
0
41
1
10
13.006926193844
20
-8.48961009622717
30
0
41
1
10
12.9761434323863
20
-8.80565876209683
30
0
0
SPLINE
5
F7
100
AcDbEntity
8
1
62
256
6
ByLayer
370
18
48
1
60
0
100
AcDbSpline
70
4
71
3
72
10
73
6
40
0
40
0
40
0
40
0
40
0.5
40
0.5
40
1
40
1
40
1
40
1
41
1
10
16.7447821499199
20
-5.30961053322578
30
0
41
1
10
16.6183306195236
20
-5.21751813982833
30
0
41
1
10
16.4918564798703
20
-5.12603426187501
30
0
41
1
10
16.2444646492125
20
-4.94811685359279
30
0
41
1
10
16.1229965234908
20
-4.86127501022097
30
0
41
1
10
16.0031902711397
20
-4.77601229017866
30
0
0
SPLINE
5
F8
100
AcDbEntity
8
1
62
256
6
ByLayer
370
18
48
1
60
0
100
AcDbSpline
70
4
71
3
72
8
73
4
40
0
40
0
40
0
40
0
40
1
40
1
40
1
40
1
41
1
10
17.088877803362
20
-9.71664751651484
30
0
41
1
10
17.3895484488802
20
-9.59252108392694
30
0
41
1
10
17.683661564622
20
-9.47645869470908
30
0
41
1
10
17.9739104558701
20
-9.365145599889
30
0
0
SPLINE
5
F9
100
AcDbEntity
8
1
62
256
6
ByLayer
370
18
48
1
60
0
100
AcDbSpline
70
4
71
3
72
10
73
6
40
0
40
0
40
0
40
0
40
0.5
40
0.5
40
1
40
1
40
1
40
1
41
1
10
18.3260193405445
20
-6.49221900601285
30
0
41
1
10
18.1992799519861
20
-6.39531339203693
30
0
41
1
10
18.071534110418
20
-6.29801623689009
30
0
41
1
10
17.8133343848692
20
-6.10236841482103
30
0
41
1
10
17.6840982905238
20
-6.00494693634251
30
0
41
1
10
17.5555876581906
20
-5.90866875789585
30
0
0
SPLINE
5
FA
100
AcDbEntity
8
1
62
256
6
ByLayer
370
18
48
1
60
0
100
AcDbSpline
70
4
71
3
72
8
73
4
40
0
40
0
40
0
40
0
40
1
40
1
40
1
40
1
41
1
10
18.1969984686034
20
-7.40229516822076
30
0
41
1
10
18.2389403923547
20
-7.08700875071445
30
0
41
1
10
18.2821167051776
20
-6.78554338368308
30
0
41
1
10
18.3260193405445
20
-6.49221900601283
30
0
0
SPLINE
5
FB
100
AcDbEntity
8
1
62
256
6
ByLayer
370
18
48
1
60
0
100
AcDbSpline
70
4
71
3
72
8
73
4
40
0
40
0
40
0
40
0
40
1
40
1
40
1
40
1
41
1
10
14.184445165995
20
-5.53127824652481
30
0
41
1
10
13.8892189486916
20
-5.66483470539893
30
0
41
1
10
13.6053813343996
20
-5.79869478520116
30
0
41
1
10
13.3282523170607
20
-5.93273216822065
30
0
0
SPLINE
5
FC
100
AcDbEntity
8
1
62
256
6
ByLayer
370
18
48
1
60
0
100
AcDbSpline
70
4
71
3
72
10
73
6
40
0
40
0
40
0
40
0
40
0.5
40
0.5
40
1
40
1
40
1
40
1
41
1
10
15.298972501791
20
-10.521865477931
30
0
41
1
10
15.4384713305522
20
-10.4543948892464
30
0
41
1
10
15.5805584665654
20
-10.386557822004
30
0
41
1
10
15.8663241545777
20
-10.2524045295695
30
0
41
1
10
16.010171060886
20
-10.1860050664756
30
0
41
1
10
16.1551653507254
20
-10.1204115562352
30
0
0
SPLINE
5
FD
100
AcDbEntity
8
1
62
256
6
ByLayer
370
18
48
1
60
0
100
AcDbSpline
70
4
71
3
72
10
73
6
40
0
40
0
40
0
40
0
40
0.5
40
0.5
40
1
40
1
40
1
40
1
41
1
10
16.0031902711397
20
-4.77601229017866
30
0
41
1
10
15.8570872727345
20
-4.83204412149782
30
0
41
1
10
15.7090915428274
20
-4.88964720391483
30
0
41
1
10
15.4135498191612
20
-5.00686790590005
30
0
41
1
10
15.2658258275079
20
-5.06655206019109
30
0
41
1
10
15.1181576186317
20
-5.12751420680455
30
0
0
SPLINE
5
FE
100
AcDbEntity
8
1
62
256
6
ByLayer
370
18
48
1
60
0
100
AcDbSpline
70
4
71
3
72
10
73
6
40
0
40
0
40
0
40
0
40
0.5
40
0.5
40
1
40
1
40
1
40
1
41
1
10
15.298972501791
20
-10.521865477931
30
0
41
1
10
15.1722331132327
20
-10.4249598639551
30
0
41
1
10
15.0444872716645
20
-10.3276627088082
30
0
41
1
10
14.7862875461157
20
-10.1320148867392
30
0
41
1
10
14.6570514517704
20
-10.0345934082606
30
0
41
1
10
14.5285408194372
20
-9.93831522981397
30
0
0
LINE
5
72
100
AcDbEntity
8
1
62
256
6
ByLayer
370
18
48
1
60
0
100
AcDbLine
10
10.350835
20
-10.468643
30
0
11
10.400077
21
-10.553933
31
0
39
0
210
0
220
0
230
1
0
LINE
5
73
100
AcDbEntity
8
1
62
256
6
ByLayer
370
18
48
1
60
0
100
AcDbLine
10
29.080259
20
-21.620867
30
0
11
29.133792
21
-21.71359
31
0
39
0
210
0
220
0
230
1
0
LINE
5
74
100
AcDbEntity
8
1
62
256
6
ByLayer
370
18
48
1
60
0
100
AcDbLine
10
20.792382
20
-4.553933
30
0
11
20.74314
21
-4.468643
31
0
39
0
210
0
220
0
230
1
0
LINE
5
75
100
AcDbEntity
8
1
62
256
6
ByLayer
370
18
48
1
60
0
100
AcDbLine
10
29.106429
20
-21.188935
30
0
11
29.657771
21
-22.143888
31
0
39
0
210
0
220
0
230
1
0
LINE
5
76
100
AcDbEntity
8
1
62
256
6
ByLayer
370
18
48
1
60
0
100
AcDbLine
10
36.241682
20
-17.16142
30
0
11
36.225578
21
-17.133526
31
0
39
0
210
0
220
0
230
1
0
LINE
5
77
100
AcDbEntity
8
1
62
256
6
ByLayer
370
18
48
1
60
0
100
AcDbLine
10
36.672528
20
-18.681531
30
0
11
36.121186
21
-17.726578
31
0
39
0
210
0
220
0
230
1
0
LINE
5
78
100
AcDbEntity
8
1
62
256
6
ByLayer
370
18
48
1
60
0
100
AcDbLine
10
18.094176
20
-28.256915
30
0
11
18.614388
21
-29.157948
31
0
39
0
210
0
220
0
230
1
0
LINE
5
79
100
AcDbEntity
8
1
62
256
6
ByLayer
370
18
48
1
60
0
100
AcDbLine
10
47.935272
20
-12.047414
30
0
11
47.366702
21
-11.062623
31
0
39
0
210
0
220
0
230
1
0
LINE
5
7A
100
AcDbEntity
8
SK1
62
256
6
ByLayer
370
18
48
1
60
0
100
AcDbLine
10
0
20
-24.925
30
0
11
0
21
24.925
31
0
39
0
210
0
220
0
230
1
0
LINE
5
7C
100
AcDbEntity
8
SK1
62
256
6
ByLayer
370
18
48
1
60
0
100
AcDbLine
10
-258.970037
20
24.925
30
0
11
-258.970037
21
-24.925
31
0
39
0
210
0
220
0
230
1
0
LINE
5
7D
100
AcDbEntity
8
SK1
62
256
6
ByLayer
370
18
48
1
60
0
100
AcDbLine
10
-258.970037
20
-24.925
30
0
11
0
21
-24.925
31
0
39
0
210
0
220
0
230
1
0
LINE
5
7E
100
AcDbEntity
8
SK1
62
256
6
ByLayer
370
18
48
1
60
0
100
AcDbLine
10
-258.970037
20
24.925
30
0
11
0
21
24.925
31
0
39
0
210
0
220
0
230
1
0
LINE
5
7F
100
AcDbEntity
8
1
62
256
6
ByLayer
370
18
48
1
60
0
100
AcDbLine
10
47.3667
20
0.766158
30
0
11
47.3667
21
-2.01829
31
0
39
0
210
0
220
0
230
1
0
LINE
5
80
100
AcDbEntity
8
1
62
256
6
ByLayer
370
18
48
1
60
0
100
AcDbLine
10
20.281434
20
-20.09393
30
0
11
17.944494
21
-28.815509
31
0
39
0
210
0
220
0
230
1
0
LINE
5
81
100
AcDbEntity
8
1
62
256
6
ByLayer
370
18
48
1
60
0
100
AcDbLine
10
30.898474
20
-5.777181
30
0
11
31.054858
21
-6.134829
31
0
39
0
210
0
220
0
230
1
0
LINE
5
82
100
AcDbEntity
8
1
62
256
6
ByLayer
370
18
48
1
60
0
100
AcDbLine
10
31.211703
20
-5.679085
30
0
11
31.843339
21
-7.122808
31
0
39
0
210
0
220
0
230
1
0
LINE
5
83
100
AcDbEntity
8
1
62
256
6
ByLayer
370
18
48
1
60
0
100
AcDbLine
10
47.3667
20
0.766158
30
0
11
45.973602
21
3.179075
31
0
39
0
210
0
220
0
230
1
0
LINE
5
84
100
AcDbEntity
8
1
62
256
6
ByLayer
370
18
48
1
60
0
100
AcDbLine
10
1.545481
20
-26.11089
30
0
11
1.704882
21
-26.705781
31
0
39
0
210
0
220
0
230
1
0
LINE
5
85
100
AcDbEntity
8
1
62
256
6
ByLayer
370
18
48
1
60
0
100
AcDbLine
10
24.348373
20
-4.915907
30
0
11
22.083242
21
-13.36949
31
0
39
0
210
0
220
0
230
1
0
LINE
5
86
100
AcDbEntity
8
1
62
256
6
ByLayer
370
18
48
1
60
0
100
AcDbLine
10
21.642146
20
-14.439267
30
0
11
20.433479
21
-18.950076
31
0
39
0
210
0
220
0
230
1
0
LINE
5
87
100
AcDbEntity
8
1
62
256
6
ByLayer
370
18
48
1
60
0
100
AcDbLine
10
31.843339
20
-7.122808
30
0
11
32.018045
21
-6.470795
31
0
39
0
210
0
220
0
230
1
0
LINE
5
88
100
AcDbEntity
8
1
62
256
6
ByLayer
370
18
48
1
60
0
100
AcDbLine
10
12.952735
20
24.707487
30
0
11
5.183249
21
24.968634
31
0
39
0
210
0
220
0
230
1
0
LINE
5
89
100
AcDbEntity
8
1
62
256
6
ByLayer
370
18
48
1
60
0
100
AcDbLine
10
31.167754
20
-4.77222
30
0
11
30.898476
21
-5.777181
31
0
39
0
210
0
220
0
230
1
0
LINE
5
8A
100
AcDbEntity
8
1
62
256
6
ByLayer
370
18
48
1
60
0
100
AcDbLine
10
12.952735
20
24.707487
30
0
11
45.973602
21
3.179075
31
0
39
0
210
0
220
0
230
1
0
LINE
5
8B
100
AcDbEntity
8
1
62
256
6
ByLayer
370
18
48
1
60
0
100
AcDbLine
10
47.3667
20
-2.01829
30
0
11
6.391977
21
24.180587
31
0
39
0
210
0
220
0
230
1
0
LINE
5
8C
100
AcDbEntity
8
1
62
256
6
ByLayer
370
18
48
1
60
0
100
AcDbLine
10
47.3667
20
-2.01829
30
0
11
47.3667
21
-11.173275
31
0
39
0
210
0
220
0
230
1
0
LINE
5
8D
100
AcDbEntity
8
1
62
256
6
ByLayer
370
18
48
1
60
0
100
AcDbLine
10
2.224782
20
-27.00285
30
0
11
17.825317
21
-28.801061
31
0
39
0
210
0
220
0
230
1
0
LINE
5
8E
100
AcDbEntity
8
1
62
256
6
ByLayer
370
18
48
1
60
0
100
AcDbLine
10
31.279905
20
-5.834631
30
0
11
31.16364
21
-5.804294
31
0
39
0
210
0
220
0
230
1
0
LINE
5
8F
100
AcDbEntity
8
1
62
256
6
ByLayer
370
18
48
1
60
0
100
AcDbLine
10
2.224782
20
-27.00285
30
0
11
3.907215
21
22.746009
31
0
39
0
210
0
220
0
230
1
0
LINE
5
90
100
AcDbEntity
8
1
62
256
6
ByLayer
370
18
48
1
60
0
100
AcDbLine
10
1.545481
20
24.930174
30
0
11
3.907215
21
24.968634
31
0
39
0
210
0
220
0
230
1
0
LINE
5
91
100
AcDbEntity
8
1
62
256
6
ByLayer
370
18
48
1
60
0
100
AcDbLine
10
30.898474
20
-5.777181
30
0
11
30.822639
21
-6.060203
31
0
39
0
210
0
220
0
230
1
0
LINE
5
92
100
AcDbEntity
8
1
62
256
6
ByLayer
370
18
48
1
60
0
100
AcDbLine
10
1.704882
20
-26.705781
30
0
11
2.224782
21
-27.00285
31
0
39
0
210
0
220
0
230
1
0
LINE
5
93
100
AcDbEntity
8
1
62
256
6
ByLayer
370
18
48
1
60
0
100
AcDbLine
10
1.545481
20
24.930174
30
0
11
1.545481
21
-26.11089
31
0
39
0
210
0
220
0
230
1
0
LINE
5
94
100
AcDbEntity
8
1
62
256
6
ByLayer
370
18
48
1
60
0
100
AcDbLine
10
0
20
-24.925
30
0
11
0
21
24.925
31
0
39
0
210
0
220
0
230
1
0
LINE
5
95
100
AcDbEntity
8
1
62
256
6
ByLayer
370
18
48
1
60
0
100
AcDbLine
10
3.907215
20
24.968634
30
0
11
3.907215
21
22.746009
31
0
39
0
210
0
220
0
230
1
0
LINE
5
96
100
AcDbEntity
8
1
62
256
6
ByLayer
370
18
48
1
60
0
100
AcDbLine
10
3.907215
20
22.746009
30
0
11
6.391977
21
24.180587
31
0
39
0
210
0
220
0
230
1
0
LINE
5
97
100
AcDbEntity
8
1
62
256
6
ByLayer
370
18
48
1
60
0
100
AcDbLine
10
30.662844
20
-6.019241
30
0
11
31.012083
21
-4.715863
31
0
39
0
210
0
220
0
230
1
0
LINE
5
98
100
AcDbEntity
8
1
62
256
6
ByLayer
370
18
48
1
60
0
100
AcDbLine
10
47.3667
20
-11.173275
30
0
11
46.891055
21
-11.049166
31
0
39
0
210
0
220
0
230
1
0
LINE
5
99
100
AcDbEntity
8
1
62
256
6
ByLayer
370
18
48
1
60
0
100
AcDbLine
10
36.534547
20
-8.346872
30
0
11
31.843339
21
-7.122808
31
0
39
0
210
0
220
0
230
1
0
LINE
5
9A
100
AcDbEntity
8
1
62
256
6
ByLayer
370
18
48
1
60
0
100
AcDbLine
10
31.167754
20
-4.77222
30
0
11
32.018045
21
-6.470795
31
0
39
0
210
0
220
0
230
1
0
LINE
5
9B
100
AcDbEntity
8
1
62
256
6
ByLayer
370
18
48
1
60
0
100
AcDbLine
10
3.907215
20
24.968634
30
0
11
5.183249
21
24.968634
31
0
39
0
210
0
220
0
230
1
0
LINE
5
9C
100
AcDbEntity
8
1
62
256
6
ByLayer
370
18
48
1
60
0
100
AcDbLine
10
31.073774
20
-6.139675
30
0
11
31.16364
21
-5.804294
31
0
39
0
210
0
220
0
230
1
0
LINE
5
9D
100
AcDbEntity
8
1
62
256
6
ByLayer
370
18
48
1
60
0
100
AcDbLine
10
6.391977
20
24.180587
30
0
11
5.183249
21
24.968634
31
0
39
0
210
0
220
0
230
1
0
LINE
5
9E
100
AcDbEntity
8
1
62
256
6
ByLayer
370
18
48
1
60
0
100
AcDbLine
10
23.694384
20
-7.554253
30
0
11
23.658216
21
-7.491608
31
0
39
0
210
0
220
0
230
1
0
LINE
5
9F
100
AcDbEntity
8
1
62
256
6
ByLayer
370
18
48
1
60
0
100
AcDbLine
10
46.485985
20
-10.950529
30
0
11
46.449817
21
-10.887884
31
0
39
0
210
0
220
0
230
1
0
LINE
5
A0
100
AcDbEntity
8
1
62
256
6
ByLayer
370
18
48
1
60
0
100
AcDbLine
10
26.018161
20
-4.844062
30
0
11
31.456212
21
-6.237686
31
0
39
0
210
0
220
0
230
1
0
LINE
5
A1
100
AcDbEntity
8
1
62
256
6
ByLayer
370
18
48
1
60
0
100
AcDbLine
10
18.346098
20
-27.3167
30
0
11
18.382266
21
-27.379345
31
0
39
0
210
0
220
0
230
1
0
LINE
5
A2
100
AcDbEntity
8
1
62
256
6
ByLayer
370
18
48
1
60
0
100
AcDbLine
10
30.516091
20
-17.09646
30
0
11
30.490835
21
-17.052714
31
0
39
0
210
0
220
0
230
1
0
LINE
5
A3
100
AcDbEntity
8
1
62
256
6
ByLayer
370
18
48
1
60
0
100
AcDbLine
10
29.14605
20
-18.745598
30
0
11
29.203074
21
-18.844367
31
0
39
0
210
0
220
0
230
1
0
LINE
5
A4
100
AcDbEntity
8
1
62
256
6
ByLayer
370
18
48
1
60
0
100
AcDbLine
10
25.105529
20
-4.791514
30
0
11
24.972413
21
-4.560951
31
0
39
0
210
0
220
0
230
1
0
LINE
5
A5
100
AcDbEntity
8
1
62
256
6
ByLayer
370
18
48
1
60
0
100
AcDbLine
10
30.857245
20
-6.069073
30
0
11
24.972413
21
-4.560951
31
0
39
0
210
0
220
0
230
1
0
LINE
5
A6
100
AcDbEntity
8
1
62
256
6
ByLayer
370
18
48
1
60
0
100
AcDbLine
10
17.862879
20
-6.140143
30
0
11
17.793784
21
-6.703907
31
0
39
0
210
0
220
0
230
1
0
LINE
5
A7
100
AcDbEntity
8
1
62
256
6
ByLayer
370
18
48
1
60
0
100
AcDbLine
10
13.016321
20
-8.420546
30
0
11
13.314521
21
-8.640868
31
0
39
0
210
0
220
0
230
1
0
LINE
5
A8
100
AcDbEntity
8
80
62
256
6
ByLayer
370
18
48
1
60
0
100
AcDbLine
10
0
20
0
30
0
11
-5
21
0
31
0
39
0
210
0
220
0
230
1
0
LINE
5
A9
100
AcDbEntity
8
81
62
256
6
ByLayer
370
18
48
1
60
0
100
AcDbLine
10
41.029963
20
-35.075
30
0
11
51.029963
21
-35.075
31
0
39
0
210
0
220
0
230
1
0
LINE
5
AA
100
AcDbEntity
8
1
62
256
6
ByLayer
370
18
48
1
60
0
100
AcDbLine
10
17.670877
20
-7.706729
30
0
11
18.074092
21
-8.405117
31
0
39
0
210
0
220
0
230
1
0
LINE
5
AB
100
AcDbEntity
8
1
62
256
6
ByLayer
370
18
48
1
60
0
100
AcDbLine
10
17.97391
20
-9.365146
30
0
11
17.556276
21
-8.641781
31
0
39
0
210
0
220
0
230
1
0
LINE
5
AC
100
AcDbEntity
8
1
62
256
6
ByLayer
370
18
48
1
60
0
100
AcDbLine
10
14.125326
20
-9.239927
30
0
11
14.528541
21
-9.938315
31
0
39
0
210
0
220
0
230
1
0
LINE
5
AD
100
AcDbEntity
8
1
62
256
6
ByLayer
370
18
48
1
60
0
100
AcDbLine
10
18.196998
20
-7.402295
30
0
11
17.793784
21
-6.703907
31
0
39
0
210
0
220
0
230
1
0
LINE
5
AE
100
AcDbEntity
8
1
62
256
6
ByLayer
370
18
48
1
60
0
100
AcDbLine
10
17.088878
20
-9.716648
30
0
11
16.685663
21
-9.018259
31
0
39
0
210
0
220
0
230
1
0
LINE
5
AF
100
AcDbEntity
8
1
62
256
6
ByLayer
370
18
48
1
60
0
100
AcDbLine
10
17.556276
20
-8.641781
30
0
11
16.685663
21
-9.018259
31
0
39
0
210
0
220
0
230
1
0
LINE
5
B0
100
AcDbEntity
8
1
62
256
6
ByLayer
370
18
48
1
60
0
100
AcDbLine
10
14.125326
20
-9.239927
30
0
11
14.881338
21
-9.798501
31
0
39
0
210
0
220
0
230
1
0
LINE
5
B1
100
AcDbEntity
8
1
62
256
6
ByLayer
370
18
48
1
60
0
100
AcDbLine
10
15.751951
20
-9.422023
30
0
11
16.155165
21
-10.120412
31
0
39
0
210
0
220
0
230
1
0
LINE
5
B2
100
AcDbEntity
8
1
62
256
6
ByLayer
370
18
48
1
60
0
100
AcDbLine
10
13.717735
20
-9.339257
30
0
11
13.314521
21
-8.640868
31
0
39
0
210
0
220
0
230
1
0
LINE
5
B3
100
AcDbEntity
8
1
62
256
6
ByLayer
370
18
48
1
60
0
100
AcDbLine
10
17.670877
20
-7.706729
30
0
11
17.556276
21
-8.641781
31
0
39
0
210
0
220
0
230
1
0
LINE
5
B4
100
AcDbEntity
8
1
62
256
6
ByLayer
370
18
48
1
60
0
100
AcDbLine
10
15.751951
20
-9.422023
30
0
11
14.881338
21
-9.798501
31
0
39
0
210
0
220
0
230
1
0
LINE
5
B5
100
AcDbEntity
8
1
62
256
6
ByLayer
370
18
48
1
60
0
100
AcDbLine
10
15.298973
20
-10.521865
30
0
11
14.881338
21
-9.798501
31
0
39
0
210
0
220
0
230
1
0
LINE
5
B6
100
AcDbEntity
8
1
62
256
6
ByLayer
370
18
48
1
60
0
100
AcDbLine
10
39.947995
20
-35.350642
30
0
11
20.063674
21
-30.254833
31
0
39
0
210
0
220
0
230
1
0
LINE
5
B7
100
AcDbEntity
8
1
62
256
6
ByLayer
370
18
48
1
60
0
100
AcDbLine
10
48.167393
20
-13.826017
30
0
11
42.855276
21
-33.651109
31
0
39
0
210
0
220
0
230
1
0
LINE
5
B8
100
AcDbEntity
8
1
62
256
6
ByLayer
370
18
48
1
60
0
100
AcDbLine
10
18.382266
20
-27.379345
30
0
11
23.694384
21
-7.554253
31
0
39
0
210
0
220
0
230
1
0
LINE
5
B9
100
AcDbEntity
8
1
62
256
6
ByLayer
370
18
48
1
60
0
100
AcDbLine
10
26.601665
20
-5.85472
30
0
11
46.485985
21
-10.950529
31
0
39
0
210
0
220
0
230
1
0
LINE
5
BA
100
AcDbEntity
8
1
62
256
6
ByLayer
370
18
48
1
60
0
100
AcDbLine
10
26.018161
20
-4.844062
30
0
11
26.601665
21
-5.85472
31
0
39
0
210
0
220
0
230
1
0
MTEXT
5
FF
100
AcDbEntity
8
SK6
62
256
6
ByLayer
370
13
48
1
60
0
100
AcDbMText
10
-207.387167
20
33.910722
30
0
210
0
220
0
230
1
1
\W0.7906;PSKNL 5050T 25
40
3.5
41
0
44
1.084337
50
0
71
7
72
5
7
iso_b_vert
0
DIMENSION
5
111
100
AcDbEntity
8
SK2
62
256
6
ByLayer
370
13
48
1
60
0
100
AcDbDimension
2
DimnDraft3D1
10
-268.720037
20
24.925
30
0
11
-268.720037
21
-0.075
31
0
70
32
71
5
72
1
41
1
210
0
220
0
230
1
3
Standard
100
AcDbAlignedDimension
13
-260.557537
23
-25.075
33
0
14
-260.557537
24
24.925
34
0
50
90
100
AcDbRotatedDimension
1001
ACAD
1000
DSTYLE
1002
{
1070
    74
1070
     0
1070
   279
1070
     0
1070
   172
1070
     1
1070
   173
1070
     1
1070
   340
1005
100
1070
   271
1070
     1
1070
   272
1070
     2
1070
    77
1070
     1
1070
    73
1070
     0
1070
   171
1070
     3
1070
   274
1070
     4
1070
   177
1070
   150
1070
   176
1070
     9
1070
   178
1070
    43
1070
    78
1070
     8
1070
    48
1040
-0.005
1070
    41
1041
3.175
1070
   147
1041
2.25
1070
    42
1041
1.5875
1070
    44
1041
3.175
1070
   140
1041
4.5
1070
   343
1005
112
1070
   344
1005
112
1002
}
0
DIMENSION
5
127
100
AcDbEntity
8
2
62
256
6
ByLayer
370
13
48
1
60
0
100
AcDbDimension
2
DimnDraft3D2
10
80.2693
20
24.925
30
0
11
80.2693
21
-5.25
31
0
70
32
71
5
72
1
41
1
210
0
220
0
230
1
3
Standard
100
AcDbAlignedDimension
13
43.967463
23
-35.425
33
0
14
-10.978105
24
24.925
34
0
50
90
100
AcDbRotatedDimension
1001
ACAD
1000
DSTYLE
1002
{
1070
    74
1070
     0
1070
   279
1070
     0
1070
   172
1070
     1
1070
   173
1070
     1
1070
   340
1005
100
1070
   271
1070
     1
1070
   272
1070
     2
1070
    77
1070
     1
1070
    73
1070
     0
1070
   171
1070
     3
1070
   274
1070
     4
1070
   177
1070
   150
1070
   176
1070
     9
1070
   178
1070
    43
1070
    78
1070
     8
1070
    48
1040
-0.005
1070
    41
1041
3.175
1070
   147
1041
2.25
1070
    42
1041
1.5875
1070
    44
1041
3.175
1070
   140
1041
4.5
1070
   343
1005
112
1070
   344
1005
112
1002
}
0
DIMENSION
5
135
100
AcDbEntity
8
SK2
62
256
6
ByLayer
370
13
48
1
60
0
100
AcDbDimension
2
DimnDraft3D3
10
42.379963
20
-51.925
30
0
11
-108.295037
21
-51.925
31
0
70
32
71
5
72
1
41
1
210
0
220
0
230
1
3
Standard
100
AcDbAlignedDimension
13
-258.970037
23
-26.6625
33
0
14
42.379963
24
-37.0125
34
0
50
0
100
AcDbRotatedDimension
1001
ACAD
1000
DSTYLE
1002
{
1070
   279
1070
     0
1070
   172
1070
     1
1070
   173
1070
     1
1070
   340
1005
100
1070
   271
1070
     1
1070
   272
1070
     2
1070
    77
1070
     1
1070
    73
1070
     0
1070
   171
1070
     3
1070
   274
1070
     4
1070
   177
1070
   150
1070
   176
1070
     9
1070
   178
1070
    43
1070
    78
1070
     8
1070
    48
1040
-0.005
1070
    41
1041
3.175
1070
   147
1041
2.25
1070
    42
1041
1.5875
1070
    44
1041
3.175
1070
   140
1041
4.5
1070
   343
1005
112
1070
   344
1005
112
1002
}
0
DIMENSION
5
142
100
AcDbEntity
8
2
62
256
6
ByLayer
370
13
48
1
60
0
100
AcDbDimension
2
DimnDraft3D4
10
48.7693
20
-9.511917
30
0
11
63.179285
21
-19.03998
31
0
70
34
71
5
72
1
41
1
210
0
220
0
230
1
3
Standard
100
AcDb2LineAngularDimension
13
42.379963
23
-35.425
33
0
14
37.617463
24
-35.425
34
0
15
42.298824
25
-33.660063
35
0
16
59.609195
26
-21.779406
36
0
40
0
0
ENDSEC
0
SECTION
2
OBJECTS
0
DICTIONARY
5
1ac
330
0
100
AcDbDictionary
280
0
281
1
3
ACAD_GROUP
350
1ad
3
ACAD_MLINESTYLE
350
1ae
0
DICTIONARY
5
1ad
330
0
100
AcDbDictionary
280
0
281
1
0
DICTIONARY
5
1ae
330
0
100
AcDbDictionary
280
0
281
1
3
Standard
350
18
0
MLINESTYLE
5
18
330
1ae
100
AcDbMlineStyle
2
Standard
70
0
3

62
256
51
90
52
90
71
2
49
-0.5
62
256
6
ByLayer
49
0.5
62
256
6
ByLayer
0
RASTERVARIABLES
5
19b
330

100
AcDbRasterVariables
90
0
70
1
71
1
72
1
0
ENDSEC
0
EOF
