0
SECTION
2
HEADER
9
$ACADVER
1
AC1015
9
$DWGCODEPAGE
3
ANSI_1252
9
$HANDSEED
5
1bb
9
$ANGBASE
50
0
9
$ANGDIR
70
0
9
$ATTMODE
70
1
9
$AUNITS
70
0
9
$AUPREC
70
0
9
$CECOLOR
62
256
9
$CELTSCALE
40
1
9
$CELTYPE
6
ByLayer
9
$CELWEIGHT
370
18
9
$CLAYER
8
0
9
$CMLJUST
70
0
9
$CMLSCALE
40
1
9
$CMLSTYLE
2
Standard
9
$DIMSTYLE
2
Standard
9
$TEXTSIZE
40
0.2
9
$TEXTSTYLE
7
Standard
9
$LUNITS
70
2
9
$LUPREC
70
4
9
$EXTNAMES
290
1
9
$INSUNITS
70
4
9
$LTSCALE
40
1
9
$LWDISPLAY
290
1
9
$PDMODE
70
0
9
$PDSIZE
40
0
9
$PLINEGEN
70
0
0
ENDSEC
0
SECTION
2
CLASSES
0
CLASS
1
RASTERVARIABLES
2
AcDbRasterVariables
3
ISM
90
0
280
0
281
0
0
ENDSEC
0
SECTION
2
TABLES
0
TABLE
2
VPORT
5
1b1
100
AcDbSymbolTable
0
VPORT
5
1
100
AcDbSymbolTableRecord
100
AcDbViewportTableRecord
2
*Active
70
0
10
0
20
0
11
1
21
1
12
-1
22
1
13
0
23
0
14
0.5
24
0.5
15
10
25
10
16
0
26
0
36
1
17
0
27
0
37
0
0
ENDTAB
0
TABLE
2
LTYPE
5
1b2
100
AcDbSymbolTable
0
LTYPE
5
14
100
AcDbSymbolTableRecord
100
AcDbLinetypeTableRecord
70
0
2
ByBlock
3

72
65
73
0
40
0
0
LTYPE
5
15
100
AcDbSymbolTableRecord
100
AcDbLinetypeTableRecord
70
0
2
ByLayer
3

72
65
73
0
40
0
0
LTYPE
5
16
100
AcDbSymbolTableRecord
100
AcDbLinetypeTableRecord
70
0
2
CONTINUOUS
3
Solid line
72
65
73
0
40
0
0
LTYPE
5
6A
100
AcDbSymbolTableRecord
100
AcDbLinetypeTableRecord
70
0
2
CENTER
3
____ _ ____ _ ____ _ ____
72
65
73
4
40
47.5
49
22
74
0
49
-8.5
74
0
49
8.5
74
0
49
-8.5
74
0
0
LTYPE
5
6B
100
AcDbSymbolTableRecord
100
AcDbLinetypeTableRecord
70
0
2
DASHED
3
__ __ __ __ __ __ __ __ __
72
65
73
2
40
25.72
49
12.86
74
0
49
-12.86
74
0
0
ENDTAB
0
TABLE
2
LAYER
5
1b3
100
AcDbSymbolTable
0
LAYER
5
10
100
AcDbSymbolTableRecord
100
AcDbLayerTableRecord
2
0
70
0
62
7
6
CONTINUOUS
290
1
370
-3
390
0
0
LAYER
5
6D
100
AcDbSymbolTableRecord
100
AcDbLayerTableRecord
2
80
70
0
62
-6
6
CONTINUOUS
290
1
370
-3
390
0
0
LAYER
5
6F
100
AcDbSymbolTableRecord
100
AcDbLayerTableRecord
2
81
70
0
62
-3
6
CONTINUOUS
290
1
370
-3
390
0
0
LAYER
5
71
100
AcDbSymbolTableRecord
100
AcDbLayerTableRecord
2
1
70
0
62
4
6
CONTINUOUS
290
1
370
-3
390
0
0
LAYER
5
11D
100
AcDbSymbolTableRecord
100
AcDbLayerTableRecord
2
2
70
0
62
7
6
CONTINUOUS
290
1
370
-3
390
0
0
LAYER
5
19e
100
AcDbSymbolTableRecord
100
AcDbLayerTableRecord
2
SK1
70
0
62
4
6
CONTINUOUS
290
1
370
-3
390
0
0
LAYER
5
19f
100
AcDbSymbolTableRecord
100
AcDbLayerTableRecord
2
SK6
70
0
62
5
6
CONTINUOUS
290
1
370
-3
390
0
0
LAYER
5
1a0
100
AcDbSymbolTableRecord
100
AcDbLayerTableRecord
2
SK2
70
0
62
7
6
CONTINUOUS
290
1
370
-3
390
0
0
ENDTAB
0
TABLE
2
STYLE
5
1b4
100
AcDbSymbolTable
0
STYLE
5
11
100
AcDbSymbolTableRecord
100
AcDbTextStyleTableRecord
2
Standard
3
txt
70
0
71
0
40
0
41
1
42
0
50
0
0
STYLE
5
102
100
AcDbSymbolTableRecord
100
AcDbTextStyleTableRecord
2
iso_b_vert
3
simplex.shx
70
0
71
0
40
0
41
1
42
0
50
0
0
STYLE
5
103
100
AcDbSymbolTableRecord
100
AcDbTextStyleTableRecord
2
DWGDirectTextStyle
3
simplex
70
0
71
0
40
0
41
1
42
0
50
0
0
ENDTAB
0
TABLE
2
DIMSTYLE
5
1b5
100
AcDbSymbolTable
100
AcDbDimStyleTable
0
DIMSTYLE
105
27
100
AcDbSymbolTableRecord
100
AcDbDimStyleTableRecord
2
Standard
70
0
3
<>
41
0.18
42
0.0625
44
0.18
140
0.18
147
0.09
73
0
74
0
77
1
271
2
275
0
278
52
280
0
340
11
0
ENDTAB
0
TABLE
2
VIEW
5
1b6
100
AcDbSymbolTable
0
ENDTAB
0
TABLE
2
UCS
5
1b7
100
AcDbSymbolTable
0
ENDTAB
0
TABLE
2
APPID
5
1b8
100
AcDbSymbolTable
0
APPID
5
12
100
AcDbSymbolTableRecord
100
AcDbRegAppTableRecord
2
ACAD
70
0
0
ENDTAB
0
TABLE
2
BLOCK_RECORD
5
1b9
100
AcDbSymbolTable
0
BLOCK_RECORD
5
1F
100
AcDbSymbolTableRecord
100
AcDbBlockTableRecord
2
*Model_Space
340
0
70
0
0
BLOCK_RECORD
5
1B
100
AcDbSymbolTableRecord
100
AcDbBlockTableRecord
2
*Paper_Space
340
0
70
0
0
BLOCK_RECORD
5
23
100
AcDbSymbolTableRecord
100
AcDbBlockTableRecord
2
*Paper_Space0
340
0
70
0
0
BLOCK_RECORD
5
105
100
AcDbSymbolTableRecord
100
AcDbBlockTableRecord
2
DimnDraft3D1
340
0
70
0
0
BLOCK_RECORD
5
114
100
AcDbSymbolTableRecord
100
AcDbBlockTableRecord
2
_CLOSED
340
0
70
0
0
BLOCK_RECORD
5
11B
100
AcDbSymbolTableRecord
100
AcDbBlockTableRecord
2
DimnDraft3D2
340
0
70
0
0
BLOCK_RECORD
5
12A
100
AcDbSymbolTableRecord
100
AcDbBlockTableRecord
2
DimnDraft3D3
340
0
70
0
0
BLOCK_RECORD
5
138
100
AcDbSymbolTableRecord
100
AcDbBlockTableRecord
2
DimnDraft3D4
340
0
70
0
0
ENDTAB
0
ENDSEC
0
SECTION
2
BLOCKS
0
BLOCK
5
20
100
AcDbEntity
8
0
100
AcDbBlockBegin
2
*Model_Space
70
0
10
0
20
0
30
0
3
*Model_Space
0
ENDBLK
5
21
100
AcDbEntity
8
0
100
AcDbBlockEnd
0
BLOCK
5
1C
100
AcDbEntity
8
0
100
AcDbBlockBegin
2
*Paper_Space
70
0
10
0
20
0
30
0
3
*Paper_Space
0
ENDBLK
5
1D
100
AcDbEntity
8
0
100
AcDbBlockEnd
0
BLOCK
5
24
100
AcDbEntity
8
0
100
AcDbBlockBegin
2
*Paper_Space0
70
0
10
0
20
0
30
0
3
*Paper_Space0
0
ENDBLK
5
25
100
AcDbEntity
8
0
100
AcDbBlockEnd
0
BLOCK
5
111
100
AcDbEntity
8
0
100
AcDbBlockBegin
2
DimnDraft3D1
70
0
10
0
20
0
30
0
3
DimnDraft3D1
0
MTEXT
5
106
100
AcDbEntity
8
SK2
62
256
6
ByLayer
370
13
48
1
60
0
100
AcDbMText
10
-114.180317
20
-1.625658
30
0
210
0
220
0
230
1
1
\W0.6740;20
40
4.5
41
0
44
1.084337
50
90
71
7
72
5
7
iso_b_vert
0
LINE
5
108
100
AcDbEntity
8
SK2
62
256
6
ByLayer
370
13
48
1
60
0
100
AcDbLine
10
-104.892817
20
-10.0625
30
0
11
-116.230317
21
-10.0625
31
0
39
0
210
0
220
0
230
1
0
LINE
5
109
100
AcDbEntity
8
SK2
62
256
6
ByLayer
370
13
48
1
60
0
100
AcDbLine
10
-104.892817
20
9.9375
30
0
11
-116.230317
21
9.9375
31
0
39
0
210
0
220
0
230
1
0
LINE
5
10A
100
AcDbEntity
8
SK2
62
256
6
ByLayer
370
13
48
1
60
0
100
AcDbLine
10
-113.055317
20
-10.0625
30
0
11
-113.055317
21
9.9375
31
0
39
0
210
0
220
0
230
1
0
LINE
5
10B
100
AcDbEntity
8
SK2
62
256
6
ByLayer
370
13
48
1
60
0
100
AcDbLine
10
-113.055317
20
-10.0625
30
0
11
-113.906055
21
-6.887503
31
0
39
0
210
0
220
0
230
1
0
LINE
5
10C
100
AcDbEntity
8
SK2
62
256
6
ByLayer
370
13
48
1
60
0
100
AcDbLine
10
-113.055317
20
-10.0625
30
0
11
-112.204578
21
-6.887497
31
0
39
0
210
0
220
0
230
1
0
LINE
5
10D
100
AcDbEntity
8
SK2
62
256
6
ByLayer
370
13
48
1
60
0
100
AcDbLine
10
-113.906055
20
-6.887503
30
0
11
-112.204578
21
-6.887497
31
0
39
0
210
0
220
0
230
1
0
LINE
5
10E
100
AcDbEntity
8
SK2
62
256
6
ByLayer
370
13
48
1
60
0
100
AcDbLine
10
-113.055317
20
9.9375
30
0
11
-112.204578
21
6.762503
31
0
39
0
210
0
220
0
230
1
0
LINE
5
10F
100
AcDbEntity
8
SK2
62
256
6
ByLayer
370
13
48
1
60
0
100
AcDbLine
10
-113.055317
20
9.9375
30
0
11
-113.906055
21
6.762497
31
0
39
0
210
0
220
0
230
1
0
LINE
5
110
100
AcDbEntity
8
SK2
62
256
6
ByLayer
370
13
48
1
60
0
100
AcDbLine
10
-112.204578
20
6.762503
30
0
11
-113.906055
21
6.762497
31
0
39
0
210
0
220
0
230
1
0
ENDBLK
5
112
100
AcDbEntity
8
0
100
AcDbBlockEnd
0
BLOCK
5
115
100
AcDbEntity
8
0
100
AcDbBlockBegin
2
_CLOSED
70
0
10
0
20
0
30
0
3
_CLOSED
0
LINE
5
117
100
AcDbEntity
8
0
62
256
6
ByLayer
370
-2
48
1
60
0
100
AcDbLine
10
-1
20
0.166667
30
0
11
0
21
0
31
0
39
0
210
0
220
0
230
1
0
LINE
5
118
100
AcDbEntity
8
0
62
256
6
ByLayer
370
-2
48
1
60
0
100
AcDbLine
10
0
20
0
30
0
11
-1
21
-0.166667
31
0
39
0
210
0
220
0
230
1
0
LINE
5
119
100
AcDbEntity
8
0
62
256
6
ByLayer
370
-2
48
1
60
0
100
AcDbLine
10
-1
20
0.166667
30
0
11
-1
21
-0.166667
31
0
39
0
210
0
220
0
230
1
0
LINE
5
11A
100
AcDbEntity
8
0
62
256
6
ByLayer
370
-2
48
1
60
0
100
AcDbLine
10
0
20
0
30
0
11
-1
21
0
31
0
39
0
210
0
220
0
230
1
0
ENDBLK
5
116
100
AcDbEntity
8
0
100
AcDbBlockEnd
0
BLOCK
5
127
100
AcDbEntity
8
0
100
AcDbBlockBegin
2
DimnDraft3D2
70
0
10
0
20
0
30
0
3
DimnDraft3D2
0
MTEXT
5
11C
100
AcDbEntity
8
2
62
256
6
ByLayer
370
13
48
1
60
0
100
AcDbMText
10
56.498466
20
-4.300658
30
0
210
0
220
0
230
1
1
\W0.6740;25
40
4.5
41
0
44
1.084337
50
90
71
7
72
5
7
iso_b_vert
0
LINE
5
11E
100
AcDbEntity
8
2
62
256
6
ByLayer
370
13
48
1
60
0
100
AcDbLine
10
24.632183
20
-15.4125
30
0
11
60.798466
21
-15.4125
31
0
39
0
210
0
220
0
230
1
0
LINE
5
11F
100
AcDbEntity
8
2
62
256
6
ByLayer
370
13
48
1
60
0
100
AcDbLine
10
-5.472792
20
9.9375
30
0
11
60.798466
21
9.9375
31
0
39
0
210
0
220
0
230
1
0
LINE
5
120
100
AcDbEntity
8
2
62
256
6
ByLayer
370
13
48
1
60
0
100
AcDbLine
10
57.623466
20
-15.4125
30
0
11
57.623466
21
9.9375
31
0
39
0
210
0
220
0
230
1
0
LINE
5
121
100
AcDbEntity
8
2
62
256
6
ByLayer
370
13
48
1
60
0
100
AcDbLine
10
57.623466
20
-15.4125
30
0
11
56.772727
21
-12.237503
31
0
39
0
210
0
220
0
230
1
0
LINE
5
122
100
AcDbEntity
8
2
62
256
6
ByLayer
370
13
48
1
60
0
100
AcDbLine
10
57.623466
20
-15.4125
30
0
11
58.474204
21
-12.237497
31
0
39
0
210
0
220
0
230
1
0
LINE
5
123
100
AcDbEntity
8
2
62
256
6
ByLayer
370
13
48
1
60
0
100
AcDbLine
10
56.772727
20
-12.237503
30
0
11
58.474204
21
-12.237497
31
0
39
0
210
0
220
0
230
1
0
LINE
5
124
100
AcDbEntity
8
2
62
256
6
ByLayer
370
13
48
1
60
0
100
AcDbLine
10
57.623466
20
9.9375
30
0
11
58.474204
21
6.762503
31
0
39
0
210
0
220
0
230
1
0
LINE
5
125
100
AcDbEntity
8
2
62
256
6
ByLayer
370
13
48
1
60
0
100
AcDbLine
10
57.623466
20
9.9375
30
0
11
56.772727
21
6.762497
31
0
39
0
210
0
220
0
230
1
0
LINE
5
126
100
AcDbEntity
8
2
62
256
6
ByLayer
370
13
48
1
60
0
100
AcDbLine
10
58.474204
20
6.762503
30
0
11
56.772727
21
6.762497
31
0
39
0
210
0
220
0
230
1
0
ENDBLK
5
128
100
AcDbEntity
8
0
100
AcDbBlockEnd
0
BLOCK
5
135
100
AcDbEntity
8
0
100
AcDbBlockBegin
2
DimnDraft3D3
70
0
10
0
20
0
30
0
3
DimnDraft3D3
0
MTEXT
5
12B
100
AcDbEntity
8
SK2
62
256
6
ByLayer
370
13
48
1
60
0
100
AcDbMText
10
-42.812553
20
-30.7875
30
0
210
0
220
0
230
1
1
\W0.6217;125
40
4.5
41
0
44
1.084337
50
0
71
7
72
5
7
iso_b_vert
0
LINE
5
12C
100
AcDbEntity
8
SK2
62
256
6
ByLayer
370
13
48
1
60
0
100
AcDbLine
10
-103.305317
20
-11.65
30
0
11
-103.305317
21
-35.0875
31
0
39
0
210
0
220
0
230
1
0
LINE
5
12D
100
AcDbEntity
8
SK2
62
256
6
ByLayer
370
13
48
1
60
0
100
AcDbLine
10
23.044683
20
-17
30
0
11
23.044683
21
-35.0875
31
0
39
0
210
0
220
0
230
1
0
LINE
5
12E
100
AcDbEntity
8
SK2
62
256
6
ByLayer
370
13
48
1
60
0
100
AcDbLine
10
-103.305317
20
-31.9125
30
0
11
23.044683
21
-31.9125
31
0
39
0
210
0
220
0
230
1
0
LINE
5
12F
100
AcDbEntity
8
SK2
62
256
6
ByLayer
370
13
48
1
60
0
100
AcDbLine
10
-103.305317
20
-31.9125
30
0
11
-100.13032
21
-31.061761
31
0
39
0
210
0
220
0
230
1
0
LINE
5
130
100
AcDbEntity
8
SK2
62
256
6
ByLayer
370
13
48
1
60
0
100
AcDbLine
10
-103.305317
20
-31.9125
30
0
11
-100.130313
21
-32.763239
31
0
39
0
210
0
220
0
230
1
0
LINE
5
131
100
AcDbEntity
8
SK2
62
256
6
ByLayer
370
13
48
1
60
0
100
AcDbLine
10
-100.13032
20
-31.061761
30
0
11
-100.130313
21
-32.763239
31
0
39
0
210
0
220
0
230
1
0
LINE
5
132
100
AcDbEntity
8
SK2
62
256
6
ByLayer
370
13
48
1
60
0
100
AcDbLine
10
23.044683
20
-31.9125
30
0
11
19.869687
21
-32.763239
31
0
39
0
210
0
220
0
230
1
0
LINE
5
133
100
AcDbEntity
8
SK2
62
256
6
ByLayer
370
13
48
1
60
0
100
AcDbLine
10
23.044683
20
-31.9125
30
0
11
19.86968
21
-31.061761
31
0
39
0
210
0
220
0
230
1
0
LINE
5
134
100
AcDbEntity
8
SK2
62
256
6
ByLayer
370
13
48
1
60
0
100
AcDbLine
10
19.869687
20
-32.763239
30
0
11
19.86968
21
-31.061761
31
0
39
0
210
0
220
0
230
1
0
ENDBLK
5
136
100
AcDbEntity
8
0
100
AcDbBlockEnd
0
BLOCK
5
142
100
AcDbEntity
8
0
100
AcDbBlockBegin
2
DimnDraft3D4
70
0
10
0
20
0
30
0
3
DimnDraft3D4
0
MTEXT
5
139
100
AcDbEntity
8
2
62
256
6
ByLayer
370
13
48
1
60
0
100
AcDbMText
10
28.818942
20
-3.947663
30
0
210
0
220
0
230
1
1
\W0.8292;75%%d0'
40
4.5
41
0
44
1.084337
50
307.5
71
7
72
5
7
iso_b_vert
0
LINE
5
13A
100
AcDbEntity
8
2
62
256
6
ByLayer
370
13
48
1
60
0
100
AcDbLine
10
24.632183
20
-15.4125
30
0
11
36.616897
21
-15.4125
31
0
39
0
210
0
220
0
230
1
0
ARC
5
13B
100
AcDbEntity
8
2
62
256
6
ByLayer
370
13
48
1
60
0
100
AcDbCircle
39
0
10
22.859999
20
-15.4125
30
0
40
10.5818979132041
210
0
220
0
230
1
100
AcDbArc
50
313.247175
51
121.752825
0
LINE
5
13C
100
AcDbEntity
8
2
62
256
6
ByLayer
370
13
48
1
60
0
100
AcDbLine
10
33.441897
20
-15.4125
30
0
11
34.054103
21
-18.641984
31
0
39
0
210
0
220
0
230
1
0
LINE
5
13D
100
AcDbEntity
8
2
62
256
6
ByLayer
370
13
48
1
60
0
100
AcDbLine
10
33.441897
20
-15.4125
30
0
11
32.357339
21
-18.515424
31
0
39
0
210
0
220
0
230
1
0
LINE
5
13E
100
AcDbEntity
8
2
62
256
6
ByLayer
370
13
48
1
60
0
100
AcDbLine
10
34.054103
20
-18.641984
30
0
11
32.357339
21
-18.515424
31
0
39
0
210
0
220
0
230
1
0
LINE
5
13F
100
AcDbEntity
8
2
62
256
6
ByLayer
370
13
48
1
60
0
100
AcDbLine
10
25.598796
20
-5.191172
30
0
11
22.320904
21
-5.43568
31
0
39
0
210
0
220
0
230
1
0
LINE
5
140
100
AcDbEntity
8
2
62
256
6
ByLayer
370
13
48
1
60
0
100
AcDbLine
10
25.598796
20
-5.191172
30
0
11
22.637799
21
-3.763973
31
0
39
0
210
0
220
0
230
1
0
LINE
5
141
100
AcDbEntity
8
2
62
256
6
ByLayer
370
13
48
1
60
0
100
AcDbLine
10
22.320904
20
-5.43568
30
0
11
22.637799
21
-3.763973
31
0
39
0
210
0
220
0
230
1
0
ENDBLK
5
143
100
AcDbEntity
8
0
100
AcDbBlockEnd
0
ENDSEC
0
SECTION
2
ENTITIES
0
ARC
5
B5
100
AcDbEntity
8
1
62
256
6
ByLayer
370
18
48
1
60
0
100
AcDbCircle
39
0
10
0
20
-11.5375
30
0
40
1.59999999999909
210
0
220
0
230
-1
100
AcDbArc
50
90
51
158.047626
0
ELLIPSE
5
B6
100
AcDbEntity
8
1
62
256
6
ByLayer
370
18
48
1
60
0
100
AcDbEllipse
10
16.179732
20
0.713325
30
0
11
-1.79196256448639
21
-1.03459006898393
31
0
210
0
220
0
230
1
40
0.989133
41
2.36165769871391
42
2.79406823670244
0
ELLIPSE
5
B7
100
AcDbEntity
8
1
62
256
6
ByLayer
370
18
48
1
60
0
100
AcDbEllipse
10
0
20
9.944481
30
0
11
1.59999999999972
21
1.6170224881315E-15
31
0
210
0
220
0
230
-1
40
0.004363
41
0.261799387799224
42
1.5707963267949
0
ELLIPSE
5
B8
100
AcDbEntity
8
1
62
256
6
ByLayer
370
18
48
1
60
0
100
AcDbEllipse
10
14.320933
20
-8.022611
30
0
11
2.16506350946111
21
1.24999999999998
31
0
210
0
220
0
230
1
40
0.989133
41
2.3616576987139
42
2.70982371998686
0
ELLIPSE
5
B9
100
AcDbEntity
8
1
62
256
6
ByLayer
370
18
48
1
60
0
100
AcDbEllipse
10
15.040145
20
-5.338476
30
0
11
2.1650635094611
21
1.24999999999998
31
0
210
0
220
0
230
1
40
0.989133
41
2.01349167744071
42
2.3616576987139
0
ELLIPSE
5
BA
100
AcDbEntity
8
1
62
256
6
ByLayer
370
18
48
1
60
0
100
AcDbEllipse
10
16.048866
20
-0.358313
30
0
11
-1.76121377589441
21
-1.01683724761309
31
0
210
0
220
0
230
1
40
0.989133
41
-2.1406977917624
42
-0.779934954875891
0
ELLIPSE
5
BB
100
AcDbEntity
8
1
62
256
6
ByLayer
370
18
48
1
60
0
100
AcDbEllipse
10
18.097997
20
-0.720894
30
0
11
0.0374166454010392
21
0.145259124986954
31
0
210
0
220
0
230
-1
40
0.091882
41
-1.46567458902454
42
0.116757266120107
0
ELLIPSE
5
BC
100
AcDbEntity
8
1
62
256
6
ByLayer
370
18
48
1
60
0
100
AcDbEllipse
10
18.028752
20
0.239661
30
0
11
-0.14488887394336
21
0.0388228567653773
31
0
210
0
220
0
230
1
40
0.104528
41
-3.04907852361784
42
-1.46664608670029
0
ELLIPSE
5
BD
100
AcDbEntity
8
1
62
256
6
ByLayer
370
18
48
1
60
0
100
AcDbEllipse
10
16.719919
20
-0.222306
30
0
11
1.71790963346733
21
0.991835589325796
31
0
210
0
220
0
230
1
40
0.989133
41
-0.779934954875886
42
1.34292763842948
0
ELLIPSE
5
BE
100
AcDbEntity
8
1
62
256
6
ByLayer
370
18
48
1
60
0
100
AcDbEllipse
10
0
20
-10.908344
30
0
11
1.59993780103046
21
-0.114808379574037
31
0
210
0
220
0
230
-1
40
0.122851
41
-0.391956510065748
42
-0.27061468796635
0
ELLIPSE
5
BF
100
AcDbEntity
8
1
62
256
6
ByLayer
370
18
48
1
60
0
100
AcDbEllipse
10
16.168577
20
0.732647
30
0
11
1.66206754824633
21
0.959595146391343
31
0
210
0
220
0
230
1
40
0.989133
41
-0.779934954875899
42
-0.233739371054768
0
ELLIPSE
5
C0
100
AcDbEntity
8
1
62
256
6
ByLayer
370
18
48
1
60
0
100
AcDbEllipse
10
9.212055
20
-21.653379
30
0
11
-8.83345911860132
21
-5.09999999999993
31
0
210
0
220
0
230
1
40
0.989133
41
-2.2588924109665
42
-2.15988923670824
0
ELLIPSE
5
C1
100
AcDbEntity
8
1
62
256
6
ByLayer
370
18
48
1
60
0
100
AcDbEllipse
10
17.778387
20
-7.649985
30
0
11
2.25166604983955
21
1.29999999999998
31
0
210
0
220
0
230
1
40
0.989133
41
7.26103216670297E-06
42
0.515235859240212
0
ELLIPSE
5
C2
100
AcDbEntity
8
1
62
256
6
ByLayer
370
18
48
1
60
0
100
AcDbEllipse
10
18.43794
20
-6.77198
30
0
11
2.25166604983955
21
1.29999999999998
31
0
210
0
220
0
230
1
40
0.989133
41
3.05698049616845
42
-3.14157813208136
0
ELLIPSE
5
C3
100
AcDbEntity
8
1
62
256
6
ByLayer
370
18
48
1
60
0
100
AcDbEllipse
10
18.340182
20
-7.335821
30
0
11
-2.03515969889344
21
-1.17499999999998
31
0
210
0
220
0
230
1
40
0.989133
41
-0.491744056924398
42
-3.67511612567317E-05
0
ELLIPSE
5
C4
100
AcDbEntity
8
1
62
256
6
ByLayer
370
18
48
1
60
0
100
AcDbEllipse
10
17.60828
20
-6.345159
30
0
11
-2.46817240078566
21
-1.42499999999998
31
0
210
0
220
0
230
1
40
0.989133
41
2.45329153579768
42
2.66024803819831
0
ELLIPSE
5
C5
100
AcDbEntity
8
1
62
256
6
ByLayer
370
18
48
1
60
0
100
AcDbEllipse
10
17.60828
20
-6.345159
30
0
11
-2.46817240078566
21
-1.42499999999998
31
0
210
0
220
0
230
1
40
0.989133
41
0.48134867372317
42
0.719231649245969
0
ELLIPSE
5
C6
100
AcDbEntity
8
1
62
256
6
ByLayer
370
18
48
1
60
0
100
AcDbEllipse
10
8.001769
20
0.162499
30
0
11
-1.34666950288481
21
-0.77749999999999
31
0
210
0
220
0
230
1
40
0.989133
41
0.134434539700763
42
2.61324918149865
0
ELLIPSE
5
C7
100
AcDbEntity
8
1
62
256
6
ByLayer
370
18
48
1
60
0
100
AcDbEllipse
10
8.001769
20
0.162499
30
0
11
-1.34666950288481
21
-0.77749999999999
31
0
210
0
220
0
230
1
40
0.989133
41
2.61324982983329
42
2.91091583110482
0
ELLIPSE
5
C8
100
AcDbEntity
8
1
62
256
6
ByLayer
370
18
48
1
60
0
100
AcDbEllipse
10
8.075281
20
0.035172
30
0
11
1.34666950288481
21
0.777499999999989
31
0
210
0
220
0
230
1
40
0.989133
41
-0.41877991211125
42
-0.187592498636804
0
ELLIPSE
5
C9
100
AcDbEntity
8
1
62
256
6
ByLayer
370
18
48
1
60
0
100
AcDbEllipse
10
8.075281
20
0.035172
30
0
11
1.34666950288481
21
0.777499999999989
31
0
210
0
220
0
230
1
40
0.989133
41
-3.07544614485842
42
-2.95623241971462
0
ELLIPSE
5
CA
100
AcDbEntity
8
1
62
256
6
ByLayer
370
18
48
1
60
0
100
AcDbEllipse
10
14.241666
20
-0.599869
30
0
11
-0.687407664253901
21
-0.396874999999994
31
0
210
0
220
0
230
1
40
0.989133
41
-2.35073128167083
42
-1.91193953454094
0
ELLIPSE
5
CB
100
AcDbEntity
8
1
62
256
6
ByLayer
370
18
48
1
60
0
100
AcDbEllipse
10
18.164952
20
-7.309342
30
0
11
2.23261349095629
21
1.28899999999998
31
0
210
0
220
0
230
1
40
0.989133
41
-3.00381972919156
42
-2.05829833123302
0
ELLIPSE
5
CC
100
AcDbEntity
8
1
62
256
6
ByLayer
370
18
48
1
60
0
100
AcDbEllipse
10
18.164952
20
-7.309342
30
0
11
2.23261349095629
21
1.28899999999998
31
0
210
0
220
0
230
1
40
0.989133
41
-0.741185998172261
42
-0.137803789180914
0
ELLIPSE
5
CD
100
AcDbEntity
8
1
62
256
6
ByLayer
370
18
48
1
60
0
100
AcDbEllipse
10
24.948608
20
-3.343766
30
0
11
-0.687407664253901
21
-0.396874999999994
31
0
210
0
220
0
230
1
40
0.989133
41
-3.14157777036926
42
-2.3507312816708
0
ELLIPSE
5
CE
100
AcDbEntity
8
1
62
256
6
ByLayer
370
18
48
1
60
0
100
AcDbEllipse
10
11.381296
20
-11.274919
30
0
11
-0.687407664253901
21
-0.396874999999994
31
0
210
0
220
0
230
1
40
0.989133
41
-0.0638237416705377
42
1.48832205250844E-05
0
ELLIPSE
5
CF
100
AcDbEntity
8
1
62
256
6
ByLayer
370
18
48
1
60
0
100
AcDbEllipse
10
17.74244
20
-6.577531
30
0
11
2.40322049550183
21
1.38749999999998
31
0
210
0
220
0
230
1
40
0.989133
41
-2.7266380032478
42
-2.36434630107103
0
ELLIPSE
5
D0
100
AcDbEntity
8
1
62
256
6
ByLayer
370
18
48
1
60
0
100
AcDbEllipse
10
17.74244
20
-6.577531
30
0
11
2.40322049550183
21
1.38749999999998
31
0
210
0
220
0
230
1
40
0.989133
41
-0.72039423753609
42
-0.414914610978689
0
ELLIPSE
5
D1
100
AcDbEntity
8
1
62
256
6
ByLayer
370
18
48
1
60
0
100
AcDbEllipse
10
18.468374
20
-7.834885
30
0
11
1.60214699700122
21
0.924999999999987
31
0
210
0
220
0
230
1
40
0.989133
41
1.63437148363321
42
2.32099904291709
0
ELLIPSE
5
D2
100
AcDbEntity
8
1
62
256
6
ByLayer
370
18
48
1
60
0
100
AcDbEllipse
10
18.79815
20
-7.395882
30
0
11
1.81865334794733
21
1.04999999999998
31
0
210
0
220
0
230
1
40
0.989133
41
2.57019119980555
42
-1.75641332684505
0
ELLIPSE
5
D3
100
AcDbEntity
8
1
62
256
6
ByLayer
370
18
48
1
60
0
100
AcDbEllipse
10
18.138597
20
-8.273887
30
0
11
1.81865334794733
21
1.04999999999998
31
0
210
0
220
0
230
1
40
0.989133
41
-0.571401453784247
42
1.38517932674475
0
ELLIPSE
5
D4
100
AcDbEntity
8
1
62
256
6
ByLayer
370
18
48
1
60
0
100
AcDbEllipse
10
18.761394
20
-7.332218
30
0
11
-2.25166604983955
21
-1.29999999999998
31
0
210
0
220
0
230
1
40
0.989133
41
-0.595297090050467
42
1.40907496301097
0
ELLIPSE
5
D5
100
AcDbEntity
8
1
62
256
6
ByLayer
370
18
48
1
60
0
100
AcDbEllipse
10
18.101841
20
-8.210224
30
0
11
-2.25166604983955
21
-1.29999999999998
31
0
210
0
220
0
230
1
40
0.989133
41
2.54629556353932
42
-1.73251769057882
0
ELLIPSE
5
D6
100
AcDbEntity
8
1
62
256
6
ByLayer
370
18
48
1
60
0
100
AcDbEllipse
10
18.431618
20
-7.771221
30
0
11
-2.03515969889344
21
-1.17499999999998
31
0
210
0
220
0
230
1
40
0.989133
41
1.60759227312675
42
2.34777825342353
0
ELLIPSE
5
D7
100
AcDbEntity
8
1
62
256
6
ByLayer
370
18
48
1
60
0
100
AcDbEllipse
10
18.431618
20
-7.771221
30
0
11
-2.03515969889344
21
-1.17499999999998
31
0
210
0
220
0
230
1
40
0.989133
41
-1.53400038046303
42
-0.793814400166258
0
ELLIPSE
5
D8
100
AcDbEntity
8
1
62
256
6
ByLayer
370
18
48
1
60
0
100
AcDbEllipse
10
18.468374
20
-7.834885
30
0
11
1.60214699700122
21
0.924999999999987
31
0
210
0
220
0
230
1
40
0.989133
41
-1.5072211699566
42
-0.820593610672699
0
ELLIPSE
5
D9
100
AcDbEntity
8
1
62
256
6
ByLayer
370
18
48
1
60
0
100
AcDbEllipse
10
8.353525
20
-0.44676
30
0
11
1.34666950288481
21
0.777499999999989
31
0
210
0
220
0
230
1
40
0.989133
41
0.185360233875134
42
0.628417639085352
0
ELLIPSE
5
DA
100
AcDbEntity
8
1
62
256
6
ByLayer
370
18
48
1
60
0
100
AcDbEllipse
10
8.353525
20
-0.44676
30
0
11
1.34666950288481
21
0.777499999999989
31
0
210
0
220
0
230
1
40
0.989133
41
-1.90903486851803
42
-1.46597746330786
0
ELLIPSE
5
DB
100
AcDbEntity
8
1
62
256
6
ByLayer
370
18
48
1
60
0
100
AcDbEllipse
10
8.075281
20
0.035172
30
0
11
1.34666950288481
21
0.777499999999989
31
0
210
0
220
0
230
1
40
0.989133
41
-2.51317501450446
42
-1.90903486851803
0
ELLIPSE
5
DC
100
AcDbEntity
8
1
62
256
6
ByLayer
370
18
48
1
60
0
100
AcDbEllipse
10
8.353525
20
-0.44676
30
0
11
1.34666950288481
21
0.777499999999989
31
0
210
0
220
0
230
1
40
0.989133
41
2.27975533626835
42
2.72281274147855
0
ELLIPSE
5
DD
100
AcDbEntity
8
1
62
256
6
ByLayer
370
18
48
1
60
0
100
AcDbEllipse
10
8.353525
20
-0.44676
30
0
11
1.34666950288481
21
0.777499999999989
31
0
210
0
220
0
230
1
40
0.989133
41
-0.861837317321443
42
-0.418779912111256
0
ELLIPSE
5
DE
100
AcDbEntity
8
1
62
256
6
ByLayer
370
18
48
1
60
0
100
AcDbEllipse
10
8.36933
20
-0.474136
30
0
11
-1.66916950288481
21
-0.96369546181364
31
0
210
0
220
0
230
1
40
0.989133
41
0
42
6.28318530717959
0
ELLIPSE
5
DF
100
AcDbEntity
8
1
62
256
6
ByLayer
370
18
48
1
60
0
100
AcDbEllipse
10
8.313094
20
-0.376731
30
0
11
-3.46410161513777
21
-1.99999999999997
31
0
210
0
220
0
230
1
40
0.989133
41
0
42
6.28318530717959
0
ELLIPSE
5
E0
100
AcDbEntity
8
1
62
256
6
ByLayer
370
18
48
1
60
0
100
AcDbEllipse
10
8.353525
20
-0.44676
30
0
11
1.34666950288481
21
0.777499999999989
31
0
210
0
220
0
230
1
40
0.989133
41
-2.95623241971463
42
-2.51317501450446
0
ELLIPSE
5
E1
100
AcDbEntity
8
1
62
256
6
ByLayer
370
18
48
1
60
0
100
AcDbEllipse
10
8.36933
20
-0.474136
30
0
11
-2.80159218124267
21
-1.61749999999998
31
0
210
0
220
0
230
1
40
0.989133
41
0
42
6.28318530717959
0
ELLIPSE
5
E2
100
AcDbEntity
8
1
62
256
6
ByLayer
370
18
48
1
60
0
100
AcDbEllipse
10
8.075281
20
0.035172
30
0
11
1.34666950288481
21
0.777499999999989
31
0
210
0
220
0
230
1
40
0.989133
41
-1.46597746330785
42
-0.861837317321437
0
ELLIPSE
5
E3
100
AcDbEntity
8
1
62
256
6
ByLayer
370
18
48
1
60
0
100
AcDbEllipse
10
8.353525
20
-0.44676
30
0
11
1.34666950288481
21
0.777499999999989
31
0
210
0
220
0
230
1
40
0.989133
41
1.23255778507176
42
1.67561519028194
0
ELLIPSE
5
E4
100
AcDbEntity
8
1
62
256
6
ByLayer
370
18
48
1
60
0
100
AcDbEllipse
10
14.591769
20
-1.206264
30
0
11
0.687407664253902
21
0.396874999999994
31
0
210
0
220
0
230
1
40
0.989133
41
0.790861371919012
42
2.36165769871391
0
ELLIPSE
5
E5
100
AcDbEntity
8
1
62
256
6
ByLayer
370
18
48
1
60
0
100
AcDbEllipse
10
18.515054
20
-7.915737
30
0
11
2.23261349095629
21
1.28899999999998
31
0
210
0
220
0
230
1
40
0.989133
41
0
42
6.28318530717959
0
ELLIPSE
5
E6
100
AcDbEntity
8
1
62
256
6
ByLayer
370
18
48
1
60
0
100
AcDbEllipse
10
11.731398
20
-11.881314
30
0
11
0.687407664253902
21
0.396874999999994
31
0
210
0
220
0
230
1
40
0.989133
41
2.36165769871387
42
-2.35073128167081
0
ELLIPSE
5
E7
100
AcDbEntity
8
1
62
256
6
ByLayer
370
18
48
1
60
0
100
AcDbEllipse
10
22.438339
20
-14.62521
30
0
11
0.687407664253902
21
0.396874999999994
31
0
210
0
220
0
230
1
40
0.989133
41
-2.35073128167081
42
-0.779934954875918
0
ELLIPSE
5
E8
100
AcDbEntity
8
1
62
256
6
ByLayer
370
18
48
1
60
0
100
AcDbEllipse
10
25.29871
20
-3.950161
30
0
11
0.687407664253902
21
0.396874999999994
31
0
210
0
220
0
230
1
40
0.989133
41
-0.779934954875881
42
0.79086137191896
0
POINT
5
6C
100
AcDbEntity
8
80
62
256
6
ByLayer
370
18
48
1
60
0
100
AcDbPoint
10
0
20
0
30
0
39
0
210
0
220
0
230
1
50
360
0
POINT
5
6E
100
AcDbEntity
8
81
62
256
6
ByLayer
370
18
48
1
60
0
100
AcDbPoint
10
21.694683
20
-15.0625
30
0
39
0
210
0
220
0
230
1
50
360
0
POINT
5
70
100
AcDbEntity
8
1
62
256
6
ByLayer
370
18
48
1
60
0
100
AcDbPoint
10
-103.305317
20
9.9375
30
0
39
0
210
0
220
0
230
1
50
360
0
SPLINE
5
E9
100
AcDbEntity
8
1
62
256
6
ByLayer
370
18
48
1
60
0
100
AcDbSpline
70
4
71
2
72
6
73
3
40
0
40
0
40
0
40
1
40
1
40
1
41
1
10
16.4220800089328
20
-8.68797305722353
30
0
41
1
10
16.3617266491572
20
-8.62161866319545
30
0
41
1
10
16.330963022136
20
-8.53518980382728
30
0
0
SPLINE
5
EA
100
AcDbEntity
8
1
62
256
6
ByLayer
370
18
48
1
60
0
100
AcDbSpline
70
4
71
3
72
18
73
14
40
0
40
0
40
0
40
0
40
0.0792138517146451
40
0.0792138517146451
40
0.263371081371716
40
0.263371081371716
40
0.631685540685861
40
0.631685540685861
40
0.723764155514397
40
0.723764155514397
40
0.815842770342933
40
0.815842770342933
40
1
40
1
40
1
40
1
41
1
10
16.0057830017344
20
-7.46204646436968
30
0
41
1
10
16.0090938161387
20
-7.48412462429889
30
0
41
1
10
16.0126908230265
20
-7.50594430051069
30
0
41
1
10
16.0255373493782
20
-7.57754979614239
30
0
41
1
10
16.0359679546394
20
-7.6260126329561
30
0
41
1
10
16.0698264131756
20
-7.76310222866306
30
0
41
1
10
16.0967945287792
20
-7.84557353410969
30
0
41
1
10
16.1240703092047
20
-7.92022516884819
30
0
41
1
10
16.1291702871028
20
-7.93372016500871
30
0
41
1
10
16.1381281688514
20
-7.95709981602957
30
0
41
1
10
16.1419635969937
20
-7.96692894386479
30
0
41
1
10
16.150277951057
20
-7.98873377283147
30
0
41
1
10
16.1515622028932
20
-7.99325433847039
30
0
41
1
10
16.1466242806186
20
-7.98470160620698
30
0
0
SPLINE
5
EB
100
AcDbEntity
8
1
62
256
6
ByLayer
370
18
48
1
60
0
100
AcDbSpline
70
4
71
3
72
20
73
16
40
0
40
0
40
0
40
0
40
0.131270604134753
40
0.131270604134753
40
0.264716123803762
40
0.264716123803762
40
0.398161643472772
40
0.398161643472772
40
0.66505268281079
40
0.66505268281079
40
0.798498202479799
40
0.798498202479799
40
0.931943722148808
40
0.931943722148808
40
1
40
1
40
1
40
1
41
1
10
20.4152960267269
20
-7.06731510960213
30
0
41
1
10
20.4126822989941
20
-7.00948146933359
30
0
41
1
10
20.4081572032433
20
-6.95160692737065
30
0
41
1
10
20.394980406062
20
-6.83495188017852
30
0
41
1
10
20.3862678600292
20
-6.77616296758828
30
0
41
1
10
20.3645006593627
20
-6.6586959618011
30
0
41
1
10
20.3513887483811
20
-6.5998531069811
30
0
41
1
10
20.3059712018854
20
-6.42630777881226
30
0
41
1
10
20.2675160668085
20
-6.31377339037124
30
0
41
1
10
20.1974624918635
20
-6.14972791300815
30
0
41
1
10
20.1720424730601
20
-6.09584165169602
30
0
41
1
10
20.116952835333
20
-5.9897000987549
30
0
41
1
10
20.0872262930359
20
-5.93739366079083
30
0
41
1
10
20.0398456533213
20
-5.86095027314306
30
0
41
1
10
20.023387672695
20
-5.83550941352974
30
0
41
1
10
20.0064756052448
20
-5.81044428448288
30
0
0
SPLINE
5
EC
100
AcDbEntity
8
1
62
256
6
ByLayer
370
18
48
1
60
0
100
AcDbSpline
70
4
71
3
72
8
73
4
40
0
40
0
40
0
40
0
40
1
40
1
40
1
40
1
41
1
10
16.7847879152965
20
-9.09043169217023
30
0
41
1
10
16.8537903446791
20
-9.13416474133089
30
0
41
1
10
16.9251717374923
20
-9.17439918158644
30
0
41
1
10
16.9989935432294
20
-9.21105643680147
30
0
0
SPLINE
5
ED
100
AcDbEntity
8
1
62
256
6
ByLayer
370
18
48
1
60
0
100
AcDbSpline
70
4
71
3
72
8
73
4
40
0
40
0
40
0
40
0
40
1
40
1
40
1
40
1
41
1
10
16.0133636399757
20
-8.42211758945172
30
0
41
1
10
16.1282208583625
20
-8.5171267269844
30
0
41
1
10
16.23956436332
20
-8.60981274342032
30
0
41
1
10
16.3455124779742
20
-8.69893155231605
30
0
0
SPLINE
5
EE
100
AcDbEntity
8
1
62
256
6
ByLayer
370
18
48
1
60
0
100
AcDbSpline
70
4
71
3
72
20
73
16
40
0
40
0
40
0
40
0
40
0.25
40
0.25
40
0.499999999999999
40
0.499999999999999
40
0.625
40
0.625
40
0.750000000000001
40
0.750000000000001
40
0.812500000000001
40
0.812500000000001
40
0.875000000000002
40
0.875000000000002
40
1
40
1
40
1
40
1
41
1
10
16.488247923284
20
-8.78167442065998
30
0
41
1
10
16.4224595627222
20
-8.698700480094
30
0
41
1
10
16.3643056251158
20
-8.6129967421397
30
0
41
1
10
16.2628020078507
20
-8.43817626840655
30
0
41
1
10
16.219440212884
20
-8.34895528371752
30
0
41
1
10
16.1659459013495
20
-8.21546882876237
30
0
41
1
10
16.1501212495901
20
-8.17118006167212
30
0
41
1
10
16.1230467997627
20
-8.08578902876405
30
0
41
1
10
16.1116927893589
20
-8.04428885478603
30
0
41
1
10
16.0985104234441
20
-7.98799033467989
30
0
41
1
10
16.0947407739254
20
-7.97018025783368
30
0
41
1
10
16.0885396094709
20
-7.93739796670283
30
0
41
1
10
16.0861165318304
20
-7.92242620912316
30
0
41
1
10
16.0813280006706
20
-7.88561874550464
30
0
41
1
10
16.0814565211677
20
-7.87182773582134
30
0
41
1
10
16.0856584381529
20
-7.87910566952885
30
0
0
SPLINE
5
EF
100
AcDbEntity
8
1
62
256
6
ByLayer
370
18
48
1
60
0
100
AcDbSpline
70
4
71
3
72
8
73
4
40
0
40
0
40
0
40
0
40
1
40
1
40
1
40
1
41
1
10
17.1953044589486
20
-5.8027658728798
30
0
41
1
10
17.2812305160756
20
-5.97251773291987
30
0
41
1
10
17.3672567210837
20
-6.14229350862891
30
0
41
1
10
17.4534860770578
20
-6.31211728277293
30
0
0
SPLINE
5
F0
100
AcDbEntity
8
1
62
256
6
ByLayer
370
18
48
1
60
0
100
AcDbSpline
70
4
71
3
72
8
73
4
40
0
40
0
40
0
40
0
40
1
40
1
40
1
40
1
41
1
10
20.6872393186027
20
-8.38275857932953
30
0
41
1
10
20.5349277635438
20
-8.3764901736586
30
0
41
1
10
20.3825473448232
20
-8.37012081060917
30
0
41
1
10
20.2300275570456
20
-8.3635463773675
30
0
0
SPLINE
5
F1
100
AcDbEntity
8
1
62
256
6
ByLayer
370
18
48
1
60
0
100
AcDbSpline
70
4
71
3
72
16
73
12
40
0
40
0
40
0
40
0
40
0.250000000000001
40
0.250000000000001
40
0.500000000000001
40
0.500000000000001
40
0.750000000000002
40
0.750000000000002
40
0.875000000000001
40
0.875000000000001
40
1
40
1
40
1
40
1
41
1
10
16.3455124779738
20
-8.69893155231534
30
0
41
1
10
16.3879548229447
20
-8.74313338770679
30
0
41
1
10
16.430980096091
20
-8.78511812266797
30
0
41
1
10
16.5168487613871
20
-8.86454566368278
30
0
41
1
10
16.5597164990363
20
-8.90196161608111
30
0
41
1
10
16.6405390059569
20
-8.97003666629925
30
0
41
1
10
16.6792478047693
20
-9.00130413589369
30
0
41
1
10
16.7278848187221
20
-9.04092029269776
30
0
41
1
10
16.7425085235369
20
-9.05291316341169
30
0
41
1
10
16.7674643319843
20
-9.07412070311398
30
0
41
1
10
16.7776764294567
20
-9.08325454474823
30
0
41
1
10
16.7847879152965
20
-9.09043169217023
30
0
0
SPLINE
5
F2
100
AcDbEntity
8
1
62
256
6
ByLayer
370
18
48
1
60
0
100
AcDbSpline
70
4
71
3
72
8
73
4
40
0
40
0
40
0
40
0
40
1
40
1
40
1
40
1
41
1
10
16.7847879152965
20
-9.09043169217017
30
0
41
1
10
16.6750882315329
20
-8.99596953507654
30
0
41
1
10
16.5762893140172
20
-8.89271444445239
30
0
41
1
10
16.4882479232837
20
-8.78167442065964
30
0
0
SPLINE
5
F3
100
AcDbEntity
8
1
62
256
6
ByLayer
370
18
48
1
60
0
100
AcDbSpline
70
4
71
3
72
8
73
4
40
0
40
0
40
0
40
0
40
1
40
1
40
1
40
1
41
1
10
19.483261340421
20
-9.35765185721803
30
0
41
1
10
19.5450061629063
20
-9.48506717535972
30
0
41
1
10
19.6065242764211
20
-9.6123936914058
30
0
41
1
10
19.6679306871517
20
-9.73967627810362
30
0
0
SPLINE
5
F4
100
AcDbEntity
8
1
62
256
6
ByLayer
370
18
48
1
60
0
100
AcDbSpline
70
4
71
3
72
8
73
4
40
0
40
0
40
0
40
0
40
1
40
1
40
1
40
1
41
1
10
16.7067198604332
20
-7.30622276262346
30
0
41
1
10
16.5297155391668
20
-7.25723987337949
30
0
41
1
10
16.3528270289528
20
-7.20842125066707
30
0
41
1
10
16.1759958274975
20
-7.15968357165389
30
0
0
SPLINE
5
F5
100
AcDbEntity
8
1
62
256
6
ByLayer
370
18
48
1
60
0
100
AcDbSpline
70
4
71
3
72
10
73
6
40
0
40
0
40
0
40
0
40
0.5
40
0.5
40
1
40
1
40
1
40
1
41
1
10
8.15026585131653
20
-2.18776318830845
30
0
41
1
10
8.07884974207343
20
-2.13315804942704
30
0
41
1
10
8.00689986863807
20
-2.07834463905775
30
0
41
1
10
7.86158905857076
20
-1.96816723018361
30
0
41
1
10
7.78868620952892
20
-1.91315404981106
30
0
41
1
10
7.71622365831604
20
-1.85878313137834
30
0
0
SPLINE
5
F6
100
AcDbEntity
8
1
62
256
6
ByLayer
370
18
48
1
60
0
100
AcDbSpline
70
4
71
3
72
10
73
6
40
0
40
0
40
0
40
0
40
0.5
40
0.5
40
1
40
1
40
1
40
1
41
1
10
7.17166092323572
20
-1.45643659824441
30
0
41
1
10
7.10042947760064
20
-1.40464540383056
30
0
41
1
10
7.02933500860962
20
-1.35327931891243
30
0
41
1
10
6.89022813788318
20
-1.25330938043874
30
0
41
1
10
6.82183179111195
20
-1.20442400235709
30
0
41
1
10
6.75431390587255
20
-1.15637343375943
30
0
0
SPLINE
5
F7
100
AcDbEntity
8
1
62
256
6
ByLayer
370
18
48
1
60
0
100
AcDbSpline
70
4
71
3
72
10
73
6
40
0
40
0
40
0
40
0
40
0.5
40
0.5
40
1
40
1
40
1
40
1
41
1
10
9.75782487928046
20
-1.49260856614748
30
0
41
1
10
9.76655605879711
20
-1.40296496346076
30
0
41
1
10
9.77562708991218
20
-1.31236344021511
30
0
41
1
10
9.79434664588399
20
-1.13169488573416
30
0
41
1
10
9.80400164003743
20
-1.0415537237393
30
0
41
1
10
9.81400672869705
20
-0.951641575579032
30
0
0
SPLINE
5
F8
100
AcDbEntity
8
1
62
256
6
ByLayer
370
18
48
1
60
0
100
AcDbSpline
70
4
71
3
72
10
73
6
40
0
40
0
40
0
40
0
40
0.5
40
0.5
40
1
40
1
40
1
40
1
41
1
10
8.99082703371954
20
0.965262400626557
30
0
41
1
10
8.91959558808441
20
1.01705359504041
30
0
41
1
10
8.84850111909344
20
1.06841967995854
30
0
41
1
10
8.709394248367
20
1.16838961843223
30
0
41
1
10
8.64099790159577
20
1.21727499651388
30
0
41
1
10
8.57348001635637
20
1.26532556511151
30
0
0
SPLINE
5
F9
100
AcDbEntity
8
1
62
256
6
ByLayer
370
18
48
1
60
0
100
AcDbSpline
70
4
71
3
72
8
73
4
40
0
40
0
40
0
40
0
40
1
40
1
40
1
40
1
41
1
10
9.25925324904466
20
-1.69013705356326
30
0
41
1
10
9.42835884080688
20
-1.62069291313998
30
0
41
1
10
9.5941078801954
20
-1.55539552724301
30
0
41
1
10
9.75782487928046
20
-1.49260856614748
30
0
0
SPLINE
5
FA
100
AcDbEntity
8
1
62
256
6
ByLayer
370
18
48
1
60
0
100
AcDbSpline
70
4
71
3
72
10
73
6
40
0
40
0
40
0
40
0
40
0.5
40
0.5
40
1
40
1
40
1
40
1
41
1
10
9.96943196180035
20
0.233935810562485
30
0
41
1
10
9.89801585255725
20
0.288540949443899
30
0
41
1
10
9.82606597912189
20
0.343354359813191
30
0
41
1
10
9.68075516905463
20
0.453531768687327
30
0
41
1
10
9.6078523200128
20
0.508544949059853
30
0
41
1
10
9.53538976879986
20
0.562915867492563
30
0
0
SPLINE
5
FB
100
AcDbEntity
8
1
62
256
6
ByLayer
370
18
48
1
60
0
100
AcDbSpline
70
4
71
3
72
10
73
6
40
0
40
0
40
0
40
0
40
0.5
40
0.5
40
1
40
1
40
1
40
1
41
1
10
6.96592098839244
20
0.57017094295054
30
0
41
1
10
6.95346850614294
20
0.486972825667408
30
0
41
1
10
6.94104316258597
20
0.402181141995669
30
0
41
1
10
6.91667579375923
20
0.231294886331085
30
0
41
1
10
6.90472298295811
20
0.145133659516461
30
0
41
1
10
6.89304396333853
20
0.058120844827215
30
0
0
SPLINE
5
FC
100
AcDbEntity
8
1
62
256
6
ByLayer
370
18
48
1
60
0
100
AcDbSpline
70
4
71
3
72
8
73
4
40
0
40
0
40
0
40
0
40
1
40
1
40
1
40
1
41
1
10
6.8104957552892
20
-0.615406443191006
30
0
41
1
10
6.79016096104095
20
-0.798147955580475
30
0
41
1
10
6.77167714646146
20
-0.978103884068759
30
0
41
1
10
6.75431390587255
20
-1.15637343375945
30
0
0
SPLINE
5
FD
100
AcDbEntity
8
1
62
256
6
ByLayer
370
18
48
1
60
0
100
AcDbSpline
70
4
71
3
72
8
73
4
40
0
40
0
40
0
40
0
40
1
40
1
40
1
40
1
41
1
10
9.89655493674644
20
-0.278114287560811
30
0
41
1
10
9.92029190391031
20
-0.101265511517397
30
0
41
1
10
9.94466836086713
20
0.0684840609824562
30
0
41
1
10
9.96943196180035
20
0.233935810562514
30
0
0
SPLINE
5
FE
100
AcDbEntity
8
1
62
256
6
ByLayer
370
18
48
1
60
0
100
AcDbSpline
70
4
71
3
72
10
73
6
40
0
40
0
40
0
40
0
40
0.5
40
0.5
40
1
40
1
40
1
40
1
41
1
10
8.57348001635637
20
1.26532556511151
30
0
41
1
10
8.49115422575159
20
1.23375287418298
30
0
41
1
10
8.40782410508126
20
1.20134871065616
30
0
41
1
10
8.24133654873634
20
1.13546700461038
30
0
41
1
10
8.1581114132951
20
1.10196485797158
30
0
41
1
10
8.07490838612057
20
1.06779707769573
30
0
0
SPLINE
5
FF
100
AcDbEntity
8
1
62
256
6
ByLayer
370
18
48
1
60
0
100
AcDbSpline
70
4
71
3
72
8
73
4
40
0
40
0
40
0
40
0
40
1
40
1
40
1
40
1
41
1
10
7.44779744299092
20
0.796616322811445
30
0
41
1
10
7.28209402414433
20
0.721279446042104
30
0
41
1
10
7.12223762713319
20
0.645775704156705
30
0
41
1
10
6.96592098839244
20
0.57017094295054
30
0
0
SPLINE
5
100
100
AcDbEntity
8
1
62
256
6
ByLayer
370
18
48
1
60
0
100
AcDbSpline
70
4
71
3
72
10
73
6
40
0
40
0
40
0
40
0
40
0.5
40
0.5
40
1
40
1
40
1
40
1
41
1
10
8.15026585131653
20
-2.18776318830845
30
0
41
1
10
8.22887033918852
20
-2.14974501197631
30
0
41
1
10
8.30884614741689
20
-2.11153100887563
30
0
41
1
10
8.46968589090687
20
-2.03586700401345
30
0
41
1
10
8.55061320970049
20
-1.99838492219442
30
0
41
1
10
8.63214230591501
20
-1.96131780844755
30
0
0
LINE
5
72
100
AcDbEntity
8
1
62
256
6
ByLayer
370
18
48
1
60
0
100
AcDbLine
10
4.81837
20
-2.323692
30
0
11
4.848992
21
-2.376731
31
0
39
0
210
0
220
0
230
1
0
LINE
5
73
100
AcDbEntity
8
1
62
256
6
ByLayer
370
18
48
1
60
0
100
AcDbLine
10
10.693888
20
-11.671794
30
0
11
11.04399
21
-12.278189
31
0
39
0
210
0
220
0
230
1
0
LINE
5
74
100
AcDbEntity
8
1
62
256
6
ByLayer
370
18
48
1
60
0
100
AcDbLine
10
11.777195
20
1.623269
30
0
11
11.746573
21
1.676308
31
0
39
0
210
0
220
0
230
1
0
LINE
5
75
100
AcDbEntity
8
1
62
256
6
ByLayer
370
18
48
1
60
0
100
AcDbLine
10
25.986118
20
-3.553286
30
0
11
25.636016
21
-2.946891
31
0
39
0
210
0
220
0
230
1
0
LINE
5
76
100
AcDbEntity
8
1
62
256
6
ByLayer
370
18
48
1
60
0
100
AcDbLine
10
16.186274
20
-8.07198
30
0
11
16.509728
21
-8.632218
31
0
39
0
210
0
220
0
230
1
0
LINE
5
77
100
AcDbEntity
8
1
62
256
6
ByLayer
370
18
48
1
60
0
100
AcDbLine
10
16.305022
20
-8.510821
30
0
11
16.312421
21
-8.523637
31
0
39
0
210
0
220
0
230
1
0
LINE
5
78
100
AcDbEntity
8
1
62
256
6
ByLayer
370
18
48
1
60
0
100
AcDbLine
10
20.093699
20
-5.95003
30
0
11
20.025975
21
-5.832729
31
0
39
0
210
0
220
0
230
1
0
LINE
5
79
100
AcDbEntity
8
1
62
256
6
ByLayer
370
18
48
1
60
0
100
AcDbLine
10
20.353507
20
-6.910224
30
0
11
20.030053
21
-6.349985
31
0
39
0
210
0
220
0
230
1
0
LINE
5
7A
100
AcDbEntity
8
1
62
256
6
ByLayer
370
18
48
1
60
0
100
AcDbLine
10
12.631384
20
-4.721176
30
0
11
11.912172
21
-7.405312
31
0
39
0
210
0
220
0
230
1
0
LINE
5
7B
100
AcDbEntity
8
1
62
256
6
ByLayer
370
18
48
1
60
0
100
AcDbLine
10
24.961583
20
1.579254
30
0
11
24.961583
21
-3.00168
31
0
39
0
210
0
220
0
230
1
0
LINE
5
7C
100
AcDbEntity
8
1
62
256
6
ByLayer
370
18
48
1
60
0
100
AcDbLine
10
15.129632
20
9.850778
30
0
11
24.875532
21
3.346143
31
0
39
0
210
0
220
0
230
1
0
LINE
5
7D
100
AcDbEntity
8
1
62
256
6
ByLayer
370
18
48
1
60
0
100
AcDbLine
10
1.545481
20
9.942674
30
0
11
2.428966
21
9.957061
31
0
39
0
210
0
220
0
230
1
0
LINE
5
7E
100
AcDbEntity
8
1
62
256
6
ByLayer
370
18
48
1
60
0
100
AcDbLine
10
11.837151
20
-8.261709
30
0
11
10.925183
21
-11.665223
31
0
39
0
210
0
220
0
230
1
0
LINE
5
7F
100
AcDbEntity
8
1
62
256
6
ByLayer
370
18
48
1
60
0
100
AcDbLine
10
1.545481
20
-10.966431
30
0
11
1.718258
21
-11.058258
31
0
39
0
210
0
220
0
230
1
0
LINE
5
80
100
AcDbEntity
8
1
62
256
6
ByLayer
370
18
48
1
60
0
100
AcDbLine
10
12.173373
20
9.9539
30
0
11
2.428966
21
9.957061
31
0
39
0
210
0
220
0
230
1
0
LINE
5
81
100
AcDbEntity
8
1
62
256
6
ByLayer
370
18
48
1
60
0
100
AcDbLine
10
24.961583
20
3.197098
30
0
11
24.961583
21
1.579254
31
0
39
0
210
0
220
0
230
1
0
LINE
5
82
100
AcDbEntity
8
1
62
256
6
ByLayer
370
18
48
1
60
0
100
AcDbLine
10
18.204846
20
-0.732552
30
0
11
18.08865
21
-0.702234
31
0
39
0
210
0
220
0
230
1
0
LINE
5
83
100
AcDbEntity
8
1
62
256
6
ByLayer
370
18
48
1
60
0
100
AcDbLine
10
14.089412
20
0.143842
30
0
11
12.995457
21
-3.938855
31
0
39
0
210
0
220
0
230
1
0
LINE
5
84
100
AcDbEntity
8
1
62
256
6
ByLayer
370
18
48
1
60
0
100
AcDbLine
10
20.130973
20
-1.763756
30
0
11
18.465827
21
-1.329274
31
0
39
0
210
0
220
0
230
1
0
LINE
5
85
100
AcDbEntity
8
1
62
256
6
ByLayer
370
18
48
1
60
0
100
AcDbLine
10
18.071436
20
-0.76648
30
0
11
18.08865
21
-0.702234
31
0
39
0
210
0
220
0
230
1
0
LINE
5
86
100
AcDbEntity
8
1
62
256
6
ByLayer
370
18
48
1
60
0
100
AcDbLine
10
18.465827
20
-1.329274
30
0
11
18.631194
21
-0.712114
31
0
39
0
210
0
220
0
230
1
0
LINE
5
87
100
AcDbEntity
8
1
62
256
6
ByLayer
370
18
48
1
60
0
100
AcDbLine
10
18.173396
20
0.202404
30
0
11
17.923921
21
-0.72865
31
0
39
0
210
0
220
0
230
1
0
LINE
5
88
100
AcDbEntity
8
1
62
256
6
ByLayer
370
18
48
1
60
0
100
AcDbLine
10
18.173396
20
0.202404
30
0
11
18.631194
21
-0.712114
31
0
39
0
210
0
220
0
230
1
0
LINE
5
89
100
AcDbEntity
8
1
62
256
6
ByLayer
370
18
48
1
60
0
100
AcDbLine
10
17.764121
20
-0.687702
30
0
11
18.017725
21
0.25876
31
0
39
0
210
0
220
0
230
1
0
LINE
5
8A
100
AcDbEntity
8
1
62
256
6
ByLayer
370
18
48
1
60
0
100
AcDbLine
10
1.718258
20
-11.058258
30
0
11
9.925699
21
-11.555062
31
0
39
0
210
0
220
0
230
1
0
LINE
5
8B
100
AcDbEntity
8
1
62
256
6
ByLayer
370
18
48
1
60
0
100
AcDbLine
10
24.961583
20
3.197098
30
0
11
24.875532
21
3.346143
31
0
39
0
210
0
220
0
230
1
0
LINE
5
8C
100
AcDbEntity
8
1
62
256
6
ByLayer
370
18
48
1
60
0
100
AcDbLine
10
1.545481
20
9.942674
30
0
11
1.545481
21
-10.966431
31
0
39
0
210
0
220
0
230
1
0
LINE
5
8D
100
AcDbEntity
8
1
62
256
6
ByLayer
370
18
48
1
60
0
100
AcDbLine
10
0
20
-9.9375
30
0
11
0
21
9.9375
31
0
39
0
210
0
220
0
230
1
0
LINE
5
8E
100
AcDbEntity
8
1
62
256
6
ByLayer
370
18
48
1
60
0
100
AcDbLine
10
1.718258
20
-11.058258
30
0
11
2.428966
21
9.957061
31
0
39
0
210
0
220
0
230
1
0
LINE
5
8F
100
AcDbEntity
8
1
62
256
6
ByLayer
370
18
48
1
60
0
100
AcDbLine
10
15.129632
20
9.850778
30
0
11
12.173373
21
9.9539
31
0
39
0
210
0
220
0
230
1
0
LINE
5
90
100
AcDbEntity
8
1
62
256
6
ByLayer
370
18
48
1
60
0
100
AcDbLine
10
24.961583
20
1.579254
30
0
11
12.173373
21
9.9539
31
0
39
0
210
0
220
0
230
1
0
LINE
5
91
100
AcDbEntity
8
1
62
256
6
ByLayer
370
18
48
1
60
0
100
AcDbLine
10
14.127012
20
0.268074
30
0
11
14.101713
21
0.173656
31
0
39
0
210
0
220
0
230
1
0
LINE
5
92
100
AcDbEntity
8
1
62
256
6
ByLayer
370
18
48
1
60
0
100
AcDbLine
10
18.136714
20
-0.577025
30
0
11
18.465827
21
-1.329274
31
0
39
0
210
0
220
0
230
1
0
LINE
5
93
100
AcDbEntity
8
SK1
62
256
6
ByLayer
370
18
48
1
60
0
100
AcDbLine
10
-103.305317
20
9.9375
30
0
11
-103.305317
21
-9.9375
31
0
39
0
210
0
220
0
230
1
0
LINE
5
95
100
AcDbEntity
8
SK1
62
256
6
ByLayer
370
18
48
1
60
0
100
AcDbLine
10
-103.305317
20
9.9375
30
0
11
0
21
9.9375
31
0
39
0
210
0
220
0
230
1
0
LINE
5
96
100
AcDbEntity
8
SK1
62
256
6
ByLayer
370
18
48
1
60
0
100
AcDbLine
10
0
20
-9.9375
30
0
11
0
21
9.9375
31
0
39
0
210
0
220
0
230
1
0
LINE
5
97
100
AcDbEntity
8
SK1
62
256
6
ByLayer
370
18
48
1
60
0
100
AcDbLine
10
-103.305317
20
-9.9375
30
0
11
0
21
-9.9375
31
0
39
0
210
0
220
0
230
1
0
LINE
5
98
100
AcDbEntity
8
1
62
256
6
ByLayer
370
18
48
1
60
0
100
AcDbLine
10
17.195304
20
-5.802766
30
0
11
17.16591
21
-5.751853
31
0
39
0
210
0
220
0
230
1
0
LINE
5
99
100
AcDbEntity
8
1
62
256
6
ByLayer
370
18
48
1
60
0
100
AcDbLine
10
16.107539
20
-7.041112
30
0
11
16.175996
21
-7.159684
31
0
39
0
210
0
220
0
230
1
0
LINE
5
9A
100
AcDbEntity
8
1
62
256
6
ByLayer
370
18
48
1
60
0
100
AcDbLine
10
6.781765
20
-0.892011
30
0
11
6.893417
21
-0.974504
31
0
39
0
210
0
220
0
230
1
0
LINE
5
9B
100
AcDbEntity
8
1
62
256
6
ByLayer
370
18
48
1
60
0
100
AcDbLine
10
9.651586
20
0.475316
30
0
11
9.618311
21
0.203818
31
0
39
0
210
0
220
0
230
1
0
LINE
5
9C
100
AcDbEntity
8
1
62
256
6
ByLayer
370
18
48
1
60
0
100
AcDbLine
10
13.826987
20
-1.010271
30
0
11
13.795007
21
-0.954881
31
0
39
0
210
0
220
0
230
1
0
LINE
5
9D
100
AcDbEntity
8
1
62
256
6
ByLayer
370
18
48
1
60
0
100
AcDbLine
10
14.445979
20
0.162634
30
0
11
18.238411
21
-0.809262
31
0
39
0
210
0
220
0
230
1
0
LINE
5
9E
100
AcDbEntity
8
1
62
256
6
ByLayer
370
18
48
1
60
0
100
AcDbLine
10
24.961534
20
-2.532215
30
0
11
25.15292
21
-2.581263
31
0
39
0
210
0
220
0
230
1
0
LINE
5
9F
100
AcDbEntity
8
1
62
256
6
ByLayer
370
18
48
1
60
0
100
AcDbLine
10
10.934636
20
-11.62993
30
0
11
10.966616
21
-11.685321
31
0
39
0
210
0
220
0
230
1
0
LINE
5
A0
100
AcDbEntity
8
80
62
256
6
ByLayer
370
18
48
1
60
0
100
AcDbLine
10
0
20
0
30
0
11
-5
21
0
31
0
39
0
210
0
220
0
230
1
0
LINE
5
A1
100
AcDbEntity
8
81
62
256
6
ByLayer
370
18
48
1
60
0
100
AcDbLine
10
21.694683
20
-15.0625
30
0
11
31.694683
21
-15.0625
31
0
39
0
210
0
220
0
230
1
0
LINE
5
A2
100
AcDbEntity
8
1
62
256
6
ByLayer
370
18
48
1
60
0
100
AcDbLine
10
16.146624
20
-7.984702
30
0
11
16.085658
21
-7.879106
31
0
39
0
210
0
220
0
230
1
0
LINE
5
A3
100
AcDbEntity
8
1
62
256
6
ByLayer
370
18
48
1
60
0
100
AcDbLine
10
9.535763
20
-0.469709
30
0
11
9.471233
21
-0.996217
31
0
39
0
210
0
220
0
230
1
0
LINE
5
A4
100
AcDbEntity
8
1
62
256
6
ByLayer
370
18
48
1
60
0
100
AcDbLine
10
8.353898
20
-1.479385
30
0
11
7.863674
21
-1.691372
31
0
39
0
210
0
220
0
230
1
0
LINE
5
A5
100
AcDbEntity
8
1
62
256
6
ByLayer
370
18
48
1
60
0
100
AcDbLine
10
9.535763
20
-0.469709
30
0
11
9.814007
21
-0.951642
31
0
39
0
210
0
220
0
230
1
0
LINE
5
A6
100
AcDbEntity
8
1
62
256
6
ByLayer
370
18
48
1
60
0
100
AcDbLine
10
9.757825
20
-1.492609
30
0
11
9.471233
21
-0.996217
31
0
39
0
210
0
220
0
230
1
0
LINE
5
A7
100
AcDbEntity
8
1
62
256
6
ByLayer
370
18
48
1
60
0
100
AcDbLine
10
7.43798
20
-1.37685
30
0
11
7.716224
21
-1.858783
31
0
39
0
210
0
220
0
230
1
0
LINE
5
A8
100
AcDbEntity
8
1
62
256
6
ByLayer
370
18
48
1
60
0
100
AcDbLine
10
7.171661
20
-1.456437
30
0
11
6.893417
21
-0.974504
31
0
39
0
210
0
220
0
230
1
0
LINE
5
A9
100
AcDbEntity
8
1
62
256
6
ByLayer
370
18
48
1
60
0
100
AcDbLine
10
9.896555
20
-0.278114
30
0
11
9.618311
21
0.203818
31
0
39
0
210
0
220
0
230
1
0
LINE
5
AA
100
AcDbEntity
8
1
62
256
6
ByLayer
370
18
48
1
60
0
100
AcDbLine
10
9.259253
20
-1.690137
30
0
11
8.981009
21
-1.208204
31
0
39
0
210
0
220
0
230
1
0
LINE
5
AB
100
AcDbEntity
8
1
62
256
6
ByLayer
370
18
48
1
60
0
100
AcDbLine
10
7.43798
20
-1.37685
30
0
11
7.863674
21
-1.691372
31
0
39
0
210
0
220
0
230
1
0
LINE
5
AC
100
AcDbEntity
8
1
62
256
6
ByLayer
370
18
48
1
60
0
100
AcDbLine
10
8.353898
20
-1.479385
30
0
11
8.632142
21
-1.961318
31
0
39
0
210
0
220
0
230
1
0
LINE
5
AD
100
AcDbEntity
8
1
62
256
6
ByLayer
370
18
48
1
60
0
100
AcDbLine
10
8.150266
20
-2.187763
30
0
11
7.863674
21
-1.691372
31
0
39
0
210
0
220
0
230
1
0
LINE
5
AE
100
AcDbEntity
8
1
62
256
6
ByLayer
370
18
48
1
60
0
100
AcDbLine
10
9.471233
20
-0.996217
30
0
11
8.981009
21
-1.208204
31
0
39
0
210
0
220
0
230
1
0
LINE
5
AF
100
AcDbEntity
8
1
62
256
6
ByLayer
370
18
48
1
60
0
100
AcDbLine
10
10.966616
20
-11.685321
30
0
11
13.826987
21
-1.010271
31
0
39
0
210
0
220
0
230
1
0
LINE
5
B0
100
AcDbEntity
8
1
62
256
6
ByLayer
370
18
48
1
60
0
100
AcDbLine
10
14.796081
20
-0.44376
30
0
11
25.503023
21
-3.187657
31
0
39
0
210
0
220
0
230
1
0
LINE
5
B1
100
AcDbEntity
8
1
62
256
6
ByLayer
370
18
48
1
60
0
100
AcDbLine
10
22.234027
20
-15.387714
30
0
11
11.527085
21
-12.643817
31
0
39
0
210
0
220
0
230
1
0
LINE
5
B2
100
AcDbEntity
8
1
62
256
6
ByLayer
370
18
48
1
60
0
100
AcDbLine
10
14.445979
20
0.162634
30
0
11
14.796081
21
-0.44376
31
0
39
0
210
0
220
0
230
1
0
LINE
5
B3
100
AcDbEntity
8
1
62
256
6
ByLayer
370
18
48
1
60
0
100
AcDbLine
10
26.063492
20
-4.146154
30
0
11
23.203121
21
-14.821203
31
0
39
0
210
0
220
0
230
1
0
LINE
5
B4
100
AcDbEntity
8
1
62
256
6
ByLayer
370
18
48
1
60
0
100
AcDbLine
10
25.503023
20
-3.187657
30
0
11
25.15292
21
-2.581263
31
0
39
0
210
0
220
0
230
1
0
MTEXT
5
101
100
AcDbEntity
8
SK6
62
256
6
ByLayer
370
13
48
1
60
0
100
AcDbMText
10
-80.889114
20
18.923222
30
0
210
0
220
0
230
1
1
\W0.7578;PSKNL 2020K 12
40
3.5
41
0
44
1.084337
50
0
71
7
72
5
7
iso_b_vert
0
DIMENSION
5
113
100
AcDbEntity
8
SK2
62
256
6
ByLayer
370
13
48
1
60
0
100
AcDbDimension
2
DimnDraft3D1
10
-113.055317
20
9.9375
30
0
11
-113.055317
21
-0.0625
31
0
70
32
71
5
72
1
41
1
210
0
220
0
230
1
3
Standard
100
AcDbAlignedDimension
13
-104.892817
23
-10.0625
33
0
14
-104.892817
24
9.9375
34
0
50
90
100
AcDbRotatedDimension
1001
ACAD
1000
DSTYLE
1002
{
1070
    74
1070
     0
1070
   279
1070
     0
1070
   172
1070
     1
1070
   173
1070
     1
1070
   340
1005
102
1070
   271
1070
     1
1070
   272
1070
     2
1070
    77
1070
     1
1070
    73
1070
     0
1070
   171
1070
     3
1070
   274
1070
     4
1070
   177
1070
   150
1070
   176
1070
     9
1070
   178
1070
    43
1070
    78
1070
     8
1070
    48
1040
-0.005
1070
    41
1041
3.175
1070
   147
1041
2.25
1070
    42
1041
1.5875
1070
    44
1041
3.175
1070
   140
1041
4.5
1070
   343
1005
114
1070
   344
1005
114
1002
}
0
DIMENSION
5
129
100
AcDbEntity
8
2
62
256
6
ByLayer
370
13
48
1
60
0
100
AcDbDimension
2
DimnDraft3D2
10
57.623466
20
9.9375
30
0
11
57.623466
21
-2.7375
31
0
70
32
71
5
72
1
41
1
210
0
220
0
230
1
3
Standard
100
AcDbAlignedDimension
13
24.632183
23
-15.4125
33
0
14
-5.472792
24
9.9375
34
0
50
90
100
AcDbRotatedDimension
1001
ACAD
1000
DSTYLE
1002
{
1070
    74
1070
     0
1070
   279
1070
     0
1070
   172
1070
     1
1070
   173
1070
     1
1070
   340
1005
102
1070
   271
1070
     1
1070
   272
1070
     2
1070
    77
1070
     1
1070
    73
1070
     0
1070
   171
1070
     3
1070
   274
1070
     4
1070
   177
1070
   150
1070
   176
1070
     9
1070
   178
1070
    43
1070
    78
1070
     8
1070
    48
1040
-0.005
1070
    41
1041
3.175
1070
   147
1041
2.25
1070
    42
1041
1.5875
1070
    44
1041
3.175
1070
   140
1041
4.5
1070
   343
1005
114
1070
   344
1005
114
1002
}
0
DIMENSION
5
137
100
AcDbEntity
8
SK2
62
256
6
ByLayer
370
13
48
1
60
0
100
AcDbDimension
2
DimnDraft3D3
10
23.044683
20
-31.9125
30
0
11
-40.130317
21
-31.9125
31
0
70
32
71
5
72
1
41
1
210
0
220
0
230
1
3
Standard
100
AcDbAlignedDimension
13
-103.305317
23
-11.65
33
0
14
23.044683
24
-17
34
0
50
0
100
AcDbRotatedDimension
1001
ACAD
1000
DSTYLE
1002
{
1070
   279
1070
     0
1070
   172
1070
     1
1070
   173
1070
     1
1070
   340
1005
102
1070
   271
1070
     1
1070
   272
1070
     2
1070
    77
1070
     1
1070
    73
1070
     0
1070
   171
1070
     3
1070
   274
1070
     4
1070
   177
1070
   150
1070
   176
1070
     9
1070
   178
1070
    43
1070
    78
1070
     8
1070
    48
1040
-0.005
1070
    41
1041
3.175
1070
   147
1041
2.25
1070
    42
1041
1.5875
1070
    44
1041
3.175
1070
   140
1041
4.5
1070
   343
1005
114
1070
   344
1005
114
1002
}
0
DIMENSION
5
144
100
AcDbEntity
8
2
62
256
6
ByLayer
370
13
48
1
60
0
100
AcDbDimension
2
DimnDraft3D4
10
26.123466
20
-3.233078
30
0
11
34.825273
21
-6.231222
31
0
70
34
71
5
72
1
41
1
210
0
220
0
230
1
3
Standard
100
AcDb2LineAngularDimension
13
23.044683
23
-15.4125
33
0
14
21.457183
24
-15.4125
34
0
15
23.017637
25
-14.824188
35
0
16
31.255183
26
-8.970649
36
0
40
0
0
ENDSEC
0
SECTION
2
OBJECTS
0
DICTIONARY
5
1ae
330
0
100
AcDbDictionary
280
0
281
1
3
ACAD_GROUP
350
1af
3
ACAD_MLINESTYLE
350
1b0
0
DICTIONARY
5
1af
330
0
100
AcDbDictionary
280
0
281
1
0
DICTIONARY
5
1b0
330
0
100
AcDbDictionary
280
0
281
1
3
Standard
350
18
0
MLINESTYLE
5
18
330
1b0
100
AcDbMlineStyle
2
Standard
70
0
3

62
256
51
90
52
90
71
2
49
-0.5
62
256
6
ByLayer
49
0.5
62
256
6
ByLayer
0
RASTERVARIABLES
5
19d
330

100
AcDbRasterVariables
90
0
70
1
71
1
72
1
0
ENDSEC
0
EOF
