0
SECTION
2
HEADER
9
$ACADVER
1
AC1015
9
$DWGCODEPAGE
3
ANSI_1252
9
$HANDSEED
5
1b0
9
$ANGBASE
50
0
9
$ANGDIR
70
0
9
$ATTMODE
70
1
9
$AUNITS
70
0
9
$AUPREC
70
0
9
$CECOLOR
62
256
9
$CELTSCALE
40
1
9
$CELTYPE
6
ByLayer
9
$CELWEIGHT
370
18
9
$CLAYER
8
0
9
$CMLJUST
70
0
9
$CMLSCALE
40
1
9
$CMLSTYLE
2
Standard
9
$DIMSTYLE
2
Standard
9
$TEXTSIZE
40
0.2
9
$TEXTSTYLE
7
Standard
9
$LUNITS
70
2
9
$LUPREC
70
4
9
$EXTNAMES
290
1
9
$INSUNITS
70
4
9
$LTSCALE
40
1
9
$LWDISPLAY
290
1
9
$PDMODE
70
0
9
$PDSIZE
40
0
9
$PLINEGEN
70
0
0
ENDSEC
0
SECTION
2
CLASSES
0
CLASS
1
RASTERVARIABLES
2
AcDbRasterVariables
3
ISM
90
0
280
0
281
0
0
ENDSEC
0
SECTION
2
TABLES
0
TABLE
2
VPORT
5
1a6
100
AcDbSymbolTable
0
VPORT
5
1
100
AcDbSymbolTableRecord
100
AcDbViewportTableRecord
2
*Active
70
0
10
0
20
0
11
1
21
1
12
-1
22
1
13
0
23
0
14
0.5
24
0.5
15
10
25
10
16
0
26
0
36
1
17
0
27
0
37
0
0
ENDTAB
0
TABLE
2
LTYPE
5
1a7
100
AcDbSymbolTable
0
LTYPE
5
14
100
AcDbSymbolTableRecord
100
AcDbLinetypeTableRecord
70
0
2
ByBlock
3

72
65
73
0
40
0
0
LTYPE
5
15
100
AcDbSymbolTableRecord
100
AcDbLinetypeTableRecord
70
0
2
ByLayer
3

72
65
73
0
40
0
0
LTYPE
5
16
100
AcDbSymbolTableRecord
100
AcDbLinetypeTableRecord
70
0
2
CONTINUOUS
3
Solid line
72
65
73
0
40
0
0
LTYPE
5
6A
100
AcDbSymbolTableRecord
100
AcDbLinetypeTableRecord
70
0
2
CENTER
3
____ _ ____ _ ____ _ ____
72
65
73
4
40
47.5
49
22
74
0
49
-8.5
74
0
49
8.5
74
0
49
-8.5
74
0
0
LTYPE
5
6B
100
AcDbSymbolTableRecord
100
AcDbLinetypeTableRecord
70
0
2
DASHED
3
__ __ __ __ __ __ __ __ __
72
65
73
2
40
25.72
49
12.86
74
0
49
-12.86
74
0
0
ENDTAB
0
TABLE
2
LAYER
5
1a8
100
AcDbSymbolTable
0
LAYER
5
10
100
AcDbSymbolTableRecord
100
AcDbLayerTableRecord
2
0
70
0
62
7
6
CONTINUOUS
290
1
370
-3
390
0
0
LAYER
5
6D
100
AcDbSymbolTableRecord
100
AcDbLayerTableRecord
2
80
70
0
62
-6
6
CONTINUOUS
290
1
370
-3
390
0
0
LAYER
5
6F
100
AcDbSymbolTableRecord
100
AcDbLayerTableRecord
2
81
70
0
62
-3
6
CONTINUOUS
290
1
370
-3
390
0
0
LAYER
5
71
100
AcDbSymbolTableRecord
100
AcDbLayerTableRecord
2
1
70
0
62
4
6
CONTINUOUS
290
1
370
-3
390
0
0
LAYER
5
111
100
AcDbSymbolTableRecord
100
AcDbLayerTableRecord
2
2
70
0
62
7
6
CONTINUOUS
290
1
370
-3
390
0
0
LAYER
5
193
100
AcDbSymbolTableRecord
100
AcDbLayerTableRecord
2
SK1
70
0
62
4
6
CONTINUOUS
290
1
370
-3
390
0
0
LAYER
5
194
100
AcDbSymbolTableRecord
100
AcDbLayerTableRecord
2
SK6
70
0
62
5
6
CONTINUOUS
290
1
370
-3
390
0
0
LAYER
5
195
100
AcDbSymbolTableRecord
100
AcDbLayerTableRecord
2
SK2
70
0
62
7
6
CONTINUOUS
290
1
370
-3
390
0
0
ENDTAB
0
TABLE
2
STYLE
5
1a9
100
AcDbSymbolTable
0
STYLE
5
11
100
AcDbSymbolTableRecord
100
AcDbTextStyleTableRecord
2
Standard
3
txt
70
0
71
0
40
0
41
1
42
0
50
0
0
STYLE
5
F6
100
AcDbSymbolTableRecord
100
AcDbTextStyleTableRecord
2
iso_b_vert
3
simplex.shx
70
0
71
0
40
0
41
1
42
0
50
0
0
STYLE
5
F7
100
AcDbSymbolTableRecord
100
AcDbTextStyleTableRecord
2
DWGDirectTextStyle
3
simplex
70
0
71
0
40
0
41
1
42
0
50
0
0
ENDTAB
0
TABLE
2
DIMSTYLE
5
1aa
100
AcDbSymbolTable
100
AcDbDimStyleTable
0
DIMSTYLE
105
27
100
AcDbSymbolTableRecord
100
AcDbDimStyleTableRecord
2
Standard
70
0
3
<>
41
0.18
42
0.0625
44
0.18
140
0.18
147
0.09
73
0
74
0
77
1
271
2
275
0
278
52
280
0
340
11
0
ENDTAB
0
TABLE
2
VIEW
5
1ab
100
AcDbSymbolTable
0
ENDTAB
0
TABLE
2
UCS
5
1ac
100
AcDbSymbolTable
0
ENDTAB
0
TABLE
2
APPID
5
1ad
100
AcDbSymbolTable
0
APPID
5
12
100
AcDbSymbolTableRecord
100
AcDbRegAppTableRecord
2
ACAD
70
0
0
ENDTAB
0
TABLE
2
BLOCK_RECORD
5
1ae
100
AcDbSymbolTable
0
BLOCK_RECORD
5
1F
100
AcDbSymbolTableRecord
100
AcDbBlockTableRecord
2
*Model_Space
340
0
70
0
0
BLOCK_RECORD
5
1B
100
AcDbSymbolTableRecord
100
AcDbBlockTableRecord
2
*Paper_Space
340
0
70
0
0
BLOCK_RECORD
5
23
100
AcDbSymbolTableRecord
100
AcDbBlockTableRecord
2
*Paper_Space0
340
0
70
0
0
BLOCK_RECORD
5
F9
100
AcDbSymbolTableRecord
100
AcDbBlockTableRecord
2
DimnDraft3D1
340
0
70
0
0
BLOCK_RECORD
5
108
100
AcDbSymbolTableRecord
100
AcDbBlockTableRecord
2
_CLOSED
340
0
70
0
0
BLOCK_RECORD
5
10F
100
AcDbSymbolTableRecord
100
AcDbBlockTableRecord
2
DimnDraft3D2
340
0
70
0
0
BLOCK_RECORD
5
11E
100
AcDbSymbolTableRecord
100
AcDbBlockTableRecord
2
DimnDraft3D3
340
0
70
0
0
BLOCK_RECORD
5
12C
100
AcDbSymbolTableRecord
100
AcDbBlockTableRecord
2
DimnDraft3D4
340
0
70
0
0
ENDTAB
0
ENDSEC
0
SECTION
2
BLOCKS
0
BLOCK
5
20
100
AcDbEntity
8
0
100
AcDbBlockBegin
2
*Model_Space
70
0
10
0
20
0
30
0
3
*Model_Space
0
ENDBLK
5
21
100
AcDbEntity
8
0
100
AcDbBlockEnd
0
BLOCK
5
1C
100
AcDbEntity
8
0
100
AcDbBlockBegin
2
*Paper_Space
70
0
10
0
20
0
30
0
3
*Paper_Space
0
ENDBLK
5
1D
100
AcDbEntity
8
0
100
AcDbBlockEnd
0
BLOCK
5
24
100
AcDbEntity
8
0
100
AcDbBlockBegin
2
*Paper_Space0
70
0
10
0
20
0
30
0
3
*Paper_Space0
0
ENDBLK
5
25
100
AcDbEntity
8
0
100
AcDbBlockEnd
0
BLOCK
5
105
100
AcDbEntity
8
0
100
AcDbBlockBegin
2
DimnDraft3D1
70
0
10
0
20
0
30
0
3
DimnDraft3D1
0
MTEXT
5
FA
100
AcDbEntity
8
SK2
62
256
6
ByLayer
370
13
48
1
60
0
100
AcDbMText
10
-140.297182
20
-1.488158
30
0
210
0
220
0
230
1
1
\W0.6740;32
40
4.5
41
0
44
1.084337
50
90
71
7
72
5
7
iso_b_vert
0
LINE
5
FC
100
AcDbEntity
8
SK2
62
256
6
ByLayer
370
13
48
1
60
0
100
AcDbLine
10
-131.009682
20
16.075
30
0
11
-142.347182
21
16.075
31
0
39
0
210
0
220
0
230
1
0
LINE
5
FD
100
AcDbEntity
8
SK2
62
256
6
ByLayer
370
13
48
1
60
0
100
AcDbLine
10
-131.009682
20
-15.925
30
0
11
-142.347182
21
-15.925
31
0
39
0
210
0
220
0
230
1
0
LINE
5
FE
100
AcDbEntity
8
SK2
62
256
6
ByLayer
370
13
48
1
60
0
100
AcDbLine
10
-139.172182
20
16.075
30
0
11
-139.172182
21
-15.925
31
0
39
0
210
0
220
0
230
1
0
LINE
5
FF
100
AcDbEntity
8
SK2
62
256
6
ByLayer
370
13
48
1
60
0
100
AcDbLine
10
-139.172182
20
16.075
30
0
11
-138.321444
21
12.900003
31
0
39
0
210
0
220
0
230
1
0
LINE
5
100
100
AcDbEntity
8
SK2
62
256
6
ByLayer
370
13
48
1
60
0
100
AcDbLine
10
-139.172182
20
16.075
30
0
11
-140.022921
21
12.899997
31
0
39
0
210
0
220
0
230
1
0
LINE
5
101
100
AcDbEntity
8
SK2
62
256
6
ByLayer
370
13
48
1
60
0
100
AcDbLine
10
-138.321444
20
12.900003
30
0
11
-140.022921
21
12.899997
31
0
39
0
210
0
220
0
230
1
0
LINE
5
102
100
AcDbEntity
8
SK2
62
256
6
ByLayer
370
13
48
1
60
0
100
AcDbLine
10
-139.172182
20
-15.925
30
0
11
-140.022921
21
-12.750003
31
0
39
0
210
0
220
0
230
1
0
LINE
5
103
100
AcDbEntity
8
SK2
62
256
6
ByLayer
370
13
48
1
60
0
100
AcDbLine
10
-139.172182
20
-15.925
30
0
11
-138.321444
21
-12.749997
31
0
39
0
210
0
220
0
230
1
0
LINE
5
104
100
AcDbEntity
8
SK2
62
256
6
ByLayer
370
13
48
1
60
0
100
AcDbLine
10
-140.022921
20
-12.750003
30
0
11
-138.321444
21
-12.749997
31
0
39
0
210
0
220
0
230
1
0
ENDBLK
5
106
100
AcDbEntity
8
0
100
AcDbBlockEnd
0
BLOCK
5
109
100
AcDbEntity
8
0
100
AcDbBlockBegin
2
_CLOSED
70
0
10
0
20
0
30
0
3
_CLOSED
0
LINE
5
10B
100
AcDbEntity
8
0
62
256
6
ByLayer
370
-2
48
1
60
0
100
AcDbLine
10
-1
20
0.166667
30
0
11
0
21
0
31
0
39
0
210
0
220
0
230
1
0
LINE
5
10C
100
AcDbEntity
8
0
62
256
6
ByLayer
370
-2
48
1
60
0
100
AcDbLine
10
0
20
0
30
0
11
-1
21
-0.166667
31
0
39
0
210
0
220
0
230
1
0
LINE
5
10D
100
AcDbEntity
8
0
62
256
6
ByLayer
370
-2
48
1
60
0
100
AcDbLine
10
-1
20
0.166667
30
0
11
-1
21
-0.166667
31
0
39
0
210
0
220
0
230
1
0
LINE
5
10E
100
AcDbEntity
8
0
62
256
6
ByLayer
370
-2
48
1
60
0
100
AcDbLine
10
0
20
0
30
0
11
-1
21
0
31
0
39
0
210
0
220
0
230
1
0
ENDBLK
5
10A
100
AcDbEntity
8
0
100
AcDbBlockEnd
0
BLOCK
5
11B
100
AcDbEntity
8
0
100
AcDbBlockBegin
2
DimnDraft3D2
70
0
10
0
20
0
30
0
3
DimnDraft3D2
0
MTEXT
5
110
100
AcDbEntity
8
2
62
256
6
ByLayer
370
13
48
1
60
0
100
AcDbMText
10
57.302818
20
-11.272479
30
0
210
0
220
0
230
1
1
\W0.6563;16.5
40
4.5
41
0
44
1.084337
50
90
71
7
72
5
7
iso_b_vert
0
LINE
5
112
100
AcDbEntity
8
2
62
256
6
ByLayer
370
13
48
1
60
0
100
AcDbLine
10
1.5875
20
-15.925
30
0
11
61.602818
21
-15.925
31
0
39
0
210
0
220
0
230
1
0
LINE
5
113
100
AcDbEntity
8
2
62
256
6
ByLayer
370
13
48
1
60
0
100
AcDbLine
10
43.515318
20
0.5682
30
0
11
61.602818
21
0.5682
31
0
39
0
210
0
220
0
230
1
0
LINE
5
114
100
AcDbEntity
8
2
62
256
6
ByLayer
370
13
48
1
60
0
100
AcDbLine
10
58.427818
20
-15.925
30
0
11
58.427818
21
0.5682
31
0
39
0
210
0
220
0
230
1
0
LINE
5
115
100
AcDbEntity
8
2
62
256
6
ByLayer
370
13
48
1
60
0
100
AcDbLine
10
58.427818
20
-15.925
30
0
11
57.577079
21
-12.750003
31
0
39
0
210
0
220
0
230
1
0
LINE
5
116
100
AcDbEntity
8
2
62
256
6
ByLayer
370
13
48
1
60
0
100
AcDbLine
10
58.427818
20
-15.925
30
0
11
59.278556
21
-12.749997
31
0
39
0
210
0
220
0
230
1
0
LINE
5
117
100
AcDbEntity
8
2
62
256
6
ByLayer
370
13
48
1
60
0
100
AcDbLine
10
57.577079
20
-12.750003
30
0
11
59.278556
21
-12.749997
31
0
39
0
210
0
220
0
230
1
0
LINE
5
118
100
AcDbEntity
8
2
62
256
6
ByLayer
370
13
48
1
60
0
100
AcDbLine
10
58.427818
20
0.5682
30
0
11
59.278556
21
-2.606797
31
0
39
0
210
0
220
0
230
1
0
LINE
5
119
100
AcDbEntity
8
2
62
256
6
ByLayer
370
13
48
1
60
0
100
AcDbLine
10
58.427818
20
0.5682
30
0
11
57.577079
21
-2.606803
31
0
39
0
210
0
220
0
230
1
0
LINE
5
11A
100
AcDbEntity
8
2
62
256
6
ByLayer
370
13
48
1
60
0
100
AcDbLine
10
59.278556
20
-2.606797
30
0
11
57.577079
21
-2.606803
31
0
39
0
210
0
220
0
230
1
0
ENDBLK
5
11C
100
AcDbEntity
8
0
100
AcDbBlockEnd
0
BLOCK
5
129
100
AcDbEntity
8
0
100
AcDbBlockBegin
2
DimnDraft3D3
70
0
10
0
20
0
30
0
3
DimnDraft3D3
0
MTEXT
5
11F
100
AcDbEntity
8
SK2
62
256
6
ByLayer
370
13
48
1
60
0
100
AcDbMText
10
-46.429419
20
34.7
30
0
210
0
220
0
230
1
1
\W0.6217;170
40
4.5
41
0
44
1.084337
50
0
71
7
72
5
7
iso_b_vert
0
LINE
5
120
100
AcDbEntity
8
SK2
62
256
6
ByLayer
370
13
48
1
60
0
100
AcDbLine
10
-129.422182
20
17.6625
30
0
11
-129.422182
21
36.75
31
0
39
0
210
0
220
0
230
1
0
LINE
5
121
100
AcDbEntity
8
SK2
62
256
6
ByLayer
370
13
48
1
60
0
100
AcDbLine
10
41.927818
20
2.1557
30
0
11
41.927818
21
36.75
31
0
39
0
210
0
220
0
230
1
0
LINE
5
122
100
AcDbEntity
8
SK2
62
256
6
ByLayer
370
13
48
1
60
0
100
AcDbLine
10
-129.422182
20
33.575
30
0
11
41.927818
21
33.575
31
0
39
0
210
0
220
0
230
1
0
LINE
5
123
100
AcDbEntity
8
SK2
62
256
6
ByLayer
370
13
48
1
60
0
100
AcDbLine
10
-129.422182
20
33.575
30
0
11
-126.247186
21
34.425739
31
0
39
0
210
0
220
0
230
1
0
LINE
5
124
100
AcDbEntity
8
SK2
62
256
6
ByLayer
370
13
48
1
60
0
100
AcDbLine
10
-129.422182
20
33.575
30
0
11
-126.247179
21
32.724261
31
0
39
0
210
0
220
0
230
1
0
LINE
5
125
100
AcDbEntity
8
SK2
62
256
6
ByLayer
370
13
48
1
60
0
100
AcDbLine
10
-126.247186
20
34.425739
30
0
11
-126.247179
21
32.724261
31
0
39
0
210
0
220
0
230
1
0
LINE
5
126
100
AcDbEntity
8
SK2
62
256
6
ByLayer
370
13
48
1
60
0
100
AcDbLine
10
41.927818
20
33.575
30
0
11
38.752821
21
32.724261
31
0
39
0
210
0
220
0
230
1
0
LINE
5
127
100
AcDbEntity
8
SK2
62
256
6
ByLayer
370
13
48
1
60
0
100
AcDbLine
10
41.927818
20
33.575
30
0
11
38.752814
21
34.425739
31
0
39
0
210
0
220
0
230
1
0
LINE
5
128
100
AcDbEntity
8
SK2
62
256
6
ByLayer
370
13
48
1
60
0
100
AcDbLine
10
38.752821
20
32.724261
30
0
11
38.752814
21
34.425739
31
0
39
0
210
0
220
0
230
1
0
ENDBLK
5
12A
100
AcDbEntity
8
0
100
AcDbBlockEnd
0
BLOCK
5
137
100
AcDbEntity
8
0
100
AcDbBlockBegin
2
DimnDraft3D4
70
0
10
0
20
0
30
0
3
DimnDraft3D4
0
MTEXT
5
12D
100
AcDbEntity
8
2
62
256
6
ByLayer
370
13
48
1
60
0
100
AcDbMText
10
49.541893
20
16.972045
30
0
210
0
220
0
230
1
1
\W0.8602;45%%d0'
40
4.5
41
0
44
1.084337
50
318.256328473385
71
7
72
5
7
iso_b_vert
0
LINE
5
12E
100
AcDbEntity
8
2
62
256
6
ByLayer
370
13
48
1
60
0
100
AcDbLine
10
41.927818
20
2.1557
30
0
11
41.927818
21
19.75
31
0
39
0
210
0
220
0
230
1
0
ARC
5
12F
100
AcDbEntity
8
2
62
256
6
ByLayer
370
13
48
1
60
0
100
AcDbCircle
39
0
10
41.927818
20
-0.129252
30
0
40
16.7042519772995
210
0
220
0
230
1
100
AcDbArc
50
26.017952
51
90
0
ARC
5
130
100
AcDbEntity
8
2
62
256
6
ByLayer
370
13
48
1
60
0
100
AcDbCircle
39
0
10
41.927818
20
-0.129252
30
0
40
16.7042519772995
210
0
220
0
230
1
100
AcDbArc
50
90
51
135
0
LINE
5
131
100
AcDbEntity
8
2
62
256
6
ByLayer
370
13
48
1
60
0
100
AcDbLine
10
41.927818
20
16.575
30
0
11
38.796672
21
15.574855
31
0
39
0
210
0
220
0
230
1
0
LINE
5
132
100
AcDbEntity
8
2
62
256
6
ByLayer
370
13
48
1
60
0
100
AcDbLine
10
41.927818
20
16.575
30
0
11
38.716088
21
17.274423
31
0
39
0
210
0
220
0
230
1
0
LINE
5
133
100
AcDbEntity
8
2
62
256
6
ByLayer
370
13
48
1
60
0
100
AcDbLine
10
38.796672
20
15.574855
30
0
11
38.716088
21
17.274423
31
0
39
0
210
0
220
0
230
1
0
LINE
5
134
100
AcDbEntity
8
2
62
256
6
ByLayer
370
13
48
1
60
0
100
AcDbLine
10
30.116128
20
11.682438
30
0
11
31.892592
21
14.448036
31
0
39
0
210
0
220
0
230
1
0
LINE
5
135
100
AcDbEntity
8
2
62
256
6
ByLayer
370
13
48
1
60
0
100
AcDbLine
10
30.116128
20
11.682438
30
0
11
33.037396
21
13.189287
31
0
39
0
210
0
220
0
230
1
0
LINE
5
136
100
AcDbEntity
8
2
62
256
6
ByLayer
370
13
48
1
60
0
100
AcDbLine
10
31.892592
20
14.448036
30
0
11
33.037396
21
13.189287
31
0
39
0
210
0
220
0
230
1
0
ENDBLK
5
138
100
AcDbEntity
8
0
100
AcDbBlockEnd
0
ENDSEC
0
SECTION
2
ENTITIES
0
ELLIPSE
5
B1
100
AcDbEntity
8
1
62
256
6
ByLayer
370
18
48
1
60
0
100
AcDbEllipse
10
10.606784
20
-3.281951
30
0
11
-8.26609288830105E-16
21
-4.5
31
0
210
0
220
0
230
1
40
0.989133
41
0
42
6.28318530717959
0
ELLIPSE
5
B2
100
AcDbEntity
8
1
62
256
6
ByLayer
370
18
48
1
60
0
100
AcDbEllipse
10
0
20
-15.931981
30
0
11
1.59999999999994
21
1.61702248813172E-15
31
0
210
0
220
0
230
-1
40
0.004363
41
-1.5707963267949
42
-0.261799387798665
0
ELLIPSE
5
B3
100
AcDbEntity
8
1
62
256
6
ByLayer
370
18
48
1
60
0
100
AcDbEllipse
10
17.777662
20
2.637508
30
0
11
-4.70535686431439E-16
21
-2.56156157153549
31
0
210
0
220
0
230
1
40
0.989133
41
2.35619449019234
42
-1.8003205284983
0
ELLIPSE
5
B4
100
AcDbEntity
8
1
62
256
6
ByLayer
370
18
48
1
60
0
100
AcDbEllipse
10
16.219208
20
2.637508
30
0
11
1.55105839804782E-16
21
2.53315425517185
31
0
210
0
220
0
230
1
40
0.989133
41
-0.785398163397452
42
-0.297187350991408
0
ELLIPSE
5
B5
100
AcDbEntity
8
1
62
256
6
ByLayer
370
18
48
1
60
0
100
AcDbEllipse
10
18.833841
20
4.207561
30
0
11
0.106515107699681
21
-0.105616057185432
31
0
210
0
220
0
230
-1
40
0.092451
41
1.67535119948238
42
-3.02540225257356
0
ELLIPSE
5
B6
100
AcDbEntity
8
1
62
256
6
ByLayer
370
18
48
1
60
0
100
AcDbEllipse
10
25.664807
20
-5.194867
30
0
11
2.20429143688028E-16
21
3.6
31
0
210
0
220
0
230
1
40
0.989133
41
2.35619449019235
42
2.64588148418947
0
ELLIPSE
5
B7
100
AcDbEntity
8
1
62
256
6
ByLayer
370
18
48
1
60
0
100
AcDbEllipse
10
23.186541
20
-2.689373
30
0
11
2.20429143688028E-16
21
3.6
31
0
210
0
220
0
230
1
40
0.989133
41
2.06650749619515
42
2.35619449019235
0
ELLIPSE
5
B8
100
AcDbEntity
8
1
62
256
6
ByLayer
370
18
48
1
60
0
100
AcDbEllipse
10
16.241519
20
2.637508
30
0
11
-4.92869297027735E-16
21
-2.68314410035702
31
0
210
0
220
0
230
1
40
0.989133
41
2.35619449019234
42
2.76700210699607
0
ELLIPSE
5
B9
100
AcDbEntity
8
1
62
256
6
ByLayer
370
18
48
1
60
0
100
AcDbEllipse
10
0
20
15.931981
30
0
11
1.59999999998359
21
1.6170224881152E-15
31
0
210
0
220
0
230
-1
40
0.004363
41
0.261799387790861
42
1.57079632657794
0
ELLIPSE
5
BA
100
AcDbEntity
8
1
62
256
6
ByLayer
370
18
48
1
60
0
100
AcDbEllipse
10
18.013007
20
4.428719
30
0
11
0.106643887612683
21
0.105484981086661
31
0
210
0
220
0
230
1
40
0.103962
41
0.0930832257056992
42
1.67551566262177
0
ELLIPSE
5
BB
100
AcDbEntity
8
1
62
256
6
ByLayer
370
18
48
1
60
0
100
AcDbEllipse
10
17.261185
20
1.832514
30
0
11
-4.42982855770102E-16
21
-2.41156599363496
31
0
210
0
220
0
230
1
40
0.989133
41
-2.18397618561964
42
-0.785398163397445
0
ELLIPSE
5
BC
100
AcDbEntity
8
1
62
256
6
ByLayer
370
18
48
1
60
0
100
AcDbEllipse
10
9.726001
20
-3.281951
30
0
11
-3.80240272861848E-16
21
-2.07
31
0
210
0
220
0
230
1
40
0.989133
41
0.0467313759978049
42
1.57079650899453
0
ELLIPSE
5
BD
100
AcDbEntity
8
1
62
256
6
ByLayer
370
18
48
1
60
0
100
AcDbEllipse
10
9.726001
20
-3.281951
30
0
11
-3.80240272861848E-16
21
-2.07
31
0
210
0
220
0
230
1
40
0.989133
41
1.57079650899453
42
2.93611288044431
0
ELLIPSE
5
BE
100
AcDbEntity
8
1
62
256
6
ByLayer
370
18
48
1
60
0
100
AcDbEllipse
10
9.90243
20
-3.281951
30
0
11
1.26746757620616E-16
21
2.07
31
0
210
0
220
0
230
1
40
0.989133
41
-0.651323346817221
42
-0.161732549989591
0
ELLIPSE
5
BF
100
AcDbEntity
8
1
62
256
6
ByLayer
370
18
48
1
60
0
100
AcDbEllipse
10
9.90243
20
-3.281951
30
0
11
1.26746757620616E-16
21
2.07
31
0
210
0
220
0
230
1
40
0.989133
41
3.02693712557137
42
3.0947842996093
0
ELLIPSE
5
C0
100
AcDbEntity
8
1
62
256
6
ByLayer
370
18
48
1
60
0
100
AcDbEllipse
10
16.499528
20
0
30
0
11
-2.18707041002965E-16
21
-1.190625
31
0
210
0
220
0
230
1
40
0.989133
41
-2.35619449019236
42
-1.87400910582383
0
ELLIPSE
5
C1
100
AcDbEntity
8
1
62
256
6
ByLayer
370
18
48
1
60
0
100
AcDbEllipse
10
28.158029
20
0
30
0
11
2.42625133851059E-16
21
3.9625
31
0
210
0
220
0
230
1
40
0.989133
41
-3.01062741919848
42
-2.22228407929326
0
ELLIPSE
5
C2
100
AcDbEntity
8
1
62
256
6
ByLayer
370
18
48
1
60
0
100
AcDbEllipse
10
28.158029
20
0
30
0
11
2.42625133851059E-16
21
3.9625
31
0
210
0
220
0
230
1
40
0.989133
41
-0.782354678967651
42
-0.131063294942008
0
ELLIPSE
5
C3
100
AcDbEntity
8
1
62
256
6
ByLayer
370
18
48
1
60
0
100
AcDbEllipse
10
26.533414
20
0
30
0
11
2.54718121595054E-16
21
4.16
31
0
210
0
220
0
230
1
40
0.989133
41
-2.74590999735818
42
-2.66221143749749
0
ELLIPSE
5
C4
100
AcDbEntity
8
1
62
256
6
ByLayer
370
18
48
1
60
0
100
AcDbEllipse
10
26.533414
20
0
30
0
11
2.54718121595054E-16
21
4.16
31
0
210
0
220
0
230
1
40
0.989133
41
-0.453289508581211
42
-0.395651720071932
0
ELLIPSE
5
C5
100
AcDbEntity
8
1
62
256
6
ByLayer
370
18
48
1
60
0
100
AcDbEllipse
10
28.123151
20
-0.689365
30
0
11
-7.34763812293426E-16
21
-4
31
0
210
0
220
0
230
1
40
0.989133
41
3.14158807951826
42
-2.70999819663484
0
ELLIPSE
5
C6
100
AcDbEntity
8
1
62
256
6
ByLayer
370
18
48
1
60
0
100
AcDbEllipse
10
27.882685
20
0.689365
30
0
11
2.44921270764475E-16
21
4
31
0
210
0
220
0
230
1
40
0.989133
41
2.83147036753164
42
-3.14159158893048
0
ELLIPSE
5
C7
100
AcDbEntity
8
1
62
256
6
ByLayer
370
18
48
1
60
0
100
AcDbEllipse
10
28.07849
20
0.060777
30
0
11
2.29613691341695E-16
21
3.74999999999999
31
0
210
0
220
0
230
1
40
0.989133
41
3.00605634843815
42
3.1415595699506
0
ELLIPSE
5
C8
100
AcDbEntity
8
1
62
256
6
ByLayer
370
18
48
1
60
0
100
AcDbEllipse
10
26.194523
20
0
30
0
11
-7.80686550561764E-16
21
-4.24999999999999
31
0
210
0
220
0
230
1
40
0.989133
41
2.64696627676799
42
2.68662890877506
0
ELLIPSE
5
C9
100
AcDbEntity
8
1
62
256
6
ByLayer
370
18
48
1
60
0
100
AcDbEllipse
10
26.194523
20
0
30
0
11
-7.80686550561764E-16
21
-4.24999999999999
31
0
210
0
220
0
230
1
40
0.989133
41
0.454969058965906
42
0.493355303002936
0
ELLIPSE
5
CA
100
AcDbEntity
8
1
62
256
6
ByLayer
370
18
48
1
60
0
100
AcDbEllipse
10
28.838341
20
0.689365
30
0
11
2.14306111918915E-16
21
3.49999999999999
31
0
210
0
220
0
230
1
40
0.989133
41
2.20581996164115
42
-1.85675411124234
0
ELLIPSE
5
CB
100
AcDbEntity
8
1
62
256
6
ByLayer
370
18
48
1
60
0
100
AcDbEllipse
10
28.885062
20
0
30
0
11
-6.88841074025085E-16
21
-3.74999999999999
31
0
210
0
220
0
230
1
40
0.989133
41
1.46599654062808
42
2.02466196336058
0
ELLIPSE
5
CC
100
AcDbEntity
8
1
62
256
6
ByLayer
370
18
48
1
60
0
100
AcDbEllipse
10
28.958574
20
0
30
0
11
1.98998532496136E-16
21
3.25
31
0
210
0
220
0
230
1
40
0.989133
41
1.47900525976869
42
2.01165324421995
0
ELLIPSE
5
CD
100
AcDbEntity
8
1
62
256
6
ByLayer
370
18
48
1
60
0
100
AcDbEllipse
10
28.958574
20
0
30
0
11
1.98998532496136E-16
21
3.24999999999999
31
0
210
0
220
0
230
1
40
0.989133
41
-1.66258739382114
42
-1.12993940936978
0
ELLIPSE
5
CE
100
AcDbEntity
8
1
62
256
6
ByLayer
370
18
48
1
60
0
100
AcDbEllipse
10
29.078807
20
-0.689365
30
0
11
2.14306111918916E-16
21
3.5
31
0
210
0
220
0
230
1
40
0.989133
41
-0.935772691948586
42
1.28483854234749
0
ELLIPSE
5
CF
100
AcDbEntity
8
1
62
256
6
ByLayer
370
18
48
1
60
0
100
AcDbEllipse
10
28.885062
20
0
30
0
11
-6.88841074025087E-16
21
-3.75
31
0
210
0
220
0
230
1
40
0.989133
41
-1.67559611296167
42
-1.11693069022926
0
ELLIPSE
5
D0
100
AcDbEntity
8
1
62
256
6
ByLayer
370
18
48
1
60
0
100
AcDbEllipse
10
28.764829
20
0.689365
30
0
11
-7.34763812293426E-16
21
-4
31
0
210
0
220
0
230
1
40
0.989133
41
-0.947910141488507
42
1.29697599188732
0
ELLIPSE
5
D1
100
AcDbEntity
8
1
62
256
6
ByLayer
370
18
48
1
60
0
100
AcDbEllipse
10
29.005295
20
-0.689365
30
0
11
-7.34763812293426E-16
21
-4
31
0
210
0
220
0
230
1
40
0.989133
41
2.19368251210134
42
-1.84461666170243
0
ELLIPSE
5
D2
100
AcDbEntity
8
1
62
256
6
ByLayer
370
18
48
1
60
0
100
AcDbEllipse
10
10.593442
20
-3.281951
30
0
11
-4.48645116538816E-16
21
-2.44239092362731
31
0
210
0
220
0
230
1
40
0.989133
41
0
42
6.28318530717959
0
ELLIPSE
5
D3
100
AcDbEntity
8
1
62
256
6
ByLayer
370
18
48
1
60
0
100
AcDbEllipse
10
10.561832
20
-3.281951
30
0
11
1.26746757620616E-16
21
2.07
31
0
210
0
220
0
230
1
40
0.989133
41
1.00038919721607
42
1.44307175557598
0
ELLIPSE
5
D4
100
AcDbEntity
8
1
62
256
6
ByLayer
370
18
48
1
60
0
100
AcDbEllipse
10
10.561832
20
-3.281951
30
0
11
1.26746757620616E-16
21
2.07
31
0
210
0
220
0
230
1
40
0.989133
41
-1.09400590517711
42
-0.651323346817221
0
ELLIPSE
5
D5
100
AcDbEntity
8
1
62
256
6
ByLayer
370
18
48
1
60
0
100
AcDbEllipse
10
9.90243
20
-3.281951
30
0
11
1.26746757620616E-16
21
2.07
31
0
210
0
220
0
230
1
40
0.989133
41
-2.7457184492104
42
-2.14120345637369
0
ELLIPSE
5
D6
100
AcDbEntity
8
1
62
256
6
ByLayer
370
18
48
1
60
0
100
AcDbEllipse
10
10.561832
20
-3.281951
30
0
11
1.26746757620616E-16
21
2.07
31
0
210
0
220
0
230
1
40
0.989133
41
-0.0468083539805372
42
0.39587420437937
0
ELLIPSE
5
D7
100
AcDbEntity
8
1
62
256
6
ByLayer
370
18
48
1
60
0
100
AcDbEllipse
10
10.561832
20
-3.281951
30
0
11
1.26746757620616E-16
21
2.07
31
0
210
0
220
0
230
1
40
0.989133
41
-2.14120345637369
42
-1.69852089801382
0
ELLIPSE
5
D8
100
AcDbEntity
8
1
62
256
6
ByLayer
370
18
48
1
60
0
100
AcDbEllipse
10
10.561832
20
-3.281951
30
0
11
1.26746757620616E-16
21
2.07
31
0
210
0
220
0
230
1
40
0.989133
41
2.04758674841268
42
2.49026930677259
0
ELLIPSE
5
D9
100
AcDbEntity
8
1
62
256
6
ByLayer
370
18
48
1
60
0
100
AcDbEllipse
10
10.593442
20
-3.281951
30
0
11
-7.77931186265665E-16
21
-4.235
31
0
210
0
220
0
230
1
40
0.989133
41
0
42
6.28318530717959
0
ELLIPSE
5
DA
100
AcDbEntity
8
1
62
256
6
ByLayer
370
18
48
1
60
0
100
AcDbEllipse
10
9.90243
20
-3.281951
30
0
11
1.26746757620616E-16
21
2.07
31
0
210
0
220
0
230
1
40
0.989133
41
-1.69852089801382
42
-1.09400590517711
0
ELLIPSE
5
DB
100
AcDbEntity
8
1
62
256
6
ByLayer
370
18
48
1
60
0
100
AcDbEllipse
10
10.561832
20
-3.281951
30
0
11
1.26746757620616E-16
21
2.07
31
0
210
0
220
0
230
1
40
0.989133
41
3.0947842996093
42
-2.7457184492104
0
ELLIPSE
5
DC
100
AcDbEntity
8
1
62
256
6
ByLayer
370
18
48
1
60
0
100
AcDbEllipse
10
17.43313
20
0
30
0
11
7.29023470009884E-17
21
1.190625
31
0
210
0
220
0
230
1
40
0.989133
41
0.785398163397437
42
2.35619449019236
0
ELLIPSE
5
DD
100
AcDbEntity
8
1
62
256
6
ByLayer
370
18
48
1
60
0
100
AcDbEllipse
10
29.091631
20
0
30
0
11
2.42625133851059E-16
21
3.9625
31
0
210
0
220
0
230
1
40
0.989133
41
0
42
6.28318530717959
0
ELLIPSE
5
DE
100
AcDbEntity
8
1
62
256
6
ByLayer
370
18
48
1
60
0
100
AcDbEllipse
10
29.091631
20
-11.786586
30
0
11
7.29023470009884E-17
21
1.190625
31
0
210
0
220
0
230
1
40
0.989133
41
2.35619449019236
42
-2.35619449019236
0
ELLIPSE
5
DF
100
AcDbEntity
8
1
62
256
6
ByLayer
370
18
48
1
60
0
100
AcDbEllipse
10
40.750131
20
0
30
0
11
7.29023470009884E-17
21
1.190625
31
0
210
0
220
0
230
1
40
0.989133
41
-2.35619449019236
42
-0.785398163397436
0
ELLIPSE
5
E0
100
AcDbEntity
8
1
62
256
6
ByLayer
370
18
48
1
60
0
100
AcDbEllipse
10
29.091631
20
11.786586
30
0
11
7.29023470009884E-17
21
1.190625
31
0
210
0
220
0
230
1
40
0.989133
41
-0.785398163397438
42
0.785398163397436
0
POINT
5
6C
100
AcDbEntity
8
80
62
256
6
ByLayer
370
18
48
1
60
0
100
AcDbPoint
10
0
20
0
30
0
39
0
210
0
220
0
230
1
50
360
0
POINT
5
6E
100
AcDbEntity
8
81
62
256
6
ByLayer
370
18
48
1
60
0
100
AcDbPoint
10
40.577818
20
0.5682
30
0
39
0
210
0
220
0
230
1
50
360
0
POINT
5
70
100
AcDbEntity
8
1
62
256
6
ByLayer
370
18
48
1
60
0
100
AcDbPoint
10
-129.422182
20
-15.925
30
0
39
0
210
0
220
0
230
1
50
360
0
SPLINE
5
E1
100
AcDbEntity
8
1
62
256
6
ByLayer
370
18
48
1
60
0
100
AcDbSpline
70
4
71
3
72
20
73
16
40
0
40
0
40
0
40
0
40
0.0734928456873313
40
0.0734928456873313
40
0.226444927298343
40
0.226444927298343
40
0.379397008909354
40
0.379397008909354
40
0.685301172131377
40
0.685301172131377
40
0.838253253742389
40
0.838253253742389
40
0.9912053353534
40
0.9912053353534
40
1
40
1
40
1
40
1
41
1
10
27.8157173728476
20
3.75001098168531
30
0
41
1
10
27.8655789428021
20
3.75004580985811
30
0
41
1
10
27.915494050315
20
3.74907373621338
30
0
41
1
10
28.0694574436596
20
3.74298372952831
30
0
41
1
10
28.1736867107327
20
3.73449726669651
30
0
41
1
10
28.3826427005664
20
3.70854336287309
30
0
41
1
10
28.4866406153706
20
3.69113353689761
30
0
41
1
10
28.7938537693394
20
3.62652673925604
30
0
41
1
10
28.9937316352633
20
3.56686479892235
30
0
41
1
10
29.2863593057122
20
3.45296223513202
30
0
41
1
10
29.3826980471042
20
3.41090645140201
30
0
41
1
10
29.5729379929834
20
3.31845974757567
30
0
41
1
10
29.6659191905233
20
3.26849154504961
30
0
41
1
10
29.7613268752477
20
3.21226602291648
30
0
41
1
10
29.7665061529467
20
3.20919794043692
30
0
41
1
10
29.7716771099779
20
3.20611895190214
30
0
0
SPLINE
5
E2
100
AcDbEntity
8
1
62
256
6
ByLayer
370
18
48
1
60
0
100
AcDbSpline
70
4
71
3
72
14
73
10
40
0
40
0
40
0
40
0
40
0.464927009200968
40
0.464927009200968
40
0.697390513801452
40
0.697390513801452
40
0.929854018401935
40
0.929854018401935
40
1
40
1
40
1
40
1
41
1
10
28.6310782885909
20
-3.65861715261852
30
0
41
1
10
28.8338583823089
20
-3.6125746766694
30
0
41
1
10
29.031578416846
20
-3.54986693882211
30
0
41
1
10
29.3206888842047
20
-3.43106325774042
30
0
41
1
10
29.415808226484
20
-3.38731715479469
30
0
41
1
10
29.6034935293252
20
-3.29131367887953
30
0
41
1
10
29.6953938060451
20
-3.23936061862929
30
0
41
1
10
29.8112695821994
20
-3.16746281582471
30
0
41
1
10
29.8378975287525
20
-3.15048491569954
30
0
41
1
10
29.8642938395019
20
-3.13319632055916
30
0
0
SPLINE
5
E3
100
AcDbEntity
8
1
62
256
6
ByLayer
370
18
48
1
60
0
100
AcDbSpline
70
4
71
3
72
10
73
6
40
0
40
0
40
0
40
0
40
0.149102736591696
40
0.149102736591696
40
1
40
1
40
1
40
1
41
1
10
27.6422636575172
20
-3.6495995807812
30
0
41
1
10
27.6905963404137
20
-3.65697394522493
30
0
41
1
10
27.7391275936452
20
-3.66333010360216
30
0
41
1
10
28.064815352583
20
-3.69890403225762
30
0
41
1
10
28.3465368537248
20
-3.69619087275711
30
0
41
1
10
28.6310782885909
20
-3.65861715261852
30
0
0
SPLINE
5
E4
100
AcDbEntity
8
1
62
256
6
ByLayer
370
18
48
1
60
0
100
AcDbSpline
70
4
71
3
72
8
73
4
40
0
40
0
40
0
40
0
40
1
40
1
40
1
40
1
41
1
10
28.3235509766035
20
-3.69302907379586
30
0
41
1
10
28.187010492993
20
-3.71383678054957
30
0
41
1
10
28.0501556727736
20
-3.73471062110818
30
0
41
1
10
27.9126765002801
20
-3.75571582018603
30
0
0
SPLINE
5
E5
100
AcDbEntity
8
1
62
256
6
ByLayer
370
18
48
1
60
0
100
AcDbSpline
70
4
71
3
72
8
73
4
40
0
40
0
40
0
40
0
40
1
40
1
40
1
40
1
41
1
10
32.1597226977324
20
-0.297902222093057
30
0
41
1
10
32.2978660505826
20
-0.329332850657352
30
0
41
1
10
32.4359367559875
20
-0.36079590414289
30
0
41
1
10
32.5739597950281
20
-0.392280208355743
30
0
0
SPLINE
5
E6
100
AcDbEntity
8
1
62
256
6
ByLayer
370
18
48
1
60
0
100
AcDbSpline
70
4
71
3
72
8
73
4
40
0
40
0
40
0
40
0
40
1
40
1
40
1
40
1
41
1
10
26.0512594814788
20
-1.38682246966718
30
0
41
1
10
25.8845646726953
20
-1.47259482620538
30
0
41
1
10
25.7179325923743
20
-1.55837547498825
30
0
41
1
10
25.5513416826377
20
-1.64416153805172
30
0
0
SPLINE
5
E7
100
AcDbEntity
8
1
62
256
6
ByLayer
370
18
48
1
60
0
100
AcDbSpline
70
4
71
3
72
8
73
4
40
0
40
0
40
0
40
0
40
1
40
1
40
1
40
1
41
1
10
32.2187823136894
20
1.64416153805183
30
0
41
1
10
32.1012124959395
20
1.55837547498834
30
0
41
1
10
31.9835903611593
20
1.47259482620547
30
0
41
1
10
31.8658884774193
20
1.38682246966727
30
0
0
SPLINE
5
E8
100
AcDbEntity
8
1
62
256
6
ByLayer
370
18
48
1
60
0
100
AcDbSpline
70
4
71
3
72
8
73
4
40
0
40
0
40
0
40
0
40
1
40
1
40
1
40
1
41
1
10
25.1961642012991
20
0.392280208355516
30
0
41
1
10
25.3832083323263
20
0.360795904142662
30
0
41
1
10
25.570288983272
20
0.329332850657153
30
0
41
1
10
25.7574252611659
20
0.297902222092887
30
0
0
SPLINE
5
E9
100
AcDbEntity
8
1
62
256
6
ByLayer
370
18
48
1
60
0
100
AcDbSpline
70
4
71
3
72
8
73
4
40
0
40
0
40
0
40
0
40
1
40
1
40
1
40
1
41
1
10
12.5926589050246
20
-3.54562214954063
30
0
41
1
10
12.6793940159401
20
-3.31727949163496
30
0
41
1
10
12.7671790970313
20
-3.09524141833592
30
0
41
1
10
12.855599355726
20
-2.87701729236113
30
0
0
SPLINE
5
EA
100
AcDbEntity
8
1
62
256
6
ByLayer
370
18
48
1
60
0
100
AcDbSpline
70
4
71
3
72
10
73
6
40
0
40
0
40
0
40
0
40
0.5
40
0.5
40
1
40
1
40
1
40
1
41
1
10
9.10142593650033
20
-1.49559793346876
30
0
41
1
10
9.0569650024932
20
-1.60532899066038
30
0
41
1
10
9.01240784604676
20
-1.71668483601115
30
0
41
1
10
8.92451759224065
20
-1.93992079564316
30
0
41
1
10
8.88115576515003
20
-2.05186714136201
30
0
41
1
10
8.83848548579891
20
-2.16420279064823
30
0
0
SPLINE
5
EB
100
AcDbEntity
8
1
62
256
6
ByLayer
370
18
48
1
60
0
100
AcDbSpline
70
4
71
3
72
10
73
6
40
0
40
0
40
0
40
0
40
0.5
40
0.5
40
1
40
1
40
1
40
1
41
1
10
11.3729604801203
20
-1.09066466792493
30
0
41
1
10
11.2547761779709
20
-1.1108530799703
30
0
41
1
10
11.1359185095441
20
-1.13125055817773
30
0
41
1
10
10.8964230356796
20
-1.17259820994633
30
0
41
1
10
10.7764926773065
20
-1.1934279478981
30
0
41
1
10
10.6576374543263
20
-1.21421785165788
30
0
0
SPLINE
5
EC
100
AcDbEntity
8
1
62
256
6
ByLayer
370
18
48
1
60
0
100
AcDbSpline
70
4
71
3
72
8
73
4
40
0
40
0
40
0
40
0
40
1
40
1
40
1
40
1
41
1
10
9.32055385883245
20
-4.92818477443856
30
0
41
1
10
9.47958038943437
20
-5.11433141467649
30
0
41
1
10
9.63766091024075
20
-5.29533851045352
30
0
41
1
10
9.79516914409197
20
-5.47323644788508
30
0
0
SPLINE
5
ED
100
AcDbEntity
8
1
62
256
6
ByLayer
370
18
48
1
60
0
100
AcDbSpline
70
4
71
3
72
8
73
4
40
0
40
0
40
0
40
0
40
1
40
1
40
1
40
1
41
1
10
11.8031103450458
20
-1.63571634137142
30
0
41
1
10
11.6531404976597
20
-1.4495697011335
30
0
41
1
10
11.5107560897746
20
-1.26856260535646
30
0
41
1
10
11.3729604801203
20
-1.09066466792493
30
0
0
SPLINE
5
EE
100
AcDbEntity
8
1
62
256
6
ByLayer
370
18
48
1
60
0
100
AcDbSpline
70
4
71
3
72
8
73
4
40
0
40
0
40
0
40
0
40
1
40
1
40
1
40
1
41
1
10
8.53100529885364
20
-3.01827896626938
30
0
41
1
10
8.45332687115393
20
-3.24662162417505
30
0
41
1
10
8.38123790298408
20
-3.4686596974741
30
0
41
1
10
8.31253026848617
20
-3.68688382344885
30
0
0
SPLINE
5
EF
100
AcDbEntity
8
1
62
256
6
ByLayer
370
18
48
1
60
0
100
AcDbSpline
70
4
71
3
72
10
73
6
40
0
40
0
40
0
40
0
40
0.5
40
0.5
40
1
40
1
40
1
40
1
41
1
10
12.0667036877119
20
-5.06830318234123
30
0
41
1
10
12.1012523946292
20
-4.9585721251496
30
0
41
1
10
12.136874775145
20
-4.84721627979883
30
0
41
1
10
12.2097210845632
20
-4.62398032016682
30
0
41
1
10
12.2469639723493
20
-4.51203397444795
30
0
41
1
10
12.2851787180794
20
-4.39969832516172
30
0
0
SPLINE
5
F0
100
AcDbEntity
8
1
62
256
6
ByLayer
370
18
48
1
60
0
100
AcDbSpline
70
4
71
3
72
10
73
6
40
0
40
0
40
0
40
0
40
0.5
40
0.5
40
1
40
1
40
1
40
1
41
1
10
9.77228354196035
20
-1.37204474973581
30
0
41
1
10
9.65721251074257
20
-1.39295787757553
30
0
41
1
10
9.54267232933813
20
-1.41393139159359
30
0
41
1
10
9.31909491573481
20
-1.45512976565928
30
0
41
1
10
9.20944767987521
20
-1.47546429451336
30
0
41
1
10
9.10142593650033
20
-1.49559793346876
30
0
0
SPLINE
5
F1
100
AcDbEntity
8
1
62
256
6
ByLayer
370
18
48
1
60
0
100
AcDbSpline
70
4
71
3
72
10
73
6
40
0
40
0
40
0
40
0
40
0.5
40
0.5
40
1
40
1
40
1
40
1
41
1
10
8.31253026848617
20
-3.68688382344885
30
0
41
1
10
8.38181893148897
20
-3.77633740086324
30
0
41
1
10
8.4526956627451
20
-3.86711551772066
30
0
41
1
10
8.59621665290354
20
-4.04909913938349
30
0
41
1
10
8.66890083902149
20
-4.14035863655147
30
0
41
1
10
8.74268013341174
20
-4.23193549689535
30
0
0
SPLINE
5
F2
100
AcDbEntity
8
1
62
256
6
ByLayer
370
18
48
1
60
0
100
AcDbSpline
70
4
71
3
72
10
73
6
40
0
40
0
40
0
40
0
40
0.5
40
0.5
40
1
40
1
40
1
40
1
41
1
10
12.0667036877119
20
-5.06830318234123
30
0
41
1
10
11.9485193855625
20
-5.0884915943866
30
0
41
1
10
11.8296617171357
20
-5.10888907259405
30
0
41
1
10
11.5901662432711
20
-5.15023672436266
30
0
41
1
10
11.470235884898
20
-5.1710664623144
30
0
41
1
10
11.3513806619179
20
-5.19185636607421
30
0
0
SPLINE
5
F3
100
AcDbEntity
8
1
62
256
6
ByLayer
370
18
48
1
60
0
100
AcDbSpline
70
4
71
3
72
10
73
6
40
0
40
0
40
0
40
0
40
0.5
40
0.5
40
1
40
1
40
1
40
1
41
1
10
10.4660267495519
20
-5.34968326415211
30
0
41
1
10
10.3509557183342
20
-5.37059639199185
30
0
41
1
10
10.2364155369298
20
-5.39156990600989
30
0
41
1
10
10.0128381233264
20
-5.43276828007561
30
0
41
1
10
9.90319088746679
20
-5.45310280892969
30
0
41
1
10
9.79516914409191
20
-5.47323644788508
30
0
0
SPLINE
5
F4
100
AcDbEntity
8
1
62
256
6
ByLayer
370
18
48
1
60
0
100
AcDbSpline
70
4
71
3
72
10
73
6
40
0
40
0
40
0
40
0
40
0.5
40
0.5
40
1
40
1
40
1
40
1
41
1
10
12.855599355726
20
-2.87701729236113
30
0
41
1
10
12.7763984656335
20
-2.78756371494674
30
0
41
1
10
12.6965869584466
20
-2.69678559808929
30
0
41
1
10
12.5380220239003
20
-2.5148019764265
30
0
41
1
10
12.4592188984778
20
-2.42354247925849
30
0
41
1
10
12.3809840704665
20
-2.33196561891464
30
0
0
LINE
5
72
100
AcDbEntity
8
1
62
256
6
ByLayer
370
18
48
1
60
0
100
AcDbLine
10
29.091631
20
12.977211
30
0
11
28.358155
21
12.977211
31
0
39
0
210
0
220
0
230
1
0
LINE
5
73
100
AcDbEntity
8
1
62
256
6
ByLayer
370
18
48
1
60
0
100
AcDbLine
10
28.358155
20
-12.977211
30
0
11
29.091631
21
-12.977211
31
0
39
0
210
0
220
0
230
1
0
LINE
5
74
100
AcDbEntity
8
1
62
256
6
ByLayer
370
18
48
1
60
0
100
AcDbLine
10
28.07849
20
-3.689223
30
0
11
28.168673
21
-3.689223
31
0
39
0
210
0
220
0
230
1
0
LINE
5
75
100
AcDbEntity
8
1
62
256
6
ByLayer
370
18
48
1
60
0
100
AcDbLine
10
27.882685
20
-3.310635
30
0
11
28.764829
21
-3.310635
31
0
39
0
210
0
220
0
230
1
0
LINE
5
76
100
AcDbEntity
8
1
62
256
6
ByLayer
370
18
48
1
60
0
100
AcDbLine
10
29.005295
20
3.310635
30
0
11
28.123151
21
3.310635
31
0
39
0
210
0
220
0
230
1
0
LINE
5
77
100
AcDbEntity
8
1
62
256
6
ByLayer
370
18
48
1
60
0
100
AcDbLine
10
19.569276
20
4.448806
30
0
11
19.823981
21
4.191303
31
0
39
0
210
0
220
0
230
1
0
LINE
5
78
100
AcDbEntity
8
1
62
256
6
ByLayer
370
18
48
1
60
0
100
AcDbLine
10
1.545481
20
-15.930174
30
0
11
2.693721
21
-15.948873
31
0
39
0
210
0
220
0
230
1
0
LINE
5
79
100
AcDbEntity
8
1
62
256
6
ByLayer
370
18
48
1
60
0
100
AcDbLine
10
18.602785
20
3.810165
30
0
11
17.990954
21
4.428719
31
0
39
0
210
0
220
0
230
1
0
LINE
5
7A
100
AcDbEntity
8
1
62
256
6
ByLayer
370
18
48
1
60
0
100
AcDbLine
10
19.823981
20
4.191303
30
0
11
18.729176
21
4.313606
31
0
39
0
210
0
220
0
230
1
0
LINE
5
7B
100
AcDbEntity
8
1
62
256
6
ByLayer
370
18
48
1
60
0
100
AcDbLine
10
18.898757
20
4.294722
30
0
11
18.813014
21
4.20879
31
0
39
0
210
0
220
0
230
1
0
LINE
5
7C
100
AcDbEntity
8
1
62
256
6
ByLayer
370
18
48
1
60
0
100
AcDbLine
10
1.545481
20
15.930174
30
0
11
1.545481
21
-15.930174
31
0
39
0
210
0
220
0
230
1
0
LINE
5
7D
100
AcDbEntity
8
1
62
256
6
ByLayer
370
18
48
1
60
0
100
AcDbLine
10
25.433364
20
-15.934125
30
0
11
2.693721
21
-15.948873
31
0
39
0
210
0
220
0
230
1
0
LINE
5
7E
100
AcDbEntity
8
1
62
256
6
ByLayer
370
18
48
1
60
0
100
AcDbLine
10
28.264315
20
-12.701971
30
0
11
28.447354
21
-12.887021
31
0
39
0
210
0
220
0
230
1
0
LINE
5
7F
100
AcDbEntity
8
1
62
256
6
ByLayer
370
18
48
1
60
0
100
AcDbLine
10
28.447354
20
-12.887021
30
0
11
25.433364
21
-15.934125
31
0
39
0
210
0
220
0
230
1
0
LINE
5
80
100
AcDbEntity
8
1
62
256
6
ByLayer
370
18
48
1
60
0
100
AcDbLine
10
2.693721
20
-15.948873
30
0
11
2.693721
21
15.948873
31
0
39
0
210
0
220
0
230
1
0
LINE
5
81
100
AcDbEntity
8
1
62
256
6
ByLayer
370
18
48
1
60
0
100
AcDbLine
10
15.574481
20
0.127279
30
0
11
16.453432
21
-0.761328
31
0
39
0
210
0
220
0
230
1
0
LINE
5
82
100
AcDbEntity
8
1
62
256
6
ByLayer
370
18
48
1
60
0
100
AcDbLine
10
28.473857
20
12.860227
30
0
11
28.435338
21
12.821623
31
0
39
0
210
0
220
0
230
1
0
LINE
5
83
100
AcDbEntity
8
1
62
256
6
ByLayer
370
18
48
1
60
0
100
AcDbLine
10
21.568553
20
5.939716
30
0
11
19.823981
21
4.191303
31
0
39
0
210
0
220
0
230
1
0
LINE
5
84
100
AcDbEntity
8
1
62
256
6
ByLayer
370
18
48
1
60
0
100
AcDbLine
10
18.813014
20
4.20879
30
0
11
18.905047
21
4.115745
31
0
39
0
210
0
220
0
230
1
0
LINE
5
85
100
AcDbEntity
8
1
62
256
6
ByLayer
370
18
48
1
60
0
100
AcDbLine
10
14.878479
20
1.945991
30
0
11
17.161465
21
2.352966
31
0
39
0
210
0
220
0
230
1
0
LINE
5
86
100
AcDbEntity
8
1
62
256
6
ByLayer
370
18
48
1
60
0
100
AcDbLine
10
0
20
-15.925
30
0
11
0
21
15.925
31
0
39
0
210
0
220
0
230
1
0
LINE
5
87
100
AcDbEntity
8
1
62
256
6
ByLayer
370
18
48
1
60
0
100
AcDbLine
10
1.545481
20
15.930174
30
0
11
2.693721
21
15.948873
31
0
39
0
210
0
220
0
230
1
0
LINE
5
88
100
AcDbEntity
8
1
62
256
6
ByLayer
370
18
48
1
60
0
100
AcDbLine
10
20.668619
20
-5.234958
30
0
11
23.146886
21
-7.740452
31
0
39
0
210
0
220
0
230
1
0
LINE
5
89
100
AcDbEntity
8
1
62
256
6
ByLayer
370
18
48
1
60
0
100
AcDbLine
10
19.569276
20
4.448806
30
0
11
18.11817
21
4.534778
31
0
39
0
210
0
220
0
230
1
0
LINE
5
8A
100
AcDbEntity
8
1
62
256
6
ByLayer
370
18
48
1
60
0
100
AcDbLine
10
25.433364
20
15.934125
30
0
11
2.693721
21
15.948873
31
0
39
0
210
0
220
0
230
1
0
LINE
5
8B
100
AcDbEntity
8
1
62
256
6
ByLayer
370
18
48
1
60
0
100
AcDbLine
10
25.433364
20
15.934125
30
0
11
28.473857
21
12.860227
31
0
39
0
210
0
220
0
230
1
0
LINE
5
8C
100
AcDbEntity
8
1
62
256
6
ByLayer
370
18
48
1
60
0
100
AcDbLine
10
18.11817
20
4.534778
30
0
11
18.718838
21
3.927511
31
0
39
0
210
0
220
0
230
1
0
LINE
5
8D
100
AcDbEntity
8
SK1
62
256
6
ByLayer
370
18
48
1
60
0
100
AcDbLine
10
-129.422182
20
15.925
30
0
11
0
21
15.925
31
0
39
0
210
0
220
0
230
1
0
LINE
5
8F
100
AcDbEntity
8
SK1
62
256
6
ByLayer
370
18
48
1
60
0
100
AcDbLine
10
0
20
-15.925
30
0
11
0
21
15.925
31
0
39
0
210
0
220
0
230
1
0
LINE
5
90
100
AcDbEntity
8
SK1
62
256
6
ByLayer
370
18
48
1
60
0
100
AcDbLine
10
-129.422182
20
-15.925
30
0
11
0
21
-15.925
31
0
39
0
210
0
220
0
230
1
0
LINE
5
91
100
AcDbEntity
8
SK1
62
256
6
ByLayer
370
18
48
1
60
0
100
AcDbLine
10
-129.422182
20
15.925
30
0
11
-129.422182
21
-15.925
31
0
39
0
210
0
220
0
230
1
0
LINE
5
92
100
AcDbEntity
8
1
62
256
6
ByLayer
370
18
48
1
60
0
100
AcDbLine
10
10.466019
20
-1.214218
30
0
11
10.657637
21
-1.214218
31
0
39
0
210
0
220
0
230
1
0
LINE
5
93
100
AcDbEntity
8
1
62
256
6
ByLayer
370
18
48
1
60
0
100
AcDbLine
10
9.70357
20
-5.368054
30
0
11
9.806624
21
-5.349683
31
0
39
0
210
0
220
0
230
1
0
LINE
5
94
100
AcDbEntity
8
1
62
256
6
ByLayer
370
18
48
1
60
0
100
AcDbLine
10
10.776691
20
-1.193518
30
0
11
11.143708
21
-1.635716
31
0
39
0
210
0
220
0
230
1
0
LINE
5
95
100
AcDbEntity
8
1
62
256
6
ByLayer
370
18
48
1
60
0
100
AcDbLine
10
16.60038
20
-0.841899
30
0
11
16.52613
21
-0.841899
31
0
39
0
210
0
220
0
230
1
0
LINE
5
96
100
AcDbEntity
8
1
62
256
6
ByLayer
370
18
48
1
60
0
100
AcDbLine
10
28.258881
20
12.628485
30
0
11
28.18463
21
12.628485
31
0
39
0
210
0
220
0
230
1
0
LINE
5
97
100
AcDbEntity
8
1
62
256
6
ByLayer
370
18
48
1
60
0
100
AcDbLine
10
15.666778
20
0.841899
30
0
11
19.063956
21
4.2764
31
0
39
0
210
0
220
0
230
1
0
LINE
5
98
100
AcDbEntity
8
1
62
256
6
ByLayer
370
18
48
1
60
0
100
AcDbLine
10
28.18463
20
-12.628485
30
0
11
28.258881
21
-12.628485
31
0
39
0
210
0
220
0
230
1
0
LINE
5
99
100
AcDbEntity
8
1
62
256
6
ByLayer
370
18
48
1
60
0
100
AcDbLine
10
25.196164
20
0.39228
30
0
11
25.191443
21
0.39228
31
0
39
0
210
0
220
0
230
1
0
LINE
5
9A
100
AcDbEntity
8
1
62
256
6
ByLayer
370
18
48
1
60
0
100
AcDbLine
10
25.525516
20
-1.644162
30
0
11
25.551342
21
-1.644162
31
0
39
0
210
0
220
0
230
1
0
LINE
5
9B
100
AcDbEntity
8
1
62
256
6
ByLayer
370
18
48
1
60
0
100
AcDbLine
10
16.806319
20
1.994054
30
0
11
14.882049
21
1.659366
31
0
39
0
210
0
220
0
230
1
0
LINE
5
9C
100
AcDbEntity
8
1
62
256
6
ByLayer
370
18
48
1
60
0
100
AcDbLine
10
16.996616
20
2.186417
30
0
11
14.876161
21
1.797292
31
0
39
0
210
0
220
0
230
1
0
LINE
5
9D
100
AcDbEntity
8
1
62
256
6
ByLayer
370
18
48
1
60
0
100
AcDbLine
10
15.973345
20
1.15184
30
0
11
15.113233
21
0.783675
31
0
39
0
210
0
220
0
230
1
0
LINE
5
9E
100
AcDbEntity
8
80
62
256
6
ByLayer
370
18
48
1
60
0
100
AcDbLine
10
0
20
0
30
0
11
-5
21
0
31
0
39
0
210
0
220
0
230
1
0
LINE
5
9F
100
AcDbEntity
8
81
62
256
6
ByLayer
370
18
48
1
60
0
100
AcDbLine
10
40.577818
20
0.5682
30
0
11
50.577818
21
0.5682
31
0
39
0
210
0
220
0
230
1
0
LINE
5
A0
100
AcDbEntity
8
1
62
256
6
ByLayer
370
18
48
1
60
0
100
AcDbLine
10
11.721582
20
-2.331966
30
0
11
12.380984
21
-2.331966
31
0
39
0
210
0
220
0
230
1
0
LINE
5
A1
100
AcDbEntity
8
1
62
256
6
ByLayer
370
18
48
1
60
0
100
AcDbLine
10
10.691978
20
-5.191856
30
0
11
11.351381
21
-5.191856
31
0
39
0
210
0
220
0
230
1
0
LINE
5
A2
100
AcDbEntity
8
1
62
256
6
ByLayer
370
18
48
1
60
0
100
AcDbLine
10
12.855599
20
-2.877017
30
0
11
12.173964
21
-2.877017
31
0
39
0
210
0
220
0
230
1
0
LINE
5
A3
100
AcDbEntity
8
1
62
256
6
ByLayer
370
18
48
1
60
0
100
AcDbLine
10
12.592659
20
-3.545622
30
0
11
11.933256
21
-3.545622
31
0
39
0
210
0
220
0
230
1
0
LINE
5
A4
100
AcDbEntity
8
1
62
256
6
ByLayer
370
18
48
1
60
0
100
AcDbLine
10
12.066704
20
-5.068303
30
0
11
11.385069
21
-5.068303
31
0
39
0
210
0
220
0
230
1
0
LINE
5
A5
100
AcDbEntity
8
1
62
256
6
ByLayer
370
18
48
1
60
0
100
AcDbLine
10
12.173964
20
-2.877017
30
0
11
11.933256
21
-3.545622
31
0
39
0
210
0
220
0
230
1
0
LINE
5
A6
100
AcDbEntity
8
1
62
256
6
ByLayer
370
18
48
1
60
0
100
AcDbLine
10
11.625776
20
-4.399698
30
0
11
12.285179
21
-4.399698
31
0
39
0
210
0
220
0
230
1
0
LINE
5
A7
100
AcDbEntity
8
1
62
256
6
ByLayer
370
18
48
1
60
0
100
AcDbLine
10
11.721582
20
-2.331966
30
0
11
12.173964
21
-2.877017
31
0
39
0
210
0
220
0
230
1
0
LINE
5
A8
100
AcDbEntity
8
1
62
256
6
ByLayer
370
18
48
1
60
0
100
AcDbLine
10
10.466027
20
-5.349683
30
0
11
9.806624
21
-5.349683
31
0
39
0
210
0
220
0
230
1
0
LINE
5
A9
100
AcDbEntity
8
1
62
256
6
ByLayer
370
18
48
1
60
0
100
AcDbLine
10
11.625776
20
-4.399698
30
0
11
11.385069
21
-5.068303
31
0
39
0
210
0
220
0
230
1
0
LINE
5
AA
100
AcDbEntity
8
1
62
256
6
ByLayer
370
18
48
1
60
0
100
AcDbLine
10
11.80311
20
-1.635716
30
0
11
11.143708
21
-1.635716
31
0
39
0
210
0
220
0
230
1
0
LINE
5
AB
100
AcDbEntity
8
1
62
256
6
ByLayer
370
18
48
1
60
0
100
AcDbLine
10
10.691978
20
-5.191856
30
0
11
11.385069
21
-5.068303
31
0
39
0
210
0
220
0
230
1
0
LINE
5
AC
100
AcDbEntity
8
1
62
256
6
ByLayer
370
18
48
1
60
0
100
AcDbLine
10
41.582881
20
-0.841899
30
0
11
29.924381
21
-12.628485
31
0
39
0
210
0
220
0
230
1
0
LINE
5
AD
100
AcDbEntity
8
1
62
256
6
ByLayer
370
18
48
1
60
0
100
AcDbLine
10
16.60038
20
0.841899
30
0
11
28.258881
21
12.628485
31
0
39
0
210
0
220
0
230
1
0
LINE
5
AE
100
AcDbEntity
8
1
62
256
6
ByLayer
370
18
48
1
60
0
100
AcDbLine
10
15.666778
20
0.841899
30
0
11
16.60038
21
0.841899
31
0
39
0
210
0
220
0
230
1
0
LINE
5
AF
100
AcDbEntity
8
1
62
256
6
ByLayer
370
18
48
1
60
0
100
AcDbLine
10
29.924381
20
12.628485
30
0
11
41.582881
21
0.841899
31
0
39
0
210
0
220
0
230
1
0
LINE
5
B0
100
AcDbEntity
8
1
62
256
6
ByLayer
370
18
48
1
60
0
100
AcDbLine
10
28.258881
20
-12.628485
30
0
11
16.60038
21
-0.841899
31
0
39
0
210
0
220
0
230
1
0
MTEXT
5
F5
100
AcDbEntity
8
SK6
62
256
6
ByLayer
370
13
48
1
60
0
100
AcDbMText
10
-98.041982
20
-40.986925
30
0
210
0
220
0
230
1
1
\W0.7553;PSDNN 3232P 19
40
3.5
41
0
44
1.084337
50
0
71
7
72
5
7
iso_b_vert
0
DIMENSION
5
107
100
AcDbEntity
8
SK2
62
256
6
ByLayer
370
13
48
1
60
0
100
AcDbDimension
2
DimnDraft3D1
10
-139.172182
20
-15.925
30
0
11
-139.172182
21
0.075
31
0
70
32
71
5
72
1
41
1
210
0
220
0
230
1
3
Standard
100
AcDbAlignedDimension
13
-131.009682
23
16.075
33
0
14
-131.009682
24
-15.925
34
0
50
90
100
AcDbRotatedDimension
1001
ACAD
1000
DSTYLE
1002
{
1070
    74
1070
     0
1070
   279
1070
     0
1070
   172
1070
     1
1070
   173
1070
     1
1070
   340
1005
F6
1070
   271
1070
     1
1070
   272
1070
     2
1070
    77
1070
     1
1070
    73
1070
     0
1070
   171
1070
     3
1070
   274
1070
     4
1070
   177
1070
   150
1070
   176
1070
     9
1070
   178
1070
    43
1070
    78
1070
     8
1070
    48
1040
-0.005
1070
    41
1041
3.175
1070
   147
1041
2.25
1070
    42
1041
1.5875
1070
    44
1041
3.175
1070
   140
1041
4.5
1070
   343
1005
108
1070
   344
1005
108
1002
}
0
DIMENSION
5
11D
100
AcDbEntity
8
2
62
256
6
ByLayer
370
13
48
1
60
0
100
AcDbDimension
2
DimnDraft3D2
10
58.427818
20
0.5682
30
0
11
58.427818
21
-7.6784
31
0
70
32
71
5
72
1
41
1
210
0
220
0
230
1
3
Standard
100
AcDbAlignedDimension
13
1.5875
23
-15.925
33
0
14
43.515318
24
0.5682
34
0
50
90
100
AcDbRotatedDimension
1001
ACAD
1000
DSTYLE
1002
{
1070
    74
1070
     0
1070
   279
1070
     0
1070
   172
1070
     1
1070
   173
1070
     1
1070
   340
1005
F6
1070
   271
1070
     1
1070
   272
1070
     2
1070
    77
1070
     1
1070
    73
1070
     0
1070
   171
1070
     3
1070
   274
1070
     4
1070
   177
1070
   150
1070
   176
1070
     9
1070
   178
1070
    43
1070
    78
1070
     8
1070
    48
1040
-0.005
1070
    41
1041
3.175
1070
   147
1041
2.25
1070
    42
1041
1.5875
1070
    44
1041
3.175
1070
   140
1041
4.5
1070
   343
1005
108
1070
   344
1005
108
1002
}
0
DIMENSION
5
12B
100
AcDbEntity
8
SK2
62
256
6
ByLayer
370
13
48
1
60
0
100
AcDbDimension
2
DimnDraft3D3
10
41.927818
20
33.575
30
0
11
-43.747182
21
33.575
31
0
70
32
71
5
72
1
41
1
210
0
220
0
230
1
3
Standard
100
AcDbAlignedDimension
13
-129.422182
23
17.6625
33
0
14
41.927818
24
2.1557
34
0
50
0
100
AcDbRotatedDimension
1001
ACAD
1000
DSTYLE
1002
{
1070
   279
1070
     0
1070
   172
1070
     1
1070
   173
1070
     1
1070
   340
1005
F6
1070
   271
1070
     1
1070
   272
1070
     2
1070
    77
1070
     1
1070
    73
1070
     0
1070
   171
1070
     3
1070
   274
1070
     4
1070
   177
1070
   150
1070
   176
1070
     9
1070
   178
1070
    43
1070
    78
1070
     8
1070
    48
1040
-0.005
1070
    41
1041
3.175
1070
   147
1041
2.25
1070
    42
1041
1.5875
1070
    44
1041
3.175
1070
   140
1041
4.5
1070
   343
1005
108
1070
   344
1005
108
1002
}
0
DIMENSION
5
139
100
AcDbEntity
8
2
62
256
6
ByLayer
370
13
48
1
60
0
100
AcDbDimension
2
DimnDraft3D4
10
22.579092
20
19.219474
30
0
11
56.045593
21
15.691896
31
0
70
34
71
5
72
1
41
1
210
0
220
0
230
1
3
Standard
100
AcDb2LineAngularDimension
13
41.927818
23
0.5682
33
0
14
41.927818
24
-1.81305
34
0
15
41.579092
25
0.219474
35
0
16
35.535377
26
15.303465
36
0
40
0
0
ENDSEC
0
SECTION
2
OBJECTS
0
DICTIONARY
5
1a3
330
0
100
AcDbDictionary
280
0
281
1
3
ACAD_GROUP
350
1a4
3
ACAD_MLINESTYLE
350
1a5
0
DICTIONARY
5
1a4
330
0
100
AcDbDictionary
280
0
281
1
0
DICTIONARY
5
1a5
330
0
100
AcDbDictionary
280
0
281
1
3
Standard
350
18
0
MLINESTYLE
5
18
330
1a5
100
AcDbMlineStyle
2
Standard
70
0
3

62
256
51
90
52
90
71
2
49
-0.5
62
256
6
ByLayer
49
0.5
62
256
6
ByLayer
0
RASTERVARIABLES
5
192
330

100
AcDbRasterVariables
90
0
70
1
71
1
72
1
0
ENDSEC
0
EOF
