0
SECTION
2
HEADER
9
$ACADVER
1
AC1015
9
$DWGCODEPAGE
3
ANSI_1252
9
$HANDSEED
5
1b5
9
$ANGBASE
50
0
9
$ANGDIR
70
0
9
$ATTMODE
70
1
9
$AUNITS
70
0
9
$AUPREC
70
0
9
$CECOLOR
62
256
9
$CELTSCALE
40
1
9
$CELTYPE
6
ByLayer
9
$CELWEIGHT
370
18
9
$CLAYER
8
0
9
$CMLJUST
70
0
9
$CMLSCALE
40
1
9
$CMLSTYLE
2
Standard
9
$DIMSTYLE
2
Standard
9
$TEXTSIZE
40
0.2
9
$TEXTSTYLE
7
Standard
9
$LUNITS
70
2
9
$LUPREC
70
4
9
$EXTNAMES
290
1
9
$INSUNITS
70
4
9
$LTSCALE
40
1
9
$LWDISPLAY
290
1
9
$PDMODE
70
0
9
$PDSIZE
40
0
9
$PLINEGEN
70
0
0
ENDSEC
0
SECTION
2
CLASSES
0
CLASS
1
RASTERVARIABLES
2
AcDbRasterVariables
3
ISM
90
0
280
0
281
0
0
ENDSEC
0
SECTION
2
TABLES
0
TABLE
2
VPORT
5
1ab
100
AcDbSymbolTable
0
VPORT
5
1
100
AcDbSymbolTableRecord
100
AcDbViewportTableRecord
2
*Active
70
0
10
0
20
0
11
1
21
1
12
-1
22
1
13
0
23
0
14
0.5
24
0.5
15
10
25
10
16
0
26
0
36
1
17
0
27
0
37
0
0
ENDTAB
0
TABLE
2
LTYPE
5
1ac
100
AcDbSymbolTable
0
LTYPE
5
14
100
AcDbSymbolTableRecord
100
AcDbLinetypeTableRecord
70
0
2
ByBlock
3

72
65
73
0
40
0
0
LTYPE
5
15
100
AcDbSymbolTableRecord
100
AcDbLinetypeTableRecord
70
0
2
ByLayer
3

72
65
73
0
40
0
0
LTYPE
5
16
100
AcDbSymbolTableRecord
100
AcDbLinetypeTableRecord
70
0
2
CONTINUOUS
3
Solid line
72
65
73
0
40
0
0
LTYPE
5
6A
100
AcDbSymbolTableRecord
100
AcDbLinetypeTableRecord
70
0
2
CENTER
3
____ _ ____ _ ____ _ ____
72
65
73
4
40
47.5
49
22
74
0
49
-8.5
74
0
49
8.5
74
0
49
-8.5
74
0
0
LTYPE
5
6B
100
AcDbSymbolTableRecord
100
AcDbLinetypeTableRecord
70
0
2
DASHED
3
__ __ __ __ __ __ __ __ __
72
65
73
2
40
25.72
49
12.86
74
0
49
-12.86
74
0
0
ENDTAB
0
TABLE
2
LAYER
5
1ad
100
AcDbSymbolTable
0
LAYER
5
10
100
AcDbSymbolTableRecord
100
AcDbLayerTableRecord
2
0
70
0
62
7
6
CONTINUOUS
290
1
370
-3
390
0
0
LAYER
5
6D
100
AcDbSymbolTableRecord
100
AcDbLayerTableRecord
2
80
70
0
62
-6
6
CONTINUOUS
290
1
370
-3
390
0
0
LAYER
5
6F
100
AcDbSymbolTableRecord
100
AcDbLayerTableRecord
2
81
70
0
62
-3
6
CONTINUOUS
290
1
370
-3
390
0
0
LAYER
5
71
100
AcDbSymbolTableRecord
100
AcDbLayerTableRecord
2
1
70
0
62
4
6
CONTINUOUS
290
1
370
-3
390
0
0
LAYER
5
116
100
AcDbSymbolTableRecord
100
AcDbLayerTableRecord
2
2
70
0
62
7
6
CONTINUOUS
290
1
370
-3
390
0
0
LAYER
5
198
100
AcDbSymbolTableRecord
100
AcDbLayerTableRecord
2
SK1
70
0
62
4
6
CONTINUOUS
290
1
370
-3
390
0
0
LAYER
5
199
100
AcDbSymbolTableRecord
100
AcDbLayerTableRecord
2
SK6
70
0
62
5
6
CONTINUOUS
290
1
370
-3
390
0
0
LAYER
5
19a
100
AcDbSymbolTableRecord
100
AcDbLayerTableRecord
2
SK2
70
0
62
7
6
CONTINUOUS
290
1
370
-3
390
0
0
ENDTAB
0
TABLE
2
STYLE
5
1ae
100
AcDbSymbolTable
0
STYLE
5
11
100
AcDbSymbolTableRecord
100
AcDbTextStyleTableRecord
2
Standard
3
txt
70
0
71
0
40
0
41
1
42
0
50
0
0
STYLE
5
FB
100
AcDbSymbolTableRecord
100
AcDbTextStyleTableRecord
2
iso_b_vert
3
simplex.shx
70
0
71
0
40
0
41
1
42
0
50
0
0
STYLE
5
FC
100
AcDbSymbolTableRecord
100
AcDbTextStyleTableRecord
2
DWGDirectTextStyle
3
simplex
70
0
71
0
40
0
41
1
42
0
50
0
0
ENDTAB
0
TABLE
2
DIMSTYLE
5
1af
100
AcDbSymbolTable
100
AcDbDimStyleTable
0
DIMSTYLE
105
27
100
AcDbSymbolTableRecord
100
AcDbDimStyleTableRecord
2
Standard
70
0
3
<>
41
0.18
42
0.0625
44
0.18
140
0.18
147
0.09
73
0
74
0
77
1
271
2
275
0
278
52
280
0
340
11
0
ENDTAB
0
TABLE
2
VIEW
5
1b0
100
AcDbSymbolTable
0
ENDTAB
0
TABLE
2
UCS
5
1b1
100
AcDbSymbolTable
0
ENDTAB
0
TABLE
2
APPID
5
1b2
100
AcDbSymbolTable
0
APPID
5
12
100
AcDbSymbolTableRecord
100
AcDbRegAppTableRecord
2
ACAD
70
0
0
ENDTAB
0
TABLE
2
BLOCK_RECORD
5
1b3
100
AcDbSymbolTable
0
BLOCK_RECORD
5
1F
100
AcDbSymbolTableRecord
100
AcDbBlockTableRecord
2
*Model_Space
340
0
70
0
0
BLOCK_RECORD
5
1B
100
AcDbSymbolTableRecord
100
AcDbBlockTableRecord
2
*Paper_Space
340
0
70
0
0
BLOCK_RECORD
5
23
100
AcDbSymbolTableRecord
100
AcDbBlockTableRecord
2
*Paper_Space0
340
0
70
0
0
BLOCK_RECORD
5
FE
100
AcDbSymbolTableRecord
100
AcDbBlockTableRecord
2
DimnDraft3D1
340
0
70
0
0
BLOCK_RECORD
5
10D
100
AcDbSymbolTableRecord
100
AcDbBlockTableRecord
2
_CLOSED
340
0
70
0
0
BLOCK_RECORD
5
114
100
AcDbSymbolTableRecord
100
AcDbBlockTableRecord
2
DimnDraft3D2
340
0
70
0
0
BLOCK_RECORD
5
123
100
AcDbSymbolTableRecord
100
AcDbBlockTableRecord
2
DimnDraft3D3
340
0
70
0
0
BLOCK_RECORD
5
131
100
AcDbSymbolTableRecord
100
AcDbBlockTableRecord
2
DimnDraft3D4
340
0
70
0
0
ENDTAB
0
ENDSEC
0
SECTION
2
BLOCKS
0
BLOCK
5
20
100
AcDbEntity
8
0
100
AcDbBlockBegin
2
*Model_Space
70
0
10
0
20
0
30
0
3
*Model_Space
0
ENDBLK
5
21
100
AcDbEntity
8
0
100
AcDbBlockEnd
0
BLOCK
5
1C
100
AcDbEntity
8
0
100
AcDbBlockBegin
2
*Paper_Space
70
0
10
0
20
0
30
0
3
*Paper_Space
0
ENDBLK
5
1D
100
AcDbEntity
8
0
100
AcDbBlockEnd
0
BLOCK
5
24
100
AcDbEntity
8
0
100
AcDbBlockBegin
2
*Paper_Space0
70
0
10
0
20
0
30
0
3
*Paper_Space0
0
ENDBLK
5
25
100
AcDbEntity
8
0
100
AcDbBlockEnd
0
BLOCK
5
10A
100
AcDbEntity
8
0
100
AcDbBlockBegin
2
DimnDraft3D1
70
0
10
0
20
0
30
0
3
DimnDraft3D1
0
MTEXT
5
FF
100
AcDbEntity
8
SK2
62
256
6
ByLayer
370
13
48
1
60
0
100
AcDbMText
10
-108.747443
20
-1.500658
30
0
210
0
220
0
230
1
1
\W0.6740;20
40
4.5
41
0
44
1.084337
50
90
71
7
72
5
7
iso_b_vert
0
LINE
5
101
100
AcDbEntity
8
SK2
62
256
6
ByLayer
370
13
48
1
60
0
100
AcDbLine
10
-99.459943
20
10.0625
30
0
11
-110.797443
21
10.0625
31
0
39
0
210
0
220
0
230
1
0
LINE
5
102
100
AcDbEntity
8
SK2
62
256
6
ByLayer
370
13
48
1
60
0
100
AcDbLine
10
-99.459943
20
-9.9375
30
0
11
-110.797443
21
-9.9375
31
0
39
0
210
0
220
0
230
1
0
LINE
5
103
100
AcDbEntity
8
SK2
62
256
6
ByLayer
370
13
48
1
60
0
100
AcDbLine
10
-107.622443
20
10.0625
30
0
11
-107.622443
21
-9.9375
31
0
39
0
210
0
220
0
230
1
0
LINE
5
104
100
AcDbEntity
8
SK2
62
256
6
ByLayer
370
13
48
1
60
0
100
AcDbLine
10
-107.622443
20
10.0625
30
0
11
-106.771704
21
6.887503
31
0
39
0
210
0
220
0
230
1
0
LINE
5
105
100
AcDbEntity
8
SK2
62
256
6
ByLayer
370
13
48
1
60
0
100
AcDbLine
10
-107.622443
20
10.0625
30
0
11
-108.473181
21
6.887497
31
0
39
0
210
0
220
0
230
1
0
LINE
5
106
100
AcDbEntity
8
SK2
62
256
6
ByLayer
370
13
48
1
60
0
100
AcDbLine
10
-106.771704
20
6.887503
30
0
11
-108.473181
21
6.887497
31
0
39
0
210
0
220
0
230
1
0
LINE
5
107
100
AcDbEntity
8
SK2
62
256
6
ByLayer
370
13
48
1
60
0
100
AcDbLine
10
-107.622443
20
-9.9375
30
0
11
-108.473181
21
-6.762503
31
0
39
0
210
0
220
0
230
1
0
LINE
5
108
100
AcDbEntity
8
SK2
62
256
6
ByLayer
370
13
48
1
60
0
100
AcDbLine
10
-107.622443
20
-9.9375
30
0
11
-106.771704
21
-6.762497
31
0
39
0
210
0
220
0
230
1
0
LINE
5
109
100
AcDbEntity
8
SK2
62
256
6
ByLayer
370
13
48
1
60
0
100
AcDbLine
10
-108.473181
20
-6.762503
30
0
11
-106.771704
21
-6.762497
31
0
39
0
210
0
220
0
230
1
0
ENDBLK
5
10B
100
AcDbEntity
8
0
100
AcDbBlockEnd
0
BLOCK
5
10E
100
AcDbEntity
8
0
100
AcDbBlockBegin
2
_CLOSED
70
0
10
0
20
0
30
0
3
_CLOSED
0
LINE
5
110
100
AcDbEntity
8
0
62
256
6
ByLayer
370
-2
48
1
60
0
100
AcDbLine
10
-1
20
0.166667
30
0
11
0
21
0
31
0
39
0
210
0
220
0
230
1
0
LINE
5
111
100
AcDbEntity
8
0
62
256
6
ByLayer
370
-2
48
1
60
0
100
AcDbLine
10
0
20
0
30
0
11
-1
21
-0.166667
31
0
39
0
210
0
220
0
230
1
0
LINE
5
112
100
AcDbEntity
8
0
62
256
6
ByLayer
370
-2
48
1
60
0
100
AcDbLine
10
-1
20
0.166667
30
0
11
-1
21
-0.166667
31
0
39
0
210
0
220
0
230
1
0
LINE
5
113
100
AcDbEntity
8
0
62
256
6
ByLayer
370
-2
48
1
60
0
100
AcDbLine
10
0
20
0
30
0
11
-1
21
0
31
0
39
0
210
0
220
0
230
1
0
ENDBLK
5
10F
100
AcDbEntity
8
0
100
AcDbBlockEnd
0
BLOCK
5
120
100
AcDbEntity
8
0
100
AcDbBlockBegin
2
DimnDraft3D2
70
0
10
0
20
0
30
0
3
DimnDraft3D2
0
MTEXT
5
115
100
AcDbEntity
8
2
62
256
6
ByLayer
370
13
48
1
60
0
100
AcDbMText
10
43.852557
20
-2.263158
30
0
210
0
220
0
230
1
1
\W0.5321;17
40
4.5
41
0
44
1.084337
50
90
71
7
72
5
7
iso_b_vert
0
LINE
5
117
100
AcDbEntity
8
2
62
256
6
ByLayer
370
13
48
1
60
0
100
AcDbLine
10
1.5875
20
-9.9375
30
0
11
48.152557
21
-9.9375
31
0
39
0
210
0
220
0
230
1
0
LINE
5
118
100
AcDbEntity
8
2
62
256
6
ByLayer
370
13
48
1
60
0
100
AcDbLine
10
30.065057
20
7.4125
30
0
11
48.152557
21
7.4125
31
0
39
0
210
0
220
0
230
1
0
LINE
5
119
100
AcDbEntity
8
2
62
256
6
ByLayer
370
13
48
1
60
0
100
AcDbLine
10
44.977557
20
-9.9375
30
0
11
44.977557
21
7.4125
31
0
39
0
210
0
220
0
230
1
0
LINE
5
11A
100
AcDbEntity
8
2
62
256
6
ByLayer
370
13
48
1
60
0
100
AcDbLine
10
44.977557
20
-9.9375
30
0
11
44.126819
21
-6.762503
31
0
39
0
210
0
220
0
230
1
0
LINE
5
11B
100
AcDbEntity
8
2
62
256
6
ByLayer
370
13
48
1
60
0
100
AcDbLine
10
44.977557
20
-9.9375
30
0
11
45.828296
21
-6.762497
31
0
39
0
210
0
220
0
230
1
0
LINE
5
11C
100
AcDbEntity
8
2
62
256
6
ByLayer
370
13
48
1
60
0
100
AcDbLine
10
44.126819
20
-6.762503
30
0
11
45.828296
21
-6.762497
31
0
39
0
210
0
220
0
230
1
0
LINE
5
11D
100
AcDbEntity
8
2
62
256
6
ByLayer
370
13
48
1
60
0
100
AcDbLine
10
44.977557
20
7.4125
30
0
11
45.828296
21
4.237503
31
0
39
0
210
0
220
0
230
1
0
LINE
5
11E
100
AcDbEntity
8
2
62
256
6
ByLayer
370
13
48
1
60
0
100
AcDbLine
10
44.977557
20
7.4125
30
0
11
44.126819
21
4.237497
31
0
39
0
210
0
220
0
230
1
0
LINE
5
11F
100
AcDbEntity
8
2
62
256
6
ByLayer
370
13
48
1
60
0
100
AcDbLine
10
45.828296
20
4.237503
30
0
11
44.126819
21
4.237497
31
0
39
0
210
0
220
0
230
1
0
ENDBLK
5
121
100
AcDbEntity
8
0
100
AcDbBlockEnd
0
BLOCK
5
12E
100
AcDbEntity
8
0
100
AcDbBlockBegin
2
DimnDraft3D3
70
0
10
0
20
0
30
0
3
DimnDraft3D3
0
MTEXT
5
124
100
AcDbEntity
8
SK2
62
256
6
ByLayer
370
13
48
1
60
0
100
AcDbMText
10
-37.379679
20
29.547357
30
0
210
0
220
0
230
1
1
\W0.6217;125
40
4.5
41
0
44
1.084337
50
0
71
7
72
5
7
iso_b_vert
0
LINE
5
125
100
AcDbEntity
8
SK2
62
256
6
ByLayer
370
13
48
1
60
0
100
AcDbLine
10
-97.872443
20
11.65
30
0
11
-97.872443
21
31.597357
31
0
39
0
210
0
220
0
230
1
0
LINE
5
126
100
AcDbEntity
8
SK2
62
256
6
ByLayer
370
13
48
1
60
0
100
AcDbLine
10
28.477557
20
9
30
0
11
28.477557
21
31.597357
31
0
39
0
210
0
220
0
230
1
0
LINE
5
127
100
AcDbEntity
8
SK2
62
256
6
ByLayer
370
13
48
1
60
0
100
AcDbLine
10
-97.872443
20
28.422357
30
0
11
28.477557
21
28.422357
31
0
39
0
210
0
220
0
230
1
0
LINE
5
128
100
AcDbEntity
8
SK2
62
256
6
ByLayer
370
13
48
1
60
0
100
AcDbLine
10
-97.872443
20
28.422357
30
0
11
-94.697446
21
29.273096
31
0
39
0
210
0
220
0
230
1
0
LINE
5
129
100
AcDbEntity
8
SK2
62
256
6
ByLayer
370
13
48
1
60
0
100
AcDbLine
10
-97.872443
20
28.422357
30
0
11
-94.697439
21
27.571619
31
0
39
0
210
0
220
0
230
1
0
LINE
5
12A
100
AcDbEntity
8
SK2
62
256
6
ByLayer
370
13
48
1
60
0
100
AcDbLine
10
-94.697446
20
29.273096
30
0
11
-94.697439
21
27.571619
31
0
39
0
210
0
220
0
230
1
0
LINE
5
12B
100
AcDbEntity
8
SK2
62
256
6
ByLayer
370
13
48
1
60
0
100
AcDbLine
10
28.477557
20
28.422357
30
0
11
25.302561
21
27.571619
31
0
39
0
210
0
220
0
230
1
0
LINE
5
12C
100
AcDbEntity
8
SK2
62
256
6
ByLayer
370
13
48
1
60
0
100
AcDbLine
10
28.477557
20
28.422357
30
0
11
25.302554
21
29.273096
31
0
39
0
210
0
220
0
230
1
0
LINE
5
12D
100
AcDbEntity
8
SK2
62
256
6
ByLayer
370
13
48
1
60
0
100
AcDbLine
10
25.302561
20
27.571619
30
0
11
25.302554
21
29.273096
31
0
39
0
210
0
220
0
230
1
0
ENDBLK
5
12F
100
AcDbEntity
8
0
100
AcDbBlockEnd
0
BLOCK
5
13C
100
AcDbEntity
8
0
100
AcDbBlockBegin
2
DimnDraft3D4
70
0
10
0
20
0
30
0
3
DimnDraft3D4
0
MTEXT
5
132
100
AcDbEntity
8
2
62
256
6
ByLayer
370
13
48
1
60
0
100
AcDbMText
10
14.921625
20
15.911927
30
0
210
0
220
0
230
1
1
\W0.8292;75%%d0'
40
4.5
41
0
44
1.084337
50
37.5
71
7
72
5
7
iso_b_vert
0
LINE
5
133
100
AcDbEntity
8
2
62
256
6
ByLayer
370
13
48
1
60
0
100
AcDbLine
10
28.477557
20
9
30
0
11
28.477557
21
24.419713
31
0
39
0
210
0
220
0
230
1
0
LINE
5
134
100
AcDbEntity
8
2
62
256
6
ByLayer
370
13
48
1
60
0
100
AcDbLine
10
14.355838
20
11.011719
30
0
11
11.87146
21
11.677406
31
0
39
0
210
0
220
0
230
1
0
ARC
5
135
100
AcDbEntity
8
2
62
256
6
ByLayer
370
13
48
1
60
0
100
AcDbCircle
39
0
10
28.477557
20
7.227816
30
0
40
14.0168972093174
210
0
220
0
230
1
100
AcDbArc
50
90
51
165
0
LINE
5
136
100
AcDbEntity
8
2
62
256
6
ByLayer
370
13
48
1
60
0
100
AcDbLine
10
28.477557
20
21.244713
30
0
11
25.355553
21
20.21639
31
0
39
0
210
0
220
0
230
1
0
LINE
5
137
100
AcDbEntity
8
2
62
256
6
ByLayer
370
13
48
1
60
0
100
AcDbLine
10
28.477557
20
21.244713
30
0
11
25.259655
21
21.915163
31
0
39
0
210
0
220
0
230
1
0
LINE
5
138
100
AcDbEntity
8
2
62
256
6
ByLayer
370
13
48
1
60
0
100
AcDbLine
10
25.355553
20
20.21639
30
0
11
25.259655
21
21.915163
31
0
39
0
210
0
220
0
230
1
0
LINE
5
139
100
AcDbEntity
8
2
62
256
6
ByLayer
370
13
48
1
60
0
100
AcDbLine
10
14.938274
20
10.855656
30
0
11
15.123522
21
14.13743
31
0
39
0
210
0
220
0
230
1
0
LINE
5
13A
100
AcDbEntity
8
2
62
256
6
ByLayer
370
13
48
1
60
0
100
AcDbLine
10
14.938274
20
10.855656
30
0
11
16.739594
21
13.605137
31
0
39
0
210
0
220
0
230
1
0
LINE
5
13B
100
AcDbEntity
8
2
62
256
6
ByLayer
370
13
48
1
60
0
100
AcDbLine
10
15.123522
20
14.13743
30
0
11
16.739594
21
13.605137
31
0
39
0
210
0
220
0
230
1
0
ENDBLK
5
13D
100
AcDbEntity
8
0
100
AcDbBlockEnd
0
ENDSEC
0
SECTION
2
ENTITIES
0
ARC
5
B0
100
AcDbEntity
8
1
62
256
6
ByLayer
370
18
48
1
60
0
100
AcDbCircle
39
0
10
0
20
11.5375
30
0
40
1.60000000000035
210
0
220
0
230
-1
100
AcDbArc
50
202.610475
51
270
0
ELLIPSE
5
B1
100
AcDbEntity
8
1
62
256
6
ByLayer
370
18
48
1
60
0
100
AcDbEllipse
10
14.706735
20
-3.481587
30
0
11
1.03459006898388
21
-1.79196256448641
31
0
210
0
220
0
230
1
40
0.989133
41
0.347553311621277
42
0.790861371919014
0
ELLIPSE
5
B2
100
AcDbEntity
8
1
62
256
6
ByLayer
370
18
48
1
60
0
100
AcDbEllipse
10
14.687414
20
-3.492742
30
0
11
-0.959595146391303
21
1.66206754824636
31
0
210
0
220
0
230
1
40
0.989133
41
-2.90787316013677
42
-2.35073128167078
0
ELLIPSE
5
B3
100
AcDbEntity
8
1
62
256
6
ByLayer
370
18
48
1
60
0
100
AcDbEllipse
10
16.688268
20
2.341573
30
0
11
-1.24999999999993
21
2.16506350946114
31
0
210
0
220
0
230
1
40
0.989133
41
0.790861371919021
42
1.13902739319199
0
ELLIPSE
5
B4
100
AcDbEntity
8
1
62
256
6
ByLayer
370
18
48
1
60
0
100
AcDbEllipse
10
0
20
-9.944481
30
0
11
1.59999999999974
21
1.61702248813152E-15
31
0
210
0
220
0
230
-1
40
0.004363
41
-1.5707963267949
42
-0.261799387798696
0
ELLIPSE
5
B5
100
AcDbEntity
8
1
62
256
6
ByLayer
370
18
48
1
60
0
100
AcDbEllipse
10
15.124379
20
-2.493706
30
0
11
1.01683724761305
21
-1.76121377589443
31
0
210
0
220
0
230
1
40
0.989133
41
-2.35073128167078
42
-0.989968444784278
0
ELLIPSE
5
B6
100
AcDbEntity
8
1
62
256
6
ByLayer
370
18
48
1
60
0
100
AcDbEllipse
10
16.550153
20
-3.975717
30
0
11
0.145304387133117
21
-0.0372375493268438
31
0
210
0
220
0
230
1
40
0.103393
41
-1.67608242641264
42
-0.0936499894949114
0
ELLIPSE
5
B7
100
AcDbEntity
8
1
62
256
6
ByLayer
370
18
48
1
60
0
100
AcDbEllipse
10
17.378194
20
5.033727
30
0
11
-1.24999999999993
21
2.16506350946114
31
0
210
0
220
0
230
1
40
0.989133
41
0.44269535064605
42
0.790861371919016
0
ELLIPSE
5
B8
100
AcDbEntity
8
1
62
256
6
ByLayer
370
18
48
1
60
0
100
AcDbEllipse
10
15.642367
20
-2.9414
30
0
11
0.991835589325753
21
-1.71790963346736
31
0
210
0
220
0
230
1
40
0.989133
41
-1.33200122138636
42
0.790861371919019
0
ELLIPSE
5
B9
100
AcDbEntity
8
1
62
256
6
ByLayer
370
18
48
1
60
0
100
AcDbEllipse
10
17.083123
20
-3.175028
30
0
11
0.0386464722202695
21
0.144936782261067
31
0
210
0
220
0
230
-1
40
0.093018
41
3.02597143680965
42
-1.67478201524386
0
ELLIPSE
5
BA
100
AcDbEntity
8
1
62
256
6
ByLayer
370
18
48
1
60
0
100
AcDbEllipse
10
7.854209
20
1.00489
30
0
11
0.777499999999956
21
-1.34666950288483
31
0
210
0
220
0
230
1
40
0.989133
41
0.23068431482855
42
1.05191600815024
0
ELLIPSE
5
BB
100
AcDbEntity
8
1
62
256
6
ByLayer
370
18
48
1
60
0
100
AcDbEllipse
10
7.854209
20
1.00489
30
0
11
0.777499999999956
21
-1.34666950288483
31
0
210
0
220
0
230
1
40
0.989133
41
1.05191600815024
42
3.00706680556602
0
ELLIPSE
5
BC
100
AcDbEntity
8
1
62
256
6
ByLayer
370
18
48
1
60
0
100
AcDbEllipse
10
7.981536
20
1.078402
30
0
11
-0.777499999999956
21
1.34666950288483
31
0
210
0
220
0
230
1
40
0.989133
41
-0.174433816832025
42
2.0784261775819E-06
0
ELLIPSE
5
BD
100
AcDbEntity
8
1
62
256
6
ByLayer
370
18
48
1
60
0
100
AcDbEllipse
10
7.981536
20
1.078402
30
0
11
-0.777499999999956
21
1.34666950288483
31
0
210
0
220
0
230
1
40
0.989133
41
-2.95969702568002
42
-2.71188632443541
0
ELLIPSE
5
BE
100
AcDbEntity
8
1
62
256
6
ByLayer
370
18
48
1
60
0
100
AcDbEllipse
10
13.664927
20
-1.390517
30
0
11
0.396874999999977
21
-0.687407664253911
31
0
210
0
220
0
230
1
40
0.989133
41
-1.22123090348813
42
-0.779934954875889
0
ELLIPSE
5
BF
100
AcDbEntity
8
1
62
256
6
ByLayer
370
18
48
1
60
0
100
AcDbEllipse
10
20.3744
20
2.532768
30
0
11
-1.28899999999993
21
2.23261349095633
31
0
210
0
220
0
230
1
40
0.989133
41
-3.00378208974745
42
-2.39529468853901
0
ELLIPSE
5
C0
100
AcDbEntity
8
1
62
256
6
ByLayer
370
18
48
1
60
0
100
AcDbEllipse
10
20.3744
20
2.532768
30
0
11
-1.28899999999993
21
2.23261349095633
31
0
210
0
220
0
230
1
40
0.989133
41
-1.07926206927453
42
-0.137766149736038
0
ELLIPSE
5
C1
100
AcDbEntity
8
1
62
256
6
ByLayer
370
18
48
1
60
0
100
AcDbEllipse
10
16.408824
20
9.316425
30
0
11
0.396874999999977
21
-0.687407664253911
31
0
210
0
220
0
230
1
40
0.989133
41
-3.14157777036923
42
-2.94724044213631
0
ELLIPSE
5
C2
100
AcDbEntity
8
1
62
256
6
ByLayer
370
18
48
1
60
0
100
AcDbEllipse
10
24.339976
20
-4.250888
30
0
11
0.396874999999977
21
-0.687407664253911
31
0
210
0
220
0
230
1
40
0.989133
41
-0.1758405810589
42
1.4883220540922E-05
0
ELLIPSE
5
C3
100
AcDbEntity
8
1
62
256
6
ByLayer
370
18
48
1
60
0
100
AcDbEllipse
10
20.203779
20
3.020207
30
0
11
-1.29999999999993
21
2.25166604983958
31
0
210
0
220
0
230
1
40
0.989133
41
2.6297447273383
42
3.14158931965434
0
ELLIPSE
5
C4
100
AcDbEntity
8
1
62
256
6
ByLayer
370
18
48
1
60
0
100
AcDbEllipse
10
20.347791
20
1.93146
30
0
11
-1.29999999999993
21
2.25166604983958
31
0
210
0
220
0
230
1
40
0.989133
41
-1.08362936427922E-05
42
0.0955385744644646
0
ELLIPSE
5
C5
100
AcDbEntity
8
1
62
256
6
ByLayer
370
18
48
1
60
0
100
AcDbEllipse
10
20.538658
20
2.471725
30
0
11
1.17499999999993
21
-2.03515969889347
31
0
210
0
220
0
230
1
40
0.989133
41
-3.14155624612988
42
-2.65327362155085
0
ELLIPSE
5
C6
100
AcDbEntity
8
1
62
256
6
ByLayer
370
18
48
1
60
0
100
AcDbEllipse
10
19.409962
20
1.97595
30
0
11
1.42499999999992
21
-2.4681724007857
31
0
210
0
220
0
230
1
40
0.989133
41
2.4333940318689
42
2.66020516518001
0
ELLIPSE
5
C7
100
AcDbEntity
8
1
62
256
6
ByLayer
370
18
48
1
60
0
100
AcDbEllipse
10
19.409962
20
1.97595
30
0
11
1.42499999999992
21
-2.4681724007857
31
0
210
0
220
0
230
1
40
0.989133
41
0.481358884968474
42
0.705828036323727
0
ELLIPSE
5
C8
100
AcDbEntity
8
1
62
256
6
ByLayer
370
18
48
1
60
0
100
AcDbEllipse
10
19.642333
20
2.11011
30
0
11
-1.38749999999992
21
2.40322049550186
31
0
210
0
220
0
230
1
40
0.989133
41
-2.72661368919516
42
-2.41948634206011
0
ELLIPSE
5
C9
100
AcDbEntity
8
1
62
256
6
ByLayer
370
18
48
1
60
0
100
AcDbEllipse
10
19.642333
20
2.11011
30
0
11
-1.38749999999992
21
2.40322049550186
31
0
210
0
220
0
230
1
40
0.989133
41
-0.777731199135659
42
-0.414951029339179
0
ELLIPSE
5
CA
100
AcDbEntity
8
1
62
256
6
ByLayer
370
18
48
1
60
0
100
AcDbEllipse
10
20.764018
20
3.343661
30
0
11
1.29999999999993
21
-2.25166604983958
31
0
210
0
220
0
230
1
40
0.989133
41
-1.39814854596784
42
0.606223507093594
0
ELLIPSE
5
CB
100
AcDbEntity
8
1
62
256
6
ByLayer
370
18
48
1
60
0
100
AcDbEllipse
10
20.90803
20
2.254914
30
0
11
1.29999999999993
21
-2.25166604983958
31
0
210
0
220
0
230
1
40
0.989133
41
1.74344410762195
42
-2.5353691464962
0
ELLIPSE
5
CC
100
AcDbEntity
8
1
62
256
6
ByLayer
370
18
48
1
60
0
100
AcDbEllipse
10
20.836024
20
2.799287
30
0
11
1.17499999999993
21
-2.03515969889347
31
0
210
0
220
0
230
1
40
0.989133
41
0.804740817209384
42
1.54492679750616
0
ELLIPSE
5
CD
100
AcDbEntity
8
1
62
256
6
ByLayer
370
18
48
1
60
0
100
AcDbEllipse
10
20.836024
20
2.799287
30
0
11
1.17499999999993
21
-2.03515969889347
31
0
210
0
220
0
230
1
40
0.989133
41
-2.33685183638041
42
-1.59666585608364
0
ELLIPSE
5
CE
100
AcDbEntity
8
1
62
256
6
ByLayer
370
18
48
1
60
0
100
AcDbEllipse
10
20.899687
20
2.836043
30
0
11
-0.924999999999948
21
1.60214699700124
31
0
210
0
220
0
230
1
40
0.989133
41
-2.31007262587397
42
-1.62344506659008
0
ELLIPSE
5
CF
100
AcDbEntity
8
1
62
256
6
ByLayer
370
18
48
1
60
0
100
AcDbEllipse
10
20.899687
20
2.836043
30
0
11
-0.924999999999948
21
1.60214699700124
31
0
210
0
220
0
230
1
40
0.989133
41
0.831520027715831
42
1.51814758699972
0
ELLIPSE
5
D0
100
AcDbEntity
8
1
62
256
6
ByLayer
370
18
48
1
60
0
100
AcDbEllipse
10
20.971693
20
2.29167
30
0
11
-1.04999999999994
21
1.81865334794735
31
0
210
0
220
0
230
1
40
0.989133
41
-1.37425290970162
42
0.582327870827371
0
ELLIPSE
5
D1
100
AcDbEntity
8
1
62
256
6
ByLayer
370
18
48
1
60
0
100
AcDbEllipse
10
20.827681
20
3.380417
30
0
11
-1.04999999999994
21
1.81865334794735
31
0
210
0
220
0
230
1
40
0.989133
41
1.76733974388817
42
-2.55926478276242
0
ELLIPSE
5
D2
100
AcDbEntity
8
1
62
256
6
ByLayer
370
18
48
1
60
0
100
AcDbEllipse
10
8.463468
20
1.356646
30
0
11
-0.777499999999956
21
1.34666950288483
31
0
210
0
220
0
230
1
40
0.989133
41
-1.66468877323882
42
-1.22163136802863
0
ELLIPSE
5
D3
100
AcDbEntity
8
1
62
256
6
ByLayer
370
18
48
1
60
0
100
AcDbEllipse
10
7.981536
20
1.078402
30
0
11
-0.777499999999956
21
1.34666950288483
31
0
210
0
220
0
230
1
40
0.989133
41
-1.22163136802863
42
-0.617491222042245
0
ELLIPSE
5
D4
100
AcDbEntity
8
1
62
256
6
ByLayer
370
18
48
1
60
0
100
AcDbEllipse
10
8.463468
20
1.356646
30
0
11
-0.777499999999956
21
1.34666950288483
31
0
210
0
220
0
230
1
40
0.989133
41
-0.617491222042245
42
-0.174433816832036
0
ELLIPSE
5
D5
100
AcDbEntity
8
1
62
256
6
ByLayer
370
18
48
1
60
0
100
AcDbEllipse
10
8.463468
20
1.356646
30
0
11
-0.777499999999956
21
1.34666950288483
31
0
210
0
220
0
230
1
40
0.989133
41
-2.7118863244354
42
-2.26882891922524
0
ELLIPSE
5
D6
100
AcDbEntity
8
1
62
256
6
ByLayer
370
18
48
1
60
0
100
AcDbEllipse
10
8.463468
20
1.356646
30
0
11
-0.777499999999956
21
1.34666950288483
31
0
210
0
220
0
230
1
40
0.989133
41
1.47690388035097
42
1.91996128556117
0
ELLIPSE
5
D7
100
AcDbEntity
8
1
62
256
6
ByLayer
370
18
48
1
60
0
100
AcDbEllipse
10
8.490844
20
1.372451
30
0
11
1.61749999999991
21
-2.80159218124271
31
0
210
0
220
0
230
1
40
0.989133
41
0
42
6.28318530717959
0
ELLIPSE
5
D8
100
AcDbEntity
8
1
62
256
6
ByLayer
370
18
48
1
60
0
100
AcDbEllipse
10
8.490844
20
1.372451
30
0
11
0.963695461813599
21
-1.66916950288483
31
0
210
0
220
0
230
1
40
0.989133
41
0
42
6.28318530717959
0
ELLIPSE
5
D9
100
AcDbEntity
8
1
62
256
6
ByLayer
370
18
48
1
60
0
100
AcDbEllipse
10
7.981536
20
1.078402
30
0
11
-0.777499999999956
21
1.34666950288483
31
0
210
0
220
0
230
1
40
0.989133
41
-2.26882891922523
42
-1.66468877323882
0
ELLIPSE
5
DA
100
AcDbEntity
8
1
62
256
6
ByLayer
370
18
48
1
60
0
100
AcDbEllipse
10
8.393438
20
1.316214
30
0
11
1.99999999999989
21
-3.46410161513782
31
0
210
0
220
0
230
1
40
0.989133
41
0
42
6.28318530717959
0
ELLIPSE
5
DB
100
AcDbEntity
8
1
62
256
6
ByLayer
370
18
48
1
60
0
100
AcDbEllipse
10
8.463468
20
1.356646
30
0
11
-0.777499999999956
21
1.34666950288483
31
0
210
0
220
0
230
1
40
0.989133
41
0.429706329154372
42
0.872763734364571
0
ELLIPSE
5
DC
100
AcDbEntity
8
1
62
256
6
ByLayer
370
18
48
1
60
0
100
AcDbEllipse
10
8.463468
20
1.356646
30
0
11
-0.777499999999956
21
1.34666950288483
31
0
210
0
220
0
230
1
40
0.989133
41
2.52410143154758
42
2.96715883675776
0
ELLIPSE
5
DD
100
AcDbEntity
8
1
62
256
6
ByLayer
370
18
48
1
60
0
100
AcDbEllipse
10
27.690268
20
6.806156
30
0
11
-0.396874999999978
21
0.687407664253911
31
0
210
0
220
0
230
1
40
0.989133
41
-2.35073128167078
42
-0.779934954875893
0
ELLIPSE
5
DE
100
AcDbEntity
8
1
62
256
6
ByLayer
370
18
48
1
60
0
100
AcDbEllipse
10
17.015218
20
9.666527
30
0
11
-0.396874999999978
21
0.687407664253911
31
0
210
0
220
0
230
1
40
0.989133
41
-0.779934954875855
42
0.79086137191904
0
ELLIPSE
5
DF
100
AcDbEntity
8
1
62
256
6
ByLayer
370
18
48
1
60
0
100
AcDbEllipse
10
14.271321
20
-1.040415
30
0
11
-0.396874999999978
21
0.687407664253911
31
0
210
0
220
0
230
1
40
0.989133
41
0.790861371919012
42
2.36165769871388
0
ELLIPSE
5
E0
100
AcDbEntity
8
1
62
256
6
ByLayer
370
18
48
1
60
0
100
AcDbEllipse
10
20.980795
20
2.882871
30
0
11
-1.28899999999993
21
2.23261349095633
31
0
210
0
220
0
230
1
40
0.989133
41
0
42
6.28318530717959
0
ELLIPSE
5
E1
100
AcDbEntity
8
1
62
256
6
ByLayer
370
18
48
1
60
0
100
AcDbEllipse
10
24.946371
20
-3.900786
30
0
11
-0.396874999999978
21
0.687407664253911
31
0
210
0
220
0
230
1
40
0.989133
41
2.36165769871389
42
-2.35073128167078
0
POINT
5
6C
100
AcDbEntity
8
80
62
256
6
ByLayer
370
18
48
1
60
0
100
AcDbPoint
10
0
20
0
30
0
39
0
210
0
220
0
230
1
50
360
0
POINT
5
6E
100
AcDbEntity
8
81
62
256
6
ByLayer
370
18
48
1
60
0
100
AcDbPoint
10
27.127557
20
7.0625
30
0
39
0
210
0
220
0
230
1
50
360
0
POINT
5
70
100
AcDbEntity
8
1
62
256
6
ByLayer
370
18
48
1
60
0
100
AcDbPoint
10
-97.872443
20
-9.9375
30
0
39
0
210
0
220
0
230
1
50
360
0
SPLINE
5
E2
100
AcDbEntity
8
1
62
256
6
ByLayer
370
18
48
1
60
0
100
AcDbSpline
70
4
71
1
72
4
73
2
40
0
40
0
40
1
40
1
41
1
10
19.369145690379
20
4.49703736729174
30
0
41
1
10
19.5322201970329
20
4.59108048211459
30
0
0
SPLINE
5
E3
100
AcDbEntity
8
1
62
256
6
ByLayer
370
18
48
1
60
0
100
AcDbSpline
70
4
71
3
72
18
73
14
40
0
40
0
40
0
40
0
40
0.198663856941459
40
0.198663856941459
40
0.397327713882919
40
0.397327713882919
40
0.595991570824378
40
0.595991570824378
40
0.794655427765838
40
0.794655427765838
40
0.993319284707297
40
0.993319284707297
40
1
40
1
40
1
40
1
41
1
10
18.9468557686163
20
4.11115961201614
30
0
41
1
10
18.9554346549805
20
4.11611263436782
30
0
41
1
10
18.9523491877413
20
4.11288663242999
30
0
41
1
10
18.9283704069225
20
4.09266994957926
30
0
41
1
10
18.9083316014619
20
4.07628025460261
30
0
41
1
10
18.8597178376291
20
4.03445758187547
30
0
41
1
10
18.8310762343766
20
4.00894549570023
30
0
41
1
10
18.7711187984286
20
3.95212178083696
30
0
41
1
10
18.7394989784686
20
3.92057187786634
30
0
41
1
10
18.6751169162979
20
3.85193564392398
30
0
41
1
10
18.6421960780406
20
3.81465860671975
30
0
41
1
10
18.6087774509921
20
3.77408942969842
30
0
41
1
10
18.6076907628196
20
3.77276723225847
30
0
41
1
10
18.606604647652
20
3.77144272743834
30
0
0
SPLINE
5
E4
100
AcDbEntity
8
1
62
256
6
ByLayer
370
18
48
1
60
0
100
AcDbSpline
70
4
71
3
72
10
73
6
40
0
40
0
40
0
40
0
40
0.308318648667486
40
0.308318648667486
40
1
40
1
40
1
40
1
41
1
10
20.3019051011258
20
4.763395445893
30
0
41
1
10
20.2755399926732
20
4.76489432567891
30
0
41
1
10
20.249125149157
20
4.76595541295842
30
0
41
1
10
20.1632880699222
20
4.76796450558658
30
0
41
1
10
20.1034017922553
20
4.76711229085066
30
0
41
1
10
20.0440035037061
20
4.76400452230607
30
0
0
SPLINE
5
E5
100
AcDbEntity
8
1
62
256
6
ByLayer
370
18
48
1
60
0
100
AcDbSpline
70
4
71
3
72
18
73
14
40
0
40
0
40
0
40
0
40
0.069728581546517
40
0.069728581546517
40
0.33020840610491
40
0.33020840610491
40
0.460448318384107
40
0.460448318384107
40
0.590688230663303
40
0.590688230663303
40
0.851168055221695
40
0.851168055221695
40
1
40
1
40
1
40
1
41
1
10
21.2392296824299
20
0.323497181369618
30
0
41
1
10
21.2676424906443
20
0.337681255051535
30
0
41
1
10
21.2957327634786
20
0.352426555450421
30
0
41
1
10
21.4271411476671
20
0.424834174458596
30
0
41
1
10
21.5264315737996
20
0.489699566487616
30
0
41
1
10
21.6687798795476
20
0.598802031875522
30
0
41
1
10
21.7152765420219
20
0.637297954459939
30
0
41
1
10
21.8045242365618
20
0.716966770642756
30
0
41
1
10
21.8474419159252
20
0.758248088310211
30
0
41
1
10
21.9712447640766
20
0.886261267091442
30
0
41
1
10
22.0471954673077
20
0.977154860364152
30
0
41
1
10
22.1565063848501
20
1.1282498834947
30
0
41
1
10
22.19420714775
20
1.1850957182092
30
0
41
1
10
22.2295391869974
20
1.24299396990321
30
0
0
SPLINE
5
E6
100
AcDbEntity
8
1
62
256
6
ByLayer
370
18
48
1
60
0
100
AcDbSpline
70
4
71
3
72
8
73
4
40
0
40
0
40
0
40
0
40
1
40
1
40
1
40
1
41
1
10
19.4687337115747
20
4.63909200875605
30
0
41
1
10
19.3463262247877
20
4.61616977255534
30
0
41
1
10
19.2190949765536
20
4.59293829488681
30
0
41
1
10
19.0885926772987
20
4.56949711683612
30
0
0
SPLINE
5
E7
100
AcDbEntity
8
1
62
256
6
ByLayer
370
18
48
1
60
0
100
AcDbSpline
70
4
71
3
72
8
73
4
40
0
40
0
40
0
40
0
40
1
40
1
40
1
40
1
41
1
10
22.8787869252827
20
3.90848658567157
30
0
41
1
10
22.762986094394
20
3.8274390738047
30
0
41
1
10
22.6470663228081
20
3.74640817624328
30
0
41
1
10
22.5309053262726
20
3.66541130968392
30
0
0
SPLINE
5
E8
100
AcDbEntity
8
1
62
256
6
ByLayer
370
18
48
1
60
0
100
AcDbSpline
70
4
71
3
72
8
73
4
40
0
40
0
40
0
40
0
40
1
40
1
40
1
40
1
41
1
10
22.6939600648312
20
2.43269797122619
30
0
41
1
10
22.8299415726646
20
2.36384940018701
30
0
41
1
10
22.9657009260236
20
2.29489068507348
30
0
41
1
10
23.1013506925123
20
2.22587786821467
30
0
0
SPLINE
5
E9
100
AcDbEntity
8
1
62
256
6
ByLayer
370
18
48
1
60
0
100
AcDbSpline
70
4
71
3
72
22
73
18
40
0
40
0
40
0
40
0
40
0.062499999999999
40
0.062499999999999
40
0.124999999999998
40
0.124999999999998
40
0.187499999999997
40
0.187499999999997
40
0.249999999999996
40
0.249999999999996
40
0.374999999999997
40
0.374999999999997
40
0.499999999999998
40
0.499999999999998
40
0.749999999999999
40
0.749999999999999
40
1
40
1
40
1
40
1
41
1
10
18.8412598319414
20
4.05019376955158
30
0
41
1
10
18.8376151489948
20
4.04808951087119
30
0
41
1
10
18.8373237532143
20
4.04987651771467
30
0
41
1
10
18.8424529274333
20
4.05983483820742
30
0
41
1
10
18.8478669444344
20
4.06793214490236
30
0
41
1
10
18.8625486378503
20
4.08771000126498
30
0
41
1
10
18.8719693808537
20
4.09959158611642
30
0
41
1
10
18.8933380787394
20
4.12510175587323
30
0
41
1
10
18.9053081216868
20
4.13877225686835
30
0
41
1
10
18.9442793471612
20
4.18138556379375
30
0
41
1
10
18.9745192860516
20
4.21205909923867
30
0
41
1
10
19.0394908137817
20
4.27290970053437
30
0
41
1
10
19.0744095981538
20
4.30332980999859
30
0
41
1
10
19.185319556201
20
4.39284075090842
30
0
41
1
10
19.2680048328753
20
4.45042947498013
30
0
41
1
10
19.4433815190504
20
4.55392324843368
30
0
41
1
10
19.5363657879785
20
4.60023049431979
30
0
41
1
10
19.6342367171267
20
4.64025501064555
30
0
0
SPLINE
5
EA
100
AcDbEntity
8
1
62
256
6
ByLayer
370
18
48
1
60
0
100
AcDbSpline
70
4
71
3
72
14
73
10
40
0
40
0
40
0
40
0
40
0.25
40
0.25
40
0.5
40
0.5
40
0.75
40
0.75
40
1
40
1
40
1
40
1
41
1
10
20.0440035037061
20
4.7640045223061
30
0
41
1
10
20.0245204656401
20
4.75856472914251
30
0
41
1
10
19.9904987261485
20
4.75247979288218
30
0
41
1
10
19.9080065269745
20
4.73841768410097
30
0
41
1
10
19.8587310085237
20
4.73019649917859
30
0
41
1
10
19.7549417386981
20
4.71065821835629
30
0
41
1
10
19.6999018329006
20
4.69928697292877
30
0
41
1
10
19.5861080265057
20
4.67232896718122
30
0
41
1
10
19.5273694395223
20
4.65673183469318
30
0
41
1
10
19.4687337115747
20
4.63909200875605
30
0
0
SPLINE
5
EB
100
AcDbEntity
8
1
62
256
6
ByLayer
370
18
48
1
60
0
100
AcDbSpline
70
4
71
3
72
8
73
4
40
0
40
0
40
0
40
0
40
1
40
1
40
1
40
1
41
1
10
19.6342367171267
20
4.64025501064555
30
0
41
1
10
19.7654074087302
20
4.69389753282491
30
0
41
1
10
19.9021215640478
20
4.73545930602853
30
0
41
1
10
20.0440035037061
20
4.76400452230598
30
0
0
SPLINE
5
EC
100
AcDbEntity
8
1
62
256
6
ByLayer
370
18
48
1
60
0
100
AcDbSpline
70
4
71
3
72
8
73
4
40
0
40
0
40
0
40
0
40
1
40
1
40
1
40
1
41
1
10
19.2684694155679
20
2.00667521079024
30
0
41
1
10
19.1098999630299
20
1.90119381074203
30
0
41
1
10
18.9515309317812
20
1.79565482168729
30
0
41
1
10
18.7932608275502
20
1.69008766342398
30
0
0
SPLINE
5
ED
100
AcDbEntity
8
1
62
256
6
ByLayer
370
18
48
1
60
0
100
AcDbSpline
70
4
71
3
72
8
73
4
40
0
40
0
40
0
40
0
40
1
40
1
40
1
40
1
41
1
10
18.5706970603206
20
3.37269638088091
30
0
41
1
10
18.7488161001515
20
3.32820321041851
30
0
41
1
10
18.9270247131735
20
3.2837525867983
30
0
41
1
10
19.1054146770093
20
3.23938854924796
30
0
0
SPLINE
5
EE
100
AcDbEntity
8
1
62
256
6
ByLayer
370
18
48
1
60
0
100
AcDbSpline
70
4
71
3
72
8
73
4
40
0
40
0
40
0
40
0
40
1
40
1
40
1
40
1
41
1
10
6.94327703262081
20
1.63299030871678
30
0
41
1
10
6.87723283790933
20
1.46718100573881
30
0
41
1
10
6.81524193652189
20
1.30722163524806
30
0
41
1
10
6.75570487898358
20
1.15080378512204
30
0
0
SPLINE
5
EF
100
AcDbEntity
8
1
62
256
6
ByLayer
370
18
48
1
60
0
100
AcDbSpline
70
4
71
3
72
10
73
6
40
0
40
0
40
0
40
0
40
0.5
40
0.5
40
1
40
1
40
1
40
1
41
1
10
9.5376430493574
20
-0.029392116695135
30
0
41
1
10
9.567581512434
20
0.0492632657531544
30
0
41
1
10
9.59832732366121
20
0.129290719862922
30
0
41
1
10
9.66088505987892
20
0.29023398137582
30
0
41
1
10
9.69272025785392
20
0.371213213766396
30
0
41
1
10
9.72521520299463
20
0.452794406899613
30
0
0
SPLINE
5
F0
100
AcDbEntity
8
1
62
256
6
ByLayer
370
18
48
1
60
0
100
AcDbSpline
70
4
71
3
72
10
73
6
40
0
40
0
40
0
40
0
40
0.5
40
0.5
40
1
40
1
40
1
40
1
41
1
10
9.5376430493574
20
-0.029392116695135
30
0
41
1
10
9.44861205741648
20
-0.041918133439907
30
0
41
1
10
9.35901591769294
20
-0.0543674290543663
30
0
41
1
10
9.17832960914404
20
-0.0790631997026594
30
0
41
1
10
9.08781079778012
20
-0.0912288495912605
30
0
41
1
10
8.99799421790107
20
-0.103056787694243
30
0
0
SPLINE
5
F1
100
AcDbEntity
8
1
62
256
6
ByLayer
370
18
48
1
60
0
100
AcDbSpline
70
4
71
3
72
10
73
6
40
0
40
0
40
0
40
0
40
0.5
40
0.5
40
1
40
1
40
1
40
1
41
1
10
8.32615316297722
20
-0.186612578703148
30
0
41
1
10
8.23869338918101
20
-0.196828079853702
30
0
41
1
10
8.15156512096573
20
-0.206746482163822
30
0
41
1
10
7.98135438416142
20
-0.225696937195948
30
0
41
1
10
7.89779931177964
20
-0.234786067942792
30
0
41
1
10
7.81542122396598
20
-0.243582074064932
30
0
0
SPLINE
5
F2
100
AcDbEntity
8
1
62
256
6
ByLayer
370
18
48
1
60
0
100
AcDbSpline
70
4
71
3
72
10
73
6
40
0
40
0
40
0
40
0
40
0.5
40
0.5
40
1
40
1
40
1
40
1
41
1
10
10.2001485297664
20
1.5791836998616
30
0
41
1
10
10.1438824948626
20
1.64711796759906
30
0
41
1
10
10.0871512585684
20
1.71626604205915
30
0
41
1
10
9.97437166346083
20
1.8554028817928
30
0
41
1
10
9.91827636107567
20
1.92544633933369
30
0
41
1
10
9.86253029816982
20
1.99605314027593
30
0
0
SPLINE
5
F3
100
AcDbEntity
8
1
62
256
6
ByLayer
370
18
48
1
60
0
100
AcDbSpline
70
4
71
3
72
10
73
6
40
0
40
0
40
0
40
0
40
0.5
40
0.5
40
1
40
1
40
1
40
1
41
1
10
7.92894229840374
20
2.81634909704053
30
0
41
1
10
7.84148252460753
20
2.80613359588998
30
0
41
1
10
7.75435425639222
20
2.79621519357985
30
0
41
1
10
7.58414351958794
20
2.77726473854773
30
0
41
1
10
7.50058844720616
20
2.76817560780089
30
0
41
1
10
7.4182103593925
20
2.75937960167877
30
0
0
SPLINE
5
F4
100
AcDbEntity
8
1
62
256
6
ByLayer
370
18
48
1
60
0
100
AcDbSpline
70
4
71
3
72
8
73
4
40
0
40
0
40
0
40
0
40
1
40
1
40
1
40
1
41
1
10
9.98365948368399
20
1.0803020006295
30
0
41
1
10
10.0555964147415
20
1.24951347652316
30
0
41
1
10
10.1277936721174
20
1.41536548939126
30
0
41
1
10
10.2001485297664
20
1.5791836998616
30
0
0
SPLINE
5
F5
100
AcDbEntity
8
1
62
256
6
ByLayer
370
18
48
1
60
0
100
AcDbSpline
70
4
71
3
72
8
73
4
40
0
40
0
40
0
40
0
40
1
40
1
40
1
40
1
41
1
10
9.4491335239353
20
2.54000494299692
30
0
41
1
10
9.34172544327703
20
2.6869115683495
30
0
41
1
10
9.23950770895459
20
2.83107186933373
30
0
41
1
10
9.14043218478392
20
2.97356955904854
30
0
0
SPLINE
5
F6
100
AcDbEntity
8
1
62
256
6
ByLayer
370
18
48
1
60
0
100
AcDbSpline
70
4
71
3
72
10
73
6
40
0
40
0
40
0
40
0
40
0.5
40
0.5
40
1
40
1
40
1
40
1
41
1
10
9.14043218478392
20
2.97356955904854
30
0
41
1
10
9.051401192843
20
2.96104354230377
30
0
41
1
10
8.96180505311946
20
2.94859424668931
30
0
41
1
10
8.78111874457059
20
2.92389847604102
30
0
41
1
10
8.69059993320667
20
2.91173282615244
30
0
41
1
10
8.60078335332761
20
2.89990488804946
30
0
0
SPLINE
5
F7
100
AcDbEntity
8
1
62
256
6
ByLayer
370
18
48
1
60
0
100
AcDbSpline
70
4
71
3
72
8
73
4
40
0
40
0
40
0
40
0
40
1
40
1
40
1
40
1
41
1
10
7.47780299236948
20
0.173287366349399
30
0
41
1
10
7.59110380937381
20
0.0297829139124701
30
0
41
1
10
7.70352789968467
20
-0.108484744694408
30
0
41
1
10
7.81542122396601
20
-0.243582074064932
30
0
0
SPLINE
5
F8
100
AcDbEntity
8
1
62
256
6
ByLayer
370
18
48
1
60
0
100
AcDbSpline
70
4
71
3
72
10
73
6
40
0
40
0
40
0
40
0
40
0.5
40
0.5
40
1
40
1
40
1
40
1
41
1
10
6.75570487898358
20
1.15080378512204
30
0
41
1
10
6.80552542848372
20
1.07914821465172
30
0
41
1
10
6.85644682520405
20
1.00664582774974
30
0
41
1
10
6.95944412149521
20
0.861861175161152
30
0
41
1
10
7.01155948870013
20
0.789519900972579
30
0
41
1
10
7.06440621813499
20
0.717239169070382
30
0
0
SPLINE
5
F9
100
AcDbEntity
8
1
62
256
6
ByLayer
370
18
48
1
60
0
100
AcDbSpline
70
4
71
3
72
10
73
6
40
0
40
0
40
0
40
0
40
0.5
40
0.5
40
1
40
1
40
1
40
1
41
1
10
7.41821035939253
20
2.75937960167877
30
0
41
1
10
7.38182641091231
20
2.67700291649766
30
0
41
1
10
7.34527076011122
20
2.59362114994593
30
0
41
1
10
7.27293072507712
20
2.42703007557813
30
0
41
1
10
7.23711559192191
20
2.3437530265399
30
0
41
1
10
7.20172131331017
20
2.2604979024467
30
0
0
LINE
5
72
100
AcDbEntity
8
1
62
256
6
ByLayer
370
18
48
1
60
0
100
AcDbLine
10
16.618343
20
10.353935
30
0
11
16.011949
21
10.003832
31
0
39
0
210
0
220
0
230
1
0
LINE
5
73
100
AcDbEntity
8
1
62
256
6
ByLayer
370
18
48
1
60
0
100
AcDbLine
10
19.373938
20
4.512821
30
0
11
19.363658
21
4.506885
31
0
39
0
210
0
220
0
230
1
0
LINE
5
74
100
AcDbEntity
8
1
62
256
6
ByLayer
370
18
48
1
60
0
100
AcDbLine
10
24.736851
20
-4.938296
30
0
11
25.343246
21
-4.588193
31
0
39
0
210
0
220
0
230
1
0
LINE
5
75
100
AcDbEntity
8
1
62
256
6
ByLayer
370
18
48
1
60
0
100
AcDbLine
10
21.247785
20
0.323471
30
0
11
21.365391
21
0.391371
31
0
39
0
210
0
220
0
230
1
0
LINE
5
76
100
AcDbEntity
8
1
62
256
6
ByLayer
370
18
48
1
60
0
100
AcDbLine
10
19.60803
20
4.50658
30
0
11
19.047791
21
4.183126
31
0
39
0
210
0
220
0
230
1
0
LINE
5
77
100
AcDbEntity
8
1
62
256
6
ByLayer
370
18
48
1
60
0
100
AcDbLine
10
21.503779
20
0.76854
30
0
11
22.064018
21
1.091994
31
0
39
0
210
0
220
0
230
1
0
LINE
5
78
100
AcDbEntity
8
1
62
256
6
ByLayer
370
18
48
1
60
0
100
AcDbLine
10
6.393438
20
4.780316
30
0
11
6.3404
21
4.749694
31
0
39
0
210
0
220
0
230
1
0
LINE
5
79
100
AcDbEntity
8
1
62
256
6
ByLayer
370
18
48
1
60
0
100
AcDbLine
10
10.3404
20
-2.178509
30
0
11
10.393438
21
-2.147887
31
0
39
0
210
0
220
0
230
1
0
LINE
5
7A
100
AcDbEntity
8
1
62
256
6
ByLayer
370
18
48
1
60
0
100
AcDbLine
10
17.706583
20
-2.832995
30
0
11
19.370628
21
-3.271101
31
0
39
0
210
0
220
0
230
1
0
LINE
5
7B
100
AcDbEntity
8
1
62
256
6
ByLayer
370
18
48
1
60
0
100
AcDbLine
10
23.343673
20
-9.94463
30
0
11
24.688723
21
-4.69612
31
0
39
0
210
0
220
0
230
1
0
LINE
5
7C
100
AcDbEntity
8
1
62
256
6
ByLayer
370
18
48
1
60
0
100
AcDbLine
10
16.932975
20
-3.083493
30
0
11
16.694461
21
-4.014196
31
0
39
0
210
0
220
0
230
1
0
LINE
5
7D
100
AcDbEntity
8
1
62
256
6
ByLayer
370
18
48
1
60
0
100
AcDbLine
10
17.081877
20
-3.123383
30
0
11
17.065703
21
-3.186497
31
0
39
0
210
0
220
0
230
1
0
LINE
5
7E
100
AcDbEntity
8
1
62
256
6
ByLayer
370
18
48
1
60
0
100
AcDbLine
10
17.065703
20
-3.186497
30
0
11
17.18439
21
-3.217744
31
0
39
0
210
0
220
0
230
1
0
LINE
5
7F
100
AcDbEntity
8
1
62
256
6
ByLayer
370
18
48
1
60
0
100
AcDbLine
10
16.531054
20
-3.986744
30
0
11
16.773484
21
-3.040762
31
0
39
0
210
0
220
0
230
1
0
LINE
5
80
100
AcDbEntity
8
1
62
256
6
ByLayer
370
18
48
1
60
0
100
AcDbLine
10
2.388581
20
-9.956404
30
0
11
1.986665
21
10.922357
31
0
39
0
210
0
220
0
230
1
0
LINE
5
81
100
AcDbEntity
8
1
62
256
6
ByLayer
370
18
48
1
60
0
100
AcDbLine
10
14.220171
20
2.124658
30
0
11
13.170761
21
-1.970236
31
0
39
0
210
0
220
0
230
1
0
LINE
5
82
100
AcDbEntity
8
1
62
256
6
ByLayer
370
18
48
1
60
0
100
AcDbLine
10
1.986665
20
10.922357
30
0
11
1.545481
21
10.922357
31
0
39
0
210
0
220
0
230
1
0
LINE
5
83
100
AcDbEntity
8
1
62
256
6
ByLayer
370
18
48
1
60
0
100
AcDbLine
10
1.545481
20
10.922357
30
0
11
1.477024
21
10.922357
31
0
39
0
210
0
220
0
230
1
0
LINE
5
84
100
AcDbEntity
8
1
62
256
6
ByLayer
370
18
48
1
60
0
100
AcDbLine
10
1.545481
20
-9.942674
30
0
11
2.388581
21
-9.956404
31
0
39
0
210
0
220
0
230
1
0
LINE
5
85
100
AcDbEntity
8
1
62
256
6
ByLayer
370
18
48
1
60
0
100
AcDbLine
10
23.343673
20
-9.94463
30
0
11
2.388581
21
-9.956404
31
0
39
0
210
0
220
0
230
1
0
LINE
5
86
100
AcDbEntity
8
1
62
256
6
ByLayer
370
18
48
1
60
0
100
AcDbLine
10
17.04629
20
-3.319412
30
0
11
17.706583
21
-2.832995
31
0
39
0
210
0
220
0
230
1
0
LINE
5
87
100
AcDbEntity
8
1
62
256
6
ByLayer
370
18
48
1
60
0
100
AcDbLine
10
1.545481
20
10.922357
30
0
11
1.545481
21
-9.942674
31
0
39
0
210
0
220
0
230
1
0
LINE
5
88
100
AcDbEntity
8
1
62
256
6
ByLayer
370
18
48
1
60
0
100
AcDbLine
10
0
20
-9.9375
30
0
11
0
21
9.9375
31
0
39
0
210
0
220
0
230
1
0
LINE
5
89
100
AcDbEntity
8
1
62
256
6
ByLayer
370
18
48
1
60
0
100
AcDbLine
10
16.19553
20
9.832692
30
0
11
15.33131
21
6.460427
31
0
39
0
210
0
220
0
230
1
0
LINE
5
8A
100
AcDbEntity
8
1
62
256
6
ByLayer
370
18
48
1
60
0
100
AcDbLine
10
12.128844
20
10.922357
30
0
11
1.986665
21
10.922357
31
0
39
0
210
0
220
0
230
1
0
LINE
5
8B
100
AcDbEntity
8
1
62
256
6
ByLayer
370
18
48
1
60
0
100
AcDbLine
10
16.19553
20
9.832692
30
0
11
12.128844
21
10.922357
31
0
39
0
210
0
220
0
230
1
0
LINE
5
8C
100
AcDbEntity
8
1
62
256
6
ByLayer
370
18
48
1
60
0
100
AcDbLine
10
17.706583
20
-2.832995
30
0
11
17.547949
21
-3.451999
31
0
39
0
210
0
220
0
230
1
0
LINE
5
8D
100
AcDbEntity
8
1
62
256
6
ByLayer
370
18
48
1
60
0
100
AcDbLine
10
16.694461
20
-4.014196
30
0
11
17.547949
21
-3.451999
31
0
39
0
210
0
220
0
230
1
0
LINE
5
8E
100
AcDbEntity
8
1
62
256
6
ByLayer
370
18
48
1
60
0
100
AcDbLine
10
14.976608
20
5.67723
30
0
11
14.286682
21
2.985076
31
0
39
0
210
0
220
0
230
1
0
LINE
5
8F
100
AcDbEntity
8
SK1
62
256
6
ByLayer
370
18
48
1
60
0
100
AcDbLine
10
-97.872443
20
-9.9375
30
0
11
0
21
-9.9375
31
0
39
0
210
0
220
0
230
1
0
LINE
5
91
100
AcDbEntity
8
SK1
62
256
6
ByLayer
370
18
48
1
60
0
100
AcDbLine
10
0
20
-9.9375
30
0
11
0
21
9.9375
31
0
39
0
210
0
220
0
230
1
0
LINE
5
92
100
AcDbEntity
8
SK1
62
256
6
ByLayer
370
18
48
1
60
0
100
AcDbLine
10
-97.872443
20
9.9375
30
0
11
-97.872443
21
-9.9375
31
0
39
0
210
0
220
0
230
1
0
LINE
5
93
100
AcDbEntity
8
SK1
62
256
6
ByLayer
370
18
48
1
60
0
100
AcDbLine
10
-97.872443
20
9.9375
30
0
11
0
21
9.9375
31
0
39
0
210
0
220
0
230
1
0
LINE
5
94
100
AcDbEntity
8
1
62
256
6
ByLayer
370
18
48
1
60
0
100
AcDbLine
10
7.314399
20
2.521613
30
0
11
7.44701
21
2.538105
31
0
39
0
210
0
220
0
230
1
0
LINE
5
95
100
AcDbEntity
8
1
62
256
6
ByLayer
370
18
48
1
60
0
100
AcDbLine
10
9.243283
20
0.17455
30
0
11
9.136595
21
-0.08449
31
0
39
0
210
0
220
0
230
1
0
LINE
5
96
100
AcDbEntity
8
1
62
256
6
ByLayer
370
18
48
1
60
0
100
AcDbLine
10
13.453172
20
-0.86823
30
0
11
13.508818
21
-0.836103
31
0
39
0
210
0
220
0
230
1
0
LINE
5
97
100
AcDbEntity
8
1
62
256
6
ByLayer
370
18
48
1
60
0
100
AcDbLine
10
16.252715
20
9.870839
30
0
11
16.189451
21
9.834314
31
0
39
0
210
0
220
0
230
1
0
LINE
5
98
100
AcDbEntity
8
1
62
256
6
ByLayer
370
18
48
1
60
0
100
AcDbLine
10
24.6872
20
-4.702044
30
0
11
24.750378
21
-4.665567
31
0
39
0
210
0
220
0
230
1
0
LINE
5
99
100
AcDbEntity
8
1
62
256
6
ByLayer
370
18
48
1
60
0
100
AcDbLine
10
17.251071
20
-3.168719
30
0
11
13.468934
21
-2.155299
31
0
39
0
210
0
220
0
230
1
0
LINE
5
9A
100
AcDbEntity
8
1
62
256
6
ByLayer
370
18
48
1
60
0
100
AcDbLine
10
18.742662
20
1.660875
30
0
11
18.793261
21
1.690088
31
0
39
0
210
0
220
0
230
1
0
LINE
5
9B
100
AcDbEntity
8
1
62
256
6
ByLayer
370
18
48
1
60
0
100
AcDbLine
10
18.570697
20
3.372696
30
0
11
18.454736
21
3.305746
31
0
39
0
210
0
220
0
230
1
0
LINE
5
9C
100
AcDbEntity
8
80
62
256
6
ByLayer
370
18
48
1
60
0
100
AcDbLine
10
0
20
0
30
0
11
-5
21
0
31
0
39
0
210
0
220
0
230
1
0
LINE
5
9D
100
AcDbEntity
8
81
62
256
6
ByLayer
370
18
48
1
60
0
100
AcDbLine
10
27.127557
20
7.0625
30
0
11
37.127557
21
7.0625
31
0
39
0
210
0
220
0
230
1
0
LINE
5
9E
100
AcDbEntity
8
1
62
256
6
ByLayer
370
18
48
1
60
0
100
AcDbLine
10
18.84126
20
4.050194
30
0
11
18.946856
21
4.11116
31
0
39
0
210
0
220
0
230
1
0
LINE
5
9F
100
AcDbEntity
8
1
62
256
6
ByLayer
370
18
48
1
60
0
100
AcDbLine
10
9.243283
20
0.17455
30
0
11
9.725215
21
0.452794
31
0
39
0
210
0
220
0
230
1
0
LINE
5
A0
100
AcDbEntity
8
1
62
256
6
ByLayer
370
18
48
1
60
0
100
AcDbLine
10
8.118851
20
2.621661
30
0
11
8.600783
21
2.899905
31
0
39
0
210
0
220
0
230
1
0
LINE
5
A1
100
AcDbEntity
8
1
62
256
6
ByLayer
370
18
48
1
60
0
100
AcDbLine
10
9.380598
20
1.717809
30
0
11
9.703757
21
1.292592
31
0
39
0
210
0
220
0
230
1
0
LINE
5
A2
100
AcDbEntity
8
1
62
256
6
ByLayer
370
18
48
1
60
0
100
AcDbLine
10
7.928942
20
2.816349
30
0
11
7.44701
21
2.538105
31
0
39
0
210
0
220
0
230
1
0
LINE
5
A3
100
AcDbEntity
8
1
62
256
6
ByLayer
370
18
48
1
60
0
100
AcDbLine
10
9.449134
20
2.540005
30
0
11
8.967201
21
2.261761
31
0
39
0
210
0
220
0
230
1
0
LINE
5
A4
100
AcDbEntity
8
1
62
256
6
ByLayer
370
18
48
1
60
0
100
AcDbLine
10
9.380598
20
1.717809
30
0
11
9.86253
21
1.996053
31
0
39
0
210
0
220
0
230
1
0
LINE
5
A5
100
AcDbEntity
8
1
62
256
6
ByLayer
370
18
48
1
60
0
100
AcDbLine
10
9.140432
20
2.97357
30
0
11
8.644041
21
2.686978
31
0
39
0
210
0
220
0
230
1
0
LINE
5
A6
100
AcDbEntity
8
1
62
256
6
ByLayer
370
18
48
1
60
0
100
AcDbLine
10
10.200149
20
1.579184
30
0
11
9.703757
21
1.292592
31
0
39
0
210
0
220
0
230
1
0
LINE
5
A7
100
AcDbEntity
8
1
62
256
6
ByLayer
370
18
48
1
60
0
100
AcDbLine
10
8.118851
20
2.621661
30
0
11
8.644041
21
2.686978
31
0
39
0
210
0
220
0
230
1
0
LINE
5
A8
100
AcDbEntity
8
1
62
256
6
ByLayer
370
18
48
1
60
0
100
AcDbLine
10
8.644041
20
2.686978
30
0
11
8.967201
21
2.261761
31
0
39
0
210
0
220
0
230
1
0
LINE
5
A9
100
AcDbEntity
8
1
62
256
6
ByLayer
370
18
48
1
60
0
100
AcDbLine
10
9.983659
20
1.080302
30
0
11
9.501727
21
0.802058
31
0
39
0
210
0
220
0
230
1
0
LINE
5
AA
100
AcDbEntity
8
1
62
256
6
ByLayer
370
18
48
1
60
0
100
AcDbLine
10
9.703757
20
1.292592
30
0
11
9.501727
21
0.802058
31
0
39
0
210
0
220
0
230
1
0
LINE
5
AB
100
AcDbEntity
8
1
62
256
6
ByLayer
370
18
48
1
60
0
100
AcDbLine
10
17.211211
20
10.431308
30
0
11
27.886261
21
7.570938
31
0
39
0
210
0
220
0
230
1
0
LINE
5
AC
100
AcDbEntity
8
1
62
256
6
ByLayer
370
18
48
1
60
0
100
AcDbLine
10
13.508818
20
-0.836103
30
0
11
16.252715
21
9.870839
31
0
39
0
210
0
220
0
230
1
0
LINE
5
AD
100
AcDbEntity
8
1
62
256
6
ByLayer
370
18
48
1
60
0
100
AcDbLine
10
14.075329
20
-1.805196
30
0
11
13.468934
21
-2.155299
31
0
39
0
210
0
220
0
230
1
0
LINE
5
AE
100
AcDbEntity
8
1
62
256
6
ByLayer
370
18
48
1
60
0
100
AcDbLine
10
24.750378
20
-4.665567
30
0
11
14.075329
21
-1.805196
31
0
39
0
210
0
220
0
230
1
0
LINE
5
AF
100
AcDbEntity
8
1
62
256
6
ByLayer
370
18
48
1
60
0
100
AcDbLine
10
28.452771
20
6.601844
30
0
11
25.708875
21
-4.105098
31
0
39
0
210
0
220
0
230
1
0
MTEXT
5
FA
100
AcDbEntity
8
SK6
62
256
6
ByLayer
370
13
48
1
60
0
100
AcDbMText
10
-73.992242
20
-34.999425
30
0
210
0
220
0
230
1
1
\W0.7553;PSBNR 2020K 12
40
3.5
41
0
44
1.084337
50
0
71
7
72
5
7
iso_b_vert
0
DIMENSION
5
10C
100
AcDbEntity
8
SK2
62
256
6
ByLayer
370
13
48
1
60
0
100
AcDbDimension
2
DimnDraft3D1
10
-107.622443
20
-9.9375
30
0
11
-107.622443
21
0.0625
31
0
70
32
71
5
72
1
41
1
210
0
220
0
230
1
3
Standard
100
AcDbAlignedDimension
13
-99.459943
23
10.0625
33
0
14
-99.459943
24
-9.9375
34
0
50
90
100
AcDbRotatedDimension
1001
ACAD
1000
DSTYLE
1002
{
1070
    74
1070
     0
1070
   279
1070
     0
1070
   172
1070
     1
1070
   173
1070
     1
1070
   340
1005
FB
1070
   271
1070
     1
1070
   272
1070
     2
1070
    77
1070
     1
1070
    73
1070
     0
1070
   171
1070
     3
1070
   274
1070
     4
1070
   177
1070
   150
1070
   176
1070
     9
1070
   178
1070
    43
1070
    78
1070
     8
1070
    48
1040
-0.005
1070
    41
1041
3.175
1070
   147
1041
2.25
1070
    42
1041
1.5875
1070
    44
1041
3.175
1070
   140
1041
4.5
1070
   343
1005
10D
1070
   344
1005
10D
1002
}
0
DIMENSION
5
122
100
AcDbEntity
8
2
62
256
6
ByLayer
370
13
48
1
60
0
100
AcDbDimension
2
DimnDraft3D2
10
44.977557
20
7.4125
30
0
11
44.977557
21
-1.2625
31
0
70
32
71
5
72
1
41
1
210
0
220
0
230
1
3
Standard
100
AcDbAlignedDimension
13
1.5875
23
-9.9375
33
0
14
30.065057
24
7.4125
34
0
50
90
100
AcDbRotatedDimension
1001
ACAD
1000
DSTYLE
1002
{
1070
    74
1070
     0
1070
   279
1070
     0
1070
   172
1070
     1
1070
   173
1070
     1
1070
   340
1005
FB
1070
   271
1070
     1
1070
   272
1070
     2
1070
    77
1070
     1
1070
    73
1070
     0
1070
   171
1070
     3
1070
   274
1070
     4
1070
   177
1070
   150
1070
   176
1070
     9
1070
   178
1070
    43
1070
    78
1070
     8
1070
    48
1040
-0.005
1070
    41
1041
3.175
1070
   147
1041
2.25
1070
    42
1041
1.5875
1070
    44
1041
3.175
1070
   140
1041
4.5
1070
   343
1005
10D
1070
   344
1005
10D
1002
}
0
DIMENSION
5
130
100
AcDbEntity
8
SK2
62
256
6
ByLayer
370
13
48
1
60
0
100
AcDbDimension
2
DimnDraft3D3
10
28.477557
20
28.422357
30
0
11
-34.697443
21
28.422357
31
0
70
32
71
5
72
1
41
1
210
0
220
0
230
1
3
Standard
100
AcDbAlignedDimension
13
-97.872443
23
11.65
33
0
14
28.477557
24
9
34
0
50
0
100
AcDbRotatedDimension
1001
ACAD
1000
DSTYLE
1002
{
1070
   279
1070
     0
1070
   172
1070
     1
1070
   173
1070
     1
1070
   340
1005
FB
1070
   271
1070
     1
1070
   272
1070
     2
1070
    77
1070
     1
1070
    73
1070
     0
1070
   171
1070
     3
1070
   274
1070
     4
1070
   177
1070
   150
1070
   176
1070
     9
1070
   178
1070
    43
1070
    78
1070
     8
1070
    48
1040
-0.005
1070
    41
1041
3.175
1070
   147
1041
2.25
1070
    42
1041
1.5875
1070
    44
1041
3.175
1070
   140
1041
4.5
1070
   343
1005
10D
1070
   344
1005
10D
1002
}
0
DIMENSION
5
13E
100
AcDbEntity
8
2
62
256
6
ByLayer
370
13
48
1
60
0
100
AcDbDimension
2
DimnDraft3D4
10
15.889245
20
10.600844
30
0
11
17.205185
21
21.918258
31
0
70
34
71
5
72
1
41
1
210
0
220
0
230
1
3
Standard
100
AcDb2LineAngularDimension
13
28.477557
23
7.4125
33
0
14
28.477557
24
5.825
34
0
15
27.889245
25
7.385454
35
0
16
19.944611
26
18.348168
36
0
40
0
0
ENDSEC
0
SECTION
2
OBJECTS
0
DICTIONARY
5
1a8
330
0
100
AcDbDictionary
280
0
281
1
3
ACAD_GROUP
350
1a9
3
ACAD_MLINESTYLE
350
1aa
0
DICTIONARY
5
1a9
330
0
100
AcDbDictionary
280
0
281
1
0
DICTIONARY
5
1aa
330
0
100
AcDbDictionary
280
0
281
1
3
Standard
350
18
0
MLINESTYLE
5
18
330
1aa
100
AcDbMlineStyle
2
Standard
70
0
3

62
256
51
90
52
90
71
2
49
-0.5
62
256
6
ByLayer
49
0.5
62
256
6
ByLayer
0
RASTERVARIABLES
5
197
330

100
AcDbRasterVariables
90
0
70
1
71
1
72
1
0
ENDSEC
0
EOF
