0
SECTION
2
HEADER
9
$ACADVER
1
AC1015
9
$DWGCODEPAGE
3
ANSI_1252
9
$HANDSEED
5
1b2
9
$ANGBASE
50
0
9
$ANGDIR
70
0
9
$ATTMODE
70
1
9
$AUNITS
70
0
9
$AUPREC
70
0
9
$CECOLOR
62
256
9
$CELTSCALE
40
1
9
$CELTYPE
6
ByLayer
9
$CELWEIGHT
370
18
9
$CLAYER
8
0
9
$CMLJUST
70
0
9
$CMLSCALE
40
1
9
$CMLSTYLE
2
Standard
9
$DIMSTYLE
2
Standard
9
$TEXTSIZE
40
0.2
9
$TEXTSTYLE
7
Standard
9
$LUNITS
70
2
9
$LUPREC
70
4
9
$EXTNAMES
290
1
9
$INSUNITS
70
4
9
$LTSCALE
40
1
9
$LWDISPLAY
290
1
9
$PDMODE
70
0
9
$PDSIZE
40
0
9
$PLINEGEN
70
0
0
ENDSEC
0
SECTION
2
CLASSES
0
CLASS
1
RASTERVARIABLES
2
AcDbRasterVariables
3
ISM
90
0
280
0
281
0
0
ENDSEC
0
SECTION
2
TABLES
0
TABLE
2
VPORT
5
1a8
100
AcDbSymbolTable
0
VPORT
5
1
100
AcDbSymbolTableRecord
100
AcDbViewportTableRecord
2
*Active
70
0
10
0
20
0
11
1
21
1
12
-1
22
1
13
0
23
0
14
0.5
24
0.5
15
10
25
10
16
0
26
0
36
1
17
0
27
0
37
0
0
ENDTAB
0
TABLE
2
LTYPE
5
1a9
100
AcDbSymbolTable
0
LTYPE
5
14
100
AcDbSymbolTableRecord
100
AcDbLinetypeTableRecord
70
0
2
ByBlock
3

72
65
73
0
40
0
0
LTYPE
5
15
100
AcDbSymbolTableRecord
100
AcDbLinetypeTableRecord
70
0
2
ByLayer
3

72
65
73
0
40
0
0
LTYPE
5
16
100
AcDbSymbolTableRecord
100
AcDbLinetypeTableRecord
70
0
2
CONTINUOUS
3
Solid line
72
65
73
0
40
0
0
LTYPE
5
6A
100
AcDbSymbolTableRecord
100
AcDbLinetypeTableRecord
70
0
2
CENTER
3
____ _ ____ _ ____ _ ____
72
65
73
4
40
47.5
49
22
74
0
49
-8.5
74
0
49
8.5
74
0
49
-8.5
74
0
0
LTYPE
5
6B
100
AcDbSymbolTableRecord
100
AcDbLinetypeTableRecord
70
0
2
DASHED
3
__ __ __ __ __ __ __ __ __
72
65
73
2
40
25.72
49
12.86
74
0
49
-12.86
74
0
0
ENDTAB
0
TABLE
2
LAYER
5
1aa
100
AcDbSymbolTable
0
LAYER
5
10
100
AcDbSymbolTableRecord
100
AcDbLayerTableRecord
2
0
70
0
62
7
6
CONTINUOUS
290
1
370
-3
390
0
0
LAYER
5
6D
100
AcDbSymbolTableRecord
100
AcDbLayerTableRecord
2
80
70
0
62
-6
6
CONTINUOUS
290
1
370
-3
390
0
0
LAYER
5
6F
100
AcDbSymbolTableRecord
100
AcDbLayerTableRecord
2
81
70
0
62
-3
6
CONTINUOUS
290
1
370
-3
390
0
0
LAYER
5
71
100
AcDbSymbolTableRecord
100
AcDbLayerTableRecord
2
1
70
0
62
4
6
CONTINUOUS
290
1
370
-3
390
0
0
LAYER
5
113
100
AcDbSymbolTableRecord
100
AcDbLayerTableRecord
2
2
70
0
62
7
6
CONTINUOUS
290
1
370
-3
390
0
0
LAYER
5
195
100
AcDbSymbolTableRecord
100
AcDbLayerTableRecord
2
SK1
70
0
62
4
6
CONTINUOUS
290
1
370
-3
390
0
0
LAYER
5
196
100
AcDbSymbolTableRecord
100
AcDbLayerTableRecord
2
SK6
70
0
62
5
6
CONTINUOUS
290
1
370
-3
390
0
0
LAYER
5
197
100
AcDbSymbolTableRecord
100
AcDbLayerTableRecord
2
SK2
70
0
62
7
6
CONTINUOUS
290
1
370
-3
390
0
0
ENDTAB
0
TABLE
2
STYLE
5
1ab
100
AcDbSymbolTable
0
STYLE
5
11
100
AcDbSymbolTableRecord
100
AcDbTextStyleTableRecord
2
Standard
3
txt
70
0
71
0
40
0
41
1
42
0
50
0
0
STYLE
5
F8
100
AcDbSymbolTableRecord
100
AcDbTextStyleTableRecord
2
iso_b_vert
3
simplex.shx
70
0
71
0
40
0
41
1
42
0
50
0
0
STYLE
5
F9
100
AcDbSymbolTableRecord
100
AcDbTextStyleTableRecord
2
DWGDirectTextStyle
3
simplex
70
0
71
0
40
0
41
1
42
0
50
0
0
ENDTAB
0
TABLE
2
DIMSTYLE
5
1ac
100
AcDbSymbolTable
100
AcDbDimStyleTable
0
DIMSTYLE
105
27
100
AcDbSymbolTableRecord
100
AcDbDimStyleTableRecord
2
Standard
70
0
3
<>
41
0.18
42
0.0625
44
0.18
140
0.18
147
0.09
73
0
74
0
77
1
271
2
275
0
278
52
280
0
340
11
0
ENDTAB
0
TABLE
2
VIEW
5
1ad
100
AcDbSymbolTable
0
ENDTAB
0
TABLE
2
UCS
5
1ae
100
AcDbSymbolTable
0
ENDTAB
0
TABLE
2
APPID
5
1af
100
AcDbSymbolTable
0
APPID
5
12
100
AcDbSymbolTableRecord
100
AcDbRegAppTableRecord
2
ACAD
70
0
0
ENDTAB
0
TABLE
2
BLOCK_RECORD
5
1b0
100
AcDbSymbolTable
0
BLOCK_RECORD
5
1F
100
AcDbSymbolTableRecord
100
AcDbBlockTableRecord
2
*Model_Space
340
0
70
0
0
BLOCK_RECORD
5
1B
100
AcDbSymbolTableRecord
100
AcDbBlockTableRecord
2
*Paper_Space
340
0
70
0
0
BLOCK_RECORD
5
23
100
AcDbSymbolTableRecord
100
AcDbBlockTableRecord
2
*Paper_Space0
340
0
70
0
0
BLOCK_RECORD
5
FB
100
AcDbSymbolTableRecord
100
AcDbBlockTableRecord
2
DimnDraft3D1
340
0
70
0
0
BLOCK_RECORD
5
10A
100
AcDbSymbolTableRecord
100
AcDbBlockTableRecord
2
_CLOSED
340
0
70
0
0
BLOCK_RECORD
5
111
100
AcDbSymbolTableRecord
100
AcDbBlockTableRecord
2
DimnDraft3D2
340
0
70
0
0
BLOCK_RECORD
5
120
100
AcDbSymbolTableRecord
100
AcDbBlockTableRecord
2
DimnDraft3D3
340
0
70
0
0
BLOCK_RECORD
5
12E
100
AcDbSymbolTableRecord
100
AcDbBlockTableRecord
2
DimnDraft3D4
340
0
70
0
0
ENDTAB
0
ENDSEC
0
SECTION
2
BLOCKS
0
BLOCK
5
20
100
AcDbEntity
8
0
100
AcDbBlockBegin
2
*Model_Space
70
0
10
0
20
0
30
0
3
*Model_Space
0
ENDBLK
5
21
100
AcDbEntity
8
0
100
AcDbBlockEnd
0
BLOCK
5
1C
100
AcDbEntity
8
0
100
AcDbBlockBegin
2
*Paper_Space
70
0
10
0
20
0
30
0
3
*Paper_Space
0
ENDBLK
5
1D
100
AcDbEntity
8
0
100
AcDbBlockEnd
0
BLOCK
5
24
100
AcDbEntity
8
0
100
AcDbBlockBegin
2
*Paper_Space0
70
0
10
0
20
0
30
0
3
*Paper_Space0
0
ENDBLK
5
25
100
AcDbEntity
8
0
100
AcDbBlockEnd
0
BLOCK
5
107
100
AcDbEntity
8
0
100
AcDbBlockBegin
2
DimnDraft3D1
70
0
10
0
20
0
30
0
3
DimnDraft3D1
0
MTEXT
5
FC
100
AcDbEntity
8
SK2
62
256
6
ByLayer
370
13
48
1
60
0
100
AcDbMText
10
-209.847666
20
-1.875
30
0
210
0
220
0
230
1
1
\W0.7361;40
40
4.5
41
0
44
1.084337
50
90
71
7
72
5
7
iso_b_vert
0
LINE
5
FE
100
AcDbEntity
8
SK2
62
256
6
ByLayer
370
13
48
1
60
0
100
AcDbLine
10
-200.560166
20
-20.075
30
0
11
-211.897666
21
-20.075
31
0
39
0
210
0
220
0
230
1
0
LINE
5
FF
100
AcDbEntity
8
SK2
62
256
6
ByLayer
370
13
48
1
60
0
100
AcDbLine
10
-200.560166
20
19.925
30
0
11
-211.897666
21
19.925
31
0
39
0
210
0
220
0
230
1
0
LINE
5
100
100
AcDbEntity
8
SK2
62
256
6
ByLayer
370
13
48
1
60
0
100
AcDbLine
10
-208.722666
20
-20.075
30
0
11
-208.722666
21
19.925
31
0
39
0
210
0
220
0
230
1
0
LINE
5
101
100
AcDbEntity
8
SK2
62
256
6
ByLayer
370
13
48
1
60
0
100
AcDbLine
10
-208.722666
20
-20.075
30
0
11
-209.573405
21
-16.900003
31
0
39
0
210
0
220
0
230
1
0
LINE
5
102
100
AcDbEntity
8
SK2
62
256
6
ByLayer
370
13
48
1
60
0
100
AcDbLine
10
-208.722666
20
-20.075
30
0
11
-207.871928
21
-16.899997
31
0
39
0
210
0
220
0
230
1
0
LINE
5
103
100
AcDbEntity
8
SK2
62
256
6
ByLayer
370
13
48
1
60
0
100
AcDbLine
10
-209.573405
20
-16.900003
30
0
11
-207.871928
21
-16.899997
31
0
39
0
210
0
220
0
230
1
0
LINE
5
104
100
AcDbEntity
8
SK2
62
256
6
ByLayer
370
13
48
1
60
0
100
AcDbLine
10
-208.722666
20
19.925
30
0
11
-207.871928
21
16.750003
31
0
39
0
210
0
220
0
230
1
0
LINE
5
105
100
AcDbEntity
8
SK2
62
256
6
ByLayer
370
13
48
1
60
0
100
AcDbLine
10
-208.722666
20
19.925
30
0
11
-209.573405
21
16.749997
31
0
39
0
210
0
220
0
230
1
0
LINE
5
106
100
AcDbEntity
8
SK2
62
256
6
ByLayer
370
13
48
1
60
0
100
AcDbLine
10
-207.871928
20
16.750003
30
0
11
-209.573405
21
16.749997
31
0
39
0
210
0
220
0
230
1
0
ENDBLK
5
108
100
AcDbEntity
8
0
100
AcDbBlockEnd
0
BLOCK
5
10B
100
AcDbEntity
8
0
100
AcDbBlockBegin
2
_CLOSED
70
0
10
0
20
0
30
0
3
_CLOSED
0
LINE
5
10D
100
AcDbEntity
8
0
62
256
6
ByLayer
370
-2
48
1
60
0
100
AcDbLine
10
-1
20
0.166667
30
0
11
0
21
0
31
0
39
0
210
0
220
0
230
1
0
LINE
5
10E
100
AcDbEntity
8
0
62
256
6
ByLayer
370
-2
48
1
60
0
100
AcDbLine
10
0
20
0
30
0
11
-1
21
-0.166667
31
0
39
0
210
0
220
0
230
1
0
LINE
5
10F
100
AcDbEntity
8
0
62
256
6
ByLayer
370
-2
48
1
60
0
100
AcDbLine
10
-1
20
0.166667
30
0
11
-1
21
-0.166667
31
0
39
0
210
0
220
0
230
1
0
LINE
5
110
100
AcDbEntity
8
0
62
256
6
ByLayer
370
-2
48
1
60
0
100
AcDbLine
10
0
20
0
30
0
11
-1
21
0
31
0
39
0
210
0
220
0
230
1
0
ENDBLK
5
10C
100
AcDbEntity
8
0
100
AcDbBlockEnd
0
BLOCK
5
11D
100
AcDbEntity
8
0
100
AcDbBlockBegin
2
DimnDraft3D2
70
0
10
0
20
0
30
0
3
DimnDraft3D2
0
MTEXT
5
112
100
AcDbEntity
8
2
62
256
6
ByLayer
370
13
48
1
60
0
100
AcDbMText
10
67.752334
20
0.686842
30
0
210
0
220
0
230
1
1
\W0.6740;35
40
4.5
41
0
44
1.084337
50
90
71
7
72
5
7
iso_b_vert
0
LINE
5
114
100
AcDbEntity
8
2
62
256
6
ByLayer
370
13
48
1
60
0
100
AcDbLine
10
53.964834
20
-15.425
30
0
11
72.052334
21
-15.425
31
0
39
0
210
0
220
0
230
1
0
LINE
5
115
100
AcDbEntity
8
2
62
256
6
ByLayer
370
13
48
1
60
0
100
AcDbLine
10
1.5875
20
19.925
30
0
11
72.052334
21
19.925
31
0
39
0
210
0
220
0
230
1
0
LINE
5
116
100
AcDbEntity
8
2
62
256
6
ByLayer
370
13
48
1
60
0
100
AcDbLine
10
68.877334
20
-15.425
30
0
11
68.877334
21
19.925
31
0
39
0
210
0
220
0
230
1
0
LINE
5
117
100
AcDbEntity
8
2
62
256
6
ByLayer
370
13
48
1
60
0
100
AcDbLine
10
68.877334
20
-15.425
30
0
11
68.026595
21
-12.250003
31
0
39
0
210
0
220
0
230
1
0
LINE
5
118
100
AcDbEntity
8
2
62
256
6
ByLayer
370
13
48
1
60
0
100
AcDbLine
10
68.877334
20
-15.425
30
0
11
69.728072
21
-12.249997
31
0
39
0
210
0
220
0
230
1
0
LINE
5
119
100
AcDbEntity
8
2
62
256
6
ByLayer
370
13
48
1
60
0
100
AcDbLine
10
68.026595
20
-12.250003
30
0
11
69.728072
21
-12.249997
31
0
39
0
210
0
220
0
230
1
0
LINE
5
11A
100
AcDbEntity
8
2
62
256
6
ByLayer
370
13
48
1
60
0
100
AcDbLine
10
68.877334
20
19.925
30
0
11
69.728072
21
16.750003
31
0
39
0
210
0
220
0
230
1
0
LINE
5
11B
100
AcDbEntity
8
2
62
256
6
ByLayer
370
13
48
1
60
0
100
AcDbLine
10
68.877334
20
19.925
30
0
11
68.026595
21
16.749997
31
0
39
0
210
0
220
0
230
1
0
LINE
5
11C
100
AcDbEntity
8
2
62
256
6
ByLayer
370
13
48
1
60
0
100
AcDbLine
10
69.728072
20
16.750003
30
0
11
68.026595
21
16.749997
31
0
39
0
210
0
220
0
230
1
0
ENDBLK
5
11E
100
AcDbEntity
8
0
100
AcDbBlockEnd
0
BLOCK
5
12B
100
AcDbEntity
8
0
100
AcDbBlockBegin
2
DimnDraft3D3
70
0
10
0
20
0
30
0
3
DimnDraft3D3
0
MTEXT
5
121
100
AcDbEntity
8
SK2
62
256
6
ByLayer
370
13
48
1
60
0
100
AcDbMText
10
-76.542403
20
-48.476375
30
0
210
0
220
0
230
1
1
\W0.7138;250
40
4.5
41
0
44
1.084337
50
0
71
7
72
5
7
iso_b_vert
0
LINE
5
122
100
AcDbEntity
8
SK2
62
256
6
ByLayer
370
13
48
1
60
0
100
AcDbLine
10
-198.972666
20
-21.6625
30
0
11
-198.972666
21
-52.776375
31
0
39
0
210
0
220
0
230
1
0
LINE
5
123
100
AcDbEntity
8
SK2
62
256
6
ByLayer
370
13
48
1
60
0
100
AcDbLine
10
52.377334
20
-17.0125
30
0
11
52.377334
21
-52.776375
31
0
39
0
210
0
220
0
230
1
0
LINE
5
124
100
AcDbEntity
8
SK2
62
256
6
ByLayer
370
13
48
1
60
0
100
AcDbLine
10
-198.972666
20
-49.601375
30
0
11
52.377334
21
-49.601375
31
0
39
0
210
0
220
0
230
1
0
LINE
5
125
100
AcDbEntity
8
SK2
62
256
6
ByLayer
370
13
48
1
60
0
100
AcDbLine
10
-198.972666
20
-49.601375
30
0
11
-195.79767
21
-48.750636
31
0
39
0
210
0
220
0
230
1
0
LINE
5
126
100
AcDbEntity
8
SK2
62
256
6
ByLayer
370
13
48
1
60
0
100
AcDbLine
10
-198.972666
20
-49.601375
30
0
11
-195.797663
21
-50.452114
31
0
39
0
210
0
220
0
230
1
0
LINE
5
127
100
AcDbEntity
8
SK2
62
256
6
ByLayer
370
13
48
1
60
0
100
AcDbLine
10
-195.79767
20
-48.750636
30
0
11
-195.797663
21
-50.452114
31
0
39
0
210
0
220
0
230
1
0
LINE
5
128
100
AcDbEntity
8
SK2
62
256
6
ByLayer
370
13
48
1
60
0
100
AcDbLine
10
52.377334
20
-49.601375
30
0
11
49.202337
21
-50.452114
31
0
39
0
210
0
220
0
230
1
0
LINE
5
129
100
AcDbEntity
8
SK2
62
256
6
ByLayer
370
13
48
1
60
0
100
AcDbLine
10
52.377334
20
-49.601375
30
0
11
49.20233
21
-48.750636
31
0
39
0
210
0
220
0
230
1
0
LINE
5
12A
100
AcDbEntity
8
SK2
62
256
6
ByLayer
370
13
48
1
60
0
100
AcDbLine
10
49.202337
20
-50.452114
30
0
11
49.20233
21
-48.750636
31
0
39
0
210
0
220
0
230
1
0
ENDBLK
5
12C
100
AcDbEntity
8
0
100
AcDbBlockEnd
0
BLOCK
5
139
100
AcDbEntity
8
0
100
AcDbBlockBegin
2
DimnDraft3D4
70
0
10
0
20
0
30
0
3
DimnDraft3D4
0
MTEXT
5
12F
100
AcDbEntity
8
2
62
256
6
ByLayer
370
13
48
1
60
0
100
AcDbMText
10
24.733365
20
-41.914946
30
0
210
0
220
0
230
1
1
\W0.8292;75%%d0'
40
4.5
41
0
44
1.084337
50
322.5
71
7
72
5
7
iso_b_vert
0
LINE
5
130
100
AcDbEntity
8
2
62
256
6
ByLayer
370
13
48
1
60
0
100
AcDbLine
10
24.930843
20
-22.225212
30
0
11
11.244321
21
-25.892505
31
0
39
0
210
0
220
0
230
1
0
LINE
5
131
100
AcDbEntity
8
2
62
256
6
ByLayer
370
13
48
1
60
0
100
AcDbLine
10
52.377334
20
-17.0125
30
0
11
52.377334
21
-57.454976
31
0
39
0
210
0
220
0
230
1
0
ARC
5
132
100
AcDbEntity
8
2
62
256
6
ByLayer
370
13
48
1
60
0
100
AcDbCircle
39
0
10
52.377334
20
-14.870947
30
0
40
39.409028289231
210
0
220
0
230
1
100
AcDbArc
50
195
51
270
0
LINE
5
133
100
AcDbEntity
8
2
62
256
6
ByLayer
370
13
48
1
60
0
100
AcDbLine
10
14.311135
20
-25.070754
30
0
11
16.011602
21
-27.88372
31
0
39
0
210
0
220
0
230
1
0
LINE
5
134
100
AcDbEntity
8
2
62
256
6
ByLayer
370
13
48
1
60
0
100
AcDbLine
10
14.311135
20
-25.070754
30
0
11
14.377301
21
-28.357093
31
0
39
0
210
0
220
0
230
1
0
LINE
5
135
100
AcDbEntity
8
2
62
256
6
ByLayer
370
13
48
1
60
0
100
AcDbLine
10
16.011602
20
-27.88372
30
0
11
14.377301
21
-28.357093
31
0
39
0
210
0
220
0
230
1
0
LINE
5
136
100
AcDbEntity
8
2
62
256
6
ByLayer
370
13
48
1
60
0
100
AcDbLine
10
52.377334
20
-54.279976
30
0
11
49.185855
21
-55.066632
31
0
39
0
210
0
220
0
230
1
0
LINE
5
137
100
AcDbEntity
8
2
62
256
6
ByLayer
370
13
48
1
60
0
100
AcDbLine
10
52.377334
20
-54.279976
30
0
11
49.220098
21
-53.365499
31
0
39
0
210
0
220
0
230
1
0
LINE
5
138
100
AcDbEntity
8
2
62
256
6
ByLayer
370
13
48
1
60
0
100
AcDbLine
10
49.185855
20
-55.066632
30
0
11
49.220098
21
-53.365499
31
0
39
0
210
0
220
0
230
1
0
ENDBLK
5
13A
100
AcDbEntity
8
0
100
AcDbBlockEnd
0
ENDSEC
0
SECTION
2
ENTITIES
0
ARC
5
B4
100
AcDbEntity
8
1
62
256
6
ByLayer
370
18
48
1
60
0
100
AcDbCircle
39
0
10
0
20
-21.525
30
0
40
1.59999999999989
210
0
220
0
230
-1
100
AcDbArc
50
90
51
165
0
ELLIPSE
5
B5
100
AcDbEntity
8
1
62
256
6
ByLayer
370
18
48
1
60
0
100
AcDbEllipse
10
24.414469
20
5.478571
30
0
11
-1.83632205017853
21
-3.18060308996821
31
0
210
0
220
0
230
1
40
0.989133
41
2.35073128167082
42
2.78108050058848
0
ELLIPSE
5
B6
100
AcDbEntity
8
1
62
256
6
ByLayer
370
18
48
1
60
0
100
AcDbEllipse
10
24.395147
20
5.489726
30
0
11
1.76132712758594
21
3.05070807372816
31
0
210
0
220
0
230
1
40
0.989133
41
-0.790861371918993
42
-0.299889235402805
0
ELLIPSE
5
B7
100
AcDbEntity
8
1
62
256
6
ByLayer
370
18
48
1
60
0
100
AcDbEllipse
10
28.464946
20
5.514909
30
0
11
0.0386464722183089
21
-0.144936782255404
31
0
210
0
220
0
230
-1
40
0.093018
41
1.67478201520732
42
-3.0259714368038
0
ELLIPSE
5
B8
100
AcDbEntity
8
1
62
256
6
ByLayer
370
18
48
1
60
0
100
AcDbEllipse
10
28.718503
20
-5.496403
30
0
11
2.25000000000002
21
3.89711431702996
31
0
210
0
220
0
230
1
40
0.989133
41
2.09180973966458
42
2.3507312816708
0
ELLIPSE
5
B9
100
AcDbEntity
8
1
62
256
6
ByLayer
370
18
48
1
60
0
100
AcDbEllipse
10
26.15226
20
4.475257
30
0
11
1.75691216924892
21
3.04306114157514
31
0
210
0
220
0
230
1
40
0.989133
41
-0.790861371918984
42
1.45612940240641
0
ELLIPSE
5
BA
100
AcDbEntity
8
1
62
256
6
ByLayer
370
18
48
1
60
0
100
AcDbEllipse
10
25.323853
20
3.841419
30
0
11
-1.68716531126696
21
-2.92225603988209
31
0
210
0
220
0
230
1
40
0.989133
41
-1.98730716039727
42
-0.790861371918977
0
ELLIPSE
5
BB
100
AcDbEntity
8
1
62
256
6
ByLayer
370
18
48
1
60
0
100
AcDbEllipse
10
0
20
19.931981
30
0
11
1.60000000000065
21
1.61702248813244E-15
31
0
210
0
220
0
230
-1
40
0.004363
41
0.261799387799859
42
1.5707963267949
0
ELLIPSE
5
BC
100
AcDbEntity
8
1
62
256
6
ByLayer
370
18
48
1
60
0
100
AcDbEllipse
10
29.877954
20
-10.020688
30
0
11
2.25000000000002
21
3.89711431702996
31
0
210
0
220
0
230
1
40
0.989133
41
2.35073128167081
42
2.60965282367702
0
ELLIPSE
5
BD
100
AcDbEntity
8
1
62
256
6
ByLayer
370
18
48
1
60
0
100
AcDbEllipse
10
27.798229
20
6.385435
30
0
11
-0.145304387133116
21
-0.0372375493268481
31
0
210
0
220
0
230
1
40
0.103393
41
-3.04794266409488
42
-1.46551022717716
0
ELLIPSE
5
BE
100
AcDbEntity
8
1
62
256
6
ByLayer
370
18
48
1
60
0
100
AcDbEllipse
10
22.76211
20
2.317172
30
0
11
0.65
21
1.12583302491976
31
0
210
0
220
0
230
1
40
0.989133
41
0.779934954875921
42
1.15407924127566
0
ELLIPSE
5
BF
100
AcDbEntity
8
1
62
256
6
ByLayer
370
18
48
1
60
0
100
AcDbEllipse
10
36.324992
20
-6.302195
30
0
11
2.25000000000002
21
3.89711431702996
31
0
210
0
220
0
230
1
40
0.989133
41
8.37242486548818E-06
42
0.415336732817228
0
ELLIPSE
5
C0
100
AcDbEntity
8
1
62
256
6
ByLayer
370
18
48
1
60
0
100
AcDbEllipse
10
36.495188
20
-5.015494
30
0
11
-2.25000000000002
21
-3.89711431702996
31
0
210
0
220
0
230
1
40
0.989133
41
-0.207700481944269
42
7.02430244260945E-06
0
ELLIPSE
5
C1
100
AcDbEntity
8
1
62
256
6
ByLayer
370
18
48
1
60
0
100
AcDbEllipse
10
36.580954
20
-5.579347
30
0
11
-2.15000000000002
21
-3.72390923627307
31
0
210
0
220
0
230
1
40
0.989133
41
-0.197930079977813
42
-2.86358066051616E-05
0
ELLIPSE
5
C2
100
AcDbEntity
8
1
62
256
6
ByLayer
370
18
48
1
60
0
100
AcDbEllipse
10
24.083906
20
1.549739
30
0
11
-1.19062500000001
21
-2.06222299276169
31
0
210
0
220
0
230
1
40
0.989133
41
-2.3616576987139
42
-1.62799759949139
0
ELLIPSE
5
C3
100
AcDbEntity
8
1
62
256
6
ByLayer
370
18
48
1
60
0
100
AcDbEllipse
10
36.544357
20
-5.736363
30
0
11
2.28000000000002
21
3.94907584125703
31
0
210
0
220
0
230
1
40
0.989133
41
-3.01177887589913
42
-2.27154118661225
0
ELLIPSE
5
C4
100
AcDbEntity
8
1
62
256
6
ByLayer
370
18
48
1
60
0
100
AcDbEllipse
10
36.544357
20
-5.736363
30
0
11
2.28000000000002
21
3.94907584125703
31
0
210
0
220
0
230
1
40
0.989133
41
-0.645668712806909
42
-0.129760308783251
0
ELLIPSE
5
C5
100
AcDbEntity
8
1
62
256
6
ByLayer
370
18
48
1
60
0
100
AcDbEllipse
10
35.003764
20
-4.846901
30
0
11
2.87500000000003
21
4.97964607176051
31
0
210
0
220
0
230
1
40
0.989133
41
-2.29413982627103
42
-2.19055500455796
0
ELLIPSE
5
C6
100
AcDbEntity
8
1
62
256
6
ByLayer
370
18
48
1
60
0
100
AcDbEllipse
10
35.003764
20
-4.846901
30
0
11
2.87500000000003
21
4.97964607176051
31
0
210
0
220
0
230
1
40
0.989133
41
-0.878411383581695
42
-0.847481205118886
0
ELLIPSE
5
C7
100
AcDbEntity
8
1
62
256
6
ByLayer
370
18
48
1
60
0
100
AcDbEllipse
10
14.944361
20
-3.152677
30
0
11
-1.28750000000001
21
-2.23001541474492
31
0
210
0
220
0
230
1
40
0.989133
41
0.0754248036836687
42
2.08967649804742
0
ELLIPSE
5
C8
100
AcDbEntity
8
1
62
256
6
ByLayer
370
18
48
1
60
0
100
AcDbEllipse
10
14.944361
20
-3.152677
30
0
11
-1.28750000000001
21
-2.23001541474492
31
0
210
0
220
0
230
1
40
0.989133
41
2.0896768874333
42
2.93584516301745
0
ELLIPSE
5
C9
100
AcDbEntity
8
1
62
256
6
ByLayer
370
18
48
1
60
0
100
AcDbEllipse
10
15.122618
20
-3.255594
30
0
11
1.28750000000001
21
2.23001541474492
31
0
210
0
220
0
230
1
40
0.989133
41
-0.45236915062609
42
-0.125170128178244
0
ELLIPSE
5
CA
100
AcDbEntity
8
1
62
256
6
ByLayer
370
18
48
1
60
0
100
AcDbEllipse
10
15.122618
20
-3.255594
30
0
11
1.28750000000001
21
2.23001541474492
31
0
210
0
220
0
230
1
40
0.989133
41
3.14158666569253
42
-2.94449601528599
0
ELLIPSE
5
CB
100
AcDbEntity
8
1
62
256
6
ByLayer
370
18
48
1
60
0
100
AcDbEllipse
10
37.365043
20
-6.210186
30
0
11
-2.14500000000002
21
-3.71524898223523
31
0
210
0
220
0
230
1
40
0.989133
41
1.70867655636076
42
2.22484113610335
0
ELLIPSE
5
CC
100
AcDbEntity
8
1
62
256
6
ByLayer
370
18
48
1
60
0
100
AcDbEllipse
10
37.428706
20
-6.246942
30
0
11
1.89500000000002
21
3.28223628034301
31
0
210
0
220
0
230
1
40
0.989133
41
1.7179232112084
42
2.21559448125571
0
ELLIPSE
5
CD
100
AcDbEntity
8
1
62
256
6
ByLayer
370
18
48
1
60
0
100
AcDbEllipse
10
37.428706
20
-6.246942
30
0
11
1.89500000000002
21
3.28223628034301
31
0
210
0
220
0
230
1
40
0.989133
41
-1.42366944238139
42
-0.925998172334085
0
ELLIPSE
5
CE
100
AcDbEntity
8
1
62
256
6
ByLayer
370
18
48
1
60
0
100
AcDbEllipse
10
37.513804
20
-5.603592
30
0
11
2.00000000000002
21
3.46410161513774
31
0
210
0
220
0
230
1
40
0.989133
41
2.37374793270052
42
-1.58182289382622
0
ELLIPSE
5
CF
100
AcDbEntity
8
1
62
256
6
ByLayer
370
18
48
1
60
0
100
AcDbEllipse
10
37.450141
20
-5.566836
30
0
11
-2.25000000000002
21
-3.89711431702996
31
0
210
0
220
0
230
1
40
0.989133
41
-0.776632851356986
42
1.56855789023131
0
ELLIPSE
5
D0
100
AcDbEntity
8
1
62
256
6
ByLayer
370
18
48
1
60
0
100
AcDbEllipse
10
37.365043
20
-6.210186
30
0
11
-2.14500000000002
21
-3.71524898223523
31
0
210
0
220
0
230
1
40
0.989133
41
-1.43291609722903
42
-0.916751517486454
0
ELLIPSE
5
D1
100
AcDbEntity
8
1
62
256
6
ByLayer
370
18
48
1
60
0
100
AcDbEllipse
10
37.343608
20
-6.890293
30
0
11
2.00000000000002
21
3.46410161513774
31
0
210
0
220
0
230
1
40
0.989133
41
-0.767844720889261
42
1.55976975976357
0
ELLIPSE
5
D2
100
AcDbEntity
8
1
62
256
6
ByLayer
370
18
48
1
60
0
100
AcDbEllipse
10
37.279945
20
-6.853537
30
0
11
-2.25000000000002
21
-3.89711431702996
31
0
210
0
220
0
230
1
40
0.989133
41
2.36495980223282
42
-1.5730347633585
0
ELLIPSE
5
D3
100
AcDbEntity
8
1
62
256
6
ByLayer
370
18
48
1
60
0
100
AcDbEllipse
10
15.122618
20
-3.255594
30
0
11
1.28750000000001
21
2.23001541474492
31
0
210
0
220
0
230
1
40
0.989133
41
-2.54676425301929
42
-1.8972984640894
0
ELLIPSE
5
D4
100
AcDbEntity
8
1
62
256
6
ByLayer
370
18
48
1
60
0
100
AcDbEllipse
10
15.821007
20
-3.658809
30
0
11
1.28750000000001
21
2.23001541474492
31
0
210
0
220
0
230
1
40
0.989133
41
0.197096638303786
42
0.594828400570538
0
ELLIPSE
5
D5
100
AcDbEntity
8
1
62
256
6
ByLayer
370
18
48
1
60
0
100
AcDbEllipse
10
15.848382
20
-3.674614
30
0
11
-2.61750000000003
21
-4.53364298881152
31
0
210
0
220
0
230
1
40
0.989133
41
0
42
6.28318530717959
0
ELLIPSE
5
D6
100
AcDbEntity
8
1
62
256
6
ByLayer
370
18
48
1
60
0
100
AcDbEllipse
10
15.821007
20
-3.658809
30
0
11
1.28750000000001
21
2.23001541474492
31
0
210
0
220
0
230
1
40
0.989133
41
1.24429418950039
42
1.64202595176712
0
ELLIPSE
5
D7
100
AcDbEntity
8
1
62
256
6
ByLayer
370
18
48
1
60
0
100
AcDbEllipse
10
15.821007
20
-3.658809
30
0
11
1.28750000000001
21
2.23001541474492
31
0
210
0
220
0
230
1
40
0.989133
41
2.29149174069698
42
2.68922350296372
0
ELLIPSE
5
D8
100
AcDbEntity
8
1
62
256
6
ByLayer
370
18
48
1
60
0
100
AcDbEllipse
10
15.821007
20
-3.658809
30
0
11
1.28750000000001
21
2.23001541474492
31
0
210
0
220
0
230
1
40
0.989133
41
-2.94449601528602
42
-2.5467642530193
0
ELLIPSE
5
D9
100
AcDbEntity
8
1
62
256
6
ByLayer
370
18
48
1
60
0
100
AcDbEllipse
10
15.821007
20
-3.658809
30
0
11
1.28750000000001
21
2.23001541474492
31
0
210
0
220
0
230
1
40
0.989133
41
-1.89729846408938
42
-1.49956670182269
0
ELLIPSE
5
DA
100
AcDbEntity
8
1
62
256
6
ByLayer
370
18
48
1
60
0
100
AcDbEllipse
10
15.750977
20
-3.618377
30
0
11
-3.00000000000003
21
-5.19615242270662
31
0
210
0
220
0
230
1
40
0.989133
41
0
42
6.28318530717959
0
ELLIPSE
5
DB
100
AcDbEntity
8
1
62
256
6
ByLayer
370
18
48
1
60
0
100
AcDbEllipse
10
15.848382
20
-3.674614
30
0
11
-1.47369546181367
21
-2.55251541474492
31
0
210
0
220
0
230
1
40
0.989133
41
0
42
6.28318530717959
0
ELLIPSE
5
DC
100
AcDbEntity
8
1
62
256
6
ByLayer
370
18
48
1
60
0
100
AcDbEllipse
10
15.821007
20
-3.658809
30
0
11
1.28750000000001
21
2.23001541474492
31
0
210
0
220
0
230
1
40
0.989133
41
-0.85010091289279
42
-0.452369150626089
0
ELLIPSE
5
DD
100
AcDbEntity
8
1
62
256
6
ByLayer
370
18
48
1
60
0
100
AcDbEllipse
10
15.122618
20
-3.255594
30
0
11
1.28750000000001
21
2.23001541474492
31
0
210
0
220
0
230
1
40
0.989133
41
-1.4995667018227
42
-0.850100912892806
0
ELLIPSE
5
DE
100
AcDbEntity
8
1
62
256
6
ByLayer
370
18
48
1
60
0
100
AcDbEllipse
10
44.919656
20
6.278352
30
0
11
1.19062500000001
21
2.06222299276169
31
0
210
0
220
0
230
1
40
0.989133
41
-0.790861371918998
42
0.779934954875914
0
ELLIPSE
5
DF
100
AcDbEntity
8
1
62
256
6
ByLayer
370
18
48
1
60
0
100
AcDbEllipse
10
25.094564
20
0.966235
30
0
11
1.19062500000001
21
2.06222299276169
31
0
210
0
220
0
230
1
40
0.989133
41
0.779934954875901
42
2.3507312816708
0
ELLIPSE
5
E0
100
AcDbEntity
8
1
62
256
6
ByLayer
370
18
48
1
60
0
100
AcDbEllipse
10
37.555015
20
-6.319866
30
0
11
2.28000000000002
21
3.94907584125703
31
0
210
0
220
0
230
1
40
0.989133
41
0
42
6.28318530717959
0
ELLIPSE
5
E1
100
AcDbEntity
8
1
62
256
6
ByLayer
370
18
48
1
60
0
100
AcDbEllipse
10
30.190373
20
-18.918085
30
0
11
1.19062500000001
21
2.06222299276169
31
0
210
0
220
0
230
1
40
0.989133
41
2.35073128167081
42
-2.36165769871387
0
ELLIPSE
5
E2
100
AcDbEntity
8
1
62
256
6
ByLayer
370
18
48
1
60
0
100
AcDbEllipse
10
50.015465
20
-13.605968
30
0
11
1.19062500000001
21
2.06222299276169
31
0
210
0
220
0
230
1
40
0.989133
41
-2.36165769871389
42
-0.790861371918986
0
POINT
5
6C
100
AcDbEntity
8
80
62
256
6
ByLayer
370
18
48
1
60
0
100
AcDbPoint
10
0
20
0
30
0
39
0
210
0
220
0
230
1
50
360
0
POINT
5
6E
100
AcDbEntity
8
81
62
256
6
ByLayer
370
18
48
1
60
0
100
AcDbPoint
10
51.027334
20
-15.075
30
0
39
0
210
0
220
0
230
1
50
360
0
POINT
5
70
100
AcDbEntity
8
1
62
256
6
ByLayer
370
18
48
1
60
0
100
AcDbPoint
10
-198.972666
20
19.925
30
0
39
0
210
0
220
0
230
1
50
360
0
SPLINE
5
E3
100
AcDbEntity
8
1
62
256
6
ByLayer
370
18
48
1
60
0
100
AcDbSpline
70
4
71
3
72
16
73
12
40
0
40
0
40
0
40
0
40
0.114448894484325
40
0.114448894484325
40
0.298302480343514
40
0.298302480343514
40
0.666009652061893
40
0.666009652061893
40
0.849863237921083
40
0.849863237921083
40
1
40
1
40
1
40
1
41
1
10
38.4001643112082
20
-1.85414814117826
30
0
41
1
10
38.4657045696562
20
-1.89192127417829
30
0
41
1
10
38.5303909587533
20
-1.93151701654949
30
0
41
1
10
38.6967472423142
20
-2.03952448932409
30
0
41
1
10
38.7974422068287
20
-2.11119215817405
30
0
41
1
10
39.0874484138378
20
-2.33675562151922
30
0
41
1
10
39.2661834368245
20
-2.50186255864628
30
0
41
1
10
39.5132507475373
20
-2.77078987488625
30
0
41
1
10
39.5920827634583
20
-2.86399504151777
30
0
41
1
10
39.7288405570668
20
-3.03984420398773
30
0
41
1
10
39.7880354618586
20
-3.12148430391625
30
0
41
1
10
39.8441299387691
20
-3.20443757648012
30
0
0
SPLINE
5
E4
100
AcDbEntity
8
1
62
256
6
ByLayer
370
18
48
1
60
0
100
AcDbSpline
70
4
71
3
72
10
73
6
40
0
40
0
40
0
40
0
40
0.129236111401113
40
0.129236111401113
40
1
40
1
40
1
40
1
41
1
10
36.19632675065
20
-9.84557357472409
30
0
41
1
10
36.1782573927549
20
-9.84548554322899
30
0
41
1
10
36.1602109251215
20
-9.84528360341386
30
0
41
1
10
36.0207989290755
20
-9.84284035451068
30
0
41
1
10
35.9001741010707
20
-9.83559245028192
30
0
41
1
10
35.7803059962807
20
-9.82329989371857
30
0
0
SPLINE
5
E5
100
AcDbEntity
8
1
62
256
6
ByLayer
370
18
48
1
60
0
100
AcDbSpline
70
4
71
3
72
16
73
12
40
0
40
0
40
0
40
0
40
0.354521755575041
40
0.354521755575041
40
0.531782633362561
40
0.531782633362561
40
0.709043511150082
40
0.709043511150082
40
0.886304388937602
40
0.886304388937602
40
1
40
1
40
1
40
1
41
1
10
35.7803059962807
20
-9.82329989371857
30
0
41
1
10
35.4862854977635
20
-9.76663041028331
30
0
41
1
10
35.2059673451897
20
-9.67982014278397
30
0
41
1
10
34.8064238399159
20
-9.50791764964039
30
0
41
1
10
34.676765084151
20
-9.44361455820949
30
0
41
1
10
34.4250569052426
20
-9.3010914336767
30
0
41
1
10
34.304587405298
20
-9.22369524685014
30
0
41
1
10
34.0772259797242
20
-9.05971447952024
30
0
41
1
10
33.9698872781116
20
-8.97286095657549
30
0
41
1
10
33.8048928948583
20
-8.82395731641559
30
0
41
1
10
33.7431922091478
20
-8.76413734884697
30
0
41
1
10
33.6846634333606
20
-8.70323987639246
30
0
0
SPLINE
5
E6
100
AcDbEntity
8
1
62
256
6
ByLayer
370
18
48
1
60
0
100
AcDbSpline
70
4
71
3
72
8
73
4
40
0
40
0
40
0
40
0
40
1
40
1
40
1
40
1
41
1
10
34.3839882958804
20
-9.53243551163341
30
0
41
1
10
34.7402889003854
20
-9.59766359688741
30
0
41
1
10
35.0903068826166
20
-9.66251497595701
30
0
41
1
10
35.4379993584749
20
-9.72722691760792
30
0
0
SPLINE
5
E7
100
AcDbEntity
8
1
62
256
6
ByLayer
370
18
48
1
60
0
100
AcDbSpline
70
4
71
3
72
8
73
4
40
0
40
0
40
0
40
0
40
1
40
1
40
1
40
1
41
1
10
33.6950154941645
20
-6.72162275266646
30
0
41
1
10
33.5111588786871
20
-6.74330805413506
30
0
41
1
10
33.3273346513426
20
-6.76500627764952
30
0
41
1
10
33.1435328748054
20
-6.78671345006504
30
0
0
SPLINE
5
E8
100
AcDbEntity
8
1
62
256
6
ByLayer
370
18
48
1
60
0
100
AcDbSpline
70
4
71
3
72
8
73
4
40
0
40
0
40
0
40
0
40
1
40
1
40
1
40
1
41
1
10
40.9179998793554
20
-7.61993369887405
30
0
41
1
10
41.045325230829
20
-7.68032020088069
30
0
41
1
10
41.1726069085553
20
-7.74071016523956
30
0
41
1
10
41.2998583231745
20
-7.80110252255474
30
0
0
SPLINE
5
E9
100
AcDbEntity
8
1
62
256
6
ByLayer
370
18
48
1
60
0
100
AcDbSpline
70
4
71
3
72
8
73
4
40
0
40
0
40
0
40
0
40
1
40
1
40
1
40
1
41
1
10
41.5865526817942
20
-5.63365885881885
30
0
41
1
10
41.4451999682364
20
-5.67987400917229
30
0
41
1
10
41.3038189396327
20
-5.72607682490508
30
0
41
1
10
41.1623970514427
20
-5.77226182759604
30
0
0
SPLINE
5
EA
100
AcDbEntity
8
1
62
256
6
ByLayer
370
18
48
1
60
0
100
AcDbSpline
70
4
71
3
72
8
73
4
40
0
40
0
40
0
40
0
40
1
40
1
40
1
40
1
41
1
10
33.4302272334251
20
-4.61926978632914
30
0
41
1
10
33.5999277110236
20
-4.70417012158227
30
0
41
1
10
33.7696525874908
20
-4.78906467815945
30
0
41
1
10
33.9394126662518
20
-4.87395088138845
30
0
0
SPLINE
5
EB
100
AcDbEntity
8
1
62
256
6
ByLayer
370
18
48
1
60
0
100
AcDbSpline
70
4
71
3
72
10
73
6
40
0
40
0
40
0
40
0
40
0.5
40
0.5
40
1
40
1
40
1
40
1
41
1
10
14.7435903064732
20
-0.996598822053102
30
0
41
1
10
14.6437353722245
20
-1.11716128659793
30
0
41
1
10
14.5430058551493
20
-1.240014950415
30
0
41
1
10
14.3429382081549
20
-1.48723799681179
30
0
41
1
10
14.2434775675127
20
-1.61175276938172
30
0
41
1
10
14.144699103289
20
-1.7373425486719
30
0
0
SPLINE
5
EC
100
AcDbEntity
8
1
62
256
6
ByLayer
370
18
48
1
60
0
100
AcDbSpline
70
4
71
3
72
10
73
6
40
0
40
0
40
0
40
0
40
0.5
40
0.5
40
1
40
1
40
1
40
1
41
1
10
16.948375354492
20
-6.34985855170814
30
0
41
1
10
16.7903755194278
20
-6.32762911747922
30
0
41
1
10
16.63131064252
20
-6.30554534452085
30
0
41
1
10
16.3103152025209
20
-6.26176972638883
30
0
41
1
10
16.1499018252
20
-6.24028982164502
30
0
41
1
10
15.9906881701753
20
-6.21943886097499
30
0
0
SPLINE
5
ED
100
AcDbEntity
8
1
62
256
6
ByLayer
370
18
48
1
60
0
100
AcDbSpline
70
4
71
3
72
10
73
6
40
0
40
0
40
0
40
0
40
0.5
40
0.5
40
1
40
1
40
1
40
1
41
1
10
18.7117168072421
20
-4.02963541060554
30
0
41
1
10
18.6471464711696
20
-3.88344208995554
30
0
41
1
10
18.5822551609552
20
-3.73535462066471
30
0
41
1
10
18.4540049761999
20
-3.43962905717214
30
0
41
1
10
18.3905663809226
20
-3.29181285554155
30
0
41
1
10
18.3279448235746
20
-3.14405209146673
30
0
0
SPLINE
5
EE
100
AcDbEntity
8
1
62
256
6
ByLayer
370
18
48
1
60
0
100
AcDbSpline
70
4
71
3
72
10
73
6
40
0
40
0
40
0
40
0
40
0.5
40
0.5
40
1
40
1
40
1
40
1
41
1
10
15.6513254857198
20
-1.09817870921259
30
0
41
1
10
15.4959890311461
20
-1.07991472630312
30
0
41
1
10
15.3409383765941
20
-1.0621801826519
30
0
41
1
10
15.0381663402745
20
-1.02836913331151
30
0
41
1
10
14.8897650561976
20
-1.01220678319424
30
0
41
1
10
14.7435903064732
20
-0.996598822053102
30
0
0
SPLINE
5
EF
100
AcDbEntity
8
1
62
256
6
ByLayer
370
18
48
1
60
0
100
AcDbSpline
70
4
71
3
72
8
73
4
40
0
40
0
40
0
40
0
40
1
40
1
40
1
40
1
41
1
10
18.1128256040578
20
-4.77037913722435
30
0
41
1
10
18.3139507130267
20
-4.51466289134416
30
0
41
1
10
18.5133445337933
20
-4.26914535935556
30
0
41
1
10
18.7117168072421
20
-4.02963541060554
30
0
0
SPLINE
5
F0
100
AcDbEntity
8
1
62
256
6
ByLayer
370
18
48
1
60
0
100
AcDbSpline
70
4
71
3
72
10
73
6
40
0
40
0
40
0
40
0
40
0.5
40
0.5
40
1
40
1
40
1
40
1
41
1
10
14.9903765569791
20
-6.09503171514271
30
0
41
1
10
14.8350401024053
20
-6.07676773223324
30
0
41
1
10
14.6799894478533
20
-6.05903318858202
30
0
41
1
10
14.3772174115338
20
-6.02522213924162
30
0
41
1
10
14.2288161274568
20
-6.00905978912436
30
0
41
1
10
14.0826413777324
20
-5.99345182798322
30
0
0
SPLINE
5
F1
100
AcDbEntity
8
1
62
256
6
ByLayer
370
18
48
1
60
0
100
AcDbSpline
70
4
71
3
72
10
73
6
40
0
40
0
40
0
40
0
40
0.5
40
0.5
40
1
40
1
40
1
40
1
41
1
10
17.6093242832326
20
-1.35300554577805
30
0
41
1
10
17.4513244481685
20
-1.33077611154911
30
0
41
1
10
17.2922595712607
20
-1.30869233859073
30
0
41
1
10
16.9712641312616
20
-1.26491672045873
30
0
41
1
10
16.8108507539408
20
-1.24343681571491
30
0
41
1
10
16.6516370989161
20
-1.22258585504488
30
0
0
SPLINE
5
F2
100
AcDbEntity
8
1
62
256
6
ByLayer
370
18
48
1
60
0
100
AcDbSpline
70
4
71
3
72
10
73
6
40
0
40
0
40
0
40
0
40
0.5
40
0.5
40
1
40
1
40
1
40
1
41
1
10
12.980248853723
20
-3.3168219631557
30
0
41
1
10
13.0333804324301
20
-3.45641111416161
30
0
41
1
10
13.0880377578191
20
-3.59858998955858
30
0
41
1
10
13.1993553521252
20
-3.88453951739722
30
0
41
1
10
13.2560786385996
20
-4.02847863368274
30
0
41
1
10
13.3140688323205
20
-4.17356547872082
30
0
0
SPLINE
5
F3
100
AcDbEntity
8
1
62
256
6
ByLayer
370
18
48
1
60
0
100
AcDbSpline
70
4
71
3
72
8
73
4
40
0
40
0
40
0
40
0
40
1
40
1
40
1
40
1
41
1
10
13.6988693940649
20
-5.10786850884438
30
0
41
1
10
13.8263745911174
20
-5.40872760813693
30
0
41
1
10
13.9543656499437
20
-5.70302350214669
30
0
41
1
10
14.0826413777324
20
-5.99345182798324
30
0
0
SPLINE
5
F4
100
AcDbEntity
8
1
62
256
6
ByLayer
370
18
48
1
60
0
100
AcDbSpline
70
4
71
3
72
8
73
4
40
0
40
0
40
0
40
0
40
1
40
1
40
1
40
1
41
1
10
17.9431442618301
20
-2.20974906134313
30
0
41
1
10
17.8250690910639
20
-1.9143343902654
30
0
41
1
10
17.714875722822
20
-1.63031399770549
30
0
41
1
10
17.6093242832326
20
-1.35300554577802
30
0
0
SPLINE
5
F5
100
AcDbEntity
8
1
62
256
6
ByLayer
370
18
48
1
60
0
100
AcDbSpline
70
4
71
3
72
8
73
4
40
0
40
0
40
0
40
0
40
1
40
1
40
1
40
1
41
1
10
13.5291880518373
20
-2.54723843296318
30
0
41
1
10
13.3374929691546
20
-2.80839910705819
30
0
41
1
10
13.1558968389724
20
-3.06419214049662
30
0
41
1
10
12.980248853723
20
-3.31682196315572
30
0
0
SPLINE
5
F6
100
AcDbEntity
8
1
62
256
6
ByLayer
370
18
48
1
60
0
100
AcDbSpline
70
4
71
3
72
10
73
6
40
0
40
0
40
0
40
0
40
0.5
40
0.5
40
1
40
1
40
1
40
1
41
1
10
16.948375354492
20
-6.34985855170814
30
0
41
1
10
17.0367915313753
20
-6.22269191751921
30
0
41
1
10
17.127287063625
20
-6.09392965980831
30
0
41
1
10
17.3104221201702
20
-5.83693057775754
30
0
41
1
10
17.4031674520094
20
-5.70853871984258
30
0
41
1
10
17.4973145526062
20
-5.58027502151565
30
0
0
LINE
5
72
100
AcDbEntity
8
1
62
256
6
ByLayer
370
18
48
1
60
0
100
AcDbLine
10
39.529945
20
-2.956422
30
0
11
38.574992
21
-2.40508
31
0
39
0
210
0
220
0
230
1
0
LINE
5
73
100
AcDbEntity
8
1
62
256
6
ByLayer
370
18
48
1
60
0
100
AcDbLine
10
46.110281
20
8.340575
30
0
11
45.269414
21
8.82605
31
0
39
0
210
0
220
0
230
1
0
LINE
5
74
100
AcDbEntity
8
1
62
256
6
ByLayer
370
18
48
1
60
0
100
AcDbLine
10
34.430954
20
-9.303256
30
0
11
34.522241
21
-9.35596
31
0
39
0
210
0
220
0
230
1
0
LINE
5
75
100
AcDbEntity
8
1
62
256
6
ByLayer
370
18
48
1
60
0
100
AcDbLine
10
18.750977
20
1.577775
30
0
11
18.665687
21
1.627018
31
0
39
0
210
0
220
0
230
1
0
LINE
5
76
100
AcDbEntity
8
1
62
256
6
ByLayer
370
18
48
1
60
0
100
AcDbLine
10
12.665687
20
-8.765287
30
0
11
12.750977
21
-8.814529
31
0
39
0
210
0
220
0
230
1
0
LINE
5
77
100
AcDbEntity
8
1
62
256
6
ByLayer
370
18
48
1
60
0
100
AcDbLine
10
28.085655
20
-20.452557
30
0
11
28.999748
21
-20.980308
31
0
39
0
210
0
220
0
230
1
0
LINE
5
78
100
AcDbEntity
8
1
62
256
6
ByLayer
370
18
48
1
60
0
100
AcDbLine
10
38.403326
20
-1.855974
30
0
11
38.375844
21
-1.840107
31
0
39
0
210
0
220
0
230
1
0
LINE
5
79
100
AcDbEntity
8
1
62
256
6
ByLayer
370
18
48
1
60
0
100
AcDbLine
10
34.245188
20
-8.912608
30
0
11
35.200141
21
-9.46395
31
0
39
0
210
0
220
0
230
1
0
LINE
5
7A
100
AcDbEntity
8
1
62
256
6
ByLayer
370
18
48
1
60
0
100
AcDbLine
10
28.113998
20
5.089775
30
0
11
27.77913
21
6.396461
31
0
39
0
210
0
220
0
230
1
0
LINE
5
7B
100
AcDbEntity
8
1
62
256
6
ByLayer
370
18
48
1
60
0
100
AcDbLine
10
45.704657
20
8.940649
30
0
11
44.732592
21
8.684726
31
0
39
0
210
0
220
0
230
1
0
LINE
5
7C
100
AcDbEntity
8
1
62
256
6
ByLayer
370
18
48
1
60
0
100
AcDbLine
10
34.383327
20
5.959997
30
0
11
29.695353
21
4.725759
31
0
39
0
210
0
220
0
230
1
0
LINE
5
7D
100
AcDbEntity
8
1
62
256
6
ByLayer
370
18
48
1
60
0
100
AcDbLine
10
28.532781
20
5.193704
30
0
11
28.447526
21
5.526377
31
0
39
0
210
0
220
0
230
1
0
LINE
5
7E
100
AcDbEntity
8
1
62
256
6
ByLayer
370
18
48
1
60
0
100
AcDbLine
10
28.200849
20
5.415949
30
0
11
28.510504
21
5.187735
31
0
39
0
210
0
220
0
230
1
0
LINE
5
7F
100
AcDbEntity
8
1
62
256
6
ByLayer
370
18
48
1
60
0
100
AcDbLine
10
28.566193
20
5.55762
30
0
11
28.447526
21
5.526377
31
0
39
0
210
0
220
0
230
1
0
LINE
5
80
100
AcDbEntity
8
1
62
256
6
ByLayer
370
18
48
1
60
0
100
AcDbLine
10
28.200849
20
5.415949
30
0
11
28.273486
21
5.132511
31
0
39
0
210
0
220
0
230
1
0
LINE
5
81
100
AcDbEntity
8
1
62
256
6
ByLayer
370
18
48
1
60
0
100
AcDbLine
10
29.695353
20
4.725759
30
0
11
29.52776
21
5.379719
31
0
39
0
210
0
220
0
230
1
0
LINE
5
82
100
AcDbEntity
8
1
62
256
6
ByLayer
370
18
48
1
60
0
100
AcDbLine
10
28.428113
20
5.659292
30
0
11
29.695353
21
4.725759
31
0
39
0
210
0
220
0
230
1
0
LINE
5
83
100
AcDbEntity
8
1
62
256
6
ByLayer
370
18
48
1
60
0
100
AcDbLine
10
2.695398
20
-23.101375
30
0
11
2.07883
21
-23.101375
31
0
39
0
210
0
220
0
230
1
0
LINE
5
84
100
AcDbEntity
8
1
62
256
6
ByLayer
370
18
48
1
60
0
100
AcDbLine
10
25.983689
20
-12.250506
30
0
11
28.205967
21
-20.922045
31
0
39
0
210
0
220
0
230
1
0
LINE
5
85
100
AcDbEntity
8
1
62
256
6
ByLayer
370
18
48
1
60
0
100
AcDbLine
10
27.942537
20
6.423914
30
0
11
29.52776
21
5.379719
31
0
39
0
210
0
220
0
230
1
0
LINE
5
86
100
AcDbEntity
8
1
62
256
6
ByLayer
370
18
48
1
60
0
100
AcDbLine
10
0
20
-19.925
30
0
11
0
21
19.925
31
0
39
0
210
0
220
0
230
1
0
LINE
5
87
100
AcDbEntity
8
1
62
256
6
ByLayer
370
18
48
1
60
0
100
AcDbLine
10
27.942537
20
6.423914
30
0
11
28.200851
21
5.41595
31
0
39
0
210
0
220
0
230
1
0
LINE
5
88
100
AcDbEntity
8
1
62
256
6
ByLayer
370
18
48
1
60
0
100
AcDbLine
10
1.545481
20
19.930174
30
0
11
1.545481
21
-21.11089
31
0
39
0
210
0
220
0
230
1
0
LINE
5
89
100
AcDbEntity
8
1
62
256
6
ByLayer
370
18
48
1
60
0
100
AcDbLine
10
28.205967
20
-20.922045
30
0
11
20.072596
21
-23.101375
31
0
39
0
210
0
220
0
230
1
0
LINE
5
8A
100
AcDbEntity
8
1
62
256
6
ByLayer
370
18
48
1
60
0
100
AcDbLine
10
42.88575
20
19.940284
30
0
11
45.704657
21
8.940649
31
0
39
0
210
0
220
0
230
1
0
LINE
5
8B
100
AcDbEntity
8
1
62
256
6
ByLayer
370
18
48
1
60
0
100
AcDbLine
10
24.395649
20
-6.654708
30
0
11
25.555099
21
-11.178993
31
0
39
0
210
0
220
0
230
1
0
LINE
5
8C
100
AcDbEntity
8
1
62
256
6
ByLayer
370
18
48
1
60
0
100
AcDbLine
10
1.545481
20
19.930174
30
0
11
3.524375
21
19.962399
31
0
39
0
210
0
220
0
230
1
0
LINE
5
8D
100
AcDbEntity
8
1
62
256
6
ByLayer
370
18
48
1
60
0
100
AcDbLine
10
2.695398
20
-23.101375
30
0
11
3.524375
21
19.962399
31
0
39
0
210
0
220
0
230
1
0
LINE
5
8E
100
AcDbEntity
8
1
62
256
6
ByLayer
370
18
48
1
60
0
100
AcDbLine
10
20.072596
20
-23.101375
30
0
11
2.695398
21
-23.101375
31
0
39
0
210
0
220
0
230
1
0
LINE
5
8F
100
AcDbEntity
8
1
62
256
6
ByLayer
370
18
48
1
60
0
100
AcDbLine
10
22.082355
20
2.972862
30
0
11
24.25525
21
-5.505976
31
0
39
0
210
0
220
0
230
1
0
LINE
5
90
100
AcDbEntity
8
1
62
256
6
ByLayer
370
18
48
1
60
0
100
AcDbLine
10
1.545481
20
-21.11089
30
0
11
2.07883
21
-23.101375
31
0
39
0
210
0
220
0
230
1
0
LINE
5
91
100
AcDbEntity
8
1
62
256
6
ByLayer
370
18
48
1
60
0
100
AcDbLine
10
42.88575
20
19.940284
30
0
11
3.524375
21
19.962399
31
0
39
0
210
0
220
0
230
1
0
LINE
5
92
100
AcDbEntity
8
SK1
62
256
6
ByLayer
370
18
48
1
60
0
100
AcDbLine
10
-198.972666
20
-19.925
30
0
11
0
21
-19.925
31
0
39
0
210
0
220
0
230
1
0
LINE
5
94
100
AcDbEntity
8
SK1
62
256
6
ByLayer
370
18
48
1
60
0
100
AcDbLine
10
0
20
-19.925
30
0
11
0
21
19.925
31
0
39
0
210
0
220
0
230
1
0
LINE
5
95
100
AcDbEntity
8
SK1
62
256
6
ByLayer
370
18
48
1
60
0
100
AcDbLine
10
-198.972666
20
19.925
30
0
11
-198.972666
21
-19.925
31
0
39
0
210
0
220
0
230
1
0
LINE
5
96
100
AcDbEntity
8
SK1
62
256
6
ByLayer
370
18
48
1
60
0
100
AcDbLine
10
-198.972666
20
19.925
30
0
11
0
21
19.925
31
0
39
0
210
0
220
0
230
1
0
LINE
5
97
100
AcDbEntity
8
1
62
256
6
ByLayer
370
18
48
1
60
0
100
AcDbLine
10
22.669338
20
3.437962
30
0
11
22.441114
21
3.569727
31
0
39
0
210
0
220
0
230
1
0
LINE
5
98
100
AcDbEntity
8
1
62
256
6
ByLayer
370
18
48
1
60
0
100
AcDbLine
10
28.308417
20
5.141866
30
0
11
22.441114
21
3.569727
31
0
39
0
210
0
220
0
230
1
0
LINE
5
99
100
AcDbEntity
8
1
62
256
6
ByLayer
370
18
48
1
60
0
100
AcDbLine
10
33.430227
20
-4.61927
30
0
11
33.386828
21
-4.594213
31
0
39
0
210
0
220
0
230
1
0
LINE
5
9A
100
AcDbEntity
8
1
62
256
6
ByLayer
370
18
48
1
60
0
100
AcDbLine
10
33.046981
20
-6.730969
30
0
11
33.143533
21
-6.786713
31
0
39
0
210
0
220
0
230
1
0
LINE
5
9B
100
AcDbEntity
8
1
62
256
6
ByLayer
370
18
48
1
60
0
100
AcDbLine
10
22.807054
20
0.353298
30
0
11
22.744409
21
0.389466
31
0
39
0
210
0
220
0
230
1
0
LINE
5
9C
100
AcDbEntity
8
1
62
256
6
ByLayer
370
18
48
1
60
0
100
AcDbLine
10
27.840217
20
-19.494854
30
0
11
27.902862
21
-19.531022
31
0
39
0
210
0
220
0
230
1
0
LINE
5
9D
100
AcDbEntity
8
1
62
256
6
ByLayer
370
18
48
1
60
0
100
AcDbLine
10
44.331678
20
8.572697
30
0
11
44.269033
21
8.608865
31
0
39
0
210
0
220
0
230
1
0
LINE
5
9E
100
AcDbEntity
8
1
62
256
6
ByLayer
370
18
48
1
60
0
100
AcDbLine
10
23.495928
20
3.844083
30
0
11
28.91964
21
5.297362
31
0
39
0
210
0
220
0
230
1
0
LINE
5
9F
100
AcDbEntity
8
1
62
256
6
ByLayer
370
18
48
1
60
0
100
AcDbLine
10
17.024775
20
-1.272416
30
0
11
17.244756
21
-1.806534
31
0
39
0
210
0
220
0
230
1
0
LINE
5
A0
100
AcDbEntity
8
1
62
256
6
ByLayer
370
18
48
1
60
0
100
AcDbLine
10
13.932544
20
-5.647113
30
0
11
14.291988
21
-5.691817
31
0
39
0
210
0
220
0
230
1
0
LINE
5
A1
100
AcDbEntity
8
80
62
256
6
ByLayer
370
18
48
1
60
0
100
AcDbLine
10
0
20
0
30
0
11
-5
21
0
31
0
39
0
210
0
220
0
230
1
0
LINE
5
A2
100
AcDbEntity
8
81
62
256
6
ByLayer
370
18
48
1
60
0
100
AcDbLine
10
51.027334
20
-15.075
30
0
11
61.027334
21
-15.075
31
0
39
0
210
0
220
0
230
1
0
LINE
5
A3
100
AcDbEntity
8
1
62
256
6
ByLayer
370
18
48
1
60
0
100
AcDbLine
10
17.629556
20
-2.740837
30
0
11
17.988352
21
-3.612001
31
0
39
0
210
0
220
0
230
1
0
LINE
5
A4
100
AcDbEntity
8
1
62
256
6
ByLayer
370
18
48
1
60
0
100
AcDbLine
10
17.629556
20
-2.740837
30
0
11
18.327945
21
-3.144052
31
0
39
0
210
0
220
0
230
1
0
LINE
5
A5
100
AcDbEntity
8
1
62
256
6
ByLayer
370
18
48
1
60
0
100
AcDbLine
10
16.798926
20
-5.17706
30
0
11
16.225011
21
-5.932224
31
0
39
0
210
0
220
0
230
1
0
LINE
5
A6
100
AcDbEntity
8
1
62
256
6
ByLayer
370
18
48
1
60
0
100
AcDbLine
10
15.2923
20
-5.816224
30
0
11
15.990688
21
-6.219439
31
0
39
0
210
0
220
0
230
1
0
LINE
5
A7
100
AcDbEntity
8
1
62
256
6
ByLayer
370
18
48
1
60
0
100
AcDbLine
10
16.948375
20
-6.349859
30
0
11
16.225011
21
-5.932224
31
0
39
0
210
0
220
0
230
1
0
LINE
5
A8
100
AcDbEntity
8
1
62
256
6
ByLayer
370
18
48
1
60
0
100
AcDbLine
10
18.112826
20
-4.770379
30
0
11
17.414437
21
-4.367164
31
0
39
0
210
0
220
0
230
1
0
LINE
5
A9
100
AcDbEntity
8
1
62
256
6
ByLayer
370
18
48
1
60
0
100
AcDbLine
10
17.943144
20
-2.209749
30
0
11
17.244756
21
-1.806534
31
0
39
0
210
0
220
0
230
1
0
LINE
5
AA
100
AcDbEntity
8
1
62
256
6
ByLayer
370
18
48
1
60
0
100
AcDbLine
10
17.988352
20
-3.612001
30
0
11
17.414437
21
-4.367164
31
0
39
0
210
0
220
0
230
1
0
LINE
5
AB
100
AcDbEntity
8
1
62
256
6
ByLayer
370
18
48
1
60
0
100
AcDbLine
10
14.990377
20
-6.095032
30
0
11
14.291988
21
-5.691817
31
0
39
0
210
0
220
0
230
1
0
LINE
5
AC
100
AcDbEntity
8
1
62
256
6
ByLayer
370
18
48
1
60
0
100
AcDbLine
10
15.2923
20
-5.816224
30
0
11
16.225011
21
-5.932224
31
0
39
0
210
0
220
0
230
1
0
LINE
5
AD
100
AcDbEntity
8
1
62
256
6
ByLayer
370
18
48
1
60
0
100
AcDbLine
10
16.798926
20
-5.17706
30
0
11
17.497315
21
-5.580275
31
0
39
0
210
0
220
0
230
1
0
LINE
5
AE
100
AcDbEntity
8
1
62
256
6
ByLayer
370
18
48
1
60
0
100
AcDbLine
10
18.711717
20
-4.029635
30
0
11
17.988352
21
-3.612001
31
0
39
0
210
0
220
0
230
1
0
LINE
5
AF
100
AcDbEntity
8
1
62
256
6
ByLayer
370
18
48
1
60
0
100
AcDbLine
10
27.902862
20
-19.531022
30
0
11
22.807054
21
0.353298
31
0
39
0
210
0
220
0
230
1
0
LINE
5
B0
100
AcDbEntity
8
1
62
256
6
ByLayer
370
18
48
1
60
0
100
AcDbLine
10
50.603443
20
-15.900313
30
0
11
30.778351
21
-21.21243
31
0
39
0
210
0
220
0
230
1
0
LINE
5
B1
100
AcDbEntity
8
1
62
256
6
ByLayer
370
18
48
1
60
0
100
AcDbLine
10
24.506586
20
3.26058
30
0
11
44.331678
21
8.572697
31
0
39
0
210
0
220
0
230
1
0
LINE
5
B2
100
AcDbEntity
8
1
62
256
6
ByLayer
370
18
48
1
60
0
100
AcDbLine
10
23.495928
20
3.844083
30
0
11
24.506586
21
3.26058
31
0
39
0
210
0
220
0
230
1
0
LINE
5
B3
100
AcDbEntity
8
1
62
256
6
ByLayer
370
18
48
1
60
0
100
AcDbLine
10
47.207167
20
6.891289
30
0
11
52.302976
21
-12.993031
31
0
39
0
210
0
220
0
230
1
0
MTEXT
5
F7
100
AcDbEntity
8
SK6
62
256
6
ByLayer
370
13
48
1
60
0
100
AcDbMText
10
-155.72313
20
28.910722
30
0
210
0
220
0
230
1
1
\W0.7957;PSBNL 4040S 25
40
3.5
41
0
44
1.084337
50
0
71
7
72
5
7
iso_b_vert
0
DIMENSION
5
109
100
AcDbEntity
8
SK2
62
256
6
ByLayer
370
13
48
1
60
0
100
AcDbDimension
2
DimnDraft3D1
10
-208.722666
20
19.925
30
0
11
-208.722666
21
-0.075
31
0
70
32
71
5
72
1
41
1
210
0
220
0
230
1
3
Standard
100
AcDbAlignedDimension
13
-200.560166
23
-20.075
33
0
14
-200.560166
24
19.925
34
0
50
90
100
AcDbRotatedDimension
1001
ACAD
1000
DSTYLE
1002
{
1070
    74
1070
     0
1070
   279
1070
     0
1070
   172
1070
     1
1070
   173
1070
     1
1070
   340
1005
F8
1070
   271
1070
     1
1070
   272
1070
     2
1070
    77
1070
     1
1070
    73
1070
     0
1070
   171
1070
     3
1070
   274
1070
     4
1070
   177
1070
   150
1070
   176
1070
     9
1070
   178
1070
    43
1070
    78
1070
     8
1070
    48
1040
-0.005
1070
    41
1041
3.175
1070
   147
1041
2.25
1070
    42
1041
1.5875
1070
    44
1041
3.175
1070
   140
1041
4.5
1070
   343
1005
10A
1070
   344
1005
10A
1002
}
0
DIMENSION
5
11F
100
AcDbEntity
8
2
62
256
6
ByLayer
370
13
48
1
60
0
100
AcDbDimension
2
DimnDraft3D2
10
68.877334
20
19.925
30
0
11
68.877334
21
2.25
31
0
70
32
71
5
72
1
41
1
210
0
220
0
230
1
3
Standard
100
AcDbAlignedDimension
13
53.964834
23
-15.425
33
0
14
1.5875
24
19.925
34
0
50
90
100
AcDbRotatedDimension
1001
ACAD
1000
DSTYLE
1002
{
1070
    74
1070
     0
1070
   279
1070
     0
1070
   172
1070
     1
1070
   173
1070
     1
1070
   340
1005
F8
1070
   271
1070
     1
1070
   272
1070
     2
1070
    77
1070
     1
1070
    73
1070
     0
1070
   171
1070
     3
1070
   274
1070
     4
1070
   177
1070
   150
1070
   176
1070
     9
1070
   178
1070
    43
1070
    78
1070
     8
1070
    48
1040
-0.005
1070
    41
1041
3.175
1070
   147
1041
2.25
1070
    42
1041
1.5875
1070
    44
1041
3.175
1070
   140
1041
4.5
1070
   343
1005
10A
1070
   344
1005
10A
1002
}
0
DIMENSION
5
12D
100
AcDbEntity
8
SK2
62
256
6
ByLayer
370
13
48
1
60
0
100
AcDbDimension
2
DimnDraft3D3
10
52.377334
20
-49.601375
30
0
11
-73.297666
21
-49.601375
31
0
70
32
71
5
72
1
41
1
210
0
220
0
230
1
3
Standard
100
AcDbAlignedDimension
13
-198.972666
23
-21.6625
33
0
14
52.377334
24
-17.0125
34
0
50
0
100
AcDbRotatedDimension
1001
ACAD
1000
DSTYLE
1002
{
1070
   279
1070
     0
1070
   172
1070
     1
1070
   173
1070
     1
1070
   340
1005
F8
1070
   271
1070
     1
1070
   272
1070
     2
1070
    77
1070
     1
1070
    73
1070
     0
1070
   171
1070
     3
1070
   274
1070
     4
1070
   177
1070
   150
1070
   176
1070
     9
1070
   178
1070
    43
1070
    78
1070
     8
1070
    48
1040
-0.005
1070
    41
1041
3.175
1070
   147
1041
2.25
1070
    42
1041
1.5875
1070
    44
1041
3.175
1070
   140
1041
4.5
1070
   343
1005
10A
1070
   344
1005
10A
1002
}
0
DIMENSION
5
13B
100
AcDbEntity
8
2
62
256
6
ByLayer
370
13
48
1
60
0
100
AcDbDimension
2
DimnDraft3D4
10
52.377334
20
-10.6625
30
0
11
31.126064
21
-42.566142
31
0
70
34
71
5
72
1
41
1
210
0
220
0
230
1
3
Standard
100
AcDb2LineAngularDimension
13
50.612396
23
-15.343861
33
0
14
26.464251
24
-21.814337
34
0
15
52.377334
25
-15.425
35
0
16
28.386637
26
-46.136232
36
0
40
0
0
ENDSEC
0
SECTION
2
OBJECTS
0
DICTIONARY
5
1a5
330
0
100
AcDbDictionary
280
0
281
1
3
ACAD_GROUP
350
1a6
3
ACAD_MLINESTYLE
350
1a7
0
DICTIONARY
5
1a6
330
0
100
AcDbDictionary
280
0
281
1
0
DICTIONARY
5
1a7
330
0
100
AcDbDictionary
280
0
281
1
3
Standard
350
18
0
MLINESTYLE
5
18
330
1a7
100
AcDbMlineStyle
2
Standard
70
0
3

62
256
51
90
52
90
71
2
49
-0.5
62
256
6
ByLayer
49
0.5
62
256
6
ByLayer
0
RASTERVARIABLES
5
194
330

100
AcDbRasterVariables
90
0
70
1
71
1
72
1
0
ENDSEC
0
EOF
