0
SECTION
2
HEADER
9
$ACADVER
1
AC1015
9
$DWGCODEPAGE
3
ANSI_1252
9
$HANDSEED
5
18a
9
$ANGBASE
50
0
9
$ANGDIR
70
0
9
$ATTMODE
70
1
9
$AUNITS
70
0
9
$AUPREC
70
0
9
$CECOLOR
62
256
9
$CELTSCALE
40
1
9
$CELTYPE
6
ByLayer
9
$CELWEIGHT
370
18
9
$CLAYER
8
0
9
$CMLJUST
70
0
9
$CMLSCALE
40
1
9
$CMLSTYLE
2
Standard
9
$DIMSTYLE
2
Standard
9
$TEXTSIZE
40
0.2
9
$TEXTSTYLE
7
Standard
9
$LUNITS
70
2
9
$LUPREC
70
4
9
$EXTNAMES
290
1
9
$INSUNITS
70
4
9
$LTSCALE
40
1
9
$LWDISPLAY
290
1
9
$PDMODE
70
0
9
$PDSIZE
40
0
9
$PLINEGEN
70
0
0
ENDSEC
0
SECTION
2
CLASSES
0
CLASS
1
RASTERVARIABLES
2
AcDbRasterVariables
3
ISM
90
0
280
0
281
0
0
ENDSEC
0
SECTION
2
TABLES
0
TABLE
2
VPORT
5
180
100
AcDbSymbolTable
0
VPORT
5
1
100
AcDbSymbolTableRecord
100
AcDbViewportTableRecord
2
*Active
70
0
10
0
20
0
11
1
21
1
12
-1
22
1
13
0
23
0
14
0.5
24
0.5
15
10
25
10
16
0
26
0
36
1
17
0
27
0
37
0
0
ENDTAB
0
TABLE
2
LTYPE
5
181
100
AcDbSymbolTable
0
LTYPE
5
14
100
AcDbSymbolTableRecord
100
AcDbLinetypeTableRecord
70
0
2
ByBlock
3

72
65
73
0
40
0
0
LTYPE
5
15
100
AcDbSymbolTableRecord
100
AcDbLinetypeTableRecord
70
0
2
ByLayer
3

72
65
73
0
40
0
0
LTYPE
5
16
100
AcDbSymbolTableRecord
100
AcDbLinetypeTableRecord
70
0
2
CONTINUOUS
3
Solid line
72
65
73
0
40
0
0
LTYPE
5
6A
100
AcDbSymbolTableRecord
100
AcDbLinetypeTableRecord
70
0
2
CENTER
3
____ _ ____ _ ____ _ ____
72
65
73
4
40
47.5
49
22
74
0
49
-8.5
74
0
49
8.5
74
0
49
-8.5
74
0
0
LTYPE
5
6B
100
AcDbSymbolTableRecord
100
AcDbLinetypeTableRecord
70
0
2
DASHED
3
__ __ __ __ __ __ __ __ __
72
65
73
2
40
25.72
49
12.86
74
0
49
-12.86
74
0
0
ENDTAB
0
TABLE
2
LAYER
5
182
100
AcDbSymbolTable
0
LAYER
5
10
100
AcDbSymbolTableRecord
100
AcDbLayerTableRecord
2
0
70
0
62
7
6
CONTINUOUS
290
1
370
-3
390
0
0
LAYER
5
6D
100
AcDbSymbolTableRecord
100
AcDbLayerTableRecord
2
80
70
0
62
-6
6
CONTINUOUS
290
1
370
-3
390
0
0
LAYER
5
6F
100
AcDbSymbolTableRecord
100
AcDbLayerTableRecord
2
81
70
0
62
-3
6
CONTINUOUS
290
1
370
-3
390
0
0
LAYER
5
71
100
AcDbSymbolTableRecord
100
AcDbLayerTableRecord
2
1
70
0
62
4
6
CONTINUOUS
290
1
370
-3
390
0
0
LAYER
5
F9
100
AcDbSymbolTableRecord
100
AcDbLayerTableRecord
2
2
70
0
62
7
6
CONTINUOUS
290
1
370
-3
390
0
0
LAYER
5
16d
100
AcDbSymbolTableRecord
100
AcDbLayerTableRecord
2
SK1
70
0
62
4
6
CONTINUOUS
290
1
370
-3
390
0
0
LAYER
5
16e
100
AcDbSymbolTableRecord
100
AcDbLayerTableRecord
2
SK6
70
0
62
5
6
CONTINUOUS
290
1
370
-3
390
0
0
LAYER
5
16f
100
AcDbSymbolTableRecord
100
AcDbLayerTableRecord
2
SK2
70
0
62
7
6
CONTINUOUS
290
1
370
-3
390
0
0
ENDTAB
0
TABLE
2
STYLE
5
183
100
AcDbSymbolTable
0
STYLE
5
11
100
AcDbSymbolTableRecord
100
AcDbTextStyleTableRecord
2
Standard
3
txt
70
0
71
0
40
0
41
1
42
0
50
0
0
STYLE
5
DE
100
AcDbSymbolTableRecord
100
AcDbTextStyleTableRecord
2
iso_b_vert
3
simplex.shx
70
0
71
0
40
0
41
1
42
0
50
0
0
STYLE
5
DF
100
AcDbSymbolTableRecord
100
AcDbTextStyleTableRecord
2
DWGDirectTextStyle
3
simplex
70
0
71
0
40
0
41
1
42
0
50
0
0
ENDTAB
0
TABLE
2
DIMSTYLE
5
184
100
AcDbSymbolTable
100
AcDbDimStyleTable
0
DIMSTYLE
105
27
100
AcDbSymbolTableRecord
100
AcDbDimStyleTableRecord
2
Standard
70
0
3
<>
41
0.18
42
0.0625
44
0.18
140
0.18
147
0.09
73
0
74
0
77
1
271
2
275
0
278
52
280
0
340
11
0
ENDTAB
0
TABLE
2
VIEW
5
185
100
AcDbSymbolTable
0
ENDTAB
0
TABLE
2
UCS
5
186
100
AcDbSymbolTable
0
ENDTAB
0
TABLE
2
APPID
5
187
100
AcDbSymbolTable
0
APPID
5
12
100
AcDbSymbolTableRecord
100
AcDbRegAppTableRecord
2
ACAD
70
0
0
ENDTAB
0
TABLE
2
BLOCK_RECORD
5
188
100
AcDbSymbolTable
0
BLOCK_RECORD
5
1F
100
AcDbSymbolTableRecord
100
AcDbBlockTableRecord
2
*Model_Space
340
0
70
0
0
BLOCK_RECORD
5
1B
100
AcDbSymbolTableRecord
100
AcDbBlockTableRecord
2
*Paper_Space
340
0
70
0
0
BLOCK_RECORD
5
23
100
AcDbSymbolTableRecord
100
AcDbBlockTableRecord
2
*Paper_Space0
340
0
70
0
0
BLOCK_RECORD
5
E1
100
AcDbSymbolTableRecord
100
AcDbBlockTableRecord
2
DimnDraft3D1
340
0
70
0
0
BLOCK_RECORD
5
F0
100
AcDbSymbolTableRecord
100
AcDbBlockTableRecord
2
_CLOSED
340
0
70
0
0
BLOCK_RECORD
5
F7
100
AcDbSymbolTableRecord
100
AcDbBlockTableRecord
2
DimnDraft3D2
340
0
70
0
0
BLOCK_RECORD
5
106
100
AcDbSymbolTableRecord
100
AcDbBlockTableRecord
2
DimnDraft3D3
340
0
70
0
0
ENDTAB
0
ENDSEC
0
SECTION
2
BLOCKS
0
BLOCK
5
20
100
AcDbEntity
8
0
100
AcDbBlockBegin
2
*Model_Space
70
0
10
0
20
0
30
0
3
*Model_Space
0
ENDBLK
5
21
100
AcDbEntity
8
0
100
AcDbBlockEnd
0
BLOCK
5
1C
100
AcDbEntity
8
0
100
AcDbBlockBegin
2
*Paper_Space
70
0
10
0
20
0
30
0
3
*Paper_Space
0
ENDBLK
5
1D
100
AcDbEntity
8
0
100
AcDbBlockEnd
0
BLOCK
5
24
100
AcDbEntity
8
0
100
AcDbBlockBegin
2
*Paper_Space0
70
0
10
0
20
0
30
0
3
*Paper_Space0
0
ENDBLK
5
25
100
AcDbEntity
8
0
100
AcDbBlockEnd
0
BLOCK
5
ED
100
AcDbEntity
8
0
100
AcDbBlockBegin
2
DimnDraft3D1
70
0
10
0
20
0
30
0
3
DimnDraft3D1
0
MTEXT
5
E2
100
AcDbEntity
8
SK2
62
256
6
ByLayer
370
13
48
1
60
0
100
AcDbMText
10
-146.086555
20
-1.488158
30
0
210
0
220
0
230
1
1
\W0.6740;32
40
4.5
41
0
44
1.084337
50
90
71
7
72
5
7
iso_b_vert
0
LINE
5
E4
100
AcDbEntity
8
SK2
62
256
6
ByLayer
370
13
48
1
60
0
100
AcDbLine
10
-136.799055
20
16.075
30
0
11
-148.136555
21
16.075
31
0
39
0
210
0
220
0
230
1
0
LINE
5
E5
100
AcDbEntity
8
SK2
62
256
6
ByLayer
370
13
48
1
60
0
100
AcDbLine
10
-136.799055
20
-15.925
30
0
11
-148.136555
21
-15.925
31
0
39
0
210
0
220
0
230
1
0
LINE
5
E6
100
AcDbEntity
8
SK2
62
256
6
ByLayer
370
13
48
1
60
0
100
AcDbLine
10
-144.961555
20
16.075
30
0
11
-144.961555
21
-15.925
31
0
39
0
210
0
220
0
230
1
0
LINE
5
E7
100
AcDbEntity
8
SK2
62
256
6
ByLayer
370
13
48
1
60
0
100
AcDbLine
10
-144.961555
20
16.075
30
0
11
-144.110817
21
12.900003
31
0
39
0
210
0
220
0
230
1
0
LINE
5
E8
100
AcDbEntity
8
SK2
62
256
6
ByLayer
370
13
48
1
60
0
100
AcDbLine
10
-144.961555
20
16.075
30
0
11
-145.812294
21
12.899997
31
0
39
0
210
0
220
0
230
1
0
LINE
5
E9
100
AcDbEntity
8
SK2
62
256
6
ByLayer
370
13
48
1
60
0
100
AcDbLine
10
-144.110817
20
12.900003
30
0
11
-145.812294
21
12.899997
31
0
39
0
210
0
220
0
230
1
0
LINE
5
EA
100
AcDbEntity
8
SK2
62
256
6
ByLayer
370
13
48
1
60
0
100
AcDbLine
10
-144.961555
20
-15.925
30
0
11
-145.812294
21
-12.750003
31
0
39
0
210
0
220
0
230
1
0
LINE
5
EB
100
AcDbEntity
8
SK2
62
256
6
ByLayer
370
13
48
1
60
0
100
AcDbLine
10
-144.961555
20
-15.925
30
0
11
-144.110817
21
-12.749997
31
0
39
0
210
0
220
0
230
1
0
LINE
5
EC
100
AcDbEntity
8
SK2
62
256
6
ByLayer
370
13
48
1
60
0
100
AcDbLine
10
-145.812294
20
-12.750003
30
0
11
-144.110817
21
-12.749997
31
0
39
0
210
0
220
0
230
1
0
ENDBLK
5
EE
100
AcDbEntity
8
0
100
AcDbBlockEnd
0
BLOCK
5
F1
100
AcDbEntity
8
0
100
AcDbBlockBegin
2
_CLOSED
70
0
10
0
20
0
30
0
3
_CLOSED
0
LINE
5
F3
100
AcDbEntity
8
0
62
256
6
ByLayer
370
-2
48
1
60
0
100
AcDbLine
10
-1
20
0.166667
30
0
11
0
21
0
31
0
39
0
210
0
220
0
230
1
0
LINE
5
F4
100
AcDbEntity
8
0
62
256
6
ByLayer
370
-2
48
1
60
0
100
AcDbLine
10
0
20
0
30
0
11
-1
21
-0.166667
31
0
39
0
210
0
220
0
230
1
0
LINE
5
F5
100
AcDbEntity
8
0
62
256
6
ByLayer
370
-2
48
1
60
0
100
AcDbLine
10
-1
20
0.166667
30
0
11
-1
21
-0.166667
31
0
39
0
210
0
220
0
230
1
0
LINE
5
F6
100
AcDbEntity
8
0
62
256
6
ByLayer
370
-2
48
1
60
0
100
AcDbLine
10
0
20
0
30
0
11
-1
21
0
31
0
39
0
210
0
220
0
230
1
0
ENDBLK
5
F2
100
AcDbEntity
8
0
100
AcDbBlockEnd
0
BLOCK
5
103
100
AcDbEntity
8
0
100
AcDbBlockBegin
2
DimnDraft3D2
70
0
10
0
20
0
30
0
3
DimnDraft3D2
0
MTEXT
5
F8
100
AcDbEntity
8
2
62
256
6
ByLayer
370
13
48
1
60
0
100
AcDbMText
10
51.513445
20
2.45
30
0
210
0
220
0
230
1
1
\W0.7361;40
40
4.5
41
0
44
1.084337
50
90
71
7
72
5
7
iso_b_vert
0
LINE
5
FA
100
AcDbEntity
8
2
62
256
6
ByLayer
370
13
48
1
60
0
100
AcDbLine
10
1.5875
20
-15.925
30
0
11
55.813445
21
-15.925
31
0
39
0
210
0
220
0
230
1
0
LINE
5
FB
100
AcDbEntity
8
2
62
256
6
ByLayer
370
13
48
1
60
0
100
AcDbLine
10
37.725945
20
24.425
30
0
11
55.813445
21
24.425
31
0
39
0
210
0
220
0
230
1
0
LINE
5
FC
100
AcDbEntity
8
2
62
256
6
ByLayer
370
13
48
1
60
0
100
AcDbLine
10
52.638445
20
-15.925
30
0
11
52.638445
21
24.425
31
0
39
0
210
0
220
0
230
1
0
LINE
5
FD
100
AcDbEntity
8
2
62
256
6
ByLayer
370
13
48
1
60
0
100
AcDbLine
10
52.638445
20
-15.925
30
0
11
51.787706
21
-12.750003
31
0
39
0
210
0
220
0
230
1
0
LINE
5
FE
100
AcDbEntity
8
2
62
256
6
ByLayer
370
13
48
1
60
0
100
AcDbLine
10
52.638445
20
-15.925
30
0
11
53.489183
21
-12.749997
31
0
39
0
210
0
220
0
230
1
0
LINE
5
FF
100
AcDbEntity
8
2
62
256
6
ByLayer
370
13
48
1
60
0
100
AcDbLine
10
51.787706
20
-12.750003
30
0
11
53.489183
21
-12.749997
31
0
39
0
210
0
220
0
230
1
0
LINE
5
100
100
AcDbEntity
8
2
62
256
6
ByLayer
370
13
48
1
60
0
100
AcDbLine
10
52.638445
20
24.425
30
0
11
53.489183
21
21.250003
31
0
39
0
210
0
220
0
230
1
0
LINE
5
101
100
AcDbEntity
8
2
62
256
6
ByLayer
370
13
48
1
60
0
100
AcDbLine
10
52.638445
20
24.425
30
0
11
51.787706
21
21.249997
31
0
39
0
210
0
220
0
230
1
0
LINE
5
102
100
AcDbEntity
8
2
62
256
6
ByLayer
370
13
48
1
60
0
100
AcDbLine
10
53.489183
20
21.250003
30
0
11
51.787706
21
21.249997
31
0
39
0
210
0
220
0
230
1
0
ENDBLK
5
104
100
AcDbEntity
8
0
100
AcDbBlockEnd
0
BLOCK
5
111
100
AcDbEntity
8
0
100
AcDbBlockBegin
2
DimnDraft3D3
70
0
10
0
20
0
30
0
3
DimnDraft3D3
0
MTEXT
5
107
100
AcDbEntity
8
SK2
62
256
6
ByLayer
370
13
48
1
60
0
100
AcDbMText
10
-52.218792
20
43.05
30
0
210
0
220
0
230
1
1
\W0.6217;170
40
4.5
41
0
44
1.084337
50
0
71
7
72
5
7
iso_b_vert
0
LINE
5
108
100
AcDbEntity
8
SK2
62
256
6
ByLayer
370
13
48
1
60
0
100
AcDbLine
10
-135.211555
20
17.6625
30
0
11
-135.211555
21
45.1
31
0
39
0
210
0
220
0
230
1
0
LINE
5
109
100
AcDbEntity
8
SK2
62
256
6
ByLayer
370
13
48
1
60
0
100
AcDbLine
10
36.138445
20
26.0125
30
0
11
36.138445
21
45.1
31
0
39
0
210
0
220
0
230
1
0
LINE
5
10A
100
AcDbEntity
8
SK2
62
256
6
ByLayer
370
13
48
1
60
0
100
AcDbLine
10
-135.211555
20
41.925
30
0
11
36.138445
21
41.925
31
0
39
0
210
0
220
0
230
1
0
LINE
5
10B
100
AcDbEntity
8
SK2
62
256
6
ByLayer
370
13
48
1
60
0
100
AcDbLine
10
-135.211555
20
41.925
30
0
11
-132.036559
21
42.775739
31
0
39
0
210
0
220
0
230
1
0
LINE
5
10C
100
AcDbEntity
8
SK2
62
256
6
ByLayer
370
13
48
1
60
0
100
AcDbLine
10
-135.211555
20
41.925
30
0
11
-132.036552
21
41.074261
31
0
39
0
210
0
220
0
230
1
0
LINE
5
10D
100
AcDbEntity
8
SK2
62
256
6
ByLayer
370
13
48
1
60
0
100
AcDbLine
10
-132.036559
20
42.775739
30
0
11
-132.036552
21
41.074261
31
0
39
0
210
0
220
0
230
1
0
LINE
5
10E
100
AcDbEntity
8
SK2
62
256
6
ByLayer
370
13
48
1
60
0
100
AcDbLine
10
36.138445
20
41.925
30
0
11
32.963448
21
41.074261
31
0
39
0
210
0
220
0
230
1
0
LINE
5
10F
100
AcDbEntity
8
SK2
62
256
6
ByLayer
370
13
48
1
60
0
100
AcDbLine
10
36.138445
20
41.925
30
0
11
32.963441
21
42.775739
31
0
39
0
210
0
220
0
230
1
0
LINE
5
110
100
AcDbEntity
8
SK2
62
256
6
ByLayer
370
13
48
1
60
0
100
AcDbLine
10
32.963448
20
41.074261
30
0
11
32.963441
21
42.775739
31
0
39
0
210
0
220
0
230
1
0
ENDBLK
5
112
100
AcDbEntity
8
0
100
AcDbBlockEnd
0
ENDSEC
0
SECTION
2
ENTITIES
0
ARC
5
9D
100
AcDbEntity
8
1
62
256
6
ByLayer
370
18
48
1
60
0
100
AcDbCircle
39
0
10
0
20
17.525
30
0
40
1.59999999999907
210
0
220
0
230
-1
100
AcDbArc
50
195
51
270
0
ELLIPSE
5
9E
100
AcDbEntity
8
1
62
256
6
ByLayer
370
18
48
1
60
0
100
AcDbEllipse
10
0
20
-15.931981
30
0
11
1.59999999999995
21
1.61702248813173E-15
31
0
210
0
220
0
230
-1
40
0.004363
41
-1.5707963267949
42
-0.261799387798664
0
ELLIPSE
5
9F
100
AcDbEntity
8
1
62
256
6
ByLayer
370
18
48
1
60
0
100
AcDbEllipse
10
25.328786
20
14.153177
30
0
11
6.02686350471411
21
-6.02686350471415
31
0
210
0
220
0
230
1
40
0.989133
41
-2.73510655867726
42
-0.919158453467752
0
ELLIPSE
5
A0
100
AcDbEntity
8
1
62
256
6
ByLayer
370
18
48
1
60
0
100
AcDbEllipse
10
26.612557
20
14.899113
30
0
11
6.73165655689591
21
-6.73165655689595
31
0
210
0
220
0
230
1
40
0.989133
41
-1.0436804306178
42
-0.661215197695303
0
ELLIPSE
5
A1
100
AcDbEntity
8
1
62
256
6
ByLayer
370
18
48
1
60
0
100
AcDbEllipse
10
10.437035
20
5.50032
30
0
11
3.18198051533946
21
-3.18198051533947
31
0
210
0
220
0
230
1
40
0.989133
41
0
42
6.28318530717959
0
ELLIPSE
5
A2
100
AcDbEntity
8
1
62
256
6
ByLayer
370
18
48
1
60
0
100
AcDbEllipse
10
2.023421
20
29.785418
30
0
11
7.21248916810276
21
-7.2124891681028
31
0
210
0
220
0
230
1
40
0.989133
41
-0.77114311265485
42
-0.605402029676476
0
ELLIPSE
5
A3
100
AcDbEntity
8
1
62
256
6
ByLayer
370
18
48
1
60
0
100
AcDbEllipse
10
26.004899
20
14.291454
30
0
11
-6.73519209080184
21
6.73519209080189
31
0
210
0
220
0
230
1
40
0.989133
41
2.57479509039749
42
3.14155799961333
0
ELLIPSE
5
A4
100
AcDbEntity
8
1
62
256
6
ByLayer
370
18
48
1
60
0
100
AcDbEllipse
10
26.004899
20
14.291454
30
0
11
-6.73519209080184
21
6.73519209080189
31
0
210
0
220
0
230
1
40
0.989133
41
6.35797277245495E-05
42
0.0541578338049373
0
ELLIPSE
5
A5
100
AcDbEntity
8
1
62
256
6
ByLayer
370
18
48
1
60
0
100
AcDbEllipse
10
26.043365
20
14.32992
30
0
11
2.80191062045169
21
-2.8019106204517
31
0
210
0
220
0
230
1
40
0.989133
41
0.113553504647022
42
0.771913394522973
0
ELLIPSE
5
A6
100
AcDbEntity
8
1
62
256
6
ByLayer
370
18
48
1
60
0
100
AcDbEllipse
10
26.043365
20
14.32992
30
0
11
2.80191062045169
21
-2.8019106204517
31
0
210
0
220
0
230
1
40
0.989133
41
2.14753860153873
42
3.02797005437098
0
ELLIPSE
5
A7
100
AcDbEntity
8
1
62
256
6
ByLayer
370
18
48
1
60
0
100
AcDbEllipse
10
9.814225
20
4.877509
30
0
11
1.46371103705615
21
-1.46371103705616
31
0
210
0
220
0
230
1
40
0.989133
41
0.205543348726252
42
0.790861506939687
0
ELLIPSE
5
A8
100
AcDbEntity
8
1
62
256
6
ByLayer
370
18
48
1
60
0
100
AcDbEllipse
10
9.814225
20
4.877509
30
0
11
1.46371103705615
21
-1.46371103705616
31
0
210
0
220
0
230
1
40
0.989133
41
0.790861506939687
42
3.09855762899021
0
ELLIPSE
5
A9
100
AcDbEntity
8
1
62
256
6
ByLayer
370
18
48
1
60
0
100
AcDbEllipse
10
9.938979
20
5.002264
30
0
11
-1.46371103705615
21
1.46371103705616
31
0
210
0
220
0
230
1
40
0.989133
41
-0.0349949000976605
42
0.0767363413844266
0
ELLIPSE
5
AA
100
AcDbEntity
8
1
62
256
6
ByLayer
370
18
48
1
60
0
100
AcDbEllipse
10
9.938979
20
5.002264
30
0
11
-1.46371103705615
21
1.46371103705616
31
0
210
0
220
0
230
1
40
0.989133
41
-2.97985563192994
42
-2.57207256085074
0
ELLIPSE
5
AB
100
AcDbEntity
8
1
62
256
6
ByLayer
370
18
48
1
60
0
100
AcDbEllipse
10
24.856118
20
13.142674
30
0
11
-2.94156420973603
21
2.94156420973605
31
0
210
0
220
0
230
1
40
0.989133
41
-2.75130658539512
42
-2.67053497920191
0
ELLIPSE
5
AC
100
AcDbEntity
8
1
62
256
6
ByLayer
370
18
48
1
60
0
100
AcDbEllipse
10
24.856118
20
13.142674
30
0
11
-2.94156420973603
21
2.94156420973605
31
0
210
0
220
0
230
1
40
0.989133
41
-0.475065652439531
42
-0.39029766003269
0
ELLIPSE
5
AD
100
AcDbEntity
8
1
62
256
6
ByLayer
370
18
48
1
60
0
100
AcDbEllipse
10
25.540549
20
14.784707
30
0
11
-2.82842712474618
21
2.8284271247462
31
0
210
0
220
0
230
1
40
0.989133
41
2.65161315079462
42
3.1415882411847
0
ELLIPSE
5
AE
100
AcDbEntity
8
1
62
256
6
ByLayer
370
18
48
1
60
0
100
AcDbEllipse
10
26.249889
20
13.578842
30
0
11
2.82842712474618
21
-2.8284271247462
31
0
210
0
220
0
230
1
40
0.989133
41
3.14158259593423
42
-2.83886120908341
0
ELLIPSE
5
AF
100
AcDbEntity
8
1
62
256
6
ByLayer
370
18
48
1
60
0
100
AcDbEllipse
10
26.007123
20
14.168184
30
0
11
-2.65165042944954
21
2.65165042944956
31
0
210
0
220
0
230
1
40
0.989133
41
8.19798764319038E-06
42
0.183425767306112
0
ELLIPSE
5
B0
100
AcDbEntity
8
1
62
256
6
ByLayer
370
18
48
1
60
0
100
AcDbEllipse
10
24.616486
20
12.903041
30
0
11
3.00520382004281
21
-3.00520382004283
31
0
210
0
220
0
230
1
40
0.989133
41
2.67103902616103
42
2.69180302659009
0
ELLIPSE
5
B1
100
AcDbEntity
8
1
62
256
6
ByLayer
370
18
48
1
60
0
100
AcDbEllipse
10
24.616486
20
12.903041
30
0
11
3.00520382004281
21
-3.00520382004283
31
0
210
0
220
0
230
1
40
0.989133
41
0.449785807189423
42
0.487435808580619
0
ELLIPSE
5
B2
100
AcDbEntity
8
1
62
256
6
ByLayer
370
18
48
1
60
0
100
AcDbEllipse
10
26.626592
20
14.913147
30
0
11
2.80191062045169
21
-2.8019106204517
31
0
210
0
220
0
230
1
40
0.989133
41
0
42
6.28318530717959
0
ELLIPSE
5
B3
100
AcDbEntity
8
1
62
256
6
ByLayer
370
18
48
1
60
0
100
AcDbEllipse
10
26.665058
20
14.951613
30
0
11
-6.73519209080184
21
6.73519209080189
31
0
210
0
220
0
230
1
40
0.989133
41
0
42
6.28318530717959
0
ELLIPSE
5
B4
100
AcDbEntity
8
1
62
256
6
ByLayer
370
18
48
1
60
0
100
AcDbEllipse
10
26.665058
20
14.951613
30
0
11
3.39648757910388
21
-3.3964875791039
31
0
210
0
220
0
230
1
40
0.989133
41
0
42
6.28318530717959
0
ELLIPSE
5
B5
100
AcDbEntity
8
1
62
256
6
ByLayer
370
18
48
1
60
0
100
AcDbEllipse
10
26.626592
20
14.913147
30
0
11
2.943331976689
21
-2.94333197668901
31
0
210
0
220
0
230
1
40
0.989133
41
0
42
6.28318530717959
0
ELLIPSE
5
B6
100
AcDbEntity
8
1
62
256
6
ByLayer
370
18
48
1
60
0
100
AcDbEllipse
10
26.518991
20
14.805547
30
0
11
2.65165042944954
21
-2.65165042944956
31
0
210
0
220
0
230
1
40
0.989133
41
1.03512743615104
42
1.59379285888354
0
ELLIPSE
5
B7
100
AcDbEntity
8
1
62
256
6
ByLayer
370
18
48
1
60
0
100
AcDbEllipse
10
26.570972
20
14.857528
30
0
11
-2.29809703885627
21
2.29809703885628
31
0
210
0
220
0
230
1
40
0.989133
41
-2.09345649829819
42
-1.56080851384682
0
ELLIPSE
5
B8
100
AcDbEntity
8
1
62
256
6
ByLayer
370
18
48
1
60
0
100
AcDbEllipse
10
26.925643
20
14.254595
30
0
11
-2.47487373415291
21
2.47487373415293
31
0
210
0
220
0
230
1
40
0.989133
41
-1.36664179642562
42
0.853969437870454
0
ELLIPSE
5
B9
100
AcDbEntity
8
1
62
256
6
ByLayer
370
18
48
1
60
0
100
AcDbEllipse
10
26.164321
20
15.40848
30
0
11
2.82842712474618
21
-2.8284271247462
31
0
210
0
220
0
230
1
40
0.989133
41
-1.37877924596555
42
0.866106887410282
0
ELLIPSE
5
BA
100
AcDbEntity
8
1
62
256
6
ByLayer
370
18
48
1
60
0
100
AcDbEllipse
10
26.873662
20
14.202614
30
0
11
2.82842712474618
21
-2.8284271247462
31
0
210
0
220
0
230
1
40
0.989133
41
1.7628134076243
42
-2.27548576617946
0
ELLIPSE
5
BB
100
AcDbEntity
8
1
62
256
6
ByLayer
370
18
48
1
60
0
100
AcDbEllipse
10
26.518991
20
14.805547
30
0
11
2.65165042944955
21
-2.65165042944956
31
0
210
0
220
0
230
1
40
0.989133
41
-2.10646521743871
42
-1.5477997947063
0
ELLIPSE
5
BC
100
AcDbEntity
8
1
62
256
6
ByLayer
370
18
48
1
60
0
100
AcDbEllipse
10
26.216302
20
15.460461
30
0
11
-2.4748737341529
21
2.47487373415292
31
0
210
0
220
0
230
1
40
0.989133
41
1.7749508571641
42
-2.28762321571938
0
ELLIPSE
5
BD
100
AcDbEntity
8
1
62
256
6
ByLayer
370
18
48
1
60
0
100
AcDbEllipse
10
26.570972
20
14.857528
30
0
11
-2.29809703885627
21
2.29809703885629
31
0
210
0
220
0
230
1
40
0.989133
41
1.04813615529165
42
1.58078413974291
0
ELLIPSE
5
BE
100
AcDbEntity
8
1
62
256
6
ByLayer
370
18
48
1
60
0
100
AcDbEllipse
10
10.405249
20
5.468534
30
0
11
-1.46371103705615
21
1.46371103705616
31
0
210
0
220
0
230
1
40
0.989133
41
-1.52487500965415
42
-1.08219245129425
0
ELLIPSE
5
BF
100
AcDbEntity
8
1
62
256
6
ByLayer
370
18
48
1
60
0
100
AcDbEllipse
10
10.427601
20
5.490885
30
0
11
1.72703118440534
21
-1.72703118440535
31
0
210
0
220
0
230
1
40
0.989133
41
0
42
6.28318530717959
0
ELLIPSE
5
C0
100
AcDbEntity
8
1
62
256
6
ByLayer
370
18
48
1
60
0
100
AcDbEllipse
10
9.938979
20
5.002264
30
0
11
-1.46371103705615
21
1.46371103705616
31
0
210
0
220
0
230
1
40
0.989133
41
-1.08219245129425
42
-0.477677458457577
0
ELLIPSE
5
C1
100
AcDbEntity
8
1
62
256
6
ByLayer
370
18
48
1
60
0
100
AcDbEllipse
10
9.938979
20
5.002264
30
0
11
-1.46371103705615
21
1.46371103705616
31
0
210
0
220
0
230
1
40
0.989133
41
-2.12939000249087
42
-1.52487500965415
0
ELLIPSE
5
C2
100
AcDbEntity
8
1
62
256
6
ByLayer
370
18
48
1
60
0
100
AcDbEllipse
10
10.405249
20
5.468534
30
0
11
-1.46371103705615
21
1.46371103705616
31
0
210
0
220
0
230
1
40
0.989133
41
-0.477677458457569
42
-0.0349949000976605
0
ELLIPSE
5
C3
100
AcDbEntity
8
1
62
256
6
ByLayer
370
18
48
1
60
0
100
AcDbEllipse
10
10.405249
20
5.468534
30
0
11
-1.46371103705615
21
1.46371103705616
31
0
210
0
220
0
230
1
40
0.989133
41
-2.57207256085075
42
-2.12939000249088
0
ELLIPSE
5
C4
100
AcDbEntity
8
1
62
256
6
ByLayer
370
18
48
1
60
0
100
AcDbEllipse
10
10.405249
20
5.468534
30
0
11
-1.46371103705615
21
1.46371103705616
31
0
210
0
220
0
230
1
40
0.989133
41
1.61671764393563
42
2.05940020229554
0
ELLIPSE
5
C5
100
AcDbEntity
8
1
62
256
6
ByLayer
370
18
48
1
60
0
100
AcDbEllipse
10
10.405249
20
5.468534
30
0
11
-1.46371103705615
21
1.46371103705616
31
0
210
0
220
0
230
1
40
0.989133
41
0.569520092739038
42
1.01220265109895
0
ELLIPSE
5
C6
100
AcDbEntity
8
1
62
256
6
ByLayer
370
18
48
1
60
0
100
AcDbEllipse
10
10.427601
20
5.490885
30
0
11
2.99459721832502
21
-2.99459721832504
31
0
210
0
220
0
230
1
40
0.989133
41
0
42
6.28318530717959
0
ELLIPSE
5
C7
100
AcDbEntity
8
1
62
256
6
ByLayer
370
18
48
1
60
0
100
AcDbEllipse
10
10.405249
20
5.468534
30
0
11
-1.46371103705615
21
1.46371103705616
31
0
210
0
220
0
230
1
40
0.989133
41
2.66391519513222
42
3.10659775349212
0
POINT
5
6C
100
AcDbEntity
8
80
62
256
6
ByLayer
370
18
48
1
60
0
100
AcDbPoint
10
0
20
0
30
0
39
0
210
0
220
0
230
1
50
360
0
POINT
5
6E
100
AcDbEntity
8
81
62
256
6
ByLayer
370
18
48
1
60
0
100
AcDbPoint
10
34.788445
20
24.075
30
0
39
0
210
0
220
0
230
1
50
360
0
POINT
5
70
100
AcDbEntity
8
1
62
256
6
ByLayer
370
18
48
1
60
0
100
AcDbPoint
10
-135.211555
20
-15.925
30
0
39
0
210
0
220
0
230
1
50
360
0
SPLINE
5
C8
100
AcDbEntity
8
1
62
256
6
ByLayer
370
18
48
1
60
0
100
AcDbSpline
70
4
71
3
72
12
73
8
40
0
40
0
40
0
40
0
40
0.569131891910617
40
0.569131891910617
40
0.853697837865926
40
0.853697837865926
40
1
40
1
40
1
40
1
41
1
10
24.0157242364151
20
17.3639607183215
30
0
41
1
10
24.2002782025993
20
17.4599606530534
30
0
41
1
10
24.3917353093799
20
17.5400228169249
30
0
41
1
10
24.6891993901863
20
17.6364850049943
30
0
41
1
10
24.7900763174399
20
17.6646806862368
30
0
41
1
10
24.9455017614098
20
17.7012270609461
30
0
41
1
10
24.9985592740041
20
17.7125111219781
30
0
41
1
10
25.0517423283788
20
17.7226566946478
30
0
0
SPLINE
5
C9
100
AcDbEntity
8
1
62
256
6
ByLayer
370
18
48
1
60
0
100
AcDbSpline
70
4
71
3
72
18
73
14
40
0
40
0
40
0
40
0
40
0.0798755020603569
40
0.0798755020603569
40
0.237654257877689
40
0.237654257877689
40
0.553211769512353
40
0.553211769512353
40
0.710990525329684
40
0.710990525329684
40
0.868769281147016
40
0.868769281147016
40
1
40
1
40
1
40
1
41
1
10
28.415103490294
20
11.3983590742737
30
0
41
1
10
28.4525766240328
20
11.4357506541895
30
0
41
1
10
28.489359626834
20
11.4740496371238
30
0
41
1
10
28.5967215005151
20
11.5907390752475
30
0
41
1
10
28.6647542105308
20
11.6712848032182
30
0
41
1
10
28.8571655237177
20
11.9192873419268
30
0
41
1
10
28.9709017221673
20
12.0941093249686
30
0
41
1
10
29.12015356989
20
12.3703568168957
30
0
41
1
10
29.1663281068706
20
12.4647867656536
30
0
41
1
10
29.2513957690529
20
12.6584471114574
30
0
41
1
10
29.2898616538458
20
12.7567596012546
30
0
41
1
10
29.3526446269636
20
12.9380619771304
30
0
41
1
10
29.3783337609514
20
13.0210103189981
30
0
41
1
10
29.4012680569282
20
13.1045490090745
30
0
0
SPLINE
5
CA
100
AcDbEntity
8
1
62
256
6
ByLayer
370
18
48
1
60
0
100
AcDbSpline
70
4
71
3
72
12
73
8
40
0
40
0
40
0
40
0
40
0.1421796043785
40
0.1421796043785
40
0.428119736252333
40
0.428119736252333
40
1
40
1
40
1
40
1
41
1
10
22.9789707584663
20
16.3420913996676
30
0
41
1
10
23.0159258491264
20
16.3984920598933
30
0
41
1
10
23.054847896984
20
16.4541856188015
30
0
41
1
10
23.1780076278952
20
16.6194946692028
30
0
41
1
10
23.2684550397838
20
16.7266987528395
30
0
41
1
10
23.5569117447411
20
17.029288061742
30
0
41
1
10
23.7739861821327
20
17.208958501319
30
0
41
1
10
24.0157242364151
20
17.3639607183215
30
0
0
SPLINE
5
CB
100
AcDbEntity
8
1
62
256
6
ByLayer
370
18
48
1
60
0
100
AcDbSpline
70
4
71
3
72
8
73
4
40
0
40
0
40
0
40
0
40
1
40
1
40
1
40
1
41
1
10
23.7664690482617
20
17.1830420858487
30
0
41
1
10
23.565713270661
20
17.0562823872303
30
0
41
1
10
23.3641094991728
20
16.9290797407678
30
0
41
1
10
23.1602173514402
20
16.8006817657317
30
0
0
SPLINE
5
CC
100
AcDbEntity
8
1
62
256
6
ByLayer
370
18
48
1
60
0
100
AcDbSpline
70
4
71
3
72
10
73
6
40
0
40
0
40
0
40
0
40
0.970148433705293
40
0.970148433705293
40
1
40
1
40
1
40
1
41
1
10
22.7381806569383
20
15.1769395385617
30
0
41
1
10
22.7396859150808
20
15.185908506112
30
0
41
1
10
22.7405294289804
20
15.1930126711811
30
0
41
1
10
22.7404675770277
20
15.1979152977443
30
0
41
1
10
22.7404648555016
20
15.1980592395355
30
0
41
1
10
22.7404612558794
20
15.1982007657536
30
0
0
SPLINE
5
CD
100
AcDbEntity
8
1
62
256
6
ByLayer
370
18
48
1
60
0
100
AcDbSpline
70
4
71
3
72
8
73
4
40
0
40
0
40
0
40
0
40
1
40
1
40
1
40
1
41
1
10
29.6878007134744
20
15.6799962081586
30
0
41
1
10
29.8345439638541
20
15.6892319305224
30
0
41
1
10
29.9812322002833
20
15.6984092738127
30
0
41
1
10
30.1278843292517
20
15.7075483392776
30
0
0
SPLINE
5
CE
100
AcDbEntity
8
1
62
256
6
ByLayer
370
18
48
1
60
0
100
AcDbSpline
70
4
71
3
72
8
73
4
40
0
40
0
40
0
40
0
40
1
40
1
40
1
40
1
41
1
10
24.3209150151636
20
12.561565334184
30
0
41
1
10
24.1998279599406
20
12.4151781607146
30
0
41
1
10
24.0788048318163
20
12.2688017189113
30
0
41
1
10
23.9578236482279
20
12.1224323514232
30
0
0
SPLINE
5
CF
100
AcDbEntity
8
1
62
256
6
ByLayer
370
18
48
1
60
0
100
AcDbSpline
70
4
71
3
72
8
73
4
40
0
40
0
40
0
40
0
40
1
40
1
40
1
40
1
41
1
10
29.0801589321001
20
17.4886611939255
30
0
41
1
10
28.9938410318644
20
17.3769551097901
30
0
41
1
10
28.9074733053342
20
17.2652340695809
30
0
41
1
10
28.8210296163489
20
17.1534902623492
30
0
0
SPLINE
5
D0
100
AcDbEntity
8
1
62
256
6
ByLayer
370
18
48
1
60
0
100
AcDbSpline
70
4
71
3
72
8
73
4
40
0
40
0
40
0
40
0
40
1
40
1
40
1
40
1
41
1
10
22.9100982510765
20
13.9035452060709
30
0
41
1
10
23.0914136633976
20
13.9473475548884
30
0
41
1
10
23.2727573014209
20
13.9911802997728
30
0
41
1
10
23.4541439180383
20
14.0350593883744
30
0
0
SPLINE
5
D1
100
AcDbEntity
8
1
62
256
6
ByLayer
370
18
48
1
60
0
100
AcDbSpline
70
4
71
3
72
10
73
6
40
0
40
0
40
0
40
0
40
0.5
40
0.5
40
1
40
1
40
1
40
1
41
1
10
12.4167363541908
20
6.64389531534724
30
0
41
1
10
12.3120226554523
20
6.69846109408107
30
0
41
1
10
12.2061559345057
20
6.75423230240341
30
0
41
1
10
11.9949379462157
20
6.86705117216658
30
0
41
1
10
11.8895221365351
20
6.92413042912779
30
0
41
1
10
11.7843353622094
20
6.98200381277152
30
0
0
SPLINE
5
D2
100
AcDbEntity
8
1
62
256
6
ByLayer
370
18
48
1
60
0
100
AcDbSpline
70
4
71
3
72
10
73
6
40
0
40
0
40
0
40
0
40
0.5
40
0.5
40
1
40
1
40
1
40
1
41
1
10
8.99308946383468
20
6.98200381277152
30
0
41
1
10
8.89160336835641
20
6.92370014804328
30
0
41
1
10
8.79043455082376
20
6.86583844954188
30
0
41
1
10
8.59270830316649
20
6.75318058327355
30
0
41
1
10
8.49561403306762
20
6.69807402495101
30
0
41
1
10
8.39986241879836
20
6.64389531534724
30
0
0
SPLINE
5
D3
100
AcDbEntity
8
1
62
256
6
ByLayer
370
18
48
1
60
0
100
AcDbSpline
70
4
71
3
72
8
73
4
40
0
40
0
40
0
40
0
40
1
40
1
40
1
40
1
41
1
10
12.4087474146527
20
5.92051543401544
30
0
41
1
10
12.4093087995726
20
6.16539791133644
30
0
41
1
10
12.4122904954591
20
6.40595494737462
30
0
41
1
10
12.4167363541908
20
6.64389531534724
30
0
0
SPLINE
5
D4
100
AcDbEntity
8
1
62
256
6
ByLayer
370
18
48
1
60
0
100
AcDbSpline
70
4
71
3
72
10
73
6
40
0
40
0
40
0
40
0
40
0.5
40
0.5
40
1
40
1
40
1
40
1
41
1
10
8.39986241879836
20
6.64389531534724
30
0
41
1
10
8.39762687872422
20
6.52425021190337
30
0
41
1
10
8.39575571090643
20
6.40323099688803
30
0
41
1
10
8.3930184451782
20
6.16163668175531
30
0
41
1
10
8.39214965866563
20
6.04098802700787
30
0
41
1
10
8.39187347926031
20
5.92051543401547
30
0
0
SPLINE
5
D5
100
AcDbEntity
8
1
62
256
6
ByLayer
370
18
48
1
60
0
100
AcDbSpline
70
4
71
3
72
10
73
6
40
0
40
0
40
0
40
0
40
0.5
40
0.5
40
1
40
1
40
1
40
1
41
1
10
10.3956289191081
20
7.80353616139112
30
0
41
1
10
10.292638570967
20
7.7422318160223
30
0
41
1
10
10.1889709590485
20
7.6806818967282
30
0
41
1
10
9.97984529461928
20
7.55693284945824
30
0
41
1
10
9.87500334282794
20
7.49510114097134
30
0
41
1
10
9.77095994974962
20
7.43398573964473
30
0
0
SPLINE
5
D6
100
AcDbEntity
8
1
62
256
6
ByLayer
370
18
48
1
60
0
100
AcDbSpline
70
4
71
3
72
10
73
6
40
0
40
0
40
0
40
0
40
0.5
40
0.5
40
1
40
1
40
1
40
1
41
1
10
8.42520335357153
20
4.32461362325944
30
0
41
1
10
8.52290802165919
20
4.2630388138748
30
0
41
1
10
8.62245687702546
20
4.20094973997203
30
0
41
1
10
8.82303714824445
20
4.07749315313797
30
0
41
1
10
8.92412619737502
20
4.01608713562672
30
0
41
1
10
9.02616242123082
20
3.95506320151304
30
0
0
SPLINE
5
D7
100
AcDbEntity
8
1
62
256
6
ByLayer
370
18
48
1
60
0
100
AcDbSpline
70
4
71
3
72
8
73
4
40
0
40
0
40
0
40
0
40
1
40
1
40
1
40
1
41
1
10
10.9965879867673
20
7.43398573964473
30
0
41
1
10
10.7891807860619
20
7.55802799515234
30
0
41
1
10
10.589935948884
20
7.68108123109221
30
0
41
1
10
10.3956289191081
20
7.80353616139112
30
0
0
SPLINE
5
D8
100
AcDbEntity
8
1
62
256
6
ByLayer
370
18
48
1
60
0
100
AcDbSpline
70
4
71
3
72
8
73
4
40
0
40
0
40
0
40
0
40
1
40
1
40
1
40
1
41
1
10
8.40175036878742
20
5.01655158026909
30
0
41
1
10
8.40759305125624
20
4.77807317033668
30
0
41
1
10
8.41571022705284
20
4.54861500598165
30
0
41
1
10
8.42520335357153
20
4.32461362325944
30
0
0
SPLINE
5
D9
100
AcDbEntity
8
1
62
256
6
ByLayer
370
18
48
1
60
0
100
AcDbSpline
70
4
71
3
72
10
73
6
40
0
40
0
40
0
40
0
40
0.5
40
0.5
40
1
40
1
40
1
40
1
41
1
10
12.442077288964
20
4.32461362325944
30
0
41
1
10
12.4373037983873
20
4.4372496960525
30
0
41
1
10
12.4328571006247
20
4.55195104548741
30
0
41
1
10
12.424956649282
20
4.78290764354924
30
0
41
1
10
12.4214986752445
20
4.89922953774663
30
0
41
1
10
12.4186243041799
20
5.01655158026909
30
0
0
SPLINE
5
DA
100
AcDbEntity
8
1
62
256
6
ByLayer
370
18
48
1
60
0
100
AcDbSpline
70
4
71
3
72
8
73
4
40
0
40
0
40
0
40
0
40
1
40
1
40
1
40
1
41
1
10
9.81390979667287
20
3.50308127463984
30
0
41
1
10
10.0277210647669
20
3.38544308652078
30
0
41
1
10
10.2380647736279
20
3.27348872226406
30
0
41
1
10
10.4463107886543
20
3.16497277721555
30
0
0
SPLINE
5
DB
100
AcDbEntity
8
1
62
256
6
ByLayer
370
18
48
1
60
0
100
AcDbSpline
70
4
71
3
72
10
73
6
40
0
40
0
40
0
40
0
40
0.5
40
0.5
40
1
40
1
40
1
40
1
41
1
10
12.442077288964
20
4.32461362325944
30
0
41
1
10
12.3390869408229
20
4.26330927789061
30
0
41
1
10
12.2354193289044
20
4.20175935859652
30
0
41
1
10
12.0262936644752
20
4.07801031132655
30
0
41
1
10
11.9214517126839
20
4.01617860283963
30
0
41
1
10
11.8174083196055
20
3.95506320151301
30
0
0
SPLINE
5
DC
100
AcDbEntity
8
1
62
256
6
ByLayer
370
18
48
1
60
0
100
AcDbSpline
70
4
71
3
72
10
73
6
40
0
40
0
40
0
40
0
40
0.5
40
0.5
40
1
40
1
40
1
40
1
41
1
10
11.0395378336906
20
3.50308127463984
30
0
41
1
10
10.9380517382123
20
3.4447776099116
30
0
41
1
10
10.8368829206797
20
3.3869159114102
30
0
41
1
10
10.6391566730225
20
3.27425804514186
30
0
41
1
10
10.5420624029235
20
3.21915148681933
30
0
41
1
10
10.4463107886543
20
3.16497277721555
30
0
0
LINE
5
72
100
AcDbEntity
8
1
62
256
6
ByLayer
370
18
48
1
60
0
100
AcDbLine
10
24.045235
20
17.031041
30
0
11
23.421462
21
16.407269
31
0
39
0
210
0
220
0
230
1
0
LINE
5
73
100
AcDbEntity
8
1
62
256
6
ByLayer
370
18
48
1
60
0
100
AcDbLine
10
28.368976
20
11.95628
30
0
11
28.992748
21
12.580052
31
0
39
0
210
0
220
0
230
1
0
LINE
5
74
100
AcDbEntity
8
1
62
256
6
ByLayer
370
18
48
1
60
0
100
AcDbLine
10
32.740091
20
7.556262
30
0
11
33.40025
21
8.216421
31
0
39
0
210
0
220
0
230
1
0
LINE
5
75
100
AcDbEntity
8
1
62
256
6
ByLayer
370
18
48
1
60
0
100
AcDbLine
10
19.929866
20
21.686806
30
0
11
19.269707
21
21.026647
31
0
39
0
210
0
220
0
230
1
0
LINE
5
76
100
AcDbEntity
8
1
62
256
6
ByLayer
370
18
48
1
60
0
100
AcDbLine
10
23.424072
20
16.888433
30
0
11
23.355473
21
16.819834
31
0
39
0
210
0
220
0
230
1
0
LINE
5
77
100
AcDbEntity
8
1
62
256
6
ByLayer
370
18
48
1
60
0
100
AcDbLine
10
28.38283
20
11.366084
30
0
11
28.418422
21
11.401676
31
0
39
0
210
0
220
0
230
1
0
LINE
5
78
100
AcDbEntity
8
SK1
62
256
6
ByLayer
370
18
48
1
60
0
100
AcDbLine
10
-135.211555
20
15.925
30
0
11
0
21
15.925
31
0
39
0
210
0
220
0
230
1
0
LINE
5
7A
100
AcDbEntity
8
SK1
62
256
6
ByLayer
370
18
48
1
60
0
100
AcDbLine
10
-135.211555
20
15.925
30
0
11
-135.211555
21
-15.925
31
0
39
0
210
0
220
0
230
1
0
LINE
5
7B
100
AcDbEntity
8
SK1
62
256
6
ByLayer
370
18
48
1
60
0
100
AcDbLine
10
-135.211555
20
-15.925
30
0
11
0
21
-15.925
31
0
39
0
210
0
220
0
230
1
0
LINE
5
7C
100
AcDbEntity
8
SK1
62
256
6
ByLayer
370
18
48
1
60
0
100
AcDbLine
10
0
20
-15.925
30
0
11
0
21
15.925
31
0
39
0
210
0
220
0
230
1
0
LINE
5
7D
100
AcDbEntity
8
1
62
256
6
ByLayer
370
18
48
1
60
0
100
AcDbLine
10
1.545481
20
-15.930174
30
0
11
3.070453
21
-15.955007
31
0
39
0
210
0
220
0
230
1
0
LINE
5
7E
100
AcDbEntity
8
1
62
256
6
ByLayer
370
18
48
1
60
0
100
AcDbLine
10
28.53086
20
4.317228
30
0
11
27.839431
21
5.492644
31
0
39
0
210
0
220
0
230
1
0
LINE
5
7F
100
AcDbEntity
8
1
62
256
6
ByLayer
370
18
48
1
60
0
100
AcDbLine
10
18.966826
20
20.5759
30
0
11
17.964017
21
22.280656
31
0
39
0
210
0
220
0
230
1
0
LINE
5
80
100
AcDbEntity
8
1
62
256
6
ByLayer
370
18
48
1
60
0
100
AcDbLine
10
8.48379
20
-15.952524
30
0
11
3.070453
21
-15.955007
31
0
39
0
210
0
220
0
230
1
0
LINE
5
81
100
AcDbEntity
8
1
62
256
6
ByLayer
370
18
48
1
60
0
100
AcDbLine
10
1.545481
20
17.11089
30
0
11
1.545481
21
-15.930174
31
0
39
0
210
0
220
0
230
1
0
LINE
5
82
100
AcDbEntity
8
1
62
256
6
ByLayer
370
18
48
1
60
0
100
AcDbLine
10
19.971389
20
21.728015
30
0
11
18.447578
21
21.458791
31
0
39
0
210
0
220
0
230
1
0
LINE
5
83
100
AcDbEntity
8
1
62
256
6
ByLayer
370
18
48
1
60
0
100
AcDbLine
10
29.728468
20
5.54038
30
0
11
28.526361
21
4.32492
31
0
39
0
210
0
220
0
230
1
0
LINE
5
84
100
AcDbEntity
8
1
62
256
6
ByLayer
370
18
48
1
60
0
100
AcDbLine
10
0
20
-15.925
30
0
11
0
21
15.925
31
0
39
0
210
0
220
0
230
1
0
LINE
5
85
100
AcDbEntity
8
1
62
256
6
ByLayer
370
18
48
1
60
0
100
AcDbLine
10
17.964017
20
22.280656
30
0
11
3.894089
21
19.79481
31
0
39
0
210
0
220
0
230
1
0
LINE
5
86
100
AcDbEntity
8
1
62
256
6
ByLayer
370
18
48
1
60
0
100
AcDbLine
10
28.53086
20
4.317228
30
0
11
8.48379
21
-15.952524
31
0
39
0
210
0
220
0
230
1
0
LINE
5
87
100
AcDbEntity
8
1
62
256
6
ByLayer
370
18
48
1
60
0
100
AcDbLine
10
1.545481
20
17.11089
30
0
11
2.107306
21
19.207648
31
0
39
0
210
0
220
0
230
1
0
LINE
5
88
100
AcDbEntity
8
1
62
256
6
ByLayer
370
18
48
1
60
0
100
AcDbLine
10
3.070453
20
-15.955007
30
0
11
2.107306
21
19.207648
31
0
39
0
210
0
220
0
230
1
0
LINE
5
89
100
AcDbEntity
8
1
62
256
6
ByLayer
370
18
48
1
60
0
100
AcDbLine
10
2.223444
20
19.641081
30
0
11
2.107306
21
19.207648
31
0
39
0
210
0
220
0
230
1
0
LINE
5
8A
100
AcDbEntity
8
1
62
256
6
ByLayer
370
18
48
1
60
0
100
AcDbLine
10
8.396476
20
6.439998
30
0
11
8.52682
21
6.515734
31
0
39
0
210
0
220
0
230
1
0
LINE
5
8B
100
AcDbEntity
8
1
62
256
6
ByLayer
370
18
48
1
60
0
100
AcDbLine
10
11.952355
20
4.550282
30
0
11
11.957953
21
4.037892
31
0
39
0
210
0
220
0
230
1
0
LINE
5
8C
100
AcDbEntity
8
1
62
256
6
ByLayer
370
18
48
1
60
0
100
AcDbLine
10
23.916759
20
12.081367
30
0
11
23.957824
21
12.122432
31
0
39
0
210
0
220
0
230
1
0
LINE
5
8D
100
AcDbEntity
8
1
62
256
6
ByLayer
370
18
48
1
60
0
100
AcDbLine
10
22.690758
20
15.158446
30
0
11
22.734372
21
15.20206
31
0
39
0
210
0
220
0
230
1
0
LINE
5
8E
100
AcDbEntity
8
1
62
256
6
ByLayer
370
18
48
1
60
0
100
AcDbLine
10
22.910098
20
13.903545
30
0
11
22.846465
21
13.839912
31
0
39
0
210
0
220
0
230
1
0
LINE
5
8F
100
AcDbEntity
8
80
62
256
6
ByLayer
370
18
48
1
60
0
100
AcDbLine
10
0
20
0
30
0
11
-5
21
0
31
0
39
0
210
0
220
0
230
1
0
LINE
5
90
100
AcDbEntity
8
81
62
256
6
ByLayer
370
18
48
1
60
0
100
AcDbLine
10
34.788445
20
24.075
30
0
11
44.788445
21
24.075
31
0
39
0
210
0
220
0
230
1
0
LINE
5
91
100
AcDbEntity
8
1
62
256
6
ByLayer
370
18
48
1
60
0
100
AcDbLine
10
11.318066
20
6.515734
30
0
11
11.784335
21
6.982004
31
0
39
0
210
0
220
0
230
1
0
LINE
5
92
100
AcDbEntity
8
1
62
256
6
ByLayer
370
18
48
1
60
0
100
AcDbLine
10
10.395629
20
7.803536
30
0
11
9.913638
21
7.321545
31
0
39
0
210
0
220
0
230
1
0
LINE
5
93
100
AcDbEntity
8
1
62
256
6
ByLayer
370
18
48
1
60
0
100
AcDbLine
10
10.996588
20
7.433986
30
0
11
10.530318
21
6.967716
31
0
39
0
210
0
220
0
230
1
0
LINE
5
94
100
AcDbEntity
8
1
62
256
6
ByLayer
370
18
48
1
60
0
100
AcDbLine
10
9.30469
20
6.967716
30
0
11
9.913638
21
7.321545
31
0
39
0
210
0
220
0
230
1
0
LINE
5
95
100
AcDbEntity
8
1
62
256
6
ByLayer
370
18
48
1
60
0
100
AcDbLine
10
12.408747
20
5.920515
30
0
11
11.942478
21
5.454246
31
0
39
0
210
0
220
0
230
1
0
LINE
5
96
100
AcDbEntity
8
1
62
256
6
ByLayer
370
18
48
1
60
0
100
AcDbLine
10
9.913638
20
7.321545
30
0
11
10.530318
21
6.967716
31
0
39
0
210
0
220
0
230
1
0
LINE
5
97
100
AcDbEntity
8
1
62
256
6
ByLayer
370
18
48
1
60
0
100
AcDbLine
10
11.934746
20
6.161905
30
0
11
11.942478
21
5.454246
31
0
39
0
210
0
220
0
230
1
0
LINE
5
98
100
AcDbEntity
8
1
62
256
6
ByLayer
370
18
48
1
60
0
100
AcDbLine
10
12.416736
20
6.643895
30
0
11
11.934746
21
6.161905
31
0
39
0
210
0
220
0
230
1
0
LINE
5
99
100
AcDbEntity
8
1
62
256
6
ByLayer
370
18
48
1
60
0
100
AcDbLine
10
11.952355
20
4.550282
30
0
11
12.418624
21
5.016552
31
0
39
0
210
0
220
0
230
1
0
LINE
5
9A
100
AcDbEntity
8
1
62
256
6
ByLayer
370
18
48
1
60
0
100
AcDbLine
10
9.30469
20
6.967716
30
0
11
9.77096
21
7.433986
31
0
39
0
210
0
220
0
230
1
0
LINE
5
9B
100
AcDbEntity
8
1
62
256
6
ByLayer
370
18
48
1
60
0
100
AcDbLine
10
11.318066
20
6.515734
30
0
11
11.934746
21
6.161905
31
0
39
0
210
0
220
0
230
1
0
LINE
5
9C
100
AcDbEntity
8
1
62
256
6
ByLayer
370
18
48
1
60
0
100
AcDbLine
10
8.993089
20
6.982004
30
0
11
8.52682
21
6.515734
31
0
39
0
210
0
220
0
230
1
0
MTEXT
5
DD
100
AcDbEntity
8
SK6
62
256
6
ByLayer
370
13
48
1
60
0
100
AcDbMText
10
-103.831355
20
-40.986925
30
0
210
0
220
0
230
1
1
\W0.7553;PRGNR 3232P 19
40
3.5
41
0
44
1.084337
50
0
71
7
72
5
7
iso_b_vert
0
DIMENSION
5
EF
100
AcDbEntity
8
SK2
62
256
6
ByLayer
370
13
48
1
60
0
100
AcDbDimension
2
DimnDraft3D1
10
-144.961555
20
-15.925
30
0
11
-144.961555
21
0.075
31
0
70
32
71
5
72
1
41
1
210
0
220
0
230
1
3
Standard
100
AcDbAlignedDimension
13
-136.799055
23
16.075
33
0
14
-136.799055
24
-15.925
34
0
50
90
100
AcDbRotatedDimension
1001
ACAD
1000
DSTYLE
1002
{
1070
    74
1070
     0
1070
   279
1070
     0
1070
   172
1070
     1
1070
   173
1070
     1
1070
   340
1005
DE
1070
   271
1070
     1
1070
   272
1070
     2
1070
    77
1070
     1
1070
    73
1070
     0
1070
   171
1070
     3
1070
   274
1070
     4
1070
   177
1070
   150
1070
   176
1070
     9
1070
   178
1070
    43
1070
    78
1070
     8
1070
    48
1040
-0.005
1070
    41
1041
3.175
1070
   147
1041
2.25
1070
    42
1041
1.5875
1070
    44
1041
3.175
1070
   140
1041
4.5
1070
   343
1005
F0
1070
   344
1005
F0
1002
}
0
DIMENSION
5
105
100
AcDbEntity
8
2
62
256
6
ByLayer
370
13
48
1
60
0
100
AcDbDimension
2
DimnDraft3D2
10
52.638445
20
24.425
30
0
11
52.638445
21
4.25
31
0
70
32
71
5
72
1
41
1
210
0
220
0
230
1
3
Standard
100
AcDbAlignedDimension
13
1.5875
23
-15.925
33
0
14
37.725945
24
24.425
34
0
50
90
100
AcDbRotatedDimension
1001
ACAD
1000
DSTYLE
1002
{
1070
    74
1070
     0
1070
   279
1070
     0
1070
   172
1070
     1
1070
   173
1070
     1
1070
   340
1005
DE
1070
   271
1070
     1
1070
   272
1070
     2
1070
    77
1070
     1
1070
    73
1070
     0
1070
   171
1070
     3
1070
   274
1070
     4
1070
   177
1070
   150
1070
   176
1070
     9
1070
   178
1070
    43
1070
    78
1070
     8
1070
    48
1040
-0.005
1070
    41
1041
3.175
1070
   147
1041
2.25
1070
    42
1041
1.5875
1070
    44
1041
3.175
1070
   140
1041
4.5
1070
   343
1005
F0
1070
   344
1005
F0
1002
}
0
DIMENSION
5
113
100
AcDbEntity
8
SK2
62
256
6
ByLayer
370
13
48
1
60
0
100
AcDbDimension
2
DimnDraft3D3
10
36.138445
20
41.925
30
0
11
-49.536555
21
41.925
31
0
70
32
71
5
72
1
41
1
210
0
220
0
230
1
3
Standard
100
AcDbAlignedDimension
13
-135.211555
23
17.6625
33
0
14
36.138445
24
26.0125
34
0
50
0
100
AcDbRotatedDimension
1001
ACAD
1000
DSTYLE
1002
{
1070
   279
1070
     0
1070
   172
1070
     1
1070
   173
1070
     1
1070
   340
1005
DE
1070
   271
1070
     1
1070
   272
1070
     2
1070
    77
1070
     1
1070
    73
1070
     0
1070
   171
1070
     3
1070
   274
1070
     4
1070
   177
1070
   150
1070
   176
1070
     9
1070
   178
1070
    43
1070
    78
1070
     8
1070
    48
1040
-0.005
1070
    41
1041
3.175
1070
   147
1041
2.25
1070
    42
1041
1.5875
1070
    44
1041
3.175
1070
   140
1041
4.5
1070
   343
1005
F0
1070
   344
1005
F0
1002
}
0
ENDSEC
0
SECTION
2
OBJECTS
0
DICTIONARY
5
17d
330
0
100
AcDbDictionary
280
0
281
1
3
ACAD_GROUP
350
17e
3
ACAD_MLINESTYLE
350
17f
0
DICTIONARY
5
17e
330
0
100
AcDbDictionary
280
0
281
1
0
DICTIONARY
5
17f
330
0
100
AcDbDictionary
280
0
281
1
3
Standard
350
18
0
MLINESTYLE
5
18
330
17f
100
AcDbMlineStyle
2
Standard
70
0
3

62
256
51
90
52
90
71
2
49
-0.5
62
256
6
ByLayer
49
0.5
62
256
6
ByLayer
0
RASTERVARIABLES
5
16c
330

100
AcDbRasterVariables
90
0
70
1
71
1
72
1
0
ENDSEC
0
EOF
