0
SECTION
2
HEADER
9
$ACADVER
1
AC1015
9
$DWGCODEPAGE
3
ANSI_1252
9
$HANDSEED
5
185
9
$ANGBASE
50
0
9
$ANGDIR
70
0
9
$ATTMODE
70
1
9
$AUNITS
70
0
9
$AUPREC
70
0
9
$CECOLOR
62
256
9
$CELTSCALE
40
1
9
$CELTYPE
6
ByLayer
9
$CELWEIGHT
370
18
9
$CLAYER
8
0
9
$CMLJUST
70
0
9
$CMLSCALE
40
1
9
$CMLSTYLE
2
Standard
9
$DIMSTYLE
2
Standard
9
$TEXTSIZE
40
0.2
9
$TEXTSTYLE
7
Standard
9
$LUNITS
70
2
9
$LUPREC
70
4
9
$EXTNAMES
290
1
9
$INSUNITS
70
4
9
$LTSCALE
40
1
9
$LWDISPLAY
290
1
9
$PDMODE
70
0
9
$PDSIZE
40
0
9
$PLINEGEN
70
0
0
ENDSEC
0
SECTION
2
CLASSES
0
CLASS
1
RASTERVARIABLES
2
AcDbRasterVariables
3
ISM
90
0
280
0
281
0
0
ENDSEC
0
SECTION
2
TABLES
0
TABLE
2
VPORT
5
17b
100
AcDbSymbolTable
0
VPORT
5
1
100
AcDbSymbolTableRecord
100
AcDbViewportTableRecord
2
*Active
70
0
10
0
20
0
11
1
21
1
12
-1
22
1
13
0
23
0
14
0.5
24
0.5
15
10
25
10
16
0
26
0
36
1
17
0
27
0
37
0
0
ENDTAB
0
TABLE
2
LTYPE
5
17c
100
AcDbSymbolTable
0
LTYPE
5
14
100
AcDbSymbolTableRecord
100
AcDbLinetypeTableRecord
70
0
2
ByBlock
3

72
65
73
0
40
0
0
LTYPE
5
15
100
AcDbSymbolTableRecord
100
AcDbLinetypeTableRecord
70
0
2
ByLayer
3

72
65
73
0
40
0
0
LTYPE
5
16
100
AcDbSymbolTableRecord
100
AcDbLinetypeTableRecord
70
0
2
CONTINUOUS
3
Solid line
72
65
73
0
40
0
0
LTYPE
5
6A
100
AcDbSymbolTableRecord
100
AcDbLinetypeTableRecord
70
0
2
CENTER
3
____ _ ____ _ ____ _ ____
72
65
73
4
40
47.5
49
22
74
0
49
-8.5
74
0
49
8.5
74
0
49
-8.5
74
0
0
LTYPE
5
6B
100
AcDbSymbolTableRecord
100
AcDbLinetypeTableRecord
70
0
2
DASHED
3
__ __ __ __ __ __ __ __ __
72
65
73
2
40
25.72
49
12.86
74
0
49
-12.86
74
0
0
ENDTAB
0
TABLE
2
LAYER
5
17d
100
AcDbSymbolTable
0
LAYER
5
10
100
AcDbSymbolTableRecord
100
AcDbLayerTableRecord
2
0
70
0
62
7
6
CONTINUOUS
290
1
370
-3
390
0
0
LAYER
5
6D
100
AcDbSymbolTableRecord
100
AcDbLayerTableRecord
2
80
70
0
62
-6
6
CONTINUOUS
290
1
370
-3
390
0
0
LAYER
5
6F
100
AcDbSymbolTableRecord
100
AcDbLayerTableRecord
2
81
70
0
62
-3
6
CONTINUOUS
290
1
370
-3
390
0
0
LAYER
5
71
100
AcDbSymbolTableRecord
100
AcDbLayerTableRecord
2
1
70
0
62
4
6
CONTINUOUS
290
1
370
-3
390
0
0
LAYER
5
F4
100
AcDbSymbolTableRecord
100
AcDbLayerTableRecord
2
2
70
0
62
7
6
CONTINUOUS
290
1
370
-3
390
0
0
LAYER
5
168
100
AcDbSymbolTableRecord
100
AcDbLayerTableRecord
2
SK1
70
0
62
4
6
CONTINUOUS
290
1
370
-3
390
0
0
LAYER
5
169
100
AcDbSymbolTableRecord
100
AcDbLayerTableRecord
2
SK6
70
0
62
5
6
CONTINUOUS
290
1
370
-3
390
0
0
LAYER
5
16a
100
AcDbSymbolTableRecord
100
AcDbLayerTableRecord
2
SK2
70
0
62
7
6
CONTINUOUS
290
1
370
-3
390
0
0
ENDTAB
0
TABLE
2
STYLE
5
17e
100
AcDbSymbolTable
0
STYLE
5
11
100
AcDbSymbolTableRecord
100
AcDbTextStyleTableRecord
2
Standard
3
txt
70
0
71
0
40
0
41
1
42
0
50
0
0
STYLE
5
D9
100
AcDbSymbolTableRecord
100
AcDbTextStyleTableRecord
2
iso_b_vert
3
simplex.shx
70
0
71
0
40
0
41
1
42
0
50
0
0
STYLE
5
DA
100
AcDbSymbolTableRecord
100
AcDbTextStyleTableRecord
2
DWGDirectTextStyle
3
simplex
70
0
71
0
40
0
41
1
42
0
50
0
0
ENDTAB
0
TABLE
2
DIMSTYLE
5
17f
100
AcDbSymbolTable
100
AcDbDimStyleTable
0
DIMSTYLE
105
27
100
AcDbSymbolTableRecord
100
AcDbDimStyleTableRecord
2
Standard
70
0
3
<>
41
0.18
42
0.0625
44
0.18
140
0.18
147
0.09
73
0
74
0
77
1
271
2
275
0
278
52
280
0
340
11
0
ENDTAB
0
TABLE
2
VIEW
5
180
100
AcDbSymbolTable
0
ENDTAB
0
TABLE
2
UCS
5
181
100
AcDbSymbolTable
0
ENDTAB
0
TABLE
2
APPID
5
182
100
AcDbSymbolTable
0
APPID
5
12
100
AcDbSymbolTableRecord
100
AcDbRegAppTableRecord
2
ACAD
70
0
0
ENDTAB
0
TABLE
2
BLOCK_RECORD
5
183
100
AcDbSymbolTable
0
BLOCK_RECORD
5
1F
100
AcDbSymbolTableRecord
100
AcDbBlockTableRecord
2
*Model_Space
340
0
70
0
0
BLOCK_RECORD
5
1B
100
AcDbSymbolTableRecord
100
AcDbBlockTableRecord
2
*Paper_Space
340
0
70
0
0
BLOCK_RECORD
5
23
100
AcDbSymbolTableRecord
100
AcDbBlockTableRecord
2
*Paper_Space0
340
0
70
0
0
BLOCK_RECORD
5
DC
100
AcDbSymbolTableRecord
100
AcDbBlockTableRecord
2
DimnDraft3D1
340
0
70
0
0
BLOCK_RECORD
5
EB
100
AcDbSymbolTableRecord
100
AcDbBlockTableRecord
2
_CLOSED
340
0
70
0
0
BLOCK_RECORD
5
F2
100
AcDbSymbolTableRecord
100
AcDbBlockTableRecord
2
DimnDraft3D2
340
0
70
0
0
BLOCK_RECORD
5
101
100
AcDbSymbolTableRecord
100
AcDbBlockTableRecord
2
DimnDraft3D3
340
0
70
0
0
ENDTAB
0
ENDSEC
0
SECTION
2
BLOCKS
0
BLOCK
5
20
100
AcDbEntity
8
0
100
AcDbBlockBegin
2
*Model_Space
70
0
10
0
20
0
30
0
3
*Model_Space
0
ENDBLK
5
21
100
AcDbEntity
8
0
100
AcDbBlockEnd
0
BLOCK
5
1C
100
AcDbEntity
8
0
100
AcDbBlockBegin
2
*Paper_Space
70
0
10
0
20
0
30
0
3
*Paper_Space
0
ENDBLK
5
1D
100
AcDbEntity
8
0
100
AcDbBlockEnd
0
BLOCK
5
24
100
AcDbEntity
8
0
100
AcDbBlockBegin
2
*Paper_Space0
70
0
10
0
20
0
30
0
3
*Paper_Space0
0
ENDBLK
5
25
100
AcDbEntity
8
0
100
AcDbBlockEnd
0
BLOCK
5
E8
100
AcDbEntity
8
0
100
AcDbBlockBegin
2
DimnDraft3D1
70
0
10
0
20
0
30
0
3
DimnDraft3D1
0
MTEXT
5
DD
100
AcDbEntity
8
SK2
62
256
6
ByLayer
370
13
48
1
60
0
100
AcDbMText
10
-260.997277
20
-1.725
30
0
210
0
220
0
230
1
1
\W0.7361;40
40
4.5
41
0
44
1.084337
50
90
71
7
72
5
7
iso_b_vert
0
LINE
5
DF
100
AcDbEntity
8
SK2
62
256
6
ByLayer
370
13
48
1
60
0
100
AcDbLine
10
-251.709777
20
20.075
30
0
11
-263.047277
21
20.075
31
0
39
0
210
0
220
0
230
1
0
LINE
5
E0
100
AcDbEntity
8
SK2
62
256
6
ByLayer
370
13
48
1
60
0
100
AcDbLine
10
-251.709777
20
-19.925
30
0
11
-263.047277
21
-19.925
31
0
39
0
210
0
220
0
230
1
0
LINE
5
E1
100
AcDbEntity
8
SK2
62
256
6
ByLayer
370
13
48
1
60
0
100
AcDbLine
10
-259.872277
20
20.075
30
0
11
-259.872277
21
-19.925
31
0
39
0
210
0
220
0
230
1
0
LINE
5
E2
100
AcDbEntity
8
SK2
62
256
6
ByLayer
370
13
48
1
60
0
100
AcDbLine
10
-259.872277
20
20.075
30
0
11
-259.021538
21
16.900003
31
0
39
0
210
0
220
0
230
1
0
LINE
5
E3
100
AcDbEntity
8
SK2
62
256
6
ByLayer
370
13
48
1
60
0
100
AcDbLine
10
-259.872277
20
20.075
30
0
11
-260.723016
21
16.899997
31
0
39
0
210
0
220
0
230
1
0
LINE
5
E4
100
AcDbEntity
8
SK2
62
256
6
ByLayer
370
13
48
1
60
0
100
AcDbLine
10
-259.021538
20
16.900003
30
0
11
-260.723016
21
16.899997
31
0
39
0
210
0
220
0
230
1
0
LINE
5
E5
100
AcDbEntity
8
SK2
62
256
6
ByLayer
370
13
48
1
60
0
100
AcDbLine
10
-259.872277
20
-19.925
30
0
11
-260.723016
21
-16.750003
31
0
39
0
210
0
220
0
230
1
0
LINE
5
E6
100
AcDbEntity
8
SK2
62
256
6
ByLayer
370
13
48
1
60
0
100
AcDbLine
10
-259.872277
20
-19.925
30
0
11
-259.021538
21
-16.749997
31
0
39
0
210
0
220
0
230
1
0
LINE
5
E7
100
AcDbEntity
8
SK2
62
256
6
ByLayer
370
13
48
1
60
0
100
AcDbLine
10
-260.723016
20
-16.750003
30
0
11
-259.021538
21
-16.749997
31
0
39
0
210
0
220
0
230
1
0
ENDBLK
5
E9
100
AcDbEntity
8
0
100
AcDbBlockEnd
0
BLOCK
5
EC
100
AcDbEntity
8
0
100
AcDbBlockBegin
2
_CLOSED
70
0
10
0
20
0
30
0
3
_CLOSED
0
LINE
5
EE
100
AcDbEntity
8
0
62
256
6
ByLayer
370
-2
48
1
60
0
100
AcDbLine
10
-1
20
0.166667
30
0
11
0
21
0
31
0
39
0
210
0
220
0
230
1
0
LINE
5
EF
100
AcDbEntity
8
0
62
256
6
ByLayer
370
-2
48
1
60
0
100
AcDbLine
10
0
20
0
30
0
11
-1
21
-0.166667
31
0
39
0
210
0
220
0
230
1
0
LINE
5
F0
100
AcDbEntity
8
0
62
256
6
ByLayer
370
-2
48
1
60
0
100
AcDbLine
10
-1
20
0.166667
30
0
11
-1
21
-0.166667
31
0
39
0
210
0
220
0
230
1
0
LINE
5
F1
100
AcDbEntity
8
0
62
256
6
ByLayer
370
-2
48
1
60
0
100
AcDbLine
10
0
20
0
30
0
11
-1
21
0
31
0
39
0
210
0
220
0
230
1
0
ENDBLK
5
ED
100
AcDbEntity
8
0
100
AcDbBlockEnd
0
BLOCK
5
FE
100
AcDbEntity
8
0
100
AcDbBlockBegin
2
DimnDraft3D2
70
0
10
0
20
0
30
0
3
DimnDraft3D2
0
MTEXT
5
F3
100
AcDbEntity
8
2
62
256
6
ByLayer
370
13
48
1
60
0
100
AcDbMText
10
16.602723
20
3.686842
30
0
210
0
220
0
230
1
1
\W0.6740;50
40
4.5
41
0
44
1.084337
50
90
71
7
72
5
7
iso_b_vert
0
LINE
5
F5
100
AcDbEntity
8
2
62
256
6
ByLayer
370
13
48
1
60
0
100
AcDbLine
10
-33.975004
20
-19.925
30
0
11
20.902723
21
-19.925
31
0
39
0
210
0
220
0
230
1
0
LINE
5
F6
100
AcDbEntity
8
2
62
256
6
ByLayer
370
13
48
1
60
0
100
AcDbLine
10
2.815223
20
30.425
30
0
11
20.902723
21
30.425
31
0
39
0
210
0
220
0
230
1
0
LINE
5
F7
100
AcDbEntity
8
2
62
256
6
ByLayer
370
13
48
1
60
0
100
AcDbLine
10
17.727723
20
-19.925
30
0
11
17.727723
21
30.425
31
0
39
0
210
0
220
0
230
1
0
LINE
5
F8
100
AcDbEntity
8
2
62
256
6
ByLayer
370
13
48
1
60
0
100
AcDbLine
10
17.727723
20
-19.925
30
0
11
16.876984
21
-16.750003
31
0
39
0
210
0
220
0
230
1
0
LINE
5
F9
100
AcDbEntity
8
2
62
256
6
ByLayer
370
13
48
1
60
0
100
AcDbLine
10
17.727723
20
-19.925
30
0
11
18.578462
21
-16.749997
31
0
39
0
210
0
220
0
230
1
0
LINE
5
FA
100
AcDbEntity
8
2
62
256
6
ByLayer
370
13
48
1
60
0
100
AcDbLine
10
16.876984
20
-16.750003
30
0
11
18.578462
21
-16.749997
31
0
39
0
210
0
220
0
230
1
0
LINE
5
FB
100
AcDbEntity
8
2
62
256
6
ByLayer
370
13
48
1
60
0
100
AcDbLine
10
17.727723
20
30.425
30
0
11
18.578462
21
27.250003
31
0
39
0
210
0
220
0
230
1
0
LINE
5
FC
100
AcDbEntity
8
2
62
256
6
ByLayer
370
13
48
1
60
0
100
AcDbLine
10
17.727723
20
30.425
30
0
11
16.876984
21
27.249997
31
0
39
0
210
0
220
0
230
1
0
LINE
5
FD
100
AcDbEntity
8
2
62
256
6
ByLayer
370
13
48
1
60
0
100
AcDbLine
10
18.578462
20
27.250003
30
0
11
16.876984
21
27.249997
31
0
39
0
210
0
220
0
230
1
0
ENDBLK
5
FF
100
AcDbEntity
8
0
100
AcDbBlockEnd
0
BLOCK
5
10C
100
AcDbEntity
8
0
100
AcDbBlockBegin
2
DimnDraft3D3
70
0
10
0
20
0
30
0
3
DimnDraft3D3
0
MTEXT
5
102
100
AcDbEntity
8
SK2
62
256
6
ByLayer
370
13
48
1
60
0
100
AcDbMText
10
-127.692014
20
49.05
30
0
210
0
220
0
230
1
1
\W0.7138;250
40
4.5
41
0
44
1.084337
50
0
71
7
72
5
7
iso_b_vert
0
LINE
5
103
100
AcDbEntity
8
SK2
62
256
6
ByLayer
370
13
48
1
60
0
100
AcDbLine
10
-250.122277
20
21.6625
30
0
11
-250.122277
21
51.1
31
0
39
0
210
0
220
0
230
1
0
LINE
5
104
100
AcDbEntity
8
SK2
62
256
6
ByLayer
370
13
48
1
60
0
100
AcDbLine
10
1.227723
20
32.0125
30
0
11
1.227723
21
51.1
31
0
39
0
210
0
220
0
230
1
0
LINE
5
105
100
AcDbEntity
8
SK2
62
256
6
ByLayer
370
13
48
1
60
0
100
AcDbLine
10
-250.122277
20
47.925
30
0
11
1.227723
21
47.925
31
0
39
0
210
0
220
0
230
1
0
LINE
5
106
100
AcDbEntity
8
SK2
62
256
6
ByLayer
370
13
48
1
60
0
100
AcDbLine
10
-250.122277
20
47.925
30
0
11
-246.94728
21
48.775739
31
0
39
0
210
0
220
0
230
1
0
LINE
5
107
100
AcDbEntity
8
SK2
62
256
6
ByLayer
370
13
48
1
60
0
100
AcDbLine
10
-250.122277
20
47.925
30
0
11
-246.947274
21
47.074261
31
0
39
0
210
0
220
0
230
1
0
LINE
5
108
100
AcDbEntity
8
SK2
62
256
6
ByLayer
370
13
48
1
60
0
100
AcDbLine
10
-246.94728
20
48.775739
30
0
11
-246.947274
21
47.074261
31
0
39
0
210
0
220
0
230
1
0
LINE
5
109
100
AcDbEntity
8
SK2
62
256
6
ByLayer
370
13
48
1
60
0
100
AcDbLine
10
1.227723
20
47.925
30
0
11
-1.947274
21
47.074261
31
0
39
0
210
0
220
0
230
1
0
LINE
5
10A
100
AcDbEntity
8
SK2
62
256
6
ByLayer
370
13
48
1
60
0
100
AcDbLine
10
1.227723
20
47.925
30
0
11
-1.94728
21
48.775739
31
0
39
0
210
0
220
0
230
1
0
LINE
5
10B
100
AcDbEntity
8
SK2
62
256
6
ByLayer
370
13
48
1
60
0
100
AcDbLine
10
-1.947274
20
47.074261
30
0
11
-1.94728
21
48.775739
31
0
39
0
210
0
220
0
230
1
0
ENDBLK
5
10D
100
AcDbEntity
8
0
100
AcDbBlockEnd
0
ENDSEC
0
SECTION
2
ENTITIES
0
ARC
5
9E
100
AcDbEntity
8
SK1
62
256
6
ByLayer
370
18
48
1
60
0
100
AcDbCircle
39
0
10
-12.078379
20
17.118898
30
0
40
11.5
210
0
220
0
230
1
100
AcDbArc
50
194.971281
51
255.028722
0
ARC
5
9F
100
AcDbEntity
8
SK1
62
256
6
ByLayer
370
18
48
1
60
0
100
AcDbCircle
39
0
10
32.734077
20
29.725
30
0
40
10.2
210
0
220
0
230
-1
100
AcDbArc
50
240
51
265.211505
0
ARC
5
A0
100
AcDbEntity
8
SK1
62
256
6
ByLayer
370
18
48
1
60
0
100
AcDbCircle
39
0
10
32.734077
20
29.725
30
0
40
10.2
210
0
220
0
230
-1
100
AcDbArc
50
268.45633
51
286.098934
0
ARC
5
A1
100
AcDbEntity
8
1
62
256
6
ByLayer
370
18
48
1
60
0
100
AcDbCircle
39
0
10
11.272277
20
17.925
30
0
40
3.6
210
0
220
0
230
-1
100
AcDbArc
50
180.000003
51
258.93
0
ARC
5
A2
100
AcDbEntity
8
1
62
256
6
ByLayer
370
18
48
1
60
0
100
AcDbCircle
39
0
10
11.272277
20
17.925
30
0
40
3.6
210
0
220
0
230
-1
100
AcDbArc
50
11.345626
51
180.000003
0
ARC
5
A3
100
AcDbEntity
8
1
62
256
6
ByLayer
370
18
48
1
60
0
100
AcDbCircle
39
0
10
11.272277
20
17.925
30
0
40
3.21519224698779
210
0
220
0
230
-1
100
AcDbArc
50
180.000002
51
225
0
ARC
5
A4
100
AcDbEntity
8
1
62
256
6
ByLayer
370
18
48
1
60
0
100
AcDbCircle
39
0
10
11.272277
20
17.925
30
0
40
3.21519224698779
210
0
220
0
230
-1
100
AcDbArc
50
225
51
240.384378
0
ARC
5
A5
100
AcDbEntity
8
1
62
256
6
ByLayer
370
18
48
1
60
0
100
AcDbCircle
39
0
10
11.272277
20
17.925
30
0
40
3.21519224698779
210
0
220
0
230
-1
100
AcDbArc
50
29.615628
51
125.887507
0
ARC
5
A6
100
AcDbEntity
8
1
62
256
6
ByLayer
370
18
48
1
60
0
100
AcDbCircle
39
0
10
11.272277
20
17.925
30
0
40
3.21519224698779
210
0
220
0
230
-1
100
AcDbArc
50
131.681252
51
180.000002
0
ARC
5
A9
100
AcDbEntity
8
1
62
256
6
ByLayer
370
18
48
1
60
0
100
AcDbCircle
39
0
10
-11.272277
20
17.925
30
0
40
3.20383448475946
210
0
220
0
230
1
100
AcDbArc
50
72.111008
51
149.626936
0
ARC
5
AA
100
AcDbEntity
8
1
62
256
6
ByLayer
370
18
48
1
60
0
100
AcDbCircle
39
0
10
-11.189426
20
18.00785
30
0
40
3.1
210
0
220
0
230
1
100
AcDbArc
50
73.097938
51
135
0
ARC
5
AB
100
AcDbEntity
8
1
62
256
6
ByLayer
370
18
48
1
60
0
100
AcDbCircle
39
0
10
-11.272277
20
17.925
30
0
40
3.20383448475946
210
0
220
0
230
1
100
AcDbArc
50
300.373064
51
17.888992
0
ARC
5
AD
100
AcDbEntity
8
1
62
256
6
ByLayer
370
18
48
1
60
0
100
AcDbCircle
39
0
10
-11.189426
20
18.00785
30
0
40
3.1
210
0
220
0
230
1
100
AcDbArc
50
315
51
16.902062
0
ARC
5
AE
100
AcDbEntity
8
1
62
256
6
ByLayer
370
18
48
1
60
0
100
AcDbCircle
39
0
10
-26.970047
20
2.227229
30
0
40
2.07
210
0
220
0
230
1
100
AcDbArc
50
122.318079
51
147.681921
0
ARC
5
B0
100
AcDbEntity
8
1
62
256
6
ByLayer
370
18
48
1
60
0
100
AcDbCircle
39
0
10
-26.970047
20
2.227229
30
0
40
2.07
210
0
220
0
230
1
100
AcDbArc
50
2.318079
51
27.681921
0
ARC
5
B1
100
AcDbEntity
8
1
62
256
6
ByLayer
370
18
48
1
60
0
100
AcDbCircle
39
0
10
-26.970047
20
2.227229
30
0
40
2.07
210
0
220
0
230
1
100
AcDbArc
50
242.318079
51
267.681921
0
ARC
5
B2
100
AcDbEntity
8
1
62
256
6
ByLayer
370
18
48
1
60
0
100
AcDbCircle
39
0
10
-26.970047
20
2.227229
30
0
40
2.07
210
0
220
0
230
1
100
AcDbArc
50
147.681921
51
182.318079
0
ARC
5
B3
100
AcDbEntity
8
1
62
256
6
ByLayer
370
18
48
1
60
0
100
AcDbCircle
39
0
10
-26.970047
20
2.227229
30
0
40
2.07
210
0
220
0
230
1
100
AcDbArc
50
207.681921
51
242.318079
0
ARC
5
B4
100
AcDbEntity
8
1
62
256
6
ByLayer
370
18
48
1
60
0
100
AcDbCircle
39
0
10
-26.970047
20
2.227229
30
0
40
2.07
210
0
220
0
230
1
100
AcDbArc
50
27.681921
51
62.318079
0
ARC
5
B5
100
AcDbEntity
8
1
62
256
6
ByLayer
370
18
48
1
60
0
100
AcDbCircle
39
0
10
-26.970047
20
2.227229
30
0
40
2.07
210
0
220
0
230
1
100
AcDbArc
50
302.318079
51
327.681921
0
ARC
5
B6
100
AcDbEntity
8
1
62
256
6
ByLayer
370
18
48
1
60
0
100
AcDbCircle
39
0
10
-26.970047
20
2.227229
30
0
40
2.07
210
0
220
0
230
1
100
AcDbArc
50
267.681921
51
302.318079
0
ARC
5
B7
100
AcDbEntity
8
1
62
256
6
ByLayer
370
18
48
1
60
0
100
AcDbCircle
39
0
10
-26.970047
20
2.227229
30
0
40
2.07
210
0
220
0
230
1
100
AcDbArc
50
182.318079
51
207.681921
0
ARC
5
B8
100
AcDbEntity
8
1
62
256
6
ByLayer
370
18
48
1
60
0
100
AcDbCircle
39
0
10
-26.970047
20
2.227229
30
0
40
2.07
210
0
220
0
230
1
100
AcDbArc
50
62.318079
51
87.681921
0
ARC
5
B9
100
AcDbEntity
8
1
62
256
6
ByLayer
370
18
48
1
60
0
100
AcDbCircle
39
0
10
-26.970047
20
2.227229
30
0
40
2.07
210
0
220
0
230
1
100
AcDbArc
50
87.681921
51
122.318079
0
ARC
5
BA
100
AcDbEntity
8
1
62
256
6
ByLayer
370
18
48
1
60
0
100
AcDbCircle
39
0
10
-26.970047
20
2.227229
30
0
40
2.07
210
0
220
0
230
1
100
AcDbArc
50
327.681921
51
2.318079
0
CIRCLE
5
A7
100
AcDbEntity
8
1
62
256
6
ByLayer
370
18
48
1
60
0
100
AcDbCircle
10
-11.272277
20
17.925
30
0
40
12.5
39
0
210
0
220
0
230
1
0
CIRCLE
5
A8
100
AcDbEntity
8
1
62
256
6
ByLayer
370
18
48
1
60
0
100
AcDbCircle
10
11.272277
20
17.925
30
0
40
4.55877795760228
39
0
210
0
220
0
230
-1
0
CIRCLE
5
AC
100
AcDbEntity
8
1
62
256
6
ByLayer
370
18
48
1
60
0
100
AcDbCircle
10
12.086989
20
17.110287
30
0
40
2.647822497
39
0
210
0
220
0
230
-1
0
CIRCLE
5
AF
100
AcDbEntity
8
1
62
256
6
ByLayer
370
18
48
1
60
0
100
AcDbCircle
10
26.970047
20
2.227229
30
0
40
4.235
39
0
210
0
220
0
230
-1
0
CIRCLE
5
BB
100
AcDbEntity
8
1
62
256
6
ByLayer
370
18
48
1
60
0
100
AcDbCircle
10
26.970047
20
2.227229
30
0
40
2.44239092362731
39
0
210
0
220
0
230
-1
0
ELLIPSE
5
BC
100
AcDbEntity
8
SK1
62
256
6
ByLayer
370
18
48
1
60
0
100
AcDbEllipse
10
-32.734077
20
29.724997
30
0
11
10.1892520168615
21
0.468091574826594
31
0
210
0
220
0
230
-1
40
1
41
1.5514269514501
42
1.58976166797415
0
POINT
5
6C
100
AcDbEntity
8
80
62
256
6
ByLayer
370
18
48
1
60
0
100
AcDbPoint
10
0
20
0
30
0
39
0
210
0
220
0
230
1
50
360
0
POINT
5
6E
100
AcDbEntity
8
81
62
256
6
ByLayer
370
18
48
1
60
0
100
AcDbPoint
10
-0.122277
20
30.075
30
0
39
0
210
0
220
0
230
1
50
360
0
POINT
5
70
100
AcDbEntity
8
1
62
256
6
ByLayer
370
18
48
1
60
0
100
AcDbPoint
10
-250.122277
20
-19.925
30
0
39
0
210
0
220
0
230
1
50
360
0
SPLINE
5
BD
100
AcDbEntity
8
SK1
62
256
6
ByLayer
370
18
48
1
60
0
100
AcDbSpline
70
4
71
3
72
22
73
18
40
0
40
0
40
0
40
0
40
0.0926823831478867
40
0.0926823831478867
40
0.222299185555332
40
0.222299185555332
40
0.351915987962776
40
0.351915987962776
40
0.481532790370221
40
0.481532790370221
40
0.611149592777666
40
0.611149592777666
40
0.74076639518511
40
0.74076639518511
40
0.870383197592555
40
0.870383197592555
40
1
40
1
40
1
40
1
41
1
10
-6.2457030906736
20
5.13128108587011
30
0
41
1
10
-6.22733518223498
20
5.16309523651455
30
0
41
1
10
-6.20788047856291
20
5.1967917717208
30
0
41
1
10
-6.1595971998168
20
5.2804208636652
30
0
41
1
10
-6.12986852722804
20
5.33191243503029
30
0
41
1
10
-6.0671884908333
20
5.44047744268616
30
0
41
1
10
-6.03520023978478
20
5.49588271874697
30
0
41
1
10
-5.97003035646907
20
5.60876026777316
30
0
41
1
10
-5.93651962760231
20
5.66680255276941
30
0
41
1
10
-5.86985513090139
20
5.78226884811633
30
0
41
1
10
-5.83693541164138
20
5.83928747444588
30
0
41
1
10
-5.77191004294838
20
5.9519147168032
30
0
41
1
10
-5.73950230880615
20
6.00804655889544
30
0
41
1
10
-5.67792727027472
20
6.11469765410982
30
0
41
1
10
-5.64855883549103
20
6.16556527529406
30
0
41
1
10
-5.59271494928936
20
6.26228972348741
30
0
41
1
10
-5.56621405702862
20
6.30819061532918
30
0
41
1
10
-5.5420735906838
20
6.35000312955685
30
0
0
SPLINE
5
BE
100
AcDbEntity
8
SK1
62
256
6
ByLayer
370
18
48
1
60
0
100
AcDbSpline
70
4
71
3
72
22
73
18
40
0
40
0
40
0
40
0
40
0.0926823831613503
40
0.0926823831613503
40
0.222299185566872
40
0.222299185566872
40
0.351915987972393
40
0.351915987972393
40
0.481532790377915
40
0.481532790377915
40
0.611149592783436
40
0.611149592783436
40
0.740766395188957
40
0.740766395188957
40
0.870383197594479
40
0.870383197594479
40
1
40
1
40
1
40
1
41
1
10
-24.0659957333864
20
22.9515737285589
30
0
41
1
10
-24.0341815827375
20
22.9699416370001
30
0
41
1
10
-24.000485047526
20
22.9893963406751
30
0
41
1
10
-23.916855955576
20
23.0376796194246
30
0
41
1
10
-23.8653643842109
20
23.0674082920132
30
0
41
1
10
-23.7567993765551
20
23.1300883284079
30
0
41
1
10
-23.7013941004943
20
23.1620765794565
30
0
41
1
10
-23.588516551468
20
23.2272464627722
30
0
41
1
10
-23.5304742664718
20
23.2607571916388
30
0
41
1
10
-23.4150079711249
20
23.3274216883397
30
0
41
1
10
-23.3579893447953
20
23.3603414075999
30
0
41
1
10
-23.245362102438
20
23.425366776293
30
0
41
1
10
-23.1892302603458
20
23.4577745104351
30
0
41
1
10
-23.0825791651314
20
23.5193495489664
30
0
41
1
10
-23.0317115439472
20
23.5487179837502
30
0
41
1
10
-22.9349870957538
20
23.6045618699518
30
0
41
1
10
-22.889086203912
20
23.6310627622126
30
0
41
1
10
-22.8472736896844
20
23.6552032285575
30
0
0
SPLINE
5
BF
100
AcDbEntity
8
SK1
62
256
6
ByLayer
370
18
48
1
60
0
100
AcDbSpline
70
4
71
3
72
10
73
6
40
0
40
0
40
0
40
0
40
0.5
40
0.5
40
1
40
1
40
1
40
1
41
1
10
-31.8826042783966
20
19.560601654644
30
0
41
1
10
-31.9159037054241
20
19.5578121571752
30
0
41
1
10
-31.9485120563485
20
19.5552454129677
30
0
41
1
10
-32.0122461576228
20
19.5505230643893
30
0
41
1
10
-32.04198953638
20
19.5484714924199
30
0
41
1
10
-32.0687263391721
20
19.5467237154196
30
0
0
SPLINE
5
C0
100
AcDbEntity
8
1
62
256
6
ByLayer
370
18
48
1
60
0
100
AcDbSpline
70
4
71
3
72
18
73
14
40
0
40
0
40
0
40
0
40
0.15577973688527
40
0.15577973688527
40
0.240201763196742
40
0.240201763196742
40
0.324623789508215
40
0.324623789508215
40
0.662311894754107
40
0.662311894754107
40
0.831155947377054
40
0.831155947377054
40
1
40
1
40
1
40
1
41
1
10
-15.2010975202475
20
16.5344466357902
30
0
41
1
10
-15.2239853094805
20
16.6693998579288
30
0
41
1
10
-15.2379141884679
20
16.8052489574957
30
0
41
1
10
-15.2456765793861
20
17.0160913448206
30
0
41
1
10
-15.2457827709163
20
17.0904569939545
30
0
41
1
10
-15.2406517663641
20
17.2397231425707
30
0
41
1
10
-15.2353764546148
20
17.3148050976785
30
0
41
1
10
-15.1959822262027
20
17.6858081459477
30
0
41
1
10
-15.1236465662915
20
17.9728733145866
30
0
41
1
10
-14.9538551058905
20
18.388862425586
30
0
41
1
10
-14.887695595984
20
18.5228644985629
30
0
41
1
10
-14.7384932465368
20
18.7787800668749
30
0
41
1
10
-14.6552354721288
20
18.9012203759734
30
0
41
1
10
-14.5632441200333
20
19.0180947425645
30
0
0
SPLINE
5
C1
100
AcDbEntity
8
1
62
256
6
ByLayer
370
18
48
1
60
0
100
AcDbSpline
70
4
71
3
72
18
73
14
40
0
40
0
40
0
40
0
40
0.337844914006159
40
0.337844914006159
40
0.506767371009238
40
0.506767371009238
40
0.675689828012317
40
0.675689828012317
40
0.760151056513857
40
0.760151056513857
40
0.844612285015397
40
0.844612285015397
40
1
40
1
40
1
40
1
41
1
10
-10.1791820766768
20
14.6340326992079
30
0
41
1
10
-10.4149100085387
20
14.448492175557
30
0
41
1
10
-10.6706512935671
20
14.2997695953015
30
0
41
1
10
-11.0836719140161
20
14.1310130354004
30
0
41
1
10
-11.2269874922221
20
14.0839433595637
30
0
41
1
10
-11.5148666112642
20
14.0114447506431
30
0
41
1
10
-11.6604328174852
20
13.9855081221367
30
0
41
1
10
-11.8812149579288
20
13.96201841729
30
0
41
1
10
-11.9552159561793
20
13.9567671042014
30
0
41
1
10
-12.1040491244691
20
13.9515296800563
30
0
41
1
10
-12.1791883553079
20
13.9515605560076
30
0
41
1
10
-12.3913103067054
20
13.9592748460303
30
0
41
1
10
-12.5270619086685
20
13.9732274243509
30
0
41
1
10
-12.6611847252804
20
13.9959008143909
30
0
0
SPLINE
5
C2
100
AcDbEntity
8
1
62
256
6
ByLayer
370
18
48
1
60
0
100
AcDbSpline
70
4
71
3
72
14
73
10
40
0
40
0
40
0
40
0
40
0.5
40
0.5
40
0.750000000000001
40
0.750000000000001
40
0.875000000000001
40
0.875000000000001
40
1
40
1
40
1
40
1
41
1
10
-8.63673908343378
20
19.7399217181838
30
0
41
1
10
-8.5476422303276
20
19.6105397640475
30
0
41
1
10
-8.46906878144716
20
19.4761574064169
30
0
41
1
10
-8.36612742165283
20
19.2678688080555
30
0
41
1
10
-8.3343127789671
20
19.1973127047606
30
0
41
1
10
-8.29017613607891
20
19.0900540643837
30
0
41
1
10
-8.27606165829786
20
19.0540641193821
30
0
41
1
10
-8.24893756365248
20
18.981750594092
30
0
41
1
10
-8.23594467558877
20
18.9454034773008
30
0
41
1
10
-8.22333671710641
20
18.9091339641167
30
0
0
SPLINE
5
C3
100
AcDbEntity
8
1
62
256
6
ByLayer
370
18
48
1
60
0
100
AcDbSpline
70
4
71
3
72
14
73
10
40
0
40
0
40
0
40
0
40
0.25
40
0.25
40
0.5
40
0.5
40
0.75
40
0.75
40
1
40
1
40
1
40
1
41
1
10
-14.2476863610734
20
19.3336525015245
30
0
41
1
10
-14.1582827222524
20
19.4230561403454
30
0
41
1
10
-14.0638545848481
20
19.5066404991771
30
0
41
1
10
-13.8649968663341
20
19.6622256685134
30
0
41
1
10
-13.7609470714585
20
19.7338457487078
30
0
41
1
10
-13.5464972667604
20
19.8631996264562
30
0
41
1
10
-13.4357195602099
20
19.9212372946348
30
0
41
1
10
-13.2070337496012
20
20.0239879018122
30
0
41
1
10
-13.0885452319423
20
20.0688558347726
30
0
41
1
10
-12.9681103668436
20
20.1062346828471
30
0
0
SPLINE
5
C4
100
AcDbEntity
8
1
62
256
6
ByLayer
370
18
48
1
60
0
100
AcDbSpline
70
4
71
3
72
12
73
8
40
0
40
0
40
0
40
0
40
0.500000000000001
40
0.500000000000001
40
0.75
40
0.75
40
1
40
1
40
1
40
1
41
1
10
-9.09104213639409
20
16.2291664523976
30
0
41
1
10
-9.16560467646843
20
15.9889255162043
30
0
41
1
10
-9.26946628004777
20
15.7576255788339
30
0
41
1
10
-9.46473744359372
20
15.4343000709004
30
0
41
1
10
-9.53645129585448
20
15.3303881600491
30
0
41
1
10
-9.69117723579421
20
15.1328343945418
30
0
41
1
10
-9.77441410064148
20
15.0388006752432
30
0
41
1
10
-9.86362431771681
20
14.9495904581678
30
0
0
SPLINE
5
C5
100
AcDbEntity
8
1
62
256
6
ByLayer
370
18
48
1
60
0
100
AcDbSpline
70
4
71
3
72
10
73
6
40
0
40
0
40
0
40
0
40
0.5
40
0.5
40
1
40
1
40
1
40
1
41
1
10
-14.2476863610734
20
19.3336525015245
30
0
41
1
10
-14.3005025728988
20
19.280836289699
30
0
41
1
10
-14.3537324784221
20
19.2276063841757
30
0
41
1
10
-14.4590205246573
20
19.1223183379406
30
0
41
1
10
-14.5113026747148
20
19.070036187883
30
0
41
1
10
-14.5632441200333
20
19.0180947425645
30
0
0
SPLINE
5
C6
100
AcDbEntity
8
1
62
256
6
ByLayer
370
18
48
1
60
0
100
AcDbSpline
70
4
71
3
72
36
73
32
40
0
40
0
40
0
40
0
40
0.125000000000001
40
0.125000000000001
40
0.187500000000001
40
0.187500000000001
40
0.250000000000002
40
0.250000000000002
40
0.312500000000002
40
0.312500000000002
40
0.375000000000003
40
0.375000000000003
40
0.437500000000003
40
0.437500000000003
40
0.468750000000003
40
0.468750000000003
40
0.500000000000003
40
0.500000000000003
40
0.562500000000003
40
0.562500000000003
40
0.625000000000003
40
0.625000000000003
40
0.750000000000002
40
0.750000000000002
40
0.812500000000001
40
0.812500000000001
40
0.875000000000001
40
0.875000000000001
40
0.9375
40
0.9375
40
1
40
1
40
1
40
1
41
1
10
-12.9681103668417
20
20.1062346828403
30
0
41
1
10
-12.6979725633578
20
20.1877984982785
30
0
41
1
10
-12.4217853994787
20
20.2328969587239
30
0
41
1
10
-11.9982939335441
20
20.2450629799366
30
0
41
1
10
-11.8577327463978
20
20.2396290012234
30
0
41
1
10
-11.5802313774229
20
20.2104178510543
30
0
41
1
10
-11.4428872278006
20
20.1866525455538
30
0
41
1
10
-11.1710542731254
20
20.120515336565
30
0
41
1
10
-11.0355478496872
20
20.0776837967442
30
0
41
1
10
-10.7742006267322
20
19.9749221617817
30
0
41
1
10
-10.6480874952503
20
19.9151077701613
30
0
41
1
10
-10.404838727019
20
19.7788753499539
30
0
41
1
10
-10.2877022515651
20
19.7024588741157
30
0
41
1
10
-10.11899156764
20
19.5748979803377
30
0
41
1
10
-10.0639897610197
20
19.5302330336049
30
0
41
1
10
-9.95805428754915
20
19.4379751153392
30
0
41
1
10
-9.90689497574374
20
19.3902177152633
30
0
41
1
10
-9.75874764905848
20
19.2421454414608
30
0
41
1
10
-9.66706683252215
20
19.1370515777713
30
0
41
1
10
-9.49794668183603
20
18.9140397238237
30
0
41
1
10
-9.42002599979782
20
18.7951385252125
30
0
41
1
10
-9.21392285680048
20
18.4277288075317
30
0
41
1
10
-9.11161945956559
20
18.168116303694
30
0
41
1
10
-9.01099835462247
20
17.7566027839192
30
0
41
1
10
-8.98698771680193
20
17.6179308966949
30
0
41
1
10
-8.95768523425767
20
17.3402352466702
30
0
41
1
10
-8.95229371692272
20
17.2007971645325
30
0
41
1
10
-8.96007804832021
20
16.9207357043327
30
0
41
1
10
-8.97344011204194
20
16.7793649597397
30
0
41
1
10
-9.01855983318444
20
16.5014119723191
30
0
41
1
10
-9.05022987322963
20
16.3643358908211
30
0
41
1
10
-9.09104213640109
20
16.2291664523991
30
0
0
SPLINE
5
C7
100
AcDbEntity
8
1
62
256
6
ByLayer
370
18
48
1
60
0
100
AcDbSpline
70
4
71
3
72
10
73
6
40
0
40
0
40
0
40
0
40
0.5
40
0.5
40
1
40
1
40
1
40
1
41
1
10
-8.63673908343367
20
19.7399217181837
30
0
41
1
10
-8.74732465209053
20
19.9005085006938
30
0
41
1
10
-8.87168131003835
20
20.049895298065
30
0
41
1
10
-9.14751049700715
20
20.3257096664203
30
0
41
1
10
-9.29676826174801
20
20.4499521280366
30
0
41
1
10
-9.4573551010576
20
20.5605377358075
30
0
0
SPLINE
5
C8
100
AcDbEntity
8
1
62
256
6
ByLayer
370
18
48
1
60
0
100
AcDbSpline
70
4
71
3
72
36
73
32
40
0
40
0
40
0
40
0
40
0.0271552888295374
40
0.0543874308765139
40
0.0816957095873824
40
0.109079400964974
40
0.136537776174599
40
0.164070104193817
40
0.191675654503665
40
0.219353699819003
40
0.247103518855471
40
0.27492439913038
40
0.302815639794694
40
0.330776554493064
40
0.35880647424868
40
0.38690475036951
40
0.415070757372271
40
0.44330389592025
40
0.471603595770885
40
0.499969318728749
40
0.541598936564008
40
0.584000552705514
40
0.627171622020454
40
0.67110971908815
40
0.715812591714742
40
0.761278216081911
40
0.807504853384064
40
0.85449110774568
40
0.902235985144649
40
0.950738952998612
40
1
40
1
40
1
40
1
41
1
10
-9.28416398242643
20
19.9131128368147
30
0
41
1
10
-9.26291103849059
20
19.8915081915096
30
0
41
1
10
-9.22034500185259
20
19.8482377567699
30
0
41
1
10
-9.15878569432027
20
19.7809692173738
30
0
41
1
10
-9.09887384590792
20
19.7119098816136
30
0
41
1
10
-9.04084609520226
20
19.6409376767326
30
0
41
1
10
-8.98472590522033
20
19.5681453372767
30
0
41
1
10
-8.93059288276811
20
19.493570987141
30
0
41
1
10
-8.87851019911216
20
19.4172706210664
30
0
41
1
10
-8.82854400093919
20
19.3392985906455
30
0
41
1
10
-8.780758070773
20
19.2597128372755
30
0
41
1
10
-8.73521514538351
20
19.1785734632838
30
0
41
1
10
-8.69197644231576
20
19.0959430906745
30
0
41
1
10
-8.65110166849377
20
19.0118867357627
30
0
41
1
10
-8.61264889686964
20
18.9264718055506
30
0
41
1
10
-8.57667448570726
20
18.8397680722008
30
0
41
1
10
-8.54323295896631
20
18.7518475915459
30
0
41
1
10
-8.51237699995795
20
18.6627848467976
30
0
41
1
10
-8.48415703029417
20
18.572656022796
30
0
41
1
10
-8.45466194612567
20
18.467409788622
30
0
41
1
10
-8.42546263374101
20
18.345927266223
30
0
41
1
10
-8.39865314572711
20
18.2071875678009
30
0
41
1
10
-8.37789581545502
20
18.0649173560935
30
0
41
1
10
-8.36360694623812
20
17.9193856375791
30
0
41
1
10
-8.35619909714438
20
17.7708970073396
30
0
41
1
10
-8.35607295543491
20
17.6197930758291
30
0
41
1
10
-8.36363559328174
20
17.4664595135854
30
0
41
1
10
-8.37921535627345
20
17.3113015742876
30
0
41
1
10
-8.40337145204961
20
17.154841694924
30
0
41
1
10
-8.43569355804732
20
16.9973485869072
30
0
41
1
10
-8.46458753015554
20
16.8934261714761
30
0
41
1
10
-8.47914654064817
20
16.841062047533
30
0
0
SPLINE
5
C9
100
AcDbEntity
8
1
62
256
6
ByLayer
370
18
48
1
60
0
100
AcDbSpline
70
4
71
3
72
14
73
10
40
0
40
0
40
0
40
0
40
0.125000000000001
40
0.125000000000001
40
0.250000000000002
40
0.250000000000002
40
0.500000000000002
40
0.500000000000002
40
1
40
1
40
1
40
1
41
1
10
-10.2881428551245
20
20.9739401021349
30
0
41
1
10
-10.2520401760194
20
20.9613901382864
30
0
41
1
10
-10.2158217990871
20
20.948445667392
30
0
41
1
10
-10.1437106473357
20
20.921406342483
30
0
41
1
10
-10.1077937008574
20
20.9073275989581
30
0
41
1
10
-10.0006820424073
20
20.8632753123812
30
0
41
1
10
-9.93012818150999
20
20.8314864365607
30
0
41
1
10
-9.72160953767059
20
20.7284877823917
30
0
41
1
10
-9.58629792154812
20
20.6493321864182
30
0
41
1
10
-9.45735510104367
20
20.560537735798
30
0
0
SPLINE
5
CA
100
AcDbEntity
8
1
62
256
6
ByLayer
370
18
48
1
60
0
100
AcDbSpline
70
4
71
3
72
10
73
6
40
0
40
0
40
0
40
0
40
0.5
40
0.5
40
1
40
1
40
1
40
1
41
1
10
-9.86362431771681
20
14.9495904581678
30
0
41
1
10
-9.91644052954223
20
14.8967742463424
30
0
41
1
10
-9.9696704350655
20
14.8435443408191
30
0
41
1
10
-10.0749584813006
20
14.738256294584
30
0
41
1
10
-10.1272406313582
20
14.6859741445264
30
0
41
1
10
-10.1791820766767
20
14.6340326992079
30
0
0
SPLINE
5
CB
100
AcDbEntity
8
1
62
256
6
ByLayer
370
18
48
1
60
0
100
AcDbSpline
70
4
71
3
72
37
73
33
40
0
40
0
40
0
40
0
40
0.027246716396536
40
0.054263342111145
40
0.0810499403428986
40
0.107606521247141
40
0.133933044962791
40
0.160029424651339
40
0.185895529539375
40
0.211531187957075
40
0.236936190365763
40
0.262110292368202
40
0.287053217695959
40
0.311764661168732
40
0.336244291621133
40
0.360491754792996
40
0.384506676179832
40
0.408288663840602
40
0.431837311160493
40
0.455152199566919
40
0.47823290119745
40
0.501078981518842
40
0.551978319441938
40
0.602663759146755
40
0.653131958846283
40
0.703379292807178
40
0.753401906254736
40
0.803195769763315
40
0.85275673290913
40
0.90208057698531
40
0.951163066600292
40
1
40
1
40
1
40
1
41
1
10
-12.3562147717083
20
20.718130278593
30
0
41
1
10
-12.327317129455
20
20.7263846616234
30
0
41
1
10
-12.269765877224
20
20.742823721794
30
0
41
1
10
-12.1828704722113
20
20.7640923872194
30
0
41
1
10
-12.0961415725439
20
20.7827979019107
30
0
41
1
10
-12.0095984230698
20
20.7987594031079
30
0
41
1
10
-11.9233480531355
20
20.8120933753366
30
0
41
1
10
-11.8374695538927
20
20.8228405077677
30
0
41
1
10
-11.7520446846629
20
20.8310641451878
30
0
41
1
10
-11.6671497852509
20
20.8368240071614
30
0
41
1
10
-11.5828579316905
20
20.8401829019281
30
0
41
1
10
-11.4992383925539
20
20.8412047219205
30
0
41
1
10
-11.4163568077657
20
20.8399547514792
30
0
41
1
10
-11.3342751847806
20
20.836499370528
30
0
41
1
10
-11.2530519502374
20
20.8309059250082
30
0
41
1
10
-11.1727419959667
20
20.8232425615843
30
0
41
1
10
-11.0933967263555
20
20.81357807605
30
0
41
1
10
-11.0150641364686
20
20.8019817778161
30
0
41
1
10
-10.9377887958622
20
20.788523313349
30
0
41
1
10
-10.8616122001841
20
20.7732726716113
30
0
41
1
10
-10.7865717887251
20
20.7562995480444
30
0
41
1
10
-10.682217028913
20
20.7299880315944
30
0
41
1
10
-10.5494103312936
20
20.6908859715277
30
0
41
1
10
-10.389844083331
20
20.6343689209773
30
0
41
1
10
-10.234111833389
20
20.5696123891996
30
0
41
1
10
-10.0826356992299
20
20.496932473559
30
0
41
1
10
-9.93580507717462
20
20.4166665541115
30
0
41
1
10
-9.79399929912097
20
20.3291554057462
30
0
41
1
10
-9.65752170499871
20
20.2348049928717
30
0
41
1
10
-9.52683630713466
20
20.1338482130388
30
0
41
1
10
-9.40169078451351
20
20.027219751109
30
0
41
1
10
-9.32327403357817
20
19.9510848327812
30
0
41
1
10
-9.28416398242643
20
19.9131128368147
30
0
0
SPLINE
5
CC
100
AcDbEntity
8
1
62
256
6
ByLayer
370
18
48
1
60
0
100
AcDbSpline
70
4
71
3
72
10
73
6
40
0
40
0
40
0
40
0
40
0.5
40
0.5
40
1
40
1
40
1
40
1
41
1
10
-24.7175877943845
20
1.62368473564422
30
0
41
1
10
-24.799796333803
20
1.54147619622577
30
0
41
1
10
-24.8828562043607
20
1.45841632566811
30
0
41
1
10
-25.0512265572462
20
1.29004597278254
30
0
41
1
10
-25.1360466178649
20
1.20522591216385
30
0
41
1
10
-25.2207044710383
20
1.12056805899044
30
0
0
SPLINE
5
CD
100
AcDbEntity
8
1
62
256
6
ByLayer
370
18
48
1
60
0
100
AcDbSpline
70
4
71
3
72
10
73
6
40
0
40
0
40
0
40
0
40
0.5
40
0.5
40
1
40
1
40
1
40
1
41
1
10
-25.8633859629143
20
0.477886567114439
30
0
41
1
10
-25.9485455926322
20
0.392726937396588
30
0
41
1
10
-26.0339511188332
20
0.30732141119563
30
0
41
1
10
-26.2017136031109
20
0.139558926917857
30
0
41
1
10
-26.2845171397685
20
0.0567553902603208
30
0
41
1
10
-26.3665026395681
20
-0.0252301095393364
30
0
0
SPLINE
5
CE
100
AcDbEntity
8
1
62
256
6
ByLayer
370
18
48
1
60
0
100
AcDbSpline
70
4
71
3
72
10
73
6
40
0
40
0
40
0
40
0
40
0.5
40
0.5
40
1
40
1
40
1
40
1
41
1
10
-25.321132516399
20
3.87614430284222
30
0
41
1
10
-25.4339269129313
20
3.90636747030382
30
0
41
1
10
-25.5483914564994
20
3.93703815231487
30
0
41
1
10
-25.7778594484739
20
3.99852391545323
30
0
41
1
10
-25.8929309772873
20
4.0293572386706
30
0
41
1
10
-26.0084026777757
20
4.06029778756511
30
0
0
SPLINE
5
CF
100
AcDbEntity
8
1
62
256
6
ByLayer
370
18
48
1
60
0
100
AcDbSpline
70
4
71
3
72
10
73
6
40
0
40
0
40
0
40
0
40
0.5
40
0.5
40
1
40
1
40
1
40
1
41
1
10
-28.7193902521268
20
3.33389085632689
30
0
41
1
10
-28.8045498818447
20
3.24873122660904
30
0
41
1
10
-28.8899554080456
20
3.16332570040811
30
0
41
1
10
-29.0577178923234
20
2.99556321613034
30
0
41
1
10
-29.1405214289809
20
2.9127596794728
30
0
41
1
10
-29.2225069287806
20
2.83077417967314
30
0
0
SPLINE
5
D0
100
AcDbEntity
8
1
62
256
6
ByLayer
370
18
48
1
60
0
100
AcDbSpline
70
4
71
3
72
8
73
4
40
0
40
0
40
0
40
0
40
1
40
1
40
1
40
1
41
1
10
-25.1369790316761
20
3.18887414146556
30
0
41
1
10
-25.1998713300384
20
3.42359139435845
30
0
41
1
10
-25.2610271599731
20
3.65182805885374
30
0
41
1
10
-25.321132516399
20
3.87614430284222
30
0
0
SPLINE
5
D1
100
AcDbEntity
8
1
62
256
6
ByLayer
370
18
48
1
60
0
100
AcDbSpline
70
4
71
3
72
10
73
6
40
0
40
0
40
0
40
0
40
0.5
40
0.5
40
1
40
1
40
1
40
1
41
1
10
-27.573592083597
20
4.4796890248567
30
0
41
1
10
-27.6558006230155
20
4.39748048543825
30
0
41
1
10
-27.7388604935731
20
4.31442061488059
30
0
41
1
10
-27.9072308464587
20
4.14605026199501
30
0
41
1
10
-27.9920509070773
20
4.06123020137636
30
0
41
1
10
-28.0767087602508
20
3.97657234820295
30
0
0
SPLINE
5
D2
100
AcDbEntity
8
1
62
256
6
ByLayer
370
18
48
1
60
0
100
AcDbSpline
70
4
71
3
72
10
73
6
40
0
40
0
40
0
40
0
40
0.5
40
0.5
40
1
40
1
40
1
40
1
41
1
10
-28.6189622067661
20
0.57831461247514
30
0
41
1
10
-28.5061678102338
20
0.548091445013569
30
0
41
1
10
-28.3917032666657
20
0.517420763002491
30
0
41
1
10
-28.1622352746912
20
0.455934999864127
30
0
41
1
10
-28.0471637458778
20
0.425101676646762
30
0
41
1
10
-27.9316920453895
20
0.394161127752255
30
0
0
SPLINE
5
D3
100
AcDbEntity
8
1
62
256
6
ByLayer
370
18
48
1
60
0
100
AcDbSpline
70
4
71
3
72
10
73
6
40
0
40
0
40
0
40
0
40
0.5
40
0.5
40
1
40
1
40
1
40
1
41
1
10
-29.2225069287806
20
2.83077417967314
30
0
41
1
10
-29.192283761319
20
2.71797978314086
30
0
41
1
10
-29.1616130793079
20
2.60351523957277
30
0
41
1
10
-29.1001273161696
20
2.3740472475983
30
0
41
1
10
-29.0692939929522
20
2.25897571878488
30
0
41
1
10
-29.0383534440577
20
2.14350401829651
30
0
0
SPLINE
5
D4
100
AcDbEntity
8
1
62
256
6
ByLayer
370
18
48
1
60
0
100
AcDbSpline
70
4
71
3
72
8
73
4
40
0
40
0
40
0
40
0
40
1
40
1
40
1
40
1
41
1
10
-27.0537728009447
20
0.158923375183548
30
0
41
1
10
-26.8190555480518
20
0.096031076821248
30
0
41
1
10
-26.5908188835566
20
0.0348752468865712
30
0
41
1
10
-26.3665026395681
20
-0.0252301095393364
30
0
0
SPLINE
5
D5
100
AcDbEntity
8
1
62
256
6
ByLayer
370
18
48
1
60
0
100
AcDbSpline
70
4
71
3
72
8
73
4
40
0
40
0
40
0
40
0
40
1
40
1
40
1
40
1
41
1
10
-26.8863219222204
20
4.29553554013381
30
0
41
1
10
-27.1210391751133
20
4.35842783849611
30
0
41
1
10
-27.3492758396085
20
4.41958366843079
30
0
41
1
10
-27.573592083597
20
4.4796890248567
30
0
0
SPLINE
5
D6
100
AcDbEntity
8
1
62
256
6
ByLayer
370
18
48
1
60
0
100
AcDbSpline
70
4
71
3
72
8
73
4
40
0
40
0
40
0
40
0
40
1
40
1
40
1
40
1
41
1
10
-28.803115691489
20
1.26558477385177
30
0
41
1
10
-28.7402233931267
20
1.03086752095891
30
0
41
1
10
-28.679067563192
20
0.802630856463622
30
0
41
1
10
-28.6189622067661
20
0.57831461247514
30
0
0
SPLINE
5
D7
100
AcDbEntity
8
1
62
256
6
ByLayer
370
18
48
1
60
0
100
AcDbSpline
70
4
71
3
72
10
73
6
40
0
40
0
40
0
40
0
40
0.5
40
0.5
40
1
40
1
40
1
40
1
41
1
10
-24.7175877943845
20
1.62368473564422
30
0
41
1
10
-24.7478109618461
20
1.73647913217653
30
0
41
1
10
-24.7784816438572
20
1.85094367574459
30
0
41
1
10
-24.8399674069956
20
2.08041166771909
30
0
41
1
10
-24.8708007302129
20
2.19548319653251
30
0
41
1
10
-24.9017412791075
20
2.31095489702088
30
0
0
LINE
5
72
100
AcDbEntity
8
SK1
62
256
6
ByLayer
370
18
48
1
60
0
100
AcDbLine
10
-23.554048
20
20.250708
30
0
11
-25.453714
21
22.150374
31
0
39
0
210
0
220
0
230
1
0
LINE
5
74
100
AcDbEntity
8
SK1
62
256
6
ByLayer
370
18
48
1
60
0
100
AcDbLine
10
-23.290199
20
21.363054
30
0
11
-24.581241
21
22.654097
31
0
39
0
210
0
220
0
230
1
0
LINE
5
75
100
AcDbEntity
8
SK1
62
256
6
ByLayer
370
18
48
1
60
0
100
AcDbLine
10
-7.046903
20
3.743562
30
0
11
-8.946569
21
5.643229
31
0
39
0
210
0
220
0
230
1
0
LINE
5
76
100
AcDbEntity
8
SK1
62
256
6
ByLayer
370
18
48
1
60
0
100
AcDbLine
10
-6.54318
20
4.616036
30
0
11
-7.834223
21
5.907078
31
0
39
0
210
0
220
0
230
1
0
LINE
5
77
100
AcDbEntity
8
SK1
62
256
6
ByLayer
370
18
48
1
60
0
100
AcDbLine
10
-7.818453
20
5.911588
30
0
11
-6.535758
21
4.628892
31
0
39
0
210
0
220
0
230
1
0
LINE
5
78
100
AcDbEntity
8
SK1
62
256
6
ByLayer
370
18
48
1
60
0
100
AcDbLine
10
-24.568385
20
22.661519
30
0
11
-23.285689
21
21.378823
31
0
39
0
210
0
220
0
230
1
0
LINE
5
79
100
AcDbEntity
8
SK1
62
256
6
ByLayer
370
18
48
1
60
0
100
AcDbLine
10
-23.121745
20
21.904872
30
0
11
-24.130947
21
22.914074
31
0
39
0
210
0
220
0
230
1
0
LINE
5
7A
100
AcDbEntity
8
SK1
62
256
6
ByLayer
370
18
48
1
60
0
100
AcDbLine
10
-6.283203
20
5.06633
30
0
11
-7.292405
21
6.075532
31
0
39
0
210
0
220
0
230
1
0
LINE
5
7B
100
AcDbEntity
8
SK1
62
256
6
ByLayer
370
18
48
1
60
0
100
AcDbLine
10
-7.276902
20
6.08074
30
0
11
-6.275622
21
5.07946
31
0
39
0
210
0
220
0
230
1
0
LINE
5
7C
100
AcDbEntity
8
SK1
62
256
6
ByLayer
370
18
48
1
60
0
100
AcDbLine
10
-24.117817
20
22.921655
30
0
11
-23.116536
21
21.920374
31
0
39
0
210
0
220
0
230
1
0
LINE
5
7D
100
AcDbEntity
8
SK1
62
256
6
ByLayer
370
18
48
1
60
0
100
AcDbLine
10
-5.542074
20
6.350003
30
0
11
-5.85297
21
6.660899
31
0
39
0
210
0
220
0
230
1
0
LINE
5
7E
100
AcDbEntity
8
SK1
62
256
6
ByLayer
370
18
48
1
60
0
100
AcDbLine
10
-22.536378
20
23.344307
30
0
11
-22.847274
21
23.655203
31
0
39
0
210
0
220
0
230
1
0
LINE
5
7F
100
AcDbEntity
8
SK1
62
256
6
ByLayer
370
18
48
1
60
0
100
AcDbLine
10
-5.703785
20
6.733897
30
0
11
-5.460749
21
6.490861
31
0
39
0
210
0
220
0
230
1
0
LINE
5
80
100
AcDbEntity
8
SK1
62
256
6
ByLayer
370
18
48
1
60
0
100
AcDbLine
10
-22.706416
20
23.736528
30
0
11
-22.46338
21
23.493492
31
0
39
0
210
0
220
0
230
1
0
LINE
5
81
100
AcDbEntity
8
SK1
62
256
6
ByLayer
370
18
48
1
60
0
100
AcDbLine
10
-22.171318
20
24.045466
30
0
11
-22.706416
21
23.736528
31
0
39
0
210
0
220
0
230
1
0
LINE
5
82
100
AcDbEntity
8
SK1
62
256
6
ByLayer
370
18
48
1
60
0
100
AcDbLine
10
-5.15181
20
7.025959
30
0
11
-5.460749
21
6.490861
31
0
39
0
210
0
220
0
230
1
0
LINE
5
83
100
AcDbEntity
8
SK1
62
256
6
ByLayer
370
18
48
1
60
0
100
AcDbLine
10
-6.54318
20
4.616036
30
0
11
-6.535758
21
4.628892
31
0
39
0
210
0
220
0
230
1
0
LINE
5
84
100
AcDbEntity
8
SK1
62
256
6
ByLayer
370
18
48
1
60
0
100
AcDbLine
10
-31.882604
20
19.560602
30
0
11
-10.347962
21
-1.97404
31
0
39
0
210
0
220
0
230
1
0
LINE
5
85
100
AcDbEntity
8
SK1
62
256
6
ByLayer
370
18
48
1
60
0
100
AcDbLine
10
-10.421167
20
-2.100835
30
0
11
-32.068726
21
19.546724
31
0
39
0
210
0
220
0
230
1
0
LINE
5
86
100
AcDbEntity
8
SK1
62
256
6
ByLayer
370
18
48
1
60
0
100
AcDbLine
10
-250.122277
20
-19.925
30
0
11
-20.711954
21
-19.925
31
0
39
0
210
0
220
0
230
1
0
LINE
5
87
100
AcDbEntity
8
SK1
62
256
6
ByLayer
370
18
48
1
60
0
100
AcDbLine
10
-10.347962
20
-1.97404
30
0
11
-10.421167
21
-2.100835
31
0
39
0
210
0
220
0
230
1
0
LINE
5
88
100
AcDbEntity
8
SK1
62
256
6
ByLayer
370
18
48
1
60
0
100
AcDbLine
10
-250.122277
20
19.925
30
0
11
-35.562504
21
19.925
31
0
39
0
210
0
220
0
230
1
0
LINE
5
89
100
AcDbEntity
8
SK1
62
256
6
ByLayer
370
18
48
1
60
0
100
AcDbLine
10
-25.453714
20
22.150374
30
0
11
-24.581241
21
22.654097
31
0
39
0
210
0
220
0
230
1
0
LINE
5
8A
100
AcDbEntity
8
SK1
62
256
6
ByLayer
370
18
48
1
60
0
100
AcDbLine
10
-25.453714
20
22.150374
30
0
11
-27.634077
21
20.891541
31
0
39
0
210
0
220
0
230
1
0
LINE
5
8B
100
AcDbEntity
8
SK1
62
256
6
ByLayer
370
18
48
1
60
0
100
AcDbLine
10
-24.117817
20
22.921655
30
0
11
-24.130947
21
22.914074
31
0
39
0
210
0
220
0
230
1
0
LINE
5
8C
100
AcDbEntity
8
SK1
62
256
6
ByLayer
370
18
48
1
60
0
100
AcDbLine
10
-10.570724
20
-2.359875
30
0
11
-20.711954
21
-19.925
31
0
39
0
210
0
220
0
230
1
0
LINE
5
8D
100
AcDbEntity
8
SK1
62
256
6
ByLayer
370
18
48
1
60
0
100
AcDbLine
10
-6.275622
20
5.07946
30
0
11
-6.283203
21
5.06633
31
0
39
0
210
0
220
0
230
1
0
LINE
5
8E
100
AcDbEntity
8
SK1
62
256
6
ByLayer
370
18
48
1
60
0
100
AcDbLine
10
-24.581241
20
22.654097
30
0
11
-24.568385
21
22.661519
31
0
39
0
210
0
220
0
230
1
0
LINE
5
8F
100
AcDbEntity
8
SK1
62
256
6
ByLayer
370
18
48
1
60
0
100
AcDbLine
10
-22.847274
20
23.655203
30
0
11
-22.706416
21
23.736528
31
0
39
0
210
0
220
0
230
1
0
LINE
5
90
100
AcDbEntity
8
SK1
62
256
6
ByLayer
370
18
48
1
60
0
100
AcDbLine
10
-6.535758
20
4.628892
30
0
11
-6.283203
21
5.06633
31
0
39
0
210
0
220
0
230
1
0
LINE
5
91
100
AcDbEntity
8
SK1
62
256
6
ByLayer
370
18
48
1
60
0
100
AcDbLine
10
-7.046903
20
3.743562
30
0
11
-6.54318
21
4.616036
31
0
39
0
210
0
220
0
230
1
0
LINE
5
92
100
AcDbEntity
8
SK1
62
256
6
ByLayer
370
18
48
1
60
0
100
AcDbLine
10
-10.421167
20
-2.100835
30
0
11
-10.570724
21
-2.359875
31
0
39
0
210
0
220
0
230
1
0
LINE
5
93
100
AcDbEntity
8
SK1
62
256
6
ByLayer
370
18
48
1
60
0
100
AcDbLine
10
-7.046903
20
3.743562
30
0
11
-10.347962
21
-1.97404
31
0
39
0
210
0
220
0
230
1
0
LINE
5
94
100
AcDbEntity
8
SK1
62
256
6
ByLayer
370
18
48
1
60
0
100
AcDbLine
10
-250.122277
20
19.925
30
0
11
-250.122277
21
-19.925
31
0
39
0
210
0
220
0
230
1
0
LINE
5
95
100
AcDbEntity
8
SK1
62
256
6
ByLayer
370
18
48
1
60
0
100
AcDbLine
10
-10.570724
20
-2.359875
30
0
11
-32.459301
21
19.528702
31
0
39
0
210
0
220
0
230
1
0
LINE
5
96
100
AcDbEntity
8
SK1
62
256
6
ByLayer
370
18
48
1
60
0
100
AcDbLine
10
-24.568385
20
22.661519
30
0
11
-24.130947
21
22.914074
31
0
39
0
210
0
220
0
230
1
0
LINE
5
97
100
AcDbEntity
8
SK1
62
256
6
ByLayer
370
18
48
1
60
0
100
AcDbLine
10
-5.542074
20
6.350003
30
0
11
-5.460749
21
6.490861
31
0
39
0
210
0
220
0
230
1
0
LINE
5
98
100
AcDbEntity
8
80
62
256
6
ByLayer
370
18
48
1
60
0
100
AcDbLine
10
0
20
0
30
0
11
-5
21
0
31
0
39
0
210
0
220
0
230
1
0
LINE
5
99
100
AcDbEntity
8
81
62
256
6
ByLayer
370
18
48
1
60
0
100
AcDbLine
10
-0.122277
20
30.075
30
0
11
9.877723
21
30.075
31
0
39
0
210
0
220
0
230
1
0
LINE
5
9A
100
AcDbEntity
8
1
62
256
6
ByLayer
370
18
48
1
60
0
100
AcDbLine
10
-12.96811
20
20.106235
30
0
11
-12.356215
21
20.71813
31
0
39
0
210
0
220
0
230
1
0
LINE
5
9B
100
AcDbEntity
8
1
62
256
6
ByLayer
370
18
48
1
60
0
100
AcDbLine
10
-8.479147
20
16.841062
30
0
11
-9.091042
21
16.229166
31
0
39
0
210
0
220
0
230
1
0
LINE
5
9C
100
AcDbEntity
8
1
62
256
6
ByLayer
370
18
48
1
60
0
100
AcDbLine
10
-14.247686
20
19.333653
30
0
11
-13.381457
21
20.199881
31
0
39
0
210
0
220
0
230
1
0
LINE
5
9D
100
AcDbEntity
8
1
62
256
6
ByLayer
370
18
48
1
60
0
100
AcDbLine
10
-9.863624
20
14.94959
30
0
11
-8.997395
21
15.815819
31
0
39
0
210
0
220
0
230
1
0
MTEXT
5
D8
100
AcDbEntity
8
SK6
62
256
6
ByLayer
370
13
48
1
60
0
100
AcDbMText
10
-205.408743
20
-44.986925
30
0
210
0
220
0
230
1
1
\W0.7845;PRGCR 4040S 25
40
3.5
41
0
44
1.084337
50
0
71
7
72
5
7
iso_b_vert
0
DIMENSION
5
EA
100
AcDbEntity
8
SK2
62
256
6
ByLayer
370
13
48
1
60
0
100
AcDbDimension
2
DimnDraft3D1
10
-259.872277
20
-19.925
30
0
11
-259.872277
21
0.075
31
0
70
32
71
5
72
1
41
1
210
0
220
0
230
1
3
Standard
100
AcDbAlignedDimension
13
-251.709777
23
20.075
33
0
14
-251.709777
24
-19.925
34
0
50
90
100
AcDbRotatedDimension
1001
ACAD
1000
DSTYLE
1002
{
1070
    74
1070
     0
1070
   279
1070
     0
1070
   172
1070
     1
1070
   173
1070
     1
1070
   340
1005
D9
1070
   271
1070
     1
1070
   272
1070
     2
1070
    77
1070
     1
1070
    73
1070
     0
1070
   171
1070
     3
1070
   274
1070
     4
1070
   177
1070
   150
1070
   176
1070
     9
1070
   178
1070
    43
1070
    78
1070
     8
1070
    48
1040
-0.005
1070
    41
1041
3.175
1070
   147
1041
2.25
1070
    42
1041
1.5875
1070
    44
1041
3.175
1070
   140
1041
4.5
1070
   343
1005
EB
1070
   344
1005
EB
1002
}
0
DIMENSION
5
100
100
AcDbEntity
8
2
62
256
6
ByLayer
370
13
48
1
60
0
100
AcDbDimension
2
DimnDraft3D2
10
17.727723
20
30.425
30
0
11
17.727723
21
5.25
31
0
70
32
71
5
72
1
41
1
210
0
220
0
230
1
3
Standard
100
AcDbAlignedDimension
13
-33.975004
23
-19.925
33
0
14
2.815223
24
30.425
34
0
50
90
100
AcDbRotatedDimension
1001
ACAD
1000
DSTYLE
1002
{
1070
    74
1070
     0
1070
   279
1070
     0
1070
   172
1070
     1
1070
   173
1070
     1
1070
   340
1005
D9
1070
   271
1070
     1
1070
   272
1070
     2
1070
    77
1070
     1
1070
    73
1070
     0
1070
   171
1070
     3
1070
   274
1070
     4
1070
   177
1070
   150
1070
   176
1070
     9
1070
   178
1070
    43
1070
    78
1070
     8
1070
    48
1040
-0.005
1070
    41
1041
3.175
1070
   147
1041
2.25
1070
    42
1041
1.5875
1070
    44
1041
3.175
1070
   140
1041
4.5
1070
   343
1005
EB
1070
   344
1005
EB
1002
}
0
DIMENSION
5
10E
100
AcDbEntity
8
SK2
62
256
6
ByLayer
370
13
48
1
60
0
100
AcDbDimension
2
DimnDraft3D3
10
1.227723
20
47.925
30
0
11
-124.447277
21
47.925
31
0
70
32
71
5
72
1
41
1
210
0
220
0
230
1
3
Standard
100
AcDbAlignedDimension
13
-250.122277
23
21.6625
33
0
14
1.227723
24
32.0125
34
0
50
0
100
AcDbRotatedDimension
1001
ACAD
1000
DSTYLE
1002
{
1070
   279
1070
     0
1070
   172
1070
     1
1070
   173
1070
     1
1070
   340
1005
D9
1070
   271
1070
     1
1070
   272
1070
     2
1070
    77
1070
     1
1070
    73
1070
     0
1070
   171
1070
     3
1070
   274
1070
     4
1070
   177
1070
   150
1070
   176
1070
     9
1070
   178
1070
    43
1070
    78
1070
     8
1070
    48
1040
-0.005
1070
    41
1041
3.175
1070
   147
1041
2.25
1070
    42
1041
1.5875
1070
    44
1041
3.175
1070
   140
1041
4.5
1070
   343
1005
EB
1070
   344
1005
EB
1002
}
0
ENDSEC
0
SECTION
2
OBJECTS
0
DICTIONARY
5
178
330
0
100
AcDbDictionary
280
0
281
1
3
ACAD_GROUP
350
179
3
ACAD_MLINESTYLE
350
17a
0
DICTIONARY
5
179
330
0
100
AcDbDictionary
280
0
281
1
0
DICTIONARY
5
17a
330
0
100
AcDbDictionary
280
0
281
1
3
Standard
350
18
0
MLINESTYLE
5
18
330
17a
100
AcDbMlineStyle
2
Standard
70
0
3

62
256
51
90
52
90
71
2
49
-0.5
62
256
6
ByLayer
49
0.5
62
256
6
ByLayer
0
RASTERVARIABLES
5
167
330

100
AcDbRasterVariables
90
0
70
1
71
1
72
1
0
ENDSEC
0
EOF
