0
SECTION
2
HEADER
9
$ACADVER
1
AC1015
9
$DWGCODEPAGE
3
ANSI_1252
9
$HANDSEED
5
17a
9
$ANGBASE
50
0
9
$ANGDIR
70
0
9
$ATTMODE
70
1
9
$AUNITS
70
0
9
$AUPREC
70
0
9
$CECOLOR
62
256
9
$CELTSCALE
40
1
9
$CELTYPE
6
ByLayer
9
$CELWEIGHT
370
18
9
$CLAYER
8
0
9
$CMLJUST
70
0
9
$CMLSCALE
40
1
9
$CMLSTYLE
2
Standard
9
$DIMSTYLE
2
Standard
9
$TEXTSIZE
40
0.2
9
$TEXTSTYLE
7
Standard
9
$LUNITS
70
2
9
$LUPREC
70
4
9
$EXTNAMES
290
1
9
$INSUNITS
70
4
9
$LTSCALE
40
1
9
$LWDISPLAY
290
1
9
$PDMODE
70
0
9
$PDSIZE
40
0
9
$PLINEGEN
70
0
0
ENDSEC
0
SECTION
2
CLASSES
0
CLASS
1
RASTERVARIABLES
2
AcDbRasterVariables
3
ISM
90
0
280
0
281
0
0
ENDSEC
0
SECTION
2
TABLES
0
TABLE
2
VPORT
5
170
100
AcDbSymbolTable
0
VPORT
5
1
100
AcDbSymbolTableRecord
100
AcDbViewportTableRecord
2
*Active
70
0
10
0
20
0
11
1
21
1
12
-1
22
1
13
0
23
0
14
0.5
24
0.5
15
10
25
10
16
0
26
0
36
1
17
0
27
0
37
0
0
ENDTAB
0
TABLE
2
LTYPE
5
171
100
AcDbSymbolTable
0
LTYPE
5
14
100
AcDbSymbolTableRecord
100
AcDbLinetypeTableRecord
70
0
2
ByBlock
3

72
65
73
0
40
0
0
LTYPE
5
15
100
AcDbSymbolTableRecord
100
AcDbLinetypeTableRecord
70
0
2
ByLayer
3

72
65
73
0
40
0
0
LTYPE
5
16
100
AcDbSymbolTableRecord
100
AcDbLinetypeTableRecord
70
0
2
CONTINUOUS
3
Solid line
72
65
73
0
40
0
0
LTYPE
5
6A
100
AcDbSymbolTableRecord
100
AcDbLinetypeTableRecord
70
0
2
CENTER
3
____ _ ____ _ ____ _ ____
72
65
73
4
40
47.5
49
22
74
0
49
-8.5
74
0
49
8.5
74
0
49
-8.5
74
0
0
LTYPE
5
6B
100
AcDbSymbolTableRecord
100
AcDbLinetypeTableRecord
70
0
2
DASHED
3
__ __ __ __ __ __ __ __ __
72
65
73
2
40
25.72
49
12.86
74
0
49
-12.86
74
0
0
ENDTAB
0
TABLE
2
LAYER
5
172
100
AcDbSymbolTable
0
LAYER
5
10
100
AcDbSymbolTableRecord
100
AcDbLayerTableRecord
2
0
70
0
62
7
6
CONTINUOUS
290
1
370
-3
390
0
0
LAYER
5
6D
100
AcDbSymbolTableRecord
100
AcDbLayerTableRecord
2
80
70
0
62
-6
6
CONTINUOUS
290
1
370
-3
390
0
0
LAYER
5
6F
100
AcDbSymbolTableRecord
100
AcDbLayerTableRecord
2
81
70
0
62
-3
6
CONTINUOUS
290
1
370
-3
390
0
0
LAYER
5
71
100
AcDbSymbolTableRecord
100
AcDbLayerTableRecord
2
1
70
0
62
4
6
CONTINUOUS
290
1
370
-3
390
0
0
LAYER
5
73
100
AcDbSymbolTableRecord
100
AcDbLayerTableRecord
2
2
70
0
62
7
6
CONTINUOUS
290
1
370
-3
390
0
0
LAYER
5
15d
100
AcDbSymbolTableRecord
100
AcDbLayerTableRecord
2
SK1
70
0
62
4
6
CONTINUOUS
290
1
370
-3
390
0
0
LAYER
5
15e
100
AcDbSymbolTableRecord
100
AcDbLayerTableRecord
2
SK6
70
0
62
5
6
CONTINUOUS
290
1
370
-3
390
0
0
LAYER
5
15f
100
AcDbSymbolTableRecord
100
AcDbLayerTableRecord
2
SK2
70
0
62
7
6
CONTINUOUS
290
1
370
-3
390
0
0
ENDTAB
0
TABLE
2
STYLE
5
173
100
AcDbSymbolTable
0
STYLE
5
11
100
AcDbSymbolTableRecord
100
AcDbTextStyleTableRecord
2
Standard
3
txt
70
0
71
0
40
0
41
1
42
0
50
0
0
STYLE
5
CF
100
AcDbSymbolTableRecord
100
AcDbTextStyleTableRecord
2
iso_b_vert
3
simplex.shx
70
0
71
0
40
0
41
1
42
0
50
0
0
STYLE
5
D0
100
AcDbSymbolTableRecord
100
AcDbTextStyleTableRecord
2
DWGDirectTextStyle
3
simplex
70
0
71
0
40
0
41
1
42
0
50
0
0
ENDTAB
0
TABLE
2
DIMSTYLE
5
174
100
AcDbSymbolTable
100
AcDbDimStyleTable
0
DIMSTYLE
105
27
100
AcDbSymbolTableRecord
100
AcDbDimStyleTableRecord
2
Standard
70
0
3
<>
41
0.18
42
0.0625
44
0.18
140
0.18
147
0.09
73
0
74
0
77
1
271
2
275
0
278
52
280
0
340
11
0
ENDTAB
0
TABLE
2
VIEW
5
175
100
AcDbSymbolTable
0
ENDTAB
0
TABLE
2
UCS
5
176
100
AcDbSymbolTable
0
ENDTAB
0
TABLE
2
APPID
5
177
100
AcDbSymbolTable
0
APPID
5
12
100
AcDbSymbolTableRecord
100
AcDbRegAppTableRecord
2
ACAD
70
0
0
ENDTAB
0
TABLE
2
BLOCK_RECORD
5
178
100
AcDbSymbolTable
0
BLOCK_RECORD
5
1F
100
AcDbSymbolTableRecord
100
AcDbBlockTableRecord
2
*Model_Space
340
0
70
0
0
BLOCK_RECORD
5
1B
100
AcDbSymbolTableRecord
100
AcDbBlockTableRecord
2
*Paper_Space
340
0
70
0
0
BLOCK_RECORD
5
23
100
AcDbSymbolTableRecord
100
AcDbBlockTableRecord
2
*Paper_Space0
340
0
70
0
0
BLOCK_RECORD
5
D2
100
AcDbSymbolTableRecord
100
AcDbBlockTableRecord
2
DimnDraft3D1
340
0
70
0
0
BLOCK_RECORD
5
E1
100
AcDbSymbolTableRecord
100
AcDbBlockTableRecord
2
_CLOSED
340
0
70
0
0
BLOCK_RECORD
5
E8
100
AcDbSymbolTableRecord
100
AcDbBlockTableRecord
2
DimnDraft3D2
340
0
70
0
0
BLOCK_RECORD
5
F6
100
AcDbSymbolTableRecord
100
AcDbBlockTableRecord
2
DimnDraft3D3
340
0
70
0
0
ENDTAB
0
ENDSEC
0
SECTION
2
BLOCKS
0
BLOCK
5
20
100
AcDbEntity
8
0
100
AcDbBlockBegin
2
*Model_Space
70
0
10
0
20
0
30
0
3
*Model_Space
0
ENDBLK
5
21
100
AcDbEntity
8
0
100
AcDbBlockEnd
0
BLOCK
5
1C
100
AcDbEntity
8
0
100
AcDbBlockBegin
2
*Paper_Space
70
0
10
0
20
0
30
0
3
*Paper_Space
0
ENDBLK
5
1D
100
AcDbEntity
8
0
100
AcDbBlockEnd
0
BLOCK
5
24
100
AcDbEntity
8
0
100
AcDbBlockBegin
2
*Paper_Space0
70
0
10
0
20
0
30
0
3
*Paper_Space0
0
ENDBLK
5
25
100
AcDbEntity
8
0
100
AcDbBlockEnd
0
BLOCK
5
DE
100
AcDbEntity
8
0
100
AcDbBlockBegin
2
DimnDraft3D1
70
0
10
0
20
0
30
0
3
DimnDraft3D1
0
MTEXT
5
D3
100
AcDbEntity
8
SK2
62
256
6
ByLayer
370
13
48
1
60
0
100
AcDbMText
10
-180.997277
20
-1.625658
30
0
210
0
220
0
230
1
1
\W0.6740;25
40
4.5
41
0
44
1.084337
50
90
71
7
72
5
7
iso_b_vert
0
LINE
5
D5
100
AcDbEntity
8
SK2
62
256
6
ByLayer
370
13
48
1
60
0
100
AcDbLine
10
-171.709777
20
-12.5625
30
0
11
-183.047277
21
-12.5625
31
0
39
0
210
0
220
0
230
1
0
LINE
5
D6
100
AcDbEntity
8
SK2
62
256
6
ByLayer
370
13
48
1
60
0
100
AcDbLine
10
-171.709777
20
12.4375
30
0
11
-183.047277
21
12.4375
31
0
39
0
210
0
220
0
230
1
0
LINE
5
D7
100
AcDbEntity
8
SK2
62
256
6
ByLayer
370
13
48
1
60
0
100
AcDbLine
10
-179.872277
20
-12.5625
30
0
11
-179.872277
21
12.4375
31
0
39
0
210
0
220
0
230
1
0
LINE
5
D8
100
AcDbEntity
8
SK2
62
256
6
ByLayer
370
13
48
1
60
0
100
AcDbLine
10
-179.872277
20
-12.5625
30
0
11
-180.723016
21
-9.387503
31
0
39
0
210
0
220
0
230
1
0
LINE
5
D9
100
AcDbEntity
8
SK2
62
256
6
ByLayer
370
13
48
1
60
0
100
AcDbLine
10
-179.872277
20
-12.5625
30
0
11
-179.021538
21
-9.387497
31
0
39
0
210
0
220
0
230
1
0
LINE
5
DA
100
AcDbEntity
8
SK2
62
256
6
ByLayer
370
13
48
1
60
0
100
AcDbLine
10
-180.723016
20
-9.387503
30
0
11
-179.021538
21
-9.387497
31
0
39
0
210
0
220
0
230
1
0
LINE
5
DB
100
AcDbEntity
8
SK2
62
256
6
ByLayer
370
13
48
1
60
0
100
AcDbLine
10
-179.872277
20
12.4375
30
0
11
-179.021538
21
9.262503
31
0
39
0
210
0
220
0
230
1
0
LINE
5
DC
100
AcDbEntity
8
SK2
62
256
6
ByLayer
370
13
48
1
60
0
100
AcDbLine
10
-179.872277
20
12.4375
30
0
11
-180.723016
21
9.262497
31
0
39
0
210
0
220
0
230
1
0
LINE
5
DD
100
AcDbEntity
8
SK2
62
256
6
ByLayer
370
13
48
1
60
0
100
AcDbLine
10
-179.021538
20
9.262503
30
0
11
-180.723016
21
9.262497
31
0
39
0
210
0
220
0
230
1
0
ENDBLK
5
DF
100
AcDbEntity
8
0
100
AcDbBlockEnd
0
BLOCK
5
E2
100
AcDbEntity
8
0
100
AcDbBlockBegin
2
_CLOSED
70
0
10
0
20
0
30
0
3
_CLOSED
0
LINE
5
E4
100
AcDbEntity
8
0
62
256
6
ByLayer
370
-2
48
1
60
0
100
AcDbLine
10
-1
20
0.166667
30
0
11
0
21
0
31
0
39
0
210
0
220
0
230
1
0
LINE
5
E5
100
AcDbEntity
8
0
62
256
6
ByLayer
370
-2
48
1
60
0
100
AcDbLine
10
0
20
0
30
0
11
-1
21
-0.166667
31
0
39
0
210
0
220
0
230
1
0
LINE
5
E6
100
AcDbEntity
8
0
62
256
6
ByLayer
370
-2
48
1
60
0
100
AcDbLine
10
-1
20
0.166667
30
0
11
-1
21
-0.166667
31
0
39
0
210
0
220
0
230
1
0
LINE
5
E7
100
AcDbEntity
8
0
62
256
6
ByLayer
370
-2
48
1
60
0
100
AcDbLine
10
0
20
0
30
0
11
-1
21
0
31
0
39
0
210
0
220
0
230
1
0
ENDBLK
5
E3
100
AcDbEntity
8
0
100
AcDbBlockEnd
0
BLOCK
5
F3
100
AcDbEntity
8
0
100
AcDbBlockBegin
2
DimnDraft3D2
70
0
10
0
20
0
30
0
3
DimnDraft3D2
0
MTEXT
5
E9
100
AcDbEntity
8
2
62
256
6
ByLayer
370
13
48
1
60
0
100
AcDbMText
10
16.602723
20
-5.300658
30
0
210
0
220
0
230
1
1
\W0.6740;32
40
4.5
41
0
44
1.084337
50
90
71
7
72
5
7
iso_b_vert
0
LINE
5
EA
100
AcDbEntity
8
2
62
256
6
ByLayer
370
13
48
1
60
0
100
AcDbLine
10
2.815223
20
-19.9125
30
0
11
20.902723
21
-19.9125
31
0
39
0
210
0
220
0
230
1
0
LINE
5
EB
100
AcDbEntity
8
2
62
256
6
ByLayer
370
13
48
1
60
0
100
AcDbLine
10
-23.529779
20
12.4375
30
0
11
20.902723
21
12.4375
31
0
39
0
210
0
220
0
230
1
0
LINE
5
EC
100
AcDbEntity
8
2
62
256
6
ByLayer
370
13
48
1
60
0
100
AcDbLine
10
17.727723
20
-19.9125
30
0
11
17.727723
21
12.4375
31
0
39
0
210
0
220
0
230
1
0
LINE
5
ED
100
AcDbEntity
8
2
62
256
6
ByLayer
370
13
48
1
60
0
100
AcDbLine
10
17.727723
20
-19.9125
30
0
11
16.876984
21
-16.737503
31
0
39
0
210
0
220
0
230
1
0
LINE
5
EE
100
AcDbEntity
8
2
62
256
6
ByLayer
370
13
48
1
60
0
100
AcDbLine
10
17.727723
20
-19.9125
30
0
11
18.578462
21
-16.737497
31
0
39
0
210
0
220
0
230
1
0
LINE
5
EF
100
AcDbEntity
8
2
62
256
6
ByLayer
370
13
48
1
60
0
100
AcDbLine
10
16.876984
20
-16.737503
30
0
11
18.578462
21
-16.737497
31
0
39
0
210
0
220
0
230
1
0
LINE
5
F0
100
AcDbEntity
8
2
62
256
6
ByLayer
370
13
48
1
60
0
100
AcDbLine
10
17.727723
20
12.4375
30
0
11
18.578462
21
9.262503
31
0
39
0
210
0
220
0
230
1
0
LINE
5
F1
100
AcDbEntity
8
2
62
256
6
ByLayer
370
13
48
1
60
0
100
AcDbLine
10
17.727723
20
12.4375
30
0
11
16.876984
21
9.262497
31
0
39
0
210
0
220
0
230
1
0
LINE
5
F2
100
AcDbEntity
8
2
62
256
6
ByLayer
370
13
48
1
60
0
100
AcDbLine
10
18.578462
20
9.262503
30
0
11
16.876984
21
9.262497
31
0
39
0
210
0
220
0
230
1
0
ENDBLK
5
F4
100
AcDbEntity
8
0
100
AcDbBlockEnd
0
BLOCK
5
101
100
AcDbEntity
8
0
100
AcDbBlockBegin
2
DimnDraft3D3
70
0
10
0
20
0
30
0
3
DimnDraft3D3
0
MTEXT
5
F7
100
AcDbEntity
8
SK2
62
256
6
ByLayer
370
13
48
1
60
0
100
AcDbMText
10
-87.129514
20
-45.2875
30
0
210
0
220
0
230
1
1
\W0.6217;170
40
4.5
41
0
44
1.084337
50
0
71
7
72
5
7
iso_b_vert
0
LINE
5
F8
100
AcDbEntity
8
SK2
62
256
6
ByLayer
370
13
48
1
60
0
100
AcDbLine
10
-170.122277
20
-14.15
30
0
11
-170.122277
21
-49.5875
31
0
39
0
210
0
220
0
230
1
0
LINE
5
F9
100
AcDbEntity
8
SK2
62
256
6
ByLayer
370
13
48
1
60
0
100
AcDbLine
10
1.227723
20
-21.5
30
0
11
1.227723
21
-49.5875
31
0
39
0
210
0
220
0
230
1
0
LINE
5
FA
100
AcDbEntity
8
SK2
62
256
6
ByLayer
370
13
48
1
60
0
100
AcDbLine
10
-170.122277
20
-46.4125
30
0
11
1.227723
21
-46.4125
31
0
39
0
210
0
220
0
230
1
0
LINE
5
FB
100
AcDbEntity
8
SK2
62
256
6
ByLayer
370
13
48
1
60
0
100
AcDbLine
10
-170.122277
20
-46.4125
30
0
11
-166.94728
21
-45.561761
31
0
39
0
210
0
220
0
230
1
0
LINE
5
FC
100
AcDbEntity
8
SK2
62
256
6
ByLayer
370
13
48
1
60
0
100
AcDbLine
10
-170.122277
20
-46.4125
30
0
11
-166.947274
21
-47.263239
31
0
39
0
210
0
220
0
230
1
0
LINE
5
FD
100
AcDbEntity
8
SK2
62
256
6
ByLayer
370
13
48
1
60
0
100
AcDbLine
10
-166.94728
20
-45.561761
30
0
11
-166.947274
21
-47.263239
31
0
39
0
210
0
220
0
230
1
0
LINE
5
FE
100
AcDbEntity
8
SK2
62
256
6
ByLayer
370
13
48
1
60
0
100
AcDbLine
10
1.227723
20
-46.4125
30
0
11
-1.947274
21
-47.263239
31
0
39
0
210
0
220
0
230
1
0
LINE
5
FF
100
AcDbEntity
8
SK2
62
256
6
ByLayer
370
13
48
1
60
0
100
AcDbLine
10
1.227723
20
-46.4125
30
0
11
-1.94728
21
-45.561761
31
0
39
0
210
0
220
0
230
1
0
LINE
5
100
100
AcDbEntity
8
SK2
62
256
6
ByLayer
370
13
48
1
60
0
100
AcDbLine
10
-1.947274
20
-47.263239
30
0
11
-1.94728
21
-45.561761
31
0
39
0
210
0
220
0
230
1
0
ENDBLK
5
102
100
AcDbEntity
8
0
100
AcDbBlockEnd
0
ENDSEC
0
SECTION
2
ENTITIES
0
ARC
5
9A
100
AcDbEntity
8
SK1
62
256
6
ByLayer
370
18
48
1
60
0
100
AcDbCircle
39
0
10
-8.285485
20
-10.399291
30
0
40
6
210
0
220
0
230
1
100
AcDbArc
50
110.784984
51
159.215015
0
ARC
5
9B
100
AcDbEntity
8
SK1
62
256
6
ByLayer
370
18
48
1
60
0
100
AcDbCircle
39
0
10
22.288852
20
-22.2375
30
0
40
10.2
210
0
220
0
230
-1
100
AcDbArc
50
73.901066
51
101.13382
0
ARC
5
9C
100
AcDbEntity
8
SK1
62
256
6
ByLayer
370
18
48
1
60
0
100
AcDbCircle
39
0
10
22.288852
20
-22.2375
30
0
40
10.2
210
0
220
0
230
-1
100
AcDbArc
50
104.047363
51
120
0
ARC
5
9D
100
AcDbEntity
8
1
62
256
6
ByLayer
370
18
48
1
60
0
100
AcDbCircle
39
0
10
6.772277
20
-11.9125
30
0
40
2.6
210
0
220
0
230
-1
100
AcDbArc
50
180.000003
51
346.691253
0
ARC
5
9E
100
AcDbEntity
8
1
62
256
6
ByLayer
370
18
48
1
60
0
100
AcDbCircle
39
0
10
6.772277
20
-11.9125
30
0
40
2.6
210
0
220
0
230
-1
100
AcDbArc
50
103.786876
51
180.000003
0
ARC
5
A1
100
AcDbEntity
8
1
62
256
6
ByLayer
370
18
48
1
60
0
100
AcDbCircle
39
0
10
6.772277
20
-11.9125
30
0
40
2.32499999999984
210
0
220
0
230
-1
100
AcDbArc
50
244.428097
51
329.592551
0
ARC
5
A2
100
AcDbEntity
8
1
62
256
6
ByLayer
370
18
48
1
60
0
100
AcDbCircle
39
0
10
6.772277
20
-11.9125
30
0
40
2.5
210
0
220
0
230
-1
100
AcDbArc
50
24.593058
51
65.406942
0
ARC
5
A3
100
AcDbEntity
8
1
62
256
6
ByLayer
370
18
48
1
60
0
100
AcDbCircle
39
0
10
6.772277
20
-11.9125
30
0
40
2.32499999999926
210
0
220
0
230
-1
100
AcDbArc
50
120.407449
51
205.571903
0
ARC
5
A4
100
AcDbEntity
8
1
62
256
6
ByLayer
370
18
48
1
60
0
100
AcDbCircle
39
0
10
6.772277
20
-11.9125
30
0
40
3
210
0
220
0
230
-1
100
AcDbArc
50
41.004693
51
48.995307
0
ARC
5
A5
100
AcDbEntity
8
1
62
256
6
ByLayer
370
18
48
1
60
0
100
AcDbCircle
39
0
10
-19.075935
20
0.391158
30
0
40
1.295
210
0
220
0
230
1
100
AcDbArc
50
57.612611
51
92.387389
0
ARC
5
A6
100
AcDbEntity
8
1
62
256
6
ByLayer
370
18
48
1
60
0
100
AcDbCircle
39
0
10
-19.075935
20
0.391158
30
0
40
1.295
210
0
220
0
230
1
100
AcDbArc
50
117.612611
51
152.387389
0
ARC
5
A7
100
AcDbEntity
8
1
62
256
6
ByLayer
370
18
48
1
60
0
100
AcDbCircle
39
0
10
-19.075935
20
0.391158
30
0
40
1.295
210
0
220
0
230
1
100
AcDbArc
50
297.612611
51
332.387389
0
ARC
5
A8
100
AcDbEntity
8
1
62
256
6
ByLayer
370
18
48
1
60
0
100
AcDbCircle
39
0
10
-19.075935
20
0.391158
30
0
40
1.295
210
0
220
0
230
1
100
AcDbArc
50
177.612611
51
212.387389
0
ARC
5
AA
100
AcDbEntity
8
1
62
256
6
ByLayer
370
18
48
1
60
0
100
AcDbCircle
39
0
10
-19.075935
20
0.391158
30
0
40
1.295
210
0
220
0
230
1
100
AcDbArc
50
32.387389
51
57.612611
0
ARC
5
AB
100
AcDbEntity
8
1
62
256
6
ByLayer
370
18
48
1
60
0
100
AcDbCircle
39
0
10
-19.075935
20
0.391158
30
0
40
1.295
210
0
220
0
230
1
100
AcDbArc
50
357.612611
51
32.387389
0
ARC
5
AD
100
AcDbEntity
8
1
62
256
6
ByLayer
370
18
48
1
60
0
100
AcDbCircle
39
0
10
-19.075935
20
0.391158
30
0
40
1.295
210
0
220
0
230
1
100
AcDbArc
50
332.387389
51
357.612611
0
ARC
5
AE
100
AcDbEntity
8
1
62
256
6
ByLayer
370
18
48
1
60
0
100
AcDbCircle
39
0
10
-19.075935
20
0.391158
30
0
40
1.295
210
0
220
0
230
1
100
AcDbArc
50
237.612611
51
272.387389
0
ARC
5
AF
100
AcDbEntity
8
1
62
256
6
ByLayer
370
18
48
1
60
0
100
AcDbCircle
39
0
10
-19.075935
20
0.391158
30
0
40
1.295
210
0
220
0
230
1
100
AcDbArc
50
272.387389
51
297.612611
0
ARC
5
B0
100
AcDbEntity
8
1
62
256
6
ByLayer
370
18
48
1
60
0
100
AcDbCircle
39
0
10
-19.075935
20
0.391158
30
0
40
1.295
210
0
220
0
230
1
100
AcDbArc
50
92.387389
51
117.612611
0
ARC
5
B1
100
AcDbEntity
8
1
62
256
6
ByLayer
370
18
48
1
60
0
100
AcDbCircle
39
0
10
-19.075935
20
0.391158
30
0
40
1.295
210
0
220
0
230
1
100
AcDbArc
50
152.387389
51
177.612611
0
ARC
5
B2
100
AcDbEntity
8
1
62
256
6
ByLayer
370
18
48
1
60
0
100
AcDbCircle
39
0
10
-19.075935
20
0.391158
30
0
40
1.295
210
0
220
0
230
1
100
AcDbArc
50
212.387389
51
237.612611
0
CIRCLE
5
9F
100
AcDbEntity
8
1
62
256
6
ByLayer
370
18
48
1
60
0
100
AcDbCircle
10
6.772277
20
-11.9125
30
0
40
3.36702236608182
39
0
210
0
220
0
230
-1
0
CIRCLE
5
A0
100
AcDbEntity
8
1
62
256
6
ByLayer
370
18
48
1
60
0
100
AcDbCircle
10
-6.772277
20
-11.9125
30
0
40
8
39
0
210
0
220
0
230
1
0
CIRCLE
5
A9
100
AcDbEntity
8
1
62
256
6
ByLayer
370
18
48
1
60
0
100
AcDbCircle
10
19.075935
20
0.391158
30
0
40
1.66739092362731
39
0
210
0
220
0
230
-1
0
CIRCLE
5
AC
100
AcDbEntity
8
1
62
256
6
ByLayer
370
18
48
1
60
0
100
AcDbCircle
10
19.075935
20
0.391158
30
0
40
2.235
39
0
210
0
220
0
230
-1
0
ELLIPSE
5
B3
100
AcDbEntity
8
SK1
62
256
6
ByLayer
370
18
48
1
60
0
100
AcDbEllipse
10
-22.288852
20
-22.237501
30
0
11
2.07289026404634
21
9.98714894723352
31
0
210
0
220
0
230
-1
40
1
41
-0.0103282249604055
42
0.024275671367908
0
ELLIPSE
5
B4
100
AcDbEntity
8
1
62
256
6
ByLayer
370
18
48
1
60
0
100
AcDbEllipse
10
-6.693227
20
-11.99155
30
0
11
1.59099025766973
21
1.59099025766973
31
0
210
0
220
0
230
1
40
0.984808
41
-1.21993041492605
42
-7.77620785740636E-14
0
ELLIPSE
5
B5
100
AcDbEntity
8
1
62
256
6
ByLayer
370
18
48
1
60
0
100
AcDbEllipse
10
-6.693227
20
-11.99155
30
0
11
1.59099025766973
21
1.59099025766973
31
0
210
0
220
0
230
1
40
0.984808
41
-3.14159265358973
42
-1.92166223866373
0
POINT
5
6C
100
AcDbEntity
8
80
62
256
6
ByLayer
370
18
48
1
60
0
100
AcDbPoint
10
0
20
0
30
0
39
0
210
0
220
0
230
1
50
360
0
POINT
5
6E
100
AcDbEntity
8
81
62
256
6
ByLayer
370
18
48
1
60
0
100
AcDbPoint
10
-0.122277
20
-19.5625
30
0
39
0
210
0
220
0
230
1
50
360
0
POINT
5
70
100
AcDbEntity
8
1
62
256
6
ByLayer
370
18
48
1
60
0
100
AcDbPoint
10
-170.122277
20
12.4375
30
0
39
0
210
0
220
0
230
1
50
360
0
POINT
5
72
100
AcDbEntity
8
2
62
256
6
ByLayer
370
18
48
1
60
0
100
AcDbPoint
10
-6.772277
20
-11.9125
30
0
39
0
210
0
220
0
230
1
50
360
0
SPLINE
5
B6
100
AcDbEntity
8
SK1
62
256
6
ByLayer
370
18
48
1
60
0
100
AcDbSpline
70
4
71
3
72
22
73
18
40
0
40
0
40
0
40
0
40
0.0001840386527181
40
0.0001840386527181
40
0.14776273646454
40
0.14776273646454
40
0.295341434276362
40
0.295341434276362
40
0.442920132088183
40
0.442920132088183
40
0.590498829900005
40
0.590498829900005
40
0.738077527711827
40
0.738077527711827
40
0.885656225523649
40
0.885656225523649
40
1
40
1
40
1
40
1
41
1
10
-3.42880991013016
20
-4.70355456000576
30
0
41
1
10
-3.42884455760526
20
-4.70349454881847
30
0
41
1
10
-3.42887920782073
20
-4.70343453288478
30
0
41
1
10
-3.45670170850718
20
-4.65524454810236
30
0
41
1
10
-3.48656379678363
20
-4.60352189398714
30
0
41
1
10
-3.54841698834616
20
-4.49638902359067
30
0
41
1
10
-3.58016207680845
20
-4.4414049174834
30
0
41
1
10
-3.64524683239318
20
-4.32867481401237
30
0
41
1
10
-3.67888315235717
20
-4.27041499885485
30
0
41
1
10
-3.74526775871027
20
-4.15543348781077
30
0
41
1
10
-3.77824680853854
20
-4.0983120979231
30
0
41
1
10
-3.84377360489316
20
-3.98481635737957
30
0
41
1
10
-3.87628584110138
20
-3.92850351239934
30
0
41
1
10
-3.93814178421644
20
-3.82136587617387
30
0
41
1
10
-3.96784655468275
20
-3.76991570449906
30
0
41
1
10
-4.01829504718938
20
-3.6825363523123
30
0
41
1
10
-4.03924026552136
20
-3.64625816998557
30
0
41
1
10
-4.05883191013123
20
-3.61232444611741
30
0
0
SPLINE
5
B7
100
AcDbEntity
8
SK1
62
256
6
ByLayer
370
18
48
1
60
0
100
AcDbSpline
70
4
71
3
72
22
73
18
40
0
40
0
40
0
40
0
40
0.0021353448112279
40
0.0021353448112279
40
0.14942601839606
40
0.14942601839606
40
0.296716691980892
40
0.296716691980892
40
0.444007365565724
40
0.444007365565724
40
0.591298039150556
40
0.591298039150556
40
0.738588712735388
40
0.738588712735388
40
0.88587938632022
40
0.88587938632022
40
1
40
1
40
1
40
1
41
1
10
-13.9793109411319
20
-15.2570704091327
30
0
41
1
10
-13.9800074212774
20
-15.2566682961332
30
0
41
1
10
-13.9807045434466
20
-15.2562658124612
30
0
41
1
10
-14.0295322711389
20
-15.2280751107341
30
0
41
1
10
-14.0812549252541
20
-15.1982130224575
30
0
41
1
10
-14.1883877956506
20
-15.1363598308951
30
0
41
1
10
-14.2433719017578
20
-15.1046147424329
30
0
41
1
10
-14.3561020052289
20
-15.0395299868481
30
0
41
1
10
-14.4143618203863
20
-15.005893666884
30
0
41
1
10
-14.5293433314304
20
-14.9395090605309
30
0
41
1
10
-14.5864647213181
20
-14.9065300107028
30
0
41
1
10
-14.6999604618617
20
-14.8410032143481
30
0
41
1
10
-14.7562733068419
20
-14.8084909781399
30
0
41
1
10
-14.8634109430673
20
-14.7466350350248
30
0
41
1
10
-14.9148611147422
20
-14.7169302645585
30
0
41
1
10
-15.0022404669232
20
-14.6664817720551
30
0
41
1
10
-15.0385186492448
20
-14.6455365537261
30
0
41
1
10
-15.0724523731087
20
-14.6259449091187
30
0
0
SPLINE
5
B8
100
AcDbEntity
8
SK1
62
256
6
ByLayer
370
18
48
1
60
0
100
AcDbSpline
70
4
71
3
72
8
73
4
40
0
40
0
40
0
40
0
40
1
40
1
40
1
40
1
41
1
10
-19.9741519830948
20
-12.3036103900212
30
0
41
1
10
-19.9293368414589
20
-12.3140527870771
30
0
41
1
10
-19.8715186499589
20
-12.327902193379
30
0
41
1
10
-19.8130684020113
20
-12.3425268089377
30
0
0
SPLINE
5
B9
100
AcDbEntity
8
1
62
256
6
ByLayer
370
18
48
1
60
0
100
AcDbSpline
70
4
71
3
72
14
73
10
40
0
40
0
40
0
40
0
40
0.031946176817216
40
0.031946176817216
40
0.515973088408609
40
0.515973088408609
40
0.757986544204305
40
0.757986544204305
40
1
40
1
40
1
40
1
41
1
10
-5.91067639875968
20
-9.48605388796415
30
0
41
1
10
-5.90194278380386
20
-9.49478750291993
30
0
41
1
10
-5.89322813836657
20
-9.50350214835726
30
0
41
1
10
-5.7527717921198
20
-9.64395849460399
30
0
41
1
10
-5.62526396574174
20
-9.7714663209821
30
0
41
1
10
-5.4372536384563
20
-9.95947664826753
30
0
41
1
10
-5.37512390229449
20
-10.0216063844293
30
0
41
1
10
-5.25140803925439
20
-10.1453222474694
30
0
41
1
10
-5.18963025860779
20
-10.2071000281161
30
0
41
1
10
-5.12825355298247
20
-10.2684767337413
30
0
0
SPLINE
5
BA
100
AcDbEntity
8
1
62
256
6
ByLayer
370
18
48
1
60
0
100
AcDbSpline
70
4
71
3
72
14
73
10
40
0
40
0
40
0
40
0
40
0.0357965385215079
40
0.0357965385215079
40
0.517898269260753
40
0.517898269260753
40
0.758949134630377
40
0.758949134630377
40
1
40
1
40
1
40
1
41
1
10
-9.20199895696533
20
-12.7708243947935
30
0
41
1
10
-9.19216828449743
20
-12.7806550672613
30
0
41
1
10
-9.1823617149692
20
-12.7904616367895
30
0
41
1
10
-9.04081832463419
20
-12.9320050271245
30
0
41
1
10
-8.91331049825686
20
-13.0595128535019
30
0
41
1
10
-8.72530017097233
20
-13.2475231807864
30
0
41
1
10
-8.66317043481081
20
-13.3096529169479
30
0
41
1
10
-8.53945457177122
20
-13.4333687799875
30
0
41
1
10
-8.47767679111627
20
-13.4951465606424
30
0
41
1
10
-8.41630008549993
20
-13.5565232662588
30
0
0
SPLINE
5
BB
100
AcDbEntity
8
1
62
256
6
ByLayer
370
18
48
1
60
0
100
AcDbSpline
70
4
71
3
72
22
73
18
40
0
40
0
40
0
40
0
40
0.0508889530350909
40
0.101172893818786
40
0.150913420364866
40
0.200174268770557
40
0.249021065126897
40
0.375534461099552
40
0.498482655062318
40
0.625525100155234
40
0.748509744957984
40
0.81148825929708
40
0.82729679582036
40
0.843033414322281
40
0.874370267806257
40
0.934797467043189
40
1
40
1
40
1
40
1
41
1
10
-7.81272304773887
20
-9.63930822991756
30
0
41
1
10
-7.82569200028155
20
-9.63274498319541
30
0
41
1
10
-7.85147571914951
20
-9.61969651935163
30
0
41
1
10
-7.89163562845084
20
-9.60234623154639
30
0
41
1
10
-7.93254584980986
20
-9.58683836669127
30
0
41
1
10
-7.97430474661383
20
-9.57335049441645
30
0
41
1
10
-8.03947467347194
20
-9.55577900441966
30
0
41
1
10
-8.13004486697935
20
-9.53974833083799
30
0
41
1
10
-8.25008624644153
20
-9.53460632280894
30
0
41
1
10
-8.37278122895083
20
-9.54602101561557
30
0
41
1
10
-8.47681196121061
20
-9.57069639083417
30
0
41
1
10
-8.54292214458457
20
-9.59444917949776
30
0
41
1
10
-8.57360291540255
20
-9.60684667739329
30
0
41
1
10
-8.59408098824269
20
-9.61429900238704
30
0
41
1
10
-8.62908871129065
20
-9.62566888356372
30
0
41
1
10
-8.6800352037165
20
-9.63874383450113
30
0
41
1
10
-8.71993244698933
20
-9.64518794020802
30
0
41
1
10
-8.74063933917125
20
-9.64853246707591
30
0
0
SPLINE
5
BC
100
AcDbEntity
8
1
62
256
6
ByLayer
370
18
48
1
60
0
100
AcDbSpline
70
4
71
3
72
16
73
12
40
0
40
0
40
0
40
0
40
0.25
40
0.25
40
0.375
40
0.375
40
0.5
40
0.5
40
0.75
40
0.75
40
1
40
1
40
1
40
1
41
1
10
-5.76870580290972
20
-14.0097530164906
30
0
41
1
10
-5.64933983629913
20
-13.9526343839342
30
0
41
1
10
-5.53628386029408
20
-13.8861003068836
30
0
41
1
10
-5.37591912545741
20
-13.7726339017623
30
0
41
1
10
-5.32400854846691
20
-13.7325217324276
30
0
41
1
10
-5.22333022396975
20
-13.6476439524251
30
0
41
1
10
-5.1743667415152
20
-13.6026790234395
30
0
41
1
10
-5.03377066574768
20
-13.4619542088614
30
0
41
1
10
-4.94940934247694
20
-13.3615807639892
30
0
41
1
10
-4.79859481371426
20
-13.1483237088952
30
0
41
1
10
-4.73214299088119
20
-13.0354381439759
30
0
41
1
10
-4.67502380275056
20
-12.9160710163317
30
0
0
SPLINE
5
BD
100
AcDbEntity
8
1
62
256
6
ByLayer
370
18
48
1
60
0
100
AcDbSpline
70
4
71
3
72
21
73
17
40
0
40
0
40
0
40
0
40
0.0441041926573026
40
0.0859834238865583
40
0.12587998098963
40
0.15723858691128
40
0.172980033536542
40
0.188788695681109
40
0.251748520873171
40
0.374415094636571
40
0.501213614014178
40
0.623959016666928
40
0.750353378560159
40
0.832169287915317
40
0.915285785998615
40
1
40
1
40
1
40
1
41
1
10
-9.03624435216528
20
-9.94413748006995
30
0
41
1
10
-9.03842102938171
20
-9.95811676570389
30
0
41
1
10
-9.04266457514206
20
-9.98537011215177
30
0
41
1
10
-9.05145854617166
20
-10.0258856188836
30
0
41
1
10
-9.06132135250425
20
-10.06259143399
30
0
41
1
10
-9.07056014239748
20
-10.0909303553066
30
0
41
1
10
-9.07802215798694
20
-10.1114156717655
30
0
41
1
10
-9.09042871759937
20
-10.1420914194495
30
0
41
1
10
-9.11410167145647
20
-10.208096659976
30
0
41
1
10
-9.13873441701463
20
-10.3119296267221
30
0
41
1
10
-9.15015389093492
20
-10.4343765895509
30
0
41
1
10
-9.14506862100927
20
-10.5542495859447
30
0
41
1
10
-9.12737122931287
20
-10.6547692595895
30
0
41
1
10
-9.10322061503433
20
-10.7385567697507
30
0
41
1
10
-9.07753726790071
20
-10.8072498126163
30
0
41
1
10
-9.05622577594346
20
-10.850315791942
30
0
41
1
10
-9.04546858932412
20
-10.8720537715016
30
0
0
SPLINE
5
BE
100
AcDbEntity
8
1
62
256
6
ByLayer
370
18
48
1
60
0
100
AcDbSpline
70
4
71
3
72
16
73
12
40
0
40
0
40
0
40
0
40
0.0627405664241888
40
0.125411310593799
40
0.187989205154004
40
0.250512845492807
40
0.374171532305603
40
0.499997141003837
40
0.663339267479428
40
0.83000570145842
40
1
40
1
40
1
40
1
41
1
10
-8.74063933917125
20
-9.64853246707588
30
0
41
1
10
-8.7281823403801
20
-9.63815906702499
30
0
41
1
10
-8.70328220584992
20
-9.61742381119544
30
0
41
1
10
-8.66536892954144
20
-9.58692511372178
30
0
41
1
10
-8.62708458952551
20
-9.5569131887238
30
0
41
1
10
-8.575798798856
20
-9.51778763678061
30
0
41
1
10
-8.51024809355465
20
-9.47039722768756
30
0
41
1
10
-8.42148520298019
20
-9.41070781320795
30
0
41
1
10
-8.32096478946835
20
-9.3488551600955
30
0
41
1
10
-8.20804309279737
20
-9.28570135790645
30
0
41
1
10
-8.12980613032687
20
-9.24772574628946
30
0
41
1
10
-8.09030096601617
20
-9.22855024753085
30
0
0
SPLINE
5
BF
100
AcDbEntity
8
1
62
256
6
ByLayer
370
18
48
1
60
0
100
AcDbSpline
70
4
71
3
72
18
73
14
40
0
40
0
40
0
40
0
40
0.102382231957946
40
0.203574466891416
40
0.303577173496189
40
0.402391130130863
40
0.500017434520235
40
0.625789374435382
40
0.749494454580178
40
0.812016271601367
40
0.874592341261799
40
0.937236169876504
40
1
40
1
40
1
40
1
41
1
10
-9.45622657171037
20
-10.5944758532251
30
0
41
1
10
-9.44480583188636
20
-10.5706278192829
30
0
41
1
10
-9.42209709642776
20
-10.5232089390404
30
0
41
1
10
-9.38574156436789
20
-10.4536583897695
30
0
41
1
10
-9.34806356404368
20
-10.3858264017752
30
0
41
1
10
-9.30897365762189
20
-10.3198111959678
30
0
41
1
10
-9.26456578887451
20
-10.2491788473224
30
0
41
1
10
-9.21438963462202
20
-10.1745377683176
30
0
41
1
10
-9.16699672224809
20
-10.1089885267509
30
0
41
1
10
-9.12786368648466
20
-10.0576921936291
30
0
41
1
10
-9.09785572275041
20
-10.0194130088228
30
0
41
1
10
-9.06735702239462
20
-9.98149966509041
30
0
41
1
10
-9.04662185600915
20
-9.95659948399972
30
0
41
1
10
-9.03624435216528
20
-9.94413748006995
30
0
0
SPLINE
5
C0
100
AcDbEntity
8
1
62
256
6
ByLayer
370
18
48
1
60
0
100
AcDbSpline
70
4
71
2
72
37
73
34
40
0
40
0
40
0
40
0.03125
40
0.0625
40
0.09375
40
0.125
40
0.15625
40
0.1875
40
0.21875
40
0.25
40
0.28125
40
0.3125
40
0.34375
40
0.375
40
0.40625
40
0.4375
40
0.46875
40
0.5
40
0.53125
40
0.5625
40
0.59375
40
0.625
40
0.65625
40
0.6875
40
0.71875
40
0.75
40
0.78125
40
0.8125
40
0.84375
40
0.875
40
0.90625
40
0.9375
40
0.96875
40
1
40
1
40
1
41
1
10
-9.04548723923796
20
-10.872076165653
30
0
41
1
10
-9.08349492329705
20
-11.0129353316611
30
0
41
1
10
-9.11238248638711
20
-11.3039638832212
30
0
41
1
10
-9.09321146824084
20
-11.5969917650759
30
0
41
1
10
-9.02644387300199
20
-11.883691301983
30
0
41
1
10
-8.91388057203477
20
-12.1563287606198
30
0
41
1
10
-8.75856502822199
20
-12.4075578571619
30
0
41
1
10
-8.56469950989697
20
-12.6306167995968
30
0
41
1
10
-8.33751326967359
20
-12.8195262072575
30
0
41
1
10
-8.08306943097767
20
-12.9692584388099
30
0
41
1
10
-7.80815876009575
20
-13.0757932082584
30
0
41
1
10
-7.52017870800836
20
-13.1362386584539
30
0
41
1
10
-7.22688918839106
20
-13.1489507735277
30
0
41
1
10
-6.93619696974309
20
-13.1135810162116
30
0
41
1
10
-6.65593863653964
20
-13.0310862419751
30
0
41
1
10
-6.39366549021418
20
-12.9037022362475
30
0
41
1
10
-6.15643648879643
20
-12.7348816288981
30
0
41
1
10
-5.95059573877342
20
-12.5291686232328
30
0
41
1
10
-5.7816277186958
20
-12.2920434327041
30
0
41
1
10
-5.65408209923709
20
-12.0298492707758
30
0
41
1
10
-5.57141565765215
20
-11.749643134911
30
0
41
1
10
-5.53586856410891
20
-11.4589750231821
30
0
41
1
10
-5.54840219643273
20
-11.1656809127701
30
0
41
1
10
-5.60867256859609
20
-10.8776676753402
30
0
41
1
10
-5.71504013543404
20
-10.6026960361012
30
0
41
1
10
-5.86461766522154
20
-10.3481643599586
30
0
41
1
10
-6.0533903741906
20
-10.1208643629684
30
0
41
1
10
-6.27633436269241
20
-9.9268634806344
30
0
41
1
10
-6.52747207578335
20
-9.77139570997397
30
0
41
1
10
-6.80004401386998
20
-9.65866722304369
30
0
41
1
10
-7.08670554295452
20
-9.59172570279159
30
0
41
1
10
-7.37972386589558
20
-9.57237646009784
30
0
41
1
10
-7.67131541950744
20
-9.60113994828384
30
0
41
1
10
-7.81270065358444
20
-9.6392895800023
30
0
0
SPLINE
5
C1
100
AcDbEntity
8
1
62
256
6
ByLayer
370
18
48
1
60
0
100
AcDbSpline
70
4
71
3
72
50
73
46
40
0
40
0
40
0
40
0
40
0.0060108142643542
40
0.0120727895528519
40
0.0181860232239802
40
0.0243506102041141
40
0.0305666430634346
40
0.0368342120890893
40
0.0431534053557057
40
0.0495243087933624
40
0.0559470062531179
40
0.0624215795701979
40
0.0924451123180816
40
0.124965106981564
40
0.153282067185746
40
0.187659084801963
40
0.219031838729308
40
0.250399316438661
40
0.283878320913179
40
0.313055563735487
40
0.345306152423057
40
0.375538509610129
40
0.407193387407509
40
0.437832240078329
40
0.46907579801729
40
0.500004470335296
40
0.530929161612606
40
0.562176700348814
40
0.592811582755759
40
0.62447043000984
40
0.654698844440302
40
0.686953374216493
40
0.716126839782229
40
0.749609617960952
40
0.780977095670306
40
0.81234984959765
40
0.84672330439415
40
0.875043832181529
40
0.907559901729424
40
0.937587361672133
40
0.950481510075545
40
0.963169153830941
40
0.975650969857932
40
0.987927669354264
40
1
40
1
40
1
40
1
41
1
10
-8.09029500640122
20
-9.22853915507116
30
0
41
1
10
-8.06717267076795
20
-9.22064955920882
30
0
41
1
10
-8.02073119382413
20
-9.20480321521717
30
0
41
1
10
-7.94982992999911
20
-9.18385846610352
30
0
41
1
10
-7.87772492491109
20
-9.16494539970185
30
0
41
1
10
-7.80440585167031
20
-9.14835215296341
30
0
41
1
10
-7.72996029075108
20
-9.13409932765927
30
0
41
1
10
-7.65445493939927
20
-9.12227839288039
30
0
41
1
10
-7.57796745144719
20
-9.11295965320983
30
0
41
1
10
-7.50057944836612
20
-9.10621664767442
30
0
41
1
10
-7.42237229009288
20
-9.10212027535854
30
0
41
1
10
-7.24798067278311
20
-9.09906171635384
30
0
41
1
10
-6.96710652086335
20
-9.12184110932765
30
0
41
1
10
-6.60753373056917
20
-9.21336255507967
30
0
41
1
10
-6.25183779406063
20
-9.36881659441923
30
0
41
1
10
-5.9302019758656
20
-9.57924579389723
30
0
41
1
10
-5.64150610649762
20
-9.85071858909295
30
0
41
1
10
-5.40414788822045
20
-10.1634979563639
30
0
41
1
10
-5.22812722412607
20
-10.5048451389816
30
0
41
1
10
-5.11056788531886
20
-10.8736195966646
30
0
41
1
10
-5.05694873042614
20
-11.2441115032826
30
0
41
1
10
-5.06644706341081
20
-11.6281749240892
30
0
41
1
10
-5.13868326849121
20
-11.9991111143628
30
0
41
1
10
-5.27384971157488
20
-12.3563023983841
30
0
41
1
10
-5.46570918186825
20
-12.6832555002909
30
0
41
1
10
-5.71086534739288
20
-12.9738886385571
30
0
41
1
10
-6.00150770608576
20
-13.2190580224592
30
0
41
1
10
-6.32844533380944
20
-13.41091319305
30
0
41
1
10
-6.68564971408131
20
-13.5460890401136
30
0
41
1
10
-7.05657000285271
20
-13.6183262854421
30
0
41
1
10
-7.44064885929322
20
-13.6278291255573
30
0
41
1
10
-7.81112673953083
20
-13.5742160030478
30
0
41
1
10
-8.17991713657676
20
-13.4566557068462
30
0
41
1
10
-8.52126665505159
20
-13.2806382375144
30
0
41
1
10
-8.834058202569
20
-13.0432706654231
30
0
41
1
10
-9.10552112161753
20
-12.754585635026
30
0
41
1
10
-9.31595292557284
20
-12.4329511045421
30
0
41
1
10
-9.47140464666109
20
-12.0772748695854
30
0
41
1
10
-9.56293144647293
20
-11.7176733844985
30
0
41
1
10
-9.58783831107991
20
-11.4107210141523
30
0
41
1
10
-9.57994084053104
20
-11.1847549888019
30
0
41
1
10
-9.5639147407291
20
-11.0307718135315
30
0
41
1
10
-9.53768560879053
20
-10.8807845361667
30
0
41
1
10
-9.50271556732156
20
-10.7350742730203
30
0
41
1
10
-9.47164336572621
20
-10.6410830004091
30
0
41
1
10
-9.45623766417009
20
-10.59448181284
30
0
0
SPLINE
5
C2
100
AcDbEntity
8
1
62
256
6
ByLayer
370
18
48
1
60
0
100
AcDbSpline
70
4
71
3
72
10
73
6
40
0
40
0
40
0
40
0
40
0.5
40
0.5
40
1
40
1
40
1
40
1
41
1
10
-20.1694921725247
20
-0.302497036165533
30
0
41
1
10
-20.2229999754395
20
-0.248989233250768
30
0
41
1
10
-20.2766438537036
20
-0.195345354986728
30
0
41
1
10
-20.3819908704637
20
-0.089998338226593
30
0
41
1
10
-20.4339853270104
20
-0.038003881679856
30
0
41
1
10
-20.4854647836854
20
0.0134755749950841
30
0
0
SPLINE
5
C3
100
AcDbEntity
8
1
62
256
6
ByLayer
370
18
48
1
60
0
100
AcDbSpline
70
4
71
3
72
10
73
6
40
0
40
0
40
0
40
0
40
0.5
40
0.5
40
1
40
1
40
1
40
1
41
1
10
-18.0440872577397
20
-0.640689561501517
30
0
41
1
10
-18.0251022517004
20
-0.569836554380686
30
0
41
1
10
-18.0058368931501
20
-0.497937257445045
30
0
41
1
10
-17.9672288374951
20
-0.353850032159045
30
0
41
1
10
-17.9478659610327
20
-0.281586793420672
30
0
41
1
10
-17.9284332551549
20
-0.209062947755996
30
0
0
SPLINE
5
C4
100
AcDbEntity
8
1
62
256
6
ByLayer
370
18
48
1
60
0
100
AcDbSpline
70
4
71
3
72
8
73
4
40
0
40
0
40
0
40
0
40
1
40
1
40
1
40
1
41
1
10
-17.7820588426739
20
0.337213796551168
30
0
41
1
10
-17.7425631679779
20
0.484613661195397
30
0
41
1
10
-17.7041551623728
20
0.627954289531203
30
0
41
1
10
-17.6664048400889
20
0.768840410296662
30
0
0
SPLINE
5
C5
100
AcDbEntity
8
1
62
256
6
ByLayer
370
18
48
1
60
0
100
AcDbSpline
70
4
71
3
72
10
73
6
40
0
40
0
40
0
40
0
40
0.5
40
0.5
40
1
40
1
40
1
40
1
41
1
10
-18.3822797830757
20
1.48471535328346
30
0
41
1
10
-18.4357875859905
20
1.53822315619826
30
0
41
1
10
-18.4894314642546
20
1.59186703446227
30
0
41
1
10
-18.5947784810147
20
1.6972140512224
30
0
41
1
10
-18.6467729375614
20
1.74920850776917
30
0
41
1
10
-18.6982523942364
20
1.80068796444411
30
0
0
SPLINE
5
C6
100
AcDbEntity
8
1
62
256
6
ByLayer
370
18
48
1
60
0
100
AcDbSpline
70
4
71
3
72
8
73
4
40
0
40
0
40
0
40
0
40
1
40
1
40
1
40
1
41
1
10
-17.6664048400889
20
0.768840410296662
30
0
41
1
10
-17.7696766428941
20
0.8721122131019
30
0
41
1
10
-17.8760617638295
20
0.978497334037201
30
0
41
1
10
-17.9823774512478
20
1.08481302145549
30
0
0
SPLINE
5
C7
100
AcDbEntity
8
1
62
256
6
ByLayer
370
18
48
1
60
0
100
AcDbSpline
70
4
71
3
72
10
73
6
40
0
40
0
40
0
40
0
40
0.5
40
0.5
40
1
40
1
40
1
40
1
41
1
10
-20.1077823660345
20
1.42300554679329
30
0
41
1
10
-20.1267673720739
20
1.35215253967246
30
0
41
1
10
-20.1460327306241
20
1.28025324273682
30
0
41
1
10
-20.1846407862792
20
1.13616601745082
30
0
41
1
10
-20.2040036627416
20
1.06390277871245
30
0
41
1
10
-20.2234363686194
20
0.99137893304777
30
0
0
SPLINE
5
C8
100
AcDbEntity
8
1
62
256
6
ByLayer
370
18
48
1
60
0
100
AcDbSpline
70
4
71
3
72
8
73
4
40
0
40
0
40
0
40
0
40
1
40
1
40
1
40
1
41
1
10
-20.3698107811005
20
0.445102188740634
30
0
41
1
10
-20.4093064557964
20
0.297702324096377
30
0
41
1
10
-20.4477144614015
20
0.154361695760571
30
0
41
1
10
-20.4854647836854
20
0.0134755749950841
30
0
0
SPLINE
5
C9
100
AcDbEntity
8
1
62
256
6
ByLayer
370
18
48
1
60
0
100
AcDbSpline
70
4
71
3
72
8
73
4
40
0
40
0
40
0
40
0
40
1
40
1
40
1
40
1
41
1
10
-19.676155752289
20
1.53865954937819
30
0
41
1
10
-19.8235556169333
20
1.49916387468232
30
0
41
1
10
-19.9668962452691
20
1.46075586907716
30
0
41
1
10
-20.1077823660345
20
1.42300554679329
30
0
0
SPLINE
5
CA
100
AcDbEntity
8
1
62
256
6
ByLayer
370
18
48
1
60
0
100
AcDbSpline
70
4
71
3
72
10
73
6
40
0
40
0
40
0
40
0
40
0.5
40
0.5
40
1
40
1
40
1
40
1
41
1
10
-19.4536172295379
20
-1.01837197915233
30
0
41
1
10
-19.3827642224171
20
-0.999386973112962
30
0
41
1
10
-19.3108649254814
20
-0.980121614562705
30
0
41
1
10
-19.1667777001954
20
-0.941513558907673
30
0
41
1
10
-19.094514461457
20
-0.922150682445277
30
0
41
1
10
-19.0219906157924
20
-0.90271797656743
30
0
0
SPLINE
5
CB
100
AcDbEntity
8
1
62
256
6
ByLayer
370
18
48
1
60
0
100
AcDbSpline
70
4
71
3
72
8
73
4
40
0
40
0
40
0
40
0
40
1
40
1
40
1
40
1
41
1
10
-18.4757138714853
20
-0.756343564086421
30
0
41
1
10
-18.328314006841
20
-0.71684788939055
30
0
41
1
10
-18.1849733785052
20
-0.678439883785387
30
0
41
1
10
-18.0440872577397
20
-0.640689561501517
30
0
0
SPLINE
5
CC
100
AcDbEntity
8
1
62
256
6
ByLayer
370
18
48
1
60
0
100
AcDbSpline
70
4
71
3
72
10
73
6
40
0
40
0
40
0
40
0
40
0.5
40
0.5
40
1
40
1
40
1
40
1
41
1
10
-18.6982523942364
20
1.80068796444411
30
0
41
1
10
-18.7691054013572
20
1.78170295840474
30
0
41
1
10
-18.8410046982928
20
1.76243759985448
30
0
41
1
10
-18.9850919235789
20
1.72382954419945
30
0
41
1
10
-19.0573551623172
20
1.70446666773705
30
0
41
1
10
-19.1298790079819
20
1.6850339618592
30
0
0
SPLINE
5
CD
100
AcDbEntity
8
1
62
256
6
ByLayer
370
18
48
1
60
0
100
AcDbSpline
70
4
71
3
72
8
73
4
40
0
40
0
40
0
40
0
40
1
40
1
40
1
40
1
41
1
10
-19.4536172295379
20
-1.01837197915233
30
0
41
1
10
-19.5568890323438
20
-0.915100176346499
30
0
41
1
10
-19.6632741532797
20
-0.808715055410573
30
0
41
1
10
-19.7695898406986
20
-0.702399367991688
30
0
0
LINE
5
74
100
AcDbEntity
8
1
62
256
6
ByLayer
370
18
48
1
60
0
100
AcDbLine
10
-8.914545
20
-12.952212
30
0
11
-8.529792
21
-13.336965
31
0
39
0
210
0
220
0
230
1
0
LINE
5
75
100
AcDbEntity
8
1
62
256
6
ByLayer
370
18
48
1
60
0
100
AcDbLine
10
-5.347812
20
-10.154984
30
0
11
-5.732565
21
-9.770231
31
0
39
0
210
0
220
0
230
1
0
LINE
5
76
100
AcDbEntity
8
SK1
62
256
6
ByLayer
370
18
48
1
60
0
100
AcDbLine
10
-16.228663
20
-13.958407
30
0
11
-14.752004
21
-12.481748
31
0
39
0
210
0
220
0
230
1
0
LINE
5
78
100
AcDbEntity
8
SK1
62
256
6
ByLayer
370
18
48
1
60
0
100
AcDbLine
10
-15.574462
20
-14.33611
30
0
11
-14.633668
21
-13.395316
31
0
39
0
210
0
220
0
230
1
0
LINE
5
79
100
AcDbEntity
8
SK1
62
256
6
ByLayer
370
18
48
1
60
0
100
AcDbLine
10
-6.203029
20
-3.932773
30
0
11
-4.72637
21
-2.456114
31
0
39
0
210
0
220
0
230
1
0
LINE
5
7A
100
AcDbEntity
8
SK1
62
256
6
ByLayer
370
18
48
1
60
0
100
AcDbLine
10
-5.289461
20
-4.051109
30
0
11
-4.348667
21
-3.110315
31
0
39
0
210
0
220
0
230
1
0
LINE
5
7B
100
AcDbEntity
8
SK1
62
256
6
ByLayer
370
18
48
1
60
0
100
AcDbLine
10
-14.630445
20
-13.412373
30
0
11
-15.561605
21
-14.343532
31
0
39
0
210
0
220
0
230
1
0
LINE
5
7C
100
AcDbEntity
8
SK1
62
256
6
ByLayer
370
18
48
1
60
0
100
AcDbLine
10
-4.341244
20
-3.123172
30
0
11
-5.272404
21
-4.054331
31
0
39
0
210
0
220
0
230
1
0
LINE
5
7D
100
AcDbEntity
8
SK1
62
256
6
ByLayer
370
18
48
1
60
0
100
AcDbLine
10
-15.130039
20
-14.592697
30
0
11
-14.504026
21
-13.966684
31
0
39
0
210
0
220
0
230
1
0
LINE
5
7E
100
AcDbEntity
8
SK1
62
256
6
ByLayer
370
18
48
1
60
0
100
AcDbLine
10
-4.718092
20
-4.180751
30
0
11
-4.09208
21
-3.554738
31
0
39
0
210
0
220
0
230
1
0
LINE
5
7F
100
AcDbEntity
8
SK1
62
256
6
ByLayer
370
18
48
1
60
0
100
AcDbLine
10
-4.084499
20
-3.567868
30
0
11
-4.701747
21
-4.185116
31
0
39
0
210
0
220
0
230
1
0
LINE
5
80
100
AcDbEntity
8
SK1
62
256
6
ByLayer
370
18
48
1
60
0
100
AcDbLine
10
-14.49966
20
-13.983029
30
0
11
-15.116909
21
-14.600278
31
0
39
0
210
0
220
0
230
1
0
LINE
5
81
100
AcDbEntity
8
SK1
62
256
6
ByLayer
370
18
48
1
60
0
100
AcDbLine
10
-4.72637
20
-2.456114
30
0
11
-4.348667
21
-3.110315
31
0
39
0
210
0
220
0
230
1
0
LINE
5
82
100
AcDbEntity
8
SK1
62
256
6
ByLayer
370
18
48
1
60
0
100
AcDbLine
10
-6.856451
20
1.233294
30
0
11
-13.325202
21
12.4375
31
0
39
0
210
0
220
0
230
1
0
LINE
5
83
100
AcDbEntity
8
SK1
62
256
6
ByLayer
370
18
48
1
60
0
100
AcDbLine
10
-15.561605
20
-14.343532
30
0
11
-15.130039
21
-14.592697
31
0
39
0
210
0
220
0
230
1
0
LINE
5
84
100
AcDbEntity
8
SK1
62
256
6
ByLayer
370
18
48
1
60
0
100
AcDbLine
10
-170.122277
20
-12.4375
30
0
11
-25.117279
21
-12.4375
31
0
39
0
210
0
220
0
230
1
0
LINE
5
85
100
AcDbEntity
8
SK1
62
256
6
ByLayer
370
18
48
1
60
0
100
AcDbLine
10
-15.574462
20
-14.33611
30
0
11
-15.561605
21
-14.343532
31
0
39
0
210
0
220
0
230
1
0
LINE
5
86
100
AcDbEntity
8
SK1
62
256
6
ByLayer
370
18
48
1
60
0
100
AcDbLine
10
-16.228663
20
-13.958407
30
0
11
-15.574462
21
-14.33611
31
0
39
0
210
0
220
0
230
1
0
LINE
5
87
100
AcDbEntity
8
SK1
62
256
6
ByLayer
370
18
48
1
60
0
100
AcDbLine
10
-6.703012
20
0.96753
30
0
11
-6.856451
21
1.233294
31
0
39
0
210
0
220
0
230
1
0
LINE
5
88
100
AcDbEntity
8
SK1
62
256
6
ByLayer
370
18
48
1
60
0
100
AcDbLine
10
-170.122277
20
12.4375
30
0
11
-13.325202
21
12.4375
31
0
39
0
210
0
220
0
230
1
0
LINE
5
89
100
AcDbEntity
8
SK1
62
256
6
ByLayer
370
18
48
1
60
0
100
AcDbLine
10
-6.629807
20
0.840735
30
0
11
-6.703012
21
0.96753
31
0
39
0
210
0
220
0
230
1
0
LINE
5
8A
100
AcDbEntity
8
SK1
62
256
6
ByLayer
370
18
48
1
60
0
100
AcDbLine
10
-4.348667
20
-3.110315
30
0
11
-4.341244
21
-3.123172
31
0
39
0
210
0
220
0
230
1
0
LINE
5
8B
100
AcDbEntity
8
SK1
62
256
6
ByLayer
370
18
48
1
60
0
100
AcDbLine
10
-170.122277
20
12.4375
30
0
11
-170.122277
21
-12.4375
31
0
39
0
210
0
220
0
230
1
0
LINE
5
8C
100
AcDbEntity
8
SK1
62
256
6
ByLayer
370
18
48
1
60
0
100
AcDbLine
10
-4.341244
20
-3.123172
30
0
11
-4.09208
21
-3.554738
31
0
39
0
210
0
220
0
230
1
0
LINE
5
8D
100
AcDbEntity
8
SK1
62
256
6
ByLayer
370
18
48
1
60
0
100
AcDbLine
10
-4.72637
20
-2.456114
30
0
11
-6.629807
21
0.840735
31
0
39
0
210
0
220
0
230
1
0
LINE
5
8E
100
AcDbEntity
8
SK1
62
256
6
ByLayer
370
18
48
1
60
0
100
AcDbLine
10
-4.084499
20
-3.567868
30
0
11
-4.09208
21
-3.554738
31
0
39
0
210
0
220
0
230
1
0
LINE
5
8F
100
AcDbEntity
8
SK1
62
256
6
ByLayer
370
18
48
1
60
0
100
AcDbLine
10
-20.31922
20
-12.229476
30
0
11
-6.856451
21
1.233294
31
0
39
0
210
0
220
0
230
1
0
LINE
5
90
100
AcDbEntity
8
SK1
62
256
6
ByLayer
370
18
48
1
60
0
100
AcDbLine
10
-6.629807
20
0.840735
30
0
11
-19.813068
21
-12.342527
31
0
39
0
210
0
220
0
230
1
0
LINE
5
91
100
AcDbEntity
8
SK1
62
256
6
ByLayer
370
18
48
1
60
0
100
AcDbLine
10
-16.228663
20
-13.958407
30
0
11
-17.188852
21
-13.404041
31
0
39
0
210
0
220
0
230
1
0
LINE
5
92
100
AcDbEntity
8
SK1
62
256
6
ByLayer
370
18
48
1
60
0
100
AcDbLine
10
-15.116909
20
-14.600278
30
0
11
-15.130039
21
-14.592697
31
0
39
0
210
0
220
0
230
1
0
LINE
5
93
100
AcDbEntity
8
SK1
62
256
6
ByLayer
370
18
48
1
60
0
100
AcDbLine
10
-19.974152
20
-12.30361
30
0
11
-6.703012
21
0.96753
31
0
39
0
210
0
220
0
230
1
0
LINE
5
94
100
AcDbEntity
8
1
62
256
6
ByLayer
370
18
48
1
60
0
100
AcDbLine
10
-4.933801
20
-10.074024
30
0
11
-5.128254
21
-10.268477
31
0
39
0
210
0
220
0
230
1
0
LINE
5
95
100
AcDbEntity
8
1
62
256
6
ByLayer
370
18
48
1
60
0
100
AcDbLine
10
-8.610752
20
-13.750976
30
0
11
-8.4163
21
-13.556523
31
0
39
0
210
0
220
0
230
1
0
LINE
5
96
100
AcDbEntity
8
80
62
256
6
ByLayer
370
18
48
1
60
0
100
AcDbLine
10
0
20
0
30
0
11
-5
21
0
31
0
39
0
210
0
220
0
230
1
0
LINE
5
97
100
AcDbEntity
8
81
62
256
6
ByLayer
370
18
48
1
60
0
100
AcDbLine
10
-0.122277
20
-19.5625
30
0
11
9.877723
21
-19.5625
31
0
39
0
210
0
220
0
230
1
0
LINE
5
98
100
AcDbEntity
8
1
62
256
6
ByLayer
370
18
48
1
60
0
100
AcDbLine
10
-5.347812
20
-10.154984
30
0
11
-5.102236
21
-10.40056
31
0
39
0
210
0
220
0
230
1
0
LINE
5
99
100
AcDbEntity
8
1
62
256
6
ByLayer
370
18
48
1
60
0
100
AcDbLine
10
-8.529792
20
-13.336965
30
0
11
-8.284217
21
-13.582541
31
0
39
0
210
0
220
0
230
1
0
MTEXT
5
CE
100
AcDbEntity
8
SK6
62
256
6
ByLayer
370
13
48
1
60
0
100
AcDbMText
10
-140.206074
20
21.423222
30
0
210
0
220
0
230
1
1
\W0.7497;PRGCL 3225P 16
40
3.5
41
0
44
1.084337
50
0
71
7
72
5
7
iso_b_vert
0
DIMENSION
5
E0
100
AcDbEntity
8
SK2
62
256
6
ByLayer
370
13
48
1
60
0
100
AcDbDimension
2
DimnDraft3D1
10
-179.872277
20
12.4375
30
0
11
-179.872277
21
-0.0625
31
0
70
32
71
5
72
1
41
1
210
0
220
0
230
1
3
Standard
100
AcDbAlignedDimension
13
-171.709777
23
-12.5625
33
0
14
-171.709777
24
12.4375
34
0
50
90
100
AcDbRotatedDimension
1001
ACAD
1000
DSTYLE
1002
{
1070
    74
1070
     0
1070
   279
1070
     0
1070
   172
1070
     1
1070
   173
1070
     1
1070
   340
1005
CF
1070
   271
1070
     1
1070
   272
1070
     2
1070
    77
1070
     1
1070
    73
1070
     0
1070
   171
1070
     3
1070
   274
1070
     4
1070
   177
1070
   150
1070
   176
1070
     9
1070
   178
1070
    43
1070
    78
1070
     8
1070
    48
1040
-0.005
1070
    41
1041
3.175
1070
   147
1041
2.25
1070
    42
1041
1.5875
1070
    44
1041
3.175
1070
   140
1041
4.5
1070
   343
1005
E1
1070
   344
1005
E1
1002
}
0
DIMENSION
5
F5
100
AcDbEntity
8
2
62
256
6
ByLayer
370
13
48
1
60
0
100
AcDbDimension
2
DimnDraft3D2
10
17.727723
20
12.4375
30
0
11
17.727723
21
-3.7375
31
0
70
32
71
5
72
1
41
1
210
0
220
0
230
1
3
Standard
100
AcDbAlignedDimension
13
2.815223
23
-19.9125
33
0
14
-23.529779
24
12.4375
34
0
50
90
100
AcDbRotatedDimension
1001
ACAD
1000
DSTYLE
1002
{
1070
    74
1070
     0
1070
   279
1070
     0
1070
   172
1070
     1
1070
   173
1070
     1
1070
   340
1005
CF
1070
   271
1070
     1
1070
   272
1070
     2
1070
    77
1070
     1
1070
    73
1070
     0
1070
   171
1070
     3
1070
   274
1070
     4
1070
   177
1070
   150
1070
   176
1070
     9
1070
   178
1070
    43
1070
    78
1070
     8
1070
    48
1040
-0.005
1070
    41
1041
3.175
1070
   147
1041
2.25
1070
    42
1041
1.5875
1070
    44
1041
3.175
1070
   140
1041
4.5
1070
   343
1005
E1
1070
   344
1005
E1
1002
}
0
DIMENSION
5
103
100
AcDbEntity
8
SK2
62
256
6
ByLayer
370
13
48
1
60
0
100
AcDbDimension
2
DimnDraft3D3
10
1.227723
20
-46.4125
30
0
11
-84.447277
21
-46.4125
31
0
70
32
71
5
72
1
41
1
210
0
220
0
230
1
3
Standard
100
AcDbAlignedDimension
13
-170.122277
23
-14.15
33
0
14
1.227723
24
-21.5
34
0
50
0
100
AcDbRotatedDimension
1001
ACAD
1000
DSTYLE
1002
{
1070
   279
1070
     0
1070
   172
1070
     1
1070
   173
1070
     1
1070
   340
1005
CF
1070
   271
1070
     1
1070
   272
1070
     2
1070
    77
1070
     1
1070
    73
1070
     0
1070
   171
1070
     3
1070
   274
1070
     4
1070
   177
1070
   150
1070
   176
1070
     9
1070
   178
1070
    43
1070
    78
1070
     8
1070
    48
1040
-0.005
1070
    41
1041
3.175
1070
   147
1041
2.25
1070
    42
1041
1.5875
1070
    44
1041
3.175
1070
   140
1041
4.5
1070
   343
1005
E1
1070
   344
1005
E1
1002
}
0
ENDSEC
0
SECTION
2
OBJECTS
0
DICTIONARY
5
16d
330
0
100
AcDbDictionary
280
0
281
1
3
ACAD_GROUP
350
16e
3
ACAD_MLINESTYLE
350
16f
0
DICTIONARY
5
16e
330
0
100
AcDbDictionary
280
0
281
1
0
DICTIONARY
5
16f
330
0
100
AcDbDictionary
280
0
281
1
3
Standard
350
18
0
MLINESTYLE
5
18
330
16f
100
AcDbMlineStyle
2
Standard
70
0
3

62
256
51
90
52
90
71
2
49
-0.5
62
256
6
ByLayer
49
0.5
62
256
6
ByLayer
0
RASTERVARIABLES
5
15c
330

100
AcDbRasterVariables
90
0
70
1
71
1
72
1
0
ENDSEC
0
EOF
