0
SECTION
2
HEADER
9
$ACADVER
1
AC1015
9
$DWGCODEPAGE
3
ANSI_1252
9
$HANDSEED
5
17e
9
$ANGBASE
50
0
9
$ANGDIR
70
0
9
$ATTMODE
70
1
9
$AUNITS
70
0
9
$AUPREC
70
0
9
$CECOLOR
62
256
9
$CELTSCALE
40
1
9
$CELTYPE
6
ByLayer
9
$CELWEIGHT
370
18
9
$CLAYER
8
0
9
$CMLJUST
70
0
9
$CMLSCALE
40
1
9
$CMLSTYLE
2
Standard
9
$DIMSTYLE
2
Standard
9
$TEXTSIZE
40
0.2
9
$TEXTSTYLE
7
Standard
9
$LUNITS
70
2
9
$LUPREC
70
4
9
$EXTNAMES
290
1
9
$INSUNITS
70
4
9
$LTSCALE
40
1
9
$LWDISPLAY
290
1
9
$PDMODE
70
0
9
$PDSIZE
40
0
9
$PLINEGEN
70
0
0
ENDSEC
0
SECTION
2
CLASSES
0
CLASS
1
RASTERVARIABLES
2
AcDbRasterVariables
3
ISM
90
0
280
0
281
0
0
ENDSEC
0
SECTION
2
TABLES
0
TABLE
2
VPORT
5
174
100
AcDbSymbolTable
0
VPORT
5
1
100
AcDbSymbolTableRecord
100
AcDbViewportTableRecord
2
*Active
70
0
10
0
20
0
11
1
21
1
12
-1
22
1
13
0
23
0
14
0.5
24
0.5
15
10
25
10
16
0
26
0
36
1
17
0
27
0
37
0
0
ENDTAB
0
TABLE
2
LTYPE
5
175
100
AcDbSymbolTable
0
LTYPE
5
14
100
AcDbSymbolTableRecord
100
AcDbLinetypeTableRecord
70
0
2
ByBlock
3

72
65
73
0
40
0
0
LTYPE
5
15
100
AcDbSymbolTableRecord
100
AcDbLinetypeTableRecord
70
0
2
ByLayer
3

72
65
73
0
40
0
0
LTYPE
5
16
100
AcDbSymbolTableRecord
100
AcDbLinetypeTableRecord
70
0
2
CONTINUOUS
3
Solid line
72
65
73
0
40
0
0
LTYPE
5
6A
100
AcDbSymbolTableRecord
100
AcDbLinetypeTableRecord
70
0
2
CENTER
3
____ _ ____ _ ____ _ ____
72
65
73
4
40
47.5
49
22
74
0
49
-8.5
74
0
49
8.5
74
0
49
-8.5
74
0
0
LTYPE
5
6B
100
AcDbSymbolTableRecord
100
AcDbLinetypeTableRecord
70
0
2
DASHED
3
__ __ __ __ __ __ __ __ __
72
65
73
2
40
25.72
49
12.86
74
0
49
-12.86
74
0
0
ENDTAB
0
TABLE
2
LAYER
5
176
100
AcDbSymbolTable
0
LAYER
5
10
100
AcDbSymbolTableRecord
100
AcDbLayerTableRecord
2
0
70
0
62
7
6
CONTINUOUS
290
1
370
-3
390
0
0
LAYER
5
6D
100
AcDbSymbolTableRecord
100
AcDbLayerTableRecord
2
80
70
0
62
-6
6
CONTINUOUS
290
1
370
-3
390
0
0
LAYER
5
6F
100
AcDbSymbolTableRecord
100
AcDbLayerTableRecord
2
81
70
0
62
-3
6
CONTINUOUS
290
1
370
-3
390
0
0
LAYER
5
71
100
AcDbSymbolTableRecord
100
AcDbLayerTableRecord
2
1
70
0
62
4
6
CONTINUOUS
290
1
370
-3
390
0
0
LAYER
5
ED
100
AcDbSymbolTableRecord
100
AcDbLayerTableRecord
2
2
70
0
62
7
6
CONTINUOUS
290
1
370
-3
390
0
0
LAYER
5
161
100
AcDbSymbolTableRecord
100
AcDbLayerTableRecord
2
SK1
70
0
62
4
6
CONTINUOUS
290
1
370
-3
390
0
0
LAYER
5
162
100
AcDbSymbolTableRecord
100
AcDbLayerTableRecord
2
SK6
70
0
62
5
6
CONTINUOUS
290
1
370
-3
390
0
0
LAYER
5
163
100
AcDbSymbolTableRecord
100
AcDbLayerTableRecord
2
SK2
70
0
62
7
6
CONTINUOUS
290
1
370
-3
390
0
0
ENDTAB
0
TABLE
2
STYLE
5
177
100
AcDbSymbolTable
0
STYLE
5
11
100
AcDbSymbolTableRecord
100
AcDbTextStyleTableRecord
2
Standard
3
txt
70
0
71
0
40
0
41
1
42
0
50
0
0
STYLE
5
D2
100
AcDbSymbolTableRecord
100
AcDbTextStyleTableRecord
2
iso_b_vert
3
simplex.shx
70
0
71
0
40
0
41
1
42
0
50
0
0
STYLE
5
D3
100
AcDbSymbolTableRecord
100
AcDbTextStyleTableRecord
2
DWGDirectTextStyle
3
simplex
70
0
71
0
40
0
41
1
42
0
50
0
0
ENDTAB
0
TABLE
2
DIMSTYLE
5
178
100
AcDbSymbolTable
100
AcDbDimStyleTable
0
DIMSTYLE
105
27
100
AcDbSymbolTableRecord
100
AcDbDimStyleTableRecord
2
Standard
70
0
3
<>
41
0.18
42
0.0625
44
0.18
140
0.18
147
0.09
73
0
74
0
77
1
271
2
275
0
278
52
280
0
340
11
0
ENDTAB
0
TABLE
2
VIEW
5
179
100
AcDbSymbolTable
0
ENDTAB
0
TABLE
2
UCS
5
17a
100
AcDbSymbolTable
0
ENDTAB
0
TABLE
2
APPID
5
17b
100
AcDbSymbolTable
0
APPID
5
12
100
AcDbSymbolTableRecord
100
AcDbRegAppTableRecord
2
ACAD
70
0
0
ENDTAB
0
TABLE
2
BLOCK_RECORD
5
17c
100
AcDbSymbolTable
0
BLOCK_RECORD
5
1F
100
AcDbSymbolTableRecord
100
AcDbBlockTableRecord
2
*Model_Space
340
0
70
0
0
BLOCK_RECORD
5
1B
100
AcDbSymbolTableRecord
100
AcDbBlockTableRecord
2
*Paper_Space
340
0
70
0
0
BLOCK_RECORD
5
23
100
AcDbSymbolTableRecord
100
AcDbBlockTableRecord
2
*Paper_Space0
340
0
70
0
0
BLOCK_RECORD
5
D5
100
AcDbSymbolTableRecord
100
AcDbBlockTableRecord
2
DimnDraft3D1
340
0
70
0
0
BLOCK_RECORD
5
E4
100
AcDbSymbolTableRecord
100
AcDbBlockTableRecord
2
_CLOSED
340
0
70
0
0
BLOCK_RECORD
5
EB
100
AcDbSymbolTableRecord
100
AcDbBlockTableRecord
2
DimnDraft3D2
340
0
70
0
0
BLOCK_RECORD
5
FA
100
AcDbSymbolTableRecord
100
AcDbBlockTableRecord
2
DimnDraft3D3
340
0
70
0
0
ENDTAB
0
ENDSEC
0
SECTION
2
BLOCKS
0
BLOCK
5
20
100
AcDbEntity
8
0
100
AcDbBlockBegin
2
*Model_Space
70
0
10
0
20
0
30
0
3
*Model_Space
0
ENDBLK
5
21
100
AcDbEntity
8
0
100
AcDbBlockEnd
0
BLOCK
5
1C
100
AcDbEntity
8
0
100
AcDbBlockBegin
2
*Paper_Space
70
0
10
0
20
0
30
0
3
*Paper_Space
0
ENDBLK
5
1D
100
AcDbEntity
8
0
100
AcDbBlockEnd
0
BLOCK
5
24
100
AcDbEntity
8
0
100
AcDbBlockBegin
2
*Paper_Space0
70
0
10
0
20
0
30
0
3
*Paper_Space0
0
ENDBLK
5
25
100
AcDbEntity
8
0
100
AcDbBlockEnd
0
BLOCK
5
E1
100
AcDbEntity
8
0
100
AcDbBlockBegin
2
DimnDraft3D1
70
0
10
0
20
0
30
0
3
DimnDraft3D1
0
MTEXT
5
D6
100
AcDbEntity
8
SK2
62
256
6
ByLayer
370
13
48
1
60
0
100
AcDbMText
10
-180.997277
20
-1.625658
30
0
210
0
220
0
230
1
1
\W0.6740;25
40
4.5
41
0
44
1.084337
50
90
71
7
72
5
7
iso_b_vert
0
LINE
5
D8
100
AcDbEntity
8
SK2
62
256
6
ByLayer
370
13
48
1
60
0
100
AcDbLine
10
-171.709777
20
-12.5625
30
0
11
-183.047277
21
-12.5625
31
0
39
0
210
0
220
0
230
1
0
LINE
5
D9
100
AcDbEntity
8
SK2
62
256
6
ByLayer
370
13
48
1
60
0
100
AcDbLine
10
-171.709777
20
12.4375
30
0
11
-183.047277
21
12.4375
31
0
39
0
210
0
220
0
230
1
0
LINE
5
DA
100
AcDbEntity
8
SK2
62
256
6
ByLayer
370
13
48
1
60
0
100
AcDbLine
10
-179.872277
20
-12.5625
30
0
11
-179.872277
21
12.4375
31
0
39
0
210
0
220
0
230
1
0
LINE
5
DB
100
AcDbEntity
8
SK2
62
256
6
ByLayer
370
13
48
1
60
0
100
AcDbLine
10
-179.872277
20
-12.5625
30
0
11
-180.723016
21
-9.387503
31
0
39
0
210
0
220
0
230
1
0
LINE
5
DC
100
AcDbEntity
8
SK2
62
256
6
ByLayer
370
13
48
1
60
0
100
AcDbLine
10
-179.872277
20
-12.5625
30
0
11
-179.021538
21
-9.387497
31
0
39
0
210
0
220
0
230
1
0
LINE
5
DD
100
AcDbEntity
8
SK2
62
256
6
ByLayer
370
13
48
1
60
0
100
AcDbLine
10
-180.723016
20
-9.387503
30
0
11
-179.021538
21
-9.387497
31
0
39
0
210
0
220
0
230
1
0
LINE
5
DE
100
AcDbEntity
8
SK2
62
256
6
ByLayer
370
13
48
1
60
0
100
AcDbLine
10
-179.872277
20
12.4375
30
0
11
-179.021538
21
9.262503
31
0
39
0
210
0
220
0
230
1
0
LINE
5
DF
100
AcDbEntity
8
SK2
62
256
6
ByLayer
370
13
48
1
60
0
100
AcDbLine
10
-179.872277
20
12.4375
30
0
11
-180.723016
21
9.262497
31
0
39
0
210
0
220
0
230
1
0
LINE
5
E0
100
AcDbEntity
8
SK2
62
256
6
ByLayer
370
13
48
1
60
0
100
AcDbLine
10
-179.021538
20
9.262503
30
0
11
-180.723016
21
9.262497
31
0
39
0
210
0
220
0
230
1
0
ENDBLK
5
E2
100
AcDbEntity
8
0
100
AcDbBlockEnd
0
BLOCK
5
E5
100
AcDbEntity
8
0
100
AcDbBlockBegin
2
_CLOSED
70
0
10
0
20
0
30
0
3
_CLOSED
0
LINE
5
E7
100
AcDbEntity
8
0
62
256
6
ByLayer
370
-2
48
1
60
0
100
AcDbLine
10
-1
20
0.166667
30
0
11
0
21
0
31
0
39
0
210
0
220
0
230
1
0
LINE
5
E8
100
AcDbEntity
8
0
62
256
6
ByLayer
370
-2
48
1
60
0
100
AcDbLine
10
0
20
0
30
0
11
-1
21
-0.166667
31
0
39
0
210
0
220
0
230
1
0
LINE
5
E9
100
AcDbEntity
8
0
62
256
6
ByLayer
370
-2
48
1
60
0
100
AcDbLine
10
-1
20
0.166667
30
0
11
-1
21
-0.166667
31
0
39
0
210
0
220
0
230
1
0
LINE
5
EA
100
AcDbEntity
8
0
62
256
6
ByLayer
370
-2
48
1
60
0
100
AcDbLine
10
0
20
0
30
0
11
-1
21
0
31
0
39
0
210
0
220
0
230
1
0
ENDBLK
5
E6
100
AcDbEntity
8
0
100
AcDbBlockEnd
0
BLOCK
5
F7
100
AcDbEntity
8
0
100
AcDbBlockBegin
2
DimnDraft3D2
70
0
10
0
20
0
30
0
3
DimnDraft3D2
0
MTEXT
5
EC
100
AcDbEntity
8
2
62
256
6
ByLayer
370
13
48
1
60
0
100
AcDbMText
10
16.602723
20
-5.300658
30
0
210
0
220
0
230
1
1
\W0.6740;32
40
4.5
41
0
44
1.084337
50
90
71
7
72
5
7
iso_b_vert
0
LINE
5
EE
100
AcDbEntity
8
2
62
256
6
ByLayer
370
13
48
1
60
0
100
AcDbLine
10
2.815223
20
-19.9125
30
0
11
20.902723
21
-19.9125
31
0
39
0
210
0
220
0
230
1
0
LINE
5
EF
100
AcDbEntity
8
2
62
256
6
ByLayer
370
13
48
1
60
0
100
AcDbLine
10
-21.393881
20
12.4375
30
0
11
20.902723
21
12.4375
31
0
39
0
210
0
220
0
230
1
0
LINE
5
F0
100
AcDbEntity
8
2
62
256
6
ByLayer
370
13
48
1
60
0
100
AcDbLine
10
17.727723
20
-19.9125
30
0
11
17.727723
21
12.4375
31
0
39
0
210
0
220
0
230
1
0
LINE
5
F1
100
AcDbEntity
8
2
62
256
6
ByLayer
370
13
48
1
60
0
100
AcDbLine
10
17.727723
20
-19.9125
30
0
11
16.876984
21
-16.737503
31
0
39
0
210
0
220
0
230
1
0
LINE
5
F2
100
AcDbEntity
8
2
62
256
6
ByLayer
370
13
48
1
60
0
100
AcDbLine
10
17.727723
20
-19.9125
30
0
11
18.578462
21
-16.737497
31
0
39
0
210
0
220
0
230
1
0
LINE
5
F3
100
AcDbEntity
8
2
62
256
6
ByLayer
370
13
48
1
60
0
100
AcDbLine
10
16.876984
20
-16.737503
30
0
11
18.578462
21
-16.737497
31
0
39
0
210
0
220
0
230
1
0
LINE
5
F4
100
AcDbEntity
8
2
62
256
6
ByLayer
370
13
48
1
60
0
100
AcDbLine
10
17.727723
20
12.4375
30
0
11
18.578462
21
9.262503
31
0
39
0
210
0
220
0
230
1
0
LINE
5
F5
100
AcDbEntity
8
2
62
256
6
ByLayer
370
13
48
1
60
0
100
AcDbLine
10
17.727723
20
12.4375
30
0
11
16.876984
21
9.262497
31
0
39
0
210
0
220
0
230
1
0
LINE
5
F6
100
AcDbEntity
8
2
62
256
6
ByLayer
370
13
48
1
60
0
100
AcDbLine
10
18.578462
20
9.262503
30
0
11
16.876984
21
9.262497
31
0
39
0
210
0
220
0
230
1
0
ENDBLK
5
F8
100
AcDbEntity
8
0
100
AcDbBlockEnd
0
BLOCK
5
105
100
AcDbEntity
8
0
100
AcDbBlockBegin
2
DimnDraft3D3
70
0
10
0
20
0
30
0
3
DimnDraft3D3
0
MTEXT
5
FB
100
AcDbEntity
8
SK2
62
256
6
ByLayer
370
13
48
1
60
0
100
AcDbMText
10
-87.129514
20
-45.2875
30
0
210
0
220
0
230
1
1
\W0.6217;170
40
4.5
41
0
44
1.084337
50
0
71
7
72
5
7
iso_b_vert
0
LINE
5
FC
100
AcDbEntity
8
SK2
62
256
6
ByLayer
370
13
48
1
60
0
100
AcDbLine
10
-170.122277
20
-14.15
30
0
11
-170.122277
21
-49.5875
31
0
39
0
210
0
220
0
230
1
0
LINE
5
FD
100
AcDbEntity
8
SK2
62
256
6
ByLayer
370
13
48
1
60
0
100
AcDbLine
10
1.227723
20
-21.5
30
0
11
1.227723
21
-49.5875
31
0
39
0
210
0
220
0
230
1
0
LINE
5
FE
100
AcDbEntity
8
SK2
62
256
6
ByLayer
370
13
48
1
60
0
100
AcDbLine
10
-170.122277
20
-46.4125
30
0
11
1.227723
21
-46.4125
31
0
39
0
210
0
220
0
230
1
0
LINE
5
FF
100
AcDbEntity
8
SK2
62
256
6
ByLayer
370
13
48
1
60
0
100
AcDbLine
10
-170.122277
20
-46.4125
30
0
11
-166.94728
21
-45.561761
31
0
39
0
210
0
220
0
230
1
0
LINE
5
100
100
AcDbEntity
8
SK2
62
256
6
ByLayer
370
13
48
1
60
0
100
AcDbLine
10
-170.122277
20
-46.4125
30
0
11
-166.947274
21
-47.263239
31
0
39
0
210
0
220
0
230
1
0
LINE
5
101
100
AcDbEntity
8
SK2
62
256
6
ByLayer
370
13
48
1
60
0
100
AcDbLine
10
-166.94728
20
-45.561761
30
0
11
-166.947274
21
-47.263239
31
0
39
0
210
0
220
0
230
1
0
LINE
5
102
100
AcDbEntity
8
SK2
62
256
6
ByLayer
370
13
48
1
60
0
100
AcDbLine
10
1.227723
20
-46.4125
30
0
11
-1.947274
21
-47.263239
31
0
39
0
210
0
220
0
230
1
0
LINE
5
103
100
AcDbEntity
8
SK2
62
256
6
ByLayer
370
13
48
1
60
0
100
AcDbLine
10
1.227723
20
-46.4125
30
0
11
-1.94728
21
-45.561761
31
0
39
0
210
0
220
0
230
1
0
LINE
5
104
100
AcDbEntity
8
SK2
62
256
6
ByLayer
370
13
48
1
60
0
100
AcDbLine
10
-1.947274
20
-47.263239
30
0
11
-1.94728
21
-45.561761
31
0
39
0
210
0
220
0
230
1
0
ENDBLK
5
106
100
AcDbEntity
8
0
100
AcDbBlockEnd
0
ENDSEC
0
SECTION
2
ENTITIES
0
ARC
5
9B
100
AcDbEntity
8
SK1
62
256
6
ByLayer
370
18
48
1
60
0
100
AcDbCircle
39
0
10
-5.931932
20
-12.752845
30
0
40
4.5
210
0
220
0
230
1
100
AcDbArc
50
107.233515
51
162.766482
0
ARC
5
9D
100
AcDbEntity
8
SK1
62
256
6
ByLayer
370
18
48
1
60
0
100
AcDbCircle
39
0
10
20.152954
20
-22.2375
30
0
40
10.2
210
0
220
0
230
-1
100
AcDbArc
50
73.901066
51
120
0
ARC
5
9E
100
AcDbEntity
8
1
62
256
6
ByLayer
370
18
48
1
60
0
100
AcDbCircle
39
0
10
4.772277
20
-13.9125
30
0
40
2.1
210
0
220
0
230
-1
100
AcDbArc
50
179.999992
51
343.119358
0
ARC
5
9F
100
AcDbEntity
8
1
62
256
6
ByLayer
370
18
48
1
60
0
100
AcDbCircle
39
0
10
4.772277
20
-13.9125
30
0
40
2.1
210
0
220
0
230
-1
100
AcDbArc
50
106.756887
51
180.00002
0
ARC
5
A2
100
AcDbEntity
8
1
62
256
6
ByLayer
370
18
48
1
60
0
100
AcDbCircle
39
0
10
4.772277
20
-13.9125
30
0
40
1.85000000000004
210
0
220
0
230
-1
100
AcDbArc
50
135
51
315
0
ARC
5
A3
100
AcDbEntity
8
1
62
256
6
ByLayer
370
18
48
1
60
0
100
AcDbCircle
39
0
10
-4.772277
20
-13.9125
30
0
40
2.275
210
0
220
0
230
1
100
AcDbArc
50
92.053224
51
177.946776
0
ARC
5
A5
100
AcDbEntity
8
1
62
256
6
ByLayer
370
18
48
1
60
0
100
AcDbCircle
39
0
10
-13.823244
20
-4.861533
30
0
40
1.295
210
0
220
0
230
1
100
AcDbArc
50
92.387389
51
117.612611
0
ARC
5
A6
100
AcDbEntity
8
1
62
256
6
ByLayer
370
18
48
1
60
0
100
AcDbCircle
39
0
10
-13.823244
20
-4.861533
30
0
40
1.295
210
0
220
0
230
1
100
AcDbArc
50
332.387389
51
357.612611
0
ARC
5
A7
100
AcDbEntity
8
1
62
256
6
ByLayer
370
18
48
1
60
0
100
AcDbCircle
39
0
10
-13.823244
20
-4.861533
30
0
40
1.295
210
0
220
0
230
1
100
AcDbArc
50
237.612611
51
272.387389
0
ARC
5
A8
100
AcDbEntity
8
1
62
256
6
ByLayer
370
18
48
1
60
0
100
AcDbCircle
39
0
10
-13.823244
20
-4.861533
30
0
40
1.295
210
0
220
0
230
1
100
AcDbArc
50
32.387389
51
57.612611
0
ARC
5
A9
100
AcDbEntity
8
1
62
256
6
ByLayer
370
18
48
1
60
0
100
AcDbCircle
39
0
10
-13.823244
20
-4.861533
30
0
40
1.295
210
0
220
0
230
1
100
AcDbArc
50
272.387389
51
297.612611
0
ARC
5
AA
100
AcDbEntity
8
1
62
256
6
ByLayer
370
18
48
1
60
0
100
AcDbCircle
39
0
10
-13.823244
20
-4.861533
30
0
40
1.295
210
0
220
0
230
1
100
AcDbArc
50
357.612611
51
32.387389
0
ARC
5
AB
100
AcDbEntity
8
1
62
256
6
ByLayer
370
18
48
1
60
0
100
AcDbCircle
39
0
10
-13.823244
20
-4.861533
30
0
40
1.295
210
0
220
0
230
1
100
AcDbArc
50
117.612611
51
152.387389
0
ARC
5
AC
100
AcDbEntity
8
1
62
256
6
ByLayer
370
18
48
1
60
0
100
AcDbCircle
39
0
10
-13.823244
20
-4.861533
30
0
40
1.295
210
0
220
0
230
1
100
AcDbArc
50
212.387389
51
237.612611
0
ARC
5
AD
100
AcDbEntity
8
1
62
256
6
ByLayer
370
18
48
1
60
0
100
AcDbCircle
39
0
10
-13.823244
20
-4.861533
30
0
40
1.295
210
0
220
0
230
1
100
AcDbArc
50
297.612611
51
332.387389
0
ARC
5
AF
100
AcDbEntity
8
1
62
256
6
ByLayer
370
18
48
1
60
0
100
AcDbCircle
39
0
10
-13.823244
20
-4.861533
30
0
40
1.295
210
0
220
0
230
1
100
AcDbArc
50
152.387389
51
177.612611
0
ARC
5
B0
100
AcDbEntity
8
1
62
256
6
ByLayer
370
18
48
1
60
0
100
AcDbCircle
39
0
10
-13.823244
20
-4.861533
30
0
40
1.295
210
0
220
0
230
1
100
AcDbArc
50
177.612611
51
212.387389
0
ARC
5
B1
100
AcDbEntity
8
1
62
256
6
ByLayer
370
18
48
1
60
0
100
AcDbCircle
39
0
10
-13.823244
20
-4.861533
30
0
40
1.295
210
0
220
0
230
1
100
AcDbArc
50
57.612611
51
92.387389
0
CIRCLE
5
9C
100
AcDbEntity
8
SK1
62
256
6
ByLayer
370
18
48
1
60
0
100
AcDbCircle
10
13.752533
20
-4.932244
30
0
40
2.5
39
0
210
0
220
0
230
-1
0
CIRCLE
5
A0
100
AcDbEntity
8
1
62
256
6
ByLayer
370
18
48
1
60
0
100
AcDbCircle
10
-4.772277
20
-13.9125
30
0
40
6
39
0
210
0
220
0
230
1
0
CIRCLE
5
A1
100
AcDbEntity
8
1
62
256
6
ByLayer
370
18
48
1
60
0
100
AcDbCircle
10
4.772277
20
-13.9125
30
0
40
2.67526677456137
39
0
210
0
220
0
230
-1
0
CIRCLE
5
A4
100
AcDbEntity
8
1
62
256
6
ByLayer
370
18
48
1
60
0
100
AcDbCircle
10
13.823244
20
-4.861533
30
0
40
1.66739092362731
39
0
210
0
220
0
230
-1
0
CIRCLE
5
AE
100
AcDbEntity
8
1
62
256
6
ByLayer
370
18
48
1
60
0
100
AcDbCircle
10
13.823244
20
-4.861533
30
0
40
2.235
39
0
210
0
220
0
230
-1
0
ELLIPSE
5
B2
100
AcDbEntity
8
1
62
256
6
ByLayer
370
18
48
1
60
0
100
AcDbEllipse
10
-4.772277
20
-13.9125
30
0
11
1.26491026913736
21
-1.35000044225412
31
0
210
0
220
0
230
-1
40
1
41
1.53826742680027
42
1.59873475650643
0
ELLIPSE
5
B3
100
AcDbEntity
8
1
62
256
6
ByLayer
370
18
48
1
60
0
100
AcDbEllipse
10
-4.772277
20
-13.912501
30
0
11
1.26450778146014
21
1.35037872693415
31
0
210
0
220
0
230
-1
40
1
41
-0.0276398514535884
42
0.0328274593931735
0
POINT
5
6C
100
AcDbEntity
8
80
62
256
6
ByLayer
370
18
48
1
60
0
100
AcDbPoint
10
0
20
0
30
0
39
0
210
0
220
0
230
1
50
360
0
POINT
5
6E
100
AcDbEntity
8
81
62
256
6
ByLayer
370
18
48
1
60
0
100
AcDbPoint
10
-0.122277
20
-19.5625
30
0
39
0
210
0
220
0
230
1
50
360
0
POINT
5
70
100
AcDbEntity
8
1
62
256
6
ByLayer
370
18
48
1
60
0
100
AcDbPoint
10
-170.122277
20
12.4375
30
0
39
0
210
0
220
0
230
1
50
360
0
SPLINE
5
B4
100
AcDbEntity
8
SK1
62
256
6
ByLayer
370
18
48
1
60
0
100
AcDbSpline
70
4
71
3
72
18
73
14
40
0
40
0
40
0
40
0
40
0.147777540916797
40
0.147777540916797
40
0.354445212465233
40
0.354445212465233
40
0.561112884013669
40
0.561112884013669
40
0.767780555562106
40
0.767780555562106
40
0.974448227110542
40
0.974448227110542
40
1
40
1
40
1
40
1
41
1
10
-11.0749647616056
20
-15.7007339502403
30
0
41
1
10
-11.0431506109575
20
-15.719101858681
30
0
41
1
10
-11.0094540757469
20
-15.7385565623556
30
0
41
1
10
-10.9258249837978
20
-15.7868398411044
30
0
41
1
10
-10.8743334124326
20
-15.8165685136931
30
0
41
1
10
-10.7657684047768
20
-15.8792485500878
30
0
41
1
10
-10.7103631287159
20
-15.9112368011363
30
0
41
1
10
-10.5974855796898
20
-15.976406684452
30
0
41
1
10
-10.5394432946936
20
-16.0099174133187
30
0
41
1
10
-10.4239769993466
20
-16.0765819100196
30
0
41
1
10
-10.3669583730172
20
-16.1095016292797
30
0
41
1
10
-10.3036823041167
20
-16.1460340846927
30
0
41
1
10
-10.2967226350901
20
-16.1500522514787
30
0
41
1
10
-10.2897707049062
20
-16.1540659502418
30
0
0
SPLINE
5
B5
100
AcDbEntity
8
SK1
62
256
6
ByLayer
370
18
48
1
60
0
100
AcDbSpline
70
4
71
3
72
18
73
14
40
0
40
0
40
0
40
0
40
0.146936380536651
40
0.146936380536651
40
0.352427684856629
40
0.352427684856629
40
0.557918989176608
40
0.557918989176608
40
0.763410293496586
40
0.763410293496586
40
0.968901597816564
40
0.968901597816564
40
1
40
1
40
1
40
1
41
1
10
-2.98404286899938
20
-7.60981205763866
30
0
41
1
10
-2.96567496055911
20
-7.64162620828594
30
0
41
1
10
-2.94622025688506
20
-7.67532274349549
30
0
41
1
10
-2.89793697813678
20
-7.75895183544347
30
0
41
1
10
-2.86820830554814
20
-7.81044340680859
30
0
41
1
10
-2.80552826915351
20
-7.91900841446446
30
0
41
1
10
-2.773540018105
20
-7.9744136905253
30
0
41
1
10
-2.70837013478916
20
-8.08729123955149
30
0
41
1
10
-2.67485940592263
20
-8.14533352454771
30
0
41
1
10
-2.60819490922177
20
-8.2607998198946
30
0
41
1
10
-2.57527518996164
20
-8.31781844622412
30
0
41
1
10
-2.5378421390954
20
-8.38265439220683
30
0
41
1
10
-2.532924176233
20
-8.39117255375436
30
0
41
1
10
-2.52801386899949
20
-8.3996774553635
30
0
0
SPLINE
5
B6
100
AcDbEntity
8
1
62
256
6
ByLayer
370
18
48
1
60
0
100
AcDbSpline
70
4
71
3
72
8
73
4
40
0
40
0
40
0
40
0
40
1
40
1
40
1
40
1
41
1
10
-7.29191710941649
20
-13.9309594172879
30
0
41
1
10
-7.21040197340335
20
-13.8968430739477
30
0
41
1
10
-7.12839691846818
20
-13.8634767300545
30
0
41
1
10
-7.04581621518918
20
-13.8309916257304
30
0
0
SPLINE
5
B7
100
AcDbEntity
8
1
62
256
6
ByLayer
370
18
48
1
60
0
100
AcDbSpline
70
4
71
3
72
8
73
4
40
0
40
0
40
0
40
0
40
1
40
1
40
1
40
1
41
1
10
-4.75381740195343
20
-11.3928597098249
30
0
41
1
10
-4.78793374529357
20
-11.4743748458379
30
0
41
1
10
-4.82130008918682
20
-11.5563799007731
30
0
41
1
10
-4.85378519351087
20
-11.6389606040521
30
0
0
SPLINE
5
B8
100
AcDbEntity
8
1
62
256
6
ByLayer
370
18
48
1
60
0
100
AcDbSpline
70
4
71
3
72
8
73
4
40
0
40
0
40
0
40
0
40
1
40
1
40
1
40
1
41
1
10
-6.08042436443634
20
-15.2206475451952
30
0
41
1
10
-6.12167365657405
20
-15.1793982530575
30
0
41
1
10
-6.16318433131477
20
-15.1378875783168
30
0
41
1
10
-6.20477262744197
20
-15.0962992821896
30
0
0
SPLINE
5
B9
100
AcDbEntity
8
1
62
256
6
ByLayer
370
18
48
1
60
0
100
AcDbSpline
70
4
71
3
72
8
73
4
40
0
40
0
40
0
40
0
40
1
40
1
40
1
40
1
41
1
10
-3.52761628534199
20
-12.2014541885395
30
0
41
1
10
-3.61691715875366
20
-12.1616948780736
30
0
41
1
10
-3.70619920635249
20
-12.1219439493994
30
0
41
1
10
-3.79550800952291
20
-12.0821811083774
30
0
0
SPLINE
5
BA
100
AcDbEntity
8
1
62
256
6
ByLayer
370
18
48
1
60
0
100
AcDbSpline
70
4
71
3
72
8
73
4
40
0
40
0
40
0
40
0
40
1
40
1
40
1
40
1
41
1
10
-4.07114819451738
20
-11.9594581911941
30
0
41
1
10
-4.09390715258019
20
-11.9493252502168
30
0
41
1
10
-4.11666475652186
20
-11.9391929121331
30
0
41
1
10
-4.13942018720434
20
-11.9290615416467
30
0
0
SPLINE
5
BB
100
AcDbEntity
8
1
62
256
6
ByLayer
370
18
48
1
60
0
100
AcDbSpline
70
4
71
3
72
8
73
4
40
0
40
0
40
0
40
0
40
1
40
1
40
1
40
1
41
1
10
-3.46412927404611
20
-12.6043524548049
30
0
41
1
10
-3.50537856618377
20
-12.5631031626673
30
0
41
1
10
-3.54688924092449
20
-12.5215924879265
30
0
41
1
10
-3.58847753705163
20
-12.4800041917994
30
0
0
SPLINE
5
BC
100
AcDbEntity
8
1
62
256
6
ByLayer
370
18
48
1
60
0
100
AcDbSpline
70
4
71
3
72
10
73
6
40
0
40
0
40
0
40
0
40
0.475013080005998
40
0.475013080005998
40
1
40
1
40
1
40
1
41
1
10
-6.44446067193348
20
-14.857079824609
30
0
41
1
10
-6.11583835683172
20
-15.1858469504011
30
0
41
1
10
-5.66248761432735
20
-15.3859618466215
30
0
41
1
10
-4.6876353191343
20
-15.4293276541111
30
0
41
1
10
-4.17275452416874
20
-15.2324294701732
30
0
41
1
10
-3.81424619287077
20
-14.8705306263705
30
0
0
SPLINE
5
BD
100
AcDbEntity
8
1
62
256
6
ByLayer
370
18
48
1
60
0
100
AcDbSpline
70
4
71
1
72
4
73
2
40
0
40
0
40
1
40
1
41
1
10
-3.82769861328973
20
-12.2403145293653
30
0
41
1
10
-4.03986837720163
20
-12.4524848212061
30
0
0
SPLINE
5
BE
100
AcDbEntity
8
1
62
256
6
ByLayer
370
18
48
1
60
0
100
AcDbSpline
70
4
71
3
72
8
73
4
40
0
40
0
40
0
40
0
40
1
40
1
40
1
40
1
41
1
10
-6.15708559097772
20
-15.1392047997468
30
0
41
1
10
-6.18692969815191
20
-15.1125706441638
30
0
41
1
10
-6.21582326191583
20
-15.0852486477156
30
0
41
1
10
-6.24380139679164
20
-15.0572705128398
30
0
0
SPLINE
5
BF
100
AcDbEntity
8
1
62
256
6
ByLayer
370
18
48
1
60
0
100
AcDbSpline
70
4
71
1
72
4
73
2
40
0
40
0
40
1
40
1
41
1
10
-6.4443435259243
20
-14.8569626785998
30
0
41
1
10
-6.23219521063129
20
-14.6448089295647
30
0
0
SPLINE
5
C0
100
AcDbEntity
8
1
62
256
6
ByLayer
370
18
48
1
60
0
100
AcDbSpline
70
4
71
3
72
10
73
6
40
0
40
0
40
0
40
0
40
0.524986101475674
40
0.524986101475674
40
1
40
1
40
1
40
1
41
1
10
-4.02315546496681
20
-14.6616213542745
30
0
41
1
10
-4.323520330772
20
-14.9648408784185
30
0
41
1
10
-4.75556151065808
20
-15.1291550628946
30
0
41
1
10
-5.57442691112846
20
-15.0907254970808
30
0
41
1
10
-5.95560769791604
20
-14.921715462896
30
0
41
1
10
-6.23229336026947
20
-14.6449070792029
30
0
0
SPLINE
5
C1
100
AcDbEntity
8
1
62
256
6
ByLayer
370
18
48
1
60
0
100
AcDbSpline
70
4
71
3
72
47
73
43
40
0
40
0
40
0
40
0
40
0.0226981072663048
40
0.045010658285431
40
0.0669376651818814
40
0.0884791408690302
40
0.109635099104175
40
0.130405554548692
40
0.15079052283387
40
0.170790020633089
40
0.190404065741074
40
0.209632677161092
40
0.228475875201047
40
0.246933681579599
40
0.265006119543582
40
0.282693213998194
40
0.29999499165166
40
0.316911481176351
40
0.333442713388637
40
0.349588721450168
40
0.365349541093704
40
0.380725210877179
40
0.395715772470329
40
0.41032127097904
40
0.424541755313494
40
0.43837727860743
40
0.451827898697235
40
0.464893678671423
40
0.47757468750325
40
0.489871000782008
40
0.50178270156202
40
0.549781102591335
40
0.597226932719817
40
0.644123721186102
40
0.690475122980841
40
0.736284923976387
40
0.781557046257837
40
0.826295553659344
40
0.870504657508971
40
0.914188722584628
40
0.957352273282715
40
1
40
1
40
1
40
1
41
1
10
-3.82793128807873
20
-12.2405504407723
30
0
41
1
10
-3.81246542061586
20
-12.2563324741122
30
0
41
1
10
-3.78179639313737
20
-12.2876284628649
30
0
41
1
10
-3.73828046885137
20
-12.3361491446633
30
0
41
1
10
-3.69705753543491
20
-12.3851558908043
30
0
41
1
10
-3.65823226794464
20
-12.4346637565433
30
0
41
1
10
-3.6217217407567
20
-12.4845111135638
30
0
41
1
10
-3.5874860250122
20
-12.5345895301885
30
0
41
1
10
-3.55546861545486
20
-12.5847838377676
30
0
41
1
10
-3.52561254415434
20
-12.6349877760334
30
0
41
1
10
-3.49785673445507
20
-12.6850998958697
30
0
41
1
10
-3.47213748248925
20
-12.7350245778109
30
0
41
1
10
-3.44838857930648
20
-12.7846716902057
30
0
41
1
10
-3.42654176290114
20
-12.8339565765404
30
0
41
1
10
-3.40652706001839
20
-12.8827999345272
30
0
41
1
10
-3.38827313210732
20
-12.9311277031395
30
0
41
1
10
-3.37170759567829
20
-12.9788709296544
30
0
41
1
10
-3.35675732493166
20
-13.0259656261333
30
0
41
1
10
-3.34334873487501
20
-13.0723526149546
30
0
41
1
10
-3.33140804576203
20
-13.117977365457
30
0
41
1
10
-3.32086152911285
20
-13.1627898229932
30
0
41
1
10
-3.31163573578385
20
-13.2067442318437
30
0
41
1
10
-3.30365770667834
20
-13.2497989530561
30
0
41
1
10
-3.29685516635385
20
-13.2919162791269
30
0
41
1
10
-3.29115670125077
20
-13.3330622440194
30
0
41
1
10
-3.28649191917583
20
-13.3732064389067
30
0
41
1
10
-3.2827916050685
20
-13.4123218010207
30
0
41
1
10
-3.27998782236631
20
-13.4503844965848
30
0
41
1
10
-3.27801414430883
20
-13.4873734692897
30
0
41
1
10
-3.27680536038338
20
-13.523271187653
30
0
41
1
10
-3.27578220120813
20
-13.5935656063959
30
0
41
1
10
-3.27919133046635
20
-13.6981453239116
30
0
41
1
10
-3.2941091680504
20
-13.83605286713
30
0
41
1
10
-3.31895407908604
20
-13.9708977215664
30
0
41
1
10
-3.35325983621976
20
-14.1020040539061
30
0
41
1
10
-3.39652492687145
20
-14.2287620989914
30
0
41
1
10
-3.44821238858873
20
-14.3506219871595
30
0
41
1
10
-3.50777464114401
20
-14.4670789071769
30
0
41
1
10
-3.57459156899949
20
-14.5777397749899
30
0
41
1
10
-3.64822395998681
20
-14.6820748786725
30
0
41
1
10
-3.72751000848086
20
-14.7803257684193
30
0
41
1
10
-3.78545022708124
20
-14.8405830788517
30
0
41
1
10
-3.81424619287083
20
-14.8705306263705
30
0
0
SPLINE
5
C2
100
AcDbEntity
8
1
62
256
6
ByLayer
370
18
48
1
60
0
100
AcDbSpline
70
4
71
3
72
8
73
4
40
0
40
0
40
0
40
0
40
1
40
1
40
1
40
1
41
1
10
-3.54557201949444
20
-12.5276912282636
30
0
41
1
10
-3.5722061750775
20
-12.4978471210894
30
0
41
1
10
-3.59952817152561
20
-12.4689535573254
30
0
41
1
10
-3.62750630640141
20
-12.4409754224496
30
0
0
SPLINE
5
C3
100
AcDbEntity
8
1
62
256
6
ByLayer
370
18
48
1
60
0
100
AcDbSpline
70
4
71
2
72
10
73
7
40
0
40
0
40
0
40
0.25
40
0.25
40
0.5
40
0.75
40
1
40
1
40
1
41
1
10
-4.02315546496681
20
-14.6616213542745
30
0
41
1
10
-3.80743692636855
20
-14.4477803988155
30
0
41
1
10
-3.68939419957059
20
-14.1573883435451
30
0
41
1
10
-3.57231823189267
20
-13.8693745726079
30
0
41
1
10
-3.57600087642368
20
-13.2538239821922
30
0
41
1
10
-3.8207620358935
20
-12.6716426049268
30
0
41
1
10
-4.0398697400384
20
-12.4524834589718
30
0
0
SPLINE
5
C4
100
AcDbEntity
8
1
62
256
6
ByLayer
370
18
48
1
60
0
100
AcDbSpline
70
4
71
1
72
4
73
2
40
0
40
0
40
1
40
1
41
1
10
-3.81424619287077
20
-14.8705306263705
30
0
41
1
10
-4.02315546496681
20
-14.6616213542745
30
0
0
SPLINE
5
C5
100
AcDbEntity
8
1
62
256
6
ByLayer
370
18
48
1
60
0
100
AcDbSpline
70
4
71
3
72
8
73
4
40
0
40
0
40
0
40
0
40
1
40
1
40
1
40
1
41
1
10
-14.4234645588309
20
-3.71403164407991
30
0
41
1
10
-14.5708644234751
20
-3.75352731877581
30
0
41
1
10
-14.714205051811
20
-3.79193532438094
30
0
41
1
10
-14.8550911725765
20
-3.82968564666481
30
0
0
SPLINE
5
C6
100
AcDbEntity
8
1
62
256
6
ByLayer
370
18
48
1
60
0
100
AcDbSpline
70
4
71
3
72
10
73
6
40
0
40
0
40
0
40
0
40
0.5
40
0.5
40
1
40
1
40
1
40
1
41
1
10
-14.2009260360798
20
-6.27106317261044
30
0
41
1
10
-14.130073028959
20
-6.2520781665711
30
0
41
1
10
-14.0581737320234
20
-6.23281280802081
30
0
41
1
10
-13.9140865067373
20
-6.19420475236581
30
0
41
1
10
-13.841823267999
20
-6.17484187590338
30
0
41
1
10
-13.7692994223343
20
-6.15540917002554
30
0
0
SPLINE
5
C7
100
AcDbEntity
8
1
62
256
6
ByLayer
370
18
48
1
60
0
100
AcDbSpline
70
4
71
3
72
8
73
4
40
0
40
0
40
0
40
0
40
1
40
1
40
1
40
1
41
1
10
-14.2009260360798
20
-6.27106317261044
30
0
41
1
10
-14.3041978388856
20
-6.16779136980463
30
0
41
1
10
-14.4105829598216
20
-6.06140624886871
30
0
41
1
10
-14.5168986472405
20
-5.95509056144979
30
0
0
SPLINE
5
C8
100
AcDbEntity
8
1
62
256
6
ByLayer
370
18
48
1
60
0
100
AcDbSpline
70
4
71
3
72
10
73
6
40
0
40
0
40
0
40
0
40
0.5
40
0.5
40
1
40
1
40
1
40
1
41
1
10
-14.9168009790666
20
-5.55518822962367
30
0
41
1
10
-14.9703087819814
20
-5.50168042670887
30
0
41
1
10
-15.0239526602454
20
-5.44803654844486
30
0
41
1
10
-15.1292996770055
20
-5.34268953168473
30
0
41
1
10
-15.1812941335523
20
-5.29069507513796
30
0
41
1
10
-15.2327735902272
20
-5.23921561846302
30
0
0
SPLINE
5
C9
100
AcDbEntity
8
1
62
256
6
ByLayer
370
18
48
1
60
0
100
AcDbSpline
70
4
71
3
72
10
73
6
40
0
40
0
40
0
40
0
40
0.5
40
0.5
40
1
40
1
40
1
40
1
41
1
10
-12.7913960642816
20
-5.89338075495965
30
0
41
1
10
-12.7724110582423
20
-5.82252774783879
30
0
41
1
10
-12.753145699692
20
-5.75062845090315
30
0
41
1
10
-12.714537644037
20
-5.60654122561715
30
0
41
1
10
-12.6951747675745
20
-5.53427798687878
30
0
41
1
10
-12.6757420616967
20
-5.46175414121413
30
0
0
SPLINE
5
CA
100
AcDbEntity
8
1
62
256
6
ByLayer
370
18
48
1
60
0
100
AcDbSpline
70
4
71
3
72
8
73
4
40
0
40
0
40
0
40
0
40
1
40
1
40
1
40
1
41
1
10
-12.5293676492157
20
-4.91547739690697
30
0
41
1
10
-12.4898719745198
20
-4.76807753226274
30
0
41
1
10
-12.4514639689147
20
-4.62473690392693
30
0
41
1
10
-12.4137136466308
20
-4.48385078316144
30
0
0
SPLINE
5
CB
100
AcDbEntity
8
1
62
256
6
ByLayer
370
18
48
1
60
0
100
AcDbSpline
70
4
71
3
72
10
73
6
40
0
40
0
40
0
40
0
40
0.5
40
0.5
40
1
40
1
40
1
40
1
41
1
10
-13.4455612007782
20
-3.45200322901403
30
0
41
1
10
-13.5164142078991
20
-3.47098823505337
30
0
41
1
10
-13.5883135048347
20
-3.49025359360365
30
0
41
1
10
-13.7324007301207
20
-3.52886164925866
30
0
41
1
10
-13.8046639688591
20
-3.54822452572108
30
0
41
1
10
-13.8771878145238
20
-3.56765723159893
30
0
0
SPLINE
5
CC
100
AcDbEntity
8
1
62
256
6
ByLayer
370
18
48
1
60
0
100
AcDbSpline
70
4
71
3
72
10
73
6
40
0
40
0
40
0
40
0
40
0.5
40
0.5
40
1
40
1
40
1
40
1
41
1
10
-13.1295885896176
20
-3.76797584017464
30
0
41
1
10
-13.1830963925324
20
-3.71446803725988
30
0
41
1
10
-13.2367402707964
20
-3.66082415899584
30
0
41
1
10
-13.3420872875565
20
-3.5554771422357
30
0
41
1
10
-13.3940817441033
20
-3.50348268568897
30
0
41
1
10
-13.4455612007782
20
-3.45200322901403
30
0
0
SPLINE
5
CD
100
AcDbEntity
8
1
62
256
6
ByLayer
370
18
48
1
60
0
100
AcDbSpline
70
4
71
3
72
8
73
4
40
0
40
0
40
0
40
0
40
1
40
1
40
1
40
1
41
1
10
-12.4137136466308
20
-4.48385078316144
30
0
41
1
10
-12.516985449436
20
-4.38057898035623
30
0
41
1
10
-12.6233705703714
20
-4.2741938594209
30
0
41
1
10
-12.7296862577896
20
-4.16787817200262
30
0
0
SPLINE
5
CE
100
AcDbEntity
8
1
62
256
6
ByLayer
370
18
48
1
60
0
100
AcDbSpline
70
4
71
3
72
8
73
4
40
0
40
0
40
0
40
0
40
1
40
1
40
1
40
1
41
1
10
-15.1171195876423
20
-4.8075890047175
30
0
41
1
10
-15.1566152623382
20
-4.95498886936173
30
0
41
1
10
-15.1950232679434
20
-5.09832949769753
30
0
41
1
10
-15.2327735902272
20
-5.23921561846302
30
0
0
SPLINE
5
CF
100
AcDbEntity
8
1
62
256
6
ByLayer
370
18
48
1
60
0
100
AcDbSpline
70
4
71
3
72
10
73
6
40
0
40
0
40
0
40
0
40
0.5
40
0.5
40
1
40
1
40
1
40
1
41
1
10
-14.8550911725765
20
-3.82968564666481
30
0
41
1
10
-14.8740761786158
20
-3.90053865378567
30
0
41
1
10
-14.8933415371661
20
-3.97243795072131
30
0
41
1
10
-14.9319495928211
20
-4.11652517600731
30
0
41
1
10
-14.9513124692835
20
-4.18878841474569
30
0
41
1
10
-14.9707451751614
20
-4.26131226041034
30
0
0
SPLINE
5
D0
100
AcDbEntity
8
1
62
256
6
ByLayer
370
18
48
1
60
0
100
AcDbSpline
70
4
71
3
72
8
73
4
40
0
40
0
40
0
40
0
40
1
40
1
40
1
40
1
41
1
10
-13.2230226780271
20
-6.00903475754455
30
0
41
1
10
-13.0756228133829
20
-5.96953908284866
30
0
41
1
10
-12.9322821850471
20
-5.93113107724352
30
0
41
1
10
-12.7913960642816
20
-5.89338075495965
30
0
0
LINE
5
72
100
AcDbEntity
8
SK1
62
256
6
ByLayer
370
18
48
1
60
0
100
AcDbLine
10
-4.839628
20
-7.912875
30
0
11
-3.552305
21
-6.625552
31
0
39
0
210
0
220
0
230
1
0
LINE
5
74
100
AcDbEntity
8
SK1
62
256
6
ByLayer
370
18
48
1
60
0
100
AcDbLine
10
-4.108953
20
-7.949264
30
0
11
-3.27154
21
-7.111852
31
0
39
0
210
0
220
0
230
1
0
LINE
5
75
100
AcDbEntity
8
SK1
62
256
6
ByLayer
370
18
48
1
60
0
100
AcDbLine
10
-12.059224
20
-15.132471
30
0
11
-10.771902
21
-13.845149
31
0
39
0
210
0
220
0
230
1
0
LINE
5
76
100
AcDbEntity
8
SK1
62
256
6
ByLayer
370
18
48
1
60
0
100
AcDbLine
10
-11.572925
20
-15.413236
30
0
11
-10.735513
21
-14.575824
31
0
39
0
210
0
220
0
230
1
0
LINE
5
77
100
AcDbEntity
8
SK1
62
256
6
ByLayer
370
18
48
1
60
0
100
AcDbLine
10
-3.264118
20
-7.124708
30
0
11
-4.090731
21
-7.951322
31
0
39
0
210
0
220
0
230
1
0
LINE
5
78
100
AcDbEntity
8
SK1
62
256
6
ByLayer
370
18
48
1
60
0
100
AcDbLine
10
-10.733455
20
-14.594046
30
0
11
-11.560069
21
-15.420659
31
0
39
0
210
0
220
0
230
1
0
LINE
5
79
100
AcDbEntity
8
SK1
62
256
6
ByLayer
370
18
48
1
60
0
100
AcDbLine
10
-3.521106
20
-8.044424
30
0
11
-3.021542
21
-7.544861
31
0
39
0
210
0
220
0
230
1
0
LINE
5
7A
100
AcDbEntity
8
SK1
62
256
6
ByLayer
370
18
48
1
60
0
100
AcDbLine
10
-11.139916
20
-15.663234
30
0
11
-10.640353
21
-15.163671
31
0
39
0
210
0
220
0
230
1
0
LINE
5
7B
100
AcDbEntity
8
SK1
62
256
6
ByLayer
370
18
48
1
60
0
100
AcDbLine
10
-3.013962
20
-7.557991
30
0
11
-3.504038
21
-8.048067
31
0
39
0
210
0
220
0
230
1
0
LINE
5
7C
100
AcDbEntity
8
SK1
62
256
6
ByLayer
370
18
48
1
60
0
100
AcDbLine
10
-10.636709
20
-15.180739
30
0
11
-11.126786
21
-15.670815
31
0
39
0
210
0
220
0
230
1
0
LINE
5
7D
100
AcDbEntity
8
SK1
62
256
6
ByLayer
370
18
48
1
60
0
100
AcDbLine
10
-12.059224
20
-15.132471
30
0
11
-11.572925
21
-15.413236
31
0
39
0
210
0
220
0
230
1
0
LINE
5
7E
100
AcDbEntity
8
SK1
62
256
6
ByLayer
370
18
48
1
60
0
100
AcDbLine
10
-4.912222
20
-4.270108
30
0
11
-14.414669
21
-13.772555
31
0
39
0
210
0
220
0
230
1
0
LINE
5
7F
100
AcDbEntity
8
SK1
62
256
6
ByLayer
370
18
48
1
60
0
100
AcDbLine
10
-170.122277
20
12.4375
30
0
11
-14.558364
21
12.4375
31
0
39
0
210
0
220
0
230
1
0
LINE
5
80
100
AcDbEntity
8
SK1
62
256
6
ByLayer
370
18
48
1
60
0
100
AcDbLine
10
-14.414669
20
-13.772555
30
0
11
-14.541464
21
-13.69935
31
0
39
0
210
0
220
0
230
1
0
LINE
5
81
100
AcDbEntity
8
SK1
62
256
6
ByLayer
370
18
48
1
60
0
100
AcDbLine
10
-3.27154
20
-7.111852
30
0
11
-3.264118
21
-7.124708
31
0
39
0
210
0
220
0
230
1
0
LINE
5
82
100
AcDbEntity
8
SK1
62
256
6
ByLayer
370
18
48
1
60
0
100
AcDbLine
10
-11.560069
20
-15.420659
30
0
11
-11.139916
21
-15.663234
31
0
39
0
210
0
220
0
230
1
0
LINE
5
83
100
AcDbEntity
8
SK1
62
256
6
ByLayer
370
18
48
1
60
0
100
AcDbLine
10
-170.122277
20
12.4375
30
0
11
-170.122277
21
-12.4375
31
0
39
0
210
0
220
0
230
1
0
LINE
5
84
100
AcDbEntity
8
SK1
62
256
6
ByLayer
370
18
48
1
60
0
100
AcDbLine
10
-4.985427
20
-4.143313
30
0
11
-5.155689
21
-3.84841
31
0
39
0
210
0
220
0
230
1
0
LINE
5
85
100
AcDbEntity
8
SK1
62
256
6
ByLayer
370
18
48
1
60
0
100
AcDbLine
10
-3.013962
20
-7.557991
30
0
11
-3.021542
21
-7.544861
31
0
39
0
210
0
220
0
230
1
0
LINE
5
86
100
AcDbEntity
8
SK1
62
256
6
ByLayer
370
18
48
1
60
0
100
AcDbLine
10
-11.126786
20
-15.670815
30
0
11
-11.139916
21
-15.663234
31
0
39
0
210
0
220
0
230
1
0
LINE
5
87
100
AcDbEntity
8
SK1
62
256
6
ByLayer
370
18
48
1
60
0
100
AcDbLine
10
-14.541464
20
-13.69935
30
0
11
-4.985427
21
-4.143313
31
0
39
0
210
0
220
0
230
1
0
LINE
5
88
100
AcDbEntity
8
SK1
62
256
6
ByLayer
370
18
48
1
60
0
100
AcDbLine
10
-3.552305
20
-6.625552
30
0
11
-4.912222
21
-4.270108
31
0
39
0
210
0
220
0
230
1
0
LINE
5
89
100
AcDbEntity
8
SK1
62
256
6
ByLayer
370
18
48
1
60
0
100
AcDbLine
10
-170.122277
20
-12.4375
30
0
11
-22.981381
21
-12.4375
31
0
39
0
210
0
220
0
230
1
0
LINE
5
8A
100
AcDbEntity
8
SK1
62
256
6
ByLayer
370
18
48
1
60
0
100
AcDbLine
10
-3.264118
20
-7.124708
30
0
11
-3.021542
21
-7.544861
31
0
39
0
210
0
220
0
230
1
0
LINE
5
8B
100
AcDbEntity
8
SK1
62
256
6
ByLayer
370
18
48
1
60
0
100
AcDbLine
10
-12.059224
20
-15.132471
30
0
11
-14.414669
21
-13.772555
31
0
39
0
210
0
220
0
230
1
0
LINE
5
8C
100
AcDbEntity
8
SK1
62
256
6
ByLayer
370
18
48
1
60
0
100
AcDbLine
10
-3.552305
20
-6.625552
30
0
11
-3.27154
21
-7.111852
31
0
39
0
210
0
220
0
230
1
0
LINE
5
8D
100
AcDbEntity
8
SK1
62
256
6
ByLayer
370
18
48
1
60
0
100
AcDbLine
10
-4.912222
20
-4.270108
30
0
11
-4.985427
21
-4.143313
31
0
39
0
210
0
220
0
230
1
0
LINE
5
8E
100
AcDbEntity
8
SK1
62
256
6
ByLayer
370
18
48
1
60
0
100
AcDbLine
10
-5.155689
20
-3.84841
30
0
11
-14.558364
21
12.4375
31
0
39
0
210
0
220
0
230
1
0
LINE
5
8F
100
AcDbEntity
8
SK1
62
256
6
ByLayer
370
18
48
1
60
0
100
AcDbLine
10
-14.836367
20
-13.529087
30
0
11
-15.052954
21
-13.404041
31
0
39
0
210
0
220
0
230
1
0
LINE
5
90
100
AcDbEntity
8
SK1
62
256
6
ByLayer
370
18
48
1
60
0
100
AcDbLine
10
-11.572925
20
-15.413236
30
0
11
-11.560069
21
-15.420659
31
0
39
0
210
0
220
0
230
1
0
LINE
5
91
100
AcDbEntity
8
SK1
62
256
6
ByLayer
370
18
48
1
60
0
100
AcDbLine
10
-14.836367
20
-13.529087
30
0
11
-5.155689
21
-3.84841
31
0
39
0
210
0
220
0
230
1
0
LINE
5
92
100
AcDbEntity
8
SK1
62
256
6
ByLayer
370
18
48
1
60
0
100
AcDbLine
10
-14.541464
20
-13.69935
30
0
11
-14.836367
21
-13.529087
31
0
39
0
210
0
220
0
230
1
0
LINE
5
93
100
AcDbEntity
8
1
62
256
6
ByLayer
370
18
48
1
60
0
100
AcDbLine
10
-7.279871
20
-14.0212
30
0
11
-6.444226
21
-14.856846
31
0
39
0
210
0
220
0
230
1
0
LINE
5
94
100
AcDbEntity
8
1
62
256
6
ByLayer
370
18
48
1
60
0
100
AcDbLine
10
-4.663576
20
-11.404905
30
0
11
-3.827931
21
-12.24055
31
0
39
0
210
0
220
0
230
1
0
LINE
5
95
100
AcDbEntity
8
80
62
256
6
ByLayer
370
18
48
1
60
0
100
AcDbLine
10
0
20
0
30
0
11
-5
21
0
31
0
39
0
210
0
220
0
230
1
0
LINE
5
96
100
AcDbEntity
8
81
62
256
6
ByLayer
370
18
48
1
60
0
100
AcDbLine
10
-0.122277
20
-19.5625
30
0
11
9.877723
21
-19.5625
31
0
39
0
210
0
220
0
230
1
0
LINE
5
97
100
AcDbEntity
8
1
62
256
6
ByLayer
370
18
48
1
60
0
100
AcDbLine
10
-4.040066
20
-12.45268
30
0
11
-4.853785
21
-11.638961
31
0
39
0
210
0
220
0
230
1
0
LINE
5
98
100
AcDbEntity
8
1
62
256
6
ByLayer
370
18
48
1
60
0
100
AcDbLine
10
-6.444226
20
-14.856846
30
0
11
-6.243801
21
-15.057271
31
0
39
0
210
0
220
0
230
1
0
LINE
5
99
100
AcDbEntity
8
1
62
256
6
ByLayer
370
18
48
1
60
0
100
AcDbLine
10
-3.827931
20
-12.24055
30
0
11
-3.627506
21
-12.440975
31
0
39
0
210
0
220
0
230
1
0
LINE
5
9A
100
AcDbEntity
8
1
62
256
6
ByLayer
370
18
48
1
60
0
100
AcDbLine
10
-6.232097
20
-14.644711
30
0
11
-7.045816
21
-13.830992
31
0
39
0
210
0
220
0
230
1
0
MTEXT
5
D1
100
AcDbEntity
8
SK6
62
256
6
ByLayer
370
13
48
1
60
0
100
AcDbMText
10
-140.206074
20
21.423222
30
0
210
0
220
0
230
1
1
\W0.7497;PRGCL 3225P 12
40
3.5
41
0
44
1.084337
50
0
71
7
72
5
7
iso_b_vert
0
DIMENSION
5
E3
100
AcDbEntity
8
SK2
62
256
6
ByLayer
370
13
48
1
60
0
100
AcDbDimension
2
DimnDraft3D1
10
-179.872277
20
12.4375
30
0
11
-179.872277
21
-0.0625
31
0
70
32
71
5
72
1
41
1
210
0
220
0
230
1
3
Standard
100
AcDbAlignedDimension
13
-171.709777
23
-12.5625
33
0
14
-171.709777
24
12.4375
34
0
50
90
100
AcDbRotatedDimension
1001
ACAD
1000
DSTYLE
1002
{
1070
    74
1070
     0
1070
   279
1070
     0
1070
   172
1070
     1
1070
   173
1070
     1
1070
   340
1005
D2
1070
   271
1070
     1
1070
   272
1070
     2
1070
    77
1070
     1
1070
    73
1070
     0
1070
   171
1070
     3
1070
   274
1070
     4
1070
   177
1070
   150
1070
   176
1070
     9
1070
   178
1070
    43
1070
    78
1070
     8
1070
    48
1040
-0.005
1070
    41
1041
3.175
1070
   147
1041
2.25
1070
    42
1041
1.5875
1070
    44
1041
3.175
1070
   140
1041
4.5
1070
   343
1005
E4
1070
   344
1005
E4
1002
}
0
DIMENSION
5
F9
100
AcDbEntity
8
2
62
256
6
ByLayer
370
13
48
1
60
0
100
AcDbDimension
2
DimnDraft3D2
10
17.727723
20
12.4375
30
0
11
17.727723
21
-3.7375
31
0
70
32
71
5
72
1
41
1
210
0
220
0
230
1
3
Standard
100
AcDbAlignedDimension
13
2.815223
23
-19.9125
33
0
14
-21.393881
24
12.4375
34
0
50
90
100
AcDbRotatedDimension
1001
ACAD
1000
DSTYLE
1002
{
1070
    74
1070
     0
1070
   279
1070
     0
1070
   172
1070
     1
1070
   173
1070
     1
1070
   340
1005
D2
1070
   271
1070
     1
1070
   272
1070
     2
1070
    77
1070
     1
1070
    73
1070
     0
1070
   171
1070
     3
1070
   274
1070
     4
1070
   177
1070
   150
1070
   176
1070
     9
1070
   178
1070
    43
1070
    78
1070
     8
1070
    48
1040
-0.005
1070
    41
1041
3.175
1070
   147
1041
2.25
1070
    42
1041
1.5875
1070
    44
1041
3.175
1070
   140
1041
4.5
1070
   343
1005
E4
1070
   344
1005
E4
1002
}
0
DIMENSION
5
107
100
AcDbEntity
8
SK2
62
256
6
ByLayer
370
13
48
1
60
0
100
AcDbDimension
2
DimnDraft3D3
10
1.227723
20
-46.4125
30
0
11
-84.447277
21
-46.4125
31
0
70
32
71
5
72
1
41
1
210
0
220
0
230
1
3
Standard
100
AcDbAlignedDimension
13
-170.122277
23
-14.15
33
0
14
1.227723
24
-21.5
34
0
50
0
100
AcDbRotatedDimension
1001
ACAD
1000
DSTYLE
1002
{
1070
   279
1070
     0
1070
   172
1070
     1
1070
   173
1070
     1
1070
   340
1005
D2
1070
   271
1070
     1
1070
   272
1070
     2
1070
    77
1070
     1
1070
    73
1070
     0
1070
   171
1070
     3
1070
   274
1070
     4
1070
   177
1070
   150
1070
   176
1070
     9
1070
   178
1070
    43
1070
    78
1070
     8
1070
    48
1040
-0.005
1070
    41
1041
3.175
1070
   147
1041
2.25
1070
    42
1041
1.5875
1070
    44
1041
3.175
1070
   140
1041
4.5
1070
   343
1005
E4
1070
   344
1005
E4
1002
}
0
ENDSEC
0
SECTION
2
OBJECTS
0
DICTIONARY
5
171
330
0
100
AcDbDictionary
280
0
281
1
3
ACAD_GROUP
350
172
3
ACAD_MLINESTYLE
350
173
0
DICTIONARY
5
172
330
0
100
AcDbDictionary
280
0
281
1
0
DICTIONARY
5
173
330
0
100
AcDbDictionary
280
0
281
1
3
Standard
350
18
0
MLINESTYLE
5
18
330
173
100
AcDbMlineStyle
2
Standard
70
0
3

62
256
51
90
52
90
71
2
49
-0.5
62
256
6
ByLayer
49
0.5
62
256
6
ByLayer
0
RASTERVARIABLES
5
160
330

100
AcDbRasterVariables
90
0
70
1
71
1
72
1
0
ENDSEC
0
EOF
