0
SECTION
2
HEADER
9
$ACADVER
1
AC1015
9
$DWGCODEPAGE
3
ANSI_1252
9
$HANDSEED
5
17e
9
$ANGBASE
50
0
9
$ANGDIR
70
0
9
$ATTMODE
70
1
9
$AUNITS
70
0
9
$AUPREC
70
0
9
$CECOLOR
62
256
9
$CELTSCALE
40
1
9
$CELTYPE
6
ByLayer
9
$CELWEIGHT
370
18
9
$CLAYER
8
0
9
$CMLJUST
70
0
9
$CMLSCALE
40
1
9
$CMLSTYLE
2
Standard
9
$DIMSTYLE
2
Standard
9
$TEXTSIZE
40
0.2
9
$TEXTSTYLE
7
Standard
9
$LUNITS
70
2
9
$LUPREC
70
4
9
$EXTNAMES
290
1
9
$INSUNITS
70
4
9
$LTSCALE
40
1
9
$LWDISPLAY
290
1
9
$PDMODE
70
0
9
$PDSIZE
40
0
9
$PLINEGEN
70
0
0
ENDSEC
0
SECTION
2
CLASSES
0
CLASS
1
RASTERVARIABLES
2
AcDbRasterVariables
3
ISM
90
0
280
0
281
0
0
ENDSEC
0
SECTION
2
TABLES
0
TABLE
2
VPORT
5
174
100
AcDbSymbolTable
0
VPORT
5
1
100
AcDbSymbolTableRecord
100
AcDbViewportTableRecord
2
*Active
70
0
10
0
20
0
11
1
21
1
12
-1
22
1
13
0
23
0
14
0.5
24
0.5
15
10
25
10
16
0
26
0
36
1
17
0
27
0
37
0
0
ENDTAB
0
TABLE
2
LTYPE
5
175
100
AcDbSymbolTable
0
LTYPE
5
14
100
AcDbSymbolTableRecord
100
AcDbLinetypeTableRecord
70
0
2
ByBlock
3

72
65
73
0
40
0
0
LTYPE
5
15
100
AcDbSymbolTableRecord
100
AcDbLinetypeTableRecord
70
0
2
ByLayer
3

72
65
73
0
40
0
0
LTYPE
5
16
100
AcDbSymbolTableRecord
100
AcDbLinetypeTableRecord
70
0
2
CONTINUOUS
3
Solid line
72
65
73
0
40
0
0
LTYPE
5
6A
100
AcDbSymbolTableRecord
100
AcDbLinetypeTableRecord
70
0
2
CENTER
3
____ _ ____ _ ____ _ ____
72
65
73
4
40
47.5
49
22
74
0
49
-8.5
74
0
49
8.5
74
0
49
-8.5
74
0
0
LTYPE
5
6B
100
AcDbSymbolTableRecord
100
AcDbLinetypeTableRecord
70
0
2
DASHED
3
__ __ __ __ __ __ __ __ __
72
65
73
2
40
25.72
49
12.86
74
0
49
-12.86
74
0
0
ENDTAB
0
TABLE
2
LAYER
5
176
100
AcDbSymbolTable
0
LAYER
5
10
100
AcDbSymbolTableRecord
100
AcDbLayerTableRecord
2
0
70
0
62
7
6
CONTINUOUS
290
1
370
-3
390
0
0
LAYER
5
6D
100
AcDbSymbolTableRecord
100
AcDbLayerTableRecord
2
80
70
0
62
-6
6
CONTINUOUS
290
1
370
-3
390
0
0
LAYER
5
6F
100
AcDbSymbolTableRecord
100
AcDbLayerTableRecord
2
81
70
0
62
-3
6
CONTINUOUS
290
1
370
-3
390
0
0
LAYER
5
71
100
AcDbSymbolTableRecord
100
AcDbLayerTableRecord
2
1
70
0
62
4
6
CONTINUOUS
290
1
370
-3
390
0
0
LAYER
5
ED
100
AcDbSymbolTableRecord
100
AcDbLayerTableRecord
2
2
70
0
62
7
6
CONTINUOUS
290
1
370
-3
390
0
0
LAYER
5
161
100
AcDbSymbolTableRecord
100
AcDbLayerTableRecord
2
SK1
70
0
62
4
6
CONTINUOUS
290
1
370
-3
390
0
0
LAYER
5
162
100
AcDbSymbolTableRecord
100
AcDbLayerTableRecord
2
SK6
70
0
62
5
6
CONTINUOUS
290
1
370
-3
390
0
0
LAYER
5
163
100
AcDbSymbolTableRecord
100
AcDbLayerTableRecord
2
SK2
70
0
62
7
6
CONTINUOUS
290
1
370
-3
390
0
0
ENDTAB
0
TABLE
2
STYLE
5
177
100
AcDbSymbolTable
0
STYLE
5
11
100
AcDbSymbolTableRecord
100
AcDbTextStyleTableRecord
2
Standard
3
txt
70
0
71
0
40
0
41
1
42
0
50
0
0
STYLE
5
D2
100
AcDbSymbolTableRecord
100
AcDbTextStyleTableRecord
2
iso_b_vert
3
simplex.shx
70
0
71
0
40
0
41
1
42
0
50
0
0
STYLE
5
D3
100
AcDbSymbolTableRecord
100
AcDbTextStyleTableRecord
2
DWGDirectTextStyle
3
simplex
70
0
71
0
40
0
41
1
42
0
50
0
0
ENDTAB
0
TABLE
2
DIMSTYLE
5
178
100
AcDbSymbolTable
100
AcDbDimStyleTable
0
DIMSTYLE
105
27
100
AcDbSymbolTableRecord
100
AcDbDimStyleTableRecord
2
Standard
70
0
3
<>
41
0.18
42
0.0625
44
0.18
140
0.18
147
0.09
73
0
74
0
77
1
271
2
275
0
278
52
280
0
340
11
0
ENDTAB
0
TABLE
2
VIEW
5
179
100
AcDbSymbolTable
0
ENDTAB
0
TABLE
2
UCS
5
17a
100
AcDbSymbolTable
0
ENDTAB
0
TABLE
2
APPID
5
17b
100
AcDbSymbolTable
0
APPID
5
12
100
AcDbSymbolTableRecord
100
AcDbRegAppTableRecord
2
ACAD
70
0
0
ENDTAB
0
TABLE
2
BLOCK_RECORD
5
17c
100
AcDbSymbolTable
0
BLOCK_RECORD
5
1F
100
AcDbSymbolTableRecord
100
AcDbBlockTableRecord
2
*Model_Space
340
0
70
0
0
BLOCK_RECORD
5
1B
100
AcDbSymbolTableRecord
100
AcDbBlockTableRecord
2
*Paper_Space
340
0
70
0
0
BLOCK_RECORD
5
23
100
AcDbSymbolTableRecord
100
AcDbBlockTableRecord
2
*Paper_Space0
340
0
70
0
0
BLOCK_RECORD
5
D5
100
AcDbSymbolTableRecord
100
AcDbBlockTableRecord
2
DimnDraft3D1
340
0
70
0
0
BLOCK_RECORD
5
E4
100
AcDbSymbolTableRecord
100
AcDbBlockTableRecord
2
_CLOSED
340
0
70
0
0
BLOCK_RECORD
5
EB
100
AcDbSymbolTableRecord
100
AcDbBlockTableRecord
2
DimnDraft3D2
340
0
70
0
0
BLOCK_RECORD
5
FA
100
AcDbSymbolTableRecord
100
AcDbBlockTableRecord
2
DimnDraft3D3
340
0
70
0
0
ENDTAB
0
ENDSEC
0
SECTION
2
BLOCKS
0
BLOCK
5
20
100
AcDbEntity
8
0
100
AcDbBlockBegin
2
*Model_Space
70
0
10
0
20
0
30
0
3
*Model_Space
0
ENDBLK
5
21
100
AcDbEntity
8
0
100
AcDbBlockEnd
0
BLOCK
5
1C
100
AcDbEntity
8
0
100
AcDbBlockBegin
2
*Paper_Space
70
0
10
0
20
0
30
0
3
*Paper_Space
0
ENDBLK
5
1D
100
AcDbEntity
8
0
100
AcDbBlockEnd
0
BLOCK
5
24
100
AcDbEntity
8
0
100
AcDbBlockBegin
2
*Paper_Space0
70
0
10
0
20
0
30
0
3
*Paper_Space0
0
ENDBLK
5
25
100
AcDbEntity
8
0
100
AcDbBlockEnd
0
BLOCK
5
E1
100
AcDbEntity
8
0
100
AcDbBlockBegin
2
DimnDraft3D1
70
0
10
0
20
0
30
0
3
DimnDraft3D1
0
MTEXT
5
D6
100
AcDbEntity
8
SK2
62
256
6
ByLayer
370
13
48
1
60
0
100
AcDbMText
10
-135.997277
20
-1.625658
30
0
210
0
220
0
230
1
1
\W0.6740;20
40
4.5
41
0
44
1.084337
50
90
71
7
72
5
7
iso_b_vert
0
LINE
5
D8
100
AcDbEntity
8
SK2
62
256
6
ByLayer
370
13
48
1
60
0
100
AcDbLine
10
-126.709777
20
-10.0625
30
0
11
-138.047277
21
-10.0625
31
0
39
0
210
0
220
0
230
1
0
LINE
5
D9
100
AcDbEntity
8
SK2
62
256
6
ByLayer
370
13
48
1
60
0
100
AcDbLine
10
-126.709777
20
9.9375
30
0
11
-138.047277
21
9.9375
31
0
39
0
210
0
220
0
230
1
0
LINE
5
DA
100
AcDbEntity
8
SK2
62
256
6
ByLayer
370
13
48
1
60
0
100
AcDbLine
10
-134.872277
20
-10.0625
30
0
11
-134.872277
21
9.9375
31
0
39
0
210
0
220
0
230
1
0
LINE
5
DB
100
AcDbEntity
8
SK2
62
256
6
ByLayer
370
13
48
1
60
0
100
AcDbLine
10
-134.872277
20
-10.0625
30
0
11
-135.723016
21
-6.887503
31
0
39
0
210
0
220
0
230
1
0
LINE
5
DC
100
AcDbEntity
8
SK2
62
256
6
ByLayer
370
13
48
1
60
0
100
AcDbLine
10
-134.872277
20
-10.0625
30
0
11
-134.021538
21
-6.887497
31
0
39
0
210
0
220
0
230
1
0
LINE
5
DD
100
AcDbEntity
8
SK2
62
256
6
ByLayer
370
13
48
1
60
0
100
AcDbLine
10
-135.723016
20
-6.887503
30
0
11
-134.021538
21
-6.887497
31
0
39
0
210
0
220
0
230
1
0
LINE
5
DE
100
AcDbEntity
8
SK2
62
256
6
ByLayer
370
13
48
1
60
0
100
AcDbLine
10
-134.872277
20
9.9375
30
0
11
-134.021538
21
6.762503
31
0
39
0
210
0
220
0
230
1
0
LINE
5
DF
100
AcDbEntity
8
SK2
62
256
6
ByLayer
370
13
48
1
60
0
100
AcDbLine
10
-134.872277
20
9.9375
30
0
11
-135.723016
21
6.762497
31
0
39
0
210
0
220
0
230
1
0
LINE
5
E0
100
AcDbEntity
8
SK2
62
256
6
ByLayer
370
13
48
1
60
0
100
AcDbLine
10
-134.021538
20
6.762503
30
0
11
-135.723016
21
6.762497
31
0
39
0
210
0
220
0
230
1
0
ENDBLK
5
E2
100
AcDbEntity
8
0
100
AcDbBlockEnd
0
BLOCK
5
E5
100
AcDbEntity
8
0
100
AcDbBlockBegin
2
_CLOSED
70
0
10
0
20
0
30
0
3
_CLOSED
0
LINE
5
E7
100
AcDbEntity
8
0
62
256
6
ByLayer
370
-2
48
1
60
0
100
AcDbLine
10
-1
20
0.166667
30
0
11
0
21
0
31
0
39
0
210
0
220
0
230
1
0
LINE
5
E8
100
AcDbEntity
8
0
62
256
6
ByLayer
370
-2
48
1
60
0
100
AcDbLine
10
0
20
0
30
0
11
-1
21
-0.166667
31
0
39
0
210
0
220
0
230
1
0
LINE
5
E9
100
AcDbEntity
8
0
62
256
6
ByLayer
370
-2
48
1
60
0
100
AcDbLine
10
-1
20
0.166667
30
0
11
-1
21
-0.166667
31
0
39
0
210
0
220
0
230
1
0
LINE
5
EA
100
AcDbEntity
8
0
62
256
6
ByLayer
370
-2
48
1
60
0
100
AcDbLine
10
0
20
0
30
0
11
-1
21
0
31
0
39
0
210
0
220
0
230
1
0
ENDBLK
5
E6
100
AcDbEntity
8
0
100
AcDbBlockEnd
0
BLOCK
5
F7
100
AcDbEntity
8
0
100
AcDbBlockBegin
2
DimnDraft3D2
70
0
10
0
20
0
30
0
3
DimnDraft3D2
0
MTEXT
5
EC
100
AcDbEntity
8
2
62
256
6
ByLayer
370
13
48
1
60
0
100
AcDbMText
10
16.602723
20
-4.300658
30
0
210
0
220
0
230
1
1
\W0.6740;25
40
4.5
41
0
44
1.084337
50
90
71
7
72
5
7
iso_b_vert
0
LINE
5
EE
100
AcDbEntity
8
2
62
256
6
ByLayer
370
13
48
1
60
0
100
AcDbLine
10
2.815223
20
-15.4125
30
0
11
20.902723
21
-15.4125
31
0
39
0
210
0
220
0
230
1
0
LINE
5
EF
100
AcDbEntity
8
2
62
256
6
ByLayer
370
13
48
1
60
0
100
AcDbLine
10
-17.929779
20
9.9375
30
0
11
20.902723
21
9.9375
31
0
39
0
210
0
220
0
230
1
0
LINE
5
F0
100
AcDbEntity
8
2
62
256
6
ByLayer
370
13
48
1
60
0
100
AcDbLine
10
17.727723
20
-15.4125
30
0
11
17.727723
21
9.9375
31
0
39
0
210
0
220
0
230
1
0
LINE
5
F1
100
AcDbEntity
8
2
62
256
6
ByLayer
370
13
48
1
60
0
100
AcDbLine
10
17.727723
20
-15.4125
30
0
11
16.876984
21
-12.237503
31
0
39
0
210
0
220
0
230
1
0
LINE
5
F2
100
AcDbEntity
8
2
62
256
6
ByLayer
370
13
48
1
60
0
100
AcDbLine
10
17.727723
20
-15.4125
30
0
11
18.578462
21
-12.237497
31
0
39
0
210
0
220
0
230
1
0
LINE
5
F3
100
AcDbEntity
8
2
62
256
6
ByLayer
370
13
48
1
60
0
100
AcDbLine
10
16.876984
20
-12.237503
30
0
11
18.578462
21
-12.237497
31
0
39
0
210
0
220
0
230
1
0
LINE
5
F4
100
AcDbEntity
8
2
62
256
6
ByLayer
370
13
48
1
60
0
100
AcDbLine
10
17.727723
20
9.9375
30
0
11
18.578462
21
6.762503
31
0
39
0
210
0
220
0
230
1
0
LINE
5
F5
100
AcDbEntity
8
2
62
256
6
ByLayer
370
13
48
1
60
0
100
AcDbLine
10
17.727723
20
9.9375
30
0
11
16.876984
21
6.762497
31
0
39
0
210
0
220
0
230
1
0
LINE
5
F6
100
AcDbEntity
8
2
62
256
6
ByLayer
370
13
48
1
60
0
100
AcDbLine
10
18.578462
20
6.762503
30
0
11
16.876984
21
6.762497
31
0
39
0
210
0
220
0
230
1
0
ENDBLK
5
F8
100
AcDbEntity
8
0
100
AcDbBlockEnd
0
BLOCK
5
105
100
AcDbEntity
8
0
100
AcDbBlockBegin
2
DimnDraft3D3
70
0
10
0
20
0
30
0
3
DimnDraft3D3
0
MTEXT
5
FB
100
AcDbEntity
8
SK2
62
256
6
ByLayer
370
13
48
1
60
0
100
AcDbMText
10
-64.629514
20
-40.7875
30
0
210
0
220
0
230
1
1
\W0.6217;125
40
4.5
41
0
44
1.084337
50
0
71
7
72
5
7
iso_b_vert
0
LINE
5
FC
100
AcDbEntity
8
SK2
62
256
6
ByLayer
370
13
48
1
60
0
100
AcDbLine
10
-125.122277
20
-11.65
30
0
11
-125.122277
21
-45.0875
31
0
39
0
210
0
220
0
230
1
0
LINE
5
FD
100
AcDbEntity
8
SK2
62
256
6
ByLayer
370
13
48
1
60
0
100
AcDbLine
10
1.227723
20
-17
30
0
11
1.227723
21
-45.0875
31
0
39
0
210
0
220
0
230
1
0
LINE
5
FE
100
AcDbEntity
8
SK2
62
256
6
ByLayer
370
13
48
1
60
0
100
AcDbLine
10
-125.122277
20
-41.9125
30
0
11
1.227723
21
-41.9125
31
0
39
0
210
0
220
0
230
1
0
LINE
5
FF
100
AcDbEntity
8
SK2
62
256
6
ByLayer
370
13
48
1
60
0
100
AcDbLine
10
-125.122277
20
-41.9125
30
0
11
-121.94728
21
-41.061761
31
0
39
0
210
0
220
0
230
1
0
LINE
5
100
100
AcDbEntity
8
SK2
62
256
6
ByLayer
370
13
48
1
60
0
100
AcDbLine
10
-125.122277
20
-41.9125
30
0
11
-121.947274
21
-42.763239
31
0
39
0
210
0
220
0
230
1
0
LINE
5
101
100
AcDbEntity
8
SK2
62
256
6
ByLayer
370
13
48
1
60
0
100
AcDbLine
10
-121.94728
20
-41.061761
30
0
11
-121.947274
21
-42.763239
31
0
39
0
210
0
220
0
230
1
0
LINE
5
102
100
AcDbEntity
8
SK2
62
256
6
ByLayer
370
13
48
1
60
0
100
AcDbLine
10
1.227723
20
-41.9125
30
0
11
-1.947274
21
-42.763239
31
0
39
0
210
0
220
0
230
1
0
LINE
5
103
100
AcDbEntity
8
SK2
62
256
6
ByLayer
370
13
48
1
60
0
100
AcDbLine
10
1.227723
20
-41.9125
30
0
11
-1.94728
21
-41.061761
31
0
39
0
210
0
220
0
230
1
0
LINE
5
104
100
AcDbEntity
8
SK2
62
256
6
ByLayer
370
13
48
1
60
0
100
AcDbLine
10
-1.947274
20
-42.763239
30
0
11
-1.94728
21
-41.061761
31
0
39
0
210
0
220
0
230
1
0
ENDBLK
5
106
100
AcDbEntity
8
0
100
AcDbBlockEnd
0
ENDSEC
0
SECTION
2
ENTITIES
0
ARC
5
97
100
AcDbEntity
8
SK1
62
256
6
ByLayer
370
18
48
1
60
0
100
AcDbCircle
39
0
10
-5.931932
20
-8.252845
30
0
40
4.5
210
0
220
0
230
1
100
AcDbArc
50
107.233515
51
162.766482
0
ARC
5
98
100
AcDbEntity
8
SK1
62
256
6
ByLayer
370
18
48
1
60
0
100
AcDbCircle
39
0
10
16.688852
20
-19.7375
30
0
40
10.2
210
0
220
0
230
-1
100
AcDbArc
50
100.401793
51
116.925489
0
ARC
5
99
100
AcDbEntity
8
SK1
62
256
6
ByLayer
370
18
48
1
60
0
100
AcDbCircle
39
0
10
16.688852
20
-19.7375
30
0
40
10.2
210
0
220
0
230
-1
100
AcDbArc
50
73.901066
51
96.947665
0
ARC
5
9B
100
AcDbEntity
8
1
62
256
6
ByLayer
370
18
48
1
60
0
100
AcDbCircle
39
0
10
4.772277
20
-9.4125
30
0
40
2.1
210
0
220
0
230
-1
100
AcDbArc
50
179.999992
51
343.119358
0
ARC
5
9C
100
AcDbEntity
8
1
62
256
6
ByLayer
370
18
48
1
60
0
100
AcDbCircle
39
0
10
4.772277
20
-9.4125
30
0
40
2.1
210
0
220
0
230
-1
100
AcDbArc
50
106.756887
51
180.00002
0
ARC
5
9F
100
AcDbEntity
8
1
62
256
6
ByLayer
370
18
48
1
60
0
100
AcDbCircle
39
0
10
-4.772277
20
-9.4125
30
0
40
2.275
210
0
220
0
230
1
100
AcDbArc
50
92.053224
51
177.946776
0
ARC
5
A0
100
AcDbEntity
8
1
62
256
6
ByLayer
370
18
48
1
60
0
100
AcDbCircle
39
0
10
4.772277
20
-9.4125
30
0
40
1.84999999999997
210
0
220
0
230
-1
100
AcDbArc
50
135
51
315
0
ARC
5
A1
100
AcDbEntity
8
1
62
256
6
ByLayer
370
18
48
1
60
0
100
AcDbCircle
39
0
10
-13.823244
20
-0.361533
30
0
40
1.295
210
0
220
0
230
1
100
AcDbArc
50
212.387389
51
237.612611
0
ARC
5
A2
100
AcDbEntity
8
1
62
256
6
ByLayer
370
18
48
1
60
0
100
AcDbCircle
39
0
10
-13.823244
20
-0.361533
30
0
40
1.295
210
0
220
0
230
1
100
AcDbArc
50
177.612611
51
212.387389
0
ARC
5
A3
100
AcDbEntity
8
1
62
256
6
ByLayer
370
18
48
1
60
0
100
AcDbCircle
39
0
10
-13.823244
20
-0.361533
30
0
40
1.295
210
0
220
0
230
1
100
AcDbArc
50
92.387389
51
117.612611
0
ARC
5
A4
100
AcDbEntity
8
1
62
256
6
ByLayer
370
18
48
1
60
0
100
AcDbCircle
39
0
10
-13.823244
20
-0.361533
30
0
40
1.295
210
0
220
0
230
1
100
AcDbArc
50
332.387389
51
357.612611
0
ARC
5
A5
100
AcDbEntity
8
1
62
256
6
ByLayer
370
18
48
1
60
0
100
AcDbCircle
39
0
10
-13.823244
20
-0.361533
30
0
40
1.295
210
0
220
0
230
1
100
AcDbArc
50
357.612611
51
32.387389
0
ARC
5
A6
100
AcDbEntity
8
1
62
256
6
ByLayer
370
18
48
1
60
0
100
AcDbCircle
39
0
10
-13.823244
20
-0.361533
30
0
40
1.295
210
0
220
0
230
1
100
AcDbArc
50
32.387389
51
57.612611
0
ARC
5
A7
100
AcDbEntity
8
1
62
256
6
ByLayer
370
18
48
1
60
0
100
AcDbCircle
39
0
10
-13.823244
20
-0.361533
30
0
40
1.295
210
0
220
0
230
1
100
AcDbArc
50
272.387389
51
297.612611
0
ARC
5
A8
100
AcDbEntity
8
1
62
256
6
ByLayer
370
18
48
1
60
0
100
AcDbCircle
39
0
10
-13.823244
20
-0.361533
30
0
40
1.295
210
0
220
0
230
1
100
AcDbArc
50
237.612611
51
272.387389
0
ARC
5
A9
100
AcDbEntity
8
1
62
256
6
ByLayer
370
18
48
1
60
0
100
AcDbCircle
39
0
10
-13.823244
20
-0.361533
30
0
40
1.295
210
0
220
0
230
1
100
AcDbArc
50
117.612611
51
152.387389
0
ARC
5
AA
100
AcDbEntity
8
1
62
256
6
ByLayer
370
18
48
1
60
0
100
AcDbCircle
39
0
10
-13.823244
20
-0.361533
30
0
40
1.295
210
0
220
0
230
1
100
AcDbArc
50
152.387389
51
177.612611
0
ARC
5
AC
100
AcDbEntity
8
1
62
256
6
ByLayer
370
18
48
1
60
0
100
AcDbCircle
39
0
10
-13.823244
20
-0.361533
30
0
40
1.295
210
0
220
0
230
1
100
AcDbArc
50
57.612611
51
92.387389
0
ARC
5
AE
100
AcDbEntity
8
1
62
256
6
ByLayer
370
18
48
1
60
0
100
AcDbCircle
39
0
10
-13.823244
20
-0.361533
30
0
40
1.295
210
0
220
0
230
1
100
AcDbArc
50
297.612611
51
332.387389
0
CIRCLE
5
9A
100
AcDbEntity
8
SK1
62
256
6
ByLayer
370
18
48
1
60
0
100
AcDbCircle
10
13.752533
20
-0.432244
30
0
40
2.5
39
0
210
0
220
0
230
-1
0
CIRCLE
5
9D
100
AcDbEntity
8
1
62
256
6
ByLayer
370
18
48
1
60
0
100
AcDbCircle
10
4.772277
20
-9.4125
30
0
40
2.67526677456137
39
0
210
0
220
0
230
-1
0
CIRCLE
5
9E
100
AcDbEntity
8
1
62
256
6
ByLayer
370
18
48
1
60
0
100
AcDbCircle
10
-4.772277
20
-9.4125
30
0
40
6
39
0
210
0
220
0
230
1
0
CIRCLE
5
AB
100
AcDbEntity
8
1
62
256
6
ByLayer
370
18
48
1
60
0
100
AcDbCircle
10
13.823244
20
-0.361533
30
0
40
1.66739092362731
39
0
210
0
220
0
230
-1
0
CIRCLE
5
AD
100
AcDbEntity
8
1
62
256
6
ByLayer
370
18
48
1
60
0
100
AcDbCircle
10
13.823244
20
-0.361533
30
0
40
2.235
39
0
210
0
220
0
230
-1
0
ELLIPSE
5
AF
100
AcDbEntity
8
SK1
62
256
6
ByLayer
370
18
48
1
60
0
100
AcDbEllipse
10
-16.688852
20
-19.7375
30
0
11
8.97087159972851
21
-4.85422092851302
31
0
210
0
220
0
230
-1
40
1
41
-1.59684952384806
42
-1.54318917644355
0
ELLIPSE
5
B0
100
AcDbEntity
8
SK1
62
256
6
ByLayer
370
18
48
1
60
0
100
AcDbEllipse
10
-16.688852
20
-19.7375
30
0
11
1.41345880585121
21
10.1015909552048
31
0
210
0
220
0
230
-1
40
1
41
-0.0177621425437417
42
0.0255803836078853
0
ELLIPSE
5
B1
100
AcDbEntity
8
1
62
256
6
ByLayer
370
18
48
1
60
0
100
AcDbEllipse
10
-4.772277
20
-9.4125
30
0
11
1.27785598962047
21
-1.33775332313566
31
0
210
0
220
0
230
-1
40
1
41
1.54790037390089
42
1.60836769741522
0
ELLIPSE
5
B2
100
AcDbEntity
8
1
62
256
6
ByLayer
370
18
48
1
60
0
100
AcDbEllipse
10
-4.772277
20
-9.4125
30
0
11
1.3365779420014
21
-1.27908527878559
31
0
210
0
220
0
230
-1
40
1
41
-1.60928704199319
42
-1.54881971725651
0
POINT
5
6C
100
AcDbEntity
8
80
62
256
6
ByLayer
370
18
48
1
60
0
100
AcDbPoint
10
0
20
0
30
0
39
0
210
0
220
0
230
1
50
360
0
POINT
5
6E
100
AcDbEntity
8
81
62
256
6
ByLayer
370
18
48
1
60
0
100
AcDbPoint
10
-0.122277
20
-15.0625
30
0
39
0
210
0
220
0
230
1
50
360
0
POINT
5
70
100
AcDbEntity
8
1
62
256
6
ByLayer
370
18
48
1
60
0
100
AcDbPoint
10
-125.122277
20
9.9375
30
0
39
0
210
0
220
0
230
1
50
360
0
SPLINE
5
B3
100
AcDbEntity
8
SK1
62
256
6
ByLayer
370
18
48
1
60
0
100
AcDbSpline
70
4
71
3
72
18
73
14
40
0
40
0
40
0
40
0
40
0.146936380538005
40
0.146936380538005
40
0.352427684858456
40
0.352427684858456
40
0.557918989178906
40
0.557918989178906
40
0.763410293499357
40
0.763410293499357
40
0.968901597819808
40
0.968901597819808
40
1
40
1
40
1
40
1
41
1
10
-2.98404286899961
20
-3.10981205763795
30
0
41
1
10
-2.96567496055928
20
-3.14162620828543
30
0
41
1
10
-2.94622025688517
20
-3.17532274349523
30
0
41
1
10
-2.89793697813684
20
-3.25895183544344
30
0
41
1
10
-2.86820830554808
20
-3.31044340680856
30
0
41
1
10
-2.8055282691534
20
-3.41900841446443
30
0
41
1
10
-2.77354001810482
20
-3.47441369052527
30
0
41
1
10
-2.70837013478911
20
-3.58729123955146
30
0
41
1
10
-2.67485940592252
20
-3.64533352454768
30
0
41
1
10
-2.60819490922165
20
-3.7607998198946
30
0
41
1
10
-2.57527518996153
20
-3.81781844622409
30
0
41
1
10
-2.53784213909574
20
-3.88265439220589
30
0
41
1
10
-2.53292417623379
20
-3.89117255375251
30
0
41
1
10
-2.52801386900086
20
-3.89967745536075
30
0
0
SPLINE
5
B4
100
AcDbEntity
8
SK1
62
256
6
ByLayer
370
18
48
1
60
0
100
AcDbSpline
70
4
71
3
72
18
73
14
40
0
40
0
40
0
40
0
40
0.147777540895793
40
0.147777540895793
40
0.354445212444115
40
0.354445212444115
40
0.561112883992437
40
0.561112883992437
40
0.767780555540759
40
0.767780555540759
40
0.974448227089081
40
0.974448227089081
40
1
40
1
40
1
40
1
41
1
10
-11.074964761592
20
-11.200733950248
30
0
41
1
10
-11.0431506109478
20
-11.2191018586865
30
0
41
1
10
-11.0094540757419
20
-11.2385565623584
30
0
41
1
10
-10.9258249837978
20
-11.2868398411044
30
0
41
1
10
-10.8743334124327
20
-11.3165685136931
30
0
41
1
10
-10.7657684047768
20
-11.3792485500877
30
0
41
1
10
-10.7103631287159
20
-11.4112368011362
30
0
41
1
10
-10.5974855796898
20
-11.476406684452
30
0
41
1
10
-10.5394432946936
20
-11.5099174133187
30
0
41
1
10
-10.4239769993466
20
-11.5765819100195
30
0
41
1
10
-10.3669583730171
20
-11.6095016292797
30
0
41
1
10
-10.3036823041109
20
-11.646034084696
30
0
41
1
10
-10.2967226350784
20
-11.6500522514854
30
0
41
1
10
-10.2897707048887
20
-11.6540659502518
30
0
0
SPLINE
5
B5
100
AcDbEntity
8
SK1
62
256
6
ByLayer
370
18
48
1
60
0
100
AcDbSpline
70
4
71
3
72
10
73
6
40
0
40
0
40
0
40
0
40
0.5
40
0.5
40
1
40
1
40
1
40
1
41
1
10
-15.017481500552
20
-9.67536703222453
30
0
41
1
10
-14.9934580138294
20
-9.67935745380007
30
0
41
1
10
-14.9666186954006
20
-9.68390447376436
30
0
41
1
10
-14.9084572633124
20
-9.69404117768096
30
0
41
1
10
-14.8780238223685
20
-9.69947829075301
30
0
41
1
10
-14.8472430782196
20
-9.705128609892
30
0
0
SPLINE
5
B6
100
AcDbEntity
8
1
62
256
6
ByLayer
370
18
48
1
60
0
100
AcDbSpline
70
4
71
3
72
8
73
4
40
0
40
0
40
0
40
0
40
1
40
1
40
1
40
1
41
1
10
-7.29191710941643
20
-9.43095941728782
30
0
41
1
10
-7.21040197340329
20
-9.39684307394765
30
0
41
1
10
-7.12839691846813
20
-9.36347673005443
30
0
41
1
10
-7.04581621518918
20
-9.33099162573035
30
0
0
SPLINE
5
B7
100
AcDbEntity
8
1
62
256
6
ByLayer
370
18
48
1
60
0
100
AcDbSpline
70
4
71
3
72
8
73
4
40
0
40
0
40
0
40
0
40
1
40
1
40
1
40
1
41
1
10
-4.75381740195343
20
-6.89285970982482
30
0
41
1
10
-4.78793374529357
20
-6.9743748458379
30
0
41
1
10
-4.82130008918676
20
-7.0563799007731
30
0
41
1
10
-4.85378519351087
20
-7.13896060405204
30
0
0
SPLINE
5
B8
100
AcDbEntity
8
1
62
256
6
ByLayer
370
18
48
1
60
0
100
AcDbSpline
70
4
71
3
72
8
73
4
40
0
40
0
40
0
40
0
40
1
40
1
40
1
40
1
41
1
10
-6.08042436443634
20
-10.7206475451951
30
0
41
1
10
-6.12173701103018
20
-10.6793348986013
30
0
41
1
10
-6.16331184375457
20
-10.6377600658769
30
0
41
1
10
-6.20496425337956
20
-10.5961076562519
30
0
0
SPLINE
5
B9
100
AcDbEntity
8
1
62
256
6
ByLayer
370
18
48
1
60
0
100
AcDbSpline
70
4
71
3
72
8
73
4
40
0
40
0
40
0
40
0
40
1
40
1
40
1
40
1
41
1
10
-3.52761628534194
20
-7.70145418853949
30
0
41
1
10
-3.61691715875361
20
-7.66169487807352
30
0
41
1
10
-3.70619920635244
20
-7.62194394939939
30
0
41
1
10
-3.79550800952291
20
-7.58218110837737
30
0
0
SPLINE
5
BA
100
AcDbEntity
8
1
62
256
6
ByLayer
370
18
48
1
60
0
100
AcDbSpline
70
4
71
3
72
8
73
4
40
0
40
0
40
0
40
0
40
1
40
1
40
1
40
1
41
1
10
-4.07114819451732
20
-7.4594581911941
30
0
41
1
10
-4.09390715258013
20
-7.44932525021679
30
0
41
1
10
-4.1166647565218
20
-7.43919291213308
30
0
41
1
10
-4.13942018720428
20
-7.42906154164669
30
0
0
SPLINE
5
BB
100
AcDbEntity
8
1
62
256
6
ByLayer
370
18
48
1
60
0
100
AcDbSpline
70
4
71
3
72
8
73
4
40
0
40
0
40
0
40
0
40
1
40
1
40
1
40
1
41
1
10
-3.46412927404611
20
-8.10435245480488
30
0
41
1
10
-3.50544192063995
20
-8.06303980821104
30
0
41
1
10
-3.54701675336435
20
-8.02146497548665
30
0
41
1
10
-3.58866916298939
20
-7.97981256586161
30
0
0
SPLINE
5
BC
100
AcDbEntity
8
1
62
256
6
ByLayer
370
18
48
1
60
0
100
AcDbSpline
70
4
71
2
72
10
73
7
40
0
40
0
40
0
40
0.25
40
0.25
40
0.5
40
0.75
40
1
40
1
40
1
41
1
10
-4.02315546496675
20
-10.1616213542744
30
0
41
1
10
-3.8074369263685
20
-9.94778039881552
30
0
41
1
10
-3.68939419957053
20
-9.65738834354502
30
0
41
1
10
-3.57231823189261
20
-9.36937457260785
30
0
41
1
10
-3.57600087642368
20
-8.75382398219222
30
0
41
1
10
-3.8207620358935
20
-8.17164260492672
30
0
41
1
10
-4.03986974003834
20
-7.95248345897178
30
0
0
SPLINE
5
BD
100
AcDbEntity
8
1
62
256
6
ByLayer
370
18
48
1
60
0
100
AcDbSpline
70
4
71
1
72
4
73
2
40
0
40
0
40
1
40
1
41
1
10
-3.81424619287077
20
-10.3705306263704
30
0
41
1
10
-4.02315546496675
20
-10.1616213542744
30
0
0
SPLINE
5
BE
100
AcDbEntity
8
1
62
256
6
ByLayer
370
18
48
1
60
0
100
AcDbSpline
70
4
71
3
72
8
73
4
40
0
40
0
40
0
40
0
40
1
40
1
40
1
40
1
41
1
10
-6.15708559097766
20
-10.6392047997468
30
0
41
1
10
-6.18692969815186
20
-10.6125706441637
30
0
41
1
10
-6.21582326191583
20
-10.5852486477156
30
0
41
1
10
-6.24380139679164
20
-10.5572705128398
30
0
0
SPLINE
5
BF
100
AcDbEntity
8
1
62
256
6
ByLayer
370
18
48
1
60
0
100
AcDbSpline
70
4
71
3
72
10
73
6
40
0
40
0
40
0
40
0
40
0.475013080005998
40
0.475013080005998
40
1
40
1
40
1
40
1
41
1
10
-6.44446067193343
20
-10.357079824609
30
0
41
1
10
-6.11583835683166
20
-10.685846950401
30
0
41
1
10
-5.66248761432735
20
-10.8859618466215
30
0
41
1
10
-4.6876353191343
20
-10.9293276541111
30
0
41
1
10
-4.17275452416874
20
-10.7324294701732
30
0
41
1
10
-3.81424619287077
20
-10.3705306263704
30
0
0
SPLINE
5
C0
100
AcDbEntity
8
1
62
256
6
ByLayer
370
18
48
1
60
0
100
AcDbSpline
70
4
71
1
72
4
73
2
40
0
40
0
40
1
40
1
41
1
10
-3.82769861328973
20
-7.74031452936529
30
0
41
1
10
-4.03986837720163
20
-7.95248482120601
30
0
0
SPLINE
5
C1
100
AcDbEntity
8
1
62
256
6
ByLayer
370
18
48
1
60
0
100
AcDbSpline
70
4
71
1
72
4
73
2
40
0
40
0
40
1
40
1
41
1
10
-6.4443435259243
20
-10.3569626785998
30
0
41
1
10
-6.23219521063123
20
-10.1448089295647
30
0
0
SPLINE
5
C2
100
AcDbEntity
8
1
62
256
6
ByLayer
370
18
48
1
60
0
100
AcDbSpline
70
4
71
3
72
8
73
4
40
0
40
0
40
0
40
0
40
1
40
1
40
1
40
1
41
1
10
-3.54557201949444
20
-8.02769122826356
30
0
41
1
10
-3.5722061750775
20
-7.99784712108934
30
0
41
1
10
-3.59952817152561
20
-7.96895355732539
30
0
41
1
10
-3.62750630640141
20
-7.94097542244958
30
0
0
SPLINE
5
C3
100
AcDbEntity
8
1
62
256
6
ByLayer
370
18
48
1
60
0
100
AcDbSpline
70
4
71
3
72
10
73
6
40
0
40
0
40
0
40
0
40
0.524986101475674
40
0.524986101475674
40
1
40
1
40
1
40
1
41
1
10
-4.02315546496675
20
-10.1616213542744
30
0
41
1
10
-4.323520330772
20
-10.4648408784185
30
0
41
1
10
-4.75556151065808
20
-10.6291550628946
30
0
41
1
10
-5.5744269111284
20
-10.5907254970808
30
0
41
1
10
-5.95560769791604
20
-10.421715462896
30
0
41
1
10
-6.23229336026941
20
-10.1449070792029
30
0
0
SPLINE
5
C4
100
AcDbEntity
8
1
62
256
6
ByLayer
370
18
48
1
60
0
100
AcDbSpline
70
4
71
3
72
47
73
43
40
0
40
0
40
0
40
0
40
0.0226981072663048
40
0.045010658285431
40
0.0669376651818814
40
0.0884791408690302
40
0.109635099104175
40
0.130405554548692
40
0.15079052283387
40
0.170790020633089
40
0.190404065741074
40
0.209632677161092
40
0.228475875201047
40
0.246933681579599
40
0.265006119543582
40
0.282693213998194
40
0.29999499165166
40
0.316911481176351
40
0.333442713388637
40
0.349588721450168
40
0.365349541093704
40
0.380725210877179
40
0.395715772470329
40
0.41032127097904
40
0.424541755313494
40
0.43837727860743
40
0.451827898697235
40
0.464893678671423
40
0.47757468750325
40
0.489871000782008
40
0.50178270156202
40
0.549781102591335
40
0.597226932719817
40
0.644123721186102
40
0.690475122980841
40
0.736284923976387
40
0.781557046257837
40
0.826295553659344
40
0.870504657508971
40
0.914188722584628
40
0.957352273282715
40
1
40
1
40
1
40
1
41
1
10
-3.82793128807873
20
-7.74055044077227
30
0
41
1
10
-3.81246542061581
20
-7.75633247411218
30
0
41
1
10
-3.78179639313737
20
-7.78762846286486
30
0
41
1
10
-3.73828046885132
20
-7.83614914466327
30
0
41
1
10
-3.69705753543485
20
-7.88515589080424
30
0
41
1
10
-3.65823226794464
20
-7.93466375654327
30
0
41
1
10
-3.62172174075664
20
-7.98451111356377
30
0
41
1
10
-3.5874860250122
20
-8.03458953018841
30
0
41
1
10
-3.5554686154548
20
-8.08478383776753
30
0
41
1
10
-3.52561254415434
20
-8.13498777603337
30
0
41
1
10
-3.49785673445501
20
-8.18509989586971
30
0
41
1
10
-3.47213748248925
20
-8.23502457781083
30
0
41
1
10
-3.44838857930648
20
-8.28467169020564
30
0
41
1
10
-3.42654176290108
20
-8.3339565765404
30
0
41
1
10
-3.40652706001833
20
-8.38279993452721
30
0
41
1
10
-3.38827313210726
20
-8.43112770313948
30
0
41
1
10
-3.37170759567823
20
-8.47887092965433
30
0
41
1
10
-3.35675732493166
20
-8.52596562613329
30
0
41
1
10
-3.34334873487501
20
-8.57235261495455
30
0
41
1
10
-3.33140804576197
20
-8.61797736545702
30
0
41
1
10
-3.32086152911279
20
-8.6627898229932
30
0
41
1
10
-3.31163573578385
20
-8.70674423184369
30
0
41
1
10
-3.30365770667834
20
-8.74979895305606
30
0
41
1
10
-3.29685516635385
20
-8.79191627912689
30
0
41
1
10
-3.29115670125071
20
-8.83306224401929
30
0
41
1
10
-3.28649191917577
20
-8.87320643890669
30
0
41
1
10
-3.2827916050685
20
-8.91232180102068
30
0
41
1
10
-3.27998782236631
20
-8.95038449658477
30
0
41
1
10
-3.27801414430883
20
-8.98737346928962
30
0
41
1
10
-3.27680536038338
20
-9.02327118765299
30
0
41
1
10
-3.27578220120807
20
-9.09356560639588
30
0
41
1
10
-3.27919133046629
20
-9.1981453239116
30
0
41
1
10
-3.2941091680504
20
-9.33605286712992
30
0
41
1
10
-3.31895407908598
20
-9.4708977215663
30
0
41
1
10
-3.35325983621971
20
-9.60200405390611
30
0
41
1
10
-3.39652492687139
20
-9.72876209899135
30
0
41
1
10
-3.44821238858867
20
-9.85062198715949
30
0
41
1
10
-3.50777464114401
20
-9.96707890717681
30
0
41
1
10
-3.57459156899949
20
-10.0777397749899
30
0
41
1
10
-3.64822395998675
20
-10.1820748786725
30
0
41
1
10
-3.72751000848081
20
-10.2803257684193
30
0
41
1
10
-3.78545022708124
20
-10.3405830788517
30
0
41
1
10
-3.81424619287077
20
-10.3705306263704
30
0
0
SPLINE
5
C5
100
AcDbEntity
8
1
62
256
6
ByLayer
370
18
48
1
60
0
100
AcDbSpline
70
4
71
3
72
10
73
6
40
0
40
0
40
0
40
0
40
0.5
40
0.5
40
1
40
1
40
1
40
1
41
1
10
-13.4455612007782
20
1.047996770986
30
0
41
1
10
-13.5164142078991
20
1.02901176494666
30
0
41
1
10
-13.5883135048347
20
1.0097464063964
30
0
41
1
10
-13.7324007301207
20
0.97113835074137
30
0
41
1
10
-13.8046639688591
20
0.951775474278975
30
0
41
1
10
-13.8771878145237
20
0.932342768401128
30
0
0
SPLINE
5
C6
100
AcDbEntity
8
1
62
256
6
ByLayer
370
18
48
1
60
0
100
AcDbSpline
70
4
71
3
72
8
73
4
40
0
40
0
40
0
40
0
40
1
40
1
40
1
40
1
41
1
10
-15.1171195876423
20
-0.307589004717442
30
0
41
1
10
-15.1566152623382
20
-0.454988869361699
30
0
41
1
10
-15.1950232679434
20
-0.598329497697506
30
0
41
1
10
-15.2327735902272
20
-0.739215618462993
30
0
0
SPLINE
5
C7
100
AcDbEntity
8
1
62
256
6
ByLayer
370
18
48
1
60
0
100
AcDbSpline
70
4
71
3
72
10
73
6
40
0
40
0
40
0
40
0
40
0.5
40
0.5
40
1
40
1
40
1
40
1
41
1
10
-14.8550911725764
20
0.670314353335215
30
0
41
1
10
-14.8740761786158
20
0.599461346214383
30
0
41
1
10
-14.8933415371661
20
0.527562049278743
30
0
41
1
10
-14.9319495928211
20
0.383474823992742
30
0
41
1
10
-14.9513124692835
20
0.311211585254341
30
0
41
1
10
-14.9707451751613
20
0.238687739589693
30
0
0
SPLINE
5
C8
100
AcDbEntity
8
1
62
256
6
ByLayer
370
18
48
1
60
0
100
AcDbSpline
70
4
71
3
72
8
73
4
40
0
40
0
40
0
40
0
40
1
40
1
40
1
40
1
41
1
10
-14.4234645588309
20
0.785968355920119
30
0
41
1
10
-14.5708644234751
20
0.746472681224247
30
0
41
1
10
-14.714205051811
20
0.708064675619084
30
0
41
1
10
-14.8550911725764
20
0.670314353335215
30
0
0
SPLINE
5
C9
100
AcDbEntity
8
1
62
256
6
ByLayer
370
18
48
1
60
0
100
AcDbSpline
70
4
71
3
72
10
73
6
40
0
40
0
40
0
40
0
40
0.5
40
0.5
40
1
40
1
40
1
40
1
41
1
10
-14.2009260360798
20
-1.77106317261041
30
0
41
1
10
-14.130073028959
20
-1.75207816657104
30
0
41
1
10
-14.0581737320233
20
-1.73281280802078
30
0
41
1
10
-13.9140865067373
20
-1.69420475236575
30
0
41
1
10
-13.841823267999
20
-1.67484187590335
30
0
41
1
10
-13.7692994223343
20
-1.65540917002551
30
0
0
SPLINE
5
CA
100
AcDbEntity
8
1
62
256
6
ByLayer
370
18
48
1
60
0
100
AcDbSpline
70
4
71
3
72
8
73
4
40
0
40
0
40
0
40
0
40
1
40
1
40
1
40
1
41
1
10
-13.2230226780271
20
-1.5090347575445
30
0
41
1
10
-13.0756228133829
20
-1.46953908284863
30
0
41
1
10
-12.9322821850471
20
-1.43113107724346
30
0
41
1
10
-12.7913960642816
20
-1.39338075495959
30
0
0
SPLINE
5
CB
100
AcDbEntity
8
1
62
256
6
ByLayer
370
18
48
1
60
0
100
AcDbSpline
70
4
71
3
72
8
73
4
40
0
40
0
40
0
40
0
40
1
40
1
40
1
40
1
41
1
10
-14.2009260360798
20
-1.77106317261041
30
0
41
1
10
-14.3041978388856
20
-1.66779136980458
30
0
41
1
10
-14.4105829598216
20
-1.56140624886865
30
0
41
1
10
-14.5168986472405
20
-1.45509056144976
30
0
0
SPLINE
5
CC
100
AcDbEntity
8
1
62
256
6
ByLayer
370
18
48
1
60
0
100
AcDbSpline
70
4
71
3
72
10
73
6
40
0
40
0
40
0
40
0
40
0.5
40
0.5
40
1
40
1
40
1
40
1
41
1
10
-14.9168009790666
20
-1.05518822962361
30
0
41
1
10
-14.9703087819814
20
-1.00168042670885
30
0
41
1
10
-15.0239526602454
20
-0.948036548444804
30
0
41
1
10
-15.1292996770055
20
-0.84268953168467
30
0
41
1
10
-15.1812941335523
20
-0.790695075137933
30
0
41
1
10
-15.2327735902272
20
-0.739215618462993
30
0
0
SPLINE
5
CD
100
AcDbEntity
8
1
62
256
6
ByLayer
370
18
48
1
60
0
100
AcDbSpline
70
4
71
3
72
10
73
6
40
0
40
0
40
0
40
0
40
0.5
40
0.5
40
1
40
1
40
1
40
1
41
1
10
-12.7913960642816
20
-1.39338075495959
30
0
41
1
10
-12.7724110582423
20
-1.32252774783876
30
0
41
1
10
-12.753145699692
20
-1.25062845090312
30
0
41
1
10
-12.714537644037
20
-1.10654122561712
30
0
41
1
10
-12.6951747675745
20
-1.03427798687872
30
0
41
1
10
-12.6757420616967
20
-0.961754141214072
30
0
0
SPLINE
5
CE
100
AcDbEntity
8
1
62
256
6
ByLayer
370
18
48
1
60
0
100
AcDbSpline
70
4
71
3
72
8
73
4
40
0
40
0
40
0
40
0
40
1
40
1
40
1
40
1
41
1
10
-12.5293676492157
20
-0.415477396906908
30
0
41
1
10
-12.4898719745198
20
-0.26807753226268
30
0
41
1
10
-12.4514639689147
20
-0.124736903926873
30
0
41
1
10
-12.4137136466308
20
0.0161492168385848
30
0
0
SPLINE
5
CF
100
AcDbEntity
8
1
62
256
6
ByLayer
370
18
48
1
60
0
100
AcDbSpline
70
4
71
3
72
10
73
6
40
0
40
0
40
0
40
0
40
0.5
40
0.5
40
1
40
1
40
1
40
1
41
1
10
-13.1295885896176
20
0.732024159825386
30
0
41
1
10
-13.1830963925324
20
0.78553196274018
30
0
41
1
10
-13.2367402707964
20
0.839175841004192
30
0
41
1
10
-13.3420872875565
20
0.944522857764326
30
0
41
1
10
-13.3940817441033
20
0.996517314311092
30
0
41
1
10
-13.4455612007782
20
1.04799677098603
30
0
0
SPLINE
5
D0
100
AcDbEntity
8
1
62
256
6
ByLayer
370
18
48
1
60
0
100
AcDbSpline
70
4
71
3
72
8
73
4
40
0
40
0
40
0
40
0
40
1
40
1
40
1
40
1
41
1
10
-12.4137136466308
20
0.0161492168385848
30
0
41
1
10
-12.516985449436
20
0.119421019643823
30
0
41
1
10
-12.6233705703713
20
0.225806140579124
30
0
41
1
10
-12.7296862577896
20
0.332121827997412
30
0
0
LINE
5
72
100
AcDbEntity
8
SK1
62
256
6
ByLayer
370
18
48
1
60
0
100
AcDbLine
10
-12.069972
20
-10.643219
30
0
11
-10.7719
21
-9.345147
31
0
39
0
210
0
220
0
230
1
0
LINE
5
74
100
AcDbEntity
8
SK1
62
256
6
ByLayer
370
18
48
1
60
0
100
AcDbLine
10
-11.572925
20
-10.913236
30
0
11
-10.735513
21
-10.075824
31
0
39
0
210
0
220
0
230
1
0
LINE
5
75
100
AcDbEntity
8
SK1
62
256
6
ByLayer
370
18
48
1
60
0
100
AcDbLine
10
-4.839628
20
-3.412875
30
0
11
-3.552305
21
-2.125552
31
0
39
0
210
0
220
0
230
1
0
LINE
5
76
100
AcDbEntity
8
SK1
62
256
6
ByLayer
370
18
48
1
60
0
100
AcDbLine
10
-4.108953
20
-3.449264
30
0
11
-3.27154
21
-2.611852
31
0
39
0
210
0
220
0
230
1
0
LINE
5
77
100
AcDbEntity
8
SK1
62
256
6
ByLayer
370
18
48
1
60
0
100
AcDbLine
10
-10.733455
20
-10.094046
30
0
11
-11.560069
21
-10.920659
31
0
39
0
210
0
220
0
230
1
0
LINE
5
78
100
AcDbEntity
8
SK1
62
256
6
ByLayer
370
18
48
1
60
0
100
AcDbLine
10
-3.264118
20
-2.624708
30
0
11
-4.090731
21
-3.451322
31
0
39
0
210
0
220
0
230
1
0
LINE
5
79
100
AcDbEntity
8
SK1
62
256
6
ByLayer
370
18
48
1
60
0
100
AcDbLine
10
-3.521106
20
-3.544424
30
0
11
-3.021542
21
-3.044861
31
0
39
0
210
0
220
0
230
1
0
LINE
5
7A
100
AcDbEntity
8
SK1
62
256
6
ByLayer
370
18
48
1
60
0
100
AcDbLine
10
-11.139916
20
-11.163234
30
0
11
-10.640353
21
-10.663671
31
0
39
0
210
0
220
0
230
1
0
LINE
5
7B
100
AcDbEntity
8
SK1
62
256
6
ByLayer
370
18
48
1
60
0
100
AcDbLine
10
-3.013962
20
-3.057991
30
0
11
-3.504038
21
-3.548067
31
0
39
0
210
0
220
0
230
1
0
LINE
5
7C
100
AcDbEntity
8
SK1
62
256
6
ByLayer
370
18
48
1
60
0
100
AcDbLine
10
-10.636709
20
-10.680739
30
0
11
-11.126786
21
-11.170815
31
0
39
0
210
0
220
0
230
1
0
LINE
5
7D
100
AcDbEntity
8
SK1
62
256
6
ByLayer
370
18
48
1
60
0
100
AcDbLine
10
-3.552305
20
-2.125552
30
0
11
-3.27154
21
-2.611852
31
0
39
0
210
0
220
0
230
1
0
LINE
5
7E
100
AcDbEntity
8
SK1
62
256
6
ByLayer
370
18
48
1
60
0
100
AcDbLine
10
-15.455033
20
-9.612398
30
0
11
-5.16863
21
0.674004
31
0
39
0
210
0
220
0
230
1
0
LINE
5
7F
100
AcDbEntity
8
SK1
62
256
6
ByLayer
370
18
48
1
60
0
100
AcDbLine
10
-5.16863
20
0.674004
30
0
11
-10.516912
21
9.9375
31
0
39
0
210
0
220
0
230
1
0
LINE
5
80
100
AcDbEntity
8
SK1
62
256
6
ByLayer
370
18
48
1
60
0
100
AcDbLine
10
-125.122277
20
-9.9375
30
0
11
-19.517279
21
-9.9375
31
0
39
0
210
0
220
0
230
1
0
LINE
5
81
100
AcDbEntity
8
SK1
62
256
6
ByLayer
370
18
48
1
60
0
100
AcDbLine
10
-4.912222
20
0.229892
30
0
11
-14.847243
21
-9.705129
31
0
39
0
210
0
220
0
230
1
0
LINE
5
82
100
AcDbEntity
8
SK1
62
256
6
ByLayer
370
18
48
1
60
0
100
AcDbLine
10
-3.013962
20
-3.057991
30
0
11
-3.021542
21
-3.044861
31
0
39
0
210
0
220
0
230
1
0
LINE
5
83
100
AcDbEntity
8
SK1
62
256
6
ByLayer
370
18
48
1
60
0
100
AcDbLine
10
-125.122277
20
9.9375
30
0
11
-125.122277
21
-9.9375
31
0
39
0
210
0
220
0
230
1
0
LINE
5
84
100
AcDbEntity
8
SK1
62
256
6
ByLayer
370
18
48
1
60
0
100
AcDbLine
10
-11.588852
20
-10.904041
30
0
11
-11.572925
21
-10.913236
31
0
39
0
210
0
220
0
230
1
0
LINE
5
85
100
AcDbEntity
8
SK1
62
256
6
ByLayer
370
18
48
1
60
0
100
AcDbLine
10
-15.017482
20
-9.675367
30
0
11
-4.985427
21
0.356687
31
0
39
0
210
0
220
0
230
1
0
LINE
5
86
100
AcDbEntity
8
SK1
62
256
6
ByLayer
370
18
48
1
60
0
100
AcDbLine
10
-3.552305
20
-2.125552
30
0
11
-4.912222
21
0.229892
31
0
39
0
210
0
220
0
230
1
0
LINE
5
87
100
AcDbEntity
8
SK1
62
256
6
ByLayer
370
18
48
1
60
0
100
AcDbLine
10
-11.126786
20
-11.170815
30
0
11
-11.139916
21
-11.163234
31
0
39
0
210
0
220
0
230
1
0
LINE
5
88
100
AcDbEntity
8
SK1
62
256
6
ByLayer
370
18
48
1
60
0
100
AcDbLine
10
-3.27154
20
-2.611852
30
0
11
-3.264118
21
-2.624708
31
0
39
0
210
0
220
0
230
1
0
LINE
5
89
100
AcDbEntity
8
SK1
62
256
6
ByLayer
370
18
48
1
60
0
100
AcDbLine
10
-3.264118
20
-2.624708
30
0
11
-3.021542
21
-3.044861
31
0
39
0
210
0
220
0
230
1
0
LINE
5
8A
100
AcDbEntity
8
SK1
62
256
6
ByLayer
370
18
48
1
60
0
100
AcDbLine
10
-125.122277
20
9.9375
30
0
11
-10.516912
21
9.9375
31
0
39
0
210
0
220
0
230
1
0
LINE
5
8B
100
AcDbEntity
8
SK1
62
256
6
ByLayer
370
18
48
1
60
0
100
AcDbLine
10
-4.985427
20
0.356687
30
0
11
-5.16863
21
0.674004
31
0
39
0
210
0
220
0
230
1
0
LINE
5
8C
100
AcDbEntity
8
SK1
62
256
6
ByLayer
370
18
48
1
60
0
100
AcDbLine
10
-11.560069
20
-10.920659
30
0
11
-11.139916
21
-11.163234
31
0
39
0
210
0
220
0
230
1
0
LINE
5
8D
100
AcDbEntity
8
SK1
62
256
6
ByLayer
370
18
48
1
60
0
100
AcDbLine
10
-4.912222
20
0.229892
30
0
11
-4.985427
21
0.356687
31
0
39
0
210
0
220
0
230
1
0
LINE
5
8E
100
AcDbEntity
8
SK1
62
256
6
ByLayer
370
18
48
1
60
0
100
AcDbLine
10
-11.572925
20
-10.913236
30
0
11
-11.560069
21
-10.920659
31
0
39
0
210
0
220
0
230
1
0
LINE
5
8F
100
AcDbEntity
8
1
62
256
6
ByLayer
370
18
48
1
60
0
100
AcDbLine
10
-7.279871
20
-9.5212
30
0
11
-6.444226
21
-10.356846
31
0
39
0
210
0
220
0
230
1
0
LINE
5
90
100
AcDbEntity
8
1
62
256
6
ByLayer
370
18
48
1
60
0
100
AcDbLine
10
-4.663576
20
-6.904905
30
0
11
-3.827931
21
-7.74055
31
0
39
0
210
0
220
0
230
1
0
LINE
5
91
100
AcDbEntity
8
80
62
256
6
ByLayer
370
18
48
1
60
0
100
AcDbLine
10
0
20
0
30
0
11
-5
21
0
31
0
39
0
210
0
220
0
230
1
0
LINE
5
92
100
AcDbEntity
8
81
62
256
6
ByLayer
370
18
48
1
60
0
100
AcDbLine
10
-0.122277
20
-15.0625
30
0
11
9.877723
21
-15.0625
31
0
39
0
210
0
220
0
230
1
0
LINE
5
93
100
AcDbEntity
8
1
62
256
6
ByLayer
370
18
48
1
60
0
100
AcDbLine
10
-4.040066
20
-7.95268
30
0
11
-4.853785
21
-7.138961
31
0
39
0
210
0
220
0
230
1
0
LINE
5
94
100
AcDbEntity
8
1
62
256
6
ByLayer
370
18
48
1
60
0
100
AcDbLine
10
-6.444226
20
-10.356846
30
0
11
-6.243801
21
-10.557271
31
0
39
0
210
0
220
0
230
1
0
LINE
5
95
100
AcDbEntity
8
1
62
256
6
ByLayer
370
18
48
1
60
0
100
AcDbLine
10
-3.827931
20
-7.74055
30
0
11
-3.627506
21
-7.940975
31
0
39
0
210
0
220
0
230
1
0
LINE
5
96
100
AcDbEntity
8
1
62
256
6
ByLayer
370
18
48
1
60
0
100
AcDbLine
10
-6.232097
20
-10.144711
30
0
11
-7.045816
21
-9.330992
31
0
39
0
210
0
220
0
230
1
0
MTEXT
5
D1
100
AcDbEntity
8
SK6
62
256
6
ByLayer
370
13
48
1
60
0
100
AcDbMText
10
-102.706074
20
18.923222
30
0
210
0
220
0
230
1
1
\W0.7497;PRGCL 2020K 12
40
3.5
41
0
44
1.084337
50
0
71
7
72
5
7
iso_b_vert
0
DIMENSION
5
E3
100
AcDbEntity
8
SK2
62
256
6
ByLayer
370
13
48
1
60
0
100
AcDbDimension
2
DimnDraft3D1
10
-134.872277
20
9.9375
30
0
11
-134.872277
21
-0.0625
31
0
70
32
71
5
72
1
41
1
210
0
220
0
230
1
3
Standard
100
AcDbAlignedDimension
13
-126.709777
23
-10.0625
33
0
14
-126.709777
24
9.9375
34
0
50
90
100
AcDbRotatedDimension
1001
ACAD
1000
DSTYLE
1002
{
1070
    74
1070
     0
1070
   279
1070
     0
1070
   172
1070
     1
1070
   173
1070
     1
1070
   340
1005
D2
1070
   271
1070
     1
1070
   272
1070
     2
1070
    77
1070
     1
1070
    73
1070
     0
1070
   171
1070
     3
1070
   274
1070
     4
1070
   177
1070
   150
1070
   176
1070
     9
1070
   178
1070
    43
1070
    78
1070
     8
1070
    48
1040
-0.005
1070
    41
1041
3.175
1070
   147
1041
2.25
1070
    42
1041
1.5875
1070
    44
1041
3.175
1070
   140
1041
4.5
1070
   343
1005
E4
1070
   344
1005
E4
1002
}
0
DIMENSION
5
F9
100
AcDbEntity
8
2
62
256
6
ByLayer
370
13
48
1
60
0
100
AcDbDimension
2
DimnDraft3D2
10
17.727723
20
9.9375
30
0
11
17.727723
21
-2.7375
31
0
70
32
71
5
72
1
41
1
210
0
220
0
230
1
3
Standard
100
AcDbAlignedDimension
13
2.815223
23
-15.4125
33
0
14
-17.929779
24
9.9375
34
0
50
90
100
AcDbRotatedDimension
1001
ACAD
1000
DSTYLE
1002
{
1070
    74
1070
     0
1070
   279
1070
     0
1070
   172
1070
     1
1070
   173
1070
     1
1070
   340
1005
D2
1070
   271
1070
     1
1070
   272
1070
     2
1070
    77
1070
     1
1070
    73
1070
     0
1070
   171
1070
     3
1070
   274
1070
     4
1070
   177
1070
   150
1070
   176
1070
     9
1070
   178
1070
    43
1070
    78
1070
     8
1070
    48
1040
-0.005
1070
    41
1041
3.175
1070
   147
1041
2.25
1070
    42
1041
1.5875
1070
    44
1041
3.175
1070
   140
1041
4.5
1070
   343
1005
E4
1070
   344
1005
E4
1002
}
0
DIMENSION
5
107
100
AcDbEntity
8
SK2
62
256
6
ByLayer
370
13
48
1
60
0
100
AcDbDimension
2
DimnDraft3D3
10
1.227723
20
-41.9125
30
0
11
-61.947277
21
-41.9125
31
0
70
32
71
5
72
1
41
1
210
0
220
0
230
1
3
Standard
100
AcDbAlignedDimension
13
-125.122277
23
-11.65
33
0
14
1.227723
24
-17
34
0
50
0
100
AcDbRotatedDimension
1001
ACAD
1000
DSTYLE
1002
{
1070
   279
1070
     0
1070
   172
1070
     1
1070
   173
1070
     1
1070
   340
1005
D2
1070
   271
1070
     1
1070
   272
1070
     2
1070
    77
1070
     1
1070
    73
1070
     0
1070
   171
1070
     3
1070
   274
1070
     4
1070
   177
1070
   150
1070
   176
1070
     9
1070
   178
1070
    43
1070
    78
1070
     8
1070
    48
1040
-0.005
1070
    41
1041
3.175
1070
   147
1041
2.25
1070
    42
1041
1.5875
1070
    44
1041
3.175
1070
   140
1041
4.5
1070
   343
1005
E4
1070
   344
1005
E4
1002
}
0
ENDSEC
0
SECTION
2
OBJECTS
0
DICTIONARY
5
171
330
0
100
AcDbDictionary
280
0
281
1
3
ACAD_GROUP
350
172
3
ACAD_MLINESTYLE
350
173
0
DICTIONARY
5
172
330
0
100
AcDbDictionary
280
0
281
1
0
DICTIONARY
5
173
330
0
100
AcDbDictionary
280
0
281
1
3
Standard
350
18
0
MLINESTYLE
5
18
330
173
100
AcDbMlineStyle
2
Standard
70
0
3

62
256
51
90
52
90
71
2
49
-0.5
62
256
6
ByLayer
49
0.5
62
256
6
ByLayer
0
RASTERVARIABLES
5
160
330

100
AcDbRasterVariables
90
0
70
1
71
1
72
1
0
ENDSEC
0
EOF
