0
SECTION
2
HEADER
9
$ACADVER
1
AC1015
9
$DWGCODEPAGE
3
ANSI_1252
9
$HANDSEED
5
18a
9
$ANGBASE
50
0
9
$ANGDIR
70
0
9
$ATTMODE
70
1
9
$AUNITS
70
0
9
$AUPREC
70
0
9
$CECOLOR
62
256
9
$CELTSCALE
40
1
9
$CELTYPE
6
ByLayer
9
$CELWEIGHT
370
18
9
$CLAYER
8
0
9
$CMLJUST
70
0
9
$CMLSCALE
40
1
9
$CMLSTYLE
2
Standard
9
$DIMSTYLE
2
Standard
9
$TEXTSIZE
40
0.2
9
$TEXTSTYLE
7
Standard
9
$LUNITS
70
2
9
$LUPREC
70
4
9
$EXTNAMES
290
1
9
$INSUNITS
70
4
9
$LTSCALE
40
1
9
$LWDISPLAY
290
1
9
$PDMODE
70
0
9
$PDSIZE
40
0
9
$PLINEGEN
70
0
0
ENDSEC
0
SECTION
2
CLASSES
0
CLASS
1
RASTERVARIABLES
2
AcDbRasterVariables
3
ISM
90
0
280
0
281
0
0
ENDSEC
0
SECTION
2
TABLES
0
TABLE
2
VPORT
5
180
100
AcDbSymbolTable
0
VPORT
5
1
100
AcDbSymbolTableRecord
100
AcDbViewportTableRecord
2
*Active
70
0
10
0
20
0
11
1
21
1
12
-1
22
1
13
0
23
0
14
0.5
24
0.5
15
10
25
10
16
0
26
0
36
1
17
0
27
0
37
0
0
ENDTAB
0
TABLE
2
LTYPE
5
181
100
AcDbSymbolTable
0
LTYPE
5
14
100
AcDbSymbolTableRecord
100
AcDbLinetypeTableRecord
70
0
2
ByBlock
3

72
65
73
0
40
0
0
LTYPE
5
15
100
AcDbSymbolTableRecord
100
AcDbLinetypeTableRecord
70
0
2
ByLayer
3

72
65
73
0
40
0
0
LTYPE
5
16
100
AcDbSymbolTableRecord
100
AcDbLinetypeTableRecord
70
0
2
CONTINUOUS
3
Solid line
72
65
73
0
40
0
0
LTYPE
5
6A
100
AcDbSymbolTableRecord
100
AcDbLinetypeTableRecord
70
0
2
CENTER
3
____ _ ____ _ ____ _ ____
72
65
73
4
40
47.5
49
22
74
0
49
-8.5
74
0
49
8.5
74
0
49
-8.5
74
0
0
LTYPE
5
6B
100
AcDbSymbolTableRecord
100
AcDbLinetypeTableRecord
70
0
2
DASHED
3
__ __ __ __ __ __ __ __ __
72
65
73
2
40
25.72
49
12.86
74
0
49
-12.86
74
0
0
ENDTAB
0
TABLE
2
LAYER
5
182
100
AcDbSymbolTable
0
LAYER
5
10
100
AcDbSymbolTableRecord
100
AcDbLayerTableRecord
2
0
70
0
62
7
6
CONTINUOUS
290
1
370
-3
390
0
0
LAYER
5
6D
100
AcDbSymbolTableRecord
100
AcDbLayerTableRecord
2
80
70
0
62
-6
6
CONTINUOUS
290
1
370
-3
390
0
0
LAYER
5
6F
100
AcDbSymbolTableRecord
100
AcDbLayerTableRecord
2
81
70
0
62
-3
6
CONTINUOUS
290
1
370
-3
390
0
0
LAYER
5
71
100
AcDbSymbolTableRecord
100
AcDbLayerTableRecord
2
1
70
0
62
4
6
CONTINUOUS
290
1
370
-3
390
0
0
LAYER
5
EB
100
AcDbSymbolTableRecord
100
AcDbLayerTableRecord
2
2
70
0
62
7
6
CONTINUOUS
290
1
370
-3
390
0
0
LAYER
5
16d
100
AcDbSymbolTableRecord
100
AcDbLayerTableRecord
2
SK1
70
0
62
4
6
CONTINUOUS
290
1
370
-3
390
0
0
LAYER
5
16e
100
AcDbSymbolTableRecord
100
AcDbLayerTableRecord
2
SK6
70
0
62
5
6
CONTINUOUS
290
1
370
-3
390
0
0
LAYER
5
16f
100
AcDbSymbolTableRecord
100
AcDbLayerTableRecord
2
SK2
70
0
62
7
6
CONTINUOUS
290
1
370
-3
390
0
0
ENDTAB
0
TABLE
2
STYLE
5
183
100
AcDbSymbolTable
0
STYLE
5
11
100
AcDbSymbolTableRecord
100
AcDbTextStyleTableRecord
2
Standard
3
txt
70
0
71
0
40
0
41
1
42
0
50
0
0
STYLE
5
D0
100
AcDbSymbolTableRecord
100
AcDbTextStyleTableRecord
2
iso_b_vert
3
simplex.shx
70
0
71
0
40
0
41
1
42
0
50
0
0
STYLE
5
D1
100
AcDbSymbolTableRecord
100
AcDbTextStyleTableRecord
2
DWGDirectTextStyle
3
simplex
70
0
71
0
40
0
41
1
42
0
50
0
0
ENDTAB
0
TABLE
2
DIMSTYLE
5
184
100
AcDbSymbolTable
100
AcDbDimStyleTable
0
DIMSTYLE
105
27
100
AcDbSymbolTableRecord
100
AcDbDimStyleTableRecord
2
Standard
70
0
3
<>
41
0.18
42
0.0625
44
0.18
140
0.18
147
0.09
73
0
74
0
77
1
271
2
275
0
278
52
280
0
340
11
0
ENDTAB
0
TABLE
2
VIEW
5
185
100
AcDbSymbolTable
0
ENDTAB
0
TABLE
2
UCS
5
186
100
AcDbSymbolTable
0
ENDTAB
0
TABLE
2
APPID
5
187
100
AcDbSymbolTable
0
APPID
5
12
100
AcDbSymbolTableRecord
100
AcDbRegAppTableRecord
2
ACAD
70
0
0
ENDTAB
0
TABLE
2
BLOCK_RECORD
5
188
100
AcDbSymbolTable
0
BLOCK_RECORD
5
1F
100
AcDbSymbolTableRecord
100
AcDbBlockTableRecord
2
*Model_Space
340
0
70
0
0
BLOCK_RECORD
5
1B
100
AcDbSymbolTableRecord
100
AcDbBlockTableRecord
2
*Paper_Space
340
0
70
0
0
BLOCK_RECORD
5
23
100
AcDbSymbolTableRecord
100
AcDbBlockTableRecord
2
*Paper_Space0
340
0
70
0
0
BLOCK_RECORD
5
D3
100
AcDbSymbolTableRecord
100
AcDbBlockTableRecord
2
DimnDraft3D1
340
0
70
0
0
BLOCK_RECORD
5
E2
100
AcDbSymbolTableRecord
100
AcDbBlockTableRecord
2
_CLOSED
340
0
70
0
0
BLOCK_RECORD
5
E9
100
AcDbSymbolTableRecord
100
AcDbBlockTableRecord
2
DimnDraft3D2
340
0
70
0
0
BLOCK_RECORD
5
F8
100
AcDbSymbolTableRecord
100
AcDbBlockTableRecord
2
DimnDraft3D3
340
0
70
0
0
BLOCK_RECORD
5
106
100
AcDbSymbolTableRecord
100
AcDbBlockTableRecord
2
DimnDraft3D4
340
0
70
0
0
ENDTAB
0
ENDSEC
0
SECTION
2
BLOCKS
0
BLOCK
5
20
100
AcDbEntity
8
0
100
AcDbBlockBegin
2
*Model_Space
70
0
10
0
20
0
30
0
3
*Model_Space
0
ENDBLK
5
21
100
AcDbEntity
8
0
100
AcDbBlockEnd
0
BLOCK
5
1C
100
AcDbEntity
8
0
100
AcDbBlockBegin
2
*Paper_Space
70
0
10
0
20
0
30
0
3
*Paper_Space
0
ENDBLK
5
1D
100
AcDbEntity
8
0
100
AcDbBlockEnd
0
BLOCK
5
24
100
AcDbEntity
8
0
100
AcDbBlockBegin
2
*Paper_Space0
70
0
10
0
20
0
30
0
3
*Paper_Space0
0
ENDBLK
5
25
100
AcDbEntity
8
0
100
AcDbBlockEnd
0
BLOCK
5
DF
100
AcDbEntity
8
0
100
AcDbBlockBegin
2
DimnDraft3D1
70
0
10
0
20
0
30
0
3
DimnDraft3D1
0
MTEXT
5
D4
100
AcDbEntity
8
SK2
62
256
6
ByLayer
370
13
48
1
60
0
100
AcDbMText
10
-148.387846
20
-1.500658
30
0
210
0
220
0
230
1
1
\W0.6740;25
40
4.5
41
0
44
1.084337
50
90
71
7
72
5
7
iso_b_vert
0
LINE
5
D6
100
AcDbEntity
8
SK2
62
256
6
ByLayer
370
13
48
1
60
0
100
AcDbLine
10
-139.100346
20
12.5625
30
0
11
-150.437846
21
12.5625
31
0
39
0
210
0
220
0
230
1
0
LINE
5
D7
100
AcDbEntity
8
SK2
62
256
6
ByLayer
370
13
48
1
60
0
100
AcDbLine
10
-139.100346
20
-12.4375
30
0
11
-150.437846
21
-12.4375
31
0
39
0
210
0
220
0
230
1
0
LINE
5
D8
100
AcDbEntity
8
SK2
62
256
6
ByLayer
370
13
48
1
60
0
100
AcDbLine
10
-147.262846
20
12.5625
30
0
11
-147.262846
21
-12.4375
31
0
39
0
210
0
220
0
230
1
0
LINE
5
D9
100
AcDbEntity
8
SK2
62
256
6
ByLayer
370
13
48
1
60
0
100
AcDbLine
10
-147.262846
20
12.5625
30
0
11
-146.412107
21
9.387503
31
0
39
0
210
0
220
0
230
1
0
LINE
5
DA
100
AcDbEntity
8
SK2
62
256
6
ByLayer
370
13
48
1
60
0
100
AcDbLine
10
-147.262846
20
12.5625
30
0
11
-148.113584
21
9.387497
31
0
39
0
210
0
220
0
230
1
0
LINE
5
DB
100
AcDbEntity
8
SK2
62
256
6
ByLayer
370
13
48
1
60
0
100
AcDbLine
10
-146.412107
20
9.387503
30
0
11
-148.113584
21
9.387497
31
0
39
0
210
0
220
0
230
1
0
LINE
5
DC
100
AcDbEntity
8
SK2
62
256
6
ByLayer
370
13
48
1
60
0
100
AcDbLine
10
-147.262846
20
-12.4375
30
0
11
-148.113584
21
-9.262503
31
0
39
0
210
0
220
0
230
1
0
LINE
5
DD
100
AcDbEntity
8
SK2
62
256
6
ByLayer
370
13
48
1
60
0
100
AcDbLine
10
-147.262846
20
-12.4375
30
0
11
-146.412107
21
-9.262497
31
0
39
0
210
0
220
0
230
1
0
LINE
5
DE
100
AcDbEntity
8
SK2
62
256
6
ByLayer
370
13
48
1
60
0
100
AcDbLine
10
-148.113584
20
-9.262503
30
0
11
-146.412107
21
-9.262497
31
0
39
0
210
0
220
0
230
1
0
ENDBLK
5
E0
100
AcDbEntity
8
0
100
AcDbBlockEnd
0
BLOCK
5
E3
100
AcDbEntity
8
0
100
AcDbBlockBegin
2
_CLOSED
70
0
10
0
20
0
30
0
3
_CLOSED
0
LINE
5
E5
100
AcDbEntity
8
0
62
256
6
ByLayer
370
-2
48
1
60
0
100
AcDbLine
10
-1
20
0.166667
30
0
11
0
21
0
31
0
39
0
210
0
220
0
230
1
0
LINE
5
E6
100
AcDbEntity
8
0
62
256
6
ByLayer
370
-2
48
1
60
0
100
AcDbLine
10
0
20
0
30
0
11
-1
21
-0.166667
31
0
39
0
210
0
220
0
230
1
0
LINE
5
E7
100
AcDbEntity
8
0
62
256
6
ByLayer
370
-2
48
1
60
0
100
AcDbLine
10
-1
20
0.166667
30
0
11
-1
21
-0.166667
31
0
39
0
210
0
220
0
230
1
0
LINE
5
E8
100
AcDbEntity
8
0
62
256
6
ByLayer
370
-2
48
1
60
0
100
AcDbLine
10
0
20
0
30
0
11
-1
21
0
31
0
39
0
210
0
220
0
230
1
0
ENDBLK
5
E4
100
AcDbEntity
8
0
100
AcDbBlockEnd
0
BLOCK
5
F5
100
AcDbEntity
8
0
100
AcDbBlockBegin
2
DimnDraft3D2
70
0
10
0
20
0
30
0
3
DimnDraft3D2
0
MTEXT
5
EA
100
AcDbEntity
8
2
62
256
6
ByLayer
370
13
48
1
60
0
100
AcDbMText
10
49.212154
20
-6.781579
30
0
210
0
220
0
230
1
1
\W0.6563;18.5
40
4.5
41
0
44
1.084337
50
90
71
7
72
5
7
iso_b_vert
0
LINE
5
EC
100
AcDbEntity
8
2
62
256
6
ByLayer
370
13
48
1
60
0
100
AcDbLine
10
1.667736
20
-12.4375
30
0
11
53.512154
21
-12.4375
31
0
39
0
210
0
220
0
230
1
0
LINE
5
ED
100
AcDbEntity
8
2
62
256
6
ByLayer
370
13
48
1
60
0
100
AcDbLine
10
35.424654
20
6.0625
30
0
11
53.512154
21
6.0625
31
0
39
0
210
0
220
0
230
1
0
LINE
5
EE
100
AcDbEntity
8
2
62
256
6
ByLayer
370
13
48
1
60
0
100
AcDbLine
10
50.337154
20
-12.4375
30
0
11
50.337154
21
6.0625
31
0
39
0
210
0
220
0
230
1
0
LINE
5
EF
100
AcDbEntity
8
2
62
256
6
ByLayer
370
13
48
1
60
0
100
AcDbLine
10
50.337154
20
-12.4375
30
0
11
49.486416
21
-9.262503
31
0
39
0
210
0
220
0
230
1
0
LINE
5
F0
100
AcDbEntity
8
2
62
256
6
ByLayer
370
13
48
1
60
0
100
AcDbLine
10
50.337154
20
-12.4375
30
0
11
51.187893
21
-9.262497
31
0
39
0
210
0
220
0
230
1
0
LINE
5
F1
100
AcDbEntity
8
2
62
256
6
ByLayer
370
13
48
1
60
0
100
AcDbLine
10
49.486416
20
-9.262503
30
0
11
51.187893
21
-9.262497
31
0
39
0
210
0
220
0
230
1
0
LINE
5
F2
100
AcDbEntity
8
2
62
256
6
ByLayer
370
13
48
1
60
0
100
AcDbLine
10
50.337154
20
6.0625
30
0
11
51.187893
21
2.887503
31
0
39
0
210
0
220
0
230
1
0
LINE
5
F3
100
AcDbEntity
8
2
62
256
6
ByLayer
370
13
48
1
60
0
100
AcDbLine
10
50.337154
20
6.0625
30
0
11
49.486416
21
2.887497
31
0
39
0
210
0
220
0
230
1
0
LINE
5
F4
100
AcDbEntity
8
2
62
256
6
ByLayer
370
13
48
1
60
0
100
AcDbLine
10
51.187893
20
2.887503
30
0
11
49.486416
21
2.887497
31
0
39
0
210
0
220
0
230
1
0
ENDBLK
5
F6
100
AcDbEntity
8
0
100
AcDbBlockEnd
0
BLOCK
5
103
100
AcDbEntity
8
0
100
AcDbBlockBegin
2
DimnDraft3D3
70
0
10
0
20
0
30
0
3
DimnDraft3D3
0
MTEXT
5
F9
100
AcDbEntity
8
SK2
62
256
6
ByLayer
370
13
48
1
60
0
100
AcDbMText
10
-54.520083
20
31.1875
30
0
210
0
220
0
230
1
1
\W0.6217;170
40
4.5
41
0
44
1.084337
50
0
71
7
72
5
7
iso_b_vert
0
LINE
5
FA
100
AcDbEntity
8
SK2
62
256
6
ByLayer
370
13
48
1
60
0
100
AcDbLine
10
-137.512846
20
14.15
30
0
11
-137.512846
21
33.2375
31
0
39
0
210
0
220
0
230
1
0
LINE
5
FB
100
AcDbEntity
8
SK2
62
256
6
ByLayer
370
13
48
1
60
0
100
AcDbLine
10
33.837154
20
7.65
30
0
11
33.837154
21
33.2375
31
0
39
0
210
0
220
0
230
1
0
LINE
5
FC
100
AcDbEntity
8
SK2
62
256
6
ByLayer
370
13
48
1
60
0
100
AcDbLine
10
-137.512846
20
30.0625
30
0
11
33.837154
21
30.0625
31
0
39
0
210
0
220
0
230
1
0
LINE
5
FD
100
AcDbEntity
8
SK2
62
256
6
ByLayer
370
13
48
1
60
0
100
AcDbLine
10
-137.512846
20
30.0625
30
0
11
-134.337849
21
30.913239
31
0
39
0
210
0
220
0
230
1
0
LINE
5
FE
100
AcDbEntity
8
SK2
62
256
6
ByLayer
370
13
48
1
60
0
100
AcDbLine
10
-137.512846
20
30.0625
30
0
11
-134.337843
21
29.211761
31
0
39
0
210
0
220
0
230
1
0
LINE
5
FF
100
AcDbEntity
8
SK2
62
256
6
ByLayer
370
13
48
1
60
0
100
AcDbLine
10
-134.337849
20
30.913239
30
0
11
-134.337843
21
29.211761
31
0
39
0
210
0
220
0
230
1
0
LINE
5
100
100
AcDbEntity
8
SK2
62
256
6
ByLayer
370
13
48
1
60
0
100
AcDbLine
10
33.837154
20
30.0625
30
0
11
30.662157
21
29.211761
31
0
39
0
210
0
220
0
230
1
0
LINE
5
101
100
AcDbEntity
8
SK2
62
256
6
ByLayer
370
13
48
1
60
0
100
AcDbLine
10
33.837154
20
30.0625
30
0
11
30.662151
21
30.913239
31
0
39
0
210
0
220
0
230
1
0
LINE
5
102
100
AcDbEntity
8
SK2
62
256
6
ByLayer
370
13
48
1
60
0
100
AcDbLine
10
30.662157
20
29.211761
30
0
11
30.662151
21
30.913239
31
0
39
0
210
0
220
0
230
1
0
ENDBLK
5
104
100
AcDbEntity
8
0
100
AcDbBlockEnd
0
BLOCK
5
111
100
AcDbEntity
8
0
100
AcDbBlockBegin
2
DimnDraft3D4
70
0
10
0
20
0
30
0
3
DimnDraft3D4
0
MTEXT
5
107
100
AcDbEntity
8
2
62
256
6
ByLayer
370
13
48
1
60
0
100
AcDbMText
10
18.273996
20
21.1875
30
0
210
0
220
0
230
1
1
\W0.6740;28
40
4.5
41
0
44
1.084337
50
0
71
7
72
5
7
iso_b_vert
0
LINE
5
108
100
AcDbEntity
8
2
62
256
6
ByLayer
370
13
48
1
60
0
100
AcDbLine
10
5.837154
20
7.65
30
0
11
5.837154
21
23.2375
31
0
39
0
210
0
220
0
230
1
0
LINE
5
109
100
AcDbEntity
8
2
62
256
6
ByLayer
370
13
48
1
60
0
100
AcDbLine
10
33.837154
20
7.65
30
0
11
33.837154
21
23.2375
31
0
39
0
210
0
220
0
230
1
0
LINE
5
10A
100
AcDbEntity
8
2
62
256
6
ByLayer
370
13
48
1
60
0
100
AcDbLine
10
5.837154
20
20.0625
30
0
11
33.837154
21
20.0625
31
0
39
0
210
0
220
0
230
1
0
LINE
5
10B
100
AcDbEntity
8
2
62
256
6
ByLayer
370
13
48
1
60
0
100
AcDbLine
10
5.837154
20
20.0625
30
0
11
9.012151
21
20.913239
31
0
39
0
210
0
220
0
230
1
0
LINE
5
10C
100
AcDbEntity
8
2
62
256
6
ByLayer
370
13
48
1
60
0
100
AcDbLine
10
5.837154
20
20.0625
30
0
11
9.012157
21
19.211761
31
0
39
0
210
0
220
0
230
1
0
LINE
5
10D
100
AcDbEntity
8
2
62
256
6
ByLayer
370
13
48
1
60
0
100
AcDbLine
10
9.012151
20
20.913239
30
0
11
9.012157
21
19.211761
31
0
39
0
210
0
220
0
230
1
0
LINE
5
10E
100
AcDbEntity
8
2
62
256
6
ByLayer
370
13
48
1
60
0
100
AcDbLine
10
33.837154
20
20.0625
30
0
11
30.662157
21
19.211761
31
0
39
0
210
0
220
0
230
1
0
LINE
5
10F
100
AcDbEntity
8
2
62
256
6
ByLayer
370
13
48
1
60
0
100
AcDbLine
10
33.837154
20
20.0625
30
0
11
30.662151
21
20.913239
31
0
39
0
210
0
220
0
230
1
0
LINE
5
110
100
AcDbEntity
8
2
62
256
6
ByLayer
370
13
48
1
60
0
100
AcDbLine
10
30.662157
20
19.211761
30
0
11
30.662151
21
20.913239
31
0
39
0
210
0
220
0
230
1
0
ENDBLK
5
112
100
AcDbEntity
8
0
100
AcDbBlockEnd
0
ENDSEC
0
SECTION
2
ENTITIES
0
ARC
5
9A
100
AcDbEntity
8
1
62
256
6
ByLayer
370
18
48
1
60
0
100
AcDbCircle
39
0
10
26.197154
20
0.062519
30
0
40
4.5
210
0
220
0
230
1
100
AcDbArc
50
152.233515
51
207.766482
0
ARC
5
9B
100
AcDbEntity
8
1
62
256
6
ByLayer
370
18
48
1
60
0
100
AcDbCircle
39
0
10
-10.320125
20
14.962519
30
0
40
10.2
210
0
220
0
230
-1
100
AcDbArc
50
270
51
330
0
ARC
5
9D
100
AcDbEntity
8
1
62
256
6
ByLayer
370
18
48
1
60
0
100
AcDbCircle
39
0
10
-10.320125
20
-14.837481
30
0
40
10.2
210
0
220
0
230
-1
100
AcDbArc
50
30
51
90
0
ARC
5
9E
100
AcDbEntity
8
1
62
256
6
ByLayer
370
18
48
1
60
0
100
AcDbCircle
39
0
10
-27.837154
20
0.062519
30
0
40
2.1
210
0
220
0
230
-1
100
AcDbArc
50
179.999988
51
298.119358
0
ARC
5
9F
100
AcDbEntity
8
1
62
256
6
ByLayer
370
18
48
1
60
0
100
AcDbCircle
39
0
10
-27.837154
20
0.062519
30
0
40
2.1
210
0
220
0
230
-1
100
AcDbArc
50
61.756887
51
180.000016
0
ARC
5
A2
100
AcDbEntity
8
1
62
256
6
ByLayer
370
18
48
1
60
0
100
AcDbCircle
39
0
10
27.837154
20
0.062519
30
0
40
2.275
210
0
220
0
230
1
100
AcDbArc
50
137.053224
51
222.946776
0
ARC
5
A3
100
AcDbEntity
8
1
62
256
6
ByLayer
370
18
48
1
60
0
100
AcDbCircle
39
0
10
-27.837154
20
0.062519
30
0
40
1.85
210
0
220
0
230
-1
100
AcDbArc
50
90
51
270
0
ARC
5
A4
100
AcDbEntity
8
1
62
256
6
ByLayer
370
18
48
1
60
0
100
AcDbCircle
39
0
10
15.037154
20
0.062519
30
0
40
1.295
210
0
220
0
230
1
100
AcDbArc
50
102.612611
51
137.387389
0
ARC
5
A5
100
AcDbEntity
8
1
62
256
6
ByLayer
370
18
48
1
60
0
100
AcDbCircle
39
0
10
15.037154
20
0.062519
30
0
40
1.295
210
0
220
0
230
1
100
AcDbArc
50
162.612611
51
197.387389
0
ARC
5
A8
100
AcDbEntity
8
1
62
256
6
ByLayer
370
18
48
1
60
0
100
AcDbCircle
39
0
10
15.037154
20
0.062519
30
0
40
1.295
210
0
220
0
230
1
100
AcDbArc
50
257.387389
51
282.612611
0
ARC
5
A9
100
AcDbEntity
8
1
62
256
6
ByLayer
370
18
48
1
60
0
100
AcDbCircle
39
0
10
15.037154
20
0.062519
30
0
40
1.295
210
0
220
0
230
1
100
AcDbArc
50
222.612611
51
257.387389
0
ARC
5
AA
100
AcDbEntity
8
1
62
256
6
ByLayer
370
18
48
1
60
0
100
AcDbCircle
39
0
10
15.037154
20
0.062519
30
0
40
1.295
210
0
220
0
230
1
100
AcDbArc
50
137.387389
51
162.612611
0
ARC
5
AB
100
AcDbEntity
8
1
62
256
6
ByLayer
370
18
48
1
60
0
100
AcDbCircle
39
0
10
15.037154
20
0.062519
30
0
40
1.295
210
0
220
0
230
1
100
AcDbArc
50
342.612611
51
17.387389
0
ARC
5
AC
100
AcDbEntity
8
1
62
256
6
ByLayer
370
18
48
1
60
0
100
AcDbCircle
39
0
10
15.037154
20
0.062519
30
0
40
1.295
210
0
220
0
230
1
100
AcDbArc
50
282.612611
51
317.387389
0
ARC
5
AD
100
AcDbEntity
8
1
62
256
6
ByLayer
370
18
48
1
60
0
100
AcDbCircle
39
0
10
15.037154
20
0.062519
30
0
40
1.295
210
0
220
0
230
1
100
AcDbArc
50
17.387389
51
42.612611
0
ARC
5
AE
100
AcDbEntity
8
1
62
256
6
ByLayer
370
18
48
1
60
0
100
AcDbCircle
39
0
10
15.037154
20
0.062519
30
0
40
1.295
210
0
220
0
230
1
100
AcDbArc
50
42.612611
51
77.387389
0
ARC
5
AF
100
AcDbEntity
8
1
62
256
6
ByLayer
370
18
48
1
60
0
100
AcDbCircle
39
0
10
15.037154
20
0.062519
30
0
40
1.295
210
0
220
0
230
1
100
AcDbArc
50
77.387389
51
102.612611
0
ARC
5
B0
100
AcDbEntity
8
1
62
256
6
ByLayer
370
18
48
1
60
0
100
AcDbCircle
39
0
10
15.037154
20
0.062519
30
0
40
1.295
210
0
220
0
230
1
100
AcDbArc
50
317.387389
51
342.612611
0
ARC
5
B1
100
AcDbEntity
8
1
62
256
6
ByLayer
370
18
48
1
60
0
100
AcDbCircle
39
0
10
15.037154
20
0.062519
30
0
40
1.295
210
0
220
0
230
1
100
AcDbArc
50
197.387389
51
222.612611
0
CIRCLE
5
9C
100
AcDbEntity
8
1
62
256
6
ByLayer
370
18
48
1
60
0
100
AcDbCircle
10
-15.137154
20
0.062519
30
0
40
2.5
39
0
210
0
220
0
230
-1
0
CIRCLE
5
A0
100
AcDbEntity
8
1
62
256
6
ByLayer
370
18
48
1
60
0
100
AcDbCircle
10
-27.837154
20
0.062519
30
0
40
2.67526677456137
39
0
210
0
220
0
230
-1
0
CIRCLE
5
A1
100
AcDbEntity
8
1
62
256
6
ByLayer
370
18
48
1
60
0
100
AcDbCircle
10
27.837154
20
0.062519
30
0
40
6
39
0
210
0
220
0
230
1
0
CIRCLE
5
A6
100
AcDbEntity
8
1
62
256
6
ByLayer
370
18
48
1
60
0
100
AcDbCircle
10
-15.037154
20
0.062519
30
0
40
2.235
39
0
210
0
220
0
230
-1
0
CIRCLE
5
A7
100
AcDbEntity
8
1
62
256
6
ByLayer
370
18
48
1
60
0
100
AcDbCircle
10
-15.037154
20
0.062519
30
0
40
1.66739092362731
39
0
210
0
220
0
230
-1
0
ELLIPSE
5
B2
100
AcDbEntity
8
1
62
256
6
ByLayer
370
18
48
1
60
0
100
AcDbEllipse
10
27.837154
20
0.062519
30
0
11
0.0521629184627148
21
-1.84926448228377
31
0
210
0
220
0
230
-1
40
1
41
3.1093252405196
42
-3.1133927445946
0
ELLIPSE
5
B3
100
AcDbEntity
8
1
62
256
6
ByLayer
370
18
48
1
60
0
100
AcDbEllipse
10
27.837154
20
0.062519
30
0
11
0.0521629184627151
21
1.84926448228377
31
0
210
0
220
0
230
-1
40
1
41
3.1133927445946
42
-3.10932524051961
0
POINT
5
6C
100
AcDbEntity
8
80
62
256
6
ByLayer
370
18
48
1
60
0
100
AcDbPoint
10
0
20
0
30
0
39
0
210
0
220
0
230
1
50
360
0
POINT
5
6E
100
AcDbEntity
8
81
62
256
6
ByLayer
370
18
48
1
60
0
100
AcDbPoint
10
32.487154
20
2.5478
30
0
39
0
210
0
220
0
230
1
50
360
0
POINT
5
70
100
AcDbEntity
8
1
62
256
6
ByLayer
370
18
48
1
60
0
100
AcDbPoint
10
-137.512846
20
-12.4375
30
0
39
0
210
0
220
0
230
1
50
360
0
SPLINE
5
B4
100
AcDbEntity
8
1
62
256
6
ByLayer
370
18
48
1
60
0
100
AcDbSpline
70
4
71
3
72
8
73
4
40
0
40
0
40
0
40
0
40
1
40
1
40
1
40
1
41
1
10
26.0685523506634
20
1.8572261402355
30
0
41
1
10
26.1020683583825
20
1.77546233706616
30
0
41
1
10
26.1364611207885
20
1.69388243859964
30
0
41
1
10
26.171884058517
20
1.6125186257608
30
0
0
SPLINE
5
B5
100
AcDbEntity
8
1
62
256
6
ByLayer
370
18
48
1
60
0
100
AcDbSpline
70
4
71
3
72
8
73
4
40
0
40
0
40
0
40
0
40
1
40
1
40
1
40
1
41
1
10
26.0685523506634
20
-1.73218888871384
30
0
41
1
10
26.1020683583825
20
-1.65042508554456
30
0
41
1
10
26.1364611207885
20
-1.56884518707801
30
0
41
1
10
26.171884058517
20
-1.4874813742392
30
0
0
SPLINE
5
B6
100
AcDbEntity
8
1
62
256
6
ByLayer
370
18
48
1
60
0
100
AcDbSpline
70
4
71
3
72
8
73
4
40
0
40
0
40
0
40
0
40
1
40
1
40
1
40
1
41
1
10
27.8371543068562
20
-1.78748137423921
30
0
41
1
10
27.7787294017456
20
-1.78748137423921
30
0
41
1
10
27.7199337094534
20
-1.78748137423921
30
0
41
1
10
27.6610283068562
20
-1.78748137423921
30
0
0
SPLINE
5
B7
100
AcDbEntity
8
1
62
256
6
ByLayer
370
18
48
1
60
0
100
AcDbSpline
70
4
71
3
72
8
73
4
40
0
40
0
40
0
40
0
40
1
40
1
40
1
40
1
41
1
10
27.507370114447
20
2.15251862576079
30
0
41
1
10
27.416110783246
20
2.11748745065134
30
0
41
1
10
27.3248706907268
20
2.08246366057989
30
0
41
1
10
27.2336032558594
20
2.04742937476431
30
0
0
SPLINE
5
B8
100
AcDbEntity
8
1
62
256
6
ByLayer
370
18
48
1
60
0
100
AcDbSpline
70
4
71
3
72
8
73
4
40
0
40
0
40
0
40
0
40
1
40
1
40
1
40
1
41
1
10
26.9519180049349
20
1.93930053773454
30
0
41
1
10
26.9286599200776
20
1.93037259543399
30
0
41
1
10
26.9054032190386
20
1.92144518433156
30
0
41
1
10
26.8821487389205
20
1.91251862576081
30
0
0
SPLINE
5
B9
100
AcDbEntity
8
1
62
256
6
ByLayer
370
18
48
1
60
0
100
AcDbSpline
70
4
71
3
72
8
73
4
40
0
40
0
40
0
40
0
40
1
40
1
40
1
40
1
41
1
10
27.8371543068562
20
1.91251862576081
30
0
41
1
10
27.7787294017456
20
1.91251862576084
30
0
41
1
10
27.7199337094534
20
1.91251862576084
30
0
41
1
10
27.6610283068562
20
1.91251862576084
30
0
0
SPLINE
5
BA
100
AcDbEntity
8
1
62
256
6
ByLayer
370
18
48
1
60
0
100
AcDbSpline
70
4
71
1
72
4
73
2
40
0
40
0
40
1
40
1
41
1
10
27.3226582759581
20
1.91284996623756
30
0
41
1
10
27.3226586492601
20
1.61279623528577
30
0
0
SPLINE
5
BB
100
AcDbEntity
8
1
62
256
6
ByLayer
370
18
48
1
60
0
100
AcDbSpline
70
4
71
3
72
8
73
4
40
0
40
0
40
0
40
0
40
1
40
1
40
1
40
1
41
1
10
27.7253579161297
20
-1.78410032979568
30
0
41
1
10
27.6854217535445
20
-1.78637010833307
30
0
41
1
10
27.6456713497103
20
-1.78748137423921
30
0
41
1
10
27.606104291919
20
-1.78748137423921
30
0
0
SPLINE
5
BC
100
AcDbEntity
8
1
62
256
6
ByLayer
370
18
48
1
60
0
100
AcDbSpline
70
4
71
1
72
4
73
2
40
0
40
0
40
1
40
1
41
1
10
27.3226605645798
20
-1.78764704574658
30
0
41
1
10
27.322656722344
20
-1.48762017878869
30
0
0
SPLINE
5
BD
100
AcDbEntity
8
1
62
256
6
ByLayer
370
18
48
1
60
0
100
AcDbSpline
70
4
71
3
72
10
73
6
40
0
40
0
40
0
40
0
40
0.524986101475674
40
0.524986101475674
40
1
40
1
40
1
40
1
41
1
10
28.8965718859344
20
0.0625186257608163
30
0
41
1
10
28.8985904342038
20
-0.364279989390667
30
0
41
1
10
28.7092788602427
20
-0.785966911528135
30
0
41
1
10
28.103079776106
20
-1.33781838249473
30
0
41
1
10
27.7140361156498
20
-1.48784576042968
30
0
41
1
10
27.322656722344
20
-1.48775898333815
30
0
0
SPLINE
5
BE
100
AcDbEntity
8
1
62
256
6
ByLayer
370
18
48
1
60
0
100
AcDbSpline
70
4
71
3
72
47
73
43
40
0
40
0
40
0
40
0
40
0.0226981072663048
40
0.045010658285431
40
0.0669376651818814
40
0.0884791408690302
40
0.109635099104175
40
0.130405554548692
40
0.15079052283387
40
0.170790020633089
40
0.190404065741074
40
0.209632677161092
40
0.228475875201047
40
0.246933681579599
40
0.265006119543582
40
0.282693213998194
40
0.29999499165166
40
0.316911481176351
40
0.333442713388637
40
0.349588721450168
40
0.365349541093704
40
0.380725210877179
40
0.395715772470329
40
0.41032127097904
40
0.424541755313494
40
0.43837727860743
40
0.451827898697235
40
0.464893678671423
40
0.47757468750325
40
0.489871000782008
40
0.50178270156202
40
0.549781102591335
40
0.597226932719817
40
0.644123721186102
40
0.690475122980841
40
0.736284923976387
40
0.781557046257837
40
0.826295553659344
40
0.870504657508971
40
0.914188722584628
40
0.957352273282715
40
1
40
1
40
1
40
1
41
1
10
27.3226605645926
20
1.91251862576081
30
0
41
1
10
27.3447561671481
20
1.91229506272515
30
0
41
1
10
27.3885720503214
20
1.91185173415664
30
0
41
1
10
27.4536517586012
20
1.90831283618147
30
0
41
1
10
27.5174537768805
20
1.90280884942044
30
0
41
1
10
27.5799147343904
20
1.89525511175805
30
0
41
1
10
27.6409789799232
20
1.88582454894396
30
0
41
1
10
27.7005980746712
20
1.87462206771926
30
0
41
1
10
27.7587305373514
20
1.86176905986713
30
0
41
1
10
27.8153415130176
20
1.84738094515325
30
0
41
1
10
27.8704024540292
20
1.83157264665303
30
0
41
1
10
27.9238907926504
20
1.81445682297596
30
0
41
1
10
27.9757896129774
20
1.79614402362154
30
0
41
1
10
28.0260873223423
20
1.77674237831178
30
0
41
1
10
28.0747773241225
20
1.75635744079523
30
0
41
1
10
28.1218576932371
20
1.73509202409909
30
0
41
1
10
28.1673308556044
20
1.71304606801766
30
0
41
1
10
28.2112032726681
20
1.69031652660499
30
0
41
1
10
28.2534851319776
20
1.66699727720584
30
0
41
1
10
28.2941900446917
20
1.64317904897945
30
0
41
1
10
28.3333347507377
20
1.61894936981452
30
0
41
1
10
28.3709388323237
20
1.59439253027801
30
0
41
1
10
28.4070244361361
20
1.56958956342768
30
0
41
1
10
28.4416160053989
20
1.54461823895028
30
0
41
1
10
28.4747400195096
20
1.51955307147316
30
0
41
1
10
28.5064247509777
20
1.49446533808097
30
0
41
1
10
28.5367000059749
20
1.46942311747941
30
0
41
1
10
28.5655969698801
20
1.44449130109746
30
0
41
1
10
28.5931477244472
20
1.41973174880707
30
0
41
1
10
28.6193859838418
20
1.39520296803389
30
0
41
1
10
28.6698151268055
20
1.3462207906523
30
0
41
1
10
28.741353535819
20
1.26986114480593
30
0
41
1
10
28.8283203906891
20
1.16179728170314
30
0
41
1
10
28.9061020965979
20
1.04887956565179
30
0
41
1
10
28.9745504397489
20
0.93191555549484
30
0
41
1
10
29.0335888740102
20
0.811691043256644
30
0
41
1
10
29.0832082726059
20
0.688974535295699
30
0
41
1
10
29.1234388777816
20
0.564510184750759
30
0
41
1
10
29.1544412250395
20
0.439014431923482
30
0
41
1
10
29.1761513213872
20
0.313172409611639
30
0
41
1
10
29.1895614892412
20
0.187634836670441
30
0
41
1
10
29.1911999205883
20
0.104056562371824
30
0
41
1
10
29.1920142118381
20
0.0625186257607879
30
0
0
SPLINE
5
BF
100
AcDbEntity
8
1
62
256
6
ByLayer
370
18
48
1
60
0
100
AcDbSpline
70
4
71
2
72
10
73
7
40
0
40
0
40
0
40
0.25
40
0.25
40
0.5
40
0.75
40
1
40
1
40
1
41
1
10
28.8965718859344
20
0.0625186257607879
30
0
41
1
10
28.8978995377045
20
0.3662630569317
30
0
41
1
10
28.7760301588086
20
0.65507006100475
30
0
41
1
10
28.6551588789628
20
0.941511762168602
30
0
41
1
10
28.2172948593959
20
1.37416773589427
30
0
41
1
10
27.6325581840188
20
1.61275986000703
30
0
41
1
10
27.322656722344
20
1.61279623485976
30
0
0
SPLINE
5
C0
100
AcDbEntity
8
1
62
256
6
ByLayer
370
18
48
1
60
0
100
AcDbSpline
70
4
71
1
72
4
73
2
40
0
40
0
40
1
40
1
41
1
10
29.1920142118381
20
0.0625186257608163
30
0
41
1
10
28.8965718859344
20
0.0625186257608163
30
0
0
SPLINE
5
C1
100
AcDbEntity
8
1
62
256
6
ByLayer
370
18
48
1
60
0
100
AcDbSpline
70
4
71
3
72
8
73
4
40
0
40
0
40
0
40
0
40
1
40
1
40
1
40
1
41
1
10
27.7253579161297
20
1.90913758131728
30
0
41
1
10
27.6854217535445
20
1.91140735985468
30
0
41
1
10
27.6456713497103
20
1.91251862576081
30
0
41
1
10
27.606104291919
20
1.91251862576081
30
0
0
SPLINE
5
C2
100
AcDbEntity
8
1
62
256
6
ByLayer
370
18
48
1
60
0
100
AcDbSpline
70
4
71
3
72
10
73
6
40
0
40
0
40
0
40
0
40
0.475013080005998
40
0.475013080005998
40
1
40
1
40
1
40
1
41
1
10
27.3226605645798
20
-1.78781271522152
30
0
41
1
10
27.7875050961163
20
-1.78791511184261
30
0
41
1
10
28.249575080531
20
-1.60885032769573
30
0
41
1
10
28.9695640056648
20
-0.950189915657035
30
0
41
1
10
29.1944116662219
20
-0.446886172968362
30
0
41
1
10
29.1920142118381
20
0.0625186257608163
30
0
0
SPLINE
5
C3
100
AcDbEntity
8
1
62
256
6
ByLayer
370
18
48
1
60
0
100
AcDbSpline
70
4
71
3
72
10
73
6
40
0
40
0
40
0
40
0
40
0.5
40
0.5
40
1
40
1
40
1
40
1
41
1
10
14.7543806562096
20
-1.2012313742392
30
0
41
1
10
14.6787091956347
20
-1.2012313742392
30
0
41
1
10
14.6028452954554
20
-1.2012313742392
30
0
41
1
10
14.4538621155977
20
-1.2012313742392
30
0
41
1
10
14.3803308499811
20
-1.2012313742392
30
0
41
1
10
14.3075279041678
20
-1.2012313742392
30
0
0
SPLINE
5
C4
100
AcDbEntity
8
1
62
256
6
ByLayer
370
18
48
1
60
0
100
AcDbSpline
70
4
71
3
72
10
73
6
40
0
40
0
40
0
40
0
40
0.5
40
0.5
40
1
40
1
40
1
40
1
41
1
10
16.496407112233
20
0.0625186257607879
30
0
41
1
10
16.4597308969417
20
0.126043694074696
30
0
41
1
10
16.4225130821888
20
0.190506840173327
30
0
41
1
10
16.3479280460688
20
0.319691912217507
30
0
41
1
10
16.3105218411762
20
0.384481359609765
30
0
41
1
10
16.2729807362121
20
0.449504460779991
30
0
0
SPLINE
5
C5
100
AcDbEntity
8
1
62
256
6
ByLayer
370
18
48
1
60
0
100
AcDbSpline
70
4
71
3
72
10
73
6
40
0
40
0
40
0
40
0
40
0.5
40
0.5
40
1
40
1
40
1
40
1
41
1
10
15.7667807095446
20
-1.2012313742392
30
0
41
1
10
15.8034569248359
20
-1.13770630592529
30
0
41
1
10
15.8406747395887
20
-1.07324315982669
30
0
41
1
10
15.9152597757088
20
-0.94405808778248
30
0
41
1
10
15.9526659806013
20
-0.879268640390222
30
0
41
1
10
15.9902070855655
20
-0.814245539219996
30
0
0
SPLINE
5
C6
100
AcDbEntity
8
1
62
256
6
ByLayer
370
18
48
1
60
0
100
AcDbSpline
70
4
71
3
72
10
73
6
40
0
40
0
40
0
40
0
40
0.5
40
0.5
40
1
40
1
40
1
40
1
41
1
10
13.5779015014794
20
0.0625186257607879
30
0
41
1
10
13.6145777167707
20
-0.0010064425530913
30
0
41
1
10
13.6517955315236
20
-0.0654695886517231
30
0
41
1
10
13.7263805676436
20
-0.194654660695903
30
0
41
1
10
13.7637867725362
20
-0.259444108088161
30
0
41
1
10
13.8013278775003
20
-0.324467209258387
30
0
0
SPLINE
5
C7
100
AcDbEntity
8
1
62
256
6
ByLayer
370
18
48
1
60
0
100
AcDbSpline
70
4
71
3
72
10
73
6
40
0
40
0
40
0
40
0
40
0.5
40
0.5
40
1
40
1
40
1
40
1
41
1
10
14.7543806562096
20
1.3262686257608
30
0
41
1
10
14.6787091956347
20
1.3262686257608
30
0
41
1
10
14.6028452954554
20
1.3262686257608
30
0
41
1
10
14.4538621155977
20
1.3262686257608
30
0
41
1
10
14.3803308499811
20
1.3262686257608
30
0
41
1
10
14.3075279041678
20
1.3262686257608
30
0
0
SPLINE
5
C8
100
AcDbEntity
8
1
62
256
6
ByLayer
370
18
48
1
60
0
100
AcDbSpline
70
4
71
3
72
8
73
4
40
0
40
0
40
0
40
0
40
1
40
1
40
1
40
1
41
1
10
15.7667807095446
20
1.3262686257608
30
0
41
1
10
15.6207323254067
20
1.3262686257608
30
0
41
1
10
15.4702810445453
20
1.3262686257608
30
0
41
1
10
15.3199279575053
20
1.3262686257608
30
0
0
SPLINE
5
C9
100
AcDbEntity
8
1
62
256
6
ByLayer
370
18
48
1
60
0
100
AcDbSpline
70
4
71
3
72
10
73
6
40
0
40
0
40
0
40
0
40
0.5
40
0.5
40
1
40
1
40
1
40
1
41
1
10
14.3075279041678
20
1.3262686257608
30
0
41
1
10
14.2708516888765
20
1.2627435574469
30
0
41
1
10
14.2336338741236
20
1.19828041134829
30
0
41
1
10
14.1590488380036
20
1.06909533930408
30
0
41
1
10
14.121642633111
20
1.00430589191183
30
0
41
1
10
14.0841015281469
20
0.939282790741601
30
0
0
SPLINE
5
CA
100
AcDbEntity
8
1
62
256
6
ByLayer
370
18
48
1
60
0
100
AcDbSpline
70
4
71
3
72
8
73
4
40
0
40
0
40
0
40
0
40
1
40
1
40
1
40
1
41
1
10
14.0841015281469
20
-0.814245539219996
30
0
41
1
10
14.1604013125778
20
-0.946400642460929
30
0
41
1
10
14.2345998816783
20
-1.07491633399195
30
0
41
1
10
14.3075279041678
20
-1.2012313742392
30
0
0
SPLINE
5
CB
100
AcDbEntity
8
1
62
256
6
ByLayer
370
18
48
1
60
0
100
AcDbSpline
70
4
71
3
72
8
73
4
40
0
40
0
40
0
40
0
40
1
40
1
40
1
40
1
41
1
10
16.2729807362121
20
-0.324467209258387
30
0
41
1
10
16.349280520643
20
-0.192312106017482
30
0
41
1
10
16.4234790897435
20
-0.0637964144864327
30
0
41
1
10
16.496407112233
20
0.0625186257608163
30
0
0
SPLINE
5
CC
100
AcDbEntity
8
1
62
256
6
ByLayer
370
18
48
1
60
0
100
AcDbSpline
70
4
71
3
72
8
73
4
40
0
40
0
40
0
40
0
40
1
40
1
40
1
40
1
41
1
10
13.8013278775003
20
0.449504460779991
30
0
41
1
10
13.7250280930694
20
0.317349357539086
30
0
41
1
10
13.6508295239689
20
0.188833666008037
30
0
41
1
10
13.5779015014794
20
0.0625186257607879
30
0
0
SPLINE
5
CD
100
AcDbEntity
8
1
62
256
6
ByLayer
370
18
48
1
60
0
100
AcDbSpline
70
4
71
3
72
8
73
4
40
0
40
0
40
0
40
0
40
1
40
1
40
1
40
1
41
1
10
15.7667807095446
20
-1.2012313742392
30
0
41
1
10
15.6207323254059
20
-1.2012313742392
30
0
41
1
10
15.4702810445436
20
-1.2012313742392
30
0
41
1
10
15.3199279575028
20
-1.2012313742392
30
0
0
SPLINE
5
CE
100
AcDbEntity
8
1
62
256
6
ByLayer
370
18
48
1
60
0
100
AcDbSpline
70
4
71
3
72
8
73
4
40
0
40
0
40
0
40
0
40
1
40
1
40
1
40
1
41
1
10
15.9902070855655
20
0.939282790741629
30
0
41
1
10
15.9139073011345
20
1.07143789398253
30
0
41
1
10
15.839708732034
20
1.19995358551356
30
0
41
1
10
15.7667807095446
20
1.3262686257608
30
0
0
LINE
5
72
100
AcDbEntity
8
1
62
256
6
ByLayer
370
18
48
1
60
0
100
AcDbLine
10
24.10389
20
-4.637481
30
0
11
24.107544
21
-4.637481
31
0
39
0
210
0
220
0
230
1
0
LINE
5
73
100
AcDbEntity
8
1
62
256
6
ByLayer
370
18
48
1
60
0
100
AcDbLine
10
23.547154
20
4.257266
30
0
11
23.547154
21
4.762519
31
0
39
0
210
0
220
0
230
1
0
LINE
5
74
100
AcDbEntity
8
1
62
256
6
ByLayer
370
18
48
1
60
0
100
AcDbLine
10
23.547154
20
-4.637481
30
0
11
23.547154
21
-4.132229
31
0
39
0
210
0
220
0
230
1
0
LINE
5
75
100
AcDbEntity
8
1
62
256
6
ByLayer
370
18
48
1
60
0
100
AcDbLine
10
24.089551
20
4.748184
30
0
11
24.089551
21
4.762519
31
0
39
0
210
0
220
0
230
1
0
LINE
5
76
100
AcDbEntity
8
1
62
256
6
ByLayer
370
18
48
1
60
0
100
AcDbLine
10
24.089551
20
-4.637481
30
0
11
24.089551
21
-4.623147
31
0
39
0
210
0
220
0
230
1
0
LINE
5
77
100
AcDbEntity
8
1
62
256
6
ByLayer
370
18
48
1
60
0
100
AcDbLine
10
24.10389
20
4.762519
30
0
11
24.10389
21
4.759617
31
0
39
0
210
0
220
0
230
1
0
LINE
5
78
100
AcDbEntity
8
1
62
256
6
ByLayer
370
18
48
1
60
0
100
AcDbLine
10
24.10389
20
-4.63458
30
0
11
24.10389
21
-4.637481
31
0
39
0
210
0
220
0
230
1
0
LINE
5
79
100
AcDbEntity
8
1
62
256
6
ByLayer
370
18
48
1
60
0
100
AcDbLine
10
24.10389
20
4.762519
30
0
11
24.107544
21
4.762519
31
0
39
0
210
0
220
0
230
1
0
LINE
5
7A
100
AcDbEntity
8
1
62
256
6
ByLayer
370
18
48
1
60
0
100
AcDbLine
10
20.919997
20
-4.637481
30
0
11
20.778576
21
-4.637481
31
0
39
0
210
0
220
0
230
1
0
LINE
5
7B
100
AcDbEntity
8
1
62
256
6
ByLayer
370
18
48
1
60
0
100
AcDbLine
10
23.547154
20
-4.637481
30
0
11
24.089551
21
-4.637481
31
0
39
0
210
0
220
0
230
1
0
LINE
5
7C
100
AcDbEntity
8
1
62
256
6
ByLayer
370
18
48
1
60
0
100
AcDbLine
10
24.089551
20
4.762519
30
0
11
24.10389
21
4.762519
31
0
39
0
210
0
220
0
230
1
0
LINE
5
7D
100
AcDbEntity
8
1
62
256
6
ByLayer
370
18
48
1
60
0
100
AcDbLine
10
20.449654
20
4.762519
30
0
11
10.320125
21
4.762519
31
0
39
0
210
0
220
0
230
1
0
LINE
5
7E
100
AcDbEntity
8
1
62
256
6
ByLayer
370
18
48
1
60
0
100
AcDbLine
10
23.547154
20
4.762519
30
0
11
24.089551
21
4.762519
31
0
39
0
210
0
220
0
230
1
0
LINE
5
7F
100
AcDbEntity
8
1
62
256
6
ByLayer
370
18
48
1
60
0
100
AcDbLine
10
0
20
12.4375
30
0
11
1.486666
21
9.862519
31
0
39
0
210
0
220
0
230
1
0
LINE
5
80
100
AcDbEntity
8
1
62
256
6
ByLayer
370
18
48
1
60
0
100
AcDbLine
10
20.919997
20
4.762519
30
0
11
20.919997
21
-4.637481
31
0
39
0
210
0
220
0
230
1
0
LINE
5
81
100
AcDbEntity
8
1
62
256
6
ByLayer
370
18
48
1
60
0
100
AcDbLine
10
20.778576
20
-4.637481
30
0
11
20.778576
21
4.762519
31
0
39
0
210
0
220
0
230
1
0
LINE
5
82
100
AcDbEntity
8
1
62
256
6
ByLayer
370
18
48
1
60
0
100
AcDbLine
10
20.449654
20
-4.637481
30
0
11
10.320125
21
-4.637481
31
0
39
0
210
0
220
0
230
1
0
LINE
5
83
100
AcDbEntity
8
1
62
256
6
ByLayer
370
18
48
1
60
0
100
AcDbLine
10
23.547154
20
-4.637481
30
0
11
20.919997
21
-4.637481
31
0
39
0
210
0
220
0
230
1
0
LINE
5
84
100
AcDbEntity
8
1
62
256
6
ByLayer
370
18
48
1
60
0
100
AcDbLine
10
24.089551
20
-4.637481
30
0
11
24.10389
21
-4.637481
31
0
39
0
210
0
220
0
230
1
0
LINE
5
85
100
AcDbEntity
8
1
62
256
6
ByLayer
370
18
48
1
60
0
100
AcDbLine
10
20.919997
20
4.762519
30
0
11
20.778576
21
4.762519
31
0
39
0
210
0
220
0
230
1
0
LINE
5
86
100
AcDbEntity
8
1
62
256
6
ByLayer
370
18
48
1
60
0
100
AcDbLine
10
23.547154
20
4.762519
30
0
11
20.919997
21
4.762519
31
0
39
0
210
0
220
0
230
1
0
LINE
5
87
100
AcDbEntity
8
1
62
256
6
ByLayer
370
18
48
1
60
0
100
AcDbLine
10
1.486666
20
-9.737481
30
0
11
0
21
-12.312463
31
0
39
0
210
0
220
0
230
1
0
LINE
5
88
100
AcDbEntity
8
1
62
256
6
ByLayer
370
18
48
1
60
0
100
AcDbLine
10
20.778576
20
-4.637481
30
0
11
20.449654
21
-4.637481
31
0
39
0
210
0
220
0
230
1
0
LINE
5
89
100
AcDbEntity
8
1
62
256
6
ByLayer
370
18
48
1
60
0
100
AcDbLine
10
0
20
-12.312463
30
0
11
0
21
12.4375
31
0
39
0
210
0
220
0
230
1
0
LINE
5
8A
100
AcDbEntity
8
1
62
256
6
ByLayer
370
18
48
1
60
0
100
AcDbLine
10
20.449654
20
-4.637481
30
0
11
20.449654
21
4.762519
31
0
39
0
210
0
220
0
230
1
0
LINE
5
8B
100
AcDbEntity
8
1
62
256
6
ByLayer
370
18
48
1
60
0
100
AcDbLine
10
20.778576
20
4.762519
30
0
11
20.449654
21
4.762519
31
0
39
0
210
0
220
0
230
1
0
LINE
5
8C
100
AcDbEntity
8
SK1
62
256
6
ByLayer
370
18
48
1
60
0
100
AcDbLine
10
0
20
-12.312463
30
0
11
0
21
12.4375
31
0
39
0
210
0
220
0
230
1
0
LINE
5
8E
100
AcDbEntity
8
SK1
62
256
6
ByLayer
370
18
48
1
60
0
100
AcDbLine
10
-137.512846
20
-12.4375
30
0
11
-0.07219
21
-12.4375
31
0
39
0
210
0
220
0
230
1
0
LINE
5
8F
100
AcDbEntity
8
SK1
62
256
6
ByLayer
370
18
48
1
60
0
100
AcDbLine
10
-137.512846
20
12.4375
30
0
11
-137.512846
21
-12.4375
31
0
39
0
210
0
220
0
230
1
0
LINE
5
90
100
AcDbEntity
8
SK1
62
256
6
ByLayer
370
18
48
1
60
0
100
AcDbLine
10
0
20
-12.312463
30
0
11
-0.07219
21
-12.4375
31
0
39
0
210
0
220
0
230
1
0
LINE
5
91
100
AcDbEntity
8
SK1
62
256
6
ByLayer
370
18
48
1
60
0
100
AcDbLine
10
-137.512846
20
12.4375
30
0
11
0
21
12.4375
31
0
39
0
210
0
220
0
230
1
0
LINE
5
92
100
AcDbEntity
8
1
62
256
6
ByLayer
370
18
48
1
60
0
100
AcDbLine
10
26.14088
20
1.912519
30
0
11
27.322661
21
1.912519
31
0
39
0
210
0
220
0
230
1
0
LINE
5
93
100
AcDbEntity
8
1
62
256
6
ByLayer
370
18
48
1
60
0
100
AcDbLine
10
26.14088
20
-1.787481
30
0
11
27.322661
21
-1.787481
31
0
39
0
210
0
220
0
230
1
0
LINE
5
94
100
AcDbEntity
8
80
62
256
6
ByLayer
370
18
48
1
60
0
100
AcDbLine
10
0
20
0
30
0
11
-5
21
0
31
0
39
0
210
0
220
0
230
1
0
LINE
5
95
100
AcDbEntity
8
81
62
256
6
ByLayer
370
18
48
1
60
0
100
AcDbLine
10
32.487154
20
2.5478
30
0
11
42.487154
21
2.5478
31
0
39
0
210
0
220
0
230
1
0
LINE
5
96
100
AcDbEntity
8
1
62
256
6
ByLayer
370
18
48
1
60
0
100
AcDbLine
10
27.322657
20
1.612519
30
0
11
26.171884
21
1.612519
31
0
39
0
210
0
220
0
230
1
0
LINE
5
97
100
AcDbEntity
8
1
62
256
6
ByLayer
370
18
48
1
60
0
100
AcDbLine
10
27.322661
20
-1.787481
30
0
11
27.606104
21
-1.787481
31
0
39
0
210
0
220
0
230
1
0
LINE
5
98
100
AcDbEntity
8
1
62
256
6
ByLayer
370
18
48
1
60
0
100
AcDbLine
10
27.322661
20
1.912519
30
0
11
27.606104
21
1.912519
31
0
39
0
210
0
220
0
230
1
0
LINE
5
99
100
AcDbEntity
8
1
62
256
6
ByLayer
370
18
48
1
60
0
100
AcDbLine
10
27.322657
20
-1.487481
30
0
11
26.171884
21
-1.487481
31
0
39
0
210
0
220
0
230
1
0
MTEXT
5
CF
100
AcDbEntity
8
SK6
62
256
6
ByLayer
370
13
48
1
60
0
100
AcDbMText
10
-106.132645
20
-37.499425
30
0
210
0
220
0
230
1
1
\W0.7446;PRDCN 3225P 12
40
3.5
41
0
44
1.084337
50
0
71
7
72
5
7
iso_b_vert
0
DIMENSION
5
E1
100
AcDbEntity
8
SK2
62
256
6
ByLayer
370
13
48
1
60
0
100
AcDbDimension
2
DimnDraft3D1
10
-147.262846
20
-12.4375
30
0
11
-147.262846
21
0.0625
31
0
70
32
71
5
72
1
41
1
210
0
220
0
230
1
3
Standard
100
AcDbAlignedDimension
13
-139.100346
23
12.5625
33
0
14
-139.100346
24
-12.4375
34
0
50
90
100
AcDbRotatedDimension
1001
ACAD
1000
DSTYLE
1002
{
1070
    74
1070
     0
1070
   279
1070
     0
1070
   172
1070
     1
1070
   173
1070
     1
1070
   340
1005
D0
1070
   271
1070
     1
1070
   272
1070
     2
1070
    77
1070
     1
1070
    73
1070
     0
1070
   171
1070
     3
1070
   274
1070
     4
1070
   177
1070
   150
1070
   176
1070
     9
1070
   178
1070
    43
1070
    78
1070
     8
1070
    48
1040
-0.005
1070
    41
1041
3.175
1070
   147
1041
2.25
1070
    42
1041
1.5875
1070
    44
1041
3.175
1070
   140
1041
4.5
1070
   343
1005
E2
1070
   344
1005
E2
1002
}
0
DIMENSION
5
F7
100
AcDbEntity
8
2
62
256
6
ByLayer
370
13
48
1
60
0
100
AcDbDimension
2
DimnDraft3D2
10
50.337154
20
6.0625
30
0
11
50.337154
21
-3.1875
31
0
70
32
71
5
72
1
41
1
210
0
220
0
230
1
3
Standard
100
AcDbAlignedDimension
13
1.667736
23
-12.4375
33
0
14
35.424654
24
6.0625
34
0
50
90
100
AcDbRotatedDimension
1001
ACAD
1000
DSTYLE
1002
{
1070
    74
1070
     0
1070
   279
1070
     0
1070
   172
1070
     1
1070
   173
1070
     1
1070
   340
1005
D0
1070
   271
1070
     1
1070
   272
1070
     2
1070
    77
1070
     1
1070
    73
1070
     0
1070
   171
1070
     3
1070
   274
1070
     4
1070
   177
1070
   150
1070
   176
1070
     9
1070
   178
1070
    43
1070
    78
1070
     8
1070
    48
1040
-0.005
1070
    41
1041
3.175
1070
   147
1041
2.25
1070
    42
1041
1.5875
1070
    44
1041
3.175
1070
   140
1041
4.5
1070
   343
1005
E2
1070
   344
1005
E2
1002
}
0
DIMENSION
5
105
100
AcDbEntity
8
SK2
62
256
6
ByLayer
370
13
48
1
60
0
100
AcDbDimension
2
DimnDraft3D3
10
33.837154
20
30.0625
30
0
11
-51.837846
21
30.0625
31
0
70
32
71
5
72
1
41
1
210
0
220
0
230
1
3
Standard
100
AcDbAlignedDimension
13
-137.512846
23
14.15
33
0
14
33.837154
24
7.65
34
0
50
0
100
AcDbRotatedDimension
1001
ACAD
1000
DSTYLE
1002
{
1070
   279
1070
     0
1070
   172
1070
     1
1070
   173
1070
     1
1070
   340
1005
D0
1070
   271
1070
     1
1070
   272
1070
     2
1070
    77
1070
     1
1070
    73
1070
     0
1070
   171
1070
     3
1070
   274
1070
     4
1070
   177
1070
   150
1070
   176
1070
     9
1070
   178
1070
    43
1070
    78
1070
     8
1070
    48
1040
-0.005
1070
    41
1041
3.175
1070
   147
1041
2.25
1070
    42
1041
1.5875
1070
    44
1041
3.175
1070
   140
1041
4.5
1070
   343
1005
E2
1070
   344
1005
E2
1002
}
0
DIMENSION
5
113
100
AcDbEntity
8
2
62
256
6
ByLayer
370
13
48
1
60
0
100
AcDbDimension
2
DimnDraft3D4
10
33.837154
20
20.0625
30
0
11
19.837154
21
20.0625
31
0
70
32
71
5
72
1
41
1
210
0
220
0
230
1
3
Standard
100
AcDbAlignedDimension
13
5.837154
23
7.65
33
0
14
33.837154
24
7.65
34
0
50
0
100
AcDbRotatedDimension
1001
ACAD
1000
DSTYLE
1002
{
1070
   279
1070
     0
1070
   172
1070
     1
1070
   173
1070
     1
1070
   340
1005
D0
1070
   271
1070
     1
1070
   272
1070
     2
1070
    77
1070
     1
1070
    73
1070
     0
1070
   171
1070
     3
1070
   274
1070
     4
1070
   177
1070
   150
1070
   176
1070
     9
1070
   178
1070
    43
1070
    78
1070
     8
1070
    48
1040
-0.005
1070
    41
1041
3.175
1070
   147
1041
2.25
1070
    42
1041
1.5875
1070
    44
1041
3.175
1070
   140
1041
4.5
1070
   343
1005
E2
1070
   344
1005
E2
1002
}
0
ENDSEC
0
SECTION
2
OBJECTS
0
DICTIONARY
5
17d
330
0
100
AcDbDictionary
280
0
281
1
3
ACAD_GROUP
350
17e
3
ACAD_MLINESTYLE
350
17f
0
DICTIONARY
5
17e
330
0
100
AcDbDictionary
280
0
281
1
0
DICTIONARY
5
17f
330
0
100
AcDbDictionary
280
0
281
1
3
Standard
350
18
0
MLINESTYLE
5
18
330
17f
100
AcDbMlineStyle
2
Standard
70
0
3

62
256
51
90
52
90
71
2
49
-0.5
62
256
6
ByLayer
49
0.5
62
256
6
ByLayer
0
RASTERVARIABLES
5
16c
330

100
AcDbRasterVariables
90
0
70
1
71
1
72
1
0
ENDSEC
0
EOF
