0
SECTION
2
HEADER
9
$ACADVER
1
AC1015
9
$DWGCODEPAGE
3
ANSI_1252
9
$HANDSEED
5
1b2
9
$ANGBASE
50
0
9
$ANGDIR
70
0
9
$ATTMODE
70
1
9
$AUNITS
70
0
9
$AUPREC
70
0
9
$CECOLOR
62
256
9
$CELTSCALE
40
1
9
$CELTYPE
6
ByLayer
9
$CELWEIGHT
370
18
9
$CLAYER
8
0
9
$CMLJUST
70
0
9
$CMLSCALE
40
1
9
$CMLSTYLE
2
Standard
9
$DIMSTYLE
2
Standard
9
$TEXTSIZE
40
0.2
9
$TEXTSTYLE
7
Standard
9
$LUNITS
70
2
9
$LUPREC
70
4
9
$EXTNAMES
290
1
9
$INSUNITS
70
4
9
$LTSCALE
40
1
9
$LWDISPLAY
290
1
9
$PDMODE
70
0
9
$PDSIZE
40
0
9
$PLINEGEN
70
0
0
ENDSEC
0
SECTION
2
CLASSES
0
CLASS
1
RASTERVARIABLES
2
AcDbRasterVariables
3
ISM
90
0
280
0
281
0
0
ENDSEC
0
SECTION
2
TABLES
0
TABLE
2
VPORT
5
1a8
100
AcDbSymbolTable
0
VPORT
5
1
100
AcDbSymbolTableRecord
100
AcDbViewportTableRecord
2
*Active
70
0
10
0
20
0
11
1
21
1
12
-1
22
1
13
0
23
0
14
0.5
24
0.5
15
10
25
10
16
0
26
0
36
1
17
0
27
0
37
0
0
ENDTAB
0
TABLE
2
LTYPE
5
1a9
100
AcDbSymbolTable
0
LTYPE
5
14
100
AcDbSymbolTableRecord
100
AcDbLinetypeTableRecord
70
0
2
ByBlock
3

72
65
73
0
40
0
0
LTYPE
5
15
100
AcDbSymbolTableRecord
100
AcDbLinetypeTableRecord
70
0
2
ByLayer
3

72
65
73
0
40
0
0
LTYPE
5
16
100
AcDbSymbolTableRecord
100
AcDbLinetypeTableRecord
70
0
2
CONTINUOUS
3
Solid line
72
65
73
0
40
0
0
LTYPE
5
6A
100
AcDbSymbolTableRecord
100
AcDbLinetypeTableRecord
70
0
2
CENTER
3
____ _ ____ _ ____ _ ____
72
65
73
4
40
47.5
49
22
74
0
49
-8.5
74
0
49
8.5
74
0
49
-8.5
74
0
0
LTYPE
5
6B
100
AcDbSymbolTableRecord
100
AcDbLinetypeTableRecord
70
0
2
DASHED
3
__ __ __ __ __ __ __ __ __
72
65
73
2
40
25.72
49
12.86
74
0
49
-12.86
74
0
0
ENDTAB
0
TABLE
2
LAYER
5
1aa
100
AcDbSymbolTable
0
LAYER
5
10
100
AcDbSymbolTableRecord
100
AcDbLayerTableRecord
2
0
70
0
62
7
6
CONTINUOUS
290
1
370
-3
390
0
0
LAYER
5
6D
100
AcDbSymbolTableRecord
100
AcDbLayerTableRecord
2
80
70
0
62
-6
6
CONTINUOUS
290
1
370
-3
390
0
0
LAYER
5
6F
100
AcDbSymbolTableRecord
100
AcDbLayerTableRecord
2
81
70
0
62
-3
6
CONTINUOUS
290
1
370
-3
390
0
0
LAYER
5
71
100
AcDbSymbolTableRecord
100
AcDbLayerTableRecord
2
1
70
0
62
4
6
CONTINUOUS
290
1
370
-3
390
0
0
LAYER
5
113
100
AcDbSymbolTableRecord
100
AcDbLayerTableRecord
2
2
70
0
62
7
6
CONTINUOUS
290
1
370
-3
390
0
0
LAYER
5
195
100
AcDbSymbolTableRecord
100
AcDbLayerTableRecord
2
SK1
70
0
62
4
6
CONTINUOUS
290
1
370
-3
390
0
0
LAYER
5
196
100
AcDbSymbolTableRecord
100
AcDbLayerTableRecord
2
SK6
70
0
62
5
6
CONTINUOUS
290
1
370
-3
390
0
0
LAYER
5
197
100
AcDbSymbolTableRecord
100
AcDbLayerTableRecord
2
SK2
70
0
62
7
6
CONTINUOUS
290
1
370
-3
390
0
0
ENDTAB
0
TABLE
2
STYLE
5
1ab
100
AcDbSymbolTable
0
STYLE
5
11
100
AcDbSymbolTableRecord
100
AcDbTextStyleTableRecord
2
Standard
3
txt
70
0
71
0
40
0
41
1
42
0
50
0
0
STYLE
5
F8
100
AcDbSymbolTableRecord
100
AcDbTextStyleTableRecord
2
iso_b_vert
3
simplex.shx
70
0
71
0
40
0
41
1
42
0
50
0
0
STYLE
5
F9
100
AcDbSymbolTableRecord
100
AcDbTextStyleTableRecord
2
DWGDirectTextStyle
3
simplex
70
0
71
0
40
0
41
1
42
0
50
0
0
ENDTAB
0
TABLE
2
DIMSTYLE
5
1ac
100
AcDbSymbolTable
100
AcDbDimStyleTable
0
DIMSTYLE
105
27
100
AcDbSymbolTableRecord
100
AcDbDimStyleTableRecord
2
Standard
70
0
3
<>
41
0.18
42
0.0625
44
0.18
140
0.18
147
0.09
73
0
74
0
77
1
271
2
275
0
278
52
280
0
340
11
0
ENDTAB
0
TABLE
2
VIEW
5
1ad
100
AcDbSymbolTable
0
ENDTAB
0
TABLE
2
UCS
5
1ae
100
AcDbSymbolTable
0
ENDTAB
0
TABLE
2
APPID
5
1af
100
AcDbSymbolTable
0
APPID
5
12
100
AcDbSymbolTableRecord
100
AcDbRegAppTableRecord
2
ACAD
70
0
0
ENDTAB
0
TABLE
2
BLOCK_RECORD
5
1b0
100
AcDbSymbolTable
0
BLOCK_RECORD
5
1F
100
AcDbSymbolTableRecord
100
AcDbBlockTableRecord
2
*Model_Space
340
0
70
0
0
BLOCK_RECORD
5
1B
100
AcDbSymbolTableRecord
100
AcDbBlockTableRecord
2
*Paper_Space
340
0
70
0
0
BLOCK_RECORD
5
23
100
AcDbSymbolTableRecord
100
AcDbBlockTableRecord
2
*Paper_Space0
340
0
70
0
0
BLOCK_RECORD
5
FB
100
AcDbSymbolTableRecord
100
AcDbBlockTableRecord
2
DimnDraft3D1
340
0
70
0
0
BLOCK_RECORD
5
10A
100
AcDbSymbolTableRecord
100
AcDbBlockTableRecord
2
_CLOSED
340
0
70
0
0
BLOCK_RECORD
5
111
100
AcDbSymbolTableRecord
100
AcDbBlockTableRecord
2
DimnDraft3D2
340
0
70
0
0
BLOCK_RECORD
5
120
100
AcDbSymbolTableRecord
100
AcDbBlockTableRecord
2
DimnDraft3D3
340
0
70
0
0
BLOCK_RECORD
5
12E
100
AcDbSymbolTableRecord
100
AcDbBlockTableRecord
2
DimnDraft3D4
340
0
70
0
0
ENDTAB
0
ENDSEC
0
SECTION
2
BLOCKS
0
BLOCK
5
20
100
AcDbEntity
8
0
100
AcDbBlockBegin
2
*Model_Space
70
0
10
0
20
0
30
0
3
*Model_Space
0
ENDBLK
5
21
100
AcDbEntity
8
0
100
AcDbBlockEnd
0
BLOCK
5
1C
100
AcDbEntity
8
0
100
AcDbBlockBegin
2
*Paper_Space
70
0
10
0
20
0
30
0
3
*Paper_Space
0
ENDBLK
5
1D
100
AcDbEntity
8
0
100
AcDbBlockEnd
0
BLOCK
5
24
100
AcDbEntity
8
0
100
AcDbBlockBegin
2
*Paper_Space0
70
0
10
0
20
0
30
0
3
*Paper_Space0
0
ENDBLK
5
25
100
AcDbEntity
8
0
100
AcDbBlockEnd
0
BLOCK
5
107
100
AcDbEntity
8
0
100
AcDbBlockBegin
2
DimnDraft3D1
70
0
10
0
20
0
30
0
3
DimnDraft3D1
0
MTEXT
5
FC
100
AcDbEntity
8
SK2
62
256
6
ByLayer
370
13
48
1
60
0
100
AcDbMText
10
-82.488028
20
-0.938158
30
0
210
0
220
0
230
1
1
\W0.5321;16
40
4.5
41
0
44
1.084337
50
90
71
7
72
5
7
iso_b_vert
0
LINE
5
FE
100
AcDbEntity
8
SK2
62
256
6
ByLayer
370
13
48
1
60
0
100
AcDbLine
10
-73.200528
20
8.0625
30
0
11
-84.538028
21
8.0625
31
0
39
0
210
0
220
0
230
1
0
LINE
5
FF
100
AcDbEntity
8
SK2
62
256
6
ByLayer
370
13
48
1
60
0
100
AcDbLine
10
-73.200528
20
-7.9375
30
0
11
-84.538028
21
-7.9375
31
0
39
0
210
0
220
0
230
1
0
LINE
5
100
100
AcDbEntity
8
SK2
62
256
6
ByLayer
370
13
48
1
60
0
100
AcDbLine
10
-81.363028
20
8.0625
30
0
11
-81.363028
21
-7.9375
31
0
39
0
210
0
220
0
230
1
0
LINE
5
101
100
AcDbEntity
8
SK2
62
256
6
ByLayer
370
13
48
1
60
0
100
AcDbLine
10
-81.363028
20
8.0625
30
0
11
-80.512289
21
4.887503
31
0
39
0
210
0
220
0
230
1
0
LINE
5
102
100
AcDbEntity
8
SK2
62
256
6
ByLayer
370
13
48
1
60
0
100
AcDbLine
10
-81.363028
20
8.0625
30
0
11
-82.213767
21
4.887497
31
0
39
0
210
0
220
0
230
1
0
LINE
5
103
100
AcDbEntity
8
SK2
62
256
6
ByLayer
370
13
48
1
60
0
100
AcDbLine
10
-80.512289
20
4.887503
30
0
11
-82.213767
21
4.887497
31
0
39
0
210
0
220
0
230
1
0
LINE
5
104
100
AcDbEntity
8
SK2
62
256
6
ByLayer
370
13
48
1
60
0
100
AcDbLine
10
-81.363028
20
-7.9375
30
0
11
-82.213767
21
-4.762503
31
0
39
0
210
0
220
0
230
1
0
LINE
5
105
100
AcDbEntity
8
SK2
62
256
6
ByLayer
370
13
48
1
60
0
100
AcDbLine
10
-81.363028
20
-7.9375
30
0
11
-80.512289
21
-4.762497
31
0
39
0
210
0
220
0
230
1
0
LINE
5
106
100
AcDbEntity
8
SK2
62
256
6
ByLayer
370
13
48
1
60
0
100
AcDbLine
10
-82.213767
20
-4.762503
30
0
11
-80.512289
21
-4.762497
31
0
39
0
210
0
220
0
230
1
0
ENDBLK
5
108
100
AcDbEntity
8
0
100
AcDbBlockEnd
0
BLOCK
5
10B
100
AcDbEntity
8
0
100
AcDbBlockBegin
2
_CLOSED
70
0
10
0
20
0
30
0
3
_CLOSED
0
LINE
5
10D
100
AcDbEntity
8
0
62
256
6
ByLayer
370
-2
48
1
60
0
100
AcDbLine
10
-1
20
0.166667
30
0
11
0
21
0
31
0
39
0
210
0
220
0
230
1
0
LINE
5
10E
100
AcDbEntity
8
0
62
256
6
ByLayer
370
-2
48
1
60
0
100
AcDbLine
10
0
20
0
30
0
11
-1
21
-0.166667
31
0
39
0
210
0
220
0
230
1
0
LINE
5
10F
100
AcDbEntity
8
0
62
256
6
ByLayer
370
-2
48
1
60
0
100
AcDbLine
10
-1
20
0.166667
30
0
11
-1
21
-0.166667
31
0
39
0
210
0
220
0
230
1
0
LINE
5
110
100
AcDbEntity
8
0
62
256
6
ByLayer
370
-2
48
1
60
0
100
AcDbLine
10
0
20
0
30
0
11
-1
21
0
31
0
39
0
210
0
220
0
230
1
0
ENDBLK
5
10C
100
AcDbEntity
8
0
100
AcDbBlockEnd
0
BLOCK
5
11D
100
AcDbEntity
8
0
100
AcDbBlockBegin
2
DimnDraft3D2
70
0
10
0
20
0
30
0
3
DimnDraft3D2
0
MTEXT
5
112
100
AcDbEntity
8
2
62
256
6
ByLayer
370
13
48
1
60
0
100
AcDbMText
10
45.111972
20
0.674342
30
0
210
0
220
0
230
1
1
\W0.6740;20
40
4.5
41
0
44
1.084337
50
90
71
7
72
5
7
iso_b_vert
0
LINE
5
114
100
AcDbEntity
8
2
62
256
6
ByLayer
370
13
48
1
60
0
100
AcDbLine
10
1.5875
20
-7.9375
30
0
11
49.411972
21
-7.9375
31
0
39
0
210
0
220
0
230
1
0
LINE
5
115
100
AcDbEntity
8
2
62
256
6
ByLayer
370
13
48
1
60
0
100
AcDbLine
10
31.324472
20
12.4125
30
0
11
49.411972
21
12.4125
31
0
39
0
210
0
220
0
230
1
0
LINE
5
116
100
AcDbEntity
8
2
62
256
6
ByLayer
370
13
48
1
60
0
100
AcDbLine
10
46.236972
20
-7.9375
30
0
11
46.236972
21
12.4125
31
0
39
0
210
0
220
0
230
1
0
LINE
5
117
100
AcDbEntity
8
2
62
256
6
ByLayer
370
13
48
1
60
0
100
AcDbLine
10
46.236972
20
-7.9375
30
0
11
45.386233
21
-4.762503
31
0
39
0
210
0
220
0
230
1
0
LINE
5
118
100
AcDbEntity
8
2
62
256
6
ByLayer
370
13
48
1
60
0
100
AcDbLine
10
46.236972
20
-7.9375
30
0
11
47.087711
21
-4.762497
31
0
39
0
210
0
220
0
230
1
0
LINE
5
119
100
AcDbEntity
8
2
62
256
6
ByLayer
370
13
48
1
60
0
100
AcDbLine
10
45.386233
20
-4.762503
30
0
11
47.087711
21
-4.762497
31
0
39
0
210
0
220
0
230
1
0
LINE
5
11A
100
AcDbEntity
8
2
62
256
6
ByLayer
370
13
48
1
60
0
100
AcDbLine
10
46.236972
20
12.4125
30
0
11
47.087711
21
9.237503
31
0
39
0
210
0
220
0
230
1
0
LINE
5
11B
100
AcDbEntity
8
2
62
256
6
ByLayer
370
13
48
1
60
0
100
AcDbLine
10
46.236972
20
12.4125
30
0
11
45.386233
21
9.237497
31
0
39
0
210
0
220
0
230
1
0
LINE
5
11C
100
AcDbEntity
8
2
62
256
6
ByLayer
370
13
48
1
60
0
100
AcDbLine
10
47.087711
20
9.237503
30
0
11
45.386233
21
9.237497
31
0
39
0
210
0
220
0
230
1
0
ENDBLK
5
11E
100
AcDbEntity
8
0
100
AcDbBlockEnd
0
BLOCK
5
12B
100
AcDbEntity
8
0
100
AcDbBlockBegin
2
DimnDraft3D3
70
0
10
0
20
0
30
0
3
DimnDraft3D3
0
MTEXT
5
121
100
AcDbEntity
8
SK2
62
256
6
ByLayer
370
13
48
1
60
0
100
AcDbMText
10
-23.620265
20
31.0375
30
0
210
0
220
0
230
1
1
\W0.6217;100
40
4.5
41
0
44
1.084337
50
0
71
7
72
5
7
iso_b_vert
0
LINE
5
122
100
AcDbEntity
8
SK2
62
256
6
ByLayer
370
13
48
1
60
0
100
AcDbLine
10
-71.613028
20
9.65
30
0
11
-71.613028
21
33.0875
31
0
39
0
210
0
220
0
230
1
0
LINE
5
123
100
AcDbEntity
8
SK2
62
256
6
ByLayer
370
13
48
1
60
0
100
AcDbLine
10
29.736972
20
14
30
0
11
29.736972
21
33.0875
31
0
39
0
210
0
220
0
230
1
0
LINE
5
124
100
AcDbEntity
8
SK2
62
256
6
ByLayer
370
13
48
1
60
0
100
AcDbLine
10
-71.613028
20
29.9125
30
0
11
29.736972
21
29.9125
31
0
39
0
210
0
220
0
230
1
0
LINE
5
125
100
AcDbEntity
8
SK2
62
256
6
ByLayer
370
13
48
1
60
0
100
AcDbLine
10
-71.613028
20
29.9125
30
0
11
-68.438031
21
30.763239
31
0
39
0
210
0
220
0
230
1
0
LINE
5
126
100
AcDbEntity
8
SK2
62
256
6
ByLayer
370
13
48
1
60
0
100
AcDbLine
10
-71.613028
20
29.9125
30
0
11
-68.438025
21
29.061761
31
0
39
0
210
0
220
0
230
1
0
LINE
5
127
100
AcDbEntity
8
SK2
62
256
6
ByLayer
370
13
48
1
60
0
100
AcDbLine
10
-68.438031
20
30.763239
30
0
11
-68.438025
21
29.061761
31
0
39
0
210
0
220
0
230
1
0
LINE
5
128
100
AcDbEntity
8
SK2
62
256
6
ByLayer
370
13
48
1
60
0
100
AcDbLine
10
29.736972
20
29.9125
30
0
11
26.561975
21
29.061761
31
0
39
0
210
0
220
0
230
1
0
LINE
5
129
100
AcDbEntity
8
SK2
62
256
6
ByLayer
370
13
48
1
60
0
100
AcDbLine
10
29.736972
20
29.9125
30
0
11
26.561969
21
30.763239
31
0
39
0
210
0
220
0
230
1
0
LINE
5
12A
100
AcDbEntity
8
SK2
62
256
6
ByLayer
370
13
48
1
60
0
100
AcDbLine
10
26.561975
20
29.061761
30
0
11
26.561969
21
30.763239
31
0
39
0
210
0
220
0
230
1
0
ENDBLK
5
12C
100
AcDbEntity
8
0
100
AcDbBlockEnd
0
BLOCK
5
139
100
AcDbEntity
8
0
100
AcDbBlockBegin
2
DimnDraft3D4
70
0
10
0
20
0
30
0
3
DimnDraft3D4
0
MTEXT
5
12F
100
AcDbEntity
8
2
62
256
6
ByLayer
370
13
48
1
60
0
100
AcDbMText
10
16.132989
20
17.826582
30
0
210
0
220
0
230
1
1
\W0.8292;93%%d0'
40
4.5
41
0
44
1.084337
50
46.5
71
7
72
5
7
iso_b_vert
0
LINE
5
130
100
AcDbEntity
8
2
62
256
6
ByLayer
370
13
48
1
60
0
100
AcDbLine
10
29.736972
20
14
30
0
11
29.736972
21
28.070593
31
0
39
0
210
0
220
0
230
1
0
LINE
5
131
100
AcDbEntity
8
2
62
256
6
ByLayer
370
13
48
1
60
0
100
AcDbLine
10
16.316356
20
11.751843
30
0
11
14.142968
21
11.637941
31
0
39
0
210
0
220
0
230
1
0
ARC
5
132
100
AcDbEntity
8
2
62
256
6
ByLayer
370
13
48
1
60
0
100
AcDbCircle
39
0
10
29.736972
20
12.455188
30
0
40
12.440404684557
210
0
220
0
230
1
100
AcDbArc
50
90
51
183
0
LINE
5
133
100
AcDbEntity
8
2
62
256
6
ByLayer
370
13
48
1
60
0
100
AcDbLine
10
29.736972
20
24.895593
30
0
11
26.622319
21
23.845213
31
0
39
0
210
0
220
0
230
1
0
LINE
5
134
100
AcDbEntity
8
2
62
256
6
ByLayer
370
13
48
1
60
0
100
AcDbLine
10
29.736972
20
24.895593
30
0
11
26.514407
21
25.543264
31
0
39
0
210
0
220
0
230
1
0
LINE
5
135
100
AcDbEntity
8
2
62
256
6
ByLayer
370
13
48
1
60
0
100
AcDbLine
10
26.622319
20
23.845213
30
0
11
26.514407
21
25.543264
31
0
39
0
210
0
220
0
230
1
0
LINE
5
136
100
AcDbEntity
8
2
62
256
6
ByLayer
370
13
48
1
60
0
100
AcDbLine
10
17.313616
20
11.804107
30
0
11
16.498176
21
14.988353
31
0
39
0
210
0
220
0
230
1
0
LINE
5
137
100
AcDbEntity
8
2
62
256
6
ByLayer
370
13
48
1
60
0
100
AcDbLine
10
17.313616
20
11.804107
30
0
11
18.199549
21
14.969471
31
0
39
0
210
0
220
0
230
1
0
LINE
5
138
100
AcDbEntity
8
2
62
256
6
ByLayer
370
13
48
1
60
0
100
AcDbLine
10
16.498176
20
14.988353
30
0
11
18.199549
21
14.969471
31
0
39
0
210
0
220
0
230
1
0
ENDBLK
5
13A
100
AcDbEntity
8
0
100
AcDbBlockEnd
0
ENDSEC
0
SECTION
2
ENTITIES
0
ARC
5
B4
100
AcDbEntity
8
1
62
256
6
ByLayer
370
18
48
1
60
0
100
AcDbCircle
39
0
10
20.349299
20
6.026199
30
0
40
2.3
210
0
220
0
230
1
100
AcDbArc
50
350.65118
51
358.052823
0
ARC
5
B5
100
AcDbEntity
8
1
62
256
6
ByLayer
370
18
48
1
60
0
100
AcDbCircle
39
0
10
0
20
9.5375
30
0
40
1.59999999999992
210
0
220
0
230
-1
100
AcDbArc
50
195
51
270
0
ELLIPSE
5
B6
100
AcDbEntity
8
1
62
256
6
ByLayer
370
18
48
1
60
0
100
AcDbEllipse
10
14.271561
20
-0.032035
30
0
11
-1.30033177823256
21
1.3346497271866
31
0
210
0
220
0
230
1
40
0.987534
41
0.246129575276555
42
0.268611506431041
0
ELLIPSE
5
B7
100
AcDbEntity
8
1
62
256
6
ByLayer
370
18
48
1
60
0
100
AcDbEllipse
10
12.706193
20
0.96599
30
0
11
-0.1279326683726
21
0.0783149561901582
31
0
210
0
220
0
230
1
40
0.152664
41
1.30648049219757
42
1.53197899149801
0
ELLIPSE
5
B8
100
AcDbEntity
8
1
62
256
6
ByLayer
370
18
48
1
60
0
100
AcDbEllipse
10
0
20
-7.944481
30
0
11
1.59999999999992
21
1.6170224881317E-15
31
0
210
0
220
0
230
-1
40
0.004363
41
-1.5707963267949
42
-0.261799387798791
0
ELLIPSE
5
B9
100
AcDbEntity
8
1
62
256
6
ByLayer
370
18
48
1
60
0
100
AcDbEllipse
10
16.908872
20
5.183871
30
0
11
-1.39567650671217
21
1.4325107638729
31
0
210
0
220
0
230
1
40
0.987534
41
0.24612957527655
42
0.635890308074032
0
ELLIPSE
5
BA
100
AcDbEntity
8
1
62
256
6
ByLayer
370
18
48
1
60
0
100
AcDbEllipse
10
14.667559
20
1.173229
30
0
11
-1.41836384932059
21
1.4557968637205
31
0
210
0
220
0
230
1
40
0.987534
41
0.246129575276552
42
1.81692590207144
0
ELLIPSE
5
BB
100
AcDbEntity
8
1
62
256
6
ByLayer
370
18
48
1
60
0
100
AcDbEllipse
10
18.014336
20
6.989719
30
0
11
-1.39567650671216
21
1.4325107638729
31
0
210
0
220
0
230
1
40
0.987534
41
-0.143631157520917
42
0.246129575276559
0
ELLIPSE
5
BC
100
AcDbEntity
8
1
62
256
6
ByLayer
370
18
48
1
60
0
100
AcDbEllipse
10
15.072044
20
0.747865
30
0
11
1.34858002398499
21
-1.38417132552686
31
0
210
0
220
0
230
1
40
0.987534
41
-1.55263789438058
42
0.246129575276571
0
ELLIPSE
5
BD
100
AcDbEntity
8
1
62
256
6
ByLayer
370
18
48
1
60
0
100
AcDbEllipse
10
14.418129
20
0.110764
30
0
11
1.39567650671217
21
-1.43251076387291
31
0
210
0
220
0
230
1
40
0.987534
41
-2.89546307831324
42
-2.82748001630093
0
ELLIPSE
5
BE
100
AcDbEntity
8
1
62
256
6
ByLayer
370
18
48
1
60
0
100
AcDbEllipse
10
17.762417
20
1.73827
30
0
11
0.0958602922594394
21
0.155667897656427
31
0
210
0
220
0
230
-1
40
0.022144
41
3.01106452656775
42
-1.68968892553479
0
ELLIPSE
5
BF
100
AcDbEntity
8
1
62
256
6
ByLayer
370
18
48
1
60
0
100
AcDbEllipse
10
13.803667
20
2.429398
30
0
11
0.55390911360139
21
-0.568527709412059
31
0
210
0
220
0
230
1
40
0.987534
41
-2.25998540663935
42
-0.71380151332035
0
ELLIPSE
5
C0
100
AcDbEntity
8
1
62
256
6
ByLayer
370
18
48
1
60
0
100
AcDbEllipse
10
21.107503
20
6.764907
30
0
11
-1.32938187264334
21
1.36446650258894
31
0
210
0
220
0
230
1
40
0.987534
41
-2.94097144768562
42
-2.61228230410851
0
ELLIPSE
5
C1
100
AcDbEntity
8
1
62
256
6
ByLayer
370
18
48
1
60
0
100
AcDbEllipse
10
21.107503
20
6.764907
30
0
11
-1.32938187264334
21
1.36446650258894
31
0
210
0
220
0
230
1
40
0.987534
41
-0.715644076794157
42
-0.200619193829618
0
ELLIPSE
5
C2
100
AcDbEntity
8
1
62
256
6
ByLayer
370
18
48
1
60
0
100
AcDbEllipse
10
23.682796
20
4.15355
30
0
11
0.837405904027297
21
-0.859506458323744
31
0
210
0
220
0
230
1
40
0.987534
41
-0.233835969021882
42
4.6145918724833E-06
0
ELLIPSE
5
C3
100
AcDbEntity
8
1
62
256
6
ByLayer
370
18
48
1
60
0
100
AcDbEllipse
10
20.515596
20
6.18822
30
0
11
1.57013607005118
21
-1.61157460935702
31
0
210
0
220
0
230
1
40
0.987534
41
2.37804372805659
42
2.5540711540689
0
ELLIPSE
5
C4
100
AcDbEntity
8
1
62
256
6
ByLayer
370
18
48
1
60
0
100
AcDbEllipse
10
20.515596
20
6.18822
30
0
11
1.57013607005118
21
-1.61157460935702
31
0
210
0
220
0
230
1
40
0.987534
41
0.602411340147393
42
0.741001413982007
0
ELLIPSE
5
C5
100
AcDbEntity
8
1
62
256
6
ByLayer
370
18
48
1
60
0
100
AcDbEllipse
10
9.700172
20
5.458233
30
0
11
0.903700538096125
21
-0.927550719607706
31
0
210
0
220
0
230
1
40
0.987534
41
0.184520620402691
42
0.804690360736428
0
ELLIPSE
5
C6
100
AcDbEntity
8
1
62
256
6
ByLayer
370
18
48
1
60
0
100
AcDbEllipse
10
9.700172
20
5.458233
30
0
11
0.903700538096125
21
-0.927550719607706
31
0
210
0
220
0
230
1
40
0.987534
41
0.804690360736429
42
2.88118484663026
0
ELLIPSE
5
C7
100
AcDbEntity
8
1
62
256
6
ByLayer
370
18
48
1
60
0
100
AcDbEllipse
10
9.801641
20
5.557093
30
0
11
-0.903700538096126
21
0.927550719607705
31
0
210
0
220
0
230
1
40
0.987534
41
-0.42385676159117
42
-0.203567902848503
0
ELLIPSE
5
C8
100
AcDbEntity
8
1
62
256
6
ByLayer
370
18
48
1
60
0
100
AcDbEllipse
10
9.801641
20
5.557093
30
0
11
-0.903700538096126
21
0.927550719607705
31
0
210
0
220
0
230
1
40
0.987534
41
-3.04015723248265
42
-2.95851502728313
0
ELLIPSE
5
C9
100
AcDbEntity
8
1
62
256
6
ByLayer
370
18
48
1
60
0
100
AcDbEllipse
10
21.447996
20
7.431598
30
0
11
1.32589268137655
21
-1.36088522567926
31
0
210
0
220
0
230
1
40
0.987534
41
-1.35785663140777
42
0.423977161123685
0
ELLIPSE
5
CA
100
AcDbEntity
8
1
62
256
6
ByLayer
370
18
48
1
60
0
100
AcDbEllipse
10
20.918098
20
6.915326
30
0
11
-1.32589268137656
21
1.36088522567926
31
0
210
0
220
0
230
1
40
0.987534
41
3.05967268255676
42
3.14159001299822
0
ELLIPSE
5
CB
100
AcDbEntity
8
1
62
256
6
ByLayer
370
18
48
1
60
0
100
AcDbEllipse
10
20.394397
20
6.070137
30
0
11
1.58056898263108
21
-1.62228286409755
31
0
210
0
220
0
230
1
40
0.987534
41
0.615823014004029
42
0.748171794884072
0
ELLIPSE
5
CC
100
AcDbEntity
8
1
62
256
6
ByLayer
370
18
48
1
60
0
100
AcDbEllipse
10
19.069153
20
9.899401
30
0
11
-0.837405904027298
21
0.859506458323742
31
0
210
0
220
0
230
1
40
0.987534
41
-0.23383596902188
42
0.246129575276557
0
ELLIPSE
5
CD
100
AcDbEntity
8
1
62
256
6
ByLayer
370
18
48
1
60
0
100
AcDbEllipse
10
21.644447
20
7.288044
30
0
11
-1.32938187264334
21
1.36446650258894
31
0
210
0
220
0
230
1
40
0.987534
41
0
42
6.28318530717959
0
ELLIPSE
5
CE
100
AcDbEntity
8
1
62
256
6
ByLayer
370
18
48
1
60
0
100
AcDbEllipse
10
14.34061
20
2.952535
30
0
11
-0.55390911360139
21
0.568527709412059
31
0
210
0
220
0
230
1
40
0.987534
41
0.246129575276553
42
2.42779114026949
0
ELLIPSE
5
CF
100
AcDbEntity
8
1
62
256
6
ByLayer
370
18
48
1
60
0
100
AcDbEllipse
10
20.550712
20
10.778845
30
0
11
-0.837405904027298
21
0.859506458323742
31
0
210
0
220
0
230
1
40
0.987534
41
-0.713801513320346
42
-0.233835969021883
0
ELLIPSE
5
D0
100
AcDbEntity
8
1
62
256
6
ByLayer
370
18
48
1
60
0
100
AcDbEllipse
10
28.948283
20
11.623553
30
0
11
-0.55390911360139
21
0.568527709412059
31
0
210
0
220
0
230
1
40
0.987534
41
-2.89546307831324
42
-0.713801513320315
0
ELLIPSE
5
D1
100
AcDbEntity
8
1
62
256
6
ByLayer
370
18
48
1
60
0
100
AcDbEllipse
10
22.738181
20
3.797244
30
0
11
-0.837405904027298
21
0.859506458323742
31
0
210
0
220
0
230
1
40
0.987534
41
2.42779114026946
42
2.9077566845679
0
ELLIPSE
5
D2
100
AcDbEntity
8
1
62
256
6
ByLayer
370
18
48
1
60
0
100
AcDbEllipse
10
24.21974
20
4.676687
30
0
11
-0.837405904027298
21
0.859506458323742
31
0
210
0
220
0
230
1
40
0.987534
41
2.90775668456792
42
-2.89546307831322
0
ELLIPSE
5
D3
100
AcDbEntity
8
1
62
256
6
ByLayer
370
18
48
1
60
0
100
AcDbEllipse
10
21.521837
20
7.168588
30
0
11
-1.02931142370022
21
1.05647668835627
31
0
210
0
220
0
230
1
40
0.987534
41
-2.55387262478582
42
-1.87569671528506
0
ELLIPSE
5
D4
100
AcDbEntity
8
1
62
256
6
ByLayer
370
18
48
1
60
0
100
AcDbEllipse
10
21.521837
20
7.168588
30
0
11
-1.02931142370022
21
1.05647668835627
31
0
210
0
220
0
230
1
40
0.987534
41
0.587720028803952
42
1.26589593830472
0
ELLIPSE
5
D5
100
AcDbEntity
8
1
62
256
6
ByLayer
370
18
48
1
60
0
100
AcDbEllipse
10
21.481819
20
7.464552
30
0
11
-1.11654120536973
21
1.14600861109832
31
0
210
0
220
0
230
1
40
0.987534
41
1.44365404764606
42
-2.73163073412716
0
ELLIPSE
5
D6
100
AcDbEntity
8
1
62
256
6
ByLayer
370
18
48
1
60
0
100
AcDbEllipse
10
21.561856
20
6.872624
30
0
11
-1.11654120536973
21
1.14600861109832
31
0
210
0
220
0
230
1
40
0.987534
41
-1.69793860594374
42
0.409961919462631
0
ELLIPSE
5
D7
100
AcDbEntity
8
1
62
256
6
ByLayer
370
18
48
1
60
0
100
AcDbEllipse
10
21.528033
20
6.83967
30
0
11
1.32589268137655
21
-1.36088522567926
31
0
210
0
220
0
230
1
40
0.987534
41
1.42963880598501
42
-2.71761549246611
0
ELLIPSE
5
D8
100
AcDbEntity
8
1
62
256
6
ByLayer
370
18
48
1
60
0
100
AcDbEllipse
10
21.488014
20
7.135634
30
0
11
1.23866289970705
21
-1.2713533029372
31
0
210
0
220
0
230
1
40
0.987534
41
0.572617740167114
42
1.28099822694157
0
ELLIPSE
5
D9
100
AcDbEntity
8
1
62
256
6
ByLayer
370
18
48
1
60
0
100
AcDbEllipse
10
10.172006
20
5.917935
30
0
11
-0.903700538096126
21
0.927550719607705
31
0
210
0
220
0
230
1
40
0.987534
41
2.27747272869987
42
2.71773589199861
0
ELLIPSE
5
DA
100
AcDbEntity
8
1
62
256
6
ByLayer
370
18
48
1
60
0
100
AcDbEllipse
10
10.172006
20
5.917935
30
0
11
-0.903700538096126
21
0.927550719607705
31
0
210
0
220
0
230
1
40
0.987534
41
0.183077626306669
42
0.623340789605421
0
ELLIPSE
5
DB
100
AcDbEntity
8
1
62
256
6
ByLayer
370
18
48
1
60
0
100
AcDbEllipse
10
10.196246
20
5.941551
30
0
11
1.55966849625084
21
-1.60083077862797
31
0
210
0
220
0
230
1
40
0.987534
41
0
42
6.28318530717959
0
ELLIPSE
5
DC
100
AcDbEntity
8
1
62
256
6
ByLayer
370
18
48
1
60
0
100
AcDbEllipse
10
10.172006
20
5.917935
30
0
11
-0.903700538096126
21
0.927550719607705
31
0
210
0
220
0
230
1
40
0.987534
41
-1.91131747608653
42
-1.47105431278777
0
ELLIPSE
5
DD
100
AcDbEntity
8
1
62
256
6
ByLayer
370
18
48
1
60
0
100
AcDbEllipse
10
9.801641
20
5.557093
30
0
11
-0.903700538096126
21
0.927550719607705
31
0
210
0
220
0
230
1
40
0.987534
41
-1.47105431278776
42
-0.864119924889955
0
ELLIPSE
5
DE
100
AcDbEntity
8
1
62
256
6
ByLayer
370
18
48
1
60
0
100
AcDbEllipse
10
10.172006
20
5.917935
30
0
11
-0.903700538096126
21
0.927550719607705
31
0
210
0
220
0
230
1
40
0.987534
41
-0.864119924891961
42
-0.42385676159117
0
ELLIPSE
5
DF
100
AcDbEntity
8
1
62
256
6
ByLayer
370
18
48
1
60
0
100
AcDbEllipse
10
10.172006
20
5.917935
30
0
11
-0.903700538096126
21
0.927550719607705
31
0
210
0
220
0
230
1
40
0.987534
41
-2.95851502728313
42
-2.51825186398437
0
ELLIPSE
5
E0
100
AcDbEntity
8
1
62
256
6
ByLayer
370
18
48
1
60
0
100
AcDbEllipse
10
10.172006
20
5.917935
30
0
11
-0.903700538096126
21
0.927550719607705
31
0
210
0
220
0
230
1
40
0.987534
41
1.23027517750326
42
1.67053834080201
0
ELLIPSE
5
E1
100
AcDbEntity
8
1
62
256
6
ByLayer
370
18
48
1
60
0
100
AcDbEllipse
10
10.196246
20
5.941551
30
0
11
1.16356916980586
21
-1.19427772284005
31
0
210
0
220
0
230
1
40
0.987534
41
0
42
6.28318530717959
0
ELLIPSE
5
E2
100
AcDbEntity
8
1
62
256
6
ByLayer
370
18
48
1
60
0
100
AcDbEllipse
10
9.801641
20
5.557093
30
0
11
-0.903700538096126
21
0.927550719607705
31
0
210
0
220
0
230
1
40
0.987534
41
-2.51825186398438
42
-1.91131747608654
0
ELLIPSE
5
E3
100
AcDbEntity
8
1
62
256
6
ByLayer
370
18
48
1
60
0
100
AcDbEllipse
10
10.109996
20
5.85752
30
0
11
2.09351476006824
21
-2.14876614580936
31
0
210
0
220
0
230
1
40
0.987534
41
0
42
6.28318530717959
0
POINT
5
6C
100
AcDbEntity
8
80
62
256
6
ByLayer
370
18
48
1
60
0
100
AcDbPoint
10
0
20
0
30
0
39
0
210
0
220
0
230
1
50
360
0
POINT
5
6E
100
AcDbEntity
8
81
62
256
6
ByLayer
370
18
48
1
60
0
100
AcDbPoint
10
28.386972
20
12.0625
30
0
39
0
210
0
220
0
230
1
50
360
0
POINT
5
70
100
AcDbEntity
8
1
62
256
6
ByLayer
370
18
48
1
60
0
100
AcDbPoint
10
-71.613028
20
-7.9375
30
0
39
0
210
0
220
0
230
1
50
360
0
SPLINE
5
E4
100
AcDbEntity
8
1
62
256
6
ByLayer
370
18
48
1
60
0
100
AcDbSpline
70
4
71
3
72
8
73
4
40
0
40
0
40
0
40
0
40
1
40
1
40
1
40
1
41
1
10
16.6669735185654
20
8.46349793803483
30
0
41
1
10
16.7144578391326
20
8.50329652028572
30
0
41
1
10
16.7619413481261
20
8.54309377712426
30
0
41
1
10
16.8094240369279
20
8.5828896944777
30
0
0
SPLINE
5
E5
100
AcDbEntity
8
1
62
256
6
ByLayer
370
18
48
1
60
0
100
AcDbSpline
70
4
71
3
72
8
73
4
40
0
40
0
40
0
40
0
40
1
40
1
40
1
40
1
41
1
10
20.2176542318412
20
6.51614356322199
30
0
41
1
10
20.1502835646471
20
6.47166596340759
30
0
41
1
10
20.0829356110654
20
6.42718149267392
30
0
41
1
10
20.0156036179892
20
6.38269220334649
30
0
0
SPLINE
5
E6
100
AcDbEntity
8
1
62
256
6
ByLayer
370
18
48
1
60
0
100
AcDbSpline
70
4
71
3
72
10
73
6
40
0
40
0
40
0
40
0
40
0.816042615020868
40
0.816042615020868
40
1
40
1
40
1
40
1
41
1
10
22.3573158227867
20
5.54562702343736
30
0
41
1
10
22.4079164257252
20
5.6164767042475
30
0
41
1
10
22.4539343183954
20
5.69132305652403
30
0
41
1
10
22.5036016064696
20
5.78528919579256
30
0
41
1
10
22.5124697079539
20
5.80268093187945
30
0
41
1
10
22.5210626908253
20
5.82013110905839
30
0
0
SPLINE
5
E7
100
AcDbEntity
8
1
62
256
6
ByLayer
370
18
48
1
60
0
100
AcDbSpline
70
4
71
3
72
10
73
6
40
0
40
0
40
0
40
0
40
0.621661637092609
40
0.621661637092609
40
1
40
1
40
1
40
1
41
1
10
20.3639184351644
20
8.30253213407755
30
0
41
1
10
20.2944876305458
20
8.28879909053893
30
0
41
1
10
20.226174706093
20
8.27505332519587
30
0
41
1
10
20.1165189507733
20
8.25293935680813
30
0
41
1
10
20.0750826349773
20
8.24457221764933
30
0
41
1
10
20.0336193151868
20
8.23620538580391
30
0
0
SPLINE
5
E8
100
AcDbEntity
8
1
62
256
6
ByLayer
370
18
48
1
60
0
100
AcDbSpline
70
4
71
3
72
8
73
4
40
0
40
0
40
0
40
0
40
1
40
1
40
1
40
1
41
1
10
19.7666610249312
20
7.54140513990382
30
0
41
1
10
19.8733309268603
20
7.52232183704135
30
0
41
1
10
19.9800248487603
20
7.50324852018119
30
0
41
1
10
20.0867603172431
20
7.48419250819381
30
0
0
SPLINE
5
E9
100
AcDbEntity
8
1
62
256
6
ByLayer
370
18
48
1
60
0
100
AcDbSpline
70
4
71
3
72
8
73
4
40
0
40
0
40
0
40
0
40
1
40
1
40
1
40
1
41
1
10
23.0451246584064
20
7.94454882702814
30
0
41
1
10
22.972128982888
20
7.90337254054924
30
0
41
1
10
22.8991019331497
20
7.86219942840083
30
0
41
1
10
22.8260205825327
20
7.82103183502554
30
0
0
SPLINE
5
EA
100
AcDbEntity
8
1
62
256
6
ByLayer
370
18
48
1
60
0
100
AcDbSpline
70
4
71
3
72
8
73
4
40
0
40
0
40
0
40
0
40
1
40
1
40
1
40
1
41
1
10
22.9569144971308
20
6.85298289005371
30
0
41
1
10
23.0411084866453
20
6.81196500984433
30
0
41
1
10
23.1252523867682
20
6.77092150161548
30
0
41
1
10
23.209367341055
20
6.72986320817816
30
0
0
SPLINE
5
EB
100
AcDbEntity
8
1
62
256
6
ByLayer
370
18
48
1
60
0
100
AcDbSpline
70
4
71
3
72
10
73
6
40
0
40
0
40
0
40
0
40
0.5
40
0.5
40
1
40
1
40
1
40
1
41
1
10
8.74587451471152
20
5.75166910196316
30
0
41
1
10
8.78807355732718
20
5.69111333504699
30
0
41
1
10
8.83116762957059
20
5.62992822174581
30
0
41
1
10
8.91822193918301
20
5.50798772002963
30
0
41
1
10
8.96222631479239
20
5.44716726911309
30
0
41
1
10
9.0067969575681
20
5.38652456985341
30
0
0
SPLINE
5
EC
100
AcDbEntity
8
1
62
256
6
ByLayer
370
18
48
1
60
0
100
AcDbSpline
70
4
71
3
72
8
73
4
40
0
40
0
40
0
40
0
40
1
40
1
40
1
40
1
41
1
10
10.9934531691055
20
6.89829620282242
30
0
41
1
10
10.9028663193316
20
7.02154843221842
30
0
41
1
10
10.816440494595
20
7.14302993745892
30
0
41
1
10
10.7325307262489
20
7.26344073493215
30
0
0
SPLINE
5
ED
100
AcDbEntity
8
1
62
256
6
ByLayer
370
18
48
1
60
0
100
AcDbSpline
70
4
71
3
72
8
73
4
40
0
40
0
40
0
40
0
40
1
40
1
40
1
40
1
41
1
10
8.90355295076108
20
6.15008376335021
30
0
41
1
10
8.84822378006461
20
6.01258163195129
30
0
41
1
10
8.79608467522974
20
5.88048967558885
30
0
41
1
10
8.74587451471152
20
5.75166910196316
30
0
0
SPLINE
5
EE
100
AcDbEntity
8
1
62
256
6
ByLayer
370
18
48
1
60
0
100
AcDbSpline
70
4
71
3
72
10
73
6
40
0
40
0
40
0
40
0
40
0.5
40
0.5
40
1
40
1
40
1
40
1
41
1
10
11.0696867712392
20
4.76994396202389
30
0
41
1
10
11.0949379517061
20
4.83472908756229
30
0
41
1
10
11.1208338918931
20
4.900735781793
30
0
41
1
10
11.1734228974801
20
5.03368949194635
30
0
41
1
10
11.2001420870639
20
5.10070467148768
30
0
41
1
10
11.2273652072888
20
5.16835862341094
30
0
0
SPLINE
5
EF
100
AcDbEntity
8
1
62
256
6
ByLayer
370
18
48
1
60
0
100
AcDbSpline
70
4
71
3
72
10
73
6
40
0
40
0
40
0
40
0
40
0.5
40
0.5
40
1
40
1
40
1
40
1
41
1
10
9.29570790356055
20
7.08675857058893
30
0
41
1
10
9.26568200614358
20
7.01732150075702
30
0
41
1
10
9.23548458913928
20
6.94712393390642
30
0
41
1
10
9.17566170004648
20
6.80712234563862
30
0
41
1
10
9.14600359756878
20
6.73724382169195
30
0
41
1
10
9.1166461091766
20
6.66751038277087
30
0
0
SPLINE
5
F0
100
AcDbEntity
8
1
62
256
6
ByLayer
370
18
48
1
60
0
100
AcDbSpline
70
4
71
3
72
8
73
4
40
0
40
0
40
0
40
0
40
1
40
1
40
1
40
1
41
1
10
11.0696867712392
20
4.76994396202389
30
0
41
1
10
10.9211299266007
20
4.7476297128508
30
0
41
1
10
10.7691899341689
20
4.72570996538062
30
0
41
1
10
10.6190108548315
20
4.70542354310007
30
0
0
SPLINE
5
F1
100
AcDbEntity
8
1
62
256
6
ByLayer
370
18
48
1
60
0
100
AcDbSpline
70
4
71
3
72
8
73
4
40
0
40
0
40
0
40
0
40
1
40
1
40
1
40
1
41
1
10
9.35055814735989
20
4.93757280335939
30
0
41
1
10
9.4454829576496
20
4.81854699217382
30
0
41
1
10
9.53945999814835
20
4.70442253771583
30
0
41
1
10
9.63286394855083
20
4.59326179768064
30
0
0
SPLINE
5
F2
100
AcDbEntity
8
1
62
256
6
ByLayer
370
18
48
1
60
0
100
AcDbSpline
70
4
71
3
72
10
73
6
40
0
40
0
40
0
40
0
40
0.5
40
0.5
40
1
40
1
40
1
40
1
41
1
10
10.0621565066242
20
4.63694869017345
30
0
41
1
10
9.98872374152583
20
4.62883450920731
30
0
41
1
10
9.9155221069056
20
4.62110682509075
30
0
41
1
10
9.77245082212093
20
4.6065971311325
30
0
41
1
10
9.70217837515517
20
4.59976802231387
30
0
41
1
10
9.63286394855081
20
4.59326179768064
30
0
0
SPLINE
5
F3
100
AcDbEntity
8
1
62
256
6
ByLayer
370
18
48
1
60
0
100
AcDbSpline
70
4
71
3
72
10
73
6
40
0
40
0
40
0
40
0
40
0.5
40
0.5
40
1
40
1
40
1
40
1
41
1
10
11.6195201600882
20
6.10503343064963
30
0
41
1
10
11.5725464005225
20
6.16093725327232
30
0
41
1
10
11.5251508514618
20
6.21793149395361
30
0
41
1
10
11.4308626583435
20
6.33282411755533
30
0
41
1
10
11.3839193698402
20
6.3907812240665
30
0
41
1
10
11.3372143588973
20
6.44934443632837
30
0
0
SPLINE
5
F4
100
AcDbEntity
8
1
62
256
6
ByLayer
370
18
48
1
60
0
100
AcDbSpline
70
4
71
3
72
10
73
6
40
0
40
0
40
0
40
0
40
0.5
40
0.5
40
1
40
1
40
1
40
1
41
1
10
9.72500046163387
20
7.13044546308171
30
0
41
1
10
9.65156769653555
20
7.12233128211557
30
0
41
1
10
9.57836606191532
20
7.11460359799901
30
0
41
1
10
9.43529477713065
20
7.10009390404076
30
0
41
1
10
9.36502233016489
20
7.09326479522213
30
0
41
1
10
9.29570790356053
20
7.08675857058893
30
0
0
SPLINE
5
F5
100
AcDbEntity
8
1
62
256
6
ByLayer
370
18
48
1
60
0
100
AcDbSpline
70
4
71
3
72
8
73
4
40
0
40
0
40
0
40
0
40
1
40
1
40
1
40
1
41
1
10
11.4404583657043
20
5.68578524283157
30
0
41
1
10
11.5001254969166
20
5.82751379244093
30
0
41
1
10
11.5598158175137
20
5.9669627995859
30
0
41
1
10
11.6195201600882
20
6.10503343064963
30
0
0
SPLINE
5
F6
100
AcDbEntity
8
1
62
256
6
ByLayer
370
18
48
1
60
0
100
AcDbSpline
70
4
71
3
72
8
73
4
40
0
40
0
40
0
40
0
40
1
40
1
40
1
40
1
41
1
10
10.7325307262489
20
7.26344073493215
30
0
41
1
10
10.5839738816113
20
7.2411264857592
30
0
41
1
10
10.4320338891803
20
7.21920673828913
30
0
41
1
10
10.2818548098438
20
7.1989203160087
30
0
0
LINE
5
72
100
AcDbEntity
8
1
62
256
6
ByLayer
370
18
48
1
60
0
100
AcDbLine
10
20.20214
20
8.200555
30
0
11
19.905067
21
7.911121
31
0
39
0
210
0
220
0
230
1
0
LINE
5
73
100
AcDbEntity
8
1
62
256
6
ByLayer
370
18
48
1
60
0
100
AcDbLine
10
22.243991
20
5.554441
30
0
11
22.773888
21
6.070713
31
0
39
0
210
0
220
0
230
1
0
LINE
5
74
100
AcDbEntity
8
1
62
256
6
ByLayer
370
18
48
1
60
0
100
AcDbLine
10
8.016482
20
8.006286
30
0
11
7.936337
21
7.928202
31
0
39
0
210
0
220
0
230
1
0
LINE
5
75
100
AcDbEntity
8
1
62
256
6
ByLayer
370
18
48
1
60
0
100
AcDbLine
10
12.123367
20
3.63067
30
0
11
12.203511
21
3.708754
31
0
39
0
210
0
220
0
230
1
0
LINE
5
76
100
AcDbEntity
8
1
62
256
6
ByLayer
370
18
48
1
60
0
100
AcDbLine
10
24.520202
20
3.294044
30
0
11
25.057146
21
3.817181
31
0
39
0
210
0
220
0
230
1
0
LINE
5
77
100
AcDbEntity
8
1
62
256
6
ByLayer
370
18
48
1
60
0
100
AcDbLine
10
18.231747
20
10.758908
30
0
11
17.874856
21
10.411193
31
0
39
0
210
0
220
0
230
1
0
LINE
5
78
100
AcDbEntity
8
SK1
62
256
6
ByLayer
370
18
48
1
60
0
100
AcDbLine
10
-71.613028
20
7.9375
30
0
11
0
21
7.9375
31
0
39
0
210
0
220
0
230
1
0
LINE
5
7A
100
AcDbEntity
8
SK1
62
256
6
ByLayer
370
18
48
1
60
0
100
AcDbLine
10
0
20
-7.9375
30
0
11
0
21
7.9375
31
0
39
0
210
0
220
0
230
1
0
LINE
5
7B
100
AcDbEntity
8
SK1
62
256
6
ByLayer
370
18
48
1
60
0
100
AcDbLine
10
-71.613028
20
7.9375
30
0
11
-71.613028
21
-7.9375
31
0
39
0
210
0
220
0
230
1
0
LINE
5
7C
100
AcDbEntity
8
SK1
62
256
6
ByLayer
370
18
48
1
60
0
100
AcDbLine
10
-71.613028
20
-7.9375
30
0
11
0
21
-7.9375
31
0
39
0
210
0
220
0
230
1
0
LINE
5
7D
100
AcDbEntity
8
1
62
256
6
ByLayer
370
18
48
1
60
0
100
AcDbLine
10
18.266378
20
2.267388
30
0
11
16.713034
21
-0.270103
31
0
39
0
210
0
220
0
230
1
0
LINE
5
7E
100
AcDbEntity
8
1
62
256
6
ByLayer
370
18
48
1
60
0
100
AcDbLine
10
1.545481
20
9.12339
30
0
11
1.545481
21
-7.942674
31
0
39
0
210
0
220
0
230
1
0
LINE
5
7F
100
AcDbEntity
8
1
62
256
6
ByLayer
370
18
48
1
60
0
100
AcDbLine
10
17.825819
20
1.849651
30
0
11
17.747623
21
1.721914
31
0
39
0
210
0
220
0
230
1
0
LINE
5
80
100
AcDbEntity
8
1
62
256
6
ByLayer
370
18
48
1
60
0
100
AcDbLine
10
20.39319
20
-2.132583
30
0
11
12.750332
21
-7.952691
31
0
39
0
210
0
220
0
230
1
0
LINE
5
81
100
AcDbEntity
8
1
62
256
6
ByLayer
370
18
48
1
60
0
100
AcDbLine
10
17.787979
20
1.847615
30
0
11
16.122481
21
-0.873086
31
0
39
0
210
0
220
0
230
1
0
LINE
5
82
100
AcDbEntity
8
1
62
256
6
ByLayer
370
18
48
1
60
0
100
AcDbLine
10
15.853841
20
-1.013583
30
0
11
17.599294
21
1.83773
31
0
39
0
210
0
220
0
230
1
0
LINE
5
83
100
AcDbEntity
8
1
62
256
6
ByLayer
370
18
48
1
60
0
100
AcDbLine
10
13.253444
20
1.87111
30
0
11
12.689282
21
0.949513
31
0
39
0
210
0
220
0
230
1
0
LINE
5
84
100
AcDbEntity
8
1
62
256
6
ByLayer
370
18
48
1
60
0
100
AcDbLine
10
1.967954
20
9.577547
30
0
11
17.9403
21
10.414622
31
0
39
0
210
0
220
0
230
1
0
LINE
5
85
100
AcDbEntity
8
1
62
256
6
ByLayer
370
18
48
1
60
0
100
AcDbLine
10
12.750332
20
-7.952691
30
0
11
2.475072
21
-7.957812
31
0
39
0
210
0
220
0
230
1
0
LINE
5
86
100
AcDbEntity
8
1
62
256
6
ByLayer
370
18
48
1
60
0
100
AcDbLine
10
1.662888
20
9.561559
30
0
11
1.967954
21
9.577547
31
0
39
0
210
0
220
0
230
1
0
LINE
5
87
100
AcDbEntity
8
1
62
256
6
ByLayer
370
18
48
1
60
0
100
AcDbLine
10
2.475072
20
-7.957812
30
0
11
1.967954
21
9.577547
31
0
39
0
210
0
220
0
230
1
0
LINE
5
88
100
AcDbEntity
8
1
62
256
6
ByLayer
370
18
48
1
60
0
100
AcDbLine
10
16.316038
20
8.043237
30
0
11
15.210575
21
6.237389
31
0
39
0
210
0
220
0
230
1
0
LINE
5
89
100
AcDbEntity
8
1
62
256
6
ByLayer
370
18
48
1
60
0
100
AcDbLine
10
0
20
-7.9375
30
0
11
0
21
7.9375
31
0
39
0
210
0
220
0
230
1
0
LINE
5
8A
100
AcDbEntity
8
1
62
256
6
ByLayer
370
18
48
1
60
0
100
AcDbLine
10
13.618824
20
-0.539949
30
0
11
13.729841
21
-0.608816
31
0
39
0
210
0
220
0
230
1
0
LINE
5
8B
100
AcDbEntity
8
1
62
256
6
ByLayer
370
18
48
1
60
0
100
AcDbLine
10
18.266378
20
2.267388
30
0
11
21.298848
21
2.439608
31
0
39
0
210
0
220
0
230
1
0
LINE
5
8C
100
AcDbEntity
8
1
62
256
6
ByLayer
370
18
48
1
60
0
100
AcDbLine
10
22.847192
20
2.527541
30
0
11
23.260282
21
2.551001
31
0
39
0
210
0
220
0
230
1
0
LINE
5
8D
100
AcDbEntity
8
1
62
256
6
ByLayer
370
18
48
1
60
0
100
AcDbLine
10
1.545481
20
-7.942674
30
0
11
2.475072
21
-7.957812
31
0
39
0
210
0
220
0
230
1
0
LINE
5
8E
100
AcDbEntity
8
1
62
256
6
ByLayer
370
18
48
1
60
0
100
AcDbLine
10
12.719831
20
1.164282
30
0
11
13.193222
21
1.937598
31
0
39
0
210
0
220
0
230
1
0
LINE
5
8F
100
AcDbEntity
8
1
62
256
6
ByLayer
370
18
48
1
60
0
100
AcDbLine
10
1.545481
20
9.12339
30
0
11
1.662888
21
9.561559
31
0
39
0
210
0
220
0
230
1
0
LINE
5
90
100
AcDbEntity
8
1
62
256
6
ByLayer
370
18
48
1
60
0
100
AcDbLine
10
17.747623
20
1.721914
30
0
11
17.791067
21
1.724381
31
0
39
0
210
0
220
0
230
1
0
LINE
5
91
100
AcDbEntity
8
1
62
256
6
ByLayer
370
18
48
1
60
0
100
AcDbLine
10
13.541844
20
3.224323
30
0
11
12.941654
21
2.243873
31
0
39
0
210
0
220
0
230
1
0
LINE
5
92
100
AcDbEntity
8
1
62
256
6
ByLayer
370
18
48
1
60
0
100
AcDbLine
10
16.713034
20
-0.270103
30
0
11
16.274117
21
-0.764965
31
0
39
0
210
0
220
0
230
1
0
LINE
5
93
100
AcDbEntity
8
1
62
256
6
ByLayer
370
18
48
1
60
0
100
AcDbLine
10
18.266378
20
2.267388
30
0
11
17.66782
21
1.58365
31
0
39
0
210
0
220
0
230
1
0
LINE
5
94
100
AcDbEntity
8
1
62
256
6
ByLayer
370
18
48
1
60
0
100
AcDbLine
10
23.260282
20
2.551001
30
0
11
20.39319
21
-2.132583
31
0
39
0
210
0
220
0
230
1
0
LINE
5
95
100
AcDbEntity
8
1
62
256
6
ByLayer
370
18
48
1
60
0
100
AcDbLine
10
22.721017
20
2.514138
30
0
11
22.815444
21
2.606136
31
0
39
0
210
0
220
0
230
1
0
LINE
5
96
100
AcDbEntity
8
1
62
256
6
ByLayer
370
18
48
1
60
0
100
AcDbLine
10
17.904348
20
1.853759
30
0
11
13.854773
21
1.64153
31
0
39
0
210
0
220
0
230
1
0
LINE
5
97
100
AcDbEntity
8
1
62
256
6
ByLayer
370
18
48
1
60
0
100
AcDbLine
10
13.572172
20
3.278652
30
0
11
13.666599
21
3.37065
31
0
39
0
210
0
220
0
230
1
0
LINE
5
98
100
AcDbEntity
8
1
62
256
6
ByLayer
370
18
48
1
60
0
100
AcDbLine
10
18.050175
20
10.531512
30
0
11
17.929622
21
10.41406
31
0
39
0
210
0
220
0
230
1
0
LINE
5
99
100
AcDbEntity
8
1
62
256
6
ByLayer
370
18
48
1
60
0
100
AcDbLine
10
23.356122
20
2.769512
30
0
11
23.123894
21
2.543255
31
0
39
0
210
0
220
0
230
1
0
LINE
5
9A
100
AcDbEntity
8
1
62
256
6
ByLayer
370
18
48
1
60
0
100
AcDbLine
10
24.300738
20
3.125818
30
0
11
23.219153
21
2.483797
31
0
39
0
210
0
220
0
230
1
0
LINE
5
9B
100
AcDbEntity
8
1
62
256
6
ByLayer
370
18
48
1
60
0
100
AcDbLine
10
10.857001
20
4.807518
30
0
11
10.826873
21
4.734362
31
0
39
0
210
0
220
0
230
1
0
LINE
5
9C
100
AcDbEntity
8
1
62
256
6
ByLayer
370
18
48
1
60
0
100
AcDbLine
10
9.149342
20
6.74436
30
0
11
9.354636
21
6.769604
31
0
39
0
210
0
220
0
230
1
0
LINE
5
9D
100
AcDbEntity
8
1
62
256
6
ByLayer
370
18
48
1
60
0
100
AcDbLine
10
19.766661
20
7.541405
30
0
11
19.765439
21
7.540215
31
0
39
0
210
0
220
0
230
1
0
LINE
5
9E
100
AcDbEntity
8
80
62
256
6
ByLayer
370
18
48
1
60
0
100
AcDbLine
10
0
20
0
30
0
11
-5
21
0
31
0
39
0
210
0
220
0
230
1
0
LINE
5
9F
100
AcDbEntity
8
81
62
256
6
ByLayer
370
18
48
1
60
0
100
AcDbLine
10
28.386972
20
12.0625
30
0
11
38.386972
21
12.0625
31
0
39
0
210
0
220
0
230
1
0
LINE
5
A0
100
AcDbEntity
8
1
62
256
6
ByLayer
370
18
48
1
60
0
100
AcDbLine
10
18.451212
20
10.927133
30
0
11
19.932771
21
11.806577
31
0
39
0
210
0
220
0
230
1
0
LINE
5
A1
100
AcDbEntity
8
1
62
256
6
ByLayer
370
18
48
1
60
0
100
AcDbLine
10
20.473449
20
11.969952
30
0
11
28.897176
21
12.411421
31
0
39
0
210
0
220
0
230
1
0
LINE
5
A2
100
AcDbEntity
8
1
62
256
6
ByLayer
370
18
48
1
60
0
100
AcDbLine
10
24.300738
20
3.125818
30
0
11
24.837681
21
3.648955
31
0
39
0
210
0
220
0
230
1
0
LINE
5
A3
100
AcDbEntity
8
1
62
256
6
ByLayer
370
18
48
1
60
0
100
AcDbLine
10
13.666599
20
3.37065
30
0
11
18.050175
21
10.531512
31
0
39
0
210
0
220
0
230
1
0
LINE
5
A4
100
AcDbEntity
8
1
62
256
6
ByLayer
370
18
48
1
60
0
100
AcDbLine
10
24.837681
20
3.648955
30
0
11
23.356122
21
2.769512
31
0
39
0
210
0
220
0
230
1
0
LINE
5
A5
100
AcDbEntity
8
1
62
256
6
ByLayer
370
18
48
1
60
0
100
AcDbLine
10
22.815444
20
2.606136
30
0
11
14.391717
21
2.164667
31
0
39
0
210
0
220
0
230
1
0
LINE
5
A6
100
AcDbEntity
8
1
62
256
6
ByLayer
370
18
48
1
60
0
100
AcDbLine
10
14.391717
20
2.164667
30
0
11
13.854773
21
1.64153
31
0
39
0
210
0
220
0
230
1
0
LINE
5
A7
100
AcDbEntity
8
1
62
256
6
ByLayer
370
18
48
1
60
0
100
AcDbLine
10
29.622295
20
11.205438
30
0
11
25.238718
21
4.044576
31
0
39
0
210
0
220
0
230
1
0
LINE
5
A8
100
AcDbEntity
8
1
62
256
6
ByLayer
370
18
48
1
60
0
100
AcDbLine
10
10.993453
20
6.898296
30
0
11
10.623089
21
6.537455
31
0
39
0
210
0
220
0
230
1
0
LINE
5
A9
100
AcDbEntity
8
1
62
256
6
ByLayer
370
18
48
1
60
0
100
AcDbLine
10
11.440458
20
5.685785
30
0
11
11.070094
21
5.324944
31
0
39
0
210
0
220
0
230
1
0
LINE
5
AA
100
AcDbEntity
8
1
62
256
6
ByLayer
370
18
48
1
60
0
100
AcDbLine
10
11.238464
20
5.733776
30
0
11
11.070094
21
5.324944
31
0
39
0
210
0
220
0
230
1
0
LINE
5
AB
100
AcDbEntity
8
1
62
256
6
ByLayer
370
18
48
1
60
0
100
AcDbLine
10
10.732531
20
7.263441
30
0
11
10.351475
21
6.892183
31
0
39
0
210
0
220
0
230
1
0
LINE
5
AC
100
AcDbEntity
8
1
62
256
6
ByLayer
370
18
48
1
60
0
100
AcDbLine
10
10.857001
20
4.807518
30
0
11
11.227365
21
5.168359
31
0
39
0
210
0
220
0
230
1
0
LINE
5
AD
100
AcDbEntity
8
1
62
256
6
ByLayer
370
18
48
1
60
0
100
AcDbLine
10
9.911491
20
6.838079
30
0
11
10.351475
21
6.892183
31
0
39
0
210
0
220
0
230
1
0
LINE
5
AE
100
AcDbEntity
8
1
62
256
6
ByLayer
370
18
48
1
60
0
100
AcDbLine
10
9.911491
20
6.838079
30
0
11
10.281855
21
7.19892
31
0
39
0
210
0
220
0
230
1
0
LINE
5
AF
100
AcDbEntity
8
1
62
256
6
ByLayer
370
18
48
1
60
0
100
AcDbLine
10
9.725
20
7.130445
30
0
11
9.354636
21
6.769604
31
0
39
0
210
0
220
0
230
1
0
LINE
5
B0
100
AcDbEntity
8
1
62
256
6
ByLayer
370
18
48
1
60
0
100
AcDbLine
10
10.96685
20
6.088503
30
0
11
11.238464
21
5.733776
31
0
39
0
210
0
220
0
230
1
0
LINE
5
B1
100
AcDbEntity
8
1
62
256
6
ByLayer
370
18
48
1
60
0
100
AcDbLine
10
11.61952
20
6.105033
30
0
11
11.238464
21
5.733776
31
0
39
0
210
0
220
0
230
1
0
LINE
5
B2
100
AcDbEntity
8
1
62
256
6
ByLayer
370
18
48
1
60
0
100
AcDbLine
10
10.351475
20
6.892183
30
0
11
10.623089
21
6.537455
31
0
39
0
210
0
220
0
230
1
0
LINE
5
B3
100
AcDbEntity
8
1
62
256
6
ByLayer
370
18
48
1
60
0
100
AcDbLine
10
10.96685
20
6.088503
30
0
11
11.337214
21
6.449344
31
0
39
0
210
0
220
0
230
1
0
MTEXT
5
F7
100
AcDbEntity
8
SK6
62
256
6
ByLayer
370
13
48
1
60
0
100
AcDbMText
10
-51.899495
20
-32.999425
30
0
210
0
220
0
230
1
1
\W0.7062;PDJNR 1616H 11
40
3.5
41
0
44
1.084337
50
0
71
7
72
5
7
iso_b_vert
0
DIMENSION
5
109
100
AcDbEntity
8
SK2
62
256
6
ByLayer
370
13
48
1
60
0
100
AcDbDimension
2
DimnDraft3D1
10
-81.363028
20
-7.9375
30
0
11
-81.363028
21
0.0625
31
0
70
32
71
5
72
1
41
1
210
0
220
0
230
1
3
Standard
100
AcDbAlignedDimension
13
-73.200528
23
8.0625
33
0
14
-73.200528
24
-7.9375
34
0
50
90
100
AcDbRotatedDimension
1001
ACAD
1000
DSTYLE
1002
{
1070
    74
1070
     0
1070
   279
1070
     0
1070
   172
1070
     1
1070
   173
1070
     1
1070
   340
1005
F8
1070
   271
1070
     1
1070
   272
1070
     2
1070
    77
1070
     1
1070
    73
1070
     0
1070
   171
1070
     3
1070
   274
1070
     4
1070
   177
1070
   150
1070
   176
1070
     9
1070
   178
1070
    43
1070
    78
1070
     8
1070
    48
1040
-0.005
1070
    41
1041
3.175
1070
   147
1041
2.25
1070
    42
1041
1.5875
1070
    44
1041
3.175
1070
   140
1041
4.5
1070
   343
1005
10A
1070
   344
1005
10A
1002
}
0
DIMENSION
5
11F
100
AcDbEntity
8
2
62
256
6
ByLayer
370
13
48
1
60
0
100
AcDbDimension
2
DimnDraft3D2
10
46.236972
20
12.4125
30
0
11
46.236972
21
2.2375
31
0
70
32
71
5
72
1
41
1
210
0
220
0
230
1
3
Standard
100
AcDbAlignedDimension
13
1.5875
23
-7.9375
33
0
14
31.324472
24
12.4125
34
0
50
90
100
AcDbRotatedDimension
1001
ACAD
1000
DSTYLE
1002
{
1070
    74
1070
     0
1070
   279
1070
     0
1070
   172
1070
     1
1070
   173
1070
     1
1070
   340
1005
F8
1070
   271
1070
     1
1070
   272
1070
     2
1070
    77
1070
     1
1070
    73
1070
     0
1070
   171
1070
     3
1070
   274
1070
     4
1070
   177
1070
   150
1070
   176
1070
     9
1070
   178
1070
    43
1070
    78
1070
     8
1070
    48
1040
-0.005
1070
    41
1041
3.175
1070
   147
1041
2.25
1070
    42
1041
1.5875
1070
    44
1041
3.175
1070
   140
1041
4.5
1070
   343
1005
10A
1070
   344
1005
10A
1002
}
0
DIMENSION
5
12D
100
AcDbEntity
8
SK2
62
256
6
ByLayer
370
13
48
1
60
0
100
AcDbDimension
2
DimnDraft3D3
10
29.736972
20
29.9125
30
0
11
-20.938028
21
29.9125
31
0
70
32
71
5
72
1
41
1
210
0
220
0
230
1
3
Standard
100
AcDbAlignedDimension
13
-71.613028
23
9.65
33
0
14
29.736972
24
14
34
0
50
0
100
AcDbRotatedDimension
1001
ACAD
1000
DSTYLE
1002
{
1070
   279
1070
     0
1070
   172
1070
     1
1070
   173
1070
     1
1070
   340
1005
F8
1070
   271
1070
     1
1070
   272
1070
     2
1070
    77
1070
     1
1070
    73
1070
     0
1070
   171
1070
     3
1070
   274
1070
     4
1070
   177
1070
   150
1070
   176
1070
     9
1070
   178
1070
    43
1070
    78
1070
     8
1070
    48
1040
-0.005
1070
    41
1041
3.175
1070
   147
1041
2.25
1070
    42
1041
1.5875
1070
    44
1041
3.175
1070
   140
1041
4.5
1070
   343
1005
10A
1070
   344
1005
10A
1002
}
0
DIMENSION
5
13B
100
AcDbEntity
8
2
62
256
6
ByLayer
370
13
48
1
60
0
100
AcDbDimension
2
DimnDraft3D4
10
17.90168
20
11.834927
30
0
11
17.448836
21
24.116193
31
0
70
34
71
5
72
1
41
1
210
0
220
0
230
1
3
Standard
100
AcDb2LineAngularDimension
13
29.736972
23
12.4125
33
0
14
29.736972
24
10.825
34
0
15
28.90168
25
12.411412
35
0
16
20.713021
26
21.018597
36
0
40
0
0
ENDSEC
0
SECTION
2
OBJECTS
0
DICTIONARY
5
1a5
330
0
100
AcDbDictionary
280
0
281
1
3
ACAD_GROUP
350
1a6
3
ACAD_MLINESTYLE
350
1a7
0
DICTIONARY
5
1a6
330
0
100
AcDbDictionary
280
0
281
1
0
DICTIONARY
5
1a7
330
0
100
AcDbDictionary
280
0
281
1
3
Standard
350
18
0
MLINESTYLE
5
18
330
1a7
100
AcDbMlineStyle
2
Standard
70
0
3

62
256
51
90
52
90
71
2
49
-0.5
62
256
6
ByLayer
49
0.5
62
256
6
ByLayer
0
RASTERVARIABLES
5
194
330

100
AcDbRasterVariables
90
0
70
1
71
1
72
1
0
ENDSEC
0
EOF
