0
SECTION
2
HEADER
9
$ACADVER
1
AC1015
9
$DWGCODEPAGE
3
ANSI_1252
9
$HANDSEED
5
1c7
9
$ANGBASE
50
0
9
$ANGDIR
70
0
9
$ATTMODE
70
1
9
$AUNITS
70
0
9
$AUPREC
70
0
9
$CECOLOR
62
256
9
$CELTSCALE
40
1
9
$CELTYPE
6
ByLayer
9
$CELWEIGHT
370
18
9
$CLAYER
8
0
9
$CMLJUST
70
0
9
$CMLSCALE
40
1
9
$CMLSTYLE
2
Standard
9
$DIMSTYLE
2
Standard
9
$TEXTSIZE
40
0.2
9
$TEXTSTYLE
7
Standard
9
$LUNITS
70
2
9
$LUPREC
70
4
9
$EXTNAMES
290
1
9
$INSUNITS
70
4
9
$LTSCALE
40
1
9
$LWDISPLAY
290
1
9
$PDMODE
70
0
9
$PDSIZE
40
0
9
$PLINEGEN
70
0
0
ENDSEC
0
SECTION
2
CLASSES
0
CLASS
1
RASTERVARIABLES
2
AcDbRasterVariables
3
ISM
90
0
280
0
281
0
0
ENDSEC
0
SECTION
2
TABLES
0
TABLE
2
VPORT
5
1bd
100
AcDbSymbolTable
0
VPORT
5
1
100
AcDbSymbolTableRecord
100
AcDbViewportTableRecord
2
*Active
70
0
10
0
20
0
11
1
21
1
12
-1
22
1
13
0
23
0
14
0.5
24
0.5
15
10
25
10
16
0
26
0
36
1
17
0
27
0
37
0
0
ENDTAB
0
TABLE
2
LTYPE
5
1be
100
AcDbSymbolTable
0
LTYPE
5
14
100
AcDbSymbolTableRecord
100
AcDbLinetypeTableRecord
70
0
2
ByBlock
3

72
65
73
0
40
0
0
LTYPE
5
15
100
AcDbSymbolTableRecord
100
AcDbLinetypeTableRecord
70
0
2
ByLayer
3

72
65
73
0
40
0
0
LTYPE
5
16
100
AcDbSymbolTableRecord
100
AcDbLinetypeTableRecord
70
0
2
CONTINUOUS
3
Solid line
72
65
73
0
40
0
0
LTYPE
5
6A
100
AcDbSymbolTableRecord
100
AcDbLinetypeTableRecord
70
0
2
CENTER
3
____ _ ____ _ ____ _ ____
72
65
73
4
40
47.5
49
22
74
0
49
-8.5
74
0
49
8.5
74
0
49
-8.5
74
0
0
LTYPE
5
6B
100
AcDbSymbolTableRecord
100
AcDbLinetypeTableRecord
70
0
2
DASHED
3
__ __ __ __ __ __ __ __ __
72
65
73
2
40
25.72
49
12.86
74
0
49
-12.86
74
0
0
ENDTAB
0
TABLE
2
LAYER
5
1bf
100
AcDbSymbolTable
0
LAYER
5
10
100
AcDbSymbolTableRecord
100
AcDbLayerTableRecord
2
0
70
0
62
7
6
CONTINUOUS
290
1
370
-3
390
0
0
LAYER
5
6D
100
AcDbSymbolTableRecord
100
AcDbLayerTableRecord
2
80
70
0
62
-6
6
CONTINUOUS
290
1
370
-3
390
0
0
LAYER
5
6F
100
AcDbSymbolTableRecord
100
AcDbLayerTableRecord
2
81
70
0
62
-3
6
CONTINUOUS
290
1
370
-3
390
0
0
LAYER
5
71
100
AcDbSymbolTableRecord
100
AcDbLayerTableRecord
2
1
70
0
62
4
6
CONTINUOUS
290
1
370
-3
390
0
0
LAYER
5
128
100
AcDbSymbolTableRecord
100
AcDbLayerTableRecord
2
2
70
0
62
7
6
CONTINUOUS
290
1
370
-3
390
0
0
LAYER
5
1aa
100
AcDbSymbolTableRecord
100
AcDbLayerTableRecord
2
SK1
70
0
62
4
6
CONTINUOUS
290
1
370
-3
390
0
0
LAYER
5
1ab
100
AcDbSymbolTableRecord
100
AcDbLayerTableRecord
2
SK6
70
0
62
5
6
CONTINUOUS
290
1
370
-3
390
0
0
LAYER
5
1ac
100
AcDbSymbolTableRecord
100
AcDbLayerTableRecord
2
SK2
70
0
62
7
6
CONTINUOUS
290
1
370
-3
390
0
0
ENDTAB
0
TABLE
2
STYLE
5
1c0
100
AcDbSymbolTable
0
STYLE
5
11
100
AcDbSymbolTableRecord
100
AcDbTextStyleTableRecord
2
Standard
3
txt
70
0
71
0
40
0
41
1
42
0
50
0
0
STYLE
5
10D
100
AcDbSymbolTableRecord
100
AcDbTextStyleTableRecord
2
iso_b_vert
3
simplex.shx
70
0
71
0
40
0
41
1
42
0
50
0
0
STYLE
5
10E
100
AcDbSymbolTableRecord
100
AcDbTextStyleTableRecord
2
DWGDirectTextStyle
3
simplex
70
0
71
0
40
0
41
1
42
0
50
0
0
ENDTAB
0
TABLE
2
DIMSTYLE
5
1c1
100
AcDbSymbolTable
100
AcDbDimStyleTable
0
DIMSTYLE
105
27
100
AcDbSymbolTableRecord
100
AcDbDimStyleTableRecord
2
Standard
70
0
3
<>
41
0.18
42
0.0625
44
0.18
140
0.18
147
0.09
73
0
74
0
77
1
271
2
275
0
278
52
280
0
340
11
0
ENDTAB
0
TABLE
2
VIEW
5
1c2
100
AcDbSymbolTable
0
ENDTAB
0
TABLE
2
UCS
5
1c3
100
AcDbSymbolTable
0
ENDTAB
0
TABLE
2
APPID
5
1c4
100
AcDbSymbolTable
0
APPID
5
12
100
AcDbSymbolTableRecord
100
AcDbRegAppTableRecord
2
ACAD
70
0
0
ENDTAB
0
TABLE
2
BLOCK_RECORD
5
1c5
100
AcDbSymbolTable
0
BLOCK_RECORD
5
1F
100
AcDbSymbolTableRecord
100
AcDbBlockTableRecord
2
*Model_Space
340
0
70
0
0
BLOCK_RECORD
5
1B
100
AcDbSymbolTableRecord
100
AcDbBlockTableRecord
2
*Paper_Space
340
0
70
0
0
BLOCK_RECORD
5
23
100
AcDbSymbolTableRecord
100
AcDbBlockTableRecord
2
*Paper_Space0
340
0
70
0
0
BLOCK_RECORD
5
110
100
AcDbSymbolTableRecord
100
AcDbBlockTableRecord
2
DimnDraft3D1
340
0
70
0
0
BLOCK_RECORD
5
11F
100
AcDbSymbolTableRecord
100
AcDbBlockTableRecord
2
_CLOSED
340
0
70
0
0
BLOCK_RECORD
5
126
100
AcDbSymbolTableRecord
100
AcDbBlockTableRecord
2
DimnDraft3D2
340
0
70
0
0
BLOCK_RECORD
5
135
100
AcDbSymbolTableRecord
100
AcDbBlockTableRecord
2
DimnDraft3D3
340
0
70
0
0
BLOCK_RECORD
5
143
100
AcDbSymbolTableRecord
100
AcDbBlockTableRecord
2
DimnDraft3D4
340
0
70
0
0
ENDTAB
0
ENDSEC
0
SECTION
2
BLOCKS
0
BLOCK
5
20
100
AcDbEntity
8
0
100
AcDbBlockBegin
2
*Model_Space
70
0
10
0
20
0
30
0
3
*Model_Space
0
ENDBLK
5
21
100
AcDbEntity
8
0
100
AcDbBlockEnd
0
BLOCK
5
1C
100
AcDbEntity
8
0
100
AcDbBlockBegin
2
*Paper_Space
70
0
10
0
20
0
30
0
3
*Paper_Space
0
ENDBLK
5
1D
100
AcDbEntity
8
0
100
AcDbBlockEnd
0
BLOCK
5
24
100
AcDbEntity
8
0
100
AcDbBlockBegin
2
*Paper_Space0
70
0
10
0
20
0
30
0
3
*Paper_Space0
0
ENDBLK
5
25
100
AcDbEntity
8
0
100
AcDbBlockEnd
0
BLOCK
5
11C
100
AcDbEntity
8
0
100
AcDbBlockBegin
2
DimnDraft3D1
70
0
10
0
20
0
30
0
3
DimnDraft3D1
0
MTEXT
5
111
100
AcDbEntity
8
SK2
62
256
6
ByLayer
370
13
48
1
60
0
100
AcDbMText
10
-143.822305
20
-1.625658
30
0
210
0
220
0
230
1
1
\W0.6740;25
40
4.5
41
0
44
1.084337
50
90
71
7
72
5
7
iso_b_vert
0
LINE
5
113
100
AcDbEntity
8
SK2
62
256
6
ByLayer
370
13
48
1
60
0
100
AcDbLine
10
-134.534805
20
-12.5625
30
0
11
-145.872305
21
-12.5625
31
0
39
0
210
0
220
0
230
1
0
LINE
5
114
100
AcDbEntity
8
SK2
62
256
6
ByLayer
370
13
48
1
60
0
100
AcDbLine
10
-134.534805
20
12.4375
30
0
11
-145.872305
21
12.4375
31
0
39
0
210
0
220
0
230
1
0
LINE
5
115
100
AcDbEntity
8
SK2
62
256
6
ByLayer
370
13
48
1
60
0
100
AcDbLine
10
-142.697305
20
-12.5625
30
0
11
-142.697305
21
12.4375
31
0
39
0
210
0
220
0
230
1
0
LINE
5
116
100
AcDbEntity
8
SK2
62
256
6
ByLayer
370
13
48
1
60
0
100
AcDbLine
10
-142.697305
20
-12.5625
30
0
11
-143.548043
21
-9.387503
31
0
39
0
210
0
220
0
230
1
0
LINE
5
117
100
AcDbEntity
8
SK2
62
256
6
ByLayer
370
13
48
1
60
0
100
AcDbLine
10
-142.697305
20
-12.5625
30
0
11
-141.846566
21
-9.387497
31
0
39
0
210
0
220
0
230
1
0
LINE
5
118
100
AcDbEntity
8
SK2
62
256
6
ByLayer
370
13
48
1
60
0
100
AcDbLine
10
-143.548043
20
-9.387503
30
0
11
-141.846566
21
-9.387497
31
0
39
0
210
0
220
0
230
1
0
LINE
5
119
100
AcDbEntity
8
SK2
62
256
6
ByLayer
370
13
48
1
60
0
100
AcDbLine
10
-142.697305
20
12.4375
30
0
11
-141.846566
21
9.262503
31
0
39
0
210
0
220
0
230
1
0
LINE
5
11A
100
AcDbEntity
8
SK2
62
256
6
ByLayer
370
13
48
1
60
0
100
AcDbLine
10
-142.697305
20
12.4375
30
0
11
-143.548043
21
9.262497
31
0
39
0
210
0
220
0
230
1
0
LINE
5
11B
100
AcDbEntity
8
SK2
62
256
6
ByLayer
370
13
48
1
60
0
100
AcDbLine
10
-141.846566
20
9.262503
30
0
11
-143.548043
21
9.262497
31
0
39
0
210
0
220
0
230
1
0
ENDBLK
5
11D
100
AcDbEntity
8
0
100
AcDbBlockEnd
0
BLOCK
5
120
100
AcDbEntity
8
0
100
AcDbBlockBegin
2
_CLOSED
70
0
10
0
20
0
30
0
3
_CLOSED
0
LINE
5
122
100
AcDbEntity
8
0
62
256
6
ByLayer
370
-2
48
1
60
0
100
AcDbLine
10
-1
20
0.166667
30
0
11
0
21
0
31
0
39
0
210
0
220
0
230
1
0
LINE
5
123
100
AcDbEntity
8
0
62
256
6
ByLayer
370
-2
48
1
60
0
100
AcDbLine
10
0
20
0
30
0
11
-1
21
-0.166667
31
0
39
0
210
0
220
0
230
1
0
LINE
5
124
100
AcDbEntity
8
0
62
256
6
ByLayer
370
-2
48
1
60
0
100
AcDbLine
10
-1
20
0.166667
30
0
11
-1
21
-0.166667
31
0
39
0
210
0
220
0
230
1
0
LINE
5
125
100
AcDbEntity
8
0
62
256
6
ByLayer
370
-2
48
1
60
0
100
AcDbLine
10
0
20
0
30
0
11
-1
21
0
31
0
39
0
210
0
220
0
230
1
0
ENDBLK
5
121
100
AcDbEntity
8
0
100
AcDbBlockEnd
0
BLOCK
5
132
100
AcDbEntity
8
0
100
AcDbBlockBegin
2
DimnDraft3D2
70
0
10
0
20
0
30
0
3
DimnDraft3D2
0
MTEXT
5
127
100
AcDbEntity
8
2
62
256
6
ByLayer
370
13
48
1
60
0
100
AcDbMText
10
53.777695
20
-5.300658
30
0
210
0
220
0
230
1
1
\W0.6740;32
40
4.5
41
0
44
1.084337
50
90
71
7
72
5
7
iso_b_vert
0
LINE
5
129
100
AcDbEntity
8
2
62
256
6
ByLayer
370
13
48
1
60
0
100
AcDbLine
10
39.990195
20
-19.9125
30
0
11
58.077695
21
-19.9125
31
0
39
0
210
0
220
0
230
1
0
LINE
5
12A
100
AcDbEntity
8
2
62
256
6
ByLayer
370
13
48
1
60
0
100
AcDbLine
10
1.5875
20
12.4375
30
0
11
58.077695
21
12.4375
31
0
39
0
210
0
220
0
230
1
0
LINE
5
12B
100
AcDbEntity
8
2
62
256
6
ByLayer
370
13
48
1
60
0
100
AcDbLine
10
54.902695
20
-19.9125
30
0
11
54.902695
21
12.4375
31
0
39
0
210
0
220
0
230
1
0
LINE
5
12C
100
AcDbEntity
8
2
62
256
6
ByLayer
370
13
48
1
60
0
100
AcDbLine
10
54.902695
20
-19.9125
30
0
11
54.051957
21
-16.737503
31
0
39
0
210
0
220
0
230
1
0
LINE
5
12D
100
AcDbEntity
8
2
62
256
6
ByLayer
370
13
48
1
60
0
100
AcDbLine
10
54.902695
20
-19.9125
30
0
11
55.753434
21
-16.737497
31
0
39
0
210
0
220
0
230
1
0
LINE
5
12E
100
AcDbEntity
8
2
62
256
6
ByLayer
370
13
48
1
60
0
100
AcDbLine
10
54.051957
20
-16.737503
30
0
11
55.753434
21
-16.737497
31
0
39
0
210
0
220
0
230
1
0
LINE
5
12F
100
AcDbEntity
8
2
62
256
6
ByLayer
370
13
48
1
60
0
100
AcDbLine
10
54.902695
20
12.4375
30
0
11
55.753434
21
9.262503
31
0
39
0
210
0
220
0
230
1
0
LINE
5
130
100
AcDbEntity
8
2
62
256
6
ByLayer
370
13
48
1
60
0
100
AcDbLine
10
54.902695
20
12.4375
30
0
11
54.051957
21
9.262497
31
0
39
0
210
0
220
0
230
1
0
LINE
5
131
100
AcDbEntity
8
2
62
256
6
ByLayer
370
13
48
1
60
0
100
AcDbLine
10
55.753434
20
9.262503
30
0
11
54.051957
21
9.262497
31
0
39
0
210
0
220
0
230
1
0
ENDBLK
5
133
100
AcDbEntity
8
0
100
AcDbBlockEnd
0
BLOCK
5
140
100
AcDbEntity
8
0
100
AcDbBlockBegin
2
DimnDraft3D3
70
0
10
0
20
0
30
0
3
DimnDraft3D3
0
MTEXT
5
136
100
AcDbEntity
8
SK2
62
256
6
ByLayer
370
13
48
1
60
0
100
AcDbMText
10
-49.954542
20
-45.2875
30
0
210
0
220
0
230
1
1
\W0.6217;170
40
4.5
41
0
44
1.084337
50
0
71
7
72
5
7
iso_b_vert
0
LINE
5
137
100
AcDbEntity
8
SK2
62
256
6
ByLayer
370
13
48
1
60
0
100
AcDbLine
10
-132.947305
20
-14.15
30
0
11
-132.947305
21
-49.5875
31
0
39
0
210
0
220
0
230
1
0
LINE
5
138
100
AcDbEntity
8
SK2
62
256
6
ByLayer
370
13
48
1
60
0
100
AcDbLine
10
38.402695
20
-21.5
30
0
11
38.402695
21
-49.5875
31
0
39
0
210
0
220
0
230
1
0
LINE
5
139
100
AcDbEntity
8
SK2
62
256
6
ByLayer
370
13
48
1
60
0
100
AcDbLine
10
-132.947305
20
-46.4125
30
0
11
38.402695
21
-46.4125
31
0
39
0
210
0
220
0
230
1
0
LINE
5
13A
100
AcDbEntity
8
SK2
62
256
6
ByLayer
370
13
48
1
60
0
100
AcDbLine
10
-132.947305
20
-46.4125
30
0
11
-129.772308
21
-45.561761
31
0
39
0
210
0
220
0
230
1
0
LINE
5
13B
100
AcDbEntity
8
SK2
62
256
6
ByLayer
370
13
48
1
60
0
100
AcDbLine
10
-132.947305
20
-46.4125
30
0
11
-129.772302
21
-47.263239
31
0
39
0
210
0
220
0
230
1
0
LINE
5
13C
100
AcDbEntity
8
SK2
62
256
6
ByLayer
370
13
48
1
60
0
100
AcDbLine
10
-129.772308
20
-45.561761
30
0
11
-129.772302
21
-47.263239
31
0
39
0
210
0
220
0
230
1
0
LINE
5
13D
100
AcDbEntity
8
SK2
62
256
6
ByLayer
370
13
48
1
60
0
100
AcDbLine
10
38.402695
20
-46.4125
30
0
11
35.227698
21
-47.263239
31
0
39
0
210
0
220
0
230
1
0
LINE
5
13E
100
AcDbEntity
8
SK2
62
256
6
ByLayer
370
13
48
1
60
0
100
AcDbLine
10
38.402695
20
-46.4125
30
0
11
35.227692
21
-45.561761
31
0
39
0
210
0
220
0
230
1
0
LINE
5
13F
100
AcDbEntity
8
SK2
62
256
6
ByLayer
370
13
48
1
60
0
100
AcDbLine
10
35.227698
20
-47.263239
30
0
11
35.227692
21
-45.561761
31
0
39
0
210
0
220
0
230
1
0
ENDBLK
5
141
100
AcDbEntity
8
0
100
AcDbBlockEnd
0
BLOCK
5
14E
100
AcDbEntity
8
0
100
AcDbBlockBegin
2
DimnDraft3D4
70
0
10
0
20
0
30
0
3
DimnDraft3D4
0
MTEXT
5
144
100
AcDbEntity
8
2
62
256
6
ByLayer
370
13
48
1
60
0
100
AcDbMText
10
19.902435
20
-29.972976
30
0
210
0
220
0
230
1
1
\W0.8292;93%%d0'
40
4.5
41
0
44
1.084337
50
313.5
71
7
72
5
7
iso_b_vert
0
LINE
5
145
100
AcDbEntity
8
2
62
256
6
ByLayer
370
13
48
1
60
0
100
AcDbLine
10
21.002636
20
-19.04329
30
0
11
13.821025
21
-18.666917
31
0
39
0
210
0
220
0
230
1
0
LINE
5
146
100
AcDbEntity
8
2
62
256
6
ByLayer
370
13
48
1
60
0
100
AcDbLine
10
38.402695
20
-21.5
30
0
11
38.402695
21
-44.570593
31
0
39
0
210
0
220
0
230
1
0
ARC
5
147
100
AcDbEntity
8
2
62
256
6
ByLayer
370
13
48
1
60
0
100
AcDbCircle
39
0
10
38.402695
20
-19.955188
30
0
40
21.4404046845569
210
0
220
0
230
1
100
AcDbArc
50
177
51
270
0
LINE
5
148
100
AcDbEntity
8
2
62
256
6
ByLayer
370
13
48
1
60
0
100
AcDbLine
10
16.991674
20
-18.833084
30
0
11
17.793399
21
-22.02081
31
0
39
0
210
0
220
0
230
1
0
LINE
5
149
100
AcDbEntity
8
2
62
256
6
ByLayer
370
13
48
1
60
0
100
AcDbLine
10
16.991674
20
-18.833084
30
0
11
16.092124
21
-21.994604
31
0
39
0
210
0
220
0
230
1
0
LINE
5
14A
100
AcDbEntity
8
2
62
256
6
ByLayer
370
13
48
1
60
0
100
AcDbLine
10
17.793399
20
-22.02081
30
0
11
16.092124
21
-21.994604
31
0
39
0
210
0
220
0
230
1
0
LINE
5
14B
100
AcDbEntity
8
2
62
256
6
ByLayer
370
13
48
1
60
0
100
AcDbLine
10
38.402695
20
-41.395593
30
0
11
35.198435
21
-42.128449
31
0
39
0
210
0
220
0
230
1
0
LINE
5
14C
100
AcDbEntity
8
2
62
256
6
ByLayer
370
13
48
1
60
0
100
AcDbLine
10
38.402695
20
-41.395593
30
0
11
35.261291
21
-40.428133
31
0
39
0
210
0
220
0
230
1
0
LINE
5
14D
100
AcDbEntity
8
2
62
256
6
ByLayer
370
13
48
1
60
0
100
AcDbLine
10
35.198435
20
-42.128449
30
0
11
35.261291
21
-40.428133
31
0
39
0
210
0
220
0
230
1
0
ENDBLK
5
14F
100
AcDbEntity
8
0
100
AcDbBlockEnd
0
ENDSEC
0
SECTION
2
ENTITIES
0
ARC
5
C1
100
AcDbEntity
8
1
62
256
6
ByLayer
370
18
48
1
60
0
100
AcDbCircle
39
0
10
0
20
-14.0375
30
0
40
1.59999999999929
210
0
220
0
230
-1
100
AcDbArc
50
90
51
165
0
ELLIPSE
5
C2
100
AcDbEntity
8
1
62
256
6
ByLayer
370
18
48
1
60
0
100
AcDbEllipse
10
11.829969
20
-4.554145
30
0
11
-1.0676352451469
21
-1.19170255656356
31
0
210
0
220
0
230
1
40
0.157273
41
-2.88636899104785
42
-1.57737956983647
0
ELLIPSE
5
C3
100
AcDbEntity
8
1
62
256
6
ByLayer
370
18
48
1
60
0
100
AcDbEllipse
10
15.595021
20
-4.884848
30
0
11
-0.831669178214243
21
1.36686735933244
31
0
210
0
220
0
230
1
40
0.039683
41
1.24830631224559
42
1.41775622938625
0
ELLIPSE
5
C4
100
AcDbEntity
8
1
62
256
6
ByLayer
370
18
48
1
60
0
100
AcDbEllipse
10
21.870695
20
-5.697232
30
0
11
0.0958602922510695
21
-0.155667897643203
31
0
210
0
220
0
230
-1
40
0.022144
41
1.68968892545883
42
-3.01106452656249
0
ELLIPSE
5
C5
100
AcDbEntity
8
1
62
256
6
ByLayer
370
18
48
1
60
0
100
AcDbEllipse
10
17.921126
20
-5.150715
30
0
11
1.68531902581991
21
1.72979743761236
31
0
210
0
220
0
230
1
40
0.987534
41
2.10583892089525
42
2.89546307831332
0
ELLIPSE
5
C6
100
AcDbEntity
8
1
62
256
6
ByLayer
370
18
48
1
60
0
100
AcDbEllipse
10
22.249488
20
-12.154504
30
0
11
-1.81437945872593
21
-1.86226399303466
31
0
210
0
220
0
230
1
40
0.987534
41
-0.246129575276496
42
0.0952081969229312
0
ELLIPSE
5
C7
100
AcDbEntity
8
1
62
256
6
ByLayer
370
18
48
1
60
0
100
AcDbEllipse
10
13.787271
20
-1.99725
30
0
11
2.23308241073963
21
2.29201722219648
31
0
210
0
220
0
230
1
40
0.987534
41
-3.10027879171993
42
-1.82565254833137
0
ELLIPSE
5
C8
100
AcDbEntity
8
1
62
256
6
ByLayer
370
18
48
1
60
0
100
AcDbEllipse
10
3.343573
20
3.048739
30
0
11
0.0145322167875435
21
-2.1283840525879
31
0
210
0
220
0
230
-1
40
0.194701
41
1.75241171649733
42
-2.95997726388717
0
ELLIPSE
5
C9
100
AcDbEntity
8
1
62
256
6
ByLayer
370
18
48
1
60
0
100
AcDbEllipse
10
18.508759
20
-4.646627
30
0
11
1.75510285115553
21
1.801422975806
31
0
210
0
220
0
230
1
40
0.987534
41
-0.246129575276495
42
0.420998154978391
0
ELLIPSE
5
CA
100
AcDbEntity
8
1
62
256
6
ByLayer
370
18
48
1
60
0
100
AcDbEllipse
10
0
20
12.444481
30
0
11
1.60000000049332
21
1.61702248863035E-15
31
0
210
0
220
0
230
-1
40
0.004363
41
1.44557460681439
42
1.5707963267949
0
ELLIPSE
5
CB
100
AcDbEntity
8
1
62
256
6
ByLayer
370
18
48
1
60
0
100
AcDbEllipse
10
20.628069
20
-9.505808
30
0
11
-1.81437945872592
21
-1.86226399303466
31
0
210
0
220
0
230
1
40
0.987534
41
-0.58746734747593
42
-0.246129575276498
0
ELLIPSE
5
CC
100
AcDbEntity
8
1
62
256
6
ByLayer
370
18
48
1
60
0
100
AcDbEllipse
10
14.826398
20
-3.009658
30
0
11
1.1351272086696
21
1.12762915832089
31
0
210
0
220
0
230
-1
40
0.954085
41
1.81006562166291
42
3.08469186505031
0
ELLIPSE
5
CD
100
AcDbEntity
8
1
62
256
6
ByLayer
370
18
48
1
60
0
100
AcDbEllipse
10
11.648446
20
-10.711009
30
0
11
-1.08513848396878
21
-1.11377711891112
31
0
210
0
220
0
230
1
40
0.987534
41
0.247743085430097
42
2.33690243590824
0
ELLIPSE
5
CE
100
AcDbEntity
8
1
62
256
6
ByLayer
370
18
48
1
60
0
100
AcDbEllipse
10
11.648446
20
-10.711009
30
0
11
-1.08513848396878
21
-1.11377711891112
31
0
210
0
220
0
230
1
40
0.987534
41
2.33690243590824
42
2.9638466553106
0
ELLIPSE
5
CF
100
AcDbEntity
8
1
62
256
6
ByLayer
370
18
48
1
60
0
100
AcDbEllipse
10
11.76119
20
-10.820854
30
0
11
1.08513848396879
21
1.1137771189111
31
0
210
0
220
0
230
1
40
0.987534
41
-0.181680505350879
42
-0.0737472794630033
0
ELLIPSE
5
D0
100
AcDbEntity
8
1
62
256
6
ByLayer
370
18
48
1
60
0
100
AcDbEllipse
10
11.76119
20
-10.820854
30
0
11
1.08513848396879
21
1.1137771189111
31
0
210
0
220
0
230
1
40
0.987534
41
-2.94636527471823
42
-2.71913301295426
0
ELLIPSE
5
D1
100
AcDbEntity
8
1
62
256
6
ByLayer
370
18
48
1
60
0
100
AcDbEllipse
10
16.44734
20
-6.286612
30
0
11
-0.553909113601425
21
-0.568527709412025
31
0
210
0
220
0
230
1
40
0.987534
41
-2.4277911402694
42
-1.0853187633644
0
ELLIPSE
5
D2
100
AcDbEntity
8
1
62
256
6
ByLayer
370
18
48
1
60
0
100
AcDbEllipse
10
26.672711
20
-12.356324
30
0
11
1.79902701715211
21
1.84650637463204
31
0
210
0
220
0
230
1
40
0.987534
41
-2.94391853315694
42
-2.20289556048475
0
ELLIPSE
5
D3
100
AcDbEntity
8
1
62
256
6
ByLayer
370
18
48
1
60
0
100
AcDbEllipse
10
26.672711
20
-12.356324
30
0
11
1.79902701715211
21
1.84650637463204
31
0
210
0
220
0
230
1
40
0.987534
41
-0.6015667983751
42
-0.197675839593535
0
ELLIPSE
5
D4
100
AcDbEntity
8
1
62
256
6
ByLayer
370
18
48
1
60
0
100
AcDbEllipse
10
30.395591
20
-8.58131
30
0
11
-0.837405904027351
21
-0.859506458323691
31
0
210
0
220
0
230
1
40
0.987534
41
3.141588038998
42
-2.90775668456783
0
ELLIPSE
5
D5
100
AcDbEntity
8
1
62
256
6
ByLayer
370
18
48
1
60
0
100
AcDbEllipse
10
26.024432
20
-11.724715
30
0
11
1.93650115306327
21
1.98760868487351
31
0
210
0
220
0
230
1
40
0.987534
41
-2.67925806056245
42
-2.43425195986911
0
ELLIPSE
5
D6
100
AcDbEntity
8
1
62
256
6
ByLayer
370
18
48
1
60
0
100
AcDbEllipse
10
26.024432
20
-11.724715
30
0
11
1.93650115306327
21
1.98760868487351
31
0
210
0
220
0
230
1
40
0.987534
41
-0.679727183137273
42
-0.46236441822448
0
ELLIPSE
5
D7
100
AcDbEntity
8
1
62
256
6
ByLayer
370
18
48
1
60
0
100
AcDbEllipse
10
27.098236
20
-13.38499
30
0
11
-1.81437945872593
21
-1.86226399303467
31
0
210
0
220
0
230
1
40
0.987534
41
2.78339497029969
42
-1.65254223127729
0
ELLIPSE
5
D8
100
AcDbEntity
8
1
62
256
6
ByLayer
370
18
48
1
60
0
100
AcDbEllipse
10
27.171603
20
-12.842389
30
0
11
-1.63991989538689
21
-1.68320014755056
31
0
210
0
220
0
230
1
40
0.987534
41
-0.794962222969456
42
-0.556714993405894
0
ELLIPSE
5
D9
100
AcDbEntity
8
1
62
256
6
ByLayer
370
18
48
1
60
0
100
AcDbEllipse
10
26.511967
20
-12.813795
30
0
11
1.81437945872595
21
1.86226399303464
31
0
210
0
220
0
230
1
40
0.987534
41
7.05116825550702E-06
42
0.298114155585875
0
ELLIPSE
5
DA
100
AcDbEntity
8
1
62
256
6
ByLayer
370
18
48
1
60
0
100
AcDbEllipse
10
25.818674
20
-11.524248
30
0
11
-1.98883902206496
21
-2.04132783851877
31
0
210
0
220
0
230
1
40
0.987534
41
2.48103888311911
42
2.61091906064784
0
ELLIPSE
5
DB
100
AcDbEntity
8
1
62
256
6
ByLayer
370
18
48
1
60
0
100
AcDbEllipse
10
25.818674
20
-11.524248
30
0
11
-1.98883902206496
21
-2.04132783851877
31
0
210
0
220
0
230
1
40
0.987534
41
0.530653930870652
42
0.623699269360907
0
ELLIPSE
5
DC
100
AcDbEntity
8
1
62
256
6
ByLayer
370
18
48
1
60
0
100
AcDbEllipse
10
25.818674
20
-11.524248
30
0
11
-2.07012279951087
21
-2.12475683195637
31
0
210
0
220
0
230
1
40
0.987534
41
0.756042695605619
42
0.778848349807916
0
ELLIPSE
5
DD
100
AcDbEntity
8
1
62
256
6
ByLayer
370
18
48
1
60
0
100
AcDbEllipse
10
25.807518
20
-18.100191
30
0
11
0.837405904027361
21
0.859506458323681
31
0
210
0
220
0
230
1
40
0.987534
41
-2.90775668456783
42
-2.42779114026941
0
ELLIPSE
5
DE
100
AcDbEntity
8
1
62
256
6
ByLayer
370
18
48
1
60
0
100
AcDbEllipse
10
27.388636
20
-13.053841
30
0
11
1.79902701715211
21
1.84650637463204
31
0
210
0
220
0
230
1
40
0.987534
41
0
42
6.28318530717959
0
ELLIPSE
5
DF
100
AcDbEntity
8
1
62
256
6
ByLayer
370
18
48
1
60
0
100
AcDbEllipse
10
31.111516
20
-9.278826
30
0
11
0.837405904027361
21
0.859506458323681
31
0
210
0
220
0
230
1
40
0.987534
41
-0.246129575276487
42
0.233835969021942
0
ELLIPSE
5
E0
100
AcDbEntity
8
1
62
256
6
ByLayer
370
18
48
1
60
0
100
AcDbEllipse
10
17.163265
20
-6.984128
30
0
11
0.553909113601432
21
0.568527709412018
31
0
210
0
220
0
230
1
40
0.987534
41
0.713801513320407
42
2.89546307831332
0
ELLIPSE
5
E1
100
AcDbEntity
8
1
62
256
6
ByLayer
370
18
48
1
60
0
100
AcDbEllipse
10
28.969753
20
-8.00749
30
0
11
0.837405904027361
21
0.859506458323681
31
0
210
0
220
0
230
1
40
0.987534
41
0.233835969021937
42
0.713801513320355
0
ELLIPSE
5
E2
100
AcDbEntity
8
1
62
256
6
ByLayer
370
18
48
1
60
0
100
AcDbEllipse
10
23.665755
20
-16.828855
30
0
11
0.837405904027361
21
0.859506458323681
31
0
210
0
220
0
230
1
40
0.987534
41
2.89546307831331
42
-2.90775668456785
0
ELLIPSE
5
E3
100
AcDbEntity
8
1
62
256
6
ByLayer
370
18
48
1
60
0
100
AcDbEllipse
10
37.614006
20
-19.123553
30
0
11
0.553909113601432
21
0.568527709412018
31
0
210
0
220
0
230
1
40
0.987534
41
-2.42779114026939
42
-0.246129575276502
0
ELLIPSE
5
E4
100
AcDbEntity
8
1
62
256
6
ByLayer
370
18
48
1
60
0
100
AcDbEllipse
10
27.205426
20
-12.875342
30
0
11
1.43056841938008
21
1.46832353296962
31
0
210
0
220
0
230
1
40
0.987534
41
-1.28236788391705
42
-0.571248083191513
0
ELLIPSE
5
E5
100
AcDbEntity
8
1
62
256
6
ByLayer
370
18
48
1
60
0
100
AcDbEllipse
10
27.278794
20
-12.332742
30
0
11
1.60502798271911
21
1.64738737845372
31
0
210
0
220
0
230
1
40
0.987534
41
2.79643917133019
42
-1.50846248484896
0
ELLIPSE
5
E6
100
AcDbEntity
8
1
62
256
6
ByLayer
370
18
48
1
60
0
100
AcDbEllipse
10
27.132059
20
-13.417943
30
0
11
1.60502798271911
21
1.64738737845372
31
0
210
0
220
0
230
1
40
0.987534
41
-0.345153482259608
42
1.63313016874083
0
ELLIPSE
5
E7
100
AcDbEntity
8
1
62
256
6
ByLayer
370
18
48
1
60
0
100
AcDbEllipse
10
27.24497
20
-12.299788
30
0
11
-1.81437945872593
21
-1.86226399303467
31
0
210
0
220
0
230
1
40
0.987534
41
-0.358197683290085
42
1.64617436977134
0
ELLIPSE
5
E8
100
AcDbEntity
8
1
62
256
6
ByLayer
370
18
48
1
60
0
100
AcDbEllipse
10
27.205426
20
-12.875342
30
0
11
1.43056841938008
21
1.46832353296962
31
0
210
0
220
0
230
1
40
0.987534
41
1.85922476967275
42
2.57034457039828
0
ELLIPSE
5
E9
100
AcDbEntity
8
1
62
256
6
ByLayer
370
18
48
1
60
0
100
AcDbEllipse
10
27.171603
20
-12.842389
30
0
11
-1.63991989538689
21
-1.68320014755056
31
0
210
0
220
0
230
1
40
0.987534
41
1.84469167988714
42
2.5848776601839
0
ELLIPSE
5
EA
100
AcDbEntity
8
1
62
256
6
ByLayer
370
18
48
1
60
0
100
AcDbEllipse
10
12.187926
20
-11.236617
30
0
11
1.08513848396879
21
1.1137771189111
31
0
210
0
220
0
230
1
40
0.987534
41
1.46965719183212
42
1.91271459704231
0
ELLIPSE
5
EB
100
AcDbEntity
8
1
62
256
6
ByLayer
370
18
48
1
60
0
100
AcDbEllipse
10
12.125917
20
-11.176203
30
0
11
-2.7913530134245
21
-2.86502152774564
31
0
210
0
220
0
230
1
40
0.987534
41
0
42
6.28318530717959
0
ELLIPSE
5
EC
100
AcDbEntity
8
1
62
256
6
ByLayer
370
18
48
1
60
0
100
AcDbEllipse
10
12.187926
20
-11.236617
30
0
11
1.08513848396879
21
1.1137771189111
31
0
210
0
220
0
230
1
40
0.987534
41
-2.71913301295426
42
-2.27607560774407
0
ELLIPSE
5
ED
100
AcDbEntity
8
1
62
256
6
ByLayer
370
18
48
1
60
0
100
AcDbEllipse
10
12.187926
20
-11.236617
30
0
11
1.08513848396879
21
1.1137771189111
31
0
210
0
220
0
230
1
40
0.987534
41
-0.624737910561071
42
-0.181680505350887
0
ELLIPSE
5
EE
100
AcDbEntity
8
1
62
256
6
ByLayer
370
18
48
1
60
0
100
AcDbEllipse
10
11.76119
20
-10.820854
30
0
11
1.08513848396879
21
1.1137771189111
31
0
210
0
220
0
230
1
40
0.987534
41
-2.27607560774406
42
-1.67193546175767
0
ELLIPSE
5
EF
100
AcDbEntity
8
1
62
256
6
ByLayer
370
18
48
1
60
0
100
AcDbEllipse
10
12.187926
20
-11.236617
30
0
11
1.08513848396879
21
1.1137771189111
31
0
210
0
220
0
230
1
40
0.987534
41
0.422459640635494
42
0.865517045845728
0
ELLIPSE
5
F0
100
AcDbEntity
8
1
62
256
6
ByLayer
370
18
48
1
60
0
100
AcDbEllipse
10
12.187926
20
-11.236617
30
0
11
1.08513848396879
21
1.1137771189111
31
0
210
0
220
0
230
1
40
0.987534
41
-1.67193546175767
42
-1.22887805654748
0
ELLIPSE
5
F1
100
AcDbEntity
8
1
62
256
6
ByLayer
370
18
48
1
60
0
100
AcDbEllipse
10
12.187926
20
-11.236617
30
0
11
1.08513848396879
21
1.1137771189111
31
0
210
0
220
0
230
1
40
0.987534
41
2.51685474302872
42
2.95991214823891
0
ELLIPSE
5
F2
100
AcDbEntity
8
1
62
256
6
ByLayer
370
18
48
1
60
0
100
AcDbEllipse
10
12.212166
20
-11.260234
30
0
11
-1.34500711567853
21
-1.38050412214345
31
0
210
0
220
0
230
1
40
0.987534
41
0
42
6.28318530717959
0
ELLIPSE
5
F3
100
AcDbEntity
8
1
62
256
6
ByLayer
370
18
48
1
60
0
100
AcDbEllipse
10
11.76119
20
-10.820854
30
0
11
1.08513848396879
21
1.1137771189111
31
0
210
0
220
0
230
1
40
0.987534
41
-1.22887805654748
42
-0.624737910561078
0
ELLIPSE
5
F4
100
AcDbEntity
8
1
62
256
6
ByLayer
370
18
48
1
60
0
100
AcDbEllipse
10
12.212166
20
-11.260234
30
0
11
-2.25750674960707
21
-2.31708616056429
31
0
210
0
220
0
230
1
40
0.987534
41
0
42
6.28318530717959
0
POINT
5
6C
100
AcDbEntity
8
80
62
256
6
ByLayer
370
18
48
1
60
0
100
AcDbPoint
10
0
20
0
30
0
39
0
210
0
220
0
230
1
50
360
0
POINT
5
6E
100
AcDbEntity
8
81
62
256
6
ByLayer
370
18
48
1
60
0
100
AcDbPoint
10
37.052695
20
-19.5625
30
0
39
0
210
0
220
0
230
1
50
360
0
POINT
5
70
100
AcDbEntity
8
1
62
256
6
ByLayer
370
18
48
1
60
0
100
AcDbPoint
10
-132.947305
20
12.4375
30
0
39
0
210
0
220
0
230
1
50
360
0
SPLINE
5
F5
100
AcDbEntity
8
1
62
256
6
ByLayer
370
18
48
1
60
0
100
AcDbSpline
70
4
71
3
72
10
73
6
40
0
40
0
40
0
40
0
40
0.431894385810776
40
0.431894385810776
40
1
40
1
40
1
40
1
41
1
10
19.0275429629064
20
-2.19729433251845
30
0
41
1
10
19.0793358715789
20
-2.2069539350293
30
0
41
1
10
19.1312924426685
20
-2.21851356332627
30
0
41
1
10
19.250532355277
20
-2.24953574985258
30
0
41
1
10
19.3174442839106
20
-2.27028415626196
30
0
41
1
10
19.3835955509784
20
-2.29418253670727
30
0
0
SPLINE
5
F6
100
AcDbEntity
8
1
62
256
6
ByLayer
370
18
48
1
60
0
100
AcDbSpline
70
4
71
3
72
8
73
4
40
0
40
0
40
0
40
0
40
1
40
1
40
1
40
1
41
1
10
15.5923166509689
20
-4.6009826703295
30
0
41
1
10
15.6230231373937
20
-4.47701901276744
30
0
41
1
10
15.6641259859135
20
-4.35746936634527
30
0
41
1
10
15.7150857239113
20
-4.24172320226586
30
0
0
SPLINE
5
F7
100
AcDbEntity
8
1
62
256
6
ByLayer
370
18
48
1
60
0
100
AcDbSpline
70
4
71
3
72
18
73
14
40
0
40
0
40
0
40
0
40
0.249999999999956
40
0.249999999999956
40
0.374999999999955
40
0.374999999999955
40
0.499999999999954
40
0.499999999999954
40
0.624999999999953
40
0.624999999999953
40
0.749999999999952
40
0.749999999999952
40
1
40
1
40
1
40
1
41
1
10
1.36080975480047
20
12.9375000000001
30
0
41
1
10
1.30177679616583
20
12.8753843458125
30
0
41
1
10
1.23385216648694
20
12.8137867318797
30
0
41
1
10
1.11705274464333
20
12.7266749761224
30
0
41
1
10
1.07560993090277
20
12.6984958437748
30
0
41
1
10
0.987061636359272
20
12.6445389937607
30
0
41
1
10
0.939854050288147
20
12.6187529043769
30
0
41
1
10
0.841518443663631
20
12.5715494557948
30
0
41
1
10
0.790134752515712
20
12.5499563963648
30
0
41
1
10
0.682480872690178
20
12.5114978649429
30
0
41
1
10
0.62583246522388
20
12.4945400745194
30
0
41
1
10
0.450106757995343
20
12.4528664730502
30
0
41
1
10
0.327847240779079
20
12.4376249779815
30
0
41
1
10
0.199831550650629
20
12.4375546640594
30
0
0
SPLINE
5
F8
100
AcDbEntity
8
1
62
256
6
ByLayer
370
18
48
1
60
0
100
AcDbSpline
70
4
71
3
72
8
73
4
40
0
40
0
40
0
40
0
40
1
40
1
40
1
40
1
41
1
10
20.6181538013799
20
-14.1786662887291
30
0
41
1
10
20.5640758363514
20
-14.1332898610885
30
0
41
1
10
20.5099971635589
20
-14.0879122775343
30
0
41
1
10
20.4559177894814
20
-14.0425335486468
30
0
0
SPLINE
5
F9
100
AcDbEntity
8
1
62
256
6
ByLayer
370
18
48
1
60
0
100
AcDbSpline
70
4
71
3
72
8
73
4
40
0
40
0
40
0
40
0
40
1
40
1
40
1
40
1
41
1
10
25.1840856191686
20
-11.7787275514344
30
0
41
1
10
25.2588225484711
20
-11.8320354520363
30
0
41
1
10
25.3335860014902
20
-11.8853351199032
30
0
41
1
10
25.4083853162267
20
-11.9386236227806
30
0
0
SPLINE
5
FA
100
AcDbEntity
8
1
62
256
6
ByLayer
370
18
48
1
60
0
100
AcDbSpline
70
4
71
3
72
16
73
12
40
0
40
0
40
0
40
0
40
0.0567521108674751
40
0.0567521108674751
40
0.286785770089437
40
0.286785770089437
40
0.746853088533364
40
0.746853088533364
40
0.976886747755326
40
0.976886747755326
40
1
40
1
40
1
40
1
41
1
10
28.7200322005894
20
-11.3527959946994
30
0
41
1
10
28.7144909029805
20
-11.3398811260033
30
0
41
1
10
28.7088322527141
20
-11.3269381109567
30
0
41
1
10
28.6796280805543
20
-11.261463322163
30
0
41
1
10
28.654095749746
20
-11.2084327461043
30
0
41
1
10
28.5721232075812
20
-11.0517607841705
30
0
41
1
10
28.510597120586
20
-10.9508735998467
30
0
41
1
10
28.4074096869256
20
-10.80601406438
30
0
41
1
10
28.3711974822016
20
-10.7587974024627
30
0
41
1
10
28.3292744692357
20
-10.7080951495232
30
0
41
1
10
28.3254264145994
20
-10.703476223496
30
0
41
1
10
28.3215587579806
20
-10.6988685478786
30
0
0
SPLINE
5
FB
100
AcDbEntity
8
1
62
256
6
ByLayer
370
18
48
1
60
0
100
AcDbSpline
70
4
71
3
72
12
73
8
40
0
40
0
40
0
40
0
40
0.349180272777639
40
0.349180272777639
40
0.892113573054252
40
0.892113573054252
40
1
40
1
40
1
40
1
41
1
10
24.8954857402257
20
-13.6159973873624
30
0
41
1
10
24.9160597494993
20
-13.642039133744
30
0
41
1
10
24.9369528042114
20
-13.6672516858755
30
0
41
1
10
24.9909053009436
20
-13.7294350151875
30
0
41
1
10
25.0242499384884
20
-13.7650992811484
30
0
41
1
10
25.0635329359719
20
-13.8043697686978
30
0
41
1
10
25.0700411043654
20
-13.8107783534883
30
0
41
1
10
25.0765307528944
20
-13.817078269334
30
0
0
SPLINE
5
FC
100
AcDbEntity
8
1
62
256
6
ByLayer
370
18
48
1
60
0
100
AcDbSpline
70
4
71
3
72
10
73
6
40
0
40
0
40
0
40
0
40
0.226396286336736
40
0.226396286336736
40
1
40
1
40
1
40
1
41
1
10
25.1799671951625
20
-14.2462149192405
30
0
41
1
10
25.228092144893
20
-14.2563435554443
30
0
41
1
10
25.275777672002
20
-14.2664621975761
30
0
41
1
10
25.4845359481171
20
-14.311114042289
30
0
41
1
10
25.6415519430867
20
-14.3455549794982
30
0
41
1
10
25.7910858871689
20
-14.3798257476016
30
0
0
SPLINE
5
FD
100
AcDbEntity
8
1
62
256
6
ByLayer
370
18
48
1
60
0
100
AcDbSpline
70
4
71
3
72
8
73
4
40
0
40
0
40
0
40
0
40
1
40
1
40
1
40
1
41
1
10
29.4422033456705
20
-12.2690908952866
30
0
41
1
10
29.3591359945663
20
-12.3140821421103
30
0
41
1
10
29.276027698886
20
-12.3590519649785
30
0
41
1
10
29.1928586595965
20
-12.4039899370175
30
0
0
SPLINE
5
FE
100
AcDbEntity
8
1
62
256
6
ByLayer
370
18
48
1
60
0
100
AcDbSpline
70
4
71
3
72
8
73
4
40
0
40
0
40
0
40
0
40
1
40
1
40
1
40
1
41
1
10
29.0024675110901
20
-13.8120611297037
30
0
41
1
10
29.0735144978219
20
-13.8567739273398
30
0
41
1
10
29.1444953833473
20
-13.9014944971965
30
0
41
1
10
29.2154317229273
20
-13.9462202776581
30
0
0
SPLINE
5
FF
100
AcDbEntity
8
1
62
256
6
ByLayer
370
18
48
1
60
0
100
AcDbSpline
70
4
71
3
72
8
73
4
40
0
40
0
40
0
40
0
40
1
40
1
40
1
40
1
41
1
10
25.2179941677203
20
-13.3466948154669
30
0
41
1
10
25.1122851857855
20
-13.3696724161034
30
0
41
1
10
25.0066269854566
20
-13.3926721617196
30
0
41
1
10
24.9010030332586
20
-13.4156868070323
30
0
0
SPLINE
5
100
100
AcDbEntity
8
1
62
256
6
ByLayer
370
18
48
1
60
0
100
AcDbSpline
70
4
71
3
72
10
73
6
40
0
40
0
40
0
40
0
40
0.5
40
0.5
40
1
40
1
40
1
40
1
41
1
10
13.2654667820609
20
-9.85854354704705
30
0
41
1
10
13.1766769818047
20
-9.84520671472697
30
0
41
1
10
13.0872835555463
20
-9.8320402948128
30
0
41
1
10
12.906900952605
20
-9.80615795855455
30
0
41
1
10
12.8164814730388
20
-9.79352834867817
30
0
41
1
10
12.7267011401936
20
-9.78139398973175
30
0
0
SPLINE
5
101
100
AcDbEntity
8
1
62
256
6
ByLayer
370
18
48
1
60
0
100
AcDbSpline
70
4
71
3
72
10
73
6
40
0
40
0
40
0
40
0
40
0.5
40
0.5
40
1
40
1
40
1
40
1
41
1
10
12.0538715537368
20
-9.69865797963212
30
0
41
1
10
11.9661136334671
20
-9.68896782837248
30
0
41
1
10
11.8786221816899
20
-9.67973624290715
30
0
41
1
10
11.7075929034357
20
-9.66239689664371
30
0
41
1
10
11.6235813427098
20
-9.65423370930063
30
0
41
1
10
11.5407109189406
20
-9.64645504591257
30
0
0
SPLINE
5
102
100
AcDbEntity
8
1
62
256
6
ByLayer
370
18
48
1
60
0
100
AcDbSpline
70
4
71
3
72
8
73
4
40
0
40
0
40
0
40
0
40
1
40
1
40
1
40
1
41
1
10
10.9219158417954
20
-12.1384417656863
30
0
41
1
10
10.9932562450969
20
-12.3078753983224
30
0
41
1
10
11.0646170745443
20
-12.4745820190199
30
0
41
1
10
11.13599026988
20
-12.639637720098
30
0
0
SPLINE
5
103
100
AcDbEntity
8
1
62
256
6
ByLayer
370
18
48
1
60
0
100
AcDbSpline
70
4
71
3
72
8
73
4
40
0
40
0
40
0
40
0
40
1
40
1
40
1
40
1
41
1
10
10.7878613730973
20
-10.6004824235438
30
0
41
1
10
10.6795928805424
20
-10.7478300425433
30
0
41
1
10
10.5762820880696
20
-10.8930577726477
30
0
41
1
10
10.4759726628502
20
-11.037002132438
30
0
0
SPLINE
5
104
100
AcDbEntity
8
1
62
256
6
ByLayer
370
18
48
1
60
0
100
AcDbSpline
70
4
71
3
72
10
73
6
40
0
40
0
40
0
40
0
40
0.5
40
0.5
40
1
40
1
40
1
40
1
41
1
10
12.8607461330003
20
-12.8517262212325
30
0
41
1
10
12.9111871549006
20
-12.7793431865503
30
0
41
1
10
12.962696334082
20
-12.7062068628135
30
0
41
1
10
13.066765094138
20
-12.5604173394179
30
0
41
1
10
13.1193647755086
20
-12.4877042211364
30
0
41
1
10
13.1726348432474
20
-12.4152065123382
30
0
0
SPLINE
5
105
100
AcDbEntity
8
1
62
256
6
ByLayer
370
18
48
1
60
0
100
AcDbSpline
70
4
71
3
72
10
73
6
40
0
40
0
40
0
40
0
40
0.5
40
0.5
40
1
40
1
40
1
40
1
41
1
10
11.5407109189406
20
-9.64645504591257
30
0
41
1
10
11.4845626205877
20
-9.71327755577138
30
0
41
1
10
11.4279090095261
20
-9.78140172679238
30
0
41
1
10
11.3151783287315
20
-9.91875205406974
30
0
41
1
10
11.2590545387927
20
-9.98803167945209
30
0
41
1
10
11.2032172016225
20
-10.0580281312111
30
0
0
SPLINE
5
106
100
AcDbEntity
8
1
62
256
6
ByLayer
370
18
48
1
60
0
100
AcDbSpline
70
4
71
3
72
10
73
6
40
0
40
0
40
0
40
0
40
0.5
40
0.5
40
1
40
1
40
1
40
1
41
1
10
10.4759726628502
20
-11.037002132438
30
0
41
1
10
10.5061557018006
20
-11.114440570221
30
0
41
1
10
10.5371078499836
20
-11.1933373813392
30
0
41
1
10
10.5999724878457
20
-11.3522801836656
30
0
41
1
10
10.6319085771904
20
-11.4323882910417
30
0
41
1
10
10.6644420838638
20
-11.513251463254
30
0
0
SPLINE
5
107
100
AcDbEntity
8
1
62
256
6
ByLayer
370
18
48
1
60
0
100
AcDbSpline
70
4
71
3
72
8
73
4
40
0
40
0
40
0
40
0
40
1
40
1
40
1
40
1
41
1
10
13.4539362030745
20
-10.334792877863
30
0
41
1
10
13.3878136341615
20
-10.1704429130467
30
0
41
1
10
13.3254902148628
20
-10.0125413228901
30
0
41
1
10
13.2654667820608
20
-9.85854354704705
30
0
0
SPLINE
5
108
100
AcDbEntity
8
1
62
256
6
ByLayer
370
18
48
1
60
0
100
AcDbSpline
70
4
71
3
72
10
73
6
40
0
40
0
40
0
40
0
40
0.5
40
0.5
40
1
40
1
40
1
40
1
41
1
10
12.8607461330003
20
-12.8517262212325
30
0
41
1
10
12.7719563327442
20
-12.8383893889124
30
0
41
1
10
12.6825629064857
20
-12.8252229689982
30
0
41
1
10
12.5021803035445
20
-12.79934063274
30
0
41
1
10
12.4117608239783
20
-12.7867110228636
30
0
41
1
10
12.321980491133
20
-12.7745766639172
30
0
0
SPLINE
5
109
100
AcDbEntity
8
1
62
256
6
ByLayer
370
18
48
1
60
0
100
AcDbSpline
70
4
71
3
72
10
73
6
40
0
40
0
40
0
40
0
40
0.5
40
0.5
40
1
40
1
40
1
40
1
41
1
10
11.6491509046763
20
-12.6918406538175
30
0
41
1
10
11.5613929844066
20
-12.6821505025579
30
0
41
1
10
11.4739015326294
20
-12.6729189170926
30
0
41
1
10
11.3028722543752
20
-12.6555795708292
30
0
41
1
10
11.2188606936492
20
-12.6474163834861
30
0
41
1
10
11.13599026988
20
-12.639637720098
30
0
0
SPLINE
5
10A
100
AcDbEntity
8
1
62
256
6
ByLayer
370
18
48
1
60
0
100
AcDbSpline
70
4
71
3
72
10
73
6
40
0
40
0
40
0
40
0
40
0.5
40
0.5
40
1
40
1
40
1
40
1
41
1
10
13.9254843890907
20
-11.461179134707
30
0
41
1
10
13.8895940736877
20
-11.3781801721007
30
0
41
1
10
13.8534974936245
20
-11.2942712082667
30
0
41
1
10
13.7819709350238
20
-11.1268892098221
30
0
41
1
10
13.7465107371109
20
-11.0433476095468
30
0
41
1
10
13.711409961006
20
-10.9599831802953
30
0
0
SPLINE
5
10B
100
AcDbEntity
8
1
62
256
6
ByLayer
370
18
48
1
60
0
100
AcDbSpline
70
4
71
3
72
8
73
4
40
0
40
0
40
0
40
0
40
1
40
1
40
1
40
1
41
1
10
13.5879906717726
20
-11.8727522200055
30
0
41
1
10
13.7014769987159
20
-11.7304882688258
30
0
41
1
10
13.8138252013375
20
-11.5940655692623
30
0
41
1
10
13.9254843890907
20
-11.461179134707
30
0
0
LINE
5
72
100
AcDbEntity
8
1
62
256
6
ByLayer
370
18
48
1
60
0
100
AcDbLine
10
31.948922
20
-8.41932
30
0
11
31.232997
21
-7.721804
31
0
39
0
210
0
220
0
230
1
0
LINE
5
73
100
AcDbEntity
8
1
62
256
6
ByLayer
370
18
48
1
60
0
100
AcDbLine
10
28.912615
20
-11.522726
30
0
11
28.326346
21
-10.951531
31
0
39
0
210
0
220
0
230
1
0
LINE
5
74
100
AcDbEntity
8
1
62
256
6
ByLayer
370
18
48
1
60
0
100
AcDbLine
10
25.074041
20
-13.81467
30
0
11
25.430591
21
-14.162052
31
0
39
0
210
0
220
0
230
1
0
LINE
5
75
100
AcDbEntity
8
1
62
256
6
ByLayer
370
18
48
1
60
0
100
AcDbLine
10
22.442376
20
-17.312313
30
0
11
22.828349
21
-17.688361
31
0
39
0
210
0
220
0
230
1
0
LINE
5
76
100
AcDbEntity
8
1
62
256
6
ByLayer
370
18
48
1
60
0
100
AcDbLine
10
14.91727
20
-8.311181
30
0
11
14.870305
21
-8.265424
31
0
39
0
210
0
220
0
230
1
0
LINE
5
77
100
AcDbEntity
8
1
62
256
6
ByLayer
370
18
48
1
60
0
100
AcDbLine
10
9.287599
20
-13.995467
30
0
11
9.334564
21
-14.041224
31
0
39
0
210
0
220
0
230
1
0
LINE
5
78
100
AcDbEntity
8
1
62
256
6
ByLayer
370
18
48
1
60
0
100
AcDbLine
10
24.541218
20
0.843968
30
0
11
24.341397
21
1.069931
31
0
39
0
210
0
220
0
230
1
0
LINE
5
79
100
AcDbEntity
8
1
62
256
6
ByLayer
370
18
48
1
60
0
100
AcDbLine
10
20.073192
20
-2.677764
30
0
11
20.644416
21
-3.321797
31
0
39
0
210
0
220
0
230
1
0
LINE
5
7A
100
AcDbEntity
8
1
62
256
6
ByLayer
370
18
48
1
60
0
100
AcDbLine
10
22.533615
20
-6.40793
30
0
11
27.7633
21
-6.704933
31
0
39
0
210
0
220
0
230
1
0
LINE
5
7B
100
AcDbEntity
8
1
62
256
6
ByLayer
370
18
48
1
60
0
100
AcDbLine
10
29.117145
20
-6.781821
30
0
11
29.611966
21
-6.809922
31
0
39
0
210
0
220
0
230
1
0
LINE
5
7C
100
AcDbEntity
8
1
62
256
6
ByLayer
370
18
48
1
60
0
100
AcDbLine
10
21.855902
20
-5.680876
30
0
11
21.91829
21
-5.78279
31
0
39
0
210
0
220
0
230
1
0
LINE
5
7D
100
AcDbEntity
8
1
62
256
6
ByLayer
370
18
48
1
60
0
100
AcDbLine
10
19.880823
20
-2.54026
30
0
11
21.863992
21
-5.779898
31
0
39
0
210
0
220
0
230
1
0
LINE
5
7E
100
AcDbEntity
8
1
62
256
6
ByLayer
370
18
48
1
60
0
100
AcDbLine
10
15.523932
20
-5.289464
30
0
11
15.83483
21
-5.797336
31
0
39
0
210
0
220
0
230
1
0
LINE
5
7F
100
AcDbEntity
8
1
62
256
6
ByLayer
370
18
48
1
60
0
100
AcDbLine
10
21.899338
20
-5.683342
30
0
11
21.855902
21
-5.680876
31
0
39
0
210
0
220
0
230
1
0
LINE
5
80
100
AcDbEntity
8
1
62
256
6
ByLayer
370
18
48
1
60
0
100
AcDbLine
10
15.521516
20
-5.168952
30
0
11
15.876723
21
-5.749205
31
0
39
0
210
0
220
0
230
1
0
LINE
5
81
100
AcDbEntity
8
1
62
256
6
ByLayer
370
18
48
1
60
0
100
AcDbLine
10
21.675308
20
-5.770015
30
0
11
19.603764
21
-2.386011
31
0
39
0
210
0
220
0
230
1
0
LINE
5
82
100
AcDbEntity
8
1
62
256
6
ByLayer
370
18
48
1
60
0
100
AcDbLine
10
2.363923
20
-16.260036
30
0
11
22.539551
21
-17.317396
31
0
39
0
210
0
220
0
230
1
0
LINE
5
83
100
AcDbEntity
8
1
62
256
6
ByLayer
370
18
48
1
60
0
100
AcDbLine
10
1.545481
20
-13.62339
30
0
11
2.250374
21
-16.254085
31
0
39
0
210
0
220
0
230
1
0
LINE
5
84
100
AcDbEntity
8
1
62
256
6
ByLayer
370
18
48
1
60
0
100
AcDbLine
10
13.846805
20
12.9375
30
0
11
5.746737
21
12.9375
31
0
39
0
210
0
220
0
230
1
0
LINE
5
85
100
AcDbEntity
8
1
62
256
6
ByLayer
370
18
48
1
60
0
100
AcDbLine
10
2.363923
20
-16.260036
30
0
11
2.250374
21
-16.254085
31
0
39
0
210
0
220
0
230
1
0
LINE
5
86
100
AcDbEntity
8
1
62
256
6
ByLayer
370
18
48
1
60
0
100
AcDbLine
10
1.545481
20
12.9375
30
0
11
1.545481
21
-13.62339
31
0
39
0
210
0
220
0
230
1
0
LINE
5
87
100
AcDbEntity
8
1
62
256
6
ByLayer
370
18
48
1
60
0
100
AcDbLine
10
22.533615
20
-6.40793
30
0
11
21.776099
21
-5.542612
31
0
39
0
210
0
220
0
230
1
0
LINE
5
88
100
AcDbEntity
8
1
62
256
6
ByLayer
370
18
48
1
60
0
100
AcDbLine
10
20.041701
20
-13.524078
30
0
11
18.420282
21
-10.875382
31
0
39
0
210
0
220
0
230
1
0
LINE
5
89
100
AcDbEntity
8
1
62
256
6
ByLayer
370
18
48
1
60
0
100
AcDbLine
10
29.611966
20
-6.809922
30
0
11
25.793383
21
-0.572014
31
0
39
0
210
0
220
0
230
1
0
LINE
5
8A
100
AcDbEntity
8
1
62
256
6
ByLayer
370
18
48
1
60
0
100
AcDbLine
10
7.384411
20
1.492909
30
0
11
16.286757
21
10.178336
31
0
39
0
210
0
220
0
230
1
0
LINE
5
8B
100
AcDbEntity
8
1
62
256
6
ByLayer
370
18
48
1
60
0
100
AcDbLine
10
24.541218
20
0.843968
30
0
11
19.383596
21
-2.294183
31
0
39
0
210
0
220
0
230
1
0
LINE
5
8C
100
AcDbEntity
8
1
62
256
6
ByLayer
370
18
48
1
60
0
100
AcDbLine
10
22.533615
20
-6.40793
30
0
11
20.644416
21
-3.321797
31
0
39
0
210
0
220
0
230
1
0
LINE
5
8D
100
AcDbEntity
8
1
62
256
6
ByLayer
370
18
48
1
60
0
100
AcDbLine
10
5.746737
20
2.963146
30
0
11
3.404127
21
5.142629
31
0
39
0
210
0
220
0
230
1
0
LINE
5
8E
100
AcDbEntity
8
1
62
256
6
ByLayer
370
18
48
1
60
0
100
AcDbLine
10
15.870383
20
-6.422868
30
0
11
18.098574
21
-10.062766
31
0
39
0
210
0
220
0
230
1
0
LINE
5
8F
100
AcDbEntity
8
1
62
256
6
ByLayer
370
18
48
1
60
0
100
AcDbLine
10
20.618154
20
-14.178666
30
0
11
22.539551
21
-17.317396
31
0
39
0
210
0
220
0
230
1
0
LINE
5
90
100
AcDbEntity
8
1
62
256
6
ByLayer
370
18
48
1
60
0
100
AcDbLine
10
1.36081
20
12.9375
30
0
11
1.545481
21
12.9375
31
0
39
0
210
0
220
0
230
1
0
LINE
5
91
100
AcDbEntity
8
1
62
256
6
ByLayer
370
18
48
1
60
0
100
AcDbLine
10
7.384411
20
1.492909
30
0
11
5.746737
21
2.963146
31
0
39
0
210
0
220
0
230
1
0
LINE
5
92
100
AcDbEntity
8
1
62
256
6
ByLayer
370
18
48
1
60
0
100
AcDbLine
10
13.754292
20
-4.197053
30
0
11
7.384411
21
1.492909
31
0
39
0
210
0
220
0
230
1
0
LINE
5
93
100
AcDbEntity
8
1
62
256
6
ByLayer
370
18
48
1
60
0
100
AcDbLine
10
2.933365
20
3.430382
30
0
11
2.363923
21
-16.260036
31
0
39
0
210
0
220
0
230
1
0
LINE
5
94
100
AcDbEntity
8
1
62
256
6
ByLayer
370
18
48
1
60
0
100
AcDbLine
10
15.592317
20
-4.600983
30
0
11
15.414631
21
-4.709096
31
0
39
0
210
0
220
0
230
1
0
LINE
5
95
100
AcDbEntity
8
1
62
256
6
ByLayer
370
18
48
1
60
0
100
AcDbLine
10
16.286757
20
10.178336
30
0
11
13.846805
21
12.9375
31
0
39
0
210
0
220
0
230
1
0
LINE
5
96
100
AcDbEntity
8
1
62
256
6
ByLayer
370
18
48
1
60
0
100
AcDbLine
10
24.341421
20
1.069904
30
0
11
16.286757
21
10.178336
31
0
39
0
210
0
220
0
230
1
0
LINE
5
97
100
AcDbEntity
8
1
62
256
6
ByLayer
370
18
48
1
60
0
100
AcDbLine
10
0
20
-12.4375
30
0
11
0
21
12.4375
31
0
39
0
210
0
220
0
230
1
0
LINE
5
98
100
AcDbEntity
8
1
62
256
6
ByLayer
370
18
48
1
60
0
100
AcDbLine
10
24.341421
20
1.069904
30
0
11
15.602586
21
-4.329053
31
0
39
0
210
0
220
0
230
1
0
LINE
5
99
100
AcDbEntity
8
1
62
256
6
ByLayer
370
18
48
1
60
0
100
AcDbLine
10
5.746737
20
12.9375
30
0
11
5.746737
21
2.963146
31
0
39
0
210
0
220
0
230
1
0
LINE
5
9A
100
AcDbEntity
8
1
62
256
6
ByLayer
370
18
48
1
60
0
100
AcDbLine
10
24.541218
20
0.843968
30
0
11
25.793383
21
-0.572014
31
0
39
0
210
0
220
0
230
1
0
LINE
5
9B
100
AcDbEntity
8
1
62
256
6
ByLayer
370
18
48
1
60
0
100
AcDbLine
10
11.649579
20
-4.378393
30
0
11
2.933365
21
3.430382
31
0
39
0
210
0
220
0
230
1
0
LINE
5
9C
100
AcDbEntity
8
1
62
256
6
ByLayer
370
18
48
1
60
0
100
AcDbLine
10
1.545481
20
12.9375
30
0
11
5.746737
21
12.9375
31
0
39
0
210
0
220
0
230
1
0
LINE
5
9D
100
AcDbEntity
8
SK1
62
256
6
ByLayer
370
18
48
1
60
0
100
AcDbLine
10
-132.947305
20
12.4375
30
0
11
-132.947305
21
-12.4375
31
0
39
0
210
0
220
0
230
1
0
LINE
5
9F
100
AcDbEntity
8
SK1
62
256
6
ByLayer
370
18
48
1
60
0
100
AcDbLine
10
-132.947305
20
12.4375
30
0
11
0
21
12.4375
31
0
39
0
210
0
220
0
230
1
0
LINE
5
A0
100
AcDbEntity
8
SK1
62
256
6
ByLayer
370
18
48
1
60
0
100
AcDbLine
10
-132.947305
20
-12.4375
30
0
11
0
21
-12.4375
31
0
39
0
210
0
220
0
230
1
0
LINE
5
A1
100
AcDbEntity
8
SK1
62
256
6
ByLayer
370
18
48
1
60
0
100
AcDbLine
10
0
20
-12.4375
30
0
11
0
21
12.4375
31
0
39
0
210
0
220
0
230
1
0
LINE
5
A2
100
AcDbEntity
8
1
62
256
6
ByLayer
370
18
48
1
60
0
100
AcDbLine
10
12.985392
20
-9.817512
30
0
11
13.0272
21
-9.919029
31
0
39
0
210
0
220
0
230
1
0
LINE
5
A3
100
AcDbEntity
8
1
62
256
6
ByLayer
370
18
48
1
60
0
100
AcDbLine
10
10.967298
20
-12.244706
30
0
11
11.222415
21
-12.276077
31
0
39
0
210
0
220
0
230
1
0
LINE
5
A4
100
AcDbEntity
8
1
62
256
6
ByLayer
370
18
48
1
60
0
100
AcDbLine
10
16.498446
20
-5.498744
30
0
11
21.989718
21
-5.786529
31
0
39
0
210
0
220
0
230
1
0
LINE
5
A5
100
AcDbEntity
8
1
62
256
6
ByLayer
370
18
48
1
60
0
100
AcDbLine
10
29.047016
20
-6.816383
30
0
11
28.999094
21
-6.769693
31
0
39
0
210
0
220
0
230
1
0
LINE
5
A6
100
AcDbEntity
8
1
62
256
6
ByLayer
370
18
48
1
60
0
100
AcDbLine
10
16.489253
20
-7.402243
30
0
11
16.441331
21
-7.355553
31
0
39
0
210
0
220
0
230
1
0
LINE
5
A7
100
AcDbEntity
8
1
62
256
6
ByLayer
370
18
48
1
60
0
100
AcDbLine
10
22.497126
20
-17.315164
30
0
11
22.646777
21
-17.460966
31
0
39
0
210
0
220
0
230
1
0
LINE
5
A8
100
AcDbEntity
8
1
62
256
6
ByLayer
370
18
48
1
60
0
100
AcDbLine
10
29.401073
20
-6.797935
30
0
11
29.587695
21
-6.979758
31
0
39
0
210
0
220
0
230
1
0
LINE
5
A9
100
AcDbEntity
8
1
62
256
6
ByLayer
370
18
48
1
60
0
100
AcDbLine
10
29.527082
20
-6.671231
30
0
11
31.013532
21
-7.553578
31
0
39
0
210
0
220
0
230
1
0
LINE
5
AA
100
AcDbEntity
8
1
62
256
6
ByLayer
370
18
48
1
60
0
100
AcDbLine
10
24.841544
20
-13.357757
30
0
11
24.901003
21
-13.415687
31
0
39
0
210
0
220
0
230
1
0
LINE
5
AB
100
AcDbEntity
8
80
62
256
6
ByLayer
370
18
48
1
60
0
100
AcDbLine
10
0
20
0
30
0
11
-5
21
0
31
0
39
0
210
0
220
0
230
1
0
LINE
5
AC
100
AcDbEntity
8
81
62
256
6
ByLayer
370
18
48
1
60
0
100
AcDbLine
10
37.052695
20
-19.5625
30
0
11
47.052695
21
-19.5625
31
0
39
0
210
0
220
0
230
1
0
LINE
5
AD
100
AcDbEntity
8
1
62
256
6
ByLayer
370
18
48
1
60
0
100
AcDbLine
10
31.729457
20
-8.251094
30
0
11
31.013532
21
-7.553578
31
0
39
0
210
0
220
0
230
1
0
LINE
5
AE
100
AcDbEntity
8
1
62
256
6
ByLayer
370
18
48
1
60
0
100
AcDbLine
10
25.189576
20
-19.127923
30
0
11
23.047814
21
-17.856587
31
0
39
0
210
0
220
0
230
1
0
LINE
5
AF
100
AcDbEntity
8
1
62
256
6
ByLayer
370
18
48
1
60
0
100
AcDbLine
10
16.498446
20
-5.498744
30
0
11
17.214371
21
-6.19626
31
0
39
0
210
0
220
0
230
1
0
LINE
5
B0
100
AcDbEntity
8
1
62
256
6
ByLayer
370
18
48
1
60
0
100
AcDbLine
10
22.646777
20
-17.460966
30
0
11
16.489253
21
-7.402243
31
0
39
0
210
0
220
0
230
1
0
LINE
5
B1
100
AcDbEntity
8
1
62
256
6
ByLayer
370
18
48
1
60
0
100
AcDbLine
10
17.214371
20
-6.19626
30
0
11
29.047016
21
-6.816383
31
0
39
0
210
0
220
0
230
1
0
LINE
5
B2
100
AcDbEntity
8
1
62
256
6
ByLayer
370
18
48
1
60
0
100
AcDbLine
10
37.5629
20
-19.911421
30
0
11
25.730255
21
-19.291298
31
0
39
0
210
0
220
0
230
1
0
LINE
5
B3
100
AcDbEntity
8
1
62
256
6
ByLayer
370
18
48
1
60
0
100
AcDbLine
10
32.130494
20
-8.646715
30
0
11
38.288018
21
-18.705438
31
0
39
0
210
0
220
0
230
1
0
LINE
5
B4
100
AcDbEntity
8
1
62
256
6
ByLayer
370
18
48
1
60
0
100
AcDbLine
10
29.587695
20
-6.979758
30
0
11
31.729457
21
-8.251094
31
0
39
0
210
0
220
0
230
1
0
LINE
5
B5
100
AcDbEntity
8
1
62
256
6
ByLayer
370
18
48
1
60
0
100
AcDbLine
10
13.453936
20
-10.334793
30
0
11
13.0272
21
-9.919029
31
0
39
0
210
0
220
0
230
1
0
LINE
5
B6
100
AcDbEntity
8
1
62
256
6
ByLayer
370
18
48
1
60
0
100
AcDbLine
10
13.587991
20
-11.872752
30
0
11
13.161254
21
-11.456989
31
0
39
0
210
0
220
0
230
1
0
LINE
5
B7
100
AcDbEntity
8
1
62
256
6
ByLayer
370
18
48
1
60
0
100
AcDbLine
10
13.485946
20
-11.032942
30
0
11
13.161254
21
-11.456989
31
0
39
0
210
0
220
0
230
1
0
LINE
5
B8
100
AcDbEntity
8
1
62
256
6
ByLayer
370
18
48
1
60
0
100
AcDbLine
10
11.895244
20
-12.358813
30
0
11
12.421207
21
-12.423489
31
0
39
0
210
0
220
0
230
1
0
LINE
5
B9
100
AcDbEntity
8
1
62
256
6
ByLayer
370
18
48
1
60
0
100
AcDbLine
10
12.745898
20
-11.999443
30
0
11
13.172635
21
-12.415207
31
0
39
0
210
0
220
0
230
1
0
LINE
5
BA
100
AcDbEntity
8
1
62
256
6
ByLayer
370
18
48
1
60
0
100
AcDbLine
10
11.649151
20
-12.691841
30
0
11
11.222415
21
-12.276077
31
0
39
0
210
0
220
0
230
1
0
LINE
5
BB
100
AcDbEntity
8
1
62
256
6
ByLayer
370
18
48
1
60
0
100
AcDbLine
10
12.860746
20
-12.851726
30
0
11
12.421207
21
-12.423489
31
0
39
0
210
0
220
0
230
1
0
LINE
5
BC
100
AcDbEntity
8
1
62
256
6
ByLayer
370
18
48
1
60
0
100
AcDbLine
10
13.284674
20
-10.54422
30
0
11
13.485946
21
-11.032942
31
0
39
0
210
0
220
0
230
1
0
LINE
5
BD
100
AcDbEntity
8
1
62
256
6
ByLayer
370
18
48
1
60
0
100
AcDbLine
10
11.895244
20
-12.358813
30
0
11
12.32198
21
-12.774577
31
0
39
0
210
0
220
0
230
1
0
LINE
5
BE
100
AcDbEntity
8
1
62
256
6
ByLayer
370
18
48
1
60
0
100
AcDbLine
10
12.745898
20
-11.999443
30
0
11
12.421207
21
-12.423489
31
0
39
0
210
0
220
0
230
1
0
LINE
5
BF
100
AcDbEntity
8
1
62
256
6
ByLayer
370
18
48
1
60
0
100
AcDbLine
10
13.284674
20
-10.54422
30
0
11
13.71141
21
-10.959983
31
0
39
0
210
0
220
0
230
1
0
LINE
5
C0
100
AcDbEntity
8
1
62
256
6
ByLayer
370
18
48
1
60
0
100
AcDbLine
10
13.925484
20
-11.461179
30
0
11
13.485946
21
-11.032942
31
0
39
0
210
0
220
0
230
1
0
MTEXT
5
10C
100
AcDbEntity
8
SK6
62
256
6
ByLayer
370
13
48
1
60
0
100
AcDbMText
10
-103.031102
20
21.423222
30
0
210
0
220
0
230
1
1
\W0.7629;PDJNL 3225P 15HP
40
3.5
41
0
44
1.084337
50
0
71
7
72
5
7
iso_b_vert
0
DIMENSION
5
11E
100
AcDbEntity
8
SK2
62
256
6
ByLayer
370
13
48
1
60
0
100
AcDbDimension
2
DimnDraft3D1
10
-142.697305
20
12.4375
30
0
11
-142.697305
21
-0.0625
31
0
70
32
71
5
72
1
41
1
210
0
220
0
230
1
3
Standard
100
AcDbAlignedDimension
13
-134.534805
23
-12.5625
33
0
14
-134.534805
24
12.4375
34
0
50
90
100
AcDbRotatedDimension
1001
ACAD
1000
DSTYLE
1002
{
1070
    74
1070
     0
1070
   279
1070
     0
1070
   172
1070
     1
1070
   173
1070
     1
1070
   340
1005
10D
1070
   271
1070
     1
1070
   272
1070
     2
1070
    77
1070
     1
1070
    73
1070
     0
1070
   171
1070
     3
1070
   274
1070
     4
1070
   177
1070
   150
1070
   176
1070
     9
1070
   178
1070
    43
1070
    78
1070
     8
1070
    48
1040
-0.005
1070
    41
1041
3.175
1070
   147
1041
2.25
1070
    42
1041
1.5875
1070
    44
1041
3.175
1070
   140
1041
4.5
1070
   343
1005
11F
1070
   344
1005
11F
1002
}
0
DIMENSION
5
134
100
AcDbEntity
8
2
62
256
6
ByLayer
370
13
48
1
60
0
100
AcDbDimension
2
DimnDraft3D2
10
54.902695
20
12.4375
30
0
11
54.902695
21
-3.7375
31
0
70
32
71
5
72
1
41
1
210
0
220
0
230
1
3
Standard
100
AcDbAlignedDimension
13
39.990195
23
-19.9125
33
0
14
1.5875
24
12.4375
34
0
50
90
100
AcDbRotatedDimension
1001
ACAD
1000
DSTYLE
1002
{
1070
    74
1070
     0
1070
   279
1070
     0
1070
   172
1070
     1
1070
   173
1070
     1
1070
   340
1005
10D
1070
   271
1070
     1
1070
   272
1070
     2
1070
    77
1070
     1
1070
    73
1070
     0
1070
   171
1070
     3
1070
   274
1070
     4
1070
   177
1070
   150
1070
   176
1070
     9
1070
   178
1070
    43
1070
    78
1070
     8
1070
    48
1040
-0.005
1070
    41
1041
3.175
1070
   147
1041
2.25
1070
    42
1041
1.5875
1070
    44
1041
3.175
1070
   140
1041
4.5
1070
   343
1005
11F
1070
   344
1005
11F
1002
}
0
DIMENSION
5
142
100
AcDbEntity
8
SK2
62
256
6
ByLayer
370
13
48
1
60
0
100
AcDbDimension
2
DimnDraft3D3
10
38.402695
20
-46.4125
30
0
11
-47.272305
21
-46.4125
31
0
70
32
71
5
72
1
41
1
210
0
220
0
230
1
3
Standard
100
AcDbAlignedDimension
13
-132.947305
23
-14.15
33
0
14
38.402695
24
-21.5
34
0
50
0
100
AcDbRotatedDimension
1001
ACAD
1000
DSTYLE
1002
{
1070
   279
1070
     0
1070
   172
1070
     1
1070
   173
1070
     1
1070
   340
1005
10D
1070
   271
1070
     1
1070
   272
1070
     2
1070
    77
1070
     1
1070
    73
1070
     0
1070
   171
1070
     3
1070
   274
1070
     4
1070
   177
1070
   150
1070
   176
1070
     9
1070
   178
1070
    43
1070
    78
1070
     8
1070
    48
1040
-0.005
1070
    41
1041
3.175
1070
   147
1041
2.25
1070
    42
1041
1.5875
1070
    44
1041
3.175
1070
   140
1041
4.5
1070
   343
1005
11F
1070
   344
1005
11F
1002
}
0
DIMENSION
5
150
100
AcDbEntity
8
2
62
256
6
ByLayer
370
13
48
1
60
0
100
AcDbDimension
2
DimnDraft3D4
10
38.402695
20
-18.325
30
0
11
26.11456
21
-31.616193
31
0
70
34
71
5
72
1
41
1
210
0
220
0
230
1
3
Standard
100
AcDb2LineAngularDimension
13
37.567404
23
-19.911412
33
0
14
22.587961
24
-19.126373
34
0
15
38.402695
25
-19.9125
35
0
16
22.850375
26
-34.713789
36
0
40
0
0
ENDSEC
0
SECTION
2
OBJECTS
0
DICTIONARY
5
1ba
330
0
100
AcDbDictionary
280
0
281
1
3
ACAD_GROUP
350
1bb
3
ACAD_MLINESTYLE
350
1bc
0
DICTIONARY
5
1bb
330
0
100
AcDbDictionary
280
0
281
1
0
DICTIONARY
5
1bc
330
0
100
AcDbDictionary
280
0
281
1
3
Standard
350
18
0
MLINESTYLE
5
18
330
1bc
100
AcDbMlineStyle
2
Standard
70
0
3

62
256
51
90
52
90
71
2
49
-0.5
62
256
6
ByLayer
49
0.5
62
256
6
ByLayer
0
RASTERVARIABLES
5
1a9
330

100
AcDbRasterVariables
90
0
70
1
71
1
72
1
0
ENDSEC
0
EOF
