0
SECTION
2
HEADER
9
$ACADVER
1
AC1015
9
$DWGCODEPAGE
3
ANSI_1252
9
$HANDSEED
5
1b2
9
$ANGBASE
50
0
9
$ANGDIR
70
0
9
$ATTMODE
70
1
9
$AUNITS
70
0
9
$AUPREC
70
0
9
$CECOLOR
62
256
9
$CELTSCALE
40
1
9
$CELTYPE
6
ByLayer
9
$CELWEIGHT
370
18
9
$CLAYER
8
0
9
$CMLJUST
70
0
9
$CMLSCALE
40
1
9
$CMLSTYLE
2
Standard
9
$DIMSTYLE
2
Standard
9
$TEXTSIZE
40
0.2
9
$TEXTSTYLE
7
Standard
9
$LUNITS
70
2
9
$LUPREC
70
4
9
$EXTNAMES
290
1
9
$INSUNITS
70
4
9
$LTSCALE
40
1
9
$LWDISPLAY
290
1
9
$PDMODE
70
0
9
$PDSIZE
40
0
9
$PLINEGEN
70
0
0
ENDSEC
0
SECTION
2
CLASSES
0
CLASS
1
RASTERVARIABLES
2
AcDbRasterVariables
3
ISM
90
0
280
0
281
0
0
ENDSEC
0
SECTION
2
TABLES
0
TABLE
2
VPORT
5
1a8
100
AcDbSymbolTable
0
VPORT
5
1
100
AcDbSymbolTableRecord
100
AcDbViewportTableRecord
2
*Active
70
0
10
0
20
0
11
1
21
1
12
-1
22
1
13
0
23
0
14
0.5
24
0.5
15
10
25
10
16
0
26
0
36
1
17
0
27
0
37
0
0
ENDTAB
0
TABLE
2
LTYPE
5
1a9
100
AcDbSymbolTable
0
LTYPE
5
14
100
AcDbSymbolTableRecord
100
AcDbLinetypeTableRecord
70
0
2
ByBlock
3

72
65
73
0
40
0
0
LTYPE
5
15
100
AcDbSymbolTableRecord
100
AcDbLinetypeTableRecord
70
0
2
ByLayer
3

72
65
73
0
40
0
0
LTYPE
5
16
100
AcDbSymbolTableRecord
100
AcDbLinetypeTableRecord
70
0
2
CONTINUOUS
3
Solid line
72
65
73
0
40
0
0
LTYPE
5
6A
100
AcDbSymbolTableRecord
100
AcDbLinetypeTableRecord
70
0
2
CENTER
3
____ _ ____ _ ____ _ ____
72
65
73
4
40
47.5
49
22
74
0
49
-8.5
74
0
49
8.5
74
0
49
-8.5
74
0
0
LTYPE
5
6B
100
AcDbSymbolTableRecord
100
AcDbLinetypeTableRecord
70
0
2
DASHED
3
__ __ __ __ __ __ __ __ __
72
65
73
2
40
25.72
49
12.86
74
0
49
-12.86
74
0
0
ENDTAB
0
TABLE
2
LAYER
5
1aa
100
AcDbSymbolTable
0
LAYER
5
10
100
AcDbSymbolTableRecord
100
AcDbLayerTableRecord
2
0
70
0
62
7
6
CONTINUOUS
290
1
370
-3
390
0
0
LAYER
5
6D
100
AcDbSymbolTableRecord
100
AcDbLayerTableRecord
2
80
70
0
62
-6
6
CONTINUOUS
290
1
370
-3
390
0
0
LAYER
5
6F
100
AcDbSymbolTableRecord
100
AcDbLayerTableRecord
2
81
70
0
62
-3
6
CONTINUOUS
290
1
370
-3
390
0
0
LAYER
5
71
100
AcDbSymbolTableRecord
100
AcDbLayerTableRecord
2
1
70
0
62
4
6
CONTINUOUS
290
1
370
-3
390
0
0
LAYER
5
113
100
AcDbSymbolTableRecord
100
AcDbLayerTableRecord
2
2
70
0
62
7
6
CONTINUOUS
290
1
370
-3
390
0
0
LAYER
5
195
100
AcDbSymbolTableRecord
100
AcDbLayerTableRecord
2
SK1
70
0
62
4
6
CONTINUOUS
290
1
370
-3
390
0
0
LAYER
5
196
100
AcDbSymbolTableRecord
100
AcDbLayerTableRecord
2
SK6
70
0
62
5
6
CONTINUOUS
290
1
370
-3
390
0
0
LAYER
5
197
100
AcDbSymbolTableRecord
100
AcDbLayerTableRecord
2
SK2
70
0
62
7
6
CONTINUOUS
290
1
370
-3
390
0
0
ENDTAB
0
TABLE
2
STYLE
5
1ab
100
AcDbSymbolTable
0
STYLE
5
11
100
AcDbSymbolTableRecord
100
AcDbTextStyleTableRecord
2
Standard
3
txt
70
0
71
0
40
0
41
1
42
0
50
0
0
STYLE
5
F8
100
AcDbSymbolTableRecord
100
AcDbTextStyleTableRecord
2
iso_b_vert
3
simplex.shx
70
0
71
0
40
0
41
1
42
0
50
0
0
STYLE
5
F9
100
AcDbSymbolTableRecord
100
AcDbTextStyleTableRecord
2
DWGDirectTextStyle
3
simplex
70
0
71
0
40
0
41
1
42
0
50
0
0
ENDTAB
0
TABLE
2
DIMSTYLE
5
1ac
100
AcDbSymbolTable
100
AcDbDimStyleTable
0
DIMSTYLE
105
27
100
AcDbSymbolTableRecord
100
AcDbDimStyleTableRecord
2
Standard
70
0
3
<>
41
0.18
42
0.0625
44
0.18
140
0.18
147
0.09
73
0
74
0
77
1
271
2
275
0
278
52
280
0
340
11
0
ENDTAB
0
TABLE
2
VIEW
5
1ad
100
AcDbSymbolTable
0
ENDTAB
0
TABLE
2
UCS
5
1ae
100
AcDbSymbolTable
0
ENDTAB
0
TABLE
2
APPID
5
1af
100
AcDbSymbolTable
0
APPID
5
12
100
AcDbSymbolTableRecord
100
AcDbRegAppTableRecord
2
ACAD
70
0
0
ENDTAB
0
TABLE
2
BLOCK_RECORD
5
1b0
100
AcDbSymbolTable
0
BLOCK_RECORD
5
1F
100
AcDbSymbolTableRecord
100
AcDbBlockTableRecord
2
*Model_Space
340
0
70
0
0
BLOCK_RECORD
5
1B
100
AcDbSymbolTableRecord
100
AcDbBlockTableRecord
2
*Paper_Space
340
0
70
0
0
BLOCK_RECORD
5
23
100
AcDbSymbolTableRecord
100
AcDbBlockTableRecord
2
*Paper_Space0
340
0
70
0
0
BLOCK_RECORD
5
FB
100
AcDbSymbolTableRecord
100
AcDbBlockTableRecord
2
DimnDraft3D1
340
0
70
0
0
BLOCK_RECORD
5
10A
100
AcDbSymbolTableRecord
100
AcDbBlockTableRecord
2
_CLOSED
340
0
70
0
0
BLOCK_RECORD
5
111
100
AcDbSymbolTableRecord
100
AcDbBlockTableRecord
2
DimnDraft3D2
340
0
70
0
0
BLOCK_RECORD
5
120
100
AcDbSymbolTableRecord
100
AcDbBlockTableRecord
2
DimnDraft3D3
340
0
70
0
0
BLOCK_RECORD
5
12E
100
AcDbSymbolTableRecord
100
AcDbBlockTableRecord
2
DimnDraft3D4
340
0
70
0
0
ENDTAB
0
ENDSEC
0
SECTION
2
BLOCKS
0
BLOCK
5
20
100
AcDbEntity
8
0
100
AcDbBlockBegin
2
*Model_Space
70
0
10
0
20
0
30
0
3
*Model_Space
0
ENDBLK
5
21
100
AcDbEntity
8
0
100
AcDbBlockEnd
0
BLOCK
5
1C
100
AcDbEntity
8
0
100
AcDbBlockBegin
2
*Paper_Space
70
0
10
0
20
0
30
0
3
*Paper_Space
0
ENDBLK
5
1D
100
AcDbEntity
8
0
100
AcDbBlockEnd
0
BLOCK
5
24
100
AcDbEntity
8
0
100
AcDbBlockBegin
2
*Paper_Space0
70
0
10
0
20
0
30
0
3
*Paper_Space0
0
ENDBLK
5
25
100
AcDbEntity
8
0
100
AcDbBlockEnd
0
BLOCK
5
107
100
AcDbEntity
8
0
100
AcDbBlockBegin
2
DimnDraft3D1
70
0
10
0
20
0
30
0
3
DimnDraft3D1
0
MTEXT
5
FC
100
AcDbEntity
8
SK2
62
256
6
ByLayer
370
13
48
1
60
0
100
AcDbMText
10
-126.010993
20
-1.625658
30
0
210
0
220
0
230
1
1
\W0.6740;25
40
4.5
41
0
44
1.084337
50
90
71
7
72
5
7
iso_b_vert
0
LINE
5
FE
100
AcDbEntity
8
SK2
62
256
6
ByLayer
370
13
48
1
60
0
100
AcDbLine
10
-116.723493
20
-12.5625
30
0
11
-128.060993
21
-12.5625
31
0
39
0
210
0
220
0
230
1
0
LINE
5
FF
100
AcDbEntity
8
SK2
62
256
6
ByLayer
370
13
48
1
60
0
100
AcDbLine
10
-116.723493
20
12.4375
30
0
11
-128.060993
21
12.4375
31
0
39
0
210
0
220
0
230
1
0
LINE
5
100
100
AcDbEntity
8
SK2
62
256
6
ByLayer
370
13
48
1
60
0
100
AcDbLine
10
-124.885993
20
-12.5625
30
0
11
-124.885993
21
12.4375
31
0
39
0
210
0
220
0
230
1
0
LINE
5
101
100
AcDbEntity
8
SK2
62
256
6
ByLayer
370
13
48
1
60
0
100
AcDbLine
10
-124.885993
20
-12.5625
30
0
11
-125.736732
21
-9.387503
31
0
39
0
210
0
220
0
230
1
0
LINE
5
102
100
AcDbEntity
8
SK2
62
256
6
ByLayer
370
13
48
1
60
0
100
AcDbLine
10
-124.885993
20
-12.5625
30
0
11
-124.035255
21
-9.387497
31
0
39
0
210
0
220
0
230
1
0
LINE
5
103
100
AcDbEntity
8
SK2
62
256
6
ByLayer
370
13
48
1
60
0
100
AcDbLine
10
-125.736732
20
-9.387503
30
0
11
-124.035255
21
-9.387497
31
0
39
0
210
0
220
0
230
1
0
LINE
5
104
100
AcDbEntity
8
SK2
62
256
6
ByLayer
370
13
48
1
60
0
100
AcDbLine
10
-124.885993
20
12.4375
30
0
11
-124.035255
21
9.262503
31
0
39
0
210
0
220
0
230
1
0
LINE
5
105
100
AcDbEntity
8
SK2
62
256
6
ByLayer
370
13
48
1
60
0
100
AcDbLine
10
-124.885993
20
12.4375
30
0
11
-125.736732
21
9.262497
31
0
39
0
210
0
220
0
230
1
0
LINE
5
106
100
AcDbEntity
8
SK2
62
256
6
ByLayer
370
13
48
1
60
0
100
AcDbLine
10
-124.035255
20
9.262503
30
0
11
-125.736732
21
9.262497
31
0
39
0
210
0
220
0
230
1
0
ENDBLK
5
108
100
AcDbEntity
8
0
100
AcDbBlockEnd
0
BLOCK
5
10B
100
AcDbEntity
8
0
100
AcDbBlockBegin
2
_CLOSED
70
0
10
0
20
0
30
0
3
_CLOSED
0
LINE
5
10D
100
AcDbEntity
8
0
62
256
6
ByLayer
370
-2
48
1
60
0
100
AcDbLine
10
-1
20
0.166667
30
0
11
0
21
0
31
0
39
0
210
0
220
0
230
1
0
LINE
5
10E
100
AcDbEntity
8
0
62
256
6
ByLayer
370
-2
48
1
60
0
100
AcDbLine
10
0
20
0
30
0
11
-1
21
-0.166667
31
0
39
0
210
0
220
0
230
1
0
LINE
5
10F
100
AcDbEntity
8
0
62
256
6
ByLayer
370
-2
48
1
60
0
100
AcDbLine
10
-1
20
0.166667
30
0
11
-1
21
-0.166667
31
0
39
0
210
0
220
0
230
1
0
LINE
5
110
100
AcDbEntity
8
0
62
256
6
ByLayer
370
-2
48
1
60
0
100
AcDbLine
10
0
20
0
30
0
11
-1
21
0
31
0
39
0
210
0
220
0
230
1
0
ENDBLK
5
10C
100
AcDbEntity
8
0
100
AcDbBlockEnd
0
BLOCK
5
11D
100
AcDbEntity
8
0
100
AcDbBlockBegin
2
DimnDraft3D2
70
0
10
0
20
0
30
0
3
DimnDraft3D2
0
MTEXT
5
112
100
AcDbEntity
8
2
62
256
6
ByLayer
370
13
48
1
60
0
100
AcDbMText
10
51.589007
20
-5.300658
30
0
210
0
220
0
230
1
1
\W0.6740;32
40
4.5
41
0
44
1.084337
50
90
71
7
72
5
7
iso_b_vert
0
LINE
5
114
100
AcDbEntity
8
2
62
256
6
ByLayer
370
13
48
1
60
0
100
AcDbLine
10
37.801507
20
-19.9125
30
0
11
55.889007
21
-19.9125
31
0
39
0
210
0
220
0
230
1
0
LINE
5
115
100
AcDbEntity
8
2
62
256
6
ByLayer
370
13
48
1
60
0
100
AcDbLine
10
1.5875
20
12.4375
30
0
11
55.889007
21
12.4375
31
0
39
0
210
0
220
0
230
1
0
LINE
5
116
100
AcDbEntity
8
2
62
256
6
ByLayer
370
13
48
1
60
0
100
AcDbLine
10
52.714007
20
-19.9125
30
0
11
52.714007
21
12.4375
31
0
39
0
210
0
220
0
230
1
0
LINE
5
117
100
AcDbEntity
8
2
62
256
6
ByLayer
370
13
48
1
60
0
100
AcDbLine
10
52.714007
20
-19.9125
30
0
11
51.863268
21
-16.737503
31
0
39
0
210
0
220
0
230
1
0
LINE
5
118
100
AcDbEntity
8
2
62
256
6
ByLayer
370
13
48
1
60
0
100
AcDbLine
10
52.714007
20
-19.9125
30
0
11
53.564745
21
-16.737497
31
0
39
0
210
0
220
0
230
1
0
LINE
5
119
100
AcDbEntity
8
2
62
256
6
ByLayer
370
13
48
1
60
0
100
AcDbLine
10
51.863268
20
-16.737503
30
0
11
53.564745
21
-16.737497
31
0
39
0
210
0
220
0
230
1
0
LINE
5
11A
100
AcDbEntity
8
2
62
256
6
ByLayer
370
13
48
1
60
0
100
AcDbLine
10
52.714007
20
12.4375
30
0
11
53.564745
21
9.262503
31
0
39
0
210
0
220
0
230
1
0
LINE
5
11B
100
AcDbEntity
8
2
62
256
6
ByLayer
370
13
48
1
60
0
100
AcDbLine
10
52.714007
20
12.4375
30
0
11
51.863268
21
9.262497
31
0
39
0
210
0
220
0
230
1
0
LINE
5
11C
100
AcDbEntity
8
2
62
256
6
ByLayer
370
13
48
1
60
0
100
AcDbLine
10
53.564745
20
9.262503
30
0
11
51.863268
21
9.262497
31
0
39
0
210
0
220
0
230
1
0
ENDBLK
5
11E
100
AcDbEntity
8
0
100
AcDbBlockEnd
0
BLOCK
5
12B
100
AcDbEntity
8
0
100
AcDbBlockBegin
2
DimnDraft3D3
70
0
10
0
20
0
30
0
3
DimnDraft3D3
0
MTEXT
5
121
100
AcDbEntity
8
SK2
62
256
6
ByLayer
370
13
48
1
60
0
100
AcDbMText
10
-42.14323
20
-45.2875
30
0
210
0
220
0
230
1
1
\W0.6217;150
40
4.5
41
0
44
1.084337
50
0
71
7
72
5
7
iso_b_vert
0
LINE
5
122
100
AcDbEntity
8
SK2
62
256
6
ByLayer
370
13
48
1
60
0
100
AcDbLine
10
-115.135993
20
-14.15
30
0
11
-115.135993
21
-49.5875
31
0
39
0
210
0
220
0
230
1
0
LINE
5
123
100
AcDbEntity
8
SK2
62
256
6
ByLayer
370
13
48
1
60
0
100
AcDbLine
10
36.214007
20
-21.5
30
0
11
36.214007
21
-49.5875
31
0
39
0
210
0
220
0
230
1
0
LINE
5
124
100
AcDbEntity
8
SK2
62
256
6
ByLayer
370
13
48
1
60
0
100
AcDbLine
10
-115.135993
20
-46.4125
30
0
11
36.214007
21
-46.4125
31
0
39
0
210
0
220
0
230
1
0
LINE
5
125
100
AcDbEntity
8
SK2
62
256
6
ByLayer
370
13
48
1
60
0
100
AcDbLine
10
-115.135993
20
-46.4125
30
0
11
-111.960996
21
-45.561761
31
0
39
0
210
0
220
0
230
1
0
LINE
5
126
100
AcDbEntity
8
SK2
62
256
6
ByLayer
370
13
48
1
60
0
100
AcDbLine
10
-115.135993
20
-46.4125
30
0
11
-111.96099
21
-47.263239
31
0
39
0
210
0
220
0
230
1
0
LINE
5
127
100
AcDbEntity
8
SK2
62
256
6
ByLayer
370
13
48
1
60
0
100
AcDbLine
10
-111.960996
20
-45.561761
30
0
11
-111.96099
21
-47.263239
31
0
39
0
210
0
220
0
230
1
0
LINE
5
128
100
AcDbEntity
8
SK2
62
256
6
ByLayer
370
13
48
1
60
0
100
AcDbLine
10
36.214007
20
-46.4125
30
0
11
33.03901
21
-47.263239
31
0
39
0
210
0
220
0
230
1
0
LINE
5
129
100
AcDbEntity
8
SK2
62
256
6
ByLayer
370
13
48
1
60
0
100
AcDbLine
10
36.214007
20
-46.4125
30
0
11
33.039004
21
-45.561761
31
0
39
0
210
0
220
0
230
1
0
LINE
5
12A
100
AcDbEntity
8
SK2
62
256
6
ByLayer
370
13
48
1
60
0
100
AcDbLine
10
33.03901
20
-47.263239
30
0
11
33.039004
21
-45.561761
31
0
39
0
210
0
220
0
230
1
0
ENDBLK
5
12C
100
AcDbEntity
8
0
100
AcDbBlockEnd
0
BLOCK
5
139
100
AcDbEntity
8
0
100
AcDbBlockBegin
2
DimnDraft3D4
70
0
10
0
20
0
30
0
3
DimnDraft3D4
0
MTEXT
5
12F
100
AcDbEntity
8
2
62
256
6
ByLayer
370
13
48
1
60
0
100
AcDbMText
10
17.713747
20
-29.972976
30
0
210
0
220
0
230
1
1
\W0.8292;93%%d0'
40
4.5
41
0
44
1.084337
50
313.5
71
7
72
5
7
iso_b_vert
0
LINE
5
130
100
AcDbEntity
8
2
62
256
6
ByLayer
370
13
48
1
60
0
100
AcDbLine
10
18.813948
20
-19.04329
30
0
11
11.632337
21
-18.666917
31
0
39
0
210
0
220
0
230
1
0
LINE
5
131
100
AcDbEntity
8
2
62
256
6
ByLayer
370
13
48
1
60
0
100
AcDbLine
10
36.214007
20
-21.5
30
0
11
36.214007
21
-44.570593
31
0
39
0
210
0
220
0
230
1
0
ARC
5
132
100
AcDbEntity
8
2
62
256
6
ByLayer
370
13
48
1
60
0
100
AcDbCircle
39
0
10
36.214007
20
-19.955188
30
0
40
21.4404046845569
210
0
220
0
230
1
100
AcDbArc
50
177
51
270
0
LINE
5
133
100
AcDbEntity
8
2
62
256
6
ByLayer
370
13
48
1
60
0
100
AcDbLine
10
14.802985
20
-18.833084
30
0
11
15.604711
21
-22.02081
31
0
39
0
210
0
220
0
230
1
0
LINE
5
134
100
AcDbEntity
8
2
62
256
6
ByLayer
370
13
48
1
60
0
100
AcDbLine
10
14.802985
20
-18.833084
30
0
11
13.903435
21
-21.994604
31
0
39
0
210
0
220
0
230
1
0
LINE
5
135
100
AcDbEntity
8
2
62
256
6
ByLayer
370
13
48
1
60
0
100
AcDbLine
10
15.604711
20
-22.02081
30
0
11
13.903435
21
-21.994604
31
0
39
0
210
0
220
0
230
1
0
LINE
5
136
100
AcDbEntity
8
2
62
256
6
ByLayer
370
13
48
1
60
0
100
AcDbLine
10
36.214007
20
-41.395593
30
0
11
33.009747
21
-42.128449
31
0
39
0
210
0
220
0
230
1
0
LINE
5
137
100
AcDbEntity
8
2
62
256
6
ByLayer
370
13
48
1
60
0
100
AcDbLine
10
36.214007
20
-41.395593
30
0
11
33.072602
21
-40.428133
31
0
39
0
210
0
220
0
230
1
0
LINE
5
138
100
AcDbEntity
8
2
62
256
6
ByLayer
370
13
48
1
60
0
100
AcDbLine
10
33.009747
20
-42.128449
30
0
11
33.072602
21
-40.428133
31
0
39
0
210
0
220
0
230
1
0
ENDBLK
5
13A
100
AcDbEntity
8
0
100
AcDbBlockEnd
0
ENDSEC
0
SECTION
2
ENTITIES
0
ARC
5
B4
100
AcDbEntity
8
1
62
256
6
ByLayer
370
18
48
1
60
0
100
AcDbCircle
39
0
10
0
20
-14.0375
30
0
40
1.59999999999976
210
0
220
0
230
-1
100
AcDbArc
50
90
51
165
0
ELLIPSE
5
B5
100
AcDbEntity
8
1
62
256
6
ByLayer
370
18
48
1
60
0
100
AcDbEllipse
10
0
20
12.444481
30
0
11
1.59999999999959
21
1.61702248813137E-15
31
0
210
0
220
0
230
-1
40
0.004363
41
0.261799387799245
42
1.5707963267949
0
ELLIPSE
5
B6
100
AcDbEntity
8
1
62
256
6
ByLayer
370
18
48
1
60
0
100
AcDbEllipse
10
19.682007
20
-5.697232
30
0
11
0.0958602922570449
21
-0.155667897652748
31
0
210
0
220
0
230
-1
40
0.022144
41
1.68968892551284
42
-3.01106452655973
0
ELLIPSE
5
B7
100
AcDbEntity
8
1
62
256
6
ByLayer
370
18
48
1
60
0
100
AcDbEllipse
10
20.0608
20
-12.154504
30
0
11
1.8143794587259
21
1.86226399303469
31
0
210
0
220
0
230
1
40
0.987534
41
2.89546307831329
42
-3.04638445666687
0
ELLIPSE
5
B8
100
AcDbEntity
8
1
62
256
6
ByLayer
370
18
48
1
60
0
100
AcDbEllipse
10
18.43938
20
-9.505808
30
0
11
1.8143794587259
21
1.86226399303469
31
0
210
0
220
0
230
1
40
0.987534
41
2.55412530611386
42
2.89546307831329
0
ELLIPSE
5
B9
100
AcDbEntity
8
1
62
256
6
ByLayer
370
18
48
1
60
0
100
AcDbEllipse
10
16.32007
20
-4.646627
30
0
11
-1.75510285115548
21
-1.80142297580605
31
0
210
0
220
0
230
1
40
0.987534
41
2.89546307831328
42
-1.37698988262254
0
ELLIPSE
5
BA
100
AcDbEntity
8
1
62
256
6
ByLayer
370
18
48
1
60
0
100
AcDbEllipse
10
15.732437
20
-5.150715
30
0
11
1.68531902581986
21
1.7297974376124
31
0
210
0
220
0
230
1
40
0.987534
41
1.45178563078523
42
2.89546307831329
0
ELLIPSE
5
BB
100
AcDbEntity
8
1
62
256
6
ByLayer
370
18
48
1
60
0
100
AcDbEllipse
10
9.459757
20
-10.711009
30
0
11
-1.08513848396876
21
-1.11377711891113
31
0
210
0
220
0
230
1
40
0.987534
41
0.247743085430096
42
2.33690243590824
0
ELLIPSE
5
BC
100
AcDbEntity
8
1
62
256
6
ByLayer
370
18
48
1
60
0
100
AcDbEllipse
10
9.459757
20
-10.711009
30
0
11
-1.08513848396876
21
-1.11377711891113
31
0
210
0
220
0
230
1
40
0.987534
41
2.33690243590824
42
2.9638466553106
0
ELLIPSE
5
BD
100
AcDbEntity
8
1
62
256
6
ByLayer
370
18
48
1
60
0
100
AcDbEllipse
10
9.572501
20
-10.820854
30
0
11
1.08513848396876
21
1.11377711891113
31
0
210
0
220
0
230
1
40
0.987534
41
-0.181680505350904
42
-0.0737472794630276
0
ELLIPSE
5
BE
100
AcDbEntity
8
1
62
256
6
ByLayer
370
18
48
1
60
0
100
AcDbEllipse
10
9.572501
20
-10.820854
30
0
11
1.08513848396876
21
1.11377711891113
31
0
210
0
220
0
230
1
40
0.987534
41
-2.94636527471827
42
-2.7191330129543
0
ELLIPSE
5
BF
100
AcDbEntity
8
1
62
256
6
ByLayer
370
18
48
1
60
0
100
AcDbEllipse
10
14.258652
20
-6.286612
30
0
11
-0.553909113601417
21
-0.568527709412033
31
0
210
0
220
0
230
1
40
0.987534
41
-2.42779114026941
42
-1.08531876336441
0
ELLIPSE
5
C0
100
AcDbEntity
8
1
62
256
6
ByLayer
370
18
48
1
60
0
100
AcDbEllipse
10
24.484022
20
-12.356324
30
0
11
1.79902701715207
21
1.84650637463209
31
0
210
0
220
0
230
1
40
0.987534
41
-2.94391853315694
42
-2.20289556048475
0
ELLIPSE
5
C1
100
AcDbEntity
8
1
62
256
6
ByLayer
370
18
48
1
60
0
100
AcDbEllipse
10
24.484022
20
-12.356324
30
0
11
1.79902701715207
21
1.84650637463209
31
0
210
0
220
0
230
1
40
0.987534
41
-0.601566798375105
42
-0.197675839593539
0
ELLIPSE
5
C2
100
AcDbEntity
8
1
62
256
6
ByLayer
370
18
48
1
60
0
100
AcDbEllipse
10
28.206902
20
-8.58131
30
0
11
-0.837405904027339
21
-0.859506458323704
31
0
210
0
220
0
230
1
40
0.987534
41
3.14158803899796
42
-2.90775668456788
0
ELLIPSE
5
C3
100
AcDbEntity
8
1
62
256
6
ByLayer
370
18
48
1
60
0
100
AcDbEllipse
10
23.835744
20
-11.724715
30
0
11
1.93650115306322
21
1.98760868487357
31
0
210
0
220
0
230
1
40
0.987534
41
-2.67925806056248
42
-2.43425195986914
0
ELLIPSE
5
C4
100
AcDbEntity
8
1
62
256
6
ByLayer
370
18
48
1
60
0
100
AcDbEllipse
10
23.835744
20
-11.724715
30
0
11
1.93650115306322
21
1.98760868487357
31
0
210
0
220
0
230
1
40
0.987534
41
-0.679727183137299
42
-0.462364418224506
0
ELLIPSE
5
C5
100
AcDbEntity
8
1
62
256
6
ByLayer
370
18
48
1
60
0
100
AcDbEllipse
10
24.909547
20
-13.38499
30
0
11
-1.8143794587259
21
-1.86226399303469
31
0
210
0
220
0
230
1
40
0.987534
41
2.78339497029967
42
-1.65254223127731
0
ELLIPSE
5
C6
100
AcDbEntity
8
1
62
256
6
ByLayer
370
18
48
1
60
0
100
AcDbEllipse
10
24.982915
20
-12.842389
30
0
11
-1.63991989538687
21
-1.68320014755059
31
0
210
0
220
0
230
1
40
0.987534
41
-0.794962222969475
42
-0.556714993405914
0
ELLIPSE
5
C7
100
AcDbEntity
8
1
62
256
6
ByLayer
370
18
48
1
60
0
100
AcDbEllipse
10
24.323278
20
-12.813795
30
0
11
1.8143794587259
21
1.86226399303469
31
0
210
0
220
0
230
1
40
0.987534
41
7.0511682499723E-06
42
0.298114155585869
0
ELLIPSE
5
C8
100
AcDbEntity
8
1
62
256
6
ByLayer
370
18
48
1
60
0
100
AcDbEllipse
10
23.629986
20
-11.524248
30
0
11
-1.98883902206493
21
-2.0413278385188
31
0
210
0
220
0
230
1
40
0.987534
41
2.48103888311909
42
2.61091906064782
0
ELLIPSE
5
C9
100
AcDbEntity
8
1
62
256
6
ByLayer
370
18
48
1
60
0
100
AcDbEllipse
10
23.629986
20
-11.524248
30
0
11
-1.98883902206493
21
-2.0413278385188
31
0
210
0
220
0
230
1
40
0.987534
41
0.530653930870635
42
0.623699269360889
0
ELLIPSE
5
CA
100
AcDbEntity
8
1
62
256
6
ByLayer
370
18
48
1
60
0
100
AcDbEllipse
10
23.629986
20
-11.524248
30
0
11
-2.07012279951084
21
-2.1247568319564
31
0
210
0
220
0
230
1
40
0.987534
41
0.756042695605575
42
0.778848349807871
0
ELLIPSE
5
CB
100
AcDbEntity
8
1
62
256
6
ByLayer
370
18
48
1
60
0
100
AcDbEllipse
10
28.922827
20
-9.278826
30
0
11
0.837405904027338
21
0.859506458323704
31
0
210
0
220
0
230
1
40
0.987534
41
-0.246129575276521
42
0.233835969021918
0
ELLIPSE
5
CC
100
AcDbEntity
8
1
62
256
6
ByLayer
370
18
48
1
60
0
100
AcDbEllipse
10
26.781065
20
-8.00749
30
0
11
0.837405904027338
21
0.859506458323704
31
0
210
0
220
0
230
1
40
0.987534
41
0.233835969021931
42
0.713801513320364
0
ELLIPSE
5
CD
100
AcDbEntity
8
1
62
256
6
ByLayer
370
18
48
1
60
0
100
AcDbEllipse
10
21.477067
20
-16.828855
30
0
11
0.837405904027338
21
0.859506458323704
31
0
210
0
220
0
230
1
40
0.987534
41
2.89546307831329
42
-2.90775668456788
0
ELLIPSE
5
CE
100
AcDbEntity
8
1
62
256
6
ByLayer
370
18
48
1
60
0
100
AcDbEllipse
10
35.425318
20
-19.123553
30
0
11
0.553909113601416
21
0.568527709412033
31
0
210
0
220
0
230
1
40
0.987534
41
-2.42779114026944
42
-0.246129575276513
0
ELLIPSE
5
CF
100
AcDbEntity
8
1
62
256
6
ByLayer
370
18
48
1
60
0
100
AcDbEllipse
10
23.618829
20
-18.100191
30
0
11
0.837405904027338
21
0.859506458323704
31
0
210
0
220
0
230
1
40
0.987534
41
-2.90775668456785
42
-2.42779114026941
0
ELLIPSE
5
D0
100
AcDbEntity
8
1
62
256
6
ByLayer
370
18
48
1
60
0
100
AcDbEllipse
10
14.974576
20
-6.984128
30
0
11
0.553909113601416
21
0.568527709412033
31
0
210
0
220
0
230
1
40
0.987534
41
0.713801513320379
42
2.89546307831328
0
ELLIPSE
5
D1
100
AcDbEntity
8
1
62
256
6
ByLayer
370
18
48
1
60
0
100
AcDbEllipse
10
25.199947
20
-13.053841
30
0
11
1.79902701715207
21
1.84650637463209
31
0
210
0
220
0
230
1
40
0.987534
41
0
42
6.28318530717959
0
ELLIPSE
5
D2
100
AcDbEntity
8
1
62
256
6
ByLayer
370
18
48
1
60
0
100
AcDbEllipse
10
25.090105
20
-12.332742
30
0
11
1.60502798271906
21
1.64738737845377
31
0
210
0
220
0
230
1
40
0.987534
41
2.79643917133017
42
-1.50846248484898
0
ELLIPSE
5
D3
100
AcDbEntity
8
1
62
256
6
ByLayer
370
18
48
1
60
0
100
AcDbEllipse
10
25.016738
20
-12.875342
30
0
11
1.43056841938004
21
1.46832353296966
31
0
210
0
220
0
230
1
40
0.987534
41
-1.28236788391707
42
-0.571248083191536
0
ELLIPSE
5
D4
100
AcDbEntity
8
1
62
256
6
ByLayer
370
18
48
1
60
0
100
AcDbEllipse
10
24.982915
20
-12.842389
30
0
11
-1.63991989538687
21
-1.68320014755059
31
0
210
0
220
0
230
1
40
0.987534
41
1.8446916798871
42
2.58487766018387
0
ELLIPSE
5
D5
100
AcDbEntity
8
1
62
256
6
ByLayer
370
18
48
1
60
0
100
AcDbEllipse
10
25.016738
20
-12.875342
30
0
11
1.43056841938004
21
1.46832353296966
31
0
210
0
220
0
230
1
40
0.987534
41
1.85922476967273
42
2.57034457039825
0
ELLIPSE
5
D6
100
AcDbEntity
8
1
62
256
6
ByLayer
370
18
48
1
60
0
100
AcDbEllipse
10
24.943371
20
-13.417943
30
0
11
1.60502798271906
21
1.64738737845377
31
0
210
0
220
0
230
1
40
0.987534
41
-0.345153482259614
42
1.63313016874082
0
ELLIPSE
5
D7
100
AcDbEntity
8
1
62
256
6
ByLayer
370
18
48
1
60
0
100
AcDbEllipse
10
25.056282
20
-12.299788
30
0
11
-1.8143794587259
21
-1.86226399303469
31
0
210
0
220
0
230
1
40
0.987534
41
-0.358197683290112
42
1.64617436977131
0
ELLIPSE
5
D8
100
AcDbEntity
8
1
62
256
6
ByLayer
370
18
48
1
60
0
100
AcDbEllipse
10
9.999238
20
-11.236617
30
0
11
1.08513848396876
21
1.11377711891113
31
0
210
0
220
0
230
1
40
0.987534
41
1.46965719183209
42
1.91271459704229
0
ELLIPSE
5
D9
100
AcDbEntity
8
1
62
256
6
ByLayer
370
18
48
1
60
0
100
AcDbEllipse
10
9.937228
20
-11.176203
30
0
11
-2.79135301342446
21
-2.86502152774568
31
0
210
0
220
0
230
1
40
0.987534
41
0
42
6.28318530717959
0
ELLIPSE
5
DA
100
AcDbEntity
8
1
62
256
6
ByLayer
370
18
48
1
60
0
100
AcDbEllipse
10
9.999238
20
-11.236617
30
0
11
1.08513848396876
21
1.11377711891113
31
0
210
0
220
0
230
1
40
0.987534
41
-0.624737910561101
42
-0.181680505350906
0
ELLIPSE
5
DB
100
AcDbEntity
8
1
62
256
6
ByLayer
370
18
48
1
60
0
100
AcDbEllipse
10
9.572501
20
-10.820854
30
0
11
1.08513848396876
21
1.11377711891113
31
0
210
0
220
0
230
1
40
0.987534
41
-2.27607560774411
42
-1.67193546175769
0
ELLIPSE
5
DC
100
AcDbEntity
8
1
62
256
6
ByLayer
370
18
48
1
60
0
100
AcDbEllipse
10
9.999238
20
-11.236617
30
0
11
1.08513848396876
21
1.11377711891113
31
0
210
0
220
0
230
1
40
0.987534
41
-1.67193546175769
42
-1.22887805654752
0
ELLIPSE
5
DD
100
AcDbEntity
8
1
62
256
6
ByLayer
370
18
48
1
60
0
100
AcDbEllipse
10
9.999238
20
-11.236617
30
0
11
1.08513848396876
21
1.11377711891113
31
0
210
0
220
0
230
1
40
0.987534
41
2.5168547430287
42
2.95991214823889
0
ELLIPSE
5
DE
100
AcDbEntity
8
1
62
256
6
ByLayer
370
18
48
1
60
0
100
AcDbEllipse
10
9.999238
20
-11.236617
30
0
11
1.08513848396876
21
1.11377711891113
31
0
210
0
220
0
230
1
40
0.987534
41
0.422459640635489
42
0.865517045845702
0
ELLIPSE
5
DF
100
AcDbEntity
8
1
62
256
6
ByLayer
370
18
48
1
60
0
100
AcDbEllipse
10
10.023478
20
-11.260234
30
0
11
-1.34500711567851
21
-1.38050412214347
31
0
210
0
220
0
230
1
40
0.987534
41
0
42
6.28318530717959
0
ELLIPSE
5
E0
100
AcDbEntity
8
1
62
256
6
ByLayer
370
18
48
1
60
0
100
AcDbEllipse
10
10.023478
20
-11.260234
30
0
11
-2.25750674960703
21
-2.31708616056432
31
0
210
0
220
0
230
1
40
0.987534
41
0
42
6.28318530717959
0
ELLIPSE
5
E1
100
AcDbEntity
8
1
62
256
6
ByLayer
370
18
48
1
60
0
100
AcDbEllipse
10
9.572501
20
-10.820854
30
0
11
1.08513848396876
21
1.11377711891113
31
0
210
0
220
0
230
1
40
0.987534
41
-1.22887805654751
42
-0.624737910561095
0
ELLIPSE
5
E2
100
AcDbEntity
8
1
62
256
6
ByLayer
370
18
48
1
60
0
100
AcDbEllipse
10
9.999238
20
-11.236617
30
0
11
1.08513848396876
21
1.11377711891113
31
0
210
0
220
0
230
1
40
0.987534
41
-2.7191330129543
42
-2.27607560774413
0
POINT
5
6C
100
AcDbEntity
8
80
62
256
6
ByLayer
370
18
48
1
60
0
100
AcDbPoint
10
0
20
0
30
0
39
0
210
0
220
0
230
1
50
360
0
POINT
5
6E
100
AcDbEntity
8
81
62
256
6
ByLayer
370
18
48
1
60
0
100
AcDbPoint
10
34.864007
20
-19.5625
30
0
39
0
210
0
220
0
230
1
50
360
0
POINT
5
70
100
AcDbEntity
8
1
62
256
6
ByLayer
370
18
48
1
60
0
100
AcDbPoint
10
-115.135993
20
12.4375
30
0
39
0
210
0
220
0
230
1
50
360
0
SPLINE
5
E3
100
AcDbEntity
8
1
62
256
6
ByLayer
370
18
48
1
60
0
100
AcDbSpline
70
4
71
3
72
8
73
4
40
0
40
0
40
0
40
0
40
1
40
1
40
1
40
1
41
1
10
18.4294653489602
20
-14.1786662887291
30
0
41
1
10
18.3753873839326
20
-14.1332898610893
30
0
41
1
10
18.3213087111411
20
-14.0879122775359
30
0
41
1
10
18.2672293370645
20
-14.0425335486491
30
0
0
SPLINE
5
E4
100
AcDbEntity
8
1
62
256
6
ByLayer
370
18
48
1
60
0
100
AcDbSpline
70
4
71
3
72
8
73
4
40
0
40
0
40
0
40
0
40
1
40
1
40
1
40
1
41
1
10
22.9953971667489
20
-11.7787275514343
30
0
41
1
10
23.0701340960514
20
-11.8320354520362
30
0
41
1
10
23.1448975490704
20
-11.8853351199032
30
0
41
1
10
23.219696863807
20
-11.9386236227806
30
0
0
SPLINE
5
E5
100
AcDbEntity
8
1
62
256
6
ByLayer
370
18
48
1
60
0
100
AcDbSpline
70
4
71
3
72
16
73
12
40
0
40
0
40
0
40
0
40
0.0567521108713273
40
0.0567521108713273
40
0.286785770092102
40
0.286785770092102
40
0.746853088533655
40
0.746853088533655
40
0.976886747754431
40
0.976886747754431
40
1
40
1
40
1
40
1
41
1
10
26.5313437481709
20
-11.3527959947022
30
0
41
1
10
26.5258024505616
20
-11.3398811260051
30
0
41
1
10
26.5201438002948
20
-11.3269381109576
30
0
41
1
10
26.4909396281345
20
-11.2614633221629
30
0
41
1
10
26.4654072973263
20
-11.2084327461043
30
0
41
1
10
26.3834347551615
20
-11.0517607841705
30
0
41
1
10
26.3219086681663
20
-10.9508735998467
30
0
41
1
10
26.2187212345058
20
-10.80601406438
30
0
41
1
10
26.1825090297818
20
-10.7587974024627
30
0
41
1
10
26.1405860168158
20
-10.708095149523
30
0
41
1
10
26.1367379621793
20
-10.7034762234956
30
0
41
1
10
26.1328703055604
20
-10.698868547878
30
0
0
SPLINE
5
E6
100
AcDbEntity
8
1
62
256
6
ByLayer
370
18
48
1
60
0
100
AcDbSpline
70
4
71
3
72
12
73
8
40
0
40
0
40
0
40
0
40
0.349180272762451
40
0.349180272762451
40
0.89211357303786
40
0.89211357303786
40
1
40
1
40
1
40
1
41
1
10
22.7067972878086
20
-13.6159973873656
30
0
41
1
10
22.7273712970813
20
-13.6420391337461
30
0
41
1
10
22.7482643517926
20
-13.6672516858765
30
0
41
1
10
22.8022168485239
20
-13.7294350151875
30
0
41
1
10
22.8355614860686
20
-13.7650992811484
30
0
41
1
10
22.874844483553
20
-13.8043697686988
30
0
41
1
10
22.8813526519476
20
-13.8107783534902
30
0
41
1
10
22.8878423004776
20
-13.8170782693369
30
0
0
SPLINE
5
E7
100
AcDbEntity
8
1
62
256
6
ByLayer
370
18
48
1
60
0
100
AcDbSpline
70
4
71
3
72
10
73
6
40
0
40
0
40
0
40
0
40
0.226396286349748
40
0.226396286349748
40
1
40
1
40
1
40
1
41
1
10
22.991278742732
20
-14.2462149192382
30
0
41
1
10
23.0394036924661
20
-14.2563435554427
30
0
41
1
10
23.0870892195787
20
-14.2664621975754
30
0
41
1
10
23.2958474956973
20
-14.311114042289
30
0
41
1
10
23.4528634906669
20
-14.3455549794982
30
0
41
1
10
23.6023974347491
20
-14.3798257476016
30
0
0
SPLINE
5
E8
100
AcDbEntity
8
1
62
256
6
ByLayer
370
18
48
1
60
0
100
AcDbSpline
70
4
71
3
72
8
73
4
40
0
40
0
40
0
40
0
40
1
40
1
40
1
40
1
41
1
10
27.2535148932508
20
-12.2690908952865
30
0
41
1
10
27.1704475421465
20
-12.3140821421103
30
0
41
1
10
27.0873392464663
20
-12.3590519649785
30
0
41
1
10
27.0041702071767
20
-12.4039899370175
30
0
0
SPLINE
5
E9
100
AcDbEntity
8
1
62
256
6
ByLayer
370
18
48
1
60
0
100
AcDbSpline
70
4
71
3
72
8
73
4
40
0
40
0
40
0
40
0
40
1
40
1
40
1
40
1
41
1
10
26.8137790586704
20
-13.8120611297037
30
0
41
1
10
26.8848260454021
20
-13.8567739273398
30
0
41
1
10
26.9558069309276
20
-13.9014944971964
30
0
41
1
10
27.0267432705075
20
-13.9462202776581
30
0
0
SPLINE
5
EA
100
AcDbEntity
8
1
62
256
6
ByLayer
370
18
48
1
60
0
100
AcDbSpline
70
4
71
3
72
8
73
4
40
0
40
0
40
0
40
0
40
1
40
1
40
1
40
1
41
1
10
23.0293057153006
20
-13.3466948154669
30
0
41
1
10
22.9235967333658
20
-13.3696724161034
30
0
41
1
10
22.8179385330369
20
-13.3926721617195
30
0
41
1
10
22.7123145808388
20
-13.4156868070322
30
0
0
SPLINE
5
EB
100
AcDbEntity
8
1
62
256
6
ByLayer
370
18
48
1
60
0
100
AcDbSpline
70
4
71
3
72
8
73
4
40
0
40
0
40
0
40
0
40
1
40
1
40
1
40
1
41
1
10
8.73322738937566
20
-12.1384417656862
30
0
41
1
10
8.80456779267712
20
-12.3078753983224
30
0
41
1
10
8.87592862212455
20
-12.4745820190199
30
0
41
1
10
8.9473018174603
20
-12.6396377200979
30
0
0
SPLINE
5
EC
100
AcDbEntity
8
1
62
256
6
ByLayer
370
18
48
1
60
0
100
AcDbSpline
70
4
71
3
72
8
73
4
40
0
40
0
40
0
40
0
40
1
40
1
40
1
40
1
41
1
10
8.59917292067757
20
-10.6004824235437
30
0
41
1
10
8.49090442812269
20
-10.7478300425433
30
0
41
1
10
8.38759363564981
20
-10.8930577726476
30
0
41
1
10
8.28728421043047
20
-11.037002132438
30
0
0
SPLINE
5
ED
100
AcDbEntity
8
1
62
256
6
ByLayer
370
18
48
1
60
0
100
AcDbSpline
70
4
71
3
72
10
73
6
40
0
40
0
40
0
40
0
40
0.5
40
0.5
40
1
40
1
40
1
40
1
41
1
10
10.6720576805806
20
-12.8517262212324
30
0
41
1
10
10.7224987024808
20
-12.7793431865502
30
0
41
1
10
10.7740078816622
20
-12.7062068628134
30
0
41
1
10
10.8780766417183
20
-12.5604173394178
30
0
41
1
10
10.9306763230889
20
-12.4877042211363
30
0
41
1
10
10.9839463908277
20
-12.4152065123381
30
0
0
SPLINE
5
EE
100
AcDbEntity
8
1
62
256
6
ByLayer
370
18
48
1
60
0
100
AcDbSpline
70
4
71
3
72
10
73
6
40
0
40
0
40
0
40
0
40
0.5
40
0.5
40
1
40
1
40
1
40
1
41
1
10
9.35202246652085
20
-9.64645504591249
30
0
41
1
10
9.29587416816798
20
-9.7132775557713
30
0
41
1
10
9.23922055710642
20
-9.7814017267923
30
0
41
1
10
9.12648987631184
20
-9.91875205406966
30
0
41
1
10
9.07036608637299
20
-9.98803167945202
30
0
41
1
10
9.01452874920273
20
-10.058028131211
30
0
0
SPLINE
5
EF
100
AcDbEntity
8
1
62
256
6
ByLayer
370
18
48
1
60
0
100
AcDbSpline
70
4
71
3
72
10
73
6
40
0
40
0
40
0
40
0
40
0.5
40
0.5
40
1
40
1
40
1
40
1
41
1
10
10.6720576805806
20
-12.8517262212324
30
0
41
1
10
10.5832678803245
20
-12.8383893889123
30
0
41
1
10
10.493874454066
20
-12.8252229689981
30
0
41
1
10
10.3134918511248
20
-12.7993406327399
30
0
41
1
10
10.2230723715585
20
-12.7867110228635
30
0
41
1
10
10.1332920387133
20
-12.7745766639171
30
0
0
SPLINE
5
F0
100
AcDbEntity
8
1
62
256
6
ByLayer
370
18
48
1
60
0
100
AcDbSpline
70
4
71
3
72
10
73
6
40
0
40
0
40
0
40
0
40
0.5
40
0.5
40
1
40
1
40
1
40
1
41
1
10
9.46046245225659
20
-12.6918406538175
30
0
41
1
10
9.37270453198687
20
-12.6821505025578
30
0
41
1
10
9.2852130802097
20
-12.6729189170925
30
0
41
1
10
9.11418380195545
20
-12.6555795708291
30
0
41
1
10
9.03017224122954
20
-12.647416383486
30
0
41
1
10
8.9473018174603
20
-12.6396377200979
30
0
0
SPLINE
5
F1
100
AcDbEntity
8
1
62
256
6
ByLayer
370
18
48
1
60
0
100
AcDbSpline
70
4
71
3
72
10
73
6
40
0
40
0
40
0
40
0
40
0.5
40
0.5
40
1
40
1
40
1
40
1
41
1
10
11.7367959366709
20
-11.4611791347069
30
0
41
1
10
11.7009056212679
20
-11.3781801721006
30
0
41
1
10
11.6648090412047
20
-11.2942712082666
30
0
41
1
10
11.5932824826041
20
-11.126889209822
30
0
41
1
10
11.5578222846912
20
-11.0433476095468
30
0
41
1
10
11.5227215085863
20
-10.9599831802952
30
0
0
SPLINE
5
F2
100
AcDbEntity
8
1
62
256
6
ByLayer
370
18
48
1
60
0
100
AcDbSpline
70
4
71
3
72
10
73
6
40
0
40
0
40
0
40
0
40
0.5
40
0.5
40
1
40
1
40
1
40
1
41
1
10
9.86518310131709
20
-9.69865797963203
30
0
41
1
10
9.77742518104736
20
-9.6889678283724
30
0
41
1
10
9.68993372927019
20
-9.67973624290707
30
0
41
1
10
9.518904451016
20
-9.66239689664363
30
0
41
1
10
9.43489289029003
20
-9.65423370930054
30
0
41
1
10
9.35202246652085
20
-9.64645504591249
30
0
0
SPLINE
5
F3
100
AcDbEntity
8
1
62
256
6
ByLayer
370
18
48
1
60
0
100
AcDbSpline
70
4
71
3
72
8
73
4
40
0
40
0
40
0
40
0
40
1
40
1
40
1
40
1
41
1
10
11.3993022193528
20
-11.8727522200055
30
0
41
1
10
11.5127885462962
20
-11.7304882688257
30
0
41
1
10
11.6251367489178
20
-11.5940655692623
30
0
41
1
10
11.7367959366709
20
-11.4611791347069
30
0
0
SPLINE
5
F4
100
AcDbEntity
8
1
62
256
6
ByLayer
370
18
48
1
60
0
100
AcDbSpline
70
4
71
3
72
10
73
6
40
0
40
0
40
0
40
0
40
0.5
40
0.5
40
1
40
1
40
1
40
1
41
1
10
8.28728421043047
20
-11.037002132438
30
0
41
1
10
8.31746724938091
20
-11.1144405702209
30
0
41
1
10
8.34841939756387
20
-11.1933373813391
30
0
41
1
10
8.41128403542598
20
-11.3522801836655
30
0
41
1
10
8.44322012477068
20
-11.4323882910416
30
0
41
1
10
8.47575363144409
20
-11.5132514632539
30
0
0
SPLINE
5
F5
100
AcDbEntity
8
1
62
256
6
ByLayer
370
18
48
1
60
0
100
AcDbSpline
70
4
71
3
72
10
73
6
40
0
40
0
40
0
40
0
40
0.5
40
0.5
40
1
40
1
40
1
40
1
41
1
10
11.0767783296411
20
-9.85854354704698
30
0
41
1
10
10.9879885293849
20
-9.8452067147269
30
0
41
1
10
10.8985951031265
20
-9.83204029481271
30
0
41
1
10
10.7182125001853
20
-9.80615795855448
30
0
41
1
10
10.6277930206191
20
-9.79352834867808
30
0
41
1
10
10.5380126877739
20
-9.78139398973167
30
0
0
SPLINE
5
F6
100
AcDbEntity
8
1
62
256
6
ByLayer
370
18
48
1
60
0
100
AcDbSpline
70
4
71
3
72
8
73
4
40
0
40
0
40
0
40
0
40
1
40
1
40
1
40
1
41
1
10
11.2652477506547
20
-10.3347928778629
30
0
41
1
10
11.1991251817417
20
-10.1704429130466
30
0
41
1
10
11.1368017624431
20
-10.0125413228901
30
0
41
1
10
11.0767783296411
20
-9.85854354704696
30
0
0
LINE
5
72
100
AcDbEntity
8
1
62
256
6
ByLayer
370
18
48
1
60
0
100
AcDbLine
10
22.885352
20
-13.81467
30
0
11
23.241903
21
-14.162052
31
0
39
0
210
0
220
0
230
1
0
LINE
5
73
100
AcDbEntity
8
1
62
256
6
ByLayer
370
18
48
1
60
0
100
AcDbLine
10
26.723927
20
-11.522726
30
0
11
26.137658
21
-10.951531
31
0
39
0
210
0
220
0
230
1
0
LINE
5
74
100
AcDbEntity
8
1
62
256
6
ByLayer
370
18
48
1
60
0
100
AcDbLine
10
29.760233
20
-8.41932
30
0
11
29.044308
21
-7.721804
31
0
39
0
210
0
220
0
230
1
0
LINE
5
75
100
AcDbEntity
8
1
62
256
6
ByLayer
370
18
48
1
60
0
100
AcDbLine
10
20.253688
20
-17.312313
30
0
11
20.639661
21
-17.688361
31
0
39
0
210
0
220
0
230
1
0
LINE
5
76
100
AcDbEntity
8
1
62
256
6
ByLayer
370
18
48
1
60
0
100
AcDbLine
10
12.728581
20
-8.311181
30
0
11
12.681617
21
-8.265424
31
0
39
0
210
0
220
0
230
1
0
LINE
5
77
100
AcDbEntity
8
1
62
256
6
ByLayer
370
18
48
1
60
0
100
AcDbLine
10
7.098911
20
-13.995467
30
0
11
7.145875
21
-14.041224
31
0
39
0
210
0
220
0
230
1
0
LINE
5
78
100
AcDbEntity
8
1
62
256
6
ByLayer
370
18
48
1
60
0
100
AcDbLine
10
27.423278
20
-6.809922
30
0
11
26.928457
21
-6.781821
31
0
39
0
210
0
220
0
230
1
0
LINE
5
79
100
AcDbEntity
8
1
62
256
6
ByLayer
370
18
48
1
60
0
100
AcDbLine
10
25.574612
20
-6.704933
30
0
11
20.344927
21
-6.40793
31
0
39
0
210
0
220
0
230
1
0
LINE
5
7A
100
AcDbEntity
8
1
62
256
6
ByLayer
370
18
48
1
60
0
100
AcDbLine
10
17.884504
20
-2.677764
30
0
11
18.455728
21
-3.321797
31
0
39
0
210
0
220
0
230
1
0
LINE
5
7B
100
AcDbEntity
8
1
62
256
6
ByLayer
370
18
48
1
60
0
100
AcDbLine
10
19.667214
20
-5.680876
30
0
11
19.729601
21
-5.78279
31
0
39
0
210
0
220
0
230
1
0
LINE
5
7C
100
AcDbEntity
8
1
62
256
6
ByLayer
370
18
48
1
60
0
100
AcDbLine
10
17.692134
20
-2.54026
30
0
11
19.675303
21
-5.779898
31
0
39
0
210
0
220
0
230
1
0
LINE
5
7D
100
AcDbEntity
8
1
62
256
6
ByLayer
370
18
48
1
60
0
100
AcDbLine
10
13.335244
20
-5.289464
30
0
11
13.646142
21
-5.797336
31
0
39
0
210
0
220
0
230
1
0
LINE
5
7E
100
AcDbEntity
8
1
62
256
6
ByLayer
370
18
48
1
60
0
100
AcDbLine
10
19.71065
20
-5.683342
30
0
11
19.667214
21
-5.680876
31
0
39
0
210
0
220
0
230
1
0
LINE
5
7F
100
AcDbEntity
8
1
62
256
6
ByLayer
370
18
48
1
60
0
100
AcDbLine
10
13.332828
20
-5.168952
30
0
11
13.688034
21
-5.749205
31
0
39
0
210
0
220
0
230
1
0
LINE
5
80
100
AcDbEntity
8
1
62
256
6
ByLayer
370
18
48
1
60
0
100
AcDbLine
10
19.48662
20
-5.770015
30
0
11
17.415076
21
-2.386011
31
0
39
0
210
0
220
0
230
1
0
LINE
5
81
100
AcDbEntity
8
1
62
256
6
ByLayer
370
18
48
1
60
0
100
AcDbLine
10
1.545481
20
-13.62339
30
0
11
2.281547
21
-16.370423
31
0
39
0
210
0
220
0
230
1
0
LINE
5
82
100
AcDbEntity
8
1
62
256
6
ByLayer
370
18
48
1
60
0
100
AcDbLine
10
23.604695
20
-0.572014
30
0
11
5.185572
21
12.46734
31
0
39
0
210
0
220
0
230
1
0
LINE
5
83
100
AcDbEntity
8
1
62
256
6
ByLayer
370
18
48
1
60
0
100
AcDbLine
10
0
20
-12.4375
30
0
11
0
21
12.4375
31
0
39
0
210
0
220
0
230
1
0
LINE
5
84
100
AcDbEntity
8
1
62
256
6
ByLayer
370
18
48
1
60
0
100
AcDbLine
10
23.604695
20
-0.572014
30
0
11
27.423278
21
-6.809922
31
0
39
0
210
0
220
0
230
1
0
LINE
5
85
100
AcDbEntity
8
1
62
256
6
ByLayer
370
18
48
1
60
0
100
AcDbLine
10
18.455728
20
-3.321797
30
0
11
20.344927
21
-6.40793
31
0
39
0
210
0
220
0
230
1
0
LINE
5
86
100
AcDbEntity
8
1
62
256
6
ByLayer
370
18
48
1
60
0
100
AcDbLine
10
1.545481
20
12.442674
30
0
11
1.545481
21
-13.62339
31
0
39
0
210
0
220
0
230
1
0
LINE
5
87
100
AcDbEntity
8
1
62
256
6
ByLayer
370
18
48
1
60
0
100
AcDbLine
10
2.289252
20
-16.370827
30
0
11
3.123275
21
12.468368
31
0
39
0
210
0
220
0
230
1
0
LINE
5
88
100
AcDbEntity
8
1
62
256
6
ByLayer
370
18
48
1
60
0
100
AcDbLine
10
2.289252
20
-16.370827
30
0
11
2.281547
21
-16.370423
31
0
39
0
210
0
220
0
230
1
0
LINE
5
89
100
AcDbEntity
8
1
62
256
6
ByLayer
370
18
48
1
60
0
100
AcDbLine
10
1.545481
20
12.442674
30
0
11
3.123275
21
12.468368
31
0
39
0
210
0
220
0
230
1
0
LINE
5
8A
100
AcDbEntity
8
1
62
256
6
ByLayer
370
18
48
1
60
0
100
AcDbLine
10
5.185572
20
12.46734
30
0
11
3.123275
21
12.468368
31
0
39
0
210
0
220
0
230
1
0
LINE
5
8B
100
AcDbEntity
8
1
62
256
6
ByLayer
370
18
48
1
60
0
100
AcDbLine
10
20.344927
20
-6.40793
30
0
11
19.587411
21
-5.542612
31
0
39
0
210
0
220
0
230
1
0
LINE
5
8C
100
AcDbEntity
8
1
62
256
6
ByLayer
370
18
48
1
60
0
100
AcDbLine
10
20.350863
20
-17.317396
30
0
11
2.289252
21
-16.370827
31
0
39
0
210
0
220
0
230
1
0
LINE
5
8D
100
AcDbEntity
8
1
62
256
6
ByLayer
370
18
48
1
60
0
100
AcDbLine
10
18.429465
20
-14.178666
30
0
11
20.350863
21
-17.317396
31
0
39
0
210
0
220
0
230
1
0
LINE
5
8E
100
AcDbEntity
8
1
62
256
6
ByLayer
370
18
48
1
60
0
100
AcDbLine
10
13.681695
20
-6.422868
30
0
11
15.909885
21
-10.062766
31
0
39
0
210
0
220
0
230
1
0
LINE
5
8F
100
AcDbEntity
8
1
62
256
6
ByLayer
370
18
48
1
60
0
100
AcDbLine
10
16.231593
20
-10.875382
30
0
11
17.853013
21
-13.524078
31
0
39
0
210
0
220
0
230
1
0
LINE
5
90
100
AcDbEntity
8
SK1
62
256
6
ByLayer
370
18
48
1
60
0
100
AcDbLine
10
0
20
-12.4375
30
0
11
0
21
12.4375
31
0
39
0
210
0
220
0
230
1
0
LINE
5
92
100
AcDbEntity
8
SK1
62
256
6
ByLayer
370
18
48
1
60
0
100
AcDbLine
10
-115.135993
20
12.4375
30
0
11
0
21
12.4375
31
0
39
0
210
0
220
0
230
1
0
LINE
5
93
100
AcDbEntity
8
SK1
62
256
6
ByLayer
370
18
48
1
60
0
100
AcDbLine
10
-115.135993
20
-12.4375
30
0
11
0
21
-12.4375
31
0
39
0
210
0
220
0
230
1
0
LINE
5
94
100
AcDbEntity
8
SK1
62
256
6
ByLayer
370
18
48
1
60
0
100
AcDbLine
10
-115.135993
20
12.4375
30
0
11
-115.135993
21
-12.4375
31
0
39
0
210
0
220
0
230
1
0
LINE
5
95
100
AcDbEntity
8
1
62
256
6
ByLayer
370
18
48
1
60
0
100
AcDbLine
10
10.796703
20
-9.817512
30
0
11
10.838511
21
-9.919029
31
0
39
0
210
0
220
0
230
1
0
LINE
5
96
100
AcDbEntity
8
1
62
256
6
ByLayer
370
18
48
1
60
0
100
AcDbLine
10
8.778609
20
-12.244706
30
0
11
9.033726
21
-12.276077
31
0
39
0
210
0
220
0
230
1
0
LINE
5
97
100
AcDbEntity
8
1
62
256
6
ByLayer
370
18
48
1
60
0
100
AcDbLine
10
14.309758
20
-5.498744
30
0
11
19.80103
21
-5.786529
31
0
39
0
210
0
220
0
230
1
0
LINE
5
98
100
AcDbEntity
8
1
62
256
6
ByLayer
370
18
48
1
60
0
100
AcDbLine
10
26.858328
20
-6.816383
30
0
11
26.810406
21
-6.769693
31
0
39
0
210
0
220
0
230
1
0
LINE
5
99
100
AcDbEntity
8
1
62
256
6
ByLayer
370
18
48
1
60
0
100
AcDbLine
10
14.300565
20
-7.402243
30
0
11
14.252642
21
-7.355553
31
0
39
0
210
0
220
0
230
1
0
LINE
5
9A
100
AcDbEntity
8
1
62
256
6
ByLayer
370
18
48
1
60
0
100
AcDbLine
10
20.308438
20
-17.315164
30
0
11
20.458088
21
-17.460966
31
0
39
0
210
0
220
0
230
1
0
LINE
5
9B
100
AcDbEntity
8
1
62
256
6
ByLayer
370
18
48
1
60
0
100
AcDbLine
10
27.212385
20
-6.797935
30
0
11
27.399006
21
-6.979758
31
0
39
0
210
0
220
0
230
1
0
LINE
5
9C
100
AcDbEntity
8
1
62
256
6
ByLayer
370
18
48
1
60
0
100
AcDbLine
10
27.338394
20
-6.671231
30
0
11
28.824844
21
-7.553578
31
0
39
0
210
0
220
0
230
1
0
LINE
5
9D
100
AcDbEntity
8
1
62
256
6
ByLayer
370
18
48
1
60
0
100
AcDbLine
10
22.652855
20
-13.357757
30
0
11
22.712315
21
-13.415687
31
0
39
0
210
0
220
0
230
1
0
LINE
5
9E
100
AcDbEntity
8
80
62
256
6
ByLayer
370
18
48
1
60
0
100
AcDbLine
10
0
20
0
30
0
11
-5
21
0
31
0
39
0
210
0
220
0
230
1
0
LINE
5
9F
100
AcDbEntity
8
81
62
256
6
ByLayer
370
18
48
1
60
0
100
AcDbLine
10
34.864007
20
-19.5625
30
0
11
44.864007
21
-19.5625
31
0
39
0
210
0
220
0
230
1
0
LINE
5
A0
100
AcDbEntity
8
1
62
256
6
ByLayer
370
18
48
1
60
0
100
AcDbLine
10
23.000888
20
-19.127923
30
0
11
20.859125
21
-17.856587
31
0
39
0
210
0
220
0
230
1
0
LINE
5
A1
100
AcDbEntity
8
1
62
256
6
ByLayer
370
18
48
1
60
0
100
AcDbLine
10
14.309758
20
-5.498744
30
0
11
15.025683
21
-6.19626
31
0
39
0
210
0
220
0
230
1
0
LINE
5
A2
100
AcDbEntity
8
1
62
256
6
ByLayer
370
18
48
1
60
0
100
AcDbLine
10
20.458088
20
-17.460966
30
0
11
14.300565
21
-7.402243
31
0
39
0
210
0
220
0
230
1
0
LINE
5
A3
100
AcDbEntity
8
1
62
256
6
ByLayer
370
18
48
1
60
0
100
AcDbLine
10
15.025683
20
-6.19626
30
0
11
26.858328
21
-6.816383
31
0
39
0
210
0
220
0
230
1
0
LINE
5
A4
100
AcDbEntity
8
1
62
256
6
ByLayer
370
18
48
1
60
0
100
AcDbLine
10
35.374211
20
-19.911421
30
0
11
23.541566
21
-19.291298
31
0
39
0
210
0
220
0
230
1
0
LINE
5
A5
100
AcDbEntity
8
1
62
256
6
ByLayer
370
18
48
1
60
0
100
AcDbLine
10
29.941806
20
-8.646715
30
0
11
36.09933
21
-18.705438
31
0
39
0
210
0
220
0
230
1
0
LINE
5
A6
100
AcDbEntity
8
1
62
256
6
ByLayer
370
18
48
1
60
0
100
AcDbLine
10
27.399006
20
-6.979758
30
0
11
29.540769
21
-8.251094
31
0
39
0
210
0
220
0
230
1
0
LINE
5
A7
100
AcDbEntity
8
1
62
256
6
ByLayer
370
18
48
1
60
0
100
AcDbLine
10
29.540769
20
-8.251094
30
0
11
28.824844
21
-7.553578
31
0
39
0
210
0
220
0
230
1
0
LINE
5
A8
100
AcDbEntity
8
1
62
256
6
ByLayer
370
18
48
1
60
0
100
AcDbLine
10
11.265248
20
-10.334793
30
0
11
10.838511
21
-9.919029
31
0
39
0
210
0
220
0
230
1
0
LINE
5
A9
100
AcDbEntity
8
1
62
256
6
ByLayer
370
18
48
1
60
0
100
AcDbLine
10
11.399302
20
-11.872752
30
0
11
10.972566
21
-11.456989
31
0
39
0
210
0
220
0
230
1
0
LINE
5
AA
100
AcDbEntity
8
1
62
256
6
ByLayer
370
18
48
1
60
0
100
AcDbLine
10
11.297257
20
-11.032942
30
0
11
10.972566
21
-11.456989
31
0
39
0
210
0
220
0
230
1
0
LINE
5
AB
100
AcDbEntity
8
1
62
256
6
ByLayer
370
18
48
1
60
0
100
AcDbLine
10
10.55721
20
-11.999443
30
0
11
10.983946
21
-12.415207
31
0
39
0
210
0
220
0
230
1
0
LINE
5
AC
100
AcDbEntity
8
1
62
256
6
ByLayer
370
18
48
1
60
0
100
AcDbLine
10
10.672058
20
-12.851726
30
0
11
10.232519
21
-12.423489
31
0
39
0
210
0
220
0
230
1
0
LINE
5
AD
100
AcDbEntity
8
1
62
256
6
ByLayer
370
18
48
1
60
0
100
AcDbLine
10
11.095985
20
-10.54422
30
0
11
11.297257
21
-11.032942
31
0
39
0
210
0
220
0
230
1
0
LINE
5
AE
100
AcDbEntity
8
1
62
256
6
ByLayer
370
18
48
1
60
0
100
AcDbLine
10
9.706556
20
-12.358813
30
0
11
10.232519
21
-12.423489
31
0
39
0
210
0
220
0
230
1
0
LINE
5
AF
100
AcDbEntity
8
1
62
256
6
ByLayer
370
18
48
1
60
0
100
AcDbLine
10
10.55721
20
-11.999443
30
0
11
10.232519
21
-12.423489
31
0
39
0
210
0
220
0
230
1
0
LINE
5
B0
100
AcDbEntity
8
1
62
256
6
ByLayer
370
18
48
1
60
0
100
AcDbLine
10
11.095985
20
-10.54422
30
0
11
11.522722
21
-10.959983
31
0
39
0
210
0
220
0
230
1
0
LINE
5
B1
100
AcDbEntity
8
1
62
256
6
ByLayer
370
18
48
1
60
0
100
AcDbLine
10
11.736796
20
-11.461179
30
0
11
11.297257
21
-11.032942
31
0
39
0
210
0
220
0
230
1
0
LINE
5
B2
100
AcDbEntity
8
1
62
256
6
ByLayer
370
18
48
1
60
0
100
AcDbLine
10
9.706556
20
-12.358813
30
0
11
10.133292
21
-12.774577
31
0
39
0
210
0
220
0
230
1
0
LINE
5
B3
100
AcDbEntity
8
1
62
256
6
ByLayer
370
18
48
1
60
0
100
AcDbLine
10
9.460462
20
-12.691841
30
0
11
9.033726
21
-12.276077
31
0
39
0
210
0
220
0
230
1
0
MTEXT
5
F7
100
AcDbEntity
8
SK6
62
256
6
ByLayer
370
13
48
1
60
0
100
AcDbMText
10
-88.553124
20
21.423222
30
0
210
0
220
0
230
1
1
\W0.7523;PDJNL 2525M 15
40
3.5
41
0
44
1.084337
50
0
71
7
72
5
7
iso_b_vert
0
DIMENSION
5
109
100
AcDbEntity
8
SK2
62
256
6
ByLayer
370
13
48
1
60
0
100
AcDbDimension
2
DimnDraft3D1
10
-124.885993
20
12.4375
30
0
11
-124.885993
21
-0.0625
31
0
70
32
71
5
72
1
41
1
210
0
220
0
230
1
3
Standard
100
AcDbAlignedDimension
13
-116.723493
23
-12.5625
33
0
14
-116.723493
24
12.4375
34
0
50
90
100
AcDbRotatedDimension
1001
ACAD
1000
DSTYLE
1002
{
1070
    74
1070
     0
1070
   279
1070
     0
1070
   172
1070
     1
1070
   173
1070
     1
1070
   340
1005
F8
1070
   271
1070
     1
1070
   272
1070
     2
1070
    77
1070
     1
1070
    73
1070
     0
1070
   171
1070
     3
1070
   274
1070
     4
1070
   177
1070
   150
1070
   176
1070
     9
1070
   178
1070
    43
1070
    78
1070
     8
1070
    48
1040
-0.005
1070
    41
1041
3.175
1070
   147
1041
2.25
1070
    42
1041
1.5875
1070
    44
1041
3.175
1070
   140
1041
4.5
1070
   343
1005
10A
1070
   344
1005
10A
1002
}
0
DIMENSION
5
11F
100
AcDbEntity
8
2
62
256
6
ByLayer
370
13
48
1
60
0
100
AcDbDimension
2
DimnDraft3D2
10
52.714007
20
12.4375
30
0
11
52.714007
21
-3.7375
31
0
70
32
71
5
72
1
41
1
210
0
220
0
230
1
3
Standard
100
AcDbAlignedDimension
13
37.801507
23
-19.9125
33
0
14
1.5875
24
12.4375
34
0
50
90
100
AcDbRotatedDimension
1001
ACAD
1000
DSTYLE
1002
{
1070
    74
1070
     0
1070
   279
1070
     0
1070
   172
1070
     1
1070
   173
1070
     1
1070
   340
1005
F8
1070
   271
1070
     1
1070
   272
1070
     2
1070
    77
1070
     1
1070
    73
1070
     0
1070
   171
1070
     3
1070
   274
1070
     4
1070
   177
1070
   150
1070
   176
1070
     9
1070
   178
1070
    43
1070
    78
1070
     8
1070
    48
1040
-0.005
1070
    41
1041
3.175
1070
   147
1041
2.25
1070
    42
1041
1.5875
1070
    44
1041
3.175
1070
   140
1041
4.5
1070
   343
1005
10A
1070
   344
1005
10A
1002
}
0
DIMENSION
5
12D
100
AcDbEntity
8
SK2
62
256
6
ByLayer
370
13
48
1
60
0
100
AcDbDimension
2
DimnDraft3D3
10
36.214007
20
-46.4125
30
0
11
-39.460993
21
-46.4125
31
0
70
32
71
5
72
1
41
1
210
0
220
0
230
1
3
Standard
100
AcDbAlignedDimension
13
-115.135993
23
-14.15
33
0
14
36.214007
24
-21.5
34
0
50
0
100
AcDbRotatedDimension
1001
ACAD
1000
DSTYLE
1002
{
1070
   279
1070
     0
1070
   172
1070
     1
1070
   173
1070
     1
1070
   340
1005
F8
1070
   271
1070
     1
1070
   272
1070
     2
1070
    77
1070
     1
1070
    73
1070
     0
1070
   171
1070
     3
1070
   274
1070
     4
1070
   177
1070
   150
1070
   176
1070
     9
1070
   178
1070
    43
1070
    78
1070
     8
1070
    48
1040
-0.005
1070
    41
1041
3.175
1070
   147
1041
2.25
1070
    42
1041
1.5875
1070
    44
1041
3.175
1070
   140
1041
4.5
1070
   343
1005
10A
1070
   344
1005
10A
1002
}
0
DIMENSION
5
13B
100
AcDbEntity
8
2
62
256
6
ByLayer
370
13
48
1
60
0
100
AcDbDimension
2
DimnDraft3D4
10
36.214007
20
-18.325
30
0
11
23.925871
21
-31.616193
31
0
70
34
71
5
72
1
41
1
210
0
220
0
230
1
3
Standard
100
AcDb2LineAngularDimension
13
35.378715
23
-19.911412
33
0
14
20.399272
24
-19.126373
34
0
15
36.214007
25
-19.9125
35
0
16
20.661687
26
-34.713789
36
0
40
0
0
ENDSEC
0
SECTION
2
OBJECTS
0
DICTIONARY
5
1a5
330
0
100
AcDbDictionary
280
0
281
1
3
ACAD_GROUP
350
1a6
3
ACAD_MLINESTYLE
350
1a7
0
DICTIONARY
5
1a6
330
0
100
AcDbDictionary
280
0
281
1
0
DICTIONARY
5
1a7
330
0
100
AcDbDictionary
280
0
281
1
3
Standard
350
18
0
MLINESTYLE
5
18
330
1a7
100
AcDbMlineStyle
2
Standard
70
0
3

62
256
51
90
52
90
71
2
49
-0.5
62
256
6
ByLayer
49
0.5
62
256
6
ByLayer
0
RASTERVARIABLES
5
194
330

100
AcDbRasterVariables
90
0
70
1
71
1
72
1
0
ENDSEC
0
EOF
