0
SECTION
2
HEADER
9
$ACADVER
1
AC1015
9
$DWGCODEPAGE
3
ANSI_1252
9
$HANDSEED
5
1bb
9
$ANGBASE
50
0
9
$ANGDIR
70
0
9
$ATTMODE
70
1
9
$AUNITS
70
0
9
$AUPREC
70
0
9
$CECOLOR
62
256
9
$CELTSCALE
40
1
9
$CELTYPE
6
ByLayer
9
$CELWEIGHT
370
18
9
$CLAYER
8
0
9
$CMLJUST
70
0
9
$CMLSCALE
40
1
9
$CMLSTYLE
2
Standard
9
$DIMSTYLE
2
Standard
9
$TEXTSIZE
40
0.2
9
$TEXTSTYLE
7
Standard
9
$LUNITS
70
2
9
$LUPREC
70
4
9
$EXTNAMES
290
1
9
$INSUNITS
70
4
9
$LTSCALE
40
1
9
$LWDISPLAY
290
1
9
$PDMODE
70
0
9
$PDSIZE
40
0
9
$PLINEGEN
70
0
0
ENDSEC
0
SECTION
2
CLASSES
0
CLASS
1
RASTERVARIABLES
2
AcDbRasterVariables
3
ISM
90
0
280
0
281
0
0
ENDSEC
0
SECTION
2
TABLES
0
TABLE
2
VPORT
5
1b1
100
AcDbSymbolTable
0
VPORT
5
1
100
AcDbSymbolTableRecord
100
AcDbViewportTableRecord
2
*Active
70
0
10
0
20
0
11
1
21
1
12
-1
22
1
13
0
23
0
14
0.5
24
0.5
15
10
25
10
16
0
26
0
36
1
17
0
27
0
37
0
0
ENDTAB
0
TABLE
2
LTYPE
5
1b2
100
AcDbSymbolTable
0
LTYPE
5
14
100
AcDbSymbolTableRecord
100
AcDbLinetypeTableRecord
70
0
2
ByBlock
3

72
65
73
0
40
0
0
LTYPE
5
15
100
AcDbSymbolTableRecord
100
AcDbLinetypeTableRecord
70
0
2
ByLayer
3

72
65
73
0
40
0
0
LTYPE
5
16
100
AcDbSymbolTableRecord
100
AcDbLinetypeTableRecord
70
0
2
CONTINUOUS
3
Solid line
72
65
73
0
40
0
0
LTYPE
5
6A
100
AcDbSymbolTableRecord
100
AcDbLinetypeTableRecord
70
0
2
CENTER
3
____ _ ____ _ ____ _ ____
72
65
73
4
40
47.5
49
22
74
0
49
-8.5
74
0
49
8.5
74
0
49
-8.5
74
0
0
LTYPE
5
6B
100
AcDbSymbolTableRecord
100
AcDbLinetypeTableRecord
70
0
2
DASHED
3
__ __ __ __ __ __ __ __ __
72
65
73
2
40
25.72
49
12.86
74
0
49
-12.86
74
0
0
ENDTAB
0
TABLE
2
LAYER
5
1b3
100
AcDbSymbolTable
0
LAYER
5
10
100
AcDbSymbolTableRecord
100
AcDbLayerTableRecord
2
0
70
0
62
7
6
CONTINUOUS
290
1
370
-3
390
0
0
LAYER
5
6D
100
AcDbSymbolTableRecord
100
AcDbLayerTableRecord
2
80
70
0
62
-6
6
CONTINUOUS
290
1
370
-3
390
0
0
LAYER
5
6F
100
AcDbSymbolTableRecord
100
AcDbLayerTableRecord
2
81
70
0
62
-3
6
CONTINUOUS
290
1
370
-3
390
0
0
LAYER
5
71
100
AcDbSymbolTableRecord
100
AcDbLayerTableRecord
2
1
70
0
62
4
6
CONTINUOUS
290
1
370
-3
390
0
0
LAYER
5
73
100
AcDbSymbolTableRecord
100
AcDbLayerTableRecord
2
2
70
0
62
7
6
CONTINUOUS
290
1
370
-3
390
0
0
LAYER
5
19e
100
AcDbSymbolTableRecord
100
AcDbLayerTableRecord
2
SK1
70
0
62
4
6
CONTINUOUS
290
1
370
-3
390
0
0
LAYER
5
19f
100
AcDbSymbolTableRecord
100
AcDbLayerTableRecord
2
SK6
70
0
62
5
6
CONTINUOUS
290
1
370
-3
390
0
0
LAYER
5
1a0
100
AcDbSymbolTableRecord
100
AcDbLayerTableRecord
2
SK2
70
0
62
7
6
CONTINUOUS
290
1
370
-3
390
0
0
ENDTAB
0
TABLE
2
STYLE
5
1b4
100
AcDbSymbolTable
0
STYLE
5
11
100
AcDbSymbolTableRecord
100
AcDbTextStyleTableRecord
2
Standard
3
txt
70
0
71
0
40
0
41
1
42
0
50
0
0
STYLE
5
102
100
AcDbSymbolTableRecord
100
AcDbTextStyleTableRecord
2
iso_b_vert
3
simplex.shx
70
0
71
0
40
0
41
1
42
0
50
0
0
STYLE
5
103
100
AcDbSymbolTableRecord
100
AcDbTextStyleTableRecord
2
DWGDirectTextStyle
3
simplex
70
0
71
0
40
0
41
1
42
0
50
0
0
ENDTAB
0
TABLE
2
DIMSTYLE
5
1b5
100
AcDbSymbolTable
100
AcDbDimStyleTable
0
DIMSTYLE
105
27
100
AcDbSymbolTableRecord
100
AcDbDimStyleTableRecord
2
Standard
70
0
3
<>
41
0.18
42
0.0625
44
0.18
140
0.18
147
0.09
73
0
74
0
77
1
271
2
275
0
278
52
280
0
340
11
0
ENDTAB
0
TABLE
2
VIEW
5
1b6
100
AcDbSymbolTable
0
ENDTAB
0
TABLE
2
UCS
5
1b7
100
AcDbSymbolTable
0
ENDTAB
0
TABLE
2
APPID
5
1b8
100
AcDbSymbolTable
0
APPID
5
12
100
AcDbSymbolTableRecord
100
AcDbRegAppTableRecord
2
ACAD
70
0
0
ENDTAB
0
TABLE
2
BLOCK_RECORD
5
1b9
100
AcDbSymbolTable
0
BLOCK_RECORD
5
1F
100
AcDbSymbolTableRecord
100
AcDbBlockTableRecord
2
*Model_Space
340
0
70
0
0
BLOCK_RECORD
5
1B
100
AcDbSymbolTableRecord
100
AcDbBlockTableRecord
2
*Paper_Space
340
0
70
0
0
BLOCK_RECORD
5
23
100
AcDbSymbolTableRecord
100
AcDbBlockTableRecord
2
*Paper_Space0
340
0
70
0
0
BLOCK_RECORD
5
105
100
AcDbSymbolTableRecord
100
AcDbBlockTableRecord
2
DimnDraft3D1
340
0
70
0
0
BLOCK_RECORD
5
114
100
AcDbSymbolTableRecord
100
AcDbBlockTableRecord
2
_CLOSED
340
0
70
0
0
BLOCK_RECORD
5
11B
100
AcDbSymbolTableRecord
100
AcDbBlockTableRecord
2
DimnDraft3D2
340
0
70
0
0
BLOCK_RECORD
5
129
100
AcDbSymbolTableRecord
100
AcDbBlockTableRecord
2
DimnDraft3D3
340
0
70
0
0
BLOCK_RECORD
5
137
100
AcDbSymbolTableRecord
100
AcDbBlockTableRecord
2
DimnDraft3D4
340
0
70
0
0
ENDTAB
0
ENDSEC
0
SECTION
2
BLOCKS
0
BLOCK
5
20
100
AcDbEntity
8
0
100
AcDbBlockBegin
2
*Model_Space
70
0
10
0
20
0
30
0
3
*Model_Space
0
ENDBLK
5
21
100
AcDbEntity
8
0
100
AcDbBlockEnd
0
BLOCK
5
1C
100
AcDbEntity
8
0
100
AcDbBlockBegin
2
*Paper_Space
70
0
10
0
20
0
30
0
3
*Paper_Space
0
ENDBLK
5
1D
100
AcDbEntity
8
0
100
AcDbBlockEnd
0
BLOCK
5
24
100
AcDbEntity
8
0
100
AcDbBlockBegin
2
*Paper_Space0
70
0
10
0
20
0
30
0
3
*Paper_Space0
0
ENDBLK
5
25
100
AcDbEntity
8
0
100
AcDbBlockEnd
0
BLOCK
5
111
100
AcDbEntity
8
0
100
AcDbBlockBegin
2
DimnDraft3D1
70
0
10
0
20
0
30
0
3
DimnDraft3D1
0
MTEXT
5
106
100
AcDbEntity
8
SK2
62
256
6
ByLayer
370
13
48
1
60
0
100
AcDbMText
10
-113.046371
20
-1.500658
30
0
210
0
220
0
230
1
1
\W0.6740;20
40
4.5
41
0
44
1.084337
50
90
71
7
72
5
7
iso_b_vert
0
LINE
5
108
100
AcDbEntity
8
SK2
62
256
6
ByLayer
370
13
48
1
60
0
100
AcDbLine
10
-103.758871
20
10.0625
30
0
11
-115.096371
21
10.0625
31
0
39
0
210
0
220
0
230
1
0
LINE
5
109
100
AcDbEntity
8
SK2
62
256
6
ByLayer
370
13
48
1
60
0
100
AcDbLine
10
-103.758871
20
-9.9375
30
0
11
-115.096371
21
-9.9375
31
0
39
0
210
0
220
0
230
1
0
LINE
5
10A
100
AcDbEntity
8
SK2
62
256
6
ByLayer
370
13
48
1
60
0
100
AcDbLine
10
-111.921371
20
10.0625
30
0
11
-111.921371
21
-9.9375
31
0
39
0
210
0
220
0
230
1
0
LINE
5
10B
100
AcDbEntity
8
SK2
62
256
6
ByLayer
370
13
48
1
60
0
100
AcDbLine
10
-111.921371
20
10.0625
30
0
11
-111.070632
21
6.887503
31
0
39
0
210
0
220
0
230
1
0
LINE
5
10C
100
AcDbEntity
8
SK2
62
256
6
ByLayer
370
13
48
1
60
0
100
AcDbLine
10
-111.921371
20
10.0625
30
0
11
-112.77211
21
6.887497
31
0
39
0
210
0
220
0
230
1
0
LINE
5
10D
100
AcDbEntity
8
SK2
62
256
6
ByLayer
370
13
48
1
60
0
100
AcDbLine
10
-111.070632
20
6.887503
30
0
11
-112.77211
21
6.887497
31
0
39
0
210
0
220
0
230
1
0
LINE
5
10E
100
AcDbEntity
8
SK2
62
256
6
ByLayer
370
13
48
1
60
0
100
AcDbLine
10
-111.921371
20
-9.9375
30
0
11
-112.77211
21
-6.762503
31
0
39
0
210
0
220
0
230
1
0
LINE
5
10F
100
AcDbEntity
8
SK2
62
256
6
ByLayer
370
13
48
1
60
0
100
AcDbLine
10
-111.921371
20
-9.9375
30
0
11
-111.070632
21
-6.762497
31
0
39
0
210
0
220
0
230
1
0
LINE
5
110
100
AcDbEntity
8
SK2
62
256
6
ByLayer
370
13
48
1
60
0
100
AcDbLine
10
-112.77211
20
-6.762503
30
0
11
-111.070632
21
-6.762497
31
0
39
0
210
0
220
0
230
1
0
ENDBLK
5
112
100
AcDbEntity
8
0
100
AcDbBlockEnd
0
BLOCK
5
115
100
AcDbEntity
8
0
100
AcDbBlockBegin
2
_CLOSED
70
0
10
0
20
0
30
0
3
_CLOSED
0
LINE
5
117
100
AcDbEntity
8
0
62
256
6
ByLayer
370
-2
48
1
60
0
100
AcDbLine
10
-1
20
0.166667
30
0
11
0
21
0
31
0
39
0
210
0
220
0
230
1
0
LINE
5
118
100
AcDbEntity
8
0
62
256
6
ByLayer
370
-2
48
1
60
0
100
AcDbLine
10
0
20
0
30
0
11
-1
21
-0.166667
31
0
39
0
210
0
220
0
230
1
0
LINE
5
119
100
AcDbEntity
8
0
62
256
6
ByLayer
370
-2
48
1
60
0
100
AcDbLine
10
-1
20
0.166667
30
0
11
-1
21
-0.166667
31
0
39
0
210
0
220
0
230
1
0
LINE
5
11A
100
AcDbEntity
8
0
62
256
6
ByLayer
370
-2
48
1
60
0
100
AcDbLine
10
0
20
0
30
0
11
-1
21
0
31
0
39
0
210
0
220
0
230
1
0
ENDBLK
5
116
100
AcDbEntity
8
0
100
AcDbBlockEnd
0
BLOCK
5
126
100
AcDbEntity
8
0
100
AcDbBlockBegin
2
DimnDraft3D2
70
0
10
0
20
0
30
0
3
DimnDraft3D2
0
MTEXT
5
11C
100
AcDbEntity
8
2
62
256
6
ByLayer
370
13
48
1
60
0
100
AcDbMText
10
39.553629
20
1.174342
30
0
210
0
220
0
230
1
1
\W0.6740;25
40
4.5
41
0
44
1.084337
50
90
71
7
72
5
7
iso_b_vert
0
LINE
5
11D
100
AcDbEntity
8
2
62
256
6
ByLayer
370
13
48
1
60
0
100
AcDbLine
10
1.5875
20
-9.9375
30
0
11
43.853629
21
-9.9375
31
0
39
0
210
0
220
0
230
1
0
LINE
5
11E
100
AcDbEntity
8
2
62
256
6
ByLayer
370
13
48
1
60
0
100
AcDbLine
10
25.766129
20
15.4125
30
0
11
43.853629
21
15.4125
31
0
39
0
210
0
220
0
230
1
0
LINE
5
11F
100
AcDbEntity
8
2
62
256
6
ByLayer
370
13
48
1
60
0
100
AcDbLine
10
40.678629
20
-9.9375
30
0
11
40.678629
21
15.4125
31
0
39
0
210
0
220
0
230
1
0
LINE
5
120
100
AcDbEntity
8
2
62
256
6
ByLayer
370
13
48
1
60
0
100
AcDbLine
10
40.678629
20
-9.9375
30
0
11
39.82789
21
-6.762503
31
0
39
0
210
0
220
0
230
1
0
LINE
5
121
100
AcDbEntity
8
2
62
256
6
ByLayer
370
13
48
1
60
0
100
AcDbLine
10
40.678629
20
-9.9375
30
0
11
41.529368
21
-6.762497
31
0
39
0
210
0
220
0
230
1
0
LINE
5
122
100
AcDbEntity
8
2
62
256
6
ByLayer
370
13
48
1
60
0
100
AcDbLine
10
39.82789
20
-6.762503
30
0
11
41.529368
21
-6.762497
31
0
39
0
210
0
220
0
230
1
0
LINE
5
123
100
AcDbEntity
8
2
62
256
6
ByLayer
370
13
48
1
60
0
100
AcDbLine
10
40.678629
20
15.4125
30
0
11
41.529368
21
12.237503
31
0
39
0
210
0
220
0
230
1
0
LINE
5
124
100
AcDbEntity
8
2
62
256
6
ByLayer
370
13
48
1
60
0
100
AcDbLine
10
40.678629
20
15.4125
30
0
11
39.82789
21
12.237497
31
0
39
0
210
0
220
0
230
1
0
LINE
5
125
100
AcDbEntity
8
2
62
256
6
ByLayer
370
13
48
1
60
0
100
AcDbLine
10
41.529368
20
12.237503
30
0
11
39.82789
21
12.237497
31
0
39
0
210
0
220
0
230
1
0
ENDBLK
5
127
100
AcDbEntity
8
0
100
AcDbBlockEnd
0
BLOCK
5
134
100
AcDbEntity
8
0
100
AcDbBlockBegin
2
DimnDraft3D3
70
0
10
0
20
0
30
0
3
DimnDraft3D3
0
MTEXT
5
12A
100
AcDbEntity
8
SK2
62
256
6
ByLayer
370
13
48
1
60
0
100
AcDbMText
10
-41.678608
20
34.0375
30
0
210
0
220
0
230
1
1
\W0.6217;125
40
4.5
41
0
44
1.084337
50
0
71
7
72
5
7
iso_b_vert
0
LINE
5
12B
100
AcDbEntity
8
SK2
62
256
6
ByLayer
370
13
48
1
60
0
100
AcDbLine
10
-102.171371
20
11.65
30
0
11
-102.171371
21
36.0875
31
0
39
0
210
0
220
0
230
1
0
LINE
5
12C
100
AcDbEntity
8
SK2
62
256
6
ByLayer
370
13
48
1
60
0
100
AcDbLine
10
24.178629
20
17
30
0
11
24.178629
21
36.0875
31
0
39
0
210
0
220
0
230
1
0
LINE
5
12D
100
AcDbEntity
8
SK2
62
256
6
ByLayer
370
13
48
1
60
0
100
AcDbLine
10
-102.171371
20
32.9125
30
0
11
24.178629
21
32.9125
31
0
39
0
210
0
220
0
230
1
0
LINE
5
12E
100
AcDbEntity
8
SK2
62
256
6
ByLayer
370
13
48
1
60
0
100
AcDbLine
10
-102.171371
20
32.9125
30
0
11
-98.996374
21
33.763239
31
0
39
0
210
0
220
0
230
1
0
LINE
5
12F
100
AcDbEntity
8
SK2
62
256
6
ByLayer
370
13
48
1
60
0
100
AcDbLine
10
-102.171371
20
32.9125
30
0
11
-98.996368
21
32.061761
31
0
39
0
210
0
220
0
230
1
0
LINE
5
130
100
AcDbEntity
8
SK2
62
256
6
ByLayer
370
13
48
1
60
0
100
AcDbLine
10
-98.996374
20
33.763239
30
0
11
-98.996368
21
32.061761
31
0
39
0
210
0
220
0
230
1
0
LINE
5
131
100
AcDbEntity
8
SK2
62
256
6
ByLayer
370
13
48
1
60
0
100
AcDbLine
10
24.178629
20
32.9125
30
0
11
21.003632
21
32.061761
31
0
39
0
210
0
220
0
230
1
0
LINE
5
132
100
AcDbEntity
8
SK2
62
256
6
ByLayer
370
13
48
1
60
0
100
AcDbLine
10
24.178629
20
32.9125
30
0
11
21.003626
21
33.763239
31
0
39
0
210
0
220
0
230
1
0
LINE
5
133
100
AcDbEntity
8
SK2
62
256
6
ByLayer
370
13
48
1
60
0
100
AcDbLine
10
21.003632
20
32.061761
30
0
11
21.003626
21
33.763239
31
0
39
0
210
0
220
0
230
1
0
ENDBLK
5
135
100
AcDbEntity
8
0
100
AcDbBlockEnd
0
BLOCK
5
142
100
AcDbEntity
8
0
100
AcDbBlockBegin
2
DimnDraft3D4
70
0
10
0
20
0
30
0
3
DimnDraft3D4
0
MTEXT
5
138
100
AcDbEntity
8
2
62
256
6
ByLayer
370
13
48
1
60
0
100
AcDbMText
10
10.498466
20
20.603934
30
0
210
0
220
0
230
1
1
\W0.8292;95%%d0'
40
4.5
41
0
44
1.084337
50
47.5
71
7
72
5
7
iso_b_vert
0
LINE
5
139
100
AcDbEntity
8
2
62
256
6
ByLayer
370
13
48
1
60
0
100
AcDbLine
10
24.178629
20
17
30
0
11
24.178629
21
31.079368
31
0
39
0
210
0
220
0
230
1
0
LINE
5
13A
100
AcDbEntity
8
2
62
256
6
ByLayer
370
13
48
1
60
0
100
AcDbLine
10
12.73424
20
14.483722
30
0
11
8.643579
21
14.125835
31
0
39
0
210
0
220
0
230
1
0
ARC
5
13B
100
AcDbEntity
8
2
62
256
6
ByLayer
370
13
48
1
60
0
100
AcDbCircle
39
0
10
24.178629
20
15.484976
30
0
40
12.4193920057133
210
0
220
0
230
1
100
AcDbArc
50
90
51
185
0
LINE
5
13C
100
AcDbEntity
8
2
62
256
6
ByLayer
370
13
48
1
60
0
100
AcDbLine
10
24.178629
20
27.904368
30
0
11
21.064088
21
26.853657
31
0
39
0
210
0
220
0
230
1
0
LINE
5
13D
100
AcDbEntity
8
2
62
256
6
ByLayer
370
13
48
1
60
0
100
AcDbLine
10
24.178629
20
27.904368
30
0
11
20.955996
21
28.551698
31
0
39
0
210
0
220
0
230
1
0
LINE
5
13E
100
AcDbEntity
8
2
62
256
6
ByLayer
370
13
48
1
60
0
100
AcDbLine
10
21.064088
20
26.853657
30
0
11
20.955996
21
28.551698
31
0
39
0
210
0
220
0
230
1
0
LINE
5
13F
100
AcDbEntity
8
2
62
256
6
ByLayer
370
13
48
1
60
0
100
AcDbLine
10
11.806497
20
14.402555
30
0
11
10.88076
21
17.5565
31
0
39
0
210
0
220
0
230
1
0
LINE
5
140
100
AcDbEntity
8
2
62
256
6
ByLayer
370
13
48
1
60
0
100
AcDbLine
10
11.806497
20
14.402555
30
0
11
12.581759
21
17.596826
31
0
39
0
210
0
220
0
230
1
0
LINE
5
141
100
AcDbEntity
8
2
62
256
6
ByLayer
370
13
48
1
60
0
100
AcDbLine
10
10.88076
20
17.5565
30
0
11
12.581759
21
17.596826
31
0
39
0
210
0
220
0
230
1
0
ENDBLK
5
143
100
AcDbEntity
8
0
100
AcDbBlockEnd
0
ENDSEC
0
SECTION
2
ENTITIES
0
ARC
5
B9
100
AcDbEntity
8
1
62
256
6
ByLayer
370
18
48
1
60
0
100
AcDbCircle
39
0
10
0
20
11.5375
30
0
40
1.60000000000031
210
0
220
0
230
-1
100
AcDbArc
50
195
51
270
0
ELLIPSE
5
BA
100
AcDbEntity
8
1
62
256
6
ByLayer
370
18
48
1
60
0
100
AcDbEllipse
10
15.912478
20
4.21396
30
0
11
-1.4142135623731
21
1.41421356237309
31
0
210
0
220
0
230
1
40
0.989133
41
-3.03873742969349
42
-2.44346095279206
0
ELLIPSE
5
BB
100
AcDbEntity
8
1
62
256
6
ByLayer
370
18
48
1
60
0
100
AcDbEllipse
10
15.912478
20
4.21396
30
0
11
-1.4142135623731
21
1.41421356237309
31
0
210
0
220
0
230
1
40
0.989133
41
0.698131700797712
42
0.791688728829006
0
ELLIPSE
5
BC
100
AcDbEntity
8
1
62
256
6
ByLayer
370
18
48
1
60
0
100
AcDbEllipse
10
15.813896
20
4.115377
30
0
11
1.42201573794471
21
-1.42201573794469
31
0
210
0
220
0
230
1
40
0.989133
41
0.163324578185792
42
0.698131700797728
0
ELLIPSE
5
BD
100
AcDbEntity
8
1
62
256
6
ByLayer
370
18
48
1
60
0
100
AcDbEllipse
10
15.79812
20
4.099602
30
0
11
-1.31595690058716
21
1.31595690058715
31
0
210
0
220
0
230
1
40
0.989133
41
0.698131700797727
42
0.770191886411729
0
ELLIPSE
5
BE
100
AcDbEntity
8
1
62
256
6
ByLayer
370
18
48
1
60
0
100
AcDbEllipse
10
15.79812
20
4.099602
30
0
11
-1.31595690058716
21
1.31595690058715
31
0
210
0
220
0
230
1
40
0.989133
41
-3.13333513303416
42
-2.44346095279206
0
ELLIPSE
5
BF
100
AcDbEntity
8
1
62
256
6
ByLayer
370
18
48
1
60
0
100
AcDbEllipse
10
13.968944
20
4.286589
30
0
11
-0.149497441244717
21
0.0122684579830763
31
0
210
0
220
0
230
1
40
0.112627
41
1.27246861955536
42
1.47554201039824
0
ELLIPSE
5
C0
100
AcDbEntity
8
1
62
256
6
ByLayer
370
18
48
1
60
0
100
AcDbEllipse
10
15.869744
20
4.77467
30
0
11
1.44460737215199
21
-1.44460737215197
31
0
210
0
220
0
230
1
40
0.989133
41
-2.44346095279206
42
-0.761391064217261
0
ELLIPSE
5
C1
100
AcDbEntity
8
1
62
256
6
ByLayer
370
18
48
1
60
0
100
AcDbEllipse
10
16.42189
20
4.723372
30
0
11
1.45453043071287
21
-1.45453043071286
31
0
210
0
220
0
230
1
40
0.989133
41
-1.03386393864348
42
0.698131700797722
0
ELLIPSE
5
C2
100
AcDbEntity
8
1
62
256
6
ByLayer
370
18
48
1
60
0
100
AcDbEllipse
10
17.658484
20
3.943803
30
0
11
0.149497441244717
21
-0.0122684579830762
31
0
210
0
220
0
230
1
40
0.112627
41
-1.66605064319146
42
-0.0836187880499148
0
ELLIPSE
5
C3
100
AcDbEntity
8
1
62
256
6
ByLayer
370
18
48
1
60
0
100
AcDbEllipse
10
0
20
-9.944481
30
0
11
1.59999999999927
21
1.61702248813104E-15
31
0
210
0
220
0
230
-1
40
0.004363
41
-1.5707963267949
42
-0.261799387798511
0
ELLIPSE
5
C4
100
AcDbEntity
8
1
62
256
6
ByLayer
370
18
48
1
60
0
100
AcDbEllipse
10
17.996058
20
5.065676
30
0
11
0.0142773063954395
21
0.151767085763962
31
0
210
0
220
0
230
-1
40
0.104317
41
3.01621042866232
42
-1.68454302340448
0
ELLIPSE
5
C5
100
AcDbEntity
8
1
62
256
6
ByLayer
370
18
48
1
60
0
100
AcDbEllipse
10
15.993373
20
8.629967
30
0
11
-1.4142135623731
21
1.41421356237309
31
0
210
0
220
0
230
1
40
0.989133
41
0.698131700797716
42
1.08789243359519
0
ELLIPSE
5
C6
100
AcDbEntity
8
1
62
256
6
ByLayer
370
18
48
1
60
0
100
AcDbEllipse
10
16.117424
20
10.141584
30
0
11
-1.4142135623731
21
1.41421356237309
31
0
210
0
220
0
230
1
40
0.989133
41
0.308370968000252
42
0.698131700797706
0
ELLIPSE
5
C7
100
AcDbEntity
8
1
62
256
6
ByLayer
370
18
48
1
60
0
100
AcDbEllipse
10
18.033733
20
9.267603
30
0
11
-1.50613744392735
21
1.50613744392734
31
0
210
0
220
0
230
1
40
0.989133
41
-2.62745205378746
42
-2.43740416777107
0
ELLIPSE
5
C8
100
AcDbEntity
8
1
62
256
6
ByLayer
370
18
48
1
60
0
100
AcDbEllipse
10
18.033733
20
9.267603
30
0
11
-1.50613744392735
21
1.50613744392734
31
0
210
0
220
0
230
1
40
0.989133
41
-0.706151120373257
42
-0.514142080836425
0
ELLIPSE
5
C9
100
AcDbEntity
8
1
62
256
6
ByLayer
370
18
48
1
60
0
100
AcDbEllipse
10
18.868406
20
10.486791
30
0
11
1.34350288425445
21
-1.34350288425443
31
0
210
0
220
0
230
1
40
0.989133
41
-1.46448296229836
42
0.631633191365637
0
ELLIPSE
5
CA
100
AcDbEntity
8
1
62
256
6
ByLayer
370
18
48
1
60
0
100
AcDbEllipse
10
18.971986
20
10.205857
30
0
11
1.25511453660613
21
-1.25511453660612
31
0
210
0
220
0
230
1
40
0.989133
41
-2.36131888318071
42
-1.98720534285535
0
ELLIPSE
5
CB
100
AcDbEntity
8
1
62
256
6
ByLayer
370
18
48
1
60
0
100
AcDbEllipse
10
18.379786
20
9.998171
30
0
11
-1.34350288425445
21
1.34350288425443
31
0
210
0
220
0
230
1
40
0.989133
41
2.97278922617891
42
3.14158932850544
0
ELLIPSE
5
CC
100
AcDbEntity
8
1
62
256
6
ByLayer
370
18
48
1
60
0
100
AcDbEllipse
10
18.685097
20
9.739666
30
0
11
1.27279220613579
21
-1.27279220613578
31
0
210
0
220
0
230
1
40
0.989133
41
-3.14155211617083
42
-2.99282280321243
0
ELLIPSE
5
CD
100
AcDbEntity
8
1
62
256
6
ByLayer
370
18
48
1
60
0
100
AcDbEllipse
10
14.422242
20
5.656112
30
0
11
0.561266007566825
21
-0.561266007566819
31
0
210
0
220
0
230
1
40
0.989133
41
-1.58923141545056
42
-0.698131700797738
0
ELLIPSE
5
CE
100
AcDbEntity
8
1
62
256
6
ByLayer
370
18
48
1
60
0
100
AcDbEllipse
10
18.740672
20
9.974543
30
0
11
-1.34703841816038
21
1.34703841816037
31
0
210
0
220
0
230
1
40
0.989133
41
-3.01733796514218
42
-2.4556803502512
0
ELLIPSE
5
CF
100
AcDbEntity
8
1
62
256
6
ByLayer
370
18
48
1
60
0
100
AcDbEllipse
10
18.740672
20
9.974543
30
0
11
-1.34703841816038
21
1.34703841816037
31
0
210
0
220
0
230
1
40
0.989133
41
-1.03136048151633
42
-0.124225420482419
0
ELLIPSE
5
D0
100
AcDbEntity
8
1
62
256
6
ByLayer
370
18
48
1
60
0
100
AcDbEllipse
10
22.404075
20
6.311139
30
0
11
0.561266007566825
21
-0.561266007566819
31
0
210
0
220
0
230
1
40
0.989133
41
-0.217424862848881
42
4.26461536124554E-08
0
ELLIPSE
5
D1
100
AcDbEntity
8
1
62
256
6
ByLayer
370
18
48
1
60
0
100
AcDbEllipse
10
15.077268
20
13.637946
30
0
11
0.561266007566825
21
-0.561266007566819
31
0
210
0
220
0
230
1
40
0.989133
41
-3.14159261094365
42
-2.92416770549243
0
ELLIPSE
5
D2
100
AcDbEntity
8
1
62
256
6
ByLayer
370
18
48
1
60
0
100
AcDbEllipse
10
9.62571
20
6.657004
30
0
11
0.915703281636582
21
-0.915703281636575
31
0
210
0
220
0
230
1
40
0.989133
41
0.260913787286393
42
0.790861274525783
0
ELLIPSE
5
D3
100
AcDbEntity
8
1
62
256
6
ByLayer
370
18
48
1
60
0
100
AcDbEllipse
10
9.62571
20
6.657004
30
0
11
0.915703281636582
21
-0.915703281636575
31
0
210
0
220
0
230
1
40
0.989133
41
0.790861274525781
42
2.97014474385472
0
ELLIPSE
5
D4
100
AcDbEntity
8
1
62
256
6
ByLayer
370
18
48
1
60
0
100
AcDbEllipse
10
9.719276
20
6.75057
30
0
11
-0.915703281636583
21
0.915703281636574
31
0
210
0
220
0
230
1
40
0.989133
41
-0.216200731349195
42
-0.0771655412177361
0
ELLIPSE
5
D5
100
AcDbEntity
8
1
62
256
6
ByLayer
370
18
48
1
60
0
100
AcDbEllipse
10
9.719276
20
6.75057
30
0
11
-0.915703281636583
21
0.915703281636574
31
0
210
0
220
0
230
1
40
0.989133
41
-2.96441469790267
42
-2.75085899704115
0
ELLIPSE
5
D6
100
AcDbEntity
8
1
62
256
6
ByLayer
370
18
48
1
60
0
100
AcDbEllipse
10
22.734154
20
6.641217
30
0
11
-0.561266007566825
21
0.561266007566819
31
0
210
0
220
0
230
1
40
0.989133
41
2.44346095279207
42
-2.44346095279205
0
ELLIPSE
5
D7
100
AcDbEntity
8
1
62
256
6
ByLayer
370
18
48
1
60
0
100
AcDbEllipse
10
15.407346
20
13.968025
30
0
11
-0.561266007566825
21
0.561266007566819
31
0
210
0
220
0
230
1
40
0.989133
41
-0.698131700797714
42
0.698131700797741
0
ELLIPSE
5
D8
100
AcDbEntity
8
1
62
256
6
ByLayer
370
18
48
1
60
0
100
AcDbEllipse
10
19.07075
20
10.304621
30
0
11
-1.34703841816038
21
1.34703841816037
31
0
210
0
220
0
230
1
40
0.989133
41
0
42
6.28318530717959
0
ELLIPSE
5
D9
100
AcDbEntity
8
1
62
256
6
ByLayer
370
18
48
1
60
0
100
AcDbEllipse
10
23.38918
20
14.623051
30
0
11
-0.561266007566825
21
0.561266007566819
31
0
210
0
220
0
230
1
40
0.989133
41
-2.44346095279207
42
-0.698131700797742
0
ELLIPSE
5
DA
100
AcDbEntity
8
1
62
256
6
ByLayer
370
18
48
1
60
0
100
AcDbEllipse
10
14.75232
20
5.986191
30
0
11
-0.561266007566825
21
0.561266007566819
31
0
210
0
220
0
230
1
40
0.989133
41
0.698131700797727
42
2.44346095279205
0
ELLIPSE
5
DB
100
AcDbEntity
8
1
62
256
6
ByLayer
370
18
48
1
60
0
100
AcDbEllipse
10
18.899595
20
10.517979
30
0
11
-1.13137084989848
21
1.13137084989847
31
0
210
0
220
0
230
1
40
0.989133
41
1.65131007788803
42
-2.52397470388521
0
ELLIPSE
5
DC
100
AcDbEntity
8
1
62
256
6
ByLayer
370
18
48
1
60
0
100
AcDbEllipse
10
19.106755
20
9.956112
30
0
11
-1.13137084989848
21
1.13137084989847
31
0
210
0
220
0
230
1
40
0.989133
41
-1.49028257570177
42
0.617617949704591
0
ELLIPSE
5
DD
100
AcDbEntity
8
1
62
256
6
ByLayer
370
18
48
1
60
0
100
AcDbEllipse
10
19.075567
20
9.924924
30
0
11
1.34350288425445
21
-1.34350288425443
31
0
210
0
220
0
230
1
40
0.989133
41
1.63729483622696
42
-2.50995946222415
0
ELLIPSE
5
DE
100
AcDbEntity
8
1
62
256
6
ByLayer
370
18
48
1
60
0
100
AcDbEllipse
10
18.971986
20
10.205857
30
0
11
1.25511453660613
21
-1.25511453660612
31
0
210
0
220
0
230
1
40
0.989133
41
0.780273770409087
42
1.48865425718353
0
ELLIPSE
5
DF
100
AcDbEntity
8
1
62
256
6
ByLayer
370
18
48
1
60
0
100
AcDbEllipse
10
19.003175
20
10.237046
30
0
11
-1.04298250225016
21
1.04298250225015
31
0
210
0
220
0
230
1
40
0.989133
41
-2.34621659454387
42
-1.6680406850431
0
ELLIPSE
5
E0
100
AcDbEntity
8
1
62
256
6
ByLayer
370
18
48
1
60
0
100
AcDbEllipse
10
19.003175
20
10.237046
30
0
11
-1.04298250225016
21
1.04298250225015
31
0
210
0
220
0
230
1
40
0.989133
41
0.795376059045918
42
1.47355196854668
0
ELLIPSE
5
E1
100
AcDbEntity
8
1
62
256
6
ByLayer
370
18
48
1
60
0
100
AcDbEllipse
10
10.06079
20
7.092084
30
0
11
-0.915703281636583
21
0.915703281636574
31
0
210
0
220
0
230
1
40
0.989133
41
0.390733656548624
42
0.830996819847383
0
ELLIPSE
5
E2
100
AcDbEntity
8
1
62
256
6
ByLayer
370
18
48
1
60
0
100
AcDbEllipse
10
10.083141
20
7.114435
30
0
11
1.58038365595194
21
-1.58038365595193
31
0
210
0
220
0
230
1
40
0.989133
41
0
42
6.28318530717959
0
ELLIPSE
5
E3
100
AcDbEntity
8
1
62
256
6
ByLayer
370
18
48
1
60
0
100
AcDbEllipse
10
10.06079
20
7.092084
30
0
11
-0.915703281636583
21
0.915703281636574
31
0
210
0
220
0
230
1
40
0.989133
41
-1.70366144584456
42
-1.2633982825458
0
ELLIPSE
5
E4
100
AcDbEntity
8
1
62
256
6
ByLayer
370
18
48
1
60
0
100
AcDbEllipse
10
9.719276
20
6.75057
30
0
11
-0.915703281636583
21
0.915703281636574
31
0
210
0
220
0
230
1
40
0.989133
41
-1.26339828254581
42
-0.65646389464799
0
ELLIPSE
5
E5
100
AcDbEntity
8
1
62
256
6
ByLayer
370
18
48
1
60
0
100
AcDbEllipse
10
10.06079
20
7.092084
30
0
11
-0.915703281636583
21
0.915703281636574
31
0
210
0
220
0
230
1
40
0.989133
41
-0.656463894649986
42
-0.216200731349195
0
ELLIPSE
5
E6
100
AcDbEntity
8
1
62
256
6
ByLayer
370
18
48
1
60
0
100
AcDbEllipse
10
10.06079
20
7.092084
30
0
11
-0.915703281636583
21
0.915703281636574
31
0
210
0
220
0
230
1
40
0.989133
41
-2.75085899704116
42
-2.31059583374241
0
ELLIPSE
5
E7
100
AcDbEntity
8
1
62
256
6
ByLayer
370
18
48
1
60
0
100
AcDbEllipse
10
10.06079
20
7.092084
30
0
11
-0.915703281636583
21
0.915703281636574
31
0
210
0
220
0
230
1
40
0.989133
41
1.43793120774521
42
1.87819437104399
0
ELLIPSE
5
E8
100
AcDbEntity
8
1
62
256
6
ByLayer
370
18
48
1
60
0
100
AcDbEllipse
10
10.083141
20
7.114435
30
0
11
1.17902342898578
21
-1.17902342898576
31
0
210
0
220
0
230
1
40
0.989133
41
0
42
6.28318530717959
0
ELLIPSE
5
E9
100
AcDbEntity
8
1
62
256
6
ByLayer
370
18
48
1
60
0
100
AcDbEllipse
10
10.06079
20
7.092084
30
0
11
-0.915703281636583
21
0.915703281636574
31
0
210
0
220
0
230
1
40
0.989133
41
2.48512875894182
42
2.92539192224057
0
ELLIPSE
5
EA
100
AcDbEntity
8
1
62
256
6
ByLayer
370
18
48
1
60
0
100
AcDbEllipse
10
9.719276
20
6.75057
30
0
11
-0.915703281636583
21
0.915703281636574
31
0
210
0
220
0
230
1
40
0.989133
41
-2.3105958337424
42
-1.70366144584456
0
ELLIPSE
5
EB
100
AcDbEntity
8
1
62
256
6
ByLayer
370
18
48
1
60
0
100
AcDbEllipse
10
10.003611
20
7.034905
30
0
11
2.12132034355965
21
-2.12132034355963
31
0
210
0
220
0
230
1
40
0.989133
41
0
42
6.28318530717959
0
POINT
5
6C
100
AcDbEntity
8
80
62
256
6
ByLayer
370
18
48
1
60
0
100
AcDbPoint
10
0
20
0
30
0
39
0
210
0
220
0
230
1
50
360
0
POINT
5
6E
100
AcDbEntity
8
81
62
256
6
ByLayer
370
18
48
1
60
0
100
AcDbPoint
10
22.828629
20
15.0625
30
0
39
0
210
0
220
0
230
1
50
360
0
POINT
5
70
100
AcDbEntity
8
1
62
256
6
ByLayer
370
18
48
1
60
0
100
AcDbPoint
10
-102.171371
20
-9.9375
30
0
39
0
210
0
220
0
230
1
50
360
0
POINT
5
72
100
AcDbEntity
8
2
62
256
6
ByLayer
370
18
48
1
60
0
100
AcDbPoint
10
8.903011
20
5.934305
30
0
39
0
210
0
220
0
230
1
50
360
0
SPLINE
5
EC
100
AcDbEntity
8
1
62
256
6
ByLayer
370
18
48
1
60
0
100
AcDbSpline
70
4
71
2
72
6
73
3
40
0
40
0
40
0
40
1
40
1
40
1
41
1
10
19.7684443404029
20
8.70276375889293
30
0
41
1
10
19.6964712326467
20
8.62745506684195
30
0
41
1
10
19.6136715251152
20
8.56089037904164
30
0
0
SPLINE
5
ED
100
AcDbEntity
8
1
62
256
6
ByLayer
370
18
48
1
60
0
100
AcDbSpline
70
4
71
3
72
8
73
4
40
0
40
0
40
0
40
0
40
1
40
1
40
1
40
1
41
1
10
17.8751362597552
20
9.31153585470861
30
0
41
1
10
17.803642903242
20
9.24108813664171
30
0
41
1
10
17.7321859286714
20
9.1706385467991
30
0
41
1
10
17.6607518116846
20
9.10018779793705
30
0
0
SPLINE
5
EE
100
AcDbEntity
8
1
62
256
6
ByLayer
370
18
48
1
60
0
100
AcDbSpline
70
4
71
3
72
14
73
10
40
0
40
0
40
0
40
0
40
0.296147280607261
40
0.296147280607261
40
0.592294561214522
40
0.592294561214522
40
0.888441841821783
40
0.888441841821783
40
1
40
1
40
1
40
1
41
1
10
17.3971050451584
20
10.9334666478814
30
0
41
1
10
17.4033706143376
20
10.9397322170606
30
0
41
1
10
17.4007896301843
20
10.9372591098057
30
0
41
1
10
17.3822852329753
20
10.9175810285103
30
0
41
1
10
17.3669911350107
20
10.9009218286107
30
0
41
1
10
17.3305534328931
20
10.8579370740072
30
0
41
1
10
17.3093362752614
20
10.8314847378856
30
0
41
1
10
17.2794353709086
20
10.7909056803302
30
0
41
1
10
17.2711490151419
20
10.7793376630476
30
0
41
1
10
17.2628092502622
20
10.7673301351139
30
0
0
SPLINE
5
EF
100
AcDbEntity
8
1
62
256
6
ByLayer
370
18
48
1
60
0
100
AcDbSpline
70
4
71
3
72
20
73
16
40
0
40
0
40
0
40
0
40
0.0694209110340822
40
0.0694209110340822
40
0.138841822068164
40
0.138841822068164
40
0.277683644136329
40
0.277683644136329
40
0.416525466204493
40
0.416525466204493
40
0.555367288272658
40
0.555367288272658
40
0.833050932408986
40
0.833050932408986
40
1
40
1
40
1
40
1
41
1
10
17.2422115750433
20
10.7785731777662
30
0
41
1
10
17.2397558362705
20
10.7761174389934
30
0
41
1
10
17.2393419671156
20
10.7768976712237
30
0
41
1
10
17.2420459543187
20
10.7838373569063
30
0
41
1
10
17.2452235213764
20
10.7900703249582
30
0
41
1
10
17.2586437106327
20
10.8137464537264
30
0
41
1
10
17.2729493742116
20
10.8364404584083
30
0
41
1
10
17.3071497558092
20
10.88547672459
30
0
41
1
10
17.3273364889563
20
10.912326830016
30
0
41
1
10
17.3722861116854
20
10.9672582775903
30
0
41
1
10
17.3967737501151
20
10.995037190392
30
0
41
1
10
17.4754959658887
20
11.0776033503398
30
0
41
1
10
17.5351662031697
20
11.1317458340041
30
0
41
1
10
17.6402340414688
20
11.2127461375889
30
0
41
1
10
17.6815377418793
20
11.2416863253157
30
0
41
1
10
17.7246337837053
20
11.2689707830169
30
0
0
SPLINE
5
F0
100
AcDbEntity
8
1
62
256
6
ByLayer
370
18
48
1
60
0
100
AcDbSpline
70
4
71
3
72
12
73
8
40
0
40
0
40
0
40
0
40
0.374806214693729
40
0.374806214693729
40
0.980107162065489
40
0.980107162065489
40
1
40
1
40
1
40
1
41
1
10
19.8201384556321
20
8.56038704654432
30
0
41
1
10
19.8575351022236
20
8.60747024977314
30
0
41
1
10
19.8927414369604
20
8.65656145390753
30
0
41
1
10
19.977740560542
20
8.78837002073311
30
0
41
1
10
20.0233016468711
20
8.87303870156907
30
0
41
1
10
20.0635978605919
20
8.9635571457741
30
0
41
1
10
20.0648731229846
20
8.96644136241301
30
0
41
1
10
20.0661414574512
20
8.96932950515256
30
0
0
SPLINE
5
F1
100
AcDbEntity
8
1
62
256
6
ByLayer
370
18
48
1
60
0
100
AcDbSpline
70
4
71
3
72
10
73
6
40
0
40
0
40
0
40
0
40
0.757036916473978
40
0.757036916473978
40
1
40
1
40
1
40
1
41
1
10
17.7036960040016
20
11.3087354379391
30
0
41
1
10
17.627397563423
20
11.2780605038101
30
0
41
1
10
17.5546731683119
20
11.2481446815774
30
0
41
1
10
17.4603442760006
20
11.2091173038335
30
0
41
1
10
17.4375643946023
20
11.1996712828233
30
0
41
1
10
17.4148839399282
20
11.1902512320037
30
0
0
SPLINE
5
F2
100
AcDbEntity
8
1
62
256
6
ByLayer
370
18
48
1
60
0
100
AcDbSpline
70
4
71
3
72
8
73
4
40
0
40
0
40
0
40
0
40
1
40
1
40
1
40
1
41
1
10
17.2066047437526
20
10.2245480166549
30
0
41
1
10
17.3164914140787
20
10.2264867271118
30
0
41
1
10
17.4263989077792
20
10.2284411151705
30
0
41
1
10
17.5363424101165
20
10.2304226548543
30
0
0
SPLINE
5
F3
100
AcDbEntity
8
1
62
256
6
ByLayer
370
18
48
1
60
0
100
AcDbSpline
70
4
71
3
72
8
73
4
40
0
40
0
40
0
40
0
40
1
40
1
40
1
40
1
41
1
10
20.3122574287417
20
11.3401646373035
30
0
41
1
10
20.2519488657571
20
11.2809655933829
30
0
41
1
10
20.1916086518368
20
11.2217633771739
30
0
41
1
10
20.131213651303
20
11.1625556970013
30
0
0
SPLINE
5
F4
100
AcDbEntity
8
1
62
256
6
ByLayer
370
18
48
1
60
0
100
AcDbSpline
70
4
71
3
72
8
73
4
40
0
40
0
40
0
40
0
40
1
40
1
40
1
40
1
41
1
10
20.4700075009417
20
10.2436688968556
30
0
41
1
10
20.5591654407099
20
10.2248648739703
30
0
41
1
10
20.648279494493
20
10.2060258221115
30
0
41
1
10
20.7373681827471
20
10.1871665504965
30
0
0
SPLINE
5
F5
100
AcDbEntity
8
1
62
256
6
ByLayer
370
18
48
1
60
0
100
AcDbSpline
70
4
71
3
72
8
73
4
40
0
40
0
40
0
40
0
40
1
40
1
40
1
40
1
41
1
10
8.77448562426019
20
7.0404036039688
30
0
41
1
10
8.75094754973344
20
6.89308292796625
30
0
41
1
10
8.72959424333965
20
6.75135586196677
30
0
41
1
10
8.70956200561835
20
6.61301109673889
30
0
0
SPLINE
5
F6
100
AcDbEntity
8
1
62
256
6
ByLayer
370
18
48
1
60
0
100
AcDbSpline
70
4
71
3
72
10
73
6
40
0
40
0
40
0
40
0
40
0.5
40
0.5
40
1
40
1
40
1
40
1
41
1
10
11.1875237368721
20
6.16297546320115
30
0
41
1
10
11.1975981450126
20
6.23255039778351
30
0
41
1
10
11.2080720185086
20
6.30340344489997
30
0
41
1
10
11.2297009847413
20
6.44603314358505
30
0
41
1
10
11.2408661258545
20
6.51788308725014
30
0
41
1
10
11.252447355514
20
6.59036797043109
30
0
0
SPLINE
5
F7
100
AcDbEntity
8
1
62
256
6
ByLayer
370
18
48
1
60
0
100
AcDbSpline
70
4
71
3
72
10
73
6
40
0
40
0
40
0
40
0
40
0.5
40
0.5
40
1
40
1
40
1
40
1
41
1
10
8.70956200561835
20
6.61301109673889
30
0
41
1
10
8.76350271173101
20
6.56361054749553
30
0
41
1
10
8.81849065896276
20
6.51373119400887
30
0
41
1
10
8.92932646926926
20
6.41441142522439
30
0
41
1
10
8.98523100665864
20
6.36491784176084
30
0
41
1
10
9.0417129787607
20
6.3156215899204
30
0
0
SPLINE
5
F8
100
AcDbEntity
8
1
62
256
6
ByLayer
370
18
48
1
60
0
100
AcDbSpline
70
4
71
3
72
10
73
6
40
0
40
0
40
0
40
0
40
0.5
40
0.5
40
1
40
1
40
1
40
1
41
1
10
8.95377331393894
20
8.04090929099033
30
0
41
1
10
8.93929612557042
20
7.96693157617983
30
0
41
1
10
8.9248558479334
20
7.89211212492239
30
0
41
1
10
8.89655649692074
20
7.74281204145731
30
0
41
1
10
8.88268137577791
20
7.66825211776265
30
0
41
1
10
8.86913203909461
20
7.59379912755787
30
0
0
SPLINE
5
F9
100
AcDbEntity
8
1
62
256
6
ByLayer
370
18
48
1
60
0
100
AcDbSpline
70
4
71
3
72
8
73
4
40
0
40
0
40
0
40
0
40
1
40
1
40
1
40
1
41
1
10
11.1875237368721
20
6.16297546320115
30
0
41
1
10
11.0469171840661
20
6.10965800997238
30
0
41
1
10
10.9030818333553
20
6.05574324903159
30
0
41
1
10
10.7608726607842
20
6.00339597848591
30
0
0
SPLINE
5
FA
100
AcDbEntity
8
1
62
256
6
ByLayer
370
18
48
1
60
0
100
AcDbSpline
70
4
71
3
72
10
73
6
40
0
40
0
40
0
40
0
40
0.5
40
0.5
40
1
40
1
40
1
40
1
41
1
10
10.2333706369704
20
5.81390601135701
30
0
41
1
10
10.1637814938136
20
5.78954361751505
30
0
41
1
10
10.0944007044185
20
5.76550459328982
30
0
41
1
10
9.95877962201945
20
5.71892665709626
30
0
41
1
10
9.89215769207254
20
5.69625234084126
30
0
41
1
10
9.82643721708496
20
5.67404418284428
30
0
0
SPLINE
5
FB
100
AcDbEntity
8
1
62
256
6
ByLayer
370
18
48
1
60
0
100
AcDbSpline
70
4
71
3
72
10
73
6
40
0
40
0
40
0
40
0
40
0.5
40
0.5
40
1
40
1
40
1
40
1
41
1
10
11.4317350451927
20
7.59087365745259
30
0
41
1
10
11.373391558852
20
7.63587142646782
30
0
41
1
10
11.3144372074792
20
7.68178437581346
30
0
41
1
10
11.1969310123928
20
7.77443375981801
30
0
41
1
10
11.1383164949738
20
7.82121736325195
30
0
41
1
10
11.0798664158478
20
7.86854550806854
30
0
0
SPLINE
5
FC
100
AcDbEntity
8
1
62
256
6
ByLayer
370
18
48
1
60
0
100
AcDbSpline
70
4
71
3
72
10
73
6
40
0
40
0
40
0
40
0
40
0.5
40
0.5
40
1
40
1
40
1
40
1
41
1
10
9.36070673382443
20
8.18077111950302
30
0
41
1
10
9.29111759066762
20
8.15640872566107
30
0
41
1
10
9.22173680127247
20
8.13236970143583
30
0
41
1
10
9.08611571887343
20
8.08579176524228
30
0
41
1
10
9.01949378892658
20
8.0631174489873
30
0
41
1
10
8.95377331393894
20
8.04090929099033
30
0
0
SPLINE
5
FD
100
AcDbEntity
8
1
62
256
6
ByLayer
370
18
48
1
60
0
100
AcDbSpline
70
4
71
3
72
8
73
4
40
0
40
0
40
0
40
0
40
1
40
1
40
1
40
1
41
1
10
9.47456858774007
20
5.95171603346026
30
0
41
1
10
9.59336446339518
20
5.85552474525849
30
0
41
1
10
9.71042538079877
20
5.76351901781985
30
0
41
1
10
9.82643721708496
20
5.67404418284428
30
0
0
SPLINE
5
FE
100
AcDbEntity
8
1
62
256
6
ByLayer
370
18
48
1
60
0
100
AcDbSpline
70
4
71
3
72
8
73
4
40
0
40
0
40
0
40
0
40
1
40
1
40
1
40
1
41
1
10
11.3470937703484
20
7.14376349402013
30
0
41
1
10
11.3746318907395
20
7.2950842158871
30
0
41
1
10
11.4029481948992
20
7.44377427965244
30
0
41
1
10
11.4317350451927
20
7.59087365745259
30
0
0
SPLINE
5
FF
100
AcDbEntity
8
1
62
256
6
ByLayer
370
18
48
1
60
0
100
AcDbSpline
70
4
71
3
72
8
73
4
40
0
40
0
40
0
40
0
40
1
40
1
40
1
40
1
41
1
10
10.6470108068685
20
8.23245106452868
30
0
41
1
10
10.5322149770778
20
8.33264239859483
30
0
41
1
10
10.4221170574401
20
8.43161112379937
30
0
41
1
10
10.3148598337262
20
8.52984057134717
30
0
0
SPLINE
5
100
100
AcDbEntity
8
1
62
256
6
ByLayer
370
18
48
1
60
0
100
AcDbSpline
70
4
71
3
72
8
73
4
40
0
40
0
40
0
40
0
40
1
40
1
40
1
40
1
41
1
10
10.3148598337262
20
8.52984057134717
30
0
41
1
10
10.1742532809209
20
8.47652311811871
30
0
41
1
10
10.0304179302109
20
8.42260835717823
30
0
41
1
10
9.8882087576406
20
8.37026108663284
30
0
0
LINE
5
74
100
AcDbEntity
8
1
62
256
6
ByLayer
370
18
48
1
60
0
100
AcDbLine
10
17.732064
20
11.268427
30
0
11
17.40805
21
10.944413
31
0
39
0
210
0
220
0
230
1
0
LINE
5
75
100
AcDbEntity
8
1
62
256
6
ByLayer
370
18
48
1
60
0
100
AcDbLine
10
19.723289
20
8.654668
30
0
11
20.211909
21
9.143288
31
0
39
0
210
0
220
0
230
1
0
LINE
5
76
100
AcDbEntity
8
1
62
256
6
ByLayer
370
18
48
1
60
0
100
AcDbLine
10
17.449661
20
11.049815
30
0
11
17.412305
21
11.012458
31
0
39
0
210
0
220
0
230
1
0
LINE
5
77
100
AcDbEntity
8
1
62
256
6
ByLayer
370
18
48
1
60
0
100
AcDbLine
10
22.965342
20
5.749873
30
0
11
23.29542
21
6.079951
31
0
39
0
210
0
220
0
230
1
0
LINE
5
78
100
AcDbEntity
8
1
62
256
6
ByLayer
370
18
48
1
60
0
100
AcDbLine
10
7.88229
20
9.156225
30
0
11
7.865577
21
9.139512
31
0
39
0
210
0
220
0
230
1
0
LINE
5
79
100
AcDbEntity
8
1
62
256
6
ByLayer
370
18
48
1
60
0
100
AcDbLine
10
12.108218
20
4.896871
30
0
11
12.124931
21
4.913584
31
0
39
0
210
0
220
0
230
1
0
LINE
5
7A
100
AcDbEntity
8
1
62
256
6
ByLayer
370
18
48
1
60
0
100
AcDbLine
10
14.84608
20
14.529291
30
0
11
14.516002
21
14.199212
31
0
39
0
210
0
220
0
230
1
0
LINE
5
7B
100
AcDbEntity
8
1
62
256
6
ByLayer
370
18
48
1
60
0
100
AcDbLine
10
17.40805
20
10.944413
30
0
11
17.398338
21
10.9347
31
0
39
0
210
0
220
0
230
1
0
LINE
5
7C
100
AcDbEntity
8
1
62
256
6
ByLayer
370
18
48
1
60
0
100
AcDbLine
10
14.59293
20
14.081285
30
0
11
14.591742
21
14.066814
31
0
39
0
210
0
220
0
230
1
0
LINE
5
7D
100
AcDbEntity
8
1
62
256
6
ByLayer
370
18
48
1
60
0
100
AcDbLine
10
13.926489
20
5.960368
30
0
11
13.844626
21
4.962819
31
0
39
0
210
0
220
0
230
1
0
LINE
5
7E
100
AcDbEntity
8
1
62
256
6
ByLayer
370
18
48
1
60
0
100
AcDbLine
10
18.537651
20
5.468959
30
0
11
18.915873
21
5.501663
31
0
39
0
210
0
220
0
230
1
0
LINE
5
7F
100
AcDbEntity
8
1
62
256
6
ByLayer
370
18
48
1
60
0
100
AcDbLine
10
22.581156
20
2.5823
30
0
11
22.847523
21
5.828121
31
0
39
0
210
0
220
0
230
1
0
LINE
5
80
100
AcDbEntity
8
1
62
256
6
ByLayer
370
18
48
1
60
0
100
AcDbLine
10
13.929967
20
4.39815
30
0
11
13.97994
21
5.0071
31
0
39
0
210
0
220
0
230
1
0
LINE
5
81
100
AcDbEntity
8
1
62
256
6
ByLayer
370
18
48
1
60
0
100
AcDbLine
10
17.978708
20
5.04993
30
0
11
18.132146
21
5.063197
31
0
39
0
210
0
220
0
230
1
0
LINE
5
82
100
AcDbEntity
8
1
62
256
6
ByLayer
370
18
48
1
60
0
100
AcDbLine
10
17.978708
20
5.04993
30
0
11
17.987403
21
5.155884
31
0
39
0
210
0
220
0
230
1
0
LINE
5
83
100
AcDbEntity
8
1
62
256
6
ByLayer
370
18
48
1
60
0
100
AcDbLine
10
17.907391
20
5.149294
30
0
11
17.807344
21
3.930171
31
0
39
0
210
0
220
0
230
1
0
LINE
5
84
100
AcDbEntity
8
1
62
256
6
ByLayer
370
18
48
1
60
0
100
AcDbLine
10
14.012037
20
4.986131
30
0
11
13.95335
21
4.270995
31
0
39
0
210
0
220
0
230
1
0
LINE
5
85
100
AcDbEntity
8
1
62
256
6
ByLayer
370
18
48
1
60
0
100
AcDbLine
10
17.64289
20
3.928209
30
0
11
17.741983
21
5.135713
31
0
39
0
210
0
220
0
230
1
0
LINE
5
86
100
AcDbEntity
8
1
62
256
6
ByLayer
370
18
48
1
60
0
100
AcDbLine
10
0
20
-9.9375
30
0
11
0
21
9.9375
31
0
39
0
210
0
220
0
230
1
0
LINE
5
87
100
AcDbEntity
8
1
62
256
6
ByLayer
370
18
48
1
60
0
100
AcDbLine
10
1.545481
20
11.12339
30
0
11
1.880019
21
12.371902
31
0
39
0
210
0
220
0
230
1
0
LINE
5
88
100
AcDbEntity
8
1
62
256
6
ByLayer
370
18
48
1
60
0
100
AcDbLine
10
20.35689
20
0.358034
30
0
11
22.581156
21
2.5823
31
0
39
0
210
0
220
0
230
1
0
LINE
5
89
100
AcDbEntity
8
1
62
256
6
ByLayer
370
18
48
1
60
0
100
AcDbLine
10
5.200917
20
-9.956839
30
0
11
6.30789
21
-9.850778
31
0
39
0
210
0
220
0
230
1
0
LINE
5
8A
100
AcDbEntity
8
1
62
256
6
ByLayer
370
18
48
1
60
0
100
AcDbLine
10
17.894988
20
4.029769
30
0
11
18.460919
21
4.533931
31
0
39
0
210
0
220
0
230
1
0
LINE
5
8B
100
AcDbEntity
8
1
62
256
6
ByLayer
370
18
48
1
60
0
100
AcDbLine
10
1.545481
20
11.12339
30
0
11
1.545481
21
-9.942674
31
0
39
0
210
0
220
0
230
1
0
LINE
5
8C
100
AcDbEntity
8
1
62
256
6
ByLayer
370
18
48
1
60
0
100
AcDbLine
10
17.894988
20
4.029769
30
0
11
17.978708
21
5.04993
31
0
39
0
210
0
220
0
230
1
0
LINE
5
8D
100
AcDbEntity
8
1
62
256
6
ByLayer
370
18
48
1
60
0
100
AcDbLine
10
17.894988
20
4.029769
30
0
11
17.807344
21
3.930171
31
0
39
0
210
0
220
0
230
1
0
LINE
5
8E
100
AcDbEntity
8
1
62
256
6
ByLayer
370
18
48
1
60
0
100
AcDbLine
10
6.30789
20
-9.850778
30
0
11
20.35689
21
0.358034
31
0
39
0
210
0
220
0
230
1
0
LINE
5
8F
100
AcDbEntity
8
1
62
256
6
ByLayer
370
18
48
1
60
0
100
AcDbLine
10
2.491662
20
-9.958082
30
0
11
1.880019
21
12.371902
31
0
39
0
210
0
220
0
230
1
0
LINE
5
90
100
AcDbEntity
8
1
62
256
6
ByLayer
370
18
48
1
60
0
100
AcDbLine
10
14.59293
20
14.081285
30
0
11
2.062514
21
13.052981
31
0
39
0
210
0
220
0
230
1
0
LINE
5
91
100
AcDbEntity
8
1
62
256
6
ByLayer
370
18
48
1
60
0
100
AcDbLine
10
17.983872
20
4.914914
30
0
11
18.537651
21
5.468959
31
0
39
0
210
0
220
0
230
1
0
LINE
5
92
100
AcDbEntity
8
1
62
256
6
ByLayer
370
18
48
1
60
0
100
AcDbLine
10
1.545481
20
-9.942674
30
0
11
2.491662
21
-9.958082
31
0
39
0
210
0
220
0
230
1
0
LINE
5
93
100
AcDbEntity
8
1
62
256
6
ByLayer
370
18
48
1
60
0
100
AcDbLine
10
5.200917
20
-9.956839
30
0
11
2.491662
21
-9.958082
31
0
39
0
210
0
220
0
230
1
0
LINE
5
94
100
AcDbEntity
8
1
62
256
6
ByLayer
370
18
48
1
60
0
100
AcDbLine
10
22.581156
20
2.5823
30
0
11
5.200917
21
-9.956839
31
0
39
0
210
0
220
0
230
1
0
LINE
5
95
100
AcDbEntity
8
1
62
256
6
ByLayer
370
18
48
1
60
0
100
AcDbLine
10
14.134913
20
10.325774
30
0
11
14.010862
21
8.814157
31
0
39
0
210
0
220
0
230
1
0
LINE
5
96
100
AcDbEntity
8
1
62
256
6
ByLayer
370
18
48
1
60
0
100
AcDbLine
10
18.537651
20
5.468959
30
0
11
18.460919
21
4.533931
31
0
39
0
210
0
220
0
230
1
0
LINE
5
97
100
AcDbEntity
8
1
62
256
6
ByLayer
370
18
48
1
60
0
100
AcDbLine
10
2.062514
20
13.052981
30
0
11
1.880019
21
12.371902
31
0
39
0
210
0
220
0
230
1
0
LINE
5
98
100
AcDbEntity
8
SK1
62
256
6
ByLayer
370
18
48
1
60
0
100
AcDbLine
10
-102.171371
20
9.9375
30
0
11
-102.171371
21
-9.9375
31
0
39
0
210
0
220
0
230
1
0
LINE
5
9A
100
AcDbEntity
8
SK1
62
256
6
ByLayer
370
18
48
1
60
0
100
AcDbLine
10
0
20
-9.9375
30
0
11
0
21
9.9375
31
0
39
0
210
0
220
0
230
1
0
LINE
5
9B
100
AcDbEntity
8
SK1
62
256
6
ByLayer
370
18
48
1
60
0
100
AcDbLine
10
-102.171371
20
9.9375
30
0
11
0
21
9.9375
31
0
39
0
210
0
220
0
230
1
0
LINE
5
9C
100
AcDbEntity
8
SK1
62
256
6
ByLayer
370
18
48
1
60
0
100
AcDbLine
10
-102.171371
20
-9.9375
30
0
11
0
21
-9.9375
31
0
39
0
210
0
220
0
230
1
0
LINE
5
9D
100
AcDbEntity
8
1
62
256
6
ByLayer
370
18
48
1
60
0
100
AcDbLine
10
17.206605
20
10.224548
30
0
11
17.180332
21
10.198276
31
0
39
0
210
0
220
0
230
1
0
LINE
5
9E
100
AcDbEntity
8
1
62
256
6
ByLayer
370
18
48
1
60
0
100
AcDbLine
10
17.436106
20
11.280415
30
0
11
17.63817
21
11.353001
31
0
39
0
210
0
220
0
230
1
0
LINE
5
9F
100
AcDbEntity
8
1
62
256
6
ByLayer
370
18
48
1
60
0
100
AcDbLine
10
13.92912
20
6.0229
30
0
11
13.965511
21
6.059291
31
0
39
0
210
0
220
0
230
1
0
LINE
5
A0
100
AcDbEntity
8
1
62
256
6
ByLayer
370
18
48
1
60
0
100
AcDbLine
10
22.770863
20
5.818017
30
0
11
22.807254
21
5.854408
31
0
39
0
210
0
220
0
230
1
0
LINE
5
A1
100
AcDbEntity
8
1
62
256
6
ByLayer
370
18
48
1
60
0
100
AcDbLine
10
18.245931
20
5.177094
30
0
11
14.495342
21
4.869303
31
0
39
0
210
0
220
0
230
1
0
LINE
5
A2
100
AcDbEntity
8
1
62
256
6
ByLayer
370
18
48
1
60
0
100
AcDbLine
10
14.620537
20
14.041125
30
0
11
14.584146
21
14.004734
31
0
39
0
210
0
220
0
230
1
0
LINE
5
A3
100
AcDbEntity
8
1
62
256
6
ByLayer
370
18
48
1
60
0
100
AcDbLine
10
8.90761
20
7.799174
30
0
11
9.019193
21
7.839257
31
0
39
0
210
0
220
0
230
1
0
LINE
5
A4
100
AcDbEntity
8
1
62
256
6
ByLayer
370
18
48
1
60
0
100
AcDbLine
10
10.910933
20
6.248854
30
0
11
10.876273
21
6.046195
31
0
39
0
210
0
220
0
230
1
0
LINE
5
A5
100
AcDbEntity
8
80
62
256
6
ByLayer
370
18
48
1
60
0
100
AcDbLine
10
0
20
0
30
0
11
-5
21
0
31
0
39
0
210
0
220
0
230
1
0
LINE
5
A6
100
AcDbEntity
8
81
62
256
6
ByLayer
370
18
48
1
60
0
100
AcDbLine
10
22.828629
20
15.0625
30
0
11
32.828629
21
15.0625
31
0
39
0
210
0
220
0
230
1
0
LINE
5
A7
100
AcDbEntity
8
1
62
256
6
ByLayer
370
18
48
1
60
0
100
AcDbLine
10
15.334246
20
14.754834
30
0
11
23.31608
21
15.40986
31
0
39
0
210
0
220
0
230
1
0
LINE
5
A8
100
AcDbEntity
8
1
62
256
6
ByLayer
370
18
48
1
60
0
100
AcDbLine
10
13.965511
20
6.059291
30
0
11
14.620537
21
14.041125
31
0
39
0
210
0
220
0
230
1
0
LINE
5
A9
100
AcDbEntity
8
1
62
256
6
ByLayer
370
18
48
1
60
0
100
AcDbLine
10
14.82542
20
5.199382
30
0
11
14.495342
21
4.869303
31
0
39
0
210
0
220
0
230
1
0
LINE
5
AA
100
AcDbEntity
8
1
62
256
6
ByLayer
370
18
48
1
60
0
100
AcDbLine
10
22.807254
20
5.854408
30
0
11
14.82542
21
5.199382
31
0
39
0
210
0
220
0
230
1
0
LINE
5
AB
100
AcDbEntity
8
1
62
256
6
ByLayer
370
18
48
1
60
0
100
AcDbLine
10
24.175989
20
14.549951
30
0
11
23.520963
21
6.568117
31
0
39
0
210
0
220
0
230
1
0
LINE
5
AC
100
AcDbEntity
8
1
62
256
6
ByLayer
370
18
48
1
60
0
100
AcDbLine
10
17.242212
20
10.778573
30
0
11
17.397105
21
10.933467
31
0
39
0
210
0
220
0
230
1
0
LINE
5
AD
100
AcDbEntity
8
1
62
256
6
ByLayer
370
18
48
1
60
0
100
AcDbLine
10
11.347094
20
7.143763
30
0
11
11.00558
21
6.80225
31
0
39
0
210
0
220
0
230
1
0
LINE
5
AE
100
AcDbEntity
8
1
62
256
6
ByLayer
370
18
48
1
60
0
100
AcDbLine
10
11.080362
20
7.239501
30
0
11
11.00558
21
6.80225
31
0
39
0
210
0
220
0
230
1
0
LINE
5
AF
100
AcDbEntity
8
1
62
256
6
ByLayer
370
18
48
1
60
0
100
AcDbLine
10
10.31486
20
8.529841
30
0
11
9.963487
21
8.178468
31
0
39
0
210
0
220
0
230
1
0
LINE
5
B0
100
AcDbEntity
8
1
62
256
6
ByLayer
370
18
48
1
60
0
100
AcDbLine
10
10.910933
20
6.248854
30
0
11
11.252447
21
6.590368
31
0
39
0
210
0
220
0
230
1
0
LINE
5
B1
100
AcDbEntity
8
1
62
256
6
ByLayer
370
18
48
1
60
0
100
AcDbLine
10
9.546695
20
8.028747
30
0
11
9.888209
21
8.370261
31
0
39
0
210
0
220
0
230
1
0
LINE
5
B2
100
AcDbEntity
8
1
62
256
6
ByLayer
370
18
48
1
60
0
100
AcDbLine
10
10.738352
20
7.527032
30
0
11
11.080362
21
7.239501
31
0
39
0
210
0
220
0
230
1
0
LINE
5
B3
100
AcDbEntity
8
1
62
256
6
ByLayer
370
18
48
1
60
0
100
AcDbLine
10
9.360707
20
8.180771
30
0
11
9.019193
21
7.839257
31
0
39
0
210
0
220
0
230
1
0
LINE
5
B4
100
AcDbEntity
8
1
62
256
6
ByLayer
370
18
48
1
60
0
100
AcDbLine
10
9.546695
20
8.028747
30
0
11
9.963487
21
8.178468
31
0
39
0
210
0
220
0
230
1
0
LINE
5
B5
100
AcDbEntity
8
1
62
256
6
ByLayer
370
18
48
1
60
0
100
AcDbLine
10
10.738352
20
7.527032
30
0
11
11.079866
21
7.868546
31
0
39
0
210
0
220
0
230
1
0
LINE
5
B6
100
AcDbEntity
8
1
62
256
6
ByLayer
370
18
48
1
60
0
100
AcDbLine
10
9.963487
20
8.178468
30
0
11
10.305497
21
7.890937
31
0
39
0
210
0
220
0
230
1
0
LINE
5
B7
100
AcDbEntity
8
1
62
256
6
ByLayer
370
18
48
1
60
0
100
AcDbLine
10
11.431735
20
7.590874
30
0
11
11.080362
21
7.239501
31
0
39
0
210
0
220
0
230
1
0
LINE
5
B8
100
AcDbEntity
8
1
62
256
6
ByLayer
370
18
48
1
60
0
100
AcDbLine
10
10.647011
20
8.232451
30
0
11
10.305497
21
7.890937
31
0
39
0
210
0
220
0
230
1
0
MTEXT
5
101
100
AcDbEntity
8
SK6
62
256
6
ByLayer
370
13
48
1
60
0
100
AcDbMText
10
-78.291171
20
-34.999425
30
0
210
0
220
0
230
1
1
\W0.7683;PCLNR 2020K 09
40
3.5
41
0
44
1.084337
50
0
71
7
72
5
7
iso_b_vert
0
DIMENSION
5
113
100
AcDbEntity
8
SK2
62
256
6
ByLayer
370
13
48
1
60
0
100
AcDbDimension
2
DimnDraft3D1
10
-111.921371
20
-9.9375
30
0
11
-111.921371
21
0.0625
31
0
70
32
71
5
72
1
41
1
210
0
220
0
230
1
3
Standard
100
AcDbAlignedDimension
13
-103.758871
23
10.0625
33
0
14
-103.758871
24
-9.9375
34
0
50
90
100
AcDbRotatedDimension
1001
ACAD
1000
DSTYLE
1002
{
1070
    74
1070
     0
1070
   279
1070
     0
1070
   172
1070
     1
1070
   173
1070
     1
1070
   340
1005
102
1070
   271
1070
     1
1070
   272
1070
     2
1070
    77
1070
     1
1070
    73
1070
     0
1070
   171
1070
     3
1070
   274
1070
     4
1070
   177
1070
   150
1070
   176
1070
     9
1070
   178
1070
    43
1070
    78
1070
     8
1070
    48
1040
-0.005
1070
    41
1041
3.175
1070
   147
1041
2.25
1070
    42
1041
1.5875
1070
    44
1041
3.175
1070
   140
1041
4.5
1070
   343
1005
114
1070
   344
1005
114
1002
}
0
DIMENSION
5
128
100
AcDbEntity
8
2
62
256
6
ByLayer
370
13
48
1
60
0
100
AcDbDimension
2
DimnDraft3D2
10
40.678629
20
15.4125
30
0
11
40.678629
21
2.7375
31
0
70
32
71
5
72
1
41
1
210
0
220
0
230
1
3
Standard
100
AcDbAlignedDimension
13
1.5875
23
-9.9375
33
0
14
25.766129
24
15.4125
34
0
50
90
100
AcDbRotatedDimension
1001
ACAD
1000
DSTYLE
1002
{
1070
    74
1070
     0
1070
   279
1070
     0
1070
   172
1070
     1
1070
   173
1070
     1
1070
   340
1005
102
1070
   271
1070
     1
1070
   272
1070
     2
1070
    77
1070
     1
1070
    73
1070
     0
1070
   171
1070
     3
1070
   274
1070
     4
1070
   177
1070
   150
1070
   176
1070
     9
1070
   178
1070
    43
1070
    78
1070
     8
1070
    48
1040
-0.005
1070
    41
1041
3.175
1070
   147
1041
2.25
1070
    42
1041
1.5875
1070
    44
1041
3.175
1070
   140
1041
4.5
1070
   343
1005
114
1070
   344
1005
114
1002
}
0
DIMENSION
5
136
100
AcDbEntity
8
SK2
62
256
6
ByLayer
370
13
48
1
60
0
100
AcDbDimension
2
DimnDraft3D3
10
24.178629
20
32.9125
30
0
11
-38.996371
21
32.9125
31
0
70
32
71
5
72
1
41
1
210
0
220
0
230
1
3
Standard
100
AcDbAlignedDimension
13
-102.171371
23
11.65
33
0
14
24.178629
24
17
34
0
50
0
100
AcDbRotatedDimension
1001
ACAD
1000
DSTYLE
1002
{
1070
   279
1070
     0
1070
   172
1070
     1
1070
   173
1070
     1
1070
   340
1005
102
1070
   271
1070
     1
1070
   272
1070
     2
1070
    77
1070
     1
1070
    73
1070
     0
1070
   171
1070
     3
1070
   274
1070
     4
1070
   177
1070
   150
1070
   176
1070
     9
1070
   178
1070
    43
1070
    78
1070
     8
1070
    48
1040
-0.005
1070
    41
1041
3.175
1070
   147
1041
2.25
1070
    42
1041
1.5875
1070
    44
1041
3.175
1070
   140
1041
4.5
1070
   343
1005
114
1070
   344
1005
114
1002
}
0
DIMENSION
5
144
100
AcDbEntity
8
2
62
256
6
ByLayer
370
13
48
1
60
0
100
AcDbDimension
2
DimnDraft3D4
10
14.315699
20
14.622082
30
0
11
11.704345
21
26.915552
31
0
70
34
71
5
72
1
41
1
210
0
220
0
230
1
3
Standard
100
AcDb2LineAngularDimension
13
24.178629
23
15.4125
33
0
14
24.178629
24
13.825
34
0
15
23.315699
25
15.40948
35
0
16
15.022093
26
23.875396
36
0
40
0
0
ENDSEC
0
SECTION
2
OBJECTS
0
DICTIONARY
5
1ae
330
0
100
AcDbDictionary
280
0
281
1
3
ACAD_GROUP
350
1af
3
ACAD_MLINESTYLE
350
1b0
0
DICTIONARY
5
1af
330
0
100
AcDbDictionary
280
0
281
1
0
DICTIONARY
5
1b0
330
0
100
AcDbDictionary
280
0
281
1
3
Standard
350
18
0
MLINESTYLE
5
18
330
1b0
100
AcDbMlineStyle
2
Standard
70
0
3

62
256
51
90
52
90
71
2
49
-0.5
62
256
6
ByLayer
49
0.5
62
256
6
ByLayer
0
RASTERVARIABLES
5
19d
330

100
AcDbRasterVariables
90
0
70
1
71
1
72
1
0
ENDSEC
0
EOF
