  0
SECTION
  2
HEADER
  9
$ACADVER
  1
AC1015
  9
$ACADMAINTVER
 70
    20
  9
$DWGCODEPAGE
  3
ANSI_1252
  9
$INSBASE
 10
0.0
 20
0.0
 30
0.0
  9
$EXTMIN
 10
-51.39440500000001
 20
-141.7383
 30
0.0
  9
$EXTMAX
 10
17.445457
 20
17.4568111023622
 30
0.0
  9
$LIMMIN
 10
0.0
 20
0.0
  9
$LIMMAX
 10
12.0
 20
9.0
  9
$ORTHOMODE
 70
     0
  9
$REGENMODE
 70
     1
  9
$FILLMODE
 70
     1
  9
$QTEXTMODE
 70
     0
  9
$MIRRTEXT
 70
     1
  9
$LTSCALE
 40
1.0
  9
$ATTMODE
 70
     1
  9
$TEXTSIZE
 40
0.11811
  9
$TRACEWID
 40
0.3937
  9
$TEXTSTYLE
  7
SANDVIK_STYLE
  9
$CLAYER
  8
1
  9
$CELTYPE
  6
ByLayer
  9
$CECOLOR
 62
   256
  9
$CELTSCALE
 40
1.0
  9
$DISPSILH
 70
     0
  9
$DIMSCALE
 40
1.0
  9
$DIMASZ
 40
0.18
  9
$DIMEXO
 40
0.0625
  9
$DIMDLI
 40
0.38
  9
$DIMRND
 40
0.0
  9
$DIMDLE
 40
0.0
  9
$DIMEXE
 40
0.18
  9
$DIMTP
 40
0.0
  9
$DIMTM
 40
0.0
  9
$DIMTXT
 40
0.18
  9
$DIMCEN
 40
0.09
  9
$DIMTSZ
 40
0.0
  9
$DIMTOL
 70
     0
  9
$DIMLIM
 70
     0
  9
$DIMTIH
 70
     1
  9
$DIMTOH
 70
     1
  9
$DIMSE1
 70
     0
  9
$DIMSE2
 70
     0
  9
$DIMTAD
 70
     0
  9
$DIMZIN
 70
     0
  9
$DIMBLK
  1

  9
$DIMASO
 70
     1
  9
$DIMSHO
 70
     1
  9
$DIMPOST
  1

  9
$DIMAPOST
  1

  9
$DIMALT
 70
     0
  9
$DIMALTD
 70
     2
  9
$DIMALTF
 40
25.4
  9
$DIMLFAC
 40
1.0
  9
$DIMTOFL
 70
     0
  9
$DIMTVP
 40
0.0
  9
$DIMTIX
 70
     0
  9
$DIMSOXD
 70
     0
  9
$DIMSAH
 70
     0
  9
$DIMBLK1
  1

  9
$DIMBLK2
  1

  9
$DIMSTYLE
  2
STANDARD
  9
$DIMCLRD
 70
     0
  9
$DIMCLRE
 70
     0
  9
$DIMCLRT
 70
     0
  9
$DIMTFAC
 40
1.0
  9
$DIMGAP
 40
0.09
  9
$DIMJUST
 70
     0
  9
$DIMSD1
 70
     0
  9
$DIMSD2
 70
     0
  9
$DIMTOLJ
 70
     1
  9
$DIMTZIN
 70
     0
  9
$DIMALTZ
 70
     0
  9
$DIMALTTZ
 70
     0
  9
$DIMUPT
 70
     0
  9
$DIMDEC
 70
     4
  9
$DIMTDEC
 70
     4
  9
$DIMALTU
 70
     2
  9
$DIMALTTD
 70
     2
  9
$DIMTXSTY
  7
STANDARD
  9
$DIMAUNIT
 70
     0
  9
$DIMADEC
 70
     0
  9
$DIMALTRND
 40
0.0
  9
$DIMAZIN
 70
     0
  9
$DIMDSEP
 70
    46
  9
$DIMATFIT
 70
     3
  9
$DIMFRAC
 70
     0
  9
$DIMLDRBLK
  1

  9
$DIMLUNIT
 70
     2
  9
$DIMLWD
 70
    -2
  9
$DIMLWE
 70
    -2
  9
$DIMTMOVE
 70
     0
  9
$LUNITS
 70
     2
  9
$LUPREC
 70
     2
  9
$SKETCHINC
 40
0.0
  9
$FILLETRAD
 40
0.0
  9
$AUNITS
 70
     0
  9
$AUPREC
 70
     2
  9
$MENU
  1
acad
  9
$ELEVATION
 40
0.0
  9
$PELEVATION
 40
0.0
  9
$THICKNESS
 40
0.0
  9
$LIMCHECK
 70
     0
  9
$CHAMFERA
 40
0.0
  9
$CHAMFERB
 40
0.0
  9
$CHAMFERC
 40
0.0
  9
$CHAMFERD
 40
0.0
  9
$SKPOLY
 70
     0
  9
$TDCREATE
 40
2456818.406432824
  9
$TDUCREATE
 40
2456818.323099491
  9
$TDUPDATE
 40
2456818.406438970
  9
$TDUUPDATE
 40
2456818.323105637
  9
$TDINDWG
 40
0.0000071991
  9
$TDUSRTIMER
 40
0.0000071991
  9
$USRTIMER
 70
     1
  9
$ANGBASE
 50
0.0
  9
$ANGDIR
 70
     0
  9
$PDMODE
 70
     0
  9
$PDSIZE
 40
0.0
  9
$PLINEWID
 40
0.0
  9
$SPLFRAME
 70
     0
  9
$SPLINETYPE
 70
     6
  9
$SPLINESEGS
 70
     8
  9
$HANDSEED
  5
4B1
  9
$SURFTAB1
 70
     6
  9
$SURFTAB2
 70
     6
  9
$SURFTYPE
 70
     6
  9
$SURFU
 70
     6
  9
$SURFV
 70
     6
  9
$UCSBASE
  2

  9
$UCSNAME
  2

  9
$UCSORG
 10
0.0
 20
0.0
 30
0.0
  9
$UCSXDIR
 10
1.0
 20
0.0
 30
0.0
  9
$UCSYDIR
 10
0.0
 20
1.0
 30
0.0
  9
$UCSORTHOREF
  2

  9
$UCSORTHOVIEW
 70
     0
  9
$UCSORGTOP
 10
0.0
 20
0.0
 30
0.0
  9
$UCSORGBOTTOM
 10
0.0
 20
0.0
 30
0.0
  9
$UCSORGLEFT
 10
0.0
 20
0.0
 30
0.0
  9
$UCSORGRIGHT
 10
0.0
 20
0.0
 30
0.0
  9
$UCSORGFRONT
 10
0.0
 20
0.0
 30
0.0
  9
$UCSORGBACK
 10
0.0
 20
0.0
 30
0.0
  9
$PUCSBASE
  2

  9
$PUCSNAME
  2

  9
$PUCSORG
 10
0.0
 20
0.0
 30
0.0
  9
$PUCSXDIR
 10
1.0
 20
0.0
 30
0.0
  9
$PUCSYDIR
 10
0.0
 20
1.0
 30
0.0
  9
$PUCSORTHOREF
  2

  9
$PUCSORTHOVIEW
 70
     0
  9
$PUCSORGTOP
 10
0.0
 20
0.0
 30
0.0
  9
$PUCSORGBOTTOM
 10
0.0
 20
0.0
 30
0.0
  9
$PUCSORGLEFT
 10
0.0
 20
0.0
 30
0.0
  9
$PUCSORGRIGHT
 10
0.0
 20
0.0
 30
0.0
  9
$PUCSORGFRONT
 10
0.0
 20
0.0
 30
0.0
  9
$PUCSORGBACK
 10
0.0
 20
0.0
 30
0.0
  9
$USERI1
 70
     0
  9
$USERI2
 70
     0
  9
$USERI3
 70
     0
  9
$USERI4
 70
     0
  9
$USERI5
 70
     0
  9
$USERR1
 40
0.0
  9
$USERR2
 40
0.0
  9
$USERR3
 40
0.0
  9
$USERR4
 40
0.0
  9
$USERR5
 40
0.0
  9
$WORLDVIEW
 70
     1
  9
$SHADEDGE
 70
     3
  9
$SHADEDIF
 70
    70
  9
$TILEMODE
 70
     1
  9
$MAXACTVP
 70
    16
  9
$PINSBASE
 10
0.0
 20
0.0
 30
0.0
  9
$PLIMCHECK
 70
     0
  9
$PEXTMIN
 10
1.000000000000000E+20
 20
1.000000000000000E+20
 30
1.000000000000000E+20
  9
$PEXTMAX
 10
-1.000000000000000E+20
 20
-1.000000000000000E+20
 30
-1.000000000000000E+20
  9
$PLIMMIN
 10
0.0
 20
0.0
  9
$PLIMMAX
 10
12.0
 20
9.0
  9
$UNITMODE
 70
     0
  9
$VISRETAIN
 70
     0
  9
$PLINEGEN
 70
     0
  9
$PSLTSCALE
 70
     1
  9
$TREEDEPTH
 70
  3020
  9
$CMLSTYLE
  2
Standard
  9
$CMLJUST
 70
     0
  9
$CMLSCALE
 40
1.0
  9
$PROXYGRAPHICS
 70
     1
  9
$MEASUREMENT
 70
     0
  9
$CELWEIGHT
370
    -1
  9
$ENDCAPS
280
     0
  9
$JOINSTYLE
280
     0
  9
$LWDISPLAY
290
     0
  9
$INSUNITS
 70
     0
  9
$HYPERLINKBASE
  1

  9
$STYLESHEET
  1

  9
$XEDIT
290
     1
  9
$CEPSNTYPE
380
     0
  9
$PSTYLEMODE
290
     1
  9
$FINGERPRINTGUID
  2
{AA7D48CF-0801-4906-A988-74DCC39F7092}
  9
$VERSIONGUID
  2
{3615AAD1-C807-4E2B-90C0-F95A5D796106}
  9
$EXTNAMES
290
     1
  9
$PSVPSCALE
 40
0.0
  9
$OLESTARTUP
290
     0
  0
ENDSEC
  0
SECTION
  2
CLASSES
  0
CLASS
  1
ACDBDICTIONARYWDFLT
  2
AcDbDictionaryWithDefault
  3
ObjectDBX Classes
 90
        0
280
     0
281
     0
  0
CLASS
  1
MATERIAL
  2
AcDbMaterial
  3
ObjectDBX Classes
 90
     1153
280
     0
281
     0
  0
CLASS
  1
VISUALSTYLE
  2
AcDbVisualStyle
  3
ObjectDBX Classes
 90
     4095
280
     0
281
     0
  0
CLASS
  1
SCALE
  2
AcDbScale
  3
ObjectDBX Classes
 90
     1153
280
     0
281
     0
  0
CLASS
  1
TABLESTYLE
  2
AcDbTableStyle
  3
ObjectDBX Classes
 90
     4095
280
     0
281
     0
  0
CLASS
  1
MLEADERSTYLE
  2
AcDbMLeaderStyle
  3
ACDB_MLEADERSTYLE_CLASS
 90
     4095
280
     0
281
     0
  0
CLASS
  1
ACDBSECTIONVIEWSTYLE
  2
AcDbSectionViewStyle
  3
ObjectDBX Classes
 90
     1025
280
     0
281
     0
  0
CLASS
  1
ACDBDETAILVIEWSTYLE
  2
AcDbDetailViewStyle
  3
ObjectDBX Classes
 90
     1025
280
     0
281
     0
  0
CLASS
  1
EXACXREFPANELOBJECT
  2
ExAcXREFPanelObject
  3
EXAC_ESW
 90
     1025
280
     0
281
     0
  0
CLASS
  1
NPOCOLLECTION
  2
AcDbImpNonPersistentObjectsCollection
  3
ObjectDBX Classes
 90
     1153
280
     0
281
     0
  0
CLASS
  1
DICTIONARYVAR
  2
AcDbDictionaryVar
  3
ObjectDBX Classes
 90
        0
280
     0
281
     0
  0
CLASS
  1
CELLSTYLEMAP
  2
AcDbCellStyleMap
  3
ObjectDBX Classes
 90
     1152
280
     0
281
     0
  0
CLASS
  1
ACDBPLACEHOLDER
  2
AcDbPlaceHolder
  3
ObjectDBX Classes
 90
        0
280
     0
281
     0
  0
CLASS
  1
LAYOUT
  2
AcDbLayout
  3
ObjectDBX Classes
 90
        0
280
     0
281
     0
  0
ENDSEC
  0
SECTION
  2
TABLES
  0
TABLE
  2
VPORT
  5
37B
330
0
100
AcDbSymbolTable
 70
     1
  0
VPORT
  5
412
330
37B
100
AcDbSymbolTableRecord
100
AcDbViewportTableRecord
  2
*Active
 70
     0
 10
0.0
 20
0.0
 11
1.0
 21
1.0
 12
-16.97447400000001
 22
-62.14074444881891
 13
0.0
 23
0.0
 14
1.0
 24
1.0
 15
0.0
 25
0.0
 16
0.0
 26
0.0
 36
1.0
 17
0.0
 27
0.0
 37
0.0
 40
178.1529552740417
 41
2.2
 42
50.0
 43
0.0
 44
0.0
 50
0.0
 51
0.0
 71
     0
 72
   100
 73
     1
 74
     1
 75
     0
 76
     0
 77
     0
 78
     0
281
     0
 65
     1
110
0.0
120
0.0
130
0.0
111
1.0
121
0.0
131
0.0
112
0.0
122
1.0
132
0.0
 79
     0
146
0.0
1001
ACAD_NAV_VCDISPLAY
1070
     3
  0
ENDTAB
  0
TABLE
  2
LTYPE
  5
378
330
0
100
AcDbSymbolTable
 70
     4
  0
LTYPE
  5
3CD
330
378
100
AcDbSymbolTableRecord
100
AcDbLinetypeTableRecord
  2
ByBlock
 70
     0
  3

 72
    65
 73
     0
 40
0.0
  0
LTYPE
  5
3CE
330
378
100
AcDbSymbolTableRecord
100
AcDbLinetypeTableRecord
  2
ByLayer
 70
     0
  3

 72
    65
 73
     0
 40
0.0
  0
LTYPE
  5
3CF
330
378
100
AcDbSymbolTableRecord
100
AcDbLinetypeTableRecord
  2
CONTINUOUS
 70
     0
  3
Solid line
 72
    65
 73
     0
 40
0.0
  0
LTYPE
  5
3DB
330
378
100
AcDbSymbolTableRecord
100
AcDbLinetypeTableRecord
  2
PHANTOM2
 70
     0
  3
Phantom (.5x) ___ _ _ ___ _ _ ___ _ _ ___ _ _
 72
    65
 73
     6
 40
1.25
 49
0.625
 74
     0
 49
-0.125
 74
     0
 49
0.125
 74
     0
 49
-0.125
 74
     0
 49
0.125
 74
     0
 49
-0.125
 74
     0
  0
LTYPE
  5
3E9
330
378
100
AcDbSymbolTableRecord
100
AcDbLinetypeTableRecord
  2
CENTER
 70
     0
  3
____ _ ____ _ ____ _ ____ _ ____ _ ____ _ ____
 72
    65
 73
     4
 40
0.1992
 49
0.1245
 74
     0
 49
-0.0249
 74
     0
 49
0.0249
 74
     0
 49
-0.0249
 74
     0
  0
LTYPE
  5
3EA
330
378
100
AcDbSymbolTableRecord
100
AcDbLinetypeTableRecord
  2
DASHED
 70
     0
  3
__ __ __ __ __ __ __ __ __ __ __ __ __ __ __ __
 72
    65
 73
     2
 40
0.29881
 49
0.1992
 74
     0
 49
-0.099604
 74
     0
  0
ENDTAB
  0
TABLE
  2
LAYER
  5
375
330
0
100
AcDbSymbolTable
 70
    38
  0
LAYER
  5
3C7
102
{ACAD_XDICTIONARY
360
41B
102
}
330
375
100
AcDbSymbolTableRecord
100
AcDbLayerTableRecord
  2
0
 70
     0
 62
     7
  6
CONTINUOUS
370
    -3
390
382
  0
LAYER
  5
3E7
102
{ACAD_XDICTIONARY
360
41D
102
}
330
375
100
AcDbSymbolTableRecord
100
AcDbLayerTableRecord
  2
1
 70
     0
 62
     4
  6
CONTINUOUS
370
    -3
390
382
  0
LAYER
  5
3EB
102
{ACAD_XDICTIONARY
360
41F
102
}
330
375
100
AcDbSymbolTableRecord
100
AcDbLayerTableRecord
  2
61
 70
     0
 62
     5
  6
CONTINUOUS
370
    -3
390
382
  0
LAYER
  5
3EC
102
{ACAD_XDICTIONARY
360
421
102
}
330
375
100
AcDbSymbolTableRecord
100
AcDbLayerTableRecord
  2
62
 70
     0
 62
    -5
  6
CONTINUOUS
370
    -3
390
382
  0
LAYER
  5
3ED
102
{ACAD_XDICTIONARY
360
423
102
}
330
375
100
AcDbSymbolTableRecord
100
AcDbLayerTableRecord
  2
63
 70
     0
 62
    -5
  6
CONTINUOUS
370
    -3
390
382
  0
LAYER
  5
3EE
102
{ACAD_XDICTIONARY
360
425
102
}
330
375
100
AcDbSymbolTableRecord
100
AcDbLayerTableRecord
  2
64
 70
     0
 62
    -5
  6
CONTINUOUS
370
    -3
390
382
  0
LAYER
  5
3EF
102
{ACAD_XDICTIONARY
360
427
102
}
330
375
100
AcDbSymbolTableRecord
100
AcDbLayerTableRecord
  2
65
 70
     0
 62
    -5
  6
CONTINUOUS
370
    -3
390
382
  0
LAYER
  5
3F0
102
{ACAD_XDICTIONARY
360
429
102
}
330
375
100
AcDbSymbolTableRecord
100
AcDbLayerTableRecord
  2
66
 70
     0
 62
    -5
  6
CONTINUOUS
370
    -3
390
382
  0
LAYER
  5
3F1
102
{ACAD_XDICTIONARY
360
42B
102
}
330
375
100
AcDbSymbolTableRecord
100
AcDbLayerTableRecord
  2
67
 70
     0
 62
    -5
  6
CONTINUOUS
370
    -3
390
382
  0
LAYER
  5
3F2
102
{ACAD_XDICTIONARY
360
42D
102
}
330
375
100
AcDbSymbolTableRecord
100
AcDbLayerTableRecord
  2
68
 70
     0
 62
    -5
  6
CONTINUOUS
370
    -3
390
382
  0
LAYER
  5
3F3
102
{ACAD_XDICTIONARY
360
42F
102
}
330
375
100
AcDbSymbolTableRecord
100
AcDbLayerTableRecord
  2
69
 70
     0
 62
    -5
  6
CONTINUOUS
370
    -3
390
382
  0
LAYER
  5
3F4
102
{ACAD_XDICTIONARY
360
431
102
}
330
375
100
AcDbSymbolTableRecord
100
AcDbLayerTableRecord
  2
70
 70
     0
 62
     5
  6
CONTINUOUS
370
    -3
390
382
  0
LAYER
  5
3F5
102
{ACAD_XDICTIONARY
360
433
102
}
330
375
100
AcDbSymbolTableRecord
100
AcDbLayerTableRecord
  2
2
 70
     0
 62
     7
  6
CONTINUOUS
370
    -3
390
382
  0
LAYER
  5
3F6
102
{ACAD_XDICTIONARY
360
435
102
}
330
375
100
AcDbSymbolTableRecord
100
AcDbLayerTableRecord
  2
3
 70
     0
 62
     1
  6
DASHED
370
    -3
390
382
  0
LAYER
  5
3F7
102
{ACAD_XDICTIONARY
360
437
102
}
330
375
100
AcDbSymbolTableRecord
100
AcDbLayerTableRecord
  2
4
 70
     0
 62
    -2
  6
CENTER
370
    -3
390
382
  0
LAYER
  5
3F8
102
{ACAD_XDICTIONARY
360
439
102
}
330
375
100
AcDbSymbolTableRecord
100
AcDbLayerTableRecord
  2
5
 70
     0
 62
    -7
  6
CONTINUOUS
370
    -3
390
382
  0
LAYER
  5
3F9
102
{ACAD_XDICTIONARY
360
43B
102
}
330
375
100
AcDbSymbolTableRecord
100
AcDbLayerTableRecord
  2
SK1
 70
     0
 62
     4
  6
CONTINUOUS
370
    -3
390
382
  0
LAYER
  5
3FA
102
{ACAD_XDICTIONARY
360
43D
102
}
330
375
100
AcDbSymbolTableRecord
100
AcDbLayerTableRecord
  2
6
 70
     0
 62
     5
  6
CONTINUOUS
370
    -3
390
382
  0
LAYER
  5
3FB
102
{ACAD_XDICTIONARY
360
43F
102
}
330
375
100
AcDbSymbolTableRecord
100
AcDbLayerTableRecord
  2
SK2
 70
     0
 62
     7
  6
CONTINUOUS
370
    -3
390
382
  0
LAYER
  5
3FC
102
{ACAD_XDICTIONARY
360
441
102
}
330
375
100
AcDbSymbolTableRecord
100
AcDbLayerTableRecord
  2
SK3
 70
     0
 62
     1
  6
DASHED
370
    -3
390
382
  0
LAYER
  5
3FD
102
{ACAD_XDICTIONARY
360
443
102
}
330
375
100
AcDbSymbolTableRecord
100
AcDbLayerTableRecord
  2
SK4
 70
     0
 62
     2
  6
CENTER
370
    -3
390
382
  0
LAYER
  5
3FE
102
{ACAD_XDICTIONARY
360
445
102
}
330
375
100
AcDbSymbolTableRecord
100
AcDbLayerTableRecord
  2
CUT
 70
     0
 62
    -1
  6
CONTINUOUS
370
    -3
390
382
  0
LAYER
  5
3FF
102
{ACAD_XDICTIONARY
360
447
102
}
330
375
100
AcDbSymbolTableRecord
100
AcDbLayerTableRecord
  2
SK6
 70
     0
 62
     5
  6
CONTINUOUS
370
    -3
390
382
  0
LAYER
  5
400
102
{ACAD_XDICTIONARY
360
449
102
}
330
375
100
AcDbSymbolTableRecord
100
AcDbLayerTableRecord
  2
80
 70
     0
 62
    -2
  6
CENTER
370
    -3
390
382
  0
LAYER
  5
401
102
{ACAD_XDICTIONARY
360
44B
102
}
330
375
100
AcDbSymbolTableRecord
100
AcDbLayerTableRecord
  2
81
 70
     0
 62
    -2
  6
CENTER
370
    -3
390
382
  0
LAYER
  5
402
102
{ACAD_XDICTIONARY
360
44D
102
}
330
375
100
AcDbSymbolTableRecord
100
AcDbLayerTableRecord
  2
82
 70
     0
 62
    -2
  6
CENTER
370
    -3
390
382
  0
LAYER
  5
403
102
{ACAD_XDICTIONARY
360
44F
102
}
330
375
100
AcDbSymbolTableRecord
100
AcDbLayerTableRecord
  2
NOCUT
 70
     0
 62
     7
  6
CONTINUOUS
370
    -3
390
382
  0
LAYER
  5
404
102
{ACAD_XDICTIONARY
360
451
102
}
330
375
100
AcDbSymbolTableRecord
100
AcDbLayerTableRecord
  2
50
 70
     0
 62
    -7
  6
CONTINUOUS
370
    -3
390
382
  0
LAYER
  5
405
102
{ACAD_XDICTIONARY
360
453
102
}
330
375
100
AcDbSymbolTableRecord
100
AcDbLayerTableRecord
  2
51
 70
     0
 62
     7
  6
CONTINUOUS
370
    -3
390
382
  0
LAYER
  5
406
102
{ACAD_XDICTIONARY
360
455
102
}
330
375
100
AcDbSymbolTableRecord
100
AcDbLayerTableRecord
  2
52
 70
     0
 62
    -7
  6
CONTINUOUS
370
    -3
390
382
  0
LAYER
  5
407
102
{ACAD_XDICTIONARY
360
457
102
}
330
375
100
AcDbSymbolTableRecord
100
AcDbLayerTableRecord
  2
53
 70
     0
 62
    -7
  6
CONTINUOUS
370
    -3
390
382
  0
LAYER
  5
408
102
{ACAD_XDICTIONARY
360
459
102
}
330
375
100
AcDbSymbolTableRecord
100
AcDbLayerTableRecord
  2
54
 70
     0
 62
    -7
  6
CONTINUOUS
370
    -3
390
382
  0
LAYER
  5
409
102
{ACAD_XDICTIONARY
360
45B
102
}
330
375
100
AcDbSymbolTableRecord
100
AcDbLayerTableRecord
  2
55
 70
     0
 62
    -7
  6
CONTINUOUS
370
    -3
390
382
  0
LAYER
  5
40A
102
{ACAD_XDICTIONARY
360
45D
102
}
330
375
100
AcDbSymbolTableRecord
100
AcDbLayerTableRecord
  2
56
 70
     0
 62
    -7
  6
CONTINUOUS
370
    -3
390
382
  0
LAYER
  5
40B
102
{ACAD_XDICTIONARY
360
45F
102
}
330
375
100
AcDbSymbolTableRecord
100
AcDbLayerTableRecord
  2
57
 70
     0
 62
    -7
  6
CONTINUOUS
370
    -3
390
382
  0
LAYER
  5
40C
102
{ACAD_XDICTIONARY
360
461
102
}
330
375
100
AcDbSymbolTableRecord
100
AcDbLayerTableRecord
  2
58
 70
     0
 62
    -7
  6
CONTINUOUS
370
    -3
390
382
  0
LAYER
  5
40D
102
{ACAD_XDICTIONARY
360
463
102
}
330
375
100
AcDbSymbolTableRecord
100
AcDbLayerTableRecord
  2
2L
 70
     0
 62
     7
  6
CONTINUOUS
370
    -3
390
382
  0
LAYER
  5
40E
102
{ACAD_XDICTIONARY
360
465
102
}
330
375
100
AcDbSymbolTableRecord
100
AcDbLayerTableRecord
  2
59
 70
     0
 62
    -7
  6
CONTINUOUS
370
    -3
390
382
  0
ENDTAB
  0
TABLE
  2
STYLE
  5
376
330
0
100
AcDbSymbolTable
 70
     3
  0
STYLE
  5
3C8
330
376
100
AcDbSymbolTableRecord
100
AcDbTextStyleTableRecord
  2
STANDARD
 70
     0
 40
0.0
 41
1.0
 50
0.0
 71
     0
 42
0.177165
  3
simplex.shx
  4

  0
STYLE
  5
3CC
330
376
100
AcDbSymbolTableRecord
100
AcDbTextStyleTableRecord
  2
Annotative
 70
     0
 40
0.0
 41
1.0
 50
0.0
 71
     0
 42
0.2
  3
txt
  4

1001
AcadAnnotative
1000
AnnotativeData
1002
{
1070
     1
1070
     1
1002
}
  0
STYLE
  5
3E8
330
376
100
AcDbSymbolTableRecord
100
AcDbTextStyleTableRecord
  2
SANDVIK_STYLE
 70
     0
 40
0.11811
 41
1.0
 50
0.0
 71
     0
 42
0.11811
  3
simplex.shx
  4

  0
ENDTAB
  0
TABLE
  2
VIEW
  5
379
330
0
100
AcDbSymbolTable
 70
     0
  0
ENDTAB
  0
TABLE
  2
UCS
  5
37A
330
0
100
AcDbSymbolTable
 70
     0
  0
ENDTAB
  0
TABLE
  2
APPID
  5
37C
330
0
100
AcDbSymbolTable
 70
     4
  0
APPID
  5
3C9
330
37C
100
AcDbSymbolTableRecord
100
AcDbRegAppTableRecord
  2
ACAD
 70
     0
  0
APPID
  5
3D0
330
37C
100
AcDbSymbolTableRecord
100
AcDbRegAppTableRecord
  2
AcadAnnotative
 70
     0
  0
APPID
  5
471
330
37C
100
AcDbSymbolTableRecord
100
AcDbRegAppTableRecord
  2
ACAD_NAV_VCDISPLAY
 70
     0
  0
APPID
  5
4AC
330
37C
100
AcDbSymbolTableRecord
100
AcDbRegAppTableRecord
  2
ACAD_MLEADERVER
 70
     0
  0
ENDTAB
  0
TABLE
  2
DIMSTYLE
  5
37D
330
0
100
AcDbSymbolTable
 70
     3
100
AcDbDimStyleTable
 71
     0
  0
DIMSTYLE
105
3CA
330
37D
100
AcDbSymbolTableRecord
100
AcDbDimStyleTableRecord
  2
STANDARD
 70
     0
  4
 
 43
0.18
 44
2.5
 46
1.25
 73
     0
 74
     0
140
0.11811
141
-3.0
143
0.039
145
1.5
146
0.75
147
1.5
271
     2
272
     2
279
     2
340
3E8
  0
DIMSTYLE
105
3CB
330
37D
100
AcDbSymbolTableRecord
100
AcDbDimStyleTableRecord
  2
Annotative
 70
     0
340
3C8
1001
AcadAnnotative
1000
AnnotativeData
1002
{
1070
     1
1070
     1
1002
}
  0
DIMSTYLE
105
40F
102
{ACAD_REACTORS
330
2CA
330
2CB
102
}
330
37D
100
AcDbSymbolTableRecord
100
AcDbDimStyleTableRecord
  2
SANDVIK_DIM
 70
     0
  4
 
 40
0.0
 42
0.0
 73
     0
 74
     0
 77
     1
 78
     8
173
     1
176
   256
177
   256
178
   256
271
     2
272
     2
279
     2
340
3E8
  0
ENDTAB
  0
TABLE
  2
BLOCK_RECORD
  5
374
330
0
100
AcDbSymbolTable
 70
     5
  0
BLOCK_RECORD
  5
3E3
330
374
100
AcDbSymbolTableRecord
100
AcDbBlockTableRecord
  2
*Model_Space
340
3E6
  0
BLOCK_RECORD
  5
3DF
330
374
100
AcDbSymbolTableRecord
100
AcDbBlockTableRecord
  2
*Paper_Space
340
3E2
  0
BLOCK_RECORD
  5
413
330
374
100
AcDbSymbolTableRecord
100
AcDbBlockTableRecord
  2
*D0
340
0
  0
BLOCK_RECORD
  5
414
330
374
100
AcDbSymbolTableRecord
100
AcDbBlockTableRecord
  2
*D1
340
0
  0
BLOCK_RECORD
  5
415
330
374
100
AcDbSymbolTableRecord
100
AcDbBlockTableRecord
  2
ASSORTEDPART1
340
0
102
{BLKREFS
331
2C7
102
}
  0
BLOCK_RECORD
  5
416
330
374
100
AcDbSymbolTableRecord
100
AcDbBlockTableRecord
  2
ASSORTEDPART2
340
0
102
{BLKREFS
331
2C8
102
}
  0
BLOCK_RECORD
  5
417
330
374
100
AcDbSymbolTableRecord
100
AcDbBlockTableRecord
  2
ASSORTEDPART3
340
0
102
{BLKREFS
331
2C9
102
}
  0
ENDTAB
  0
ENDSEC
  0
SECTION
  2
BLOCKS
  0
BLOCK
  5
3E4
330
3E3
100
AcDbEntity
  8
0
100
AcDbBlockBegin
  2
*Model_Space
 70
     0
 10
0.0
 20
0.0
 30
0.0
  3
*Model_Space
  1

  0
ENDBLK
  5
3E5
330
3E3
100
AcDbEntity
  8
0
100
AcDbBlockEnd
  0
BLOCK
  5
3E0
330
3DF
100
AcDbEntity
 67
     1
  8
0
100
AcDbBlockBegin
  2
*Paper_Space
 70
     0
 10
0.0
 20
0.0
 30
0.0
  3
*Paper_Space
  1

  0
ENDBLK
  5
3E1
330
3DF
100
AcDbEntity
 67
     1
  8
0
100
AcDbBlockEnd
  0
BLOCK
  5
2
330
413
100
AcDbEntity
  8
0
100
AcDbBlockBegin
  2
*D0
 70
     1
 10
0.0
 20
0.0
 30
0.0
  3
*D0
  1

  0
LINE
  5
3
330
413
100
AcDbEntity
  8
0
100
AcDbLine
 10
-19.935922
 20
-92.348458
 30
0.0
 11
-47.16940499999999
 21
-92.348458
 31
0.0
  0
LINE
  5
4
330
413
100
AcDbEntity
  8
0
100
AcDbLine
 10
-25.412513
 20
-126.35005
 30
0.0
 11
-47.16940499999999
 21
-126.35005
 31
0.0
  0
LINE
  5
5
330
413
100
AcDbEntity
  8
0
100
AcDbLine
 10
-47.04440499999999
 20
-92.348458
 30
0.0
 11
-47.04440499999999
 21
-126.35005
 31
0.0
  0
SOLID
  5
6
330
413
100
AcDbEntity
  8
0
100
AcDbTrace
 10
-47.04440499999999
 20
-92.348458
 30
0.0
 11
-46.240557
 21
-95.34845799999999
 31
0.0
 12
-47.848252
 22
-95.34845799999999
 32
0.0
 13
-47.848252
 23
-95.34845799999999
 33
0.0
  0
SOLID
  5
7
330
413
100
AcDbEntity
  8
0
100
AcDbTrace
 10
-47.04440499999999
 20
-126.35005
 30
0.0
 11
-47.848252
 21
-123.35005
 31
0.0
 12
-46.240557
 22
-123.35005
 32
0.0
 13
-46.240557
 23
-123.35005
 33
0.0
  0
TEXT
  5
8
330
413
100
AcDbEntity
  8
0
100
AcDbText
 10
-48.54440499999999
 20
-111.551328
 30
0.0
 40
3.0
  1
34
 50
90.0
100
AcDbText
  0
ENDBLK
  5
9
330
413
100
AcDbEntity
  8
0
100
AcDbBlockEnd
  0
BLOCK
  5
A
330
414
100
AcDbEntity
  8
0
100
AcDbBlockBegin
  2
*D1
 70
     1
 10
0.0
 20
0.0
 30
0.0
  3
*D1
  1

  0
LINE
  5
B
330
414
100
AcDbEntity
  8
0
100
AcDbLine
 10
-24.804707
 20
-118.868289
 30
0.0
 11
-24.191543
 21
-111.39657
 31
0.0
  0
LINE
  5
C
330
414
100
AcDbEntity
  8
0
100
AcDbLine
 10
-25.412513
 20
-126.35005
 30
0.0
 11
-40.422444
 21
-126.35005
 31
0.0
  0
SOLID
  5
D
330
414
100
AcDbEntity
  8
0
100
AcDbTrace
 10
-24.201767
 20
-111.521151
 30
0.0
 11
-27.225697
 21
-112.229682
 31
0.0
 12
-27.174833
 22
-110.622791
 32
0.0
 13
-27.174833
 23
-110.622791
 33
0.0
  0
SOLID
  5
E
330
414
100
AcDbEntity
  8
0
100
AcDbTrace
 10
-40.297444
 20
-126.35005
 30
0.0
 11
-40.949628
 21
-123.313468
 31
0.0
 12
-39.343961
 22
-123.394201
 32
0.0
 13
-39.343961
 23
-123.394201
 33
0.0
  0
ARC
  5
F
330
414
100
AcDbEntity
  8
0
100
AcDbCircle
 10
-25.418695
 20
-126.35005
 30
0.0
 40
14.878749
100
AcDbArc
 50
85.30855499999999
 51
180.0
  0
TEXT
  5
10
330
414
100
AcDbEntity
  8
0
100
AcDbText
 10
-38.099252
 20
-116.380069
 30
0.0
 40
3.0
  1
95%%d
 50
51.824099
100
AcDbText
  0
ENDBLK
  5
11
330
414
100
AcDbEntity
  8
0
100
AcDbBlockEnd
  0
BLOCK
  5
12
330
415
100
AcDbEntity
  8
0
100
AcDbBlockBegin
  2
ASSORTEDPART1
 70
     0
 10
0.0
 20
0.0
 30
0.0
  3
ASSORTEDPART1
  1

  0
LINE
  5
13
330
415
100
AcDbEntity
  8
0
100
AcDbLine
 10
0.0
 20
2.5
 30
0.0
 11
0.0
 21
15.60563
 31
0.0
  0
LINE
  5
14
330
415
100
AcDbEntity
  8
0
100
AcDbLine
 10
-19.873422
 20
2.5
 30
0.0
 11
-19.873422
 21
15.60563
 31
0.0
  0
LINE
  5
15
330
415
100
AcDbEntity
  8
0
100
AcDbLine
 10
-3.0
 20
13.10563
 30
0.0
 11
-16.873422
 21
13.10563
 31
0.0
  0
LINE
  5
16
330
415
100
AcDbEntity
  8
0
100
AcDbLine
 10
-3.0
 20
13.60563
 30
0.0
 11
-3.0
 21
12.60563
 31
0.0
  0
LINE
  5
17
330
415
100
AcDbEntity
  8
0
100
AcDbLine
 10
-3.0
 20
12.60563
 30
0.0
 11
0.0
 21
13.10563
 31
0.0
  0
LINE
  5
18
330
415
100
AcDbEntity
  8
0
100
AcDbLine
 10
0.0
 20
13.10563
 30
0.0
 11
0.0
 21
13.10563
 31
0.0
  0
LINE
  5
19
330
415
100
AcDbEntity
  8
0
100
AcDbLine
 10
0.0
 20
13.10563
 30
0.0
 11
-3.0
 21
13.60563
 31
0.0
  0
LINE
  5
1A
330
415
100
AcDbEntity
  8
0
100
AcDbLine
 10
-16.873422
 20
13.60563
 30
0.0
 11
-16.873422
 21
12.60563
 31
0.0
  0
LINE
  5
1B
330
415
100
AcDbEntity
  8
0
100
AcDbLine
 10
-16.873422
 20
12.60563
 30
0.0
 11
-19.873422
 21
13.10563
 31
0.0
  0
LINE
  5
1C
330
415
100
AcDbEntity
  8
0
100
AcDbLine
 10
-19.873422
 20
13.10563
 30
0.0
 11
-19.873422
 21
13.10563
 31
0.0
  0
LINE
  5
1D
330
415
100
AcDbEntity
  8
0
100
AcDbLine
 10
-19.873422
 20
13.10563
 30
0.0
 11
-16.873422
 21
13.60563
 31
0.0
  0
TEXT
  5
1E
330
415
100
AcDbEntity
  8
0
100
AcDbText
 10
-12.551533
 20
14.60563
 30
0.0
 40
3.0
  1
20
 41
1.662286223900954
  7
SANDVIK_STYLE
 72
     5
 11
-6.314033
 21
14.60563
 31
0.0
100
AcDbText
  0
ENDBLK
  5
1F
330
415
100
AcDbEntity
  8
0
100
AcDbBlockEnd
  0
BLOCK
  5
20
330
416
100
AcDbEntity
  8
0
100
AcDbBlockBegin
  2
ASSORTEDPART2
 70
     0
 10
0.0
 20
0.0
 30
0.0
  3
ASSORTEDPART2
  1

  0
LINE
  5
21
330
416
100
AcDbEntity
  8
0
100
AcDbLine
 10
0.0
 20
-94.848464
 30
0.0
 11
0.0
 21
-141.7383
 31
0.0
  0
LINE
  5
22
330
416
100
AcDbEntity
  8
0
100
AcDbLine
 10
-25.350013
 20
-128.85005
 30
0.0
 11
-25.350013
 21
-141.7383
 31
0.0
  0
LINE
  5
23
330
416
100
AcDbEntity
  8
0
100
AcDbLine
 10
-3.0
 20
-139.2383
 30
0.0
 11
-22.350013
 21
-139.2383
 31
0.0
  0
LINE
  5
24
330
416
100
AcDbEntity
  8
0
100
AcDbLine
 10
-3.0
 20
-138.7383
 30
0.0
 11
-3.0
 21
-139.7383
 31
0.0
  0
LINE
  5
25
330
416
100
AcDbEntity
  8
0
100
AcDbLine
 10
-3.0
 20
-139.7383
 30
0.0
 11
0.0
 21
-139.2383
 31
0.0
  0
LINE
  5
26
330
416
100
AcDbEntity
  8
0
100
AcDbLine
 10
0.0
 20
-139.2383
 30
0.0
 11
0.0
 21
-139.2383
 31
0.0
  0
LINE
  5
27
330
416
100
AcDbEntity
  8
0
100
AcDbLine
 10
0.0
 20
-139.2383
 30
0.0
 11
-3.0
 21
-138.7383
 31
0.0
  0
LINE
  5
28
330
416
100
AcDbEntity
  8
0
100
AcDbLine
 10
-22.350013
 20
-138.7383
 30
0.0
 11
-22.350013
 21
-139.7383
 31
0.0
  0
LINE
  5
29
330
416
100
AcDbEntity
  8
0
100
AcDbLine
 10
-22.350013
 20
-139.7383
 30
0.0
 11
-25.350013
 21
-139.2383
 31
0.0
  0
LINE
  5
2A
330
416
100
AcDbEntity
  8
0
100
AcDbLine
 10
-25.350013
 20
-139.2383
 30
0.0
 11
-25.350013
 21
-139.2383
 31
0.0
  0
LINE
  5
2B
330
416
100
AcDbEntity
  8
0
100
AcDbLine
 10
-25.350013
 20
-139.2383
 30
0.0
 11
-22.350013
 21
-138.7383
 31
0.0
  0
TEXT
  5
2C
330
416
100
AcDbEntity
  8
0
100
AcDbText
 10
-14.363079
 20
-137.738299
 30
0.0
 40
3.0
  1
27
 41
1.663333333333333
  7
SANDVIK_STYLE
 72
     5
 11
-8.125579
 21
-137.738299
 31
0.0
100
AcDbText
  0
ENDBLK
  5
2D
330
416
100
AcDbEntity
  8
0
100
AcDbBlockEnd
  0
BLOCK
  5
2E
330
417
100
AcDbEntity
  8
0
100
AcDbBlockBegin
  2
ASSORTEDPART3
 70
     0
 10
0.0
 20
0.0
 30
0.0
  3
ASSORTEDPART3
  1

  0
LINE
  5
2F
330
417
100
AcDbEntity
  8
0
100
AcDbLine
 10
2.5
 20
0.0
 30
0.0
 11
17.445457
 21
0.0
 31
0.0
  0
LINE
  5
30
330
417
100
AcDbEntity
  8
0
100
AcDbLine
 10
-22.850013
 20
-126.35005
 30
0.0
 11
17.445457
 21
-126.35005
 31
0.0
  0
LINE
  5
31
330
417
100
AcDbEntity
  8
0
100
AcDbLine
 10
14.945457
 20
-3.0
 30
0.0
 11
14.945457
 21
-123.35005
 31
0.0
  0
LINE
  5
32
330
417
100
AcDbEntity
  8
0
100
AcDbLine
 10
14.445457
 20
-3.0
 30
0.0
 11
15.445457
 21
-3.0
 31
0.0
  0
LINE
  5
33
330
417
100
AcDbEntity
  8
0
100
AcDbLine
 10
15.445457
 20
-3.0
 30
0.0
 11
14.945457
 21
0.0
 31
0.0
  0
LINE
  5
34
330
417
100
AcDbEntity
  8
0
100
AcDbLine
 10
14.945457
 20
0.0
 30
0.0
 11
14.945457
 21
0.0
 31
0.0
  0
LINE
  5
35
330
417
100
AcDbEntity
  8
0
100
AcDbLine
 10
14.945457
 20
0.0
 30
0.0
 11
14.445457
 21
-3.0
 31
0.0
  0
LINE
  5
36
330
417
100
AcDbEntity
  8
0
100
AcDbLine
 10
14.445457
 20
-123.35005
 30
0.0
 11
15.445457
 21
-123.35005
 31
0.0
  0
LINE
  5
37
330
417
100
AcDbEntity
  8
0
100
AcDbLine
 10
15.445457
 20
-123.35005
 30
0.0
 11
14.945457
 21
-126.35005
 31
0.0
  0
LINE
  5
38
330
417
100
AcDbEntity
  8
0
100
AcDbLine
 10
14.945457
 20
-126.35005
 30
0.0
 11
14.945457
 21
-126.35005
 31
0.0
  0
LINE
  5
39
330
417
100
AcDbEntity
  8
0
100
AcDbLine
 10
14.945457
 20
-126.35005
 30
0.0
 11
14.445457
 21
-123.35005
 31
0.0
  0
TEXT
  5
3A
330
417
100
AcDbEntity
  8
0
100
AcDbText
 10
13.445457
 20
-63.68183399999999
 30
0.0
 40
3.0
  1
125
 50
90.0
 41
1.768846837159306
  7
SANDVIK_STYLE
 72
     5
 11
13.445457
 21
-54.17558399999999
 31
0.0
100
AcDbText
  0
ENDBLK
  5
3B
330
417
100
AcDbEntity
  8
0
100
AcDbBlockEnd
  0
ENDSEC
  0
SECTION
  2
ENTITIES
  0
LINE
  5
3C
330
3E3
100
AcDbEntity
  8
1
100
AcDbLine
 10
-21.74047
 20
-115.245175
 30
0.0
 11
-21.641888
 21
-115.146592
 31
0.0
  0
LINE
  5
3D
330
3E3
100
AcDbEntity
  8
1
100
AcDbLine
 10
0.81995
 20
-112.908009
 30
0.0
 11
-5.022247
 21
-118.750205
 31
0.0
  0
LINE
  5
3E
330
3E3
100
AcDbEntity
  8
1
100
AcDbLine
 10
-5.022247
 20
-118.750205
 30
0.0
 11
-11.375254
 21
-122.394904
 31
0.0
  0
LINE
  5
3F
330
3E3
100
AcDbEntity
  8
1
100
AcDbLine
 10
-11.907972
 20
-100.180087
 30
0.0
 11
-17.750169
 21
-106.022283
 31
0.0
  0
LINE
  5
40
330
3E3
100
AcDbEntity
  8
1
100
AcDbLine
 10
-10.337107
 20
-112.924766
 30
0.0
 11
-8.766864999999999
 21
-112.19928
 31
0.0
  0
LINE
  5
41
330
3E3
100
AcDbEntity
  8
1
100
AcDbLine
 10
-11.765413
 20
-111.920693
 30
0.0
 11
-10.337107
 21
-112.924766
 31
0.0
  0
LINE
  5
42
330
3E3
100
AcDbEntity
  8
1
100
AcDbLine
 10
-10.053236
 20
-109.46565
 30
0.0
 11
-8.62493
 21
-110.469722
 31
0.0
  0
LINE
  5
43
330
3E3
100
AcDbEntity
  8
1
100
AcDbLine
 10
-12.356415
 20
-122.902394
 30
0.0
 11
-11.375254
 21
-122.394904
 31
0.0
  0
LINE
  5
44
330
3E3
100
AcDbEntity
  8
1
100
AcDbLine
 10
-14.150342
 20
-122.64571
 30
0.0
 11
-15.564555
 21
-121.231496
 31
0.0
  0
LINE
  5
45
330
3E3
100
AcDbEntity
  8
1
100
AcDbLine
 10
-14.245138
 20
-122.740506
 30
0.0
 11
-15.659352
 21
-121.326293
 31
0.0
  0
LINE
  5
46
330
3E3
100
AcDbEntity
  8
1
100
AcDbLine
 10
-21.645674
 20
-115.150378
 30
0.0
 11
-20.23146
 21
-116.564592
 31
0.0
  0
LINE
  5
47
330
3E3
100
AcDbEntity
  8
1
100
AcDbLine
 10
-15.659352
 20
-121.326293
 30
0.0
 11
-15.564555
 21
-121.231496
 31
0.0
  0
LINE
  5
48
330
3E3
100
AcDbEntity
  8
1
100
AcDbLine
 10
-20.326256
 20
-116.659388
 30
0.0
 11
-21.74047
 21
-115.245175
 31
0.0
  0
LINE
  5
49
330
3E3
100
AcDbEntity
  8
1
100
AcDbLine
 10
-19.85405
 20
-114.113084
 30
0.0
 11
-19.812349
 21
-113.957808
 31
0.0
  0
LINE
  5
4A
330
3E3
100
AcDbEntity
  8
1
100
AcDbLine
 10
-21.74047
 20
-115.245175
 30
0.0
 11
-21.902357
 21
-113.356452
 31
0.0
  0
LINE
  5
4B
330
3E3
100
AcDbEntity
  8
1
100
AcDbLine
 10
-20.035284
 20
-114.853126
 30
0.0
 11
-19.85405
 21
-114.113084
 31
0.0
  0
LINE
  5
4C
330
3E3
100
AcDbEntity
  8
1
100
AcDbLine
 10
-20.152253
 20
-115.42001
 30
0.0
 11
-20.035284
 21
-114.853126
 31
0.0
  0
LINE
  5
4D
330
3E3
100
AcDbEntity
  8
1
100
AcDbLine
 10
-13.58787
 20
-120.973854
 30
0.0
 11
-14.149389
 21
-121.099017
 31
0.0
  0
LINE
  5
4E
330
3E3
100
AcDbEntity
  8
1
100
AcDbLine
 10
-20.226936
 20
-115.85301
 30
0.0
 11
-20.152253
 21
-115.42001
 31
0.0
  0
LINE
  5
4F
330
3E3
100
AcDbEntity
  8
1
100
AcDbLine
 10
-12.957774
 20
-120.812384
 30
0.0
 11
-13.58787
 21
-120.973854
 31
0.0
  0
LINE
  5
50
330
3E3
100
AcDbEntity
  8
1
100
AcDbLine
 10
-20.287774
 20
-116.290436
 30
0.0
 11
-20.226936
 21
-115.85301
 31
0.0
  0
LINE
  5
51
330
3E3
100
AcDbEntity
  8
1
100
AcDbLine
 10
-14.245138
 20
-122.740506
 30
0.0
 11
-12.356415
 21
-122.902394
 31
0.0
  0
LINE
  5
52
330
3E3
100
AcDbEntity
  8
1
100
AcDbLine
 10
-11.375254
 20
-122.394904
 30
0.0
 11
-12.971308
 21
-120.798849
 31
0.0
  0
LINE
  5
53
330
3E3
100
AcDbEntity
  8
1
100
AcDbLine
 10
-21.394867
 20
-112.375291
 30
0.0
 11
-19.810061
 21
-113.960097
 31
0.0
  0
LINE
  5
54
330
3E3
100
AcDbEntity
  8
1
100
AcDbLine
 10
-21.902357
 20
-113.356452
 30
0.0
 11
-21.394867
 21
-112.375291
 31
0.0
  0
LINE
  5
55
330
3E3
100
AcDbEntity
  8
1
100
AcDbLine
 10
1.213033999999999
 20
-112.513134
 30
0.0
 11
-16.658605
 21
-94.64149499999999
 31
0.0
  0
LINE
  5
56
330
3E3
100
AcDbEntity
  8
1
100
AcDbLine
 10
-16.565917
 20
-97.592118
 30
0.0
 11
-19.873422
 21
-97.55615400000001
 31
0.0
  0
LINE
  5
57
330
3E3
100
AcDbEntity
  8
1
100
AcDbLine
 10
-11.623477
 20
-110.191135
 30
0.0
 11
-10.053236
 21
-109.46565
 31
0.0
  0
LINE
  5
58
330
3E3
100
AcDbEntity
  8
1
100
AcDbLine
 10
-20.326256
 20
-116.659388
 30
0.0
 11
-20.287774
 21
-116.290436
 31
0.0
  0
LINE
  5
59
330
3E3
100
AcDbEntity
  8
1
100
AcDbLine
 10
-15.598459
 20
-121.320812
 30
0.0
 11
-15.659352
 21
-121.326293
 31
0.0
  0
LINE
  5
5A
330
3E3
100
AcDbEntity
  8
1
100
AcDbLine
 10
-15.010338
 20
-121.250642
 30
0.0
 11
-15.598459
 21
-121.320812
 31
0.0
  0
LINE
  5
5B
330
3E3
100
AcDbEntity
  8
1
100
AcDbLine
 10
-14.577755
 20
-121.181065
 30
0.0
 11
-15.010338
 21
-121.250642
 31
0.0
  0
LINE
  5
5C
330
3E3
100
AcDbEntity
  8
1
100
AcDbLine
 10
-14.149389
 20
-121.099017
 30
0.0
 11
-14.577755
 21
-121.181065
 31
0.0
  0
LINE
  5
5D
330
3E3
100
AcDbEntity
  8
1
100
AcDbLine
 10
-9.523868999999999
 20
-121.353221
 30
0.0
 11
-5.998048999999999
 21
-119.724217
 31
0.0
  0
LINE
  5
5E
330
3E3
100
AcDbEntity
  8
1
100
AcDbLine
 10
0.0
 20
-92.348464
 30
0.0
 11
0.0
 21
0.0
 31
0.0
  0
LINE
  5
5F
330
3E3
100
AcDbEntity
  8
1
100
AcDbLine
 10
0.0
 20
0.0
 30
0.0
 11
-19.873422
 21
0.0
 31
0.0
  0
LINE
  5
60
330
3E3
100
AcDbEntity
  8
1
100
AcDbLine
 10
1.650018999999999
 20
-92.79058499999999
 30
0.0
 11
-0.000022
 21
-92.348458
 31
0.0
  0
LINE
  5
61
330
3E3
100
AcDbEntity
  8
1
100
AcDbLine
 10
-1.940338
 20
-110.011443
 30
0.0
 11
0.887193
 21
-112.838974
 31
0.0
  0
LINE
  5
62
330
3E3
100
AcDbEntity
  8
1
100
AcDbLine
 10
-9.007992999999999
 20
-102.936961
 30
0.0
 11
-11.83642
 21
-100.108534
 31
0.0
  0
LINE
  5
63
330
3E3
100
AcDbEntity
  8
1
100
AcDbLine
 10
-2.154042
 20
-110.225146
 30
0.0
 11
-9.225108999999999
 21
-103.154078
 31
0.0
  0
LINE
  5
64
330
3E3
100
AcDbEntity
  8
1
100
AcDbLine
 10
-12.135092
 20
-100.405415
 30
0.0
 11
-13.75878
 21
-98.781727
 31
0.0
  0
LINE
  5
65
330
3E3
100
AcDbEntity
  8
1
100
AcDbLine
 10
-19.873422
 20
-92.348458
 30
0.0
 11
0.0
 21
-92.348458
 31
0.0
  0
LINE
  5
66
330
3E3
100
AcDbEntity
  8
1
100
AcDbLine
 10
-19.873422
 20
-92.348458
 30
0.0
 11
-19.873422
 21
-94.553437
 31
0.0
  0
LINE
  5
67
330
3E3
100
AcDbEntity
  8
1
100
AcDbLine
 10
1.650018999999999
 20
-112.076149
 30
0.0
 11
1.650018999999999
 21
-92.79058499999999
 31
0.0
  0
LINE
  5
68
330
3E3
100
AcDbEntity
  8
1
100
AcDbLine
 10
-16.658605
 20
-94.64149499999999
 30
0.0
 11
1.650018999999999
 21
-94.64149499999999
 31
0.0
  0
LINE
  5
69
330
3E3
100
AcDbEntity
  8
1
100
AcDbLine
 10
-19.873422
 20
-94.553437
 30
0.0
 11
-19.873422
 21
-104.206681
 31
0.0
  0
LINE
  5
6A
330
3E3
100
AcDbEntity
  8
1
100
AcDbLine
 10
-17.750169
 20
-106.022283
 30
0.0
 11
-21.394867
 21
-112.375291
 31
0.0
  0
LINE
  5
6B
330
3E3
100
AcDbEntity
  8
1
100
AcDbLine
 10
-5.998048999999999
 20
-119.724217
 30
0.0
 11
1.213033999999999
 21
-112.513134
 31
0.0
  0
LINE
  5
6C
330
3E3
100
AcDbEntity
  8
1
100
AcDbLine
 10
-16.345915
 20
-96.737023
 30
0.0
 11
-16.345907
 21
-96.73702400000001
 31
0.0
  0
LINE
  5
6D
330
3E3
100
AcDbEntity
  8
1
100
AcDbLine
 10
-11.765413
 20
-111.920693
 30
0.0
 11
-11.623477
 21
-110.191135
 31
0.0
  0
LINE
  5
6E
330
3E3
100
AcDbEntity
  8
1
100
AcDbLine
 10
-1.936925
 20
-110.008029
 30
0.0
 11
-2.292384999999999
 21
-110.36349
 31
0.0
  0
LINE
  5
6F
330
3E3
100
AcDbEntity
  8
1
100
AcDbLine
 10
-1.654924
 20
-110.433135
 30
0.0
 11
-1.519689999999999
 21
-110.297901
 31
0.0
  0
LINE
  5
70
330
3E3
100
AcDbEntity
  8
1
100
AcDbLine
 10
-8.766864999999999
 20
-112.19928
 30
0.0
 11
-8.62493
 21
-110.469722
 31
0.0
  0
LINE
  5
71
330
3E3
100
AcDbEntity
  8
1
100
AcDbLine
 10
-19.873422
 20
-96.36364499999999
 30
0.0
 11
-16.390585
 21
-96.75982799999999
 31
0.0
  0
LINE
  5
72
330
3E3
100
AcDbEntity
  8
1
100
AcDbLine
 10
-19.873422
 20
-92.348458
 30
0.0
 11
-19.873422
 21
0.0
 31
0.0
  0
LINE
  5
73
330
3E3
100
AcDbEntity
  8
1
100
AcDbLine
 10
-9.433099
 20
-102.65496
 30
0.0
 11
-14.084258
 21
-107.30612
 31
0.0
  0
LINE
  5
74
330
3E3
100
AcDbEntity
  8
1
100
AcDbLine
 10
-6.306083999999999
 20
-115.084295
 30
0.0
 11
-1.70499
 21
-110.483201
 31
0.0
  0
LINE
  5
75
330
3E3
100
AcDbEntity
  8
1
100
AcDbLine
 10
1.213033999999999
 20
-112.513134
 30
0.0
 11
1.650018999999999
 21
-112.076149
 31
0.0
  0
LINE
  5
76
330
3E3
100
AcDbEntity
  8
1
100
AcDbLine
 10
-9.007992999999999
 20
-102.936961
 30
0.0
 11
-9.363452999999999
 21
-103.292422
 31
0.0
  0
LINE
  5
77
330
3E3
100
AcDbEntity
  8
1
100
AcDbLine
 10
-9.433099
 20
-102.65496
 30
0.0
 11
-9.297864
 21
-102.519726
 31
0.0
  0
LINE
  5
78
330
3E3
100
AcDbEntity
  8
1
100
AcDbLine
 10
-19.873422
 20
-94.553437
 30
0.0
 11
-16.658605
 21
-94.64149499999999
 31
0.0
  0
LINE
  5
79
330
3E3
100
AcDbEntity
  8
1
100
AcDbLine
 10
-15.815032
 20
-125.253749
 30
0.0
 11
-16.322898
 21
-125.46181
 31
0.0
  0
LINE
  5
7A
330
3E3
100
AcDbEntity
  8
1
100
AcDbLine
 10
-16.322898
 20
-125.46181
 30
0.0
 11
-16.847449
 21
-125.624615
 31
0.0
  0
LINE
  5
7B
330
3E3
100
AcDbEntity
  8
1
100
AcDbLine
 10
-16.847449
 20
-125.624615
 30
0.0
 11
-17.384694
 21
-125.740925
 31
0.0
  0
LINE
  5
7C
330
3E3
100
AcDbEntity
  8
1
100
AcDbLine
 10
-17.384694
 20
-125.740925
 30
0.0
 11
-17.930543
 21
-125.809855
 31
0.0
  0
LINE
  5
7D
330
3E3
100
AcDbEntity
  8
1
100
AcDbLine
 10
-9.951363
 20
-108.224283
 30
0.0
 11
-9.661057000000001
 21
-108.265669
 31
0.0
  0
LINE
  5
7E
330
3E3
100
AcDbEntity
  8
1
100
AcDbLine
 10
-9.661057000000001
 20
-108.265669
 30
0.0
 11
-9.375894999999999
 21
-108.335269
 31
0.0
  0
LINE
  5
7F
330
3E3
100
AcDbEntity
  8
1
100
AcDbLine
 10
-9.375894999999999
 20
-108.335269
 30
0.0
 11
-9.098622999999999
 21
-108.432411
 31
0.0
  0
LINE
  5
80
330
3E3
100
AcDbEntity
  8
1
100
AcDbLine
 10
-9.098622999999999
 20
-108.432411
 30
0.0
 11
-8.831910999999999
 21
-108.556161
 31
0.0
  0
LINE
  5
81
330
3E3
100
AcDbEntity
  8
1
100
AcDbLine
 10
-8.831910999999999
 20
-108.556161
 30
0.0
 11
-8.578327999999999
 21
-108.705326
 31
0.0
  0
LINE
  5
82
330
3E3
100
AcDbEntity
  8
1
100
AcDbLine
 10
-8.578327999999999
 20
-108.705326
 30
0.0
 11
-8.340315999999999
 21
-108.87847
 31
0.0
  0
LINE
  5
83
330
3E3
100
AcDbEntity
  8
1
100
AcDbLine
 10
-8.340315999999999
 20
-108.87847
 30
0.0
 11
-8.120167999999999
 21
-109.073925
 31
0.0
  0
LINE
  5
84
330
3E3
100
AcDbEntity
  8
1
100
AcDbLine
 10
-8.120167999999999
 20
-109.073925
 30
0.0
 11
-7.920002999999999
 21
-109.28981
 31
0.0
  0
LINE
  5
85
330
3E3
100
AcDbEntity
  8
1
100
AcDbLine
 10
-7.920002999999999
 20
-109.28981
 30
0.0
 11
-7.741749
 21
-109.524044
 31
0.0
  0
LINE
  5
86
330
3E3
100
AcDbEntity
  8
1
100
AcDbLine
 10
-7.741749
 20
-109.524044
 30
0.0
 11
-7.587122999999999
 21
-109.774373
 31
0.0
  0
LINE
  5
87
330
3E3
100
AcDbEntity
  8
1
100
AcDbLine
 10
-7.587122999999999
 20
-109.774373
 30
0.0
 11
-7.457613
 21
-110.038385
 31
0.0
  0
LINE
  5
88
330
3E3
100
AcDbEntity
  8
1
100
AcDbLine
 10
-7.457613
 20
-110.038385
 30
0.0
 11
-7.354467999999998
 21
-110.313538
 31
0.0
  0
LINE
  5
89
330
3E3
100
AcDbEntity
  8
1
100
AcDbLine
 10
-7.354467999999998
 20
-110.313538
 30
0.0
 11
-7.278680999999999
 21
-110.597182
 31
0.0
  0
LINE
  5
8A
330
3E3
100
AcDbEntity
  8
1
100
AcDbLine
 10
-7.278680999999999
 20
-110.597182
 30
0.0
 11
-7.230980999999999
 21
-110.886586
 31
0.0
  0
LINE
  5
8B
330
3E3
100
AcDbEntity
  8
1
100
AcDbLine
 10
-7.230980999999999
 20
-110.886586
 30
0.0
 11
-7.211827
 21
-111.178961
 31
0.0
  0
LINE
  5
8C
330
3E3
100
AcDbEntity
  8
1
100
AcDbLine
 10
-7.211827
 20
-111.178961
 30
0.0
 11
-7.221404999999999
 21
-111.471493
 31
0.0
  0
LINE
  5
8D
330
3E3
100
AcDbEntity
  8
1
100
AcDbLine
 10
-7.221404999999999
 20
-111.471493
 30
0.0
 11
-7.259622
 21
-111.761364
 31
0.0
  0
LINE
  5
8E
330
3E3
100
AcDbEntity
  8
1
100
AcDbLine
 10
-7.259622
 20
-111.761364
 30
0.0
 11
-7.32611
 21
-112.045783
 31
0.0
  0
LINE
  5
8F
330
3E3
100
AcDbEntity
  8
1
100
AcDbLine
 10
-7.32611
 20
-112.045783
 30
0.0
 11
-7.420227999999999
 21
-112.32201
 31
0.0
  0
LINE
  5
90
330
3E3
100
AcDbEntity
  8
1
100
AcDbLine
 10
-7.420227999999999
 20
-112.32201
 30
0.0
 11
-7.541071
 21
-112.587386
 31
0.0
  0
LINE
  5
91
330
3E3
100
AcDbEntity
  8
1
100
AcDbLine
 10
-7.541071
 20
-112.587386
 30
0.0
 11
-7.687474
 21
-112.839354
 31
0.0
  0
LINE
  5
92
330
3E3
100
AcDbEntity
  8
1
100
AcDbLine
 10
-7.687474
 20
-112.839354
 30
0.0
 11
-7.858027
 21
-113.075488
 31
0.0
  0
LINE
  5
93
330
3E3
100
AcDbEntity
  8
1
100
AcDbLine
 10
-7.858027
 20
-113.075488
 30
0.0
 11
-8.051088999999999
 21
-113.293514
 31
0.0
  0
LINE
  5
94
330
3E3
100
AcDbEntity
  8
1
100
AcDbLine
 10
-8.051088999999999
 20
-113.293514
 30
0.0
 11
-8.264799
 21
-113.491332
 31
0.0
  0
LINE
  5
95
330
3E3
100
AcDbEntity
  8
1
100
AcDbLine
 10
-8.264799
 20
-113.491332
 30
0.0
 11
-8.497099999999999
 21
-113.667037
 31
0.0
  0
LINE
  5
96
330
3E3
100
AcDbEntity
  8
1
100
AcDbLine
 10
-8.497099999999999
 20
-113.667037
 30
0.0
 11
-8.745753999999999
 21
-113.818937
 31
0.0
  0
LINE
  5
97
330
3E3
100
AcDbEntity
  8
1
100
AcDbLine
 10
-8.745753999999999
 20
-113.818937
 30
0.0
 11
-9.008366999999999
 21
-113.945569
 31
0.0
  0
LINE
  5
98
330
3E3
100
AcDbEntity
  8
1
100
AcDbLine
 10
-9.008366999999999
 20
-113.945569
 30
0.0
 11
-9.282408999999999
 21
-114.045714
 31
0.0
  0
LINE
  5
99
330
3E3
100
AcDbEntity
  8
1
100
AcDbLine
 10
-9.282408999999999
 20
-114.045714
 30
0.0
 11
-9.565241999999999
 21
-114.118407
 31
0.0
  0
LINE
  5
9A
330
3E3
100
AcDbEntity
  8
1
100
AcDbLine
 10
-9.565241999999999
 20
-114.118407
 30
0.0
 11
-9.854141
 21
-114.162947
 31
0.0
  0
LINE
  5
9B
330
3E3
100
AcDbEntity
  8
1
100
AcDbLine
 10
-9.854141
 20
-114.162947
 30
0.0
 11
-10.146325
 21
-114.178907
 31
0.0
  0
LINE
  5
9C
330
3E3
100
AcDbEntity
  8
1
100
AcDbLine
 10
-10.146325
 20
-114.178907
 30
0.0
 11
-10.438979
 21
-114.166132
 31
0.0
  0
LINE
  5
9D
330
3E3
100
AcDbEntity
  8
1
100
AcDbLine
 10
-10.438979
 20
-114.166132
 30
0.0
 11
-10.729285
 21
-114.124746
 31
0.0
  0
LINE
  5
9E
330
3E3
100
AcDbEntity
  8
1
100
AcDbLine
 10
-10.729285
 20
-114.124746
 30
0.0
 11
-11.014447
 21
-114.055146
 31
0.0
  0
LINE
  5
9F
330
3E3
100
AcDbEntity
  8
1
100
AcDbLine
 10
-11.014447
 20
-114.055146
 30
0.0
 11
-11.291719
 21
-113.958004
 31
0.0
  0
LINE
  5
A0
330
3E3
100
AcDbEntity
  8
1
100
AcDbLine
 10
-11.291719
 20
-113.958004
 30
0.0
 11
-11.558431
 21
-113.834254
 31
0.0
  0
LINE
  5
A1
330
3E3
100
AcDbEntity
  8
1
100
AcDbLine
 10
-11.558431
 20
-113.834254
 30
0.0
 11
-11.812014
 21
-113.685089
 31
0.0
  0
LINE
  5
A2
330
3E3
100
AcDbEntity
  8
1
100
AcDbLine
 10
-11.812014
 20
-113.685089
 30
0.0
 11
-12.050026
 21
-113.511945
 31
0.0
  0
LINE
  5
A3
330
3E3
100
AcDbEntity
  8
1
100
AcDbLine
 10
-12.050026
 20
-113.511945
 30
0.0
 11
-12.270174
 21
-113.31649
 31
0.0
  0
LINE
  5
A4
330
3E3
100
AcDbEntity
  8
1
100
AcDbLine
 10
-12.270174
 20
-113.31649
 30
0.0
 11
-12.470339
 21
-113.100606
 31
0.0
  0
LINE
  5
A5
330
3E3
100
AcDbEntity
  8
1
100
AcDbLine
 10
-12.470339
 20
-113.100606
 30
0.0
 11
-12.648593
 21
-112.866371
 31
0.0
  0
LINE
  5
A6
330
3E3
100
AcDbEntity
  8
1
100
AcDbLine
 10
-12.648593
 20
-112.866371
 30
0.0
 11
-12.80322
 21
-112.616042
 31
0.0
  0
LINE
  5
A7
330
3E3
100
AcDbEntity
  8
1
100
AcDbLine
 10
-12.80322
 20
-112.616042
 30
0.0
 11
-12.932729
 21
-112.35203
 31
0.0
  0
LINE
  5
A8
330
3E3
100
AcDbEntity
  8
1
100
AcDbLine
 10
-12.932729
 20
-112.35203
 30
0.0
 11
-13.035874
 21
-112.076877
 31
0.0
  0
LINE
  5
A9
330
3E3
100
AcDbEntity
  8
1
100
AcDbLine
 10
-13.035874
 20
-112.076877
 30
0.0
 11
-13.111662
 21
-111.793233
 31
0.0
  0
LINE
  5
AA
330
3E3
100
AcDbEntity
  8
1
100
AcDbLine
 10
-13.111662
 20
-111.793233
 30
0.0
 11
-13.159362
 21
-111.50383
 31
0.0
  0
LINE
  5
AB
330
3E3
100
AcDbEntity
  8
1
100
AcDbLine
 10
-13.159362
 20
-111.50383
 30
0.0
 11
-13.178515
 21
-111.211454
 31
0.0
  0
LINE
  5
AC
330
3E3
100
AcDbEntity
  8
1
100
AcDbLine
 10
-13.178515
 20
-111.211454
 30
0.0
 11
-13.168937
 21
-110.918922
 31
0.0
  0
LINE
  5
AD
330
3E3
100
AcDbEntity
  8
1
100
AcDbLine
 10
-13.168937
 20
-110.918922
 30
0.0
 11
-13.13072
 21
-110.629051
 31
0.0
  0
LINE
  5
AE
330
3E3
100
AcDbEntity
  8
1
100
AcDbLine
 10
-13.13072
 20
-110.629051
 30
0.0
 11
-13.064233
 21
-110.344633
 31
0.0
  0
LINE
  5
AF
330
3E3
100
AcDbEntity
  8
1
100
AcDbLine
 10
-13.064233
 20
-110.344633
 30
0.0
 11
-12.970114
 21
-110.068405
 31
0.0
  0
LINE
  5
B0
330
3E3
100
AcDbEntity
  8
1
100
AcDbLine
 10
-12.970114
 20
-110.068405
 30
0.0
 11
-12.849272
 21
-109.80303
 31
0.0
  0
LINE
  5
B1
330
3E3
100
AcDbEntity
  8
1
100
AcDbLine
 10
-12.849272
 20
-109.80303
 30
0.0
 11
-12.702868
 21
-109.551062
 31
0.0
  0
LINE
  5
B2
330
3E3
100
AcDbEntity
  8
1
100
AcDbLine
 10
-12.702868
 20
-109.551062
 30
0.0
 11
-12.532315
 21
-109.314928
 31
0.0
  0
LINE
  5
B3
330
3E3
100
AcDbEntity
  8
1
100
AcDbLine
 10
-12.532315
 20
-109.314928
 30
0.0
 11
-12.339253
 21
-109.096902
 31
0.0
  0
LINE
  5
B4
330
3E3
100
AcDbEntity
  8
1
100
AcDbLine
 10
-12.339253
 20
-109.096902
 30
0.0
 11
-12.125543
 21
-108.899084
 31
0.0
  0
LINE
  5
B5
330
3E3
100
AcDbEntity
  8
1
100
AcDbLine
 10
-12.125543
 20
-108.899084
 30
0.0
 11
-11.893242
 21
-108.723378
 31
0.0
  0
LINE
  5
B6
330
3E3
100
AcDbEntity
  8
1
100
AcDbLine
 10
-11.893242
 20
-108.723378
 30
0.0
 11
-11.644588
 21
-108.571478
 31
0.0
  0
LINE
  5
B7
330
3E3
100
AcDbEntity
  8
1
100
AcDbLine
 10
-11.644588
 20
-108.571478
 30
0.0
 11
-11.381975
 21
-108.444846
 31
0.0
  0
LINE
  5
B8
330
3E3
100
AcDbEntity
  8
1
100
AcDbLine
 10
-11.381975
 20
-108.444846
 30
0.0
 11
-11.107933
 21
-108.344701
 31
0.0
  0
LINE
  5
B9
330
3E3
100
AcDbEntity
  8
1
100
AcDbLine
 10
-11.107933
 20
-108.344701
 30
0.0
 11
-10.8251
 21
-108.272009
 31
0.0
  0
LINE
  5
BA
330
3E3
100
AcDbEntity
  8
1
100
AcDbLine
 10
-10.8251
 20
-108.272009
 30
0.0
 11
-10.536201
 21
-108.227468
 31
0.0
  0
LINE
  5
BB
330
3E3
100
AcDbEntity
  8
1
100
AcDbLine
 10
-10.536201
 20
-108.227468
 30
0.0
 11
-10.244017
 21
-108.211508
 31
0.0
  0
LINE
  5
BC
330
3E3
100
AcDbEntity
  8
1
100
AcDbLine
 10
-10.244017
 20
-108.211508
 30
0.0
 11
-9.951363
 21
-108.224283
 31
0.0
  0
LINE
  5
BD
330
3E3
100
AcDbEntity
  8
1
100
AcDbLine
 10
-13.314857
 20
-107.243826
 30
0.0
 11
-12.955055
 21
-106.918073
 31
0.0
  0
LINE
  5
BE
330
3E3
100
AcDbEntity
  8
1
100
AcDbLine
 10
-12.955055
 20
-106.918073
 30
0.0
 11
-12.56467
 21
-106.629507
 31
0.0
  0
LINE
  5
BF
330
3E3
100
AcDbEntity
  8
1
100
AcDbLine
 10
-12.56467
 20
-106.629507
 30
0.0
 11
-12.14746
 21
-106.380906
 31
0.0
  0
LINE
  5
C0
330
3E3
100
AcDbEntity
  8
1
100
AcDbLine
 10
-12.14746
 20
-106.380906
 30
0.0
 11
-11.707443
 21
-106.174665
 31
0.0
  0
LINE
  5
C1
330
3E3
100
AcDbEntity
  8
1
100
AcDbLine
 10
-11.707443
 20
-106.174665
 30
0.0
 11
-11.248858
 21
-106.012769
 31
0.0
  0
LINE
  5
C2
330
3E3
100
AcDbEntity
  8
1
100
AcDbLine
 10
-11.248858
 20
-106.012769
 30
0.0
 11
-10.77612
 21
-105.896779
 31
0.0
  0
LINE
  5
C3
330
3E3
100
AcDbEntity
  8
1
100
AcDbLine
 10
-10.77612
 20
-105.896779
 30
0.0
 11
-10.293783
 21
-105.82781
 31
0.0
  0
LINE
  5
C4
330
3E3
100
AcDbEntity
  8
1
100
AcDbLine
 10
-10.293783
 20
-105.82781
 30
0.0
 11
-9.806491000000001
 21
-105.806527
 31
0.0
  0
LINE
  5
C5
330
3E3
100
AcDbEntity
  8
1
100
AcDbLine
 10
-9.806491000000001
 20
-105.806527
 30
0.0
 11
-9.318937
 21
-105.833136
 31
0.0
  0
LINE
  5
C6
330
3E3
100
AcDbEntity
  8
1
100
AcDbLine
 10
-9.318937
 20
-105.833136
 30
0.0
 11
-8.835817
 21
-105.907379
 31
0.0
  0
LINE
  5
C7
330
3E3
100
AcDbEntity
  8
1
100
AcDbLine
 10
-8.835817
 20
-105.907379
 30
0.0
 11
-8.361784
 21
-106.028542
 31
0.0
  0
LINE
  5
C8
330
3E3
100
AcDbEntity
  8
1
100
AcDbLine
 10
-8.361784
 20
-106.028542
 30
0.0
 11
-7.901402
 21
-106.195458
 31
0.0
  0
LINE
  5
C9
330
3E3
100
AcDbEntity
  8
1
100
AcDbLine
 10
-7.901402
 20
-106.195458
 30
0.0
 11
-7.459105999999999
 21
-106.40652
 31
0.0
  0
LINE
  5
CA
330
3E3
100
AcDbEntity
  8
1
100
AcDbLine
 10
-7.459105999999999
 20
-106.40652
 30
0.0
 11
-7.039155
 21
-106.659694
 31
0.0
  0
LINE
  5
CB
330
3E3
100
AcDbEntity
  8
1
100
AcDbLine
 10
-7.039155
 20
-106.659694
 30
0.0
 11
-6.645592999999998
 21
-106.952543
 31
0.0
  0
LINE
  5
CC
330
3E3
100
AcDbEntity
  8
1
100
AcDbLine
 10
-6.645592999999998
 20
-106.952543
 30
0.0
 11
-6.28221
 21
-107.282247
 31
0.0
  0
LINE
  5
CD
330
3E3
100
AcDbEntity
  8
1
100
AcDbLine
 10
-6.28221
 20
-107.282247
 30
0.0
 11
-5.952506999999999
 21
-107.645629
 31
0.0
  0
LINE
  5
CE
330
3E3
100
AcDbEntity
  8
1
100
AcDbLine
 10
-5.952506999999999
 20
-107.645629
 30
0.0
 11
-5.659658
 21
-108.039191
 31
0.0
  0
LINE
  5
CF
330
3E3
100
AcDbEntity
  8
1
100
AcDbLine
 10
-5.659658
 20
-108.039191
 30
0.0
 11
-5.406483
 21
-108.459143
 31
0.0
  0
LINE
  5
D0
330
3E3
100
AcDbEntity
  8
1
100
AcDbLine
 10
-5.406483
 20
-108.459143
 30
0.0
 11
-5.195421999999999
 21
-108.901439
 31
0.0
  0
LINE
  5
D1
330
3E3
100
AcDbEntity
  8
1
100
AcDbLine
 10
-5.195421999999999
 20
-108.901439
 30
0.0
 11
-5.028506
 21
-109.361821
 31
0.0
  0
LINE
  5
D2
330
3E3
100
AcDbEntity
  8
1
100
AcDbLine
 10
-5.028506
 20
-109.361821
 30
0.0
 11
-4.907343
 21
-109.835854
 31
0.0
  0
LINE
  5
D3
330
3E3
100
AcDbEntity
  8
1
100
AcDbLine
 10
-4.907343
 20
-109.835854
 30
0.0
 11
-4.833098999999999
 21
-110.318974
 31
0.0
  0
LINE
  5
D4
330
3E3
100
AcDbEntity
  8
1
100
AcDbLine
 10
-4.833098999999999
 20
-110.318974
 30
0.0
 11
-4.806491
 21
-110.806527
 31
0.0
  0
LINE
  5
D5
330
3E3
100
AcDbEntity
  8
1
100
AcDbLine
 10
-4.806491
 20
-110.806527
 30
0.0
 11
-4.827773
 21
-111.293819
 31
0.0
  0
LINE
  5
D6
330
3E3
100
AcDbEntity
  8
1
100
AcDbLine
 10
-4.827773
 20
-111.293819
 30
0.0
 11
-4.896741999999999
 21
-111.776157
 31
0.0
  0
LINE
  5
D7
330
3E3
100
AcDbEntity
  8
1
100
AcDbLine
 10
-4.896741999999999
 20
-111.776157
 30
0.0
 11
-5.012732999999999
 21
-112.248894
 31
0.0
  0
LINE
  5
D8
330
3E3
100
AcDbEntity
  8
1
100
AcDbLine
 10
-5.012732999999999
 20
-112.248894
 30
0.0
 11
-5.174628
 21
-112.70748
 31
0.0
  0
LINE
  5
D9
330
3E3
100
AcDbEntity
  8
1
100
AcDbLine
 10
-5.174628
 20
-112.70748
 30
0.0
 11
-5.380869999999999
 21
-113.147496
 31
0.0
  0
LINE
  5
DA
330
3E3
100
AcDbEntity
  8
1
100
AcDbLine
 10
-5.380869999999999
 20
-113.147496
 30
0.0
 11
-5.629469999999999
 21
-113.564706
 31
0.0
  0
LINE
  5
DB
330
3E3
100
AcDbEntity
  8
1
100
AcDbLine
 10
-5.629469999999999
 20
-113.564706
 30
0.0
 11
-5.918036999999999
 21
-113.955092
 31
0.0
  0
LINE
  5
DC
330
3E3
100
AcDbEntity
  8
1
100
AcDbLine
 10
-5.918036999999999
 20
-113.955092
 30
0.0
 11
-6.243788999999999
 21
-114.314893
 31
0.0
  0
LINE
  5
DD
330
3E3
100
AcDbEntity
  8
1
100
AcDbLine
 10
-9.951363
 20
-108.224283
 30
0.0
 11
-9.661057000000001
 21
-108.265669
 31
0.0
  0
LINE
  5
DE
330
3E3
100
AcDbEntity
  8
1
100
AcDbLine
 10
-9.661057000000001
 20
-108.265669
 30
0.0
 11
-9.375894999999999
 21
-108.335269
 31
0.0
  0
LINE
  5
DF
330
3E3
100
AcDbEntity
  8
1
100
AcDbLine
 10
-9.375894999999999
 20
-108.335269
 30
0.0
 11
-9.098622999999999
 21
-108.432411
 31
0.0
  0
LINE
  5
E0
330
3E3
100
AcDbEntity
  8
1
100
AcDbLine
 10
-9.098622999999999
 20
-108.432411
 30
0.0
 11
-8.831910999999999
 21
-108.556161
 31
0.0
  0
LINE
  5
E1
330
3E3
100
AcDbEntity
  8
1
100
AcDbLine
 10
-8.831910999999999
 20
-108.556161
 30
0.0
 11
-8.578327999999999
 21
-108.705326
 31
0.0
  0
LINE
  5
E2
330
3E3
100
AcDbEntity
  8
1
100
AcDbLine
 10
-8.578327999999999
 20
-108.705326
 30
0.0
 11
-8.340315999999999
 21
-108.87847
 31
0.0
  0
LINE
  5
E3
330
3E3
100
AcDbEntity
  8
1
100
AcDbLine
 10
-8.340315999999999
 20
-108.87847
 30
0.0
 11
-8.120167999999999
 21
-109.073925
 31
0.0
  0
LINE
  5
E4
330
3E3
100
AcDbEntity
  8
1
100
AcDbLine
 10
-8.120167999999999
 20
-109.073925
 30
0.0
 11
-7.920002999999999
 21
-109.28981
 31
0.0
  0
LINE
  5
E5
330
3E3
100
AcDbEntity
  8
1
100
AcDbLine
 10
-7.920002999999999
 20
-109.28981
 30
0.0
 11
-7.741749
 21
-109.524044
 31
0.0
  0
LINE
  5
E6
330
3E3
100
AcDbEntity
  8
1
100
AcDbLine
 10
-7.741749
 20
-109.524044
 30
0.0
 11
-7.587122999999999
 21
-109.774373
 31
0.0
  0
LINE
  5
E7
330
3E3
100
AcDbEntity
  8
1
100
AcDbLine
 10
-7.587122999999999
 20
-109.774373
 30
0.0
 11
-7.457613
 21
-110.038385
 31
0.0
  0
LINE
  5
E8
330
3E3
100
AcDbEntity
  8
1
100
AcDbLine
 10
-7.457613
 20
-110.038385
 30
0.0
 11
-7.354467999999998
 21
-110.313538
 31
0.0
  0
LINE
  5
E9
330
3E3
100
AcDbEntity
  8
1
100
AcDbLine
 10
-7.354467999999998
 20
-110.313538
 30
0.0
 11
-7.278680999999999
 21
-110.597182
 31
0.0
  0
LINE
  5
EA
330
3E3
100
AcDbEntity
  8
1
100
AcDbLine
 10
-7.278680999999999
 20
-110.597182
 30
0.0
 11
-7.230980999999999
 21
-110.886586
 31
0.0
  0
LINE
  5
EB
330
3E3
100
AcDbEntity
  8
1
100
AcDbLine
 10
-7.230980999999999
 20
-110.886586
 30
0.0
 11
-7.211827
 21
-111.178961
 31
0.0
  0
LINE
  5
EC
330
3E3
100
AcDbEntity
  8
1
100
AcDbLine
 10
-7.211827
 20
-111.178961
 30
0.0
 11
-7.221404999999999
 21
-111.471493
 31
0.0
  0
LINE
  5
ED
330
3E3
100
AcDbEntity
  8
1
100
AcDbLine
 10
-7.221404999999999
 20
-111.471493
 30
0.0
 11
-7.259622
 21
-111.761364
 31
0.0
  0
LINE
  5
EE
330
3E3
100
AcDbEntity
  8
1
100
AcDbLine
 10
-7.259622
 20
-111.761364
 30
0.0
 11
-7.32611
 21
-112.045783
 31
0.0
  0
LINE
  5
EF
330
3E3
100
AcDbEntity
  8
1
100
AcDbLine
 10
-7.32611
 20
-112.045783
 30
0.0
 11
-7.420227999999999
 21
-112.32201
 31
0.0
  0
LINE
  5
F0
330
3E3
100
AcDbEntity
  8
1
100
AcDbLine
 10
-7.420227999999999
 20
-112.32201
 30
0.0
 11
-7.541071
 21
-112.587386
 31
0.0
  0
LINE
  5
F1
330
3E3
100
AcDbEntity
  8
1
100
AcDbLine
 10
-7.541071
 20
-112.587386
 30
0.0
 11
-7.687474
 21
-112.839354
 31
0.0
  0
LINE
  5
F2
330
3E3
100
AcDbEntity
  8
1
100
AcDbLine
 10
-7.687474
 20
-112.839354
 30
0.0
 11
-7.858027
 21
-113.075488
 31
0.0
  0
LINE
  5
F3
330
3E3
100
AcDbEntity
  8
1
100
AcDbLine
 10
-7.858027
 20
-113.075488
 30
0.0
 11
-8.051088999999999
 21
-113.293514
 31
0.0
  0
LINE
  5
F4
330
3E3
100
AcDbEntity
  8
1
100
AcDbLine
 10
-8.051088999999999
 20
-113.293514
 30
0.0
 11
-8.264799
 21
-113.491332
 31
0.0
  0
LINE
  5
F5
330
3E3
100
AcDbEntity
  8
1
100
AcDbLine
 10
-8.264799
 20
-113.491332
 30
0.0
 11
-8.497099999999999
 21
-113.667037
 31
0.0
  0
LINE
  5
F6
330
3E3
100
AcDbEntity
  8
1
100
AcDbLine
 10
-8.497099999999999
 20
-113.667037
 30
0.0
 11
-8.745753999999999
 21
-113.818937
 31
0.0
  0
LINE
  5
F7
330
3E3
100
AcDbEntity
  8
1
100
AcDbLine
 10
-8.745753999999999
 20
-113.818937
 30
0.0
 11
-9.008366999999999
 21
-113.945569
 31
0.0
  0
LINE
  5
F8
330
3E3
100
AcDbEntity
  8
1
100
AcDbLine
 10
-9.008366999999999
 20
-113.945569
 30
0.0
 11
-9.282408999999999
 21
-114.045714
 31
0.0
  0
LINE
  5
F9
330
3E3
100
AcDbEntity
  8
1
100
AcDbLine
 10
-9.282408999999999
 20
-114.045714
 30
0.0
 11
-9.565241999999999
 21
-114.118407
 31
0.0
  0
LINE
  5
FA
330
3E3
100
AcDbEntity
  8
1
100
AcDbLine
 10
-9.565241999999999
 20
-114.118407
 30
0.0
 11
-9.854141
 21
-114.162947
 31
0.0
  0
LINE
  5
FB
330
3E3
100
AcDbEntity
  8
1
100
AcDbLine
 10
-9.854141
 20
-114.162947
 30
0.0
 11
-10.146325
 21
-114.178907
 31
0.0
  0
LINE
  5
FC
330
3E3
100
AcDbEntity
  8
1
100
AcDbLine
 10
-10.146325
 20
-114.178907
 30
0.0
 11
-10.438979
 21
-114.166132
 31
0.0
  0
LINE
  5
FD
330
3E3
100
AcDbEntity
  8
1
100
AcDbLine
 10
-10.438979
 20
-114.166132
 30
0.0
 11
-10.729285
 21
-114.124746
 31
0.0
  0
LINE
  5
FE
330
3E3
100
AcDbEntity
  8
1
100
AcDbLine
 10
-10.729285
 20
-114.124746
 30
0.0
 11
-11.014447
 21
-114.055146
 31
0.0
  0
LINE
  5
FF
330
3E3
100
AcDbEntity
  8
1
100
AcDbLine
 10
-11.014447
 20
-114.055146
 30
0.0
 11
-11.291719
 21
-113.958004
 31
0.0
  0
LINE
  5
100
330
3E3
100
AcDbEntity
  8
1
100
AcDbLine
 10
-11.291719
 20
-113.958004
 30
0.0
 11
-11.558431
 21
-113.834254
 31
0.0
  0
LINE
  5
101
330
3E3
100
AcDbEntity
  8
1
100
AcDbLine
 10
-11.558431
 20
-113.834254
 30
0.0
 11
-11.812014
 21
-113.685089
 31
0.0
  0
LINE
  5
102
330
3E3
100
AcDbEntity
  8
1
100
AcDbLine
 10
-11.812014
 20
-113.685089
 30
0.0
 11
-12.050026
 21
-113.511945
 31
0.0
  0
LINE
  5
103
330
3E3
100
AcDbEntity
  8
1
100
AcDbLine
 10
-12.050026
 20
-113.511945
 30
0.0
 11
-12.270174
 21
-113.31649
 31
0.0
  0
LINE
  5
104
330
3E3
100
AcDbEntity
  8
1
100
AcDbLine
 10
-12.270174
 20
-113.31649
 30
0.0
 11
-12.470339
 21
-113.100606
 31
0.0
  0
LINE
  5
105
330
3E3
100
AcDbEntity
  8
1
100
AcDbLine
 10
-12.470339
 20
-113.100606
 30
0.0
 11
-12.648593
 21
-112.866371
 31
0.0
  0
LINE
  5
106
330
3E3
100
AcDbEntity
  8
1
100
AcDbLine
 10
-12.648593
 20
-112.866371
 30
0.0
 11
-12.80322
 21
-112.616042
 31
0.0
  0
LINE
  5
107
330
3E3
100
AcDbEntity
  8
1
100
AcDbLine
 10
-12.80322
 20
-112.616042
 30
0.0
 11
-12.932729
 21
-112.35203
 31
0.0
  0
LINE
  5
108
330
3E3
100
AcDbEntity
  8
1
100
AcDbLine
 10
-12.932729
 20
-112.35203
 30
0.0
 11
-13.035874
 21
-112.076877
 31
0.0
  0
LINE
  5
109
330
3E3
100
AcDbEntity
  8
1
100
AcDbLine
 10
-13.035874
 20
-112.076877
 30
0.0
 11
-13.111662
 21
-111.793233
 31
0.0
  0
LINE
  5
10A
330
3E3
100
AcDbEntity
  8
1
100
AcDbLine
 10
-13.111662
 20
-111.793233
 30
0.0
 11
-13.159362
 21
-111.50383
 31
0.0
  0
LINE
  5
10B
330
3E3
100
AcDbEntity
  8
1
100
AcDbLine
 10
-13.159362
 20
-111.50383
 30
0.0
 11
-13.178515
 21
-111.211454
 31
0.0
  0
LINE
  5
10C
330
3E3
100
AcDbEntity
  8
1
100
AcDbLine
 10
-13.178515
 20
-111.211454
 30
0.0
 11
-13.168937
 21
-110.918922
 31
0.0
  0
LINE
  5
10D
330
3E3
100
AcDbEntity
  8
1
100
AcDbLine
 10
-13.168937
 20
-110.918922
 30
0.0
 11
-13.13072
 21
-110.629051
 31
0.0
  0
LINE
  5
10E
330
3E3
100
AcDbEntity
  8
1
100
AcDbLine
 10
-13.13072
 20
-110.629051
 30
0.0
 11
-13.064233
 21
-110.344633
 31
0.0
  0
LINE
  5
10F
330
3E3
100
AcDbEntity
  8
1
100
AcDbLine
 10
-13.064233
 20
-110.344633
 30
0.0
 11
-12.970114
 21
-110.068405
 31
0.0
  0
LINE
  5
110
330
3E3
100
AcDbEntity
  8
1
100
AcDbLine
 10
-12.970114
 20
-110.068405
 30
0.0
 11
-12.849272
 21
-109.80303
 31
0.0
  0
LINE
  5
111
330
3E3
100
AcDbEntity
  8
1
100
AcDbLine
 10
-12.849272
 20
-109.80303
 30
0.0
 11
-12.702868
 21
-109.551062
 31
0.0
  0
LINE
  5
112
330
3E3
100
AcDbEntity
  8
1
100
AcDbLine
 10
-12.702868
 20
-109.551062
 30
0.0
 11
-12.532315
 21
-109.314928
 31
0.0
  0
LINE
  5
113
330
3E3
100
AcDbEntity
  8
1
100
AcDbLine
 10
-12.532315
 20
-109.314928
 30
0.0
 11
-12.339253
 21
-109.096902
 31
0.0
  0
LINE
  5
114
330
3E3
100
AcDbEntity
  8
1
100
AcDbLine
 10
-12.339253
 20
-109.096902
 30
0.0
 11
-12.125543
 21
-108.899084
 31
0.0
  0
LINE
  5
115
330
3E3
100
AcDbEntity
  8
1
100
AcDbLine
 10
-12.125543
 20
-108.899084
 30
0.0
 11
-11.893242
 21
-108.723378
 31
0.0
  0
LINE
  5
116
330
3E3
100
AcDbEntity
  8
1
100
AcDbLine
 10
-11.893242
 20
-108.723378
 30
0.0
 11
-11.644588
 21
-108.571478
 31
0.0
  0
LINE
  5
117
330
3E3
100
AcDbEntity
  8
1
100
AcDbLine
 10
-11.644588
 20
-108.571478
 30
0.0
 11
-11.381975
 21
-108.444846
 31
0.0
  0
LINE
  5
118
330
3E3
100
AcDbEntity
  8
1
100
AcDbLine
 10
-11.381975
 20
-108.444846
 30
0.0
 11
-11.107933
 21
-108.344701
 31
0.0
  0
LINE
  5
119
330
3E3
100
AcDbEntity
  8
1
100
AcDbLine
 10
-11.107933
 20
-108.344701
 30
0.0
 11
-10.8251
 21
-108.272009
 31
0.0
  0
LINE
  5
11A
330
3E3
100
AcDbEntity
  8
1
100
AcDbLine
 10
-10.8251
 20
-108.272009
 30
0.0
 11
-10.536201
 21
-108.227468
 31
0.0
  0
LINE
  5
11B
330
3E3
100
AcDbEntity
  8
1
100
AcDbLine
 10
-10.536201
 20
-108.227468
 30
0.0
 11
-10.244017
 21
-108.211508
 31
0.0
  0
LINE
  5
11C
330
3E3
100
AcDbEntity
  8
1
100
AcDbLine
 10
-10.244017
 20
-108.211508
 30
0.0
 11
-9.951363
 21
-108.224283
 31
0.0
  0
LINE
  5
11D
330
3E3
100
AcDbEntity
  8
1
100
AcDbLine
 10
-6.306083999999999
 20
-115.084295
 30
0.0
 11
-6.701866
 21
-115.442623
 31
0.0
  0
LINE
  5
11E
330
3E3
100
AcDbEntity
  8
1
100
AcDbLine
 10
-6.701866
 20
-115.442623
 30
0.0
 11
-7.131289999999999
 21
-115.760045
 31
0.0
  0
LINE
  5
11F
330
3E3
100
AcDbEntity
  8
1
100
AcDbLine
 10
-7.131289999999999
 20
-115.760045
 30
0.0
 11
-7.590221
 21
-116.033506
 31
0.0
  0
LINE
  5
120
330
3E3
100
AcDbEntity
  8
1
100
AcDbLine
 10
-7.590221
 20
-116.033506
 30
0.0
 11
-8.074239
 21
-116.260372
 31
0.0
  0
LINE
  5
121
330
3E3
100
AcDbEntity
  8
1
100
AcDbLine
 10
-8.074239
 20
-116.260372
 30
0.0
 11
-8.578682999999999
 21
-116.438457
 31
0.0
  0
LINE
  5
122
330
3E3
100
AcDbEntity
  8
1
100
AcDbLine
 10
-8.578682999999999
 20
-116.438457
 30
0.0
 11
-9.098694
 21
-116.566046
 31
0.0
  0
LINE
  5
123
330
3E3
100
AcDbEntity
  8
1
100
AcDbLine
 10
-9.098694
 20
-116.566046
 30
0.0
 11
-9.629265
 21
-116.641912
 31
0.0
  0
LINE
  5
124
330
3E3
100
AcDbEntity
  8
1
100
AcDbLine
 10
-9.629265
 20
-116.641912
 30
0.0
 11
-10.165286
 21
-116.665323
 31
0.0
  0
LINE
  5
125
330
3E3
100
AcDbEntity
  8
1
100
AcDbLine
 10
-10.165286
 20
-116.665323
 30
0.0
 11
-10.701595
 21
-116.636054
 31
0.0
  0
LINE
  5
126
330
3E3
100
AcDbEntity
  8
1
100
AcDbLine
 10
-10.701595
 20
-116.636054
 30
0.0
 11
-11.233027
 21
-116.554386
 31
0.0
  0
LINE
  5
127
330
3E3
100
AcDbEntity
  8
1
100
AcDbLine
 10
-11.233027
 20
-116.554386
 30
0.0
 11
-11.754464
 21
-116.421107
 31
0.0
  0
LINE
  5
128
330
3E3
100
AcDbEntity
  8
1
100
AcDbLine
 10
-11.754464
 20
-116.421107
 30
0.0
 11
-12.260884
 21
-116.237499
 31
0.0
  0
LINE
  5
129
330
3E3
100
AcDbEntity
  8
1
100
AcDbLine
 10
-12.260884
 20
-116.237499
 30
0.0
 11
-12.74741
 21
-116.005331
 31
0.0
  0
LINE
  5
12A
330
3E3
100
AcDbEntity
  8
1
100
AcDbLine
 10
-12.74741
 20
-116.005331
 30
0.0
 11
-13.209356
 21
-115.726839
 31
0.0
  0
LINE
  5
12B
330
3E3
100
AcDbEntity
  8
1
100
AcDbLine
 10
-13.209356
 20
-115.726839
 30
0.0
 11
-13.642274
 21
-115.404705
 31
0.0
  0
LINE
  5
12C
330
3E3
100
AcDbEntity
  8
1
100
AcDbLine
 10
-13.642274
 20
-115.404705
 30
0.0
 11
-14.041995
 21
-115.042032
 31
0.0
  0
LINE
  5
12D
330
3E3
100
AcDbEntity
  8
1
100
AcDbLine
 10
-14.041995
 20
-115.042032
 30
0.0
 11
-14.404669
 21
-114.642311
 31
0.0
  0
LINE
  5
12E
330
3E3
100
AcDbEntity
  8
1
100
AcDbLine
 10
-14.404669
 20
-114.642311
 30
0.0
 11
-14.726803
 21
-114.209393
 31
0.0
  0
LINE
  5
12F
330
3E3
100
AcDbEntity
  8
1
100
AcDbLine
 10
-14.726803
 20
-114.209393
 30
0.0
 11
-15.005295
 21
-113.747446
 31
0.0
  0
LINE
  5
130
330
3E3
100
AcDbEntity
  8
1
100
AcDbLine
 10
-15.005295
 20
-113.747446
 30
0.0
 11
-15.237462
 21
-113.26092
 31
0.0
  0
LINE
  5
131
330
3E3
100
AcDbEntity
  8
1
100
AcDbLine
 10
-15.237462
 20
-113.26092
 30
0.0
 11
-15.42107
 21
-112.7545
 31
0.0
  0
LINE
  5
132
330
3E3
100
AcDbEntity
  8
1
100
AcDbLine
 10
-15.42107
 20
-112.7545
 30
0.0
 11
-15.55435
 21
-112.233064
 31
0.0
  0
LINE
  5
133
330
3E3
100
AcDbEntity
  8
1
100
AcDbLine
 10
-15.55435
 20
-112.233064
 30
0.0
 11
-15.636017
 21
-111.701632
 31
0.0
  0
LINE
  5
134
330
3E3
100
AcDbEntity
  8
1
100
AcDbLine
 10
-15.636017
 20
-111.701632
 30
0.0
 11
-15.665286
 21
-111.165323
 31
0.0
  0
LINE
  5
135
330
3E3
100
AcDbEntity
  8
1
100
AcDbLine
 10
-15.665286
 20
-111.165323
 30
0.0
 11
-15.641876
 21
-110.629302
 31
0.0
  0
LINE
  5
136
330
3E3
100
AcDbEntity
  8
1
100
AcDbLine
 10
-15.641876
 20
-110.629302
 30
0.0
 11
-15.56601
 21
-110.098731
 31
0.0
  0
LINE
  5
137
330
3E3
100
AcDbEntity
  8
1
100
AcDbLine
 10
-15.56601
 20
-110.098731
 30
0.0
 11
-15.43842
 21
-109.578719
 31
0.0
  0
LINE
  5
138
330
3E3
100
AcDbEntity
  8
1
100
AcDbLine
 10
-15.43842
 20
-109.578719
 30
0.0
 11
-15.260335
 21
-109.074275
 31
0.0
  0
LINE
  5
139
330
3E3
100
AcDbEntity
  8
1
100
AcDbLine
 10
-15.260335
 20
-109.074275
 30
0.0
 11
-15.03347
 21
-108.590257
 31
0.0
  0
LINE
  5
13A
330
3E3
100
AcDbEntity
  8
1
100
AcDbLine
 10
-15.03347
 20
-108.590257
 30
0.0
 11
-14.760009
 21
-108.131326
 31
0.0
  0
LINE
  5
13B
330
3E3
100
AcDbEntity
  8
1
100
AcDbLine
 10
-14.760009
 20
-108.131326
 30
0.0
 11
-14.442586
 21
-107.701902
 31
0.0
  0
LINE
  5
13C
330
3E3
100
AcDbEntity
  8
1
100
AcDbLine
 10
-14.442586
 20
-107.701902
 30
0.0
 11
-14.084258
 21
-107.30612
 31
0.0
  0
LINE
  5
13D
330
3E3
100
AcDbEntity
  8
1
100
AcDbLine
 10
-24.809819
 20
-118.93058
 30
0.0
 11
-24.740889
 21
-118.38473
 31
0.0
  0
LINE
  5
13E
330
3E3
100
AcDbEntity
  8
1
100
AcDbLine
 10
-24.740889
 20
-118.38473
 30
0.0
 11
-24.624579
 21
-117.847485
 31
0.0
  0
LINE
  5
13F
330
3E3
100
AcDbEntity
  8
1
100
AcDbLine
 10
-24.624579
 20
-117.847485
 30
0.0
 11
-24.461774
 21
-117.322934
 31
0.0
  0
LINE
  5
140
330
3E3
100
AcDbEntity
  8
1
100
AcDbLine
 10
-24.461774
 20
-117.322934
 30
0.0
 11
-24.253713
 21
-116.815069
 31
0.0
  0
LINE
  5
141
330
3E3
100
AcDbEntity
  8
1
100
AcDbLine
 10
-16.565889
 20
-97.592118
 30
0.0
 11
-16.178622
 21
-97.61522200000001
 31
0.0
  0
LINE
  5
142
330
3E3
100
AcDbEntity
  8
1
100
AcDbLine
 10
-16.178622
 20
-97.61522200000001
 30
0.0
 11
-15.795031
 21
-97.67589200000001
 31
0.0
  0
LINE
  5
143
330
3E3
100
AcDbEntity
  8
1
100
AcDbLine
 10
-15.795031
 20
-97.67589200000001
 30
0.0
 11
-15.41876
 21
-97.773552
 31
0.0
  0
LINE
  5
144
330
3E3
100
AcDbEntity
  8
1
100
AcDbLine
 10
-15.41876
 20
-97.773552
 30
0.0
 11
-15.053383
 21
-97.90727400000001
 31
0.0
  0
LINE
  5
145
330
3E3
100
AcDbEntity
  8
1
100
AcDbLine
 10
-15.053383
 20
-97.90727400000001
 30
0.0
 11
-14.70237
 21
-98.07578800000001
 31
0.0
  0
LINE
  5
146
330
3E3
100
AcDbEntity
  8
1
100
AcDbLine
 10
-14.70237
 20
-98.07578800000001
 30
0.0
 11
-14.369056
 21
-98.277493
 31
0.0
  0
LINE
  5
147
330
3E3
100
AcDbEntity
  8
1
100
AcDbLine
 10
-14.369056
 20
-98.277493
 30
0.0
 11
-14.056607
 21
-98.510474
 31
0.0
  0
LINE
  5
148
330
3E3
100
AcDbEntity
  8
1
100
AcDbLine
 10
-14.056607
 20
-98.510474
 30
0.0
 11
-13.767989
 21
-98.77251800000001
 31
0.0
  0
LINE
  5
149
330
3E3
100
AcDbEntity
  8
1
100
AcDbLine
 10
-21.506178
 20
-110.868299
 30
0.0
 11
-21.417114
 21
-110.720684
 31
0.0
  0
LINE
  5
14A
330
3E3
100
AcDbEntity
  8
1
100
AcDbLine
 10
-21.417114
 20
-110.720684
 30
0.0
 11
-21.298
 21
-110.596196
 31
0.0
  0
LINE
  5
14B
330
3E3
100
AcDbEntity
  8
1
100
AcDbLine
 10
-21.298
 20
-110.596196
 30
0.0
 11
-21.154481
 21
-110.500736
 31
0.0
  0
LINE
  5
14C
330
3E3
100
AcDbEntity
  8
1
100
AcDbLine
 10
-21.154481
 20
-110.500736
 30
0.0
 11
-20.993363
 21
-110.438829
 31
0.0
  0
LINE
  5
14D
330
3E3
100
AcDbEntity
  8
1
100
AcDbLine
 10
-20.993363
 20
-110.438829
 30
0.0
 11
-20.822283
 21
-110.41341
 31
0.0
  0
LINE
  5
14E
330
3E3
100
AcDbEntity
  8
1
100
AcDbLine
 10
-20.822283
 20
-110.41341
 30
0.0
 11
-20.649351
 21
-110.425685
 31
0.0
  0
LINE
  5
14F
330
3E3
100
AcDbEntity
  8
1
100
AcDbLine
 10
-20.649351
 20
-110.425685
 30
0.0
 11
-20.482767
 21
-110.475072
 31
0.0
  0
LINE
  5
150
330
3E3
100
AcDbEntity
  8
1
100
AcDbLine
 10
-20.482767
 20
-110.475072
 30
0.0
 11
-20.330427
 21
-110.559228
 31
0.0
  0
LINE
  5
151
330
3E3
100
AcDbEntity
  8
1
100
AcDbLine
 10
-18.287793
 20
-116.742521
 30
0.0
 11
-18.016841
 21
-116.781148
 31
0.0
  0
LINE
  5
152
330
3E3
100
AcDbEntity
  8
1
100
AcDbLine
 10
-18.016841
 20
-116.781148
 30
0.0
 11
-17.750689
 21
-116.846108
 31
0.0
  0
LINE
  5
153
330
3E3
100
AcDbEntity
  8
1
100
AcDbLine
 10
-17.750689
 20
-116.846108
 30
0.0
 11
-17.491902
 21
-116.936774
 31
0.0
  0
LINE
  5
154
330
3E3
100
AcDbEntity
  8
1
100
AcDbLine
 10
-17.491902
 20
-116.936774
 30
0.0
 11
-17.242971
 21
-117.052273
 31
0.0
  0
LINE
  5
155
330
3E3
100
AcDbEntity
  8
1
100
AcDbLine
 10
-17.242971
 20
-117.052273
 30
0.0
 11
-17.006294
 21
-117.191494
 31
0.0
  0
LINE
  5
156
330
3E3
100
AcDbEntity
  8
1
100
AcDbLine
 10
-17.006294
 20
-117.191494
 30
0.0
 11
-16.784149
 21
-117.353095
 31
0.0
  0
LINE
  5
157
330
3E3
100
AcDbEntity
  8
1
100
AcDbLine
 10
-16.784149
 20
-117.353095
 30
0.0
 11
-16.578677
 21
-117.53552
 31
0.0
  0
LINE
  5
158
330
3E3
100
AcDbEntity
  8
1
100
AcDbLine
 10
-16.578677
 20
-117.53552
 30
0.0
 11
-16.391857
 21
-117.737012
 31
0.0
  0
LINE
  5
159
330
3E3
100
AcDbEntity
  8
1
100
AcDbLine
 10
-16.391857
 20
-117.737012
 30
0.0
 11
-16.225486
 21
-117.955631
 31
0.0
  0
LINE
  5
15A
330
3E3
100
AcDbEntity
  8
1
100
AcDbLine
 10
-16.225486
 20
-117.955631
 30
0.0
 11
-16.081169
 21
-118.189271
 31
0.0
  0
LINE
  5
15B
330
3E3
100
AcDbEntity
  8
1
100
AcDbLine
 10
-16.081169
 20
-118.189271
 30
0.0
 11
-15.960293
 21
-118.435683
 31
0.0
  0
LINE
  5
15C
330
3E3
100
AcDbEntity
  8
1
100
AcDbLine
 10
-15.960293
 20
-118.435683
 30
0.0
 11
-15.864025
 21
-118.692492
 31
0.0
  0
LINE
  5
15D
330
3E3
100
AcDbEntity
  8
1
100
AcDbLine
 10
-15.864025
 20
-118.692492
 30
0.0
 11
-15.793289
 21
-118.957227
 31
0.0
  0
LINE
  5
15E
330
3E3
100
AcDbEntity
  8
1
100
AcDbLine
 10
-15.793289
 20
-118.957227
 30
0.0
 11
-15.748769
 21
-119.227336
 31
0.0
  0
LINE
  5
15F
330
3E3
100
AcDbEntity
  8
1
100
AcDbLine
 10
-15.748769
 20
-119.227336
 30
0.0
 11
-15.730893
 21
-119.50022
 31
0.0
  0
LINE
  5
160
330
3E3
100
AcDbEntity
  8
1
100
AcDbLine
 10
-15.730893
 20
-119.50022
 30
0.0
 11
-15.739832
 21
-119.77325
 31
0.0
  0
LINE
  5
161
330
3E3
100
AcDbEntity
  8
1
100
AcDbLine
 10
-15.739832
 20
-119.77325
 30
0.0
 11
-15.775501
 21
-120.043796
 31
0.0
  0
LINE
  5
162
330
3E3
100
AcDbEntity
  8
1
100
AcDbLine
 10
-15.775501
 20
-120.043796
 30
0.0
 11
-15.837556
 21
-120.309254
 31
0.0
  0
LINE
  5
163
330
3E3
100
AcDbEntity
  8
1
100
AcDbLine
 10
-15.837556
 20
-120.309254
 30
0.0
 11
-15.9254
 21
-120.567066
 31
0.0
  0
LINE
  5
164
330
3E3
100
AcDbEntity
  8
1
100
AcDbLine
 10
-15.9254
 20
-120.567066
 30
0.0
 11
-16.038187
 21
-120.81475
 31
0.0
  0
LINE
  5
165
330
3E3
100
AcDbEntity
  8
1
100
AcDbLine
 10
-16.038187
 20
-120.81475
 30
0.0
 11
-16.17483
 21
-121.04992
 31
0.0
  0
LINE
  5
166
330
3E3
100
AcDbEntity
  8
1
100
AcDbLine
 10
-16.17483
 20
-121.04992
 30
0.0
 11
-16.334013
 21
-121.270312
 31
0.0
  0
LINE
  5
167
330
3E3
100
AcDbEntity
  8
1
100
AcDbLine
 10
-16.334013
 20
-121.270312
 30
0.0
 11
-16.514204
 21
-121.473803
 31
0.0
  0
LINE
  5
168
330
3E3
100
AcDbEntity
  8
1
100
AcDbLine
 10
-16.514204
 20
-121.473803
 30
0.0
 11
-16.713667
 21
-121.658433
 31
0.0
  0
LINE
  5
169
330
3E3
100
AcDbEntity
  8
1
100
AcDbLine
 10
-16.713667
 20
-121.658433
 30
0.0
 11
-16.930481
 21
-121.822424
 31
0.0
  0
LINE
  5
16A
330
3E3
100
AcDbEntity
  8
1
100
AcDbLine
 10
-16.930481
 20
-121.822424
 30
0.0
 11
-17.162558
 21
-121.964198
 31
0.0
  0
LINE
  5
16B
330
3E3
100
AcDbEntity
  8
1
100
AcDbLine
 10
-17.162558
 20
-121.964198
 30
0.0
 11
-17.407663
 21
-122.082388
 31
0.0
  0
LINE
  5
16C
330
3E3
100
AcDbEntity
  8
1
100
AcDbLine
 10
-17.407663
 20
-122.082388
 30
0.0
 11
-17.663436
 21
-122.175856
 31
0.0
  0
LINE
  5
16D
330
3E3
100
AcDbEntity
  8
1
100
AcDbLine
 10
-17.663436
 20
-122.175856
 30
0.0
 11
-17.927413
 21
-122.243703
 31
0.0
  0
LINE
  5
16E
330
3E3
100
AcDbEntity
  8
1
100
AcDbLine
 10
-17.927413
 20
-122.243703
 30
0.0
 11
-18.197053
 21
-122.285274
 31
0.0
  0
LINE
  5
16F
330
3E3
100
AcDbEntity
  8
1
100
AcDbLine
 10
-18.197053
 20
-122.285274
 30
0.0
 11
-18.469757
 21
-122.30017
 31
0.0
  0
LINE
  5
170
330
3E3
100
AcDbEntity
  8
1
100
AcDbLine
 10
-18.469757
 20
-122.30017
 30
0.0
 11
-18.742901
 21
-122.288247
 31
0.0
  0
LINE
  5
171
330
3E3
100
AcDbEntity
  8
1
100
AcDbLine
 10
-18.742901
 20
-122.288247
 30
0.0
 11
-19.013853
 21
-122.249619
 31
0.0
  0
LINE
  5
172
330
3E3
100
AcDbEntity
  8
1
100
AcDbLine
 10
-19.013853
 20
-122.249619
 30
0.0
 11
-19.280005
 21
-122.18466
 31
0.0
  0
LINE
  5
173
330
3E3
100
AcDbEntity
  8
1
100
AcDbLine
 10
-19.280005
 20
-122.18466
 30
0.0
 11
-19.538792
 21
-122.093994
 31
0.0
  0
LINE
  5
174
330
3E3
100
AcDbEntity
  8
1
100
AcDbLine
 10
-19.538792
 20
-122.093994
 30
0.0
 11
-19.787723
 21
-121.978494
 31
0.0
  0
LINE
  5
175
330
3E3
100
AcDbEntity
  8
1
100
AcDbLine
 10
-19.787723
 20
-121.978494
 30
0.0
 11
-20.024401
 21
-121.839273
 31
0.0
  0
LINE
  5
176
330
3E3
100
AcDbEntity
  8
1
100
AcDbLine
 10
-20.024401
 20
-121.839273
 30
0.0
 11
-20.246545
 21
-121.677672
 31
0.0
  0
LINE
  5
177
330
3E3
100
AcDbEntity
  8
1
100
AcDbLine
 10
-20.246545
 20
-121.677672
 30
0.0
 11
-20.452017
 21
-121.495247
 31
0.0
  0
LINE
  5
178
330
3E3
100
AcDbEntity
  8
1
100
AcDbLine
 10
-20.452017
 20
-121.495247
 30
0.0
 11
-20.638838
 21
-121.293755
 31
0.0
  0
LINE
  5
179
330
3E3
100
AcDbEntity
  8
1
100
AcDbLine
 10
-20.638838
 20
-121.293755
 30
0.0
 11
-20.805208
 21
-121.075136
 31
0.0
  0
LINE
  5
17A
330
3E3
100
AcDbEntity
  8
1
100
AcDbLine
 10
-20.805208
 20
-121.075136
 30
0.0
 11
-20.949526
 21
-120.841496
 31
0.0
  0
LINE
  5
17B
330
3E3
100
AcDbEntity
  8
1
100
AcDbLine
 10
-20.949526
 20
-120.841496
 30
0.0
 11
-21.070401
 21
-120.595085
 31
0.0
  0
LINE
  5
17C
330
3E3
100
AcDbEntity
  8
1
100
AcDbLine
 10
-21.070401
 20
-120.595085
 30
0.0
 11
-21.16667
 21
-120.338275
 31
0.0
  0
LINE
  5
17D
330
3E3
100
AcDbEntity
  8
1
100
AcDbLine
 10
-21.16667
 20
-120.338275
 30
0.0
 11
-21.237405
 21
-120.073541
 31
0.0
  0
LINE
  5
17E
330
3E3
100
AcDbEntity
  8
1
100
AcDbLine
 10
-21.237405
 20
-120.073541
 30
0.0
 11
-21.281925
 21
-119.803431
 31
0.0
  0
LINE
  5
17F
330
3E3
100
AcDbEntity
  8
1
100
AcDbLine
 10
-21.281925
 20
-119.803431
 30
0.0
 11
-21.299802
 21
-119.530547
 31
0.0
  0
LINE
  5
180
330
3E3
100
AcDbEntity
  8
1
100
AcDbLine
 10
-21.299802
 20
-119.530547
 30
0.0
 11
-21.290862
 21
-119.257517
 31
0.0
  0
LINE
  5
181
330
3E3
100
AcDbEntity
  8
1
100
AcDbLine
 10
-21.290862
 20
-119.257517
 30
0.0
 11
-21.255193
 21
-118.986971
 31
0.0
  0
LINE
  5
182
330
3E3
100
AcDbEntity
  8
1
100
AcDbLine
 10
-21.255193
 20
-118.986971
 30
0.0
 11
-21.193138
 21
-118.721514
 31
0.0
  0
LINE
  5
183
330
3E3
100
AcDbEntity
  8
1
100
AcDbLine
 10
-21.193138
 20
-118.721514
 30
0.0
 11
-21.105294
 21
-118.463701
 31
0.0
  0
LINE
  5
184
330
3E3
100
AcDbEntity
  8
1
100
AcDbLine
 10
-21.105294
 20
-118.463701
 30
0.0
 11
-20.992508
 21
-118.216018
 31
0.0
  0
LINE
  5
185
330
3E3
100
AcDbEntity
  8
1
100
AcDbLine
 10
-20.992508
 20
-118.216018
 30
0.0
 11
-20.855865
 21
-117.980847
 31
0.0
  0
LINE
  5
186
330
3E3
100
AcDbEntity
  8
1
100
AcDbLine
 10
-20.855865
 20
-117.980847
 30
0.0
 11
-20.696681
 21
-117.760456
 31
0.0
  0
LINE
  5
187
330
3E3
100
AcDbEntity
  8
1
100
AcDbLine
 10
-20.696681
 20
-117.760456
 30
0.0
 11
-20.516491
 21
-117.556965
 31
0.0
  0
LINE
  5
188
330
3E3
100
AcDbEntity
  8
1
100
AcDbLine
 10
-20.516491
 20
-117.556965
 30
0.0
 11
-20.317028
 21
-117.372335
 31
0.0
  0
LINE
  5
189
330
3E3
100
AcDbEntity
  8
1
100
AcDbLine
 10
-20.317028
 20
-117.372335
 30
0.0
 11
-20.100214
 21
-117.208343
 31
0.0
  0
LINE
  5
18A
330
3E3
100
AcDbEntity
  8
1
100
AcDbLine
 10
-20.100214
 20
-117.208343
 30
0.0
 11
-19.868137
 21
-117.06657
 31
0.0
  0
LINE
  5
18B
330
3E3
100
AcDbEntity
  8
1
100
AcDbLine
 10
-19.868137
 20
-117.06657
 30
0.0
 11
-19.623031
 21
-116.94838
 31
0.0
  0
LINE
  5
18C
330
3E3
100
AcDbEntity
  8
1
100
AcDbLine
 10
-19.623031
 20
-116.94838
 30
0.0
 11
-19.367258
 21
-116.854911
 31
0.0
  0
LINE
  5
18D
330
3E3
100
AcDbEntity
  8
1
100
AcDbLine
 10
-19.367258
 20
-116.854911
 30
0.0
 11
-19.103281
 21
-116.787065
 31
0.0
  0
LINE
  5
18E
330
3E3
100
AcDbEntity
  8
1
100
AcDbLine
 10
-19.103281
 20
-116.787065
 30
0.0
 11
-18.833642
 21
-116.745493
 31
0.0
  0
LINE
  5
18F
330
3E3
100
AcDbEntity
  8
1
100
AcDbLine
 10
-18.833642
 20
-116.745493
 30
0.0
 11
-18.560937
 21
-116.730597
 31
0.0
  0
LINE
  5
190
330
3E3
100
AcDbEntity
  8
1
100
AcDbLine
 10
-18.560937
 20
-116.730597
 30
0.0
 11
-18.287793
 21
-116.742521
 31
0.0
  0
LINE
  5
191
330
3E3
100
AcDbEntity
  8
1
100
AcDbLine
 10
-18.239032
 20
-116.148336
 30
0.0
 11
-17.910018
 21
-116.19524
 31
0.0
  0
LINE
  5
192
330
3E3
100
AcDbEntity
  8
1
100
AcDbLine
 10
-17.910018
 20
-116.19524
 30
0.0
 11
-17.586834
 21
-116.27412
 31
0.0
  0
LINE
  5
193
330
3E3
100
AcDbEntity
  8
1
100
AcDbLine
 10
-17.586834
 20
-116.27412
 30
0.0
 11
-17.272592
 21
-116.384215
 31
0.0
  0
LINE
  5
194
330
3E3
100
AcDbEntity
  8
1
100
AcDbLine
 10
-17.272592
 20
-116.384215
 30
0.0
 11
-16.970319
 21
-116.524464
 31
0.0
  0
LINE
  5
195
330
3E3
100
AcDbEntity
  8
1
100
AcDbLine
 10
-16.970319
 20
-116.524464
 30
0.0
 11
-16.682925
 21
-116.693518
 31
0.0
  0
LINE
  5
196
330
3E3
100
AcDbEntity
  8
1
100
AcDbLine
 10
-16.682925
 20
-116.693518
 30
0.0
 11
-16.413179
 21
-116.889748
 31
0.0
  0
LINE
  5
197
330
3E3
100
AcDbEntity
  8
1
100
AcDbLine
 10
-16.413179
 20
-116.889748
 30
0.0
 11
-16.163677
 21
-117.111264
 31
0.0
  0
LINE
  5
198
330
3E3
100
AcDbEntity
  8
1
100
AcDbLine
 10
-16.163677
 20
-117.111264
 30
0.0
 11
-15.936823
 21
-117.355933
 31
0.0
  0
LINE
  5
199
330
3E3
100
AcDbEntity
  8
1
100
AcDbLine
 10
-15.936823
 20
-117.355933
 30
0.0
 11
-15.734802
 21
-117.621399
 31
0.0
  0
LINE
  5
19A
330
3E3
100
AcDbEntity
  8
1
100
AcDbLine
 10
-15.734802
 20
-117.621399
 30
0.0
 11
-15.559559
 21
-117.905105
 31
0.0
  0
LINE
  5
19B
330
3E3
100
AcDbEntity
  8
1
100
AcDbLine
 10
-15.559559
 20
-117.905105
 30
0.0
 11
-15.412782
 21
-118.204318
 31
0.0
  0
LINE
  5
19C
330
3E3
100
AcDbEntity
  8
1
100
AcDbLine
 10
-15.412782
 20
-118.204318
 30
0.0
 11
-15.295884
 21
-118.516158
 31
0.0
  0
LINE
  5
19D
330
3E3
100
AcDbEntity
  8
1
100
AcDbLine
 10
-15.295884
 20
-118.516158
 30
0.0
 11
-15.209991
 21
-118.837622
 31
0.0
  0
LINE
  5
19E
330
3E3
100
AcDbEntity
  8
1
100
AcDbLine
 10
-15.209991
 20
-118.837622
 30
0.0
 11
-15.155931
 21
-119.165612
 31
0.0
  0
LINE
  5
19F
330
3E3
100
AcDbEntity
  8
1
100
AcDbLine
 10
-15.155931
 20
-119.165612
 30
0.0
 11
-15.134224
 21
-119.496971
 31
0.0
  0
LINE
  5
1A0
330
3E3
100
AcDbEntity
  8
1
100
AcDbLine
 10
-15.134224
 20
-119.496971
 30
0.0
 11
-15.145079
 21
-119.828507
 31
0.0
  0
LINE
  5
1A1
330
3E3
100
AcDbEntity
  8
1
100
AcDbLine
 10
-15.145079
 20
-119.828507
 30
0.0
 11
-15.188391
 21
-120.157028
 31
0.0
  0
LINE
  5
1A2
330
3E3
100
AcDbEntity
  8
1
100
AcDbLine
 10
-15.188391
 20
-120.157028
 30
0.0
 11
-15.263744
 21
-120.479369
 31
0.0
  0
LINE
  5
1A3
330
3E3
100
AcDbEntity
  8
1
100
AcDbLine
 10
-15.263744
 20
-120.479369
 30
0.0
 11
-15.370412
 21
-120.792426
 31
0.0
  0
LINE
  5
1A4
330
3E3
100
AcDbEntity
  8
1
100
AcDbLine
 10
-15.370412
 20
-120.792426
 30
0.0
 11
-15.507367
 21
-121.093185
 31
0.0
  0
LINE
  5
1A5
330
3E3
100
AcDbEntity
  8
1
100
AcDbLine
 10
-15.507367
 20
-121.093185
 30
0.0
 11
-15.67329
 21
-121.378749
 31
0.0
  0
LINE
  5
1A6
330
3E3
100
AcDbEntity
  8
1
100
AcDbLine
 10
-15.67329
 20
-121.378749
 30
0.0
 11
-15.866584
 21
-121.646368
 31
0.0
  0
LINE
  5
1A7
330
3E3
100
AcDbEntity
  8
1
100
AcDbLine
 10
-15.866584
 20
-121.646368
 30
0.0
 11
-16.085387
 21
-121.893464
 31
0.0
  0
LINE
  5
1A8
330
3E3
100
AcDbEntity
  8
1
100
AcDbLine
 10
-16.085387
 20
-121.893464
 30
0.0
 11
-16.327592
 21
-122.117658
 31
0.0
  0
LINE
  5
1A9
330
3E3
100
AcDbEntity
  8
1
100
AcDbLine
 10
-16.327592
 20
-122.117658
 30
0.0
 11
-16.590866
 21
-122.31679
 31
0.0
  0
LINE
  5
1AA
330
3E3
100
AcDbEntity
  8
1
100
AcDbLine
 10
-16.590866
 20
-122.31679
 30
0.0
 11
-16.872674
 21
-122.488944
 31
0.0
  0
LINE
  5
1AB
330
3E3
100
AcDbEntity
  8
1
100
AcDbLine
 10
-16.872674
 20
-122.488944
 30
0.0
 11
-17.170302
 21
-122.63246
 31
0.0
  0
LINE
  5
1AC
330
3E3
100
AcDbEntity
  8
1
100
AcDbLine
 10
-17.170302
 20
-122.63246
 30
0.0
 11
-17.480884
 21
-122.745958
 31
0.0
  0
LINE
  5
1AD
330
3E3
100
AcDbEntity
  8
1
100
AcDbLine
 10
-17.480884
 20
-122.745958
 30
0.0
 11
-17.801427
 21
-122.828343
 31
0.0
  0
LINE
  5
1AE
330
3E3
100
AcDbEntity
  8
1
100
AcDbLine
 10
-17.801427
 20
-122.828343
 30
0.0
 11
-18.128847
 21
-122.878822
 31
0.0
  0
LINE
  5
1AF
330
3E3
100
AcDbEntity
  8
1
100
AcDbLine
 10
-18.128847
 20
-122.878822
 30
0.0
 11
-18.459988
 21
-122.89691
 31
0.0
  0
LINE
  5
1B0
330
3E3
100
AcDbEntity
  8
1
100
AcDbLine
 10
-18.459988
 20
-122.89691
 30
0.0
 11
-18.791663
 21
-122.882432
 31
0.0
  0
LINE
  5
1B1
330
3E3
100
AcDbEntity
  8
1
100
AcDbLine
 10
-18.791663
 20
-122.882432
 30
0.0
 11
-19.120676
 21
-122.835527
 31
0.0
  0
LINE
  5
1B2
330
3E3
100
AcDbEntity
  8
1
100
AcDbLine
 10
-19.120676
 20
-122.835527
 30
0.0
 11
-19.44386
 21
-122.756647
 31
0.0
  0
LINE
  5
1B3
330
3E3
100
AcDbEntity
  8
1
100
AcDbLine
 10
-19.44386
 20
-122.756647
 30
0.0
 11
-19.75810199999999
 21
-122.646553
 31
0.0
  0
LINE
  5
1B4
330
3E3
100
AcDbEntity
  8
1
100
AcDbLine
 10
-19.75810199999999
 20
-122.646553
 30
0.0
 11
-20.060375
 21
-122.506303
 31
0.0
  0
LINE
  5
1B5
330
3E3
100
AcDbEntity
  8
1
100
AcDbLine
 10
-20.060375
 20
-122.506303
 30
0.0
 11
-20.347769
 21
-122.33725
 31
0.0
  0
LINE
  5
1B6
330
3E3
100
AcDbEntity
  8
1
100
AcDbLine
 10
-20.347769
 20
-122.33725
 30
0.0
 11
-20.617516
 21
-122.14102
 31
0.0
  0
LINE
  5
1B7
330
3E3
100
AcDbEntity
  8
1
100
AcDbLine
 10
-20.617516
 20
-122.14102
 30
0.0
 11
-20.867018
 21
-121.919504
 31
0.0
  0
LINE
  5
1B8
330
3E3
100
AcDbEntity
  8
1
100
AcDbLine
 10
-20.867018
 20
-121.919504
 30
0.0
 11
-21.093871
 21
-121.674835
 31
0.0
  0
LINE
  5
1B9
330
3E3
100
AcDbEntity
  8
1
100
AcDbLine
 10
-21.093871
 20
-121.674835
 30
0.0
 11
-21.295892
 21
-121.409369
 31
0.0
  0
LINE
  5
1BA
330
3E3
100
AcDbEntity
  8
1
100
AcDbLine
 10
-21.295892
 20
-121.409369
 30
0.0
 11
-21.471135
 21
-121.125663
 31
0.0
  0
LINE
  5
1BB
330
3E3
100
AcDbEntity
  8
1
100
AcDbLine
 10
-21.471135
 20
-121.125663
 30
0.0
 11
-21.617913
 21
-120.826449
 31
0.0
  0
LINE
  5
1BC
330
3E3
100
AcDbEntity
  8
1
100
AcDbLine
 10
-21.617913
 20
-120.826449
 30
0.0
 11
-21.73481
 21
-120.514609
 31
0.0
  0
LINE
  5
1BD
330
3E3
100
AcDbEntity
  8
1
100
AcDbLine
 10
-21.73481
 20
-120.514609
 30
0.0
 11
-21.820703
 21
-120.193146
 31
0.0
  0
LINE
  5
1BE
330
3E3
100
AcDbEntity
  8
1
100
AcDbLine
 10
-21.820703
 20
-120.193146
 30
0.0
 11
-21.874763
 21
-119.865155
 31
0.0
  0
LINE
  5
1BF
330
3E3
100
AcDbEntity
  8
1
100
AcDbLine
 10
-21.874763
 20
-119.865155
 30
0.0
 11
-21.89647
 21
-119.533797
 31
0.0
  0
LINE
  5
1C0
330
3E3
100
AcDbEntity
  8
1
100
AcDbLine
 10
-21.89647
 20
-119.533797
 30
0.0
 11
-21.885615
 21
-119.20226
 31
0.0
  0
LINE
  5
1C1
330
3E3
100
AcDbEntity
  8
1
100
AcDbLine
 10
-21.885615
 20
-119.20226
 30
0.0
 11
-21.842303
 21
-118.87374
 31
0.0
  0
LINE
  5
1C2
330
3E3
100
AcDbEntity
  8
1
100
AcDbLine
 10
-21.842303
 20
-118.87374
 30
0.0
 11
-21.76695
 21
-118.551399
 31
0.0
  0
LINE
  5
1C3
330
3E3
100
AcDbEntity
  8
1
100
AcDbLine
 10
-21.76695
 20
-118.551399
 30
0.0
 11
-21.660283
 21
-118.238341
 31
0.0
  0
LINE
  5
1C4
330
3E3
100
AcDbEntity
  8
1
100
AcDbLine
 10
-21.660283
 20
-118.238341
 30
0.0
 11
-21.523328
 21
-117.937582
 31
0.0
  0
LINE
  5
1C5
330
3E3
100
AcDbEntity
  8
1
100
AcDbLine
 10
-21.523328
 20
-117.937582
 30
0.0
 11
-21.357404
 21
-117.652018
 31
0.0
  0
LINE
  5
1C6
330
3E3
100
AcDbEntity
  8
1
100
AcDbLine
 10
-21.357404
 20
-117.652018
 30
0.0
 11
-21.16411
 21
-117.3844
 31
0.0
  0
LINE
  5
1C7
330
3E3
100
AcDbEntity
  8
1
100
AcDbLine
 10
-21.16411
 20
-117.3844
 30
0.0
 11
-20.945307
 21
-117.137304
 31
0.0
  0
LINE
  5
1C8
330
3E3
100
AcDbEntity
  8
1
100
AcDbLine
 10
-20.945307
 20
-117.137304
 30
0.0
 11
-20.703102
 21
-116.91311
 31
0.0
  0
LINE
  5
1C9
330
3E3
100
AcDbEntity
  8
1
100
AcDbLine
 10
-20.703102
 20
-116.91311
 30
0.0
 11
-20.439828
 21
-116.713977
 31
0.0
  0
LINE
  5
1CA
330
3E3
100
AcDbEntity
  8
1
100
AcDbLine
 10
-20.439828
 20
-116.713977
 30
0.0
 11
-20.15802
 21
-116.541824
 31
0.0
  0
LINE
  5
1CB
330
3E3
100
AcDbEntity
  8
1
100
AcDbLine
 10
-20.15802
 20
-116.541824
 30
0.0
 11
-19.860392
 21
-116.398307
 31
0.0
  0
LINE
  5
1CC
330
3E3
100
AcDbEntity
  8
1
100
AcDbLine
 10
-19.860392
 20
-116.398307
 30
0.0
 11
-19.549811
 21
-116.28481
 31
0.0
  0
LINE
  5
1CD
330
3E3
100
AcDbEntity
  8
1
100
AcDbLine
 10
-19.549811
 20
-116.28481
 30
0.0
 11
-19.229267
 21
-116.202425
 31
0.0
  0
LINE
  5
1CE
330
3E3
100
AcDbEntity
  8
1
100
AcDbLine
 10
-19.229267
 20
-116.202425
 30
0.0
 11
-18.901848
 21
-116.151945
 31
0.0
  0
LINE
  5
1CF
330
3E3
100
AcDbEntity
  8
1
100
AcDbLine
 10
-18.901848
 20
-116.151945
 30
0.0
 11
-18.570706
 21
-116.133858
 31
0.0
  0
LINE
  5
1D0
330
3E3
100
AcDbEntity
  8
1
100
AcDbLine
 10
-18.570706
 20
-116.133858
 30
0.0
 11
-18.239032
 21
-116.148336
 31
0.0
  0
LINE
  5
1D1
330
3E3
100
AcDbEntity
  8
1
100
AcDbLine
 10
-24.480672
 20
-126.347389
 30
0.0
 11
-24.65389200000001
 21
-126.342664
 31
0.0
  0
LINE
  5
1D2
330
3E3
100
AcDbEntity
  8
1
100
AcDbLine
 10
-24.65389200000001
 20
-126.342664
 30
0.0
 11
-24.822393
 21
-126.300568
 31
0.0
  0
LINE
  5
1D3
330
3E3
100
AcDbEntity
  8
1
100
AcDbLine
 10
-24.822393
 20
-126.300568
 30
0.0
 11
-24.978186
 21
-126.223096
 31
0.0
  0
LINE
  5
1D4
330
3E3
100
AcDbEntity
  8
1
100
AcDbLine
 10
-24.978186
 20
-126.223096
 30
0.0
 11
-25.113886
 21
-126.113923
 31
0.0
  0
LINE
  5
1D5
330
3E3
100
AcDbEntity
  8
1
100
AcDbLine
 10
-25.113886
 20
-126.113923
 30
0.0
 11
-25.22306
 21
-125.978223
 31
0.0
  0
LINE
  5
1D6
330
3E3
100
AcDbEntity
  8
1
100
AcDbLine
 10
-25.22306
 20
-125.978223
 30
0.0
 11
-25.300531
 21
-125.82243
 31
0.0
  0
LINE
  5
1D7
330
3E3
100
AcDbEntity
  8
1
100
AcDbLine
 10
-25.300531
 20
-125.82243
 30
0.0
 11
-25.342627
 21
-125.653929
 31
0.0
  0
LINE
  5
1D8
330
3E3
100
AcDbEntity
  8
1
100
AcDbLine
 10
-25.342627
 20
-125.653929
 30
0.0
 11
-25.347353
 21
-125.480709
 31
0.0
  0
LINE
  5
1D9
330
3E3
100
AcDbEntity
  8
1
100
AcDbLine
 10
-20.321312
 20
-116.604278
 30
0.0
 11
-20.073191
 21
-116.489104
 31
0.0
  0
LINE
  5
1DA
330
3E3
100
AcDbEntity
  8
1
100
AcDbLine
 10
-20.073191
 20
-116.489104
 30
0.0
 11
-19.816546
 21
-116.393955
 31
0.0
  0
LINE
  5
1DB
330
3E3
100
AcDbEntity
  8
1
100
AcDbLine
 10
-19.816546
 20
-116.393955
 30
0.0
 11
-19.552976
 21
-116.319422
 31
0.0
  0
LINE
  5
1DC
330
3E3
100
AcDbEntity
  8
1
100
AcDbLine
 10
-19.552976
 20
-116.319422
 30
0.0
 11
-19.284121
 21
-116.265971
 31
0.0
  0
LINE
  5
1DD
330
3E3
100
AcDbEntity
  8
1
100
AcDbLine
 10
-19.284121
 20
-116.265971
 30
0.0
 11
-19.011658
 21
-116.233933
 31
0.0
  0
LINE
  5
1DE
330
3E3
100
AcDbEntity
  8
1
100
AcDbLine
 10
-19.011658
 20
-116.233933
 30
0.0
 11
-18.737281
 21
-116.223508
 31
0.0
  0
LINE
  5
1DF
330
3E3
100
AcDbEntity
  8
1
100
AcDbLine
 10
-18.737281
 20
-116.223508
 30
0.0
 11
-18.462701
 21
-116.234761
 31
0.0
  0
LINE
  5
1E0
330
3E3
100
AcDbEntity
  8
1
100
AcDbLine
 10
-18.462701
 20
-116.234761
 30
0.0
 11
-18.189626
 21
-116.267623
 31
0.0
  0
LINE
  5
1E1
330
3E3
100
AcDbEntity
  8
1
100
AcDbLine
 10
-18.189626
 20
-116.267623
 30
0.0
 11
-17.919757
 21
-116.321888
 31
0.0
  0
LINE
  5
1E2
330
3E3
100
AcDbEntity
  8
1
100
AcDbLine
 10
-17.919757
 20
-116.321888
 30
0.0
 11
-17.654776
 21
-116.397219
 31
0.0
  0
LINE
  5
1E3
330
3E3
100
AcDbEntity
  8
1
100
AcDbLine
 10
-17.654776
 20
-116.397219
 30
0.0
 11
-17.396332
 21
-116.493146
 31
0.0
  0
LINE
  5
1E4
330
3E3
100
AcDbEntity
  8
1
100
AcDbLine
 10
-17.396332
 20
-116.493146
 30
0.0
 11
-17.146034
 21
-116.609072
 31
0.0
  0
LINE
  5
1E5
330
3E3
100
AcDbEntity
  8
1
100
AcDbLine
 10
-17.146034
 20
-116.609072
 30
0.0
 11
-16.905442
 21
-116.744275
 31
0.0
  0
LINE
  5
1E6
330
3E3
100
AcDbEntity
  8
1
100
AcDbLine
 10
-16.905442
 20
-116.744275
 30
0.0
 11
-16.676053
 21
-116.897913
 31
0.0
  0
LINE
  5
1E7
330
3E3
100
AcDbEntity
  8
1
100
AcDbLine
 10
-16.676053
 20
-116.897913
 30
0.0
 11
-16.459297
 21
-117.06903
 31
0.0
  0
LINE
  5
1E8
330
3E3
100
AcDbEntity
  8
1
100
AcDbLine
 10
-16.459297
 20
-117.06903
 30
0.0
 11
-16.256523
 21
-117.256559
 31
0.0
  0
LINE
  5
1E9
330
3E3
100
AcDbEntity
  8
1
100
AcDbLine
 10
-16.256523
 20
-117.256559
 30
0.0
 11
-16.068994
 21
-117.459333
 31
0.0
  0
LINE
  5
1EA
330
3E3
100
AcDbEntity
  8
1
100
AcDbLine
 10
-16.068994
 20
-117.459333
 30
0.0
 11
-15.897877
 21
-117.67609
 31
0.0
  0
LINE
  5
1EB
330
3E3
100
AcDbEntity
  8
1
100
AcDbLine
 10
-15.897877
 20
-117.67609
 30
0.0
 11
-15.744239
 21
-117.905478
 31
0.0
  0
LINE
  5
1EC
330
3E3
100
AcDbEntity
  8
1
100
AcDbLine
 10
-15.744239
 20
-117.905478
 30
0.0
 11
-15.609036
 21
-118.14607
 31
0.0
  0
LINE
  5
1ED
330
3E3
100
AcDbEntity
  8
1
100
AcDbLine
 10
-15.609036
 20
-118.14607
 30
0.0
 11
-15.493109
 21
-118.396368
 31
0.0
  0
LINE
  5
1EE
330
3E3
100
AcDbEntity
  8
1
100
AcDbLine
 10
-15.493109
 20
-118.396368
 30
0.0
 11
-15.397182
 21
-118.654812
 31
0.0
  0
LINE
  5
1EF
330
3E3
100
AcDbEntity
  8
1
100
AcDbLine
 10
-15.397182
 20
-118.654812
 30
0.0
 11
-15.321852
 21
-118.919793
 31
0.0
  0
LINE
  5
1F0
330
3E3
100
AcDbEntity
  8
1
100
AcDbLine
 10
-15.321852
 20
-118.919793
 30
0.0
 11
-15.267587
 21
-119.189662
 31
0.0
  0
LINE
  5
1F1
330
3E3
100
AcDbEntity
  8
1
100
AcDbLine
 10
-15.267587
 20
-119.189662
 30
0.0
 11
-15.234725
 21
-119.462737
 31
0.0
  0
LINE
  5
1F2
330
3E3
100
AcDbEntity
  8
1
100
AcDbLine
 10
-15.234725
 20
-119.462737
 30
0.0
 11
-15.223471
 21
-119.737317
 31
0.0
  0
LINE
  5
1F3
330
3E3
100
AcDbEntity
  8
1
100
AcDbLine
 10
-15.223471
 20
-119.737317
 30
0.0
 11
-15.233896
 21
-120.011694
 31
0.0
  0
LINE
  5
1F4
330
3E3
100
AcDbEntity
  8
1
100
AcDbLine
 10
-15.233896
 20
-120.011694
 30
0.0
 11
-15.265934
 21
-120.284157
 31
0.0
  0
LINE
  5
1F5
330
3E3
100
AcDbEntity
  8
1
100
AcDbLine
 10
-15.265934
 20
-120.284157
 30
0.0
 11
-15.319386
 21
-120.553012
 31
0.0
  0
LINE
  5
1F6
330
3E3
100
AcDbEntity
  8
1
100
AcDbLine
 10
-15.319386
 20
-120.553012
 30
0.0
 11
-15.393918
 21
-120.816582
 31
0.0
  0
LINE
  5
1F7
330
3E3
100
AcDbEntity
  8
1
100
AcDbLine
 10
-15.393918
 20
-120.816582
 30
0.0
 11
-15.489068
 21
-121.073227
 31
0.0
  0
LINE
  5
1F8
330
3E3
100
AcDbEntity
  8
1
100
AcDbLine
 10
-15.489068
 20
-121.073227
 30
0.0
 11
-15.604241
 21
-121.321348
 31
0.0
  0
LINE
  5
1F9
330
3E3
100
AcDbEntity
  8
1
100
AcDbLine
 10
-6.306083999999999
 20
-115.084295
 30
0.0
 11
-6.701866
 21
-115.442623
 31
0.0
  0
LINE
  5
1FA
330
3E3
100
AcDbEntity
  8
1
100
AcDbLine
 10
-6.701866
 20
-115.442623
 30
0.0
 11
-7.131289999999999
 21
-115.760045
 31
0.0
  0
LINE
  5
1FB
330
3E3
100
AcDbEntity
  8
1
100
AcDbLine
 10
-7.131289999999999
 20
-115.760045
 30
0.0
 11
-7.590221
 21
-116.033506
 31
0.0
  0
LINE
  5
1FC
330
3E3
100
AcDbEntity
  8
1
100
AcDbLine
 10
-7.590221
 20
-116.033506
 30
0.0
 11
-8.074239
 21
-116.260372
 31
0.0
  0
LINE
  5
1FD
330
3E3
100
AcDbEntity
  8
1
100
AcDbLine
 10
-8.074239
 20
-116.260372
 30
0.0
 11
-8.578682999999999
 21
-116.438457
 31
0.0
  0
LINE
  5
1FE
330
3E3
100
AcDbEntity
  8
1
100
AcDbLine
 10
-8.578682999999999
 20
-116.438457
 30
0.0
 11
-9.098694
 21
-116.566046
 31
0.0
  0
LINE
  5
1FF
330
3E3
100
AcDbEntity
  8
1
100
AcDbLine
 10
-9.098694
 20
-116.566046
 30
0.0
 11
-9.629265
 21
-116.641912
 31
0.0
  0
LINE
  5
200
330
3E3
100
AcDbEntity
  8
1
100
AcDbLine
 10
-9.629265
 20
-116.641912
 30
0.0
 11
-10.165286
 21
-116.665323
 31
0.0
  0
LINE
  5
201
330
3E3
100
AcDbEntity
  8
1
100
AcDbLine
 10
-10.165286
 20
-116.665323
 30
0.0
 11
-10.701595
 21
-116.636054
 31
0.0
  0
LINE
  5
202
330
3E3
100
AcDbEntity
  8
1
100
AcDbLine
 10
-10.701595
 20
-116.636054
 30
0.0
 11
-11.233027
 21
-116.554386
 31
0.0
  0
LINE
  5
203
330
3E3
100
AcDbEntity
  8
1
100
AcDbLine
 10
-11.233027
 20
-116.554386
 30
0.0
 11
-11.754464
 21
-116.421107
 31
0.0
  0
LINE
  5
204
330
3E3
100
AcDbEntity
  8
1
100
AcDbLine
 10
-11.754464
 20
-116.421107
 30
0.0
 11
-12.260884
 21
-116.237499
 31
0.0
  0
LINE
  5
205
330
3E3
100
AcDbEntity
  8
1
100
AcDbLine
 10
-12.260884
 20
-116.237499
 30
0.0
 11
-12.74741
 21
-116.005331
 31
0.0
  0
LINE
  5
206
330
3E3
100
AcDbEntity
  8
1
100
AcDbLine
 10
-12.74741
 20
-116.005331
 30
0.0
 11
-13.209356
 21
-115.726839
 31
0.0
  0
LINE
  5
207
330
3E3
100
AcDbEntity
  8
1
100
AcDbLine
 10
-13.209356
 20
-115.726839
 30
0.0
 11
-13.642274
 21
-115.404705
 31
0.0
  0
LINE
  5
208
330
3E3
100
AcDbEntity
  8
1
100
AcDbLine
 10
-13.642274
 20
-115.404705
 30
0.0
 11
-14.041995
 21
-115.042032
 31
0.0
  0
LINE
  5
209
330
3E3
100
AcDbEntity
  8
1
100
AcDbLine
 10
-14.041995
 20
-115.042032
 30
0.0
 11
-14.404669
 21
-114.642311
 31
0.0
  0
LINE
  5
20A
330
3E3
100
AcDbEntity
  8
1
100
AcDbLine
 10
-14.404669
 20
-114.642311
 30
0.0
 11
-14.726803
 21
-114.209393
 31
0.0
  0
LINE
  5
20B
330
3E3
100
AcDbEntity
  8
1
100
AcDbLine
 10
-14.726803
 20
-114.209393
 30
0.0
 11
-15.005295
 21
-113.747446
 31
0.0
  0
LINE
  5
20C
330
3E3
100
AcDbEntity
  8
1
100
AcDbLine
 10
-15.005295
 20
-113.747446
 30
0.0
 11
-15.237462
 21
-113.26092
 31
0.0
  0
LINE
  5
20D
330
3E3
100
AcDbEntity
  8
1
100
AcDbLine
 10
-15.237462
 20
-113.26092
 30
0.0
 11
-15.42107
 21
-112.7545
 31
0.0
  0
LINE
  5
20E
330
3E3
100
AcDbEntity
  8
1
100
AcDbLine
 10
-15.42107
 20
-112.7545
 30
0.0
 11
-15.55435
 21
-112.233064
 31
0.0
  0
LINE
  5
20F
330
3E3
100
AcDbEntity
  8
1
100
AcDbLine
 10
-15.55435
 20
-112.233064
 30
0.0
 11
-15.636017
 21
-111.701632
 31
0.0
  0
LINE
  5
210
330
3E3
100
AcDbEntity
  8
1
100
AcDbLine
 10
-15.636017
 20
-111.701632
 30
0.0
 11
-15.665286
 21
-111.165323
 31
0.0
  0
LINE
  5
211
330
3E3
100
AcDbEntity
  8
1
100
AcDbLine
 10
-15.665286
 20
-111.165323
 30
0.0
 11
-15.641876
 21
-110.629302
 31
0.0
  0
LINE
  5
212
330
3E3
100
AcDbEntity
  8
1
100
AcDbLine
 10
-15.641876
 20
-110.629302
 30
0.0
 11
-15.56601
 21
-110.098731
 31
0.0
  0
LINE
  5
213
330
3E3
100
AcDbEntity
  8
1
100
AcDbLine
 10
-15.56601
 20
-110.098731
 30
0.0
 11
-15.43842
 21
-109.578719
 31
0.0
  0
LINE
  5
214
330
3E3
100
AcDbEntity
  8
1
100
AcDbLine
 10
-15.43842
 20
-109.578719
 30
0.0
 11
-15.260335
 21
-109.074275
 31
0.0
  0
LINE
  5
215
330
3E3
100
AcDbEntity
  8
1
100
AcDbLine
 10
-15.260335
 20
-109.074275
 30
0.0
 11
-15.03347
 21
-108.590257
 31
0.0
  0
LINE
  5
216
330
3E3
100
AcDbEntity
  8
1
100
AcDbLine
 10
-15.03347
 20
-108.590257
 30
0.0
 11
-14.760009
 21
-108.131326
 31
0.0
  0
LINE
  5
217
330
3E3
100
AcDbEntity
  8
1
100
AcDbLine
 10
-14.760009
 20
-108.131326
 30
0.0
 11
-14.442586
 21
-107.701902
 31
0.0
  0
LINE
  5
218
330
3E3
100
AcDbEntity
  8
1
100
AcDbLine
 10
-14.442586
 20
-107.701902
 30
0.0
 11
-14.084258
 21
-107.30612
 31
0.0
  0
LINE
  5
219
330
3E3
100
AcDbEntity
  8
1
100
AcDbLine
 10
-9.580900999999999
 20
-106.035742
 30
0.0
 11
-9.097057000000001
 21
-106.10472
 31
0.0
  0
LINE
  5
21A
330
3E3
100
AcDbEntity
  8
1
100
AcDbLine
 10
-9.097057000000001
 20
-106.10472
 30
0.0
 11
-8.621786999999999
 21
-106.220719
 31
0.0
  0
LINE
  5
21B
330
3E3
100
AcDbEntity
  8
1
100
AcDbLine
 10
-8.621786999999999
 20
-106.220719
 30
0.0
 11
-8.159667
 21
-106.382623
 31
0.0
  0
LINE
  5
21C
330
3E3
100
AcDbEntity
  8
1
100
AcDbLine
 10
-8.159667
 20
-106.382623
 30
0.0
 11
-7.715146999999999
 21
-106.588872
 31
0.0
  0
LINE
  5
21D
330
3E3
100
AcDbEntity
  8
1
100
AcDbLine
 10
-7.715146999999999
 20
-106.588872
 30
0.0
 11
-7.292508999999999
 21
-106.837481
 31
0.0
  0
LINE
  5
21E
330
3E3
100
AcDbEntity
  8
1
100
AcDbLine
 10
-7.292508999999999
 20
-106.837481
 30
0.0
 11
-6.895823
 21
-107.126054
 31
0.0
  0
LINE
  5
21F
330
3E3
100
AcDbEntity
  8
1
100
AcDbLine
 10
-6.895823
 20
-107.126054
 30
0.0
 11
-6.528908
 21
-107.451813
 31
0.0
  0
LINE
  5
220
330
3E3
100
AcDbEntity
  8
1
100
AcDbLine
 10
-6.528908
 20
-107.451813
 30
0.0
 11
-6.195299999999999
 21
-107.811621
 31
0.0
  0
LINE
  5
221
330
3E3
100
AcDbEntity
  8
1
100
AcDbLine
 10
-6.195299999999999
 20
-107.811621
 30
0.0
 11
-5.898209999999999
 21
-108.202011
 31
0.0
  0
LINE
  5
222
330
3E3
100
AcDbEntity
  8
1
100
AcDbLine
 10
-5.898209999999999
 20
-108.202011
 30
0.0
 11
-5.6405
 21
-108.619226
 31
0.0
  0
LINE
  5
223
330
3E3
100
AcDbEntity
  8
1
100
AcDbLine
 10
-5.6405
 20
-108.619226
 30
0.0
 11
-5.424650999999999
 21
-109.059246
 31
0.0
  0
LINE
  5
224
330
3E3
100
AcDbEntity
  8
1
100
AcDbLine
 10
-5.424650999999999
 20
-109.059246
 30
0.0
 11
-5.252741999999999
 21
-109.517835
 31
0.0
  0
LINE
  5
225
330
3E3
100
AcDbEntity
  8
1
100
AcDbLine
 10
-5.252741999999999
 20
-109.517835
 30
0.0
 11
-5.12643
 21
-109.990575
 31
0.0
  0
LINE
  5
226
330
3E3
100
AcDbEntity
  8
1
100
AcDbLine
 10
-5.12643
 20
-109.990575
 30
0.0
 11
-5.046929
 21
-110.472913
 31
0.0
  0
LINE
  5
227
330
3E3
100
AcDbEntity
  8
1
100
AcDbLine
 10
-5.046929
 20
-110.472913
 30
0.0
 11
-5.015006999999999
 21
-110.960206
 31
0.0
  0
LINE
  5
228
330
3E3
100
AcDbEntity
  8
1
100
AcDbLine
 10
-5.015006999999999
 20
-110.960206
 30
0.0
 11
-5.030969999999999
 21
-111.447759
 31
0.0
  0
LINE
  5
229
330
3E3
100
AcDbEntity
  8
1
100
AcDbLine
 10
-5.030969999999999
 20
-111.447759
 30
0.0
 11
-5.094664999999999
 21
-111.930878
 31
0.0
  0
LINE
  5
22A
330
3E3
100
AcDbEntity
  8
1
100
AcDbLine
 10
-5.094664999999999
 20
-111.930878
 30
0.0
 11
-5.205478
 21
-112.404909
 31
0.0
  0
LINE
  5
22B
330
3E3
100
AcDbEntity
  8
1
100
AcDbLine
 10
-5.205478
 20
-112.404909
 30
0.0
 11
-5.362341999999999
 21
-112.865288
 31
0.0
  0
LINE
  5
22C
330
3E3
100
AcDbEntity
  8
1
100
AcDbLine
 10
-5.362341999999999
 20
-112.865288
 30
0.0
 11
-5.563746
 21
-113.30758
 31
0.0
  0
LINE
  5
22D
330
3E3
100
AcDbEntity
  8
1
100
AcDbLine
 10
-5.563746
 20
-113.30758
 30
0.0
 11
-5.807751
 21
-113.727527
 31
0.0
  0
LINE
  5
22E
330
3E3
100
AcDbEntity
  8
1
100
AcDbLine
 10
-5.807751
 20
-113.727527
 30
0.0
 11
-6.092006999999999
 21
-114.121084
 31
0.0
  0
LINE
  5
22F
330
3E3
100
AcDbEntity
  8
1
100
AcDbLine
 10
-6.092006999999999
 20
-114.121084
 30
0.0
 11
-6.413776999999999
 21
-114.48446
 31
0.0
  0
LINE
  5
230
330
3E3
100
AcDbEntity
  8
1
100
AcDbLine
 10
-6.413776999999999
 20
-114.48446
 30
0.0
 11
-6.76996
 21
-114.814157
 31
0.0
  0
LINE
  5
231
330
3E3
100
AcDbEntity
  8
1
100
AcDbLine
 10
-6.76996
 20
-114.814157
 30
0.0
 11
-7.157128
 21
-115.106999
 31
0.0
  0
LINE
  5
232
330
3E3
100
AcDbEntity
  8
1
100
AcDbLine
 10
-7.157128
 20
-115.106999
 30
0.0
 11
-7.571552
 21
-115.360166
 31
0.0
  0
LINE
  5
233
330
3E3
100
AcDbEntity
  8
1
100
AcDbLine
 10
-7.571552
 20
-115.360166
 30
0.0
 11
-8.00924
 21
-115.57122
 31
0.0
  0
LINE
  5
234
330
3E3
100
AcDbEntity
  8
1
100
AcDbLine
 10
-8.00924
 20
-115.57122
 30
0.0
 11
-8.465977
 21
-115.738127
 31
0.0
  0
LINE
  5
235
330
3E3
100
AcDbEntity
  8
1
100
AcDbLine
 10
-8.465977
 20
-115.738127
 30
0.0
 11
-8.937364999999999
 21
-115.859282
 31
0.0
  0
LINE
  5
236
330
3E3
100
AcDbEntity
  8
1
100
AcDbLine
 10
-8.937364999999999
 20
-115.859282
 30
0.0
 11
-9.418863999999999
 21
-115.933517
 31
0.0
  0
LINE
  5
237
330
3E3
100
AcDbEntity
  8
1
100
AcDbLine
 10
-9.418863999999999
 20
-115.933517
 30
0.0
 11
-9.905837
 21
-115.960116
 31
0.0
  0
LINE
  5
238
330
3E3
100
AcDbEntity
  8
1
100
AcDbLine
 10
-9.905837
 20
-115.960116
 30
0.0
 11
-10.393593
 21
-115.938825
 31
0.0
  0
LINE
  5
239
330
3E3
100
AcDbEntity
  8
1
100
AcDbLine
 10
-10.393593
 20
-115.938825
 30
0.0
 11
-10.877437
 21
-115.869847
 31
0.0
  0
LINE
  5
23A
330
3E3
100
AcDbEntity
  8
1
100
AcDbLine
 10
-10.877437
 20
-115.869847
 30
0.0
 11
-11.352707
 21
-115.753848
 31
0.0
  0
LINE
  5
23B
330
3E3
100
AcDbEntity
  8
1
100
AcDbLine
 10
-11.352707
 20
-115.753848
 30
0.0
 11
-11.814827
 21
-115.591944
 31
0.0
  0
LINE
  5
23C
330
3E3
100
AcDbEntity
  8
1
100
AcDbLine
 10
-11.814827
 20
-115.591944
 30
0.0
 11
-12.259347
 21
-115.385695
 31
0.0
  0
LINE
  5
23D
330
3E3
100
AcDbEntity
  8
1
100
AcDbLine
 10
-12.259347
 20
-115.385695
 30
0.0
 11
-12.681985
 21
-115.137086
 31
0.0
  0
LINE
  5
23E
330
3E3
100
AcDbEntity
  8
1
100
AcDbLine
 10
-12.681985
 20
-115.137086
 30
0.0
 11
-13.078672
 21
-114.848513
 31
0.0
  0
LINE
  5
23F
330
3E3
100
AcDbEntity
  8
1
100
AcDbLine
 10
-13.078672
 20
-114.848513
 30
0.0
 11
-13.445586
 21
-114.522754
 31
0.0
  0
LINE
  5
240
330
3E3
100
AcDbEntity
  8
1
100
AcDbLine
 10
-13.445586
 20
-114.522754
 30
0.0
 11
-13.779194
 21
-114.162947
 31
0.0
  0
LINE
  5
241
330
3E3
100
AcDbEntity
  8
1
100
AcDbLine
 10
-13.779194
 20
-114.162947
 30
0.0
 11
-14.076284
 21
-113.772556
 31
0.0
  0
LINE
  5
242
330
3E3
100
AcDbEntity
  8
1
100
AcDbLine
 10
-14.076284
 20
-113.772556
 30
0.0
 11
-14.333995
 21
-113.355341
 31
0.0
  0
LINE
  5
243
330
3E3
100
AcDbEntity
  8
1
100
AcDbLine
 10
-14.333995
 20
-113.355341
 30
0.0
 11
-14.549843
 21
-112.915321
 31
0.0
  0
LINE
  5
244
330
3E3
100
AcDbEntity
  8
1
100
AcDbLine
 10
-14.549843
 20
-112.915321
 30
0.0
 11
-14.721752
 21
-112.456733
 31
0.0
  0
LINE
  5
245
330
3E3
100
AcDbEntity
  8
1
100
AcDbLine
 10
-14.721752
 20
-112.456733
 30
0.0
 11
-14.848064
 21
-111.983993
 31
0.0
  0
LINE
  5
246
330
3E3
100
AcDbEntity
  8
1
100
AcDbLine
 10
-14.848064
 20
-111.983993
 30
0.0
 11
-14.927565
 21
-111.501654
 31
0.0
  0
LINE
  5
247
330
3E3
100
AcDbEntity
  8
1
100
AcDbLine
 10
-14.927565
 20
-111.501654
 30
0.0
 11
-14.959487
 21
-111.014361
 31
0.0
  0
LINE
  5
248
330
3E3
100
AcDbEntity
  8
1
100
AcDbLine
 10
-14.959487
 20
-111.014361
 30
0.0
 11
-14.943524
 21
-110.526808
 31
0.0
  0
LINE
  5
249
330
3E3
100
AcDbEntity
  8
1
100
AcDbLine
 10
-14.943524
 20
-110.526808
 30
0.0
 11
-14.879829
 21
-110.04369
 31
0.0
  0
LINE
  5
24A
330
3E3
100
AcDbEntity
  8
1
100
AcDbLine
 10
-14.879829
 20
-110.04369
 30
0.0
 11
-14.769016
 21
-109.569658
 31
0.0
  0
LINE
  5
24B
330
3E3
100
AcDbEntity
  8
1
100
AcDbLine
 10
-14.769016
 20
-109.569658
 30
0.0
 11
-14.612152
 21
-109.10928
 31
0.0
  0
LINE
  5
24C
330
3E3
100
AcDbEntity
  8
1
100
AcDbLine
 10
-14.612152
 20
-109.10928
 30
0.0
 11
-14.410748
 21
-108.666987
 31
0.0
  0
LINE
  5
24D
330
3E3
100
AcDbEntity
  8
1
100
AcDbLine
 10
-14.410748
 20
-108.666987
 30
0.0
 11
-14.166743
 21
-108.24704
 31
0.0
  0
LINE
  5
24E
330
3E3
100
AcDbEntity
  8
1
100
AcDbLine
 10
-14.166743
 20
-108.24704
 30
0.0
 11
-13.882487
 21
-107.853483
 31
0.0
  0
LINE
  5
24F
330
3E3
100
AcDbEntity
  8
1
100
AcDbLine
 10
-13.882487
 20
-107.853483
 30
0.0
 11
-13.560717
 21
-107.490107
 31
0.0
  0
LINE
  5
250
330
3E3
100
AcDbEntity
  8
1
100
AcDbLine
 10
-13.560717
 20
-107.490107
 30
0.0
 11
-13.204534
 21
-107.16041
 31
0.0
  0
LINE
  5
251
330
3E3
100
AcDbEntity
  8
1
100
AcDbLine
 10
-13.204534
 20
-107.16041
 30
0.0
 11
-12.817366
 21
-106.867568
 31
0.0
  0
LINE
  5
252
330
3E3
100
AcDbEntity
  8
1
100
AcDbLine
 10
-12.817366
 20
-106.867568
 30
0.0
 11
-12.402942
 21
-106.614401
 31
0.0
  0
LINE
  5
253
330
3E3
100
AcDbEntity
  8
1
100
AcDbLine
 10
-12.402942
 20
-106.614401
 30
0.0
 11
-11.965254
 21
-106.403348
 31
0.0
  0
LINE
  5
254
330
3E3
100
AcDbEntity
  8
1
100
AcDbLine
 10
-11.965254
 20
-106.403348
 30
0.0
 11
-11.508517
 21
-106.23644
 31
0.0
  0
LINE
  5
255
330
3E3
100
AcDbEntity
  8
1
100
AcDbLine
 10
-11.508517
 20
-106.23644
 30
0.0
 11
-11.037129
 21
-106.115285
 31
0.0
  0
LINE
  5
256
330
3E3
100
AcDbEntity
  8
1
100
AcDbLine
 10
-11.037129
 20
-106.115285
 30
0.0
 11
-10.55563
 21
-106.041051
 31
0.0
  0
LINE
  5
257
330
3E3
100
AcDbEntity
  8
1
100
AcDbLine
 10
-10.55563
 20
-106.041051
 30
0.0
 11
-10.068657
 21
-106.014451
 31
0.0
  0
LINE
  5
258
330
3E3
100
AcDbEntity
  8
1
100
AcDbLine
 10
-10.068657
 20
-106.014451
 30
0.0
 11
-9.580900999999999
 21
-106.035742
 31
0.0
  0
LINE
  5
259
330
3E3
100
AcDbEntity
  8
1
100
AcDbLine
 10
-9.559191999999999
 20
-121.330463
 30
0.0
 11
-9.475035
 21
-121.482803
 31
0.0
  0
LINE
  5
25A
330
3E3
100
AcDbEntity
  8
1
100
AcDbLine
 10
-9.475035
 20
-121.482803
 30
0.0
 11
-9.425648999999999
 21
-121.649388
 31
0.0
  0
LINE
  5
25B
330
3E3
100
AcDbEntity
  8
1
100
AcDbLine
 10
-9.425648999999999
 20
-121.649388
 30
0.0
 11
-9.413374000000001
 21
-121.822319
 31
0.0
  0
LINE
  5
25C
330
3E3
100
AcDbEntity
  8
1
100
AcDbLine
 10
-9.413374000000001
 20
-121.822319
 30
0.0
 11
-9.438791999999999
 21
-121.993399
 31
0.0
  0
LINE
  5
25D
330
3E3
100
AcDbEntity
  8
1
100
AcDbLine
 10
-9.438791999999999
 20
-121.993399
 30
0.0
 11
-9.500699
 21
-122.154518
 31
0.0
  0
LINE
  5
25E
330
3E3
100
AcDbEntity
  8
1
100
AcDbLine
 10
-9.500699
 20
-122.154518
 30
0.0
 11
-9.596160000000001
 21
-122.298036
 31
0.0
  0
LINE
  5
25F
330
3E3
100
AcDbEntity
  8
1
100
AcDbLine
 10
-9.596160000000001
 20
-122.298036
 30
0.0
 11
-9.720647999999998
 21
-122.417151
 31
0.0
  0
LINE
  5
260
330
3E3
100
AcDbEntity
  8
1
100
AcDbLine
 10
-9.720647999999998
 20
-122.417151
 30
0.0
 11
-9.868261999999999
 21
-122.506214
 31
0.0
  0
LINE
  5
261
330
3E3
100
AcDbEntity
  8
1
100
AcDbLine
 10
-25.347353
 20
-125.480709
 30
0.0
 11
-24.809819
 21
-118.93058
 31
0.0
  0
LINE
  5
262
330
3E3
100
AcDbEntity
  8
1
100
AcDbLine
 10
-24.480672
 20
-126.347389
 30
0.0
 11
-17.930543
 21
-125.809855
 31
0.0
  0
LINE
  5
263
330
3E3
100
AcDbEntity
  8
1
100
AcDbLine
 10
-24.253713
 20
-116.815069
 30
0.0
 11
-21.506178
 21
-110.868299
 31
0.0
  0
LINE
  5
264
330
3E3
100
AcDbEntity
  8
1
100
AcDbLine
 10
-15.815032
 20
-125.253749
 30
0.0
 11
-9.868261999999999
 21
-122.506214
 31
0.0
  0
LINE
  5
265
330
3E3
100
AcDbEntity
  8
80
100
AcDbLine
 10
0.0
 20
0.0
 30
0.0
 11
0.0
 21
16.352512
 31
0.0
  0
LINE
  5
266
330
3E3
100
AcDbEntity
  8
81
100
AcDbLine
 10
-25.350013
 20
-126.35005
 30
0.0
 11
-25.350013
 21
-138.321899
 31
0.0
  0
POINT
  5
267
330
3E3
100
AcDbEntity
  8
81
100
AcDbPoint
 10
-25.350013
 20
-126.35005
 30
0.0
  0
POINT
  5
268
330
3E3
100
AcDbEntity
  8
80
100
AcDbPoint
 10
0.0
 20
0.0
 30
0.0
  0
ARC
  5
269
330
3E3
100
AcDbEntity
  8
1
100
AcDbCircle
 10
29.573422
 20
-106.63773
 30
0.0
 40
10.0
210
0.0
220
0.0
230
-1.0
100
AcDbArc
 50
165.930132
 51
204.79783
  0
TEXT
  5
26A
330
3E3
100
AcDbEntity
  8
SK6
100
AcDbText
 10
-8.278835
 20
-77.750102
 30
0.0
 40
3.0
  1
MWLNL 2020K 08
 50
89.99999767324071
 41
1.665801657365128
  7
SANDVIK_STYLE
 72
     5
 11
-8.278833
 21
-28.500676
 31
0.0
100
AcDbText
  0
POLYLINE
  5
26B
330
3E3
100
AcDbEntity
  8
1
100
AcDb3dPolyline
 66
     1
 10
0.0
 20
0.0
 30
0.0
 70
     8
  0
VERTEX
  5
26C
330
26B
100
AcDbEntity
  8
1
100
AcDbVertex
100
AcDb3dPolylineVertex
 10
-12.81318
 20
-98.48691999999999
 30
0.0
 70
    32
  0
VERTEX
  5
26D
330
26B
100
AcDbEntity
  8
1
100
AcDbVertex
100
AcDb3dPolylineVertex
 10
-12.934408
 20
-98.379825
 30
0.0
 70
    32
  0
VERTEX
  5
26E
330
26B
100
AcDbEntity
  8
1
100
AcDbVertex
100
AcDb3dPolylineVertex
 10
-13.055635
 20
-98.27273100000001
 30
0.0
 70
    32
  0
VERTEX
  5
26F
330
26B
100
AcDbEntity
  8
1
100
AcDbVertex
100
AcDb3dPolylineVertex
 10
-13.176863
 20
-98.165636
 30
0.0
 70
    32
  0
VERTEX
  5
270
330
26B
100
AcDbEntity
  8
1
100
AcDbVertex
100
AcDb3dPolylineVertex
 10
-13.298405
 20
-98.058936
 30
0.0
 70
    32
  0
VERTEX
  5
271
330
26B
100
AcDbEntity
  8
1
100
AcDbVertex
100
AcDb3dPolylineVertex
 10
-13.429751
 20
-97.96452399999999
 30
0.0
 70
    32
  0
VERTEX
  5
272
330
26B
100
AcDbEntity
  8
1
100
AcDbVertex
100
AcDb3dPolylineVertex
 10
-13.561098
 20
-97.87011300000001
 30
0.0
 70
    32
  0
VERTEX
  5
273
330
26B
100
AcDbEntity
  8
1
100
AcDbVertex
100
AcDb3dPolylineVertex
 10
-13.692444
 20
-97.77570199999999
 30
0.0
 70
    32
  0
VERTEX
  5
274
330
26B
100
AcDbEntity
  8
1
100
AcDbVertex
100
AcDb3dPolylineVertex
 10
-13.824225
 20
-97.68196600000001
 30
0.0
 70
    32
  0
VERTEX
  5
275
330
26B
100
AcDbEntity
  8
1
100
AcDbVertex
100
AcDb3dPolylineVertex
 10
-13.964576
 20
-97.601548
 30
0.0
 70
    32
  0
VERTEX
  5
276
330
26B
100
AcDbEntity
  8
1
100
AcDbVertex
100
AcDb3dPolylineVertex
 10
-14.104926
 20
-97.521129
 30
0.0
 70
    32
  0
VERTEX
  5
277
330
26B
100
AcDbEntity
  8
1
100
AcDbVertex
100
AcDb3dPolylineVertex
 10
-14.245277
 20
-97.44071099999999
 30
0.0
 70
    32
  0
VERTEX
  5
278
330
26B
100
AcDbEntity
  8
1
100
AcDbVertex
100
AcDb3dPolylineVertex
 10
-14.38599
 20
-97.361011
 30
0.0
 70
    32
  0
VERTEX
  5
279
330
26B
100
AcDbEntity
  8
1
100
AcDbVertex
100
AcDb3dPolylineVertex
 10
-14.534061
 20
-97.295894
 30
0.0
 70
    32
  0
VERTEX
  5
27A
330
26B
100
AcDbEntity
  8
1
100
AcDbVertex
100
AcDb3dPolylineVertex
 10
-14.682133
 20
-97.230778
 30
0.0
 70
    32
  0
VERTEX
  5
27B
330
26B
100
AcDbEntity
  8
1
100
AcDbVertex
100
AcDb3dPolylineVertex
 10
-14.830205
 20
-97.16566100000001
 30
0.0
 70
    32
  0
VERTEX
  5
27C
330
26B
100
AcDbEntity
  8
1
100
AcDbVertex
100
AcDb3dPolylineVertex
 10
-14.978389
 20
-97.100845
 30
0.0
 70
    32
  0
VERTEX
  5
27D
330
26B
100
AcDbEntity
  8
1
100
AcDbVertex
100
AcDb3dPolylineVertex
 10
-15.132682
 20
-97.052274
 30
0.0
 70
    32
  0
VERTEX
  5
27E
330
26B
100
AcDbEntity
  8
1
100
AcDbVertex
100
AcDb3dPolylineVertex
 10
-15.286975
 20
-97.003704
 30
0.0
 70
    32
  0
VERTEX
  5
27F
330
26B
100
AcDbEntity
  8
1
100
AcDbVertex
100
AcDb3dPolylineVertex
 10
-15.441268
 20
-96.95513400000001
 30
0.0
 70
    32
  0
VERTEX
  5
280
330
26B
100
AcDbEntity
  8
1
100
AcDbVertex
100
AcDb3dPolylineVertex
 10
-15.595561
 20
-96.906563
 30
0.0
 70
    32
  0
VERTEX
  5
281
330
26B
100
AcDbEntity
  8
1
100
AcDbVertex
100
AcDb3dPolylineVertex
 10
-15.754098
 20
-96.87470600000001
 30
0.0
 70
    32
  0
VERTEX
  5
282
330
26B
100
AcDbEntity
  8
1
100
AcDbVertex
100
AcDb3dPolylineVertex
 10
-15.912869
 20
-96.843765
 30
0.0
 70
    32
  0
VERTEX
  5
283
330
26B
100
AcDbEntity
  8
1
100
AcDbVertex
100
AcDb3dPolylineVertex
 10
-16.071639
 20
-96.812824
 30
0.0
 70
    32
  0
VERTEX
  5
284
330
26B
100
AcDbEntity
  8
1
100
AcDbVertex
100
AcDb3dPolylineVertex
 10
-16.230409
 20
-96.781883
 30
0.0
 70
    32
  0
VERTEX
  5
285
330
26B
100
AcDbEntity
  8
1
100
AcDbVertex
100
AcDb3dPolylineVertex
 10
-16.390599
 20
-96.75982600000001
 30
0.0
 70
    32
  0
SEQEND
  5
286
330
26B
100
AcDbEntity
  8
1
  0
POLYLINE
  5
287
330
3E3
100
AcDbEntity
  8
1
100
AcDb3dPolyline
 66
     1
 10
0.0
 20
0.0
 30
0.0
 70
     8
  0
VERTEX
  5
288
330
287
100
AcDbEntity
  8
1
100
AcDbVertex
100
AcDb3dPolylineVertex
 10
-19.812361
 20
-113.957797
 30
0.0
 70
    32
  0
VERTEX
  5
289
330
287
100
AcDbEntity
  8
1
100
AcDbVertex
100
AcDb3dPolylineVertex
 10
-19.63089
 20
-113.944927
 30
0.0
 70
    32
  0
VERTEX
  5
28A
330
287
100
AcDbEntity
  8
1
100
AcDbVertex
100
AcDb3dPolylineVertex
 10
-19.449419
 20
-113.932056
 30
0.0
 70
    32
  0
VERTEX
  5
28B
330
287
100
AcDbEntity
  8
1
100
AcDbVertex
100
AcDb3dPolylineVertex
 10
-19.267831
 20
-113.923162
 30
0.0
 70
    32
  0
VERTEX
  5
28C
330
287
100
AcDbEntity
  8
1
100
AcDbVertex
100
AcDb3dPolylineVertex
 10
-19.085918
 20
-113.925373
 30
0.0
 70
    32
  0
VERTEX
  5
28D
330
287
100
AcDbEntity
  8
1
100
AcDbVertex
100
AcDb3dPolylineVertex
 10
-18.904004
 20
-113.927584
 30
0.0
 70
    32
  0
VERTEX
  5
28E
330
287
100
AcDbEntity
  8
1
100
AcDbVertex
100
AcDb3dPolylineVertex
 10
-18.722634
 20
-113.940006
 30
0.0
 70
    32
  0
VERTEX
  5
28F
330
287
100
AcDbEntity
  8
1
100
AcDbVertex
100
AcDb3dPolylineVertex
 10
-18.54151
 20
-113.957087
 30
0.0
 70
    32
  0
VERTEX
  5
290
330
287
100
AcDbEntity
  8
1
100
AcDbVertex
100
AcDb3dPolylineVertex
 10
-18.360445
 20
-113.974586
 30
0.0
 70
    32
  0
VERTEX
  5
291
330
287
100
AcDbEntity
  8
1
100
AcDbVertex
100
AcDb3dPolylineVertex
 10
-18.181539
 20
-114.0076
 30
0.0
 70
    32
  0
VERTEX
  5
292
330
287
100
AcDbEntity
  8
1
100
AcDbVertex
100
AcDb3dPolylineVertex
 10
-18.002633
 20
-114.040613
 30
0.0
 70
    32
  0
VERTEX
  5
293
330
287
100
AcDbEntity
  8
1
100
AcDbVertex
100
AcDb3dPolylineVertex
 10
-17.823726
 20
-114.073626
 30
0.0
 70
    32
  0
VERTEX
  5
294
330
287
100
AcDbEntity
  8
1
100
AcDbVertex
100
AcDb3dPolylineVertex
 10
-17.646397
 20
-114.113196
 30
0.0
 70
    32
  0
VERTEX
  5
295
330
287
100
AcDbEntity
  8
1
100
AcDbVertex
100
AcDb3dPolylineVertex
 10
-17.472044
 20
-114.165144
 30
0.0
 70
    32
  0
VERTEX
  5
296
330
287
100
AcDbEntity
  8
1
100
AcDbVertex
100
AcDb3dPolylineVertex
 10
-17.297692
 20
-114.217093
 30
0.0
 70
    32
  0
VERTEX
  5
297
330
287
100
AcDbEntity
  8
1
100
AcDbVertex
100
AcDb3dPolylineVertex
 10
-17.12334
 20
-114.269042
 30
0.0
 70
    32
  0
VERTEX
  5
298
330
287
100
AcDbEntity
  8
1
100
AcDbVertex
100
AcDb3dPolylineVertex
 10
-16.9536
 20
-114.33393
 30
0.0
 70
    32
  0
VERTEX
  5
299
330
287
100
AcDbEntity
  8
1
100
AcDbVertex
100
AcDb3dPolylineVertex
 10
-16.785699
 20
-114.403978
 30
0.0
 70
    32
  0
VERTEX
  5
29A
330
287
100
AcDbEntity
  8
1
100
AcDbVertex
100
AcDb3dPolylineVertex
 10
-16.617799
 20
-114.474027
 30
0.0
 70
    32
  0
VERTEX
  5
29B
330
287
100
AcDbEntity
  8
1
100
AcDbVertex
100
AcDb3dPolylineVertex
 10
-16.450879
 20
-114.546119
 30
0.0
 70
    32
  0
VERTEX
  5
29C
330
287
100
AcDbEntity
  8
1
100
AcDbVertex
100
AcDb3dPolylineVertex
 10
-16.291192
 20
-114.633282
 30
0.0
 70
    32
  0
VERTEX
  5
29D
330
287
100
AcDbEntity
  8
1
100
AcDbVertex
100
AcDb3dPolylineVertex
 10
-16.131504
 20
-114.720444
 30
0.0
 70
    32
  0
VERTEX
  5
29E
330
287
100
AcDbEntity
  8
1
100
AcDbVertex
100
AcDb3dPolylineVertex
 10
-15.971817
 20
-114.807607
 30
0.0
 70
    32
  0
VERTEX
  5
29F
330
287
100
AcDbEntity
  8
1
100
AcDbVertex
100
AcDb3dPolylineVertex
 10
-15.817549
 20
-114.903581
 30
0.0
 70
    32
  0
VERTEX
  5
2A0
330
287
100
AcDbEntity
  8
1
100
AcDbVertex
100
AcDb3dPolylineVertex
 10
-15.667715
 20
-115.006768
 30
0.0
 70
    32
  0
VERTEX
  5
2A1
330
287
100
AcDbEntity
  8
1
100
AcDbVertex
100
AcDb3dPolylineVertex
 10
-15.517882
 20
-115.109954
 30
0.0
 70
    32
  0
VERTEX
  5
2A2
330
287
100
AcDbEntity
  8
1
100
AcDbVertex
100
AcDb3dPolylineVertex
 10
-15.368049
 20
-115.21314
 30
0.0
 70
    32
  0
VERTEX
  5
2A3
330
287
100
AcDbEntity
  8
1
100
AcDbVertex
100
AcDb3dPolylineVertex
 10
-15.229602
 20
-115.331162
 30
0.0
 70
    32
  0
VERTEX
  5
2A4
330
287
100
AcDbEntity
  8
1
100
AcDbVertex
100
AcDb3dPolylineVertex
 10
-15.09117
 20
-115.449204
 30
0.0
 70
    32
  0
VERTEX
  5
2A5
330
287
100
AcDbEntity
  8
1
100
AcDbVertex
100
AcDb3dPolylineVertex
 10
-14.952738
 20
-115.567247
 30
0.0
 70
    32
  0
VERTEX
  5
2A6
330
287
100
AcDbEntity
  8
1
100
AcDbVertex
100
AcDb3dPolylineVertex
 10
-14.820217
 20
-115.691539
 30
0.0
 70
    32
  0
VERTEX
  5
2A7
330
287
100
AcDbEntity
  8
1
100
AcDbVertex
100
AcDb3dPolylineVertex
 10
-14.694661
 20
-115.823193
 30
0.0
 70
    32
  0
VERTEX
  5
2A8
330
287
100
AcDbEntity
  8
1
100
AcDbVertex
100
AcDb3dPolylineVertex
 10
-14.569104
 20
-115.954848
 30
0.0
 70
    32
  0
VERTEX
  5
2A9
330
287
100
AcDbEntity
  8
1
100
AcDbVertex
100
AcDb3dPolylineVertex
 10
-14.443548
 20
-116.086503
 30
0.0
 70
    32
  0
VERTEX
  5
2AA
330
287
100
AcDbEntity
  8
1
100
AcDbVertex
100
AcDb3dPolylineVertex
 10
-14.331054
 20
-116.22939
 30
0.0
 70
    32
  0
VERTEX
  5
2AB
330
287
100
AcDbEntity
  8
1
100
AcDbVertex
100
AcDb3dPolylineVertex
 10
-14.219704
 20
-116.373259
 30
0.0
 70
    32
  0
VERTEX
  5
2AC
330
287
100
AcDbEntity
  8
1
100
AcDbVertex
100
AcDb3dPolylineVertex
 10
-14.108354
 20
-116.517129
 30
0.0
 70
    32
  0
VERTEX
  5
2AD
330
287
100
AcDbEntity
  8
1
100
AcDbVertex
100
AcDb3dPolylineVertex
 10
-14.00269
 20
-116.664948
 30
0.0
 70
    32
  0
VERTEX
  5
2AE
330
287
100
AcDbEntity
  8
1
100
AcDbVertex
100
AcDb3dPolylineVertex
 10
-13.906781
 20
-116.81954
 30
0.0
 70
    32
  0
VERTEX
  5
2AF
330
287
100
AcDbEntity
  8
1
100
AcDbVertex
100
AcDb3dPolylineVertex
 10
-13.810871
 20
-116.974132
 30
0.0
 70
    32
  0
VERTEX
  5
2B0
330
287
100
AcDbEntity
  8
1
100
AcDbVertex
100
AcDb3dPolylineVertex
 10
-13.714961
 20
-117.128724
 30
0.0
 70
    32
  0
VERTEX
  5
2B1
330
287
100
AcDbEntity
  8
1
100
AcDbVertex
100
AcDb3dPolylineVertex
 10
-13.632311
 20
-117.290615
 30
0.0
 70
    32
  0
VERTEX
  5
2B2
330
287
100
AcDbEntity
  8
1
100
AcDbVertex
100
AcDb3dPolylineVertex
 10
-13.553
 20
-117.454343
 30
0.0
 70
    32
  0
VERTEX
  5
2B3
330
287
100
AcDbEntity
  8
1
100
AcDbVertex
100
AcDb3dPolylineVertex
 10
-13.473689
 20
-117.618072
 30
0.0
 70
    32
  0
VERTEX
  5
2B4
330
287
100
AcDbEntity
  8
1
100
AcDbVertex
100
AcDb3dPolylineVertex
 10
-13.397968
 20
-117.783313
 30
0.0
 70
    32
  0
VERTEX
  5
2B5
330
287
100
AcDbEntity
  8
1
100
AcDbVertex
100
AcDb3dPolylineVertex
 10
-13.336315
 20
-117.954474
 30
0.0
 70
    32
  0
VERTEX
  5
2B6
330
287
100
AcDbEntity
  8
1
100
AcDbVertex
100
AcDb3dPolylineVertex
 10
-13.274662
 20
-118.125635
 30
0.0
 70
    32
  0
VERTEX
  5
2B7
330
287
100
AcDbEntity
  8
1
100
AcDbVertex
100
AcDb3dPolylineVertex
 10
-13.213008
 20
-118.296797
 30
0.0
 70
    32
  0
VERTEX
  5
2B8
330
287
100
AcDbEntity
  8
1
100
AcDbVertex
100
AcDb3dPolylineVertex
 10
-13.161981
 20
-118.471157
 30
0.0
 70
    32
  0
VERTEX
  5
2B9
330
287
100
AcDbEntity
  8
1
100
AcDbVertex
100
AcDb3dPolylineVertex
 10
-13.118905
 20
-118.647911
 30
0.0
 70
    32
  0
VERTEX
  5
2BA
330
287
100
AcDbEntity
  8
1
100
AcDbVertex
100
AcDb3dPolylineVertex
 10
-13.075828
 20
-118.824664
 30
0.0
 70
    32
  0
VERTEX
  5
2BB
330
287
100
AcDbEntity
  8
1
100
AcDbVertex
100
AcDb3dPolylineVertex
 10
-13.032752
 20
-119.001418
 30
0.0
 70
    32
  0
VERTEX
  5
2BC
330
287
100
AcDbEntity
  8
1
100
AcDbVertex
100
AcDb3dPolylineVertex
 10
-13.003968
 20
-119.180982
 30
0.0
 70
    32
  0
VERTEX
  5
2BD
330
287
100
AcDbEntity
  8
1
100
AcDbVertex
100
AcDb3dPolylineVertex
 10
-12.976908
 20
-119.360885
 30
0.0
 70
    32
  0
VERTEX
  5
2BE
330
287
100
AcDbEntity
  8
1
100
AcDbVertex
100
AcDb3dPolylineVertex
 10
-12.95169
 20
-119.540985
 30
0.0
 70
    32
  0
VERTEX
  5
2BF
330
287
100
AcDbEntity
  8
1
100
AcDbVertex
100
AcDb3dPolylineVertex
 10
-12.940108
 20
-119.722543
 30
0.0
 70
    32
  0
VERTEX
  5
2C0
330
287
100
AcDbEntity
  8
1
100
AcDbVertex
100
AcDb3dPolylineVertex
 10
-12.928526
 20
-119.904101
 30
0.0
 70
    32
  0
VERTEX
  5
2C1
330
287
100
AcDbEntity
  8
1
100
AcDbVertex
100
AcDb3dPolylineVertex
 10
-12.923749
 20
-120.085797
 30
0.0
 70
    32
  0
VERTEX
  5
2C2
330
287
100
AcDbEntity
  8
1
100
AcDbVertex
100
AcDb3dPolylineVertex
 10
-12.927929
 20
-120.267676
 30
0.0
 70
    32
  0
VERTEX
  5
2C3
330
287
100
AcDbEntity
  8
1
100
AcDbVertex
100
AcDb3dPolylineVertex
 10
-12.932108
 20
-120.449555
 30
0.0
 70
    32
  0
VERTEX
  5
2C4
330
287
100
AcDbEntity
  8
1
100
AcDbVertex
100
AcDb3dPolylineVertex
 10
-12.942603
 20
-120.631097
 30
0.0
 70
    32
  0
VERTEX
  5
2C5
330
287
100
AcDbEntity
  8
1
100
AcDbVertex
100
AcDb3dPolylineVertex
 10
-12.957766
 20
-120.812391
 30
0.0
 70
    32
  0
SEQEND
  5
2C6
330
287
100
AcDbEntity
  8
1
  0
INSERT
  5
2C7
330
3E3
100
AcDbEntity
  8
SK2
100
AcDbBlockReference
  2
ASSORTEDPART1
 10
0.0
 20
0.0
 30
0.0
  0
INSERT
  5
2C8
330
3E3
100
AcDbEntity
  8
2L
100
AcDbBlockReference
  2
ASSORTEDPART2
 10
0.0
 20
0.0
 30
0.0
  0
INSERT
  5
2C9
330
3E3
100
AcDbEntity
  8
2L
100
AcDbBlockReference
  2
ASSORTEDPART3
 10
0.0
 20
0.0
 30
0.0
  0
DIMENSION
  5
2CA
330
3E3
100
AcDbEntity
  8
2L
100
AcDbDimension
  2
*D0
 10
-47.04440499999999
 20
-126.35005
 30
0.0
 11
-48.54440499999999
 21
-111.551328
 31
0.0
  1
34
 71
     5
 42
-1.0
  3
SANDVIK_DIM
100
AcDbAlignedDimension
 13
-19.935922
 23
-92.348458
 33
0.0
 14
-25.412513
 24
-126.35005
 34
0.0
 50
90.0
100
AcDbRotatedDimension
  0
DIMENSION
  5
2CB
330
3E3
100
AcDbEntity
  8
2L
100
AcDbDimension
  2
*D1
 10
-25.412513
 20
-126.35005
 30
0.0
 11
-38.099252
 21
-116.380069
 31
0.0
 70
     2
  1
95%%d
 71
     5
 42
-1.0
  3
SANDVIK_DIM
100
AcDb2LineAngularDimension
 13
-24.804707
 23
-118.868289
 33
0.0
 14
-24.191543
 24
-111.39657
 34
0.0
 15
-40.422444
 25
-126.35005
 35
0.0
 16
-35.500133
 26
-115.407392
 36
0.0
  0
ENDSEC
  0
SECTION
  2
OBJECTS
  0
DICTIONARY
  5
37F
330
0
100
AcDbDictionary
281
     1
  3
ACAD_CIP_PREVIOUS_PRODUCT_INFO
350
418
  3
ACAD_COLOR
350
3D5
  3
ACAD_DETAILVIEWSTYLE
350
3DD
  3
ACAD_GROUP
350
380
  3
ACAD_LAYOUT
350
3D4
  3
ACAD_MATERIAL
350
383
  3
ACAD_MLEADERSTYLE
350
3D8
  3
ACAD_MLINESTYLE
350
3D1
  3
ACAD_PLOTSETTINGS
350
3D3
  3
ACAD_PLOTSTYLENAME
350
381
  3
ACAD_SCALELIST
350
3B5
  3
ACAD_SECTIONVIEWSTYLE
350
3DA
  3
ACAD_TABLESTYLE
350
3D6
  3
ACAD_VISUALSTYLE
350
39C
  3
ACDB_RECOMPOSE_DATA
350
474
  3
AcDbVariableDictionary
350
467
  3
DWGPROPS
350
475
  0
DICTIONARY
  5
41B
330
3C7
100
AcDbDictionary
280
     1
281
     1
  3
ADSK_XREC_LAYER_RECONCILED
360
41C
  0
DICTIONARY
  5
41D
330
3E7
100
AcDbDictionary
280
     1
281
     1
  3
ADSK_XREC_LAYER_RECONCILED
360
41E
  0
DICTIONARY
  5
41F
330
3EB
100
AcDbDictionary
280
     1
281
     1
  3
ADSK_XREC_LAYER_RECONCILED
360
420
  0
DICTIONARY
  5
421
330
3EC
100
AcDbDictionary
280
     1
281
     1
  3
ADSK_XREC_LAYER_RECONCILED
360
422
  0
DICTIONARY
  5
423
330
3ED
100
AcDbDictionary
280
     1
281
     1
  3
ADSK_XREC_LAYER_RECONCILED
360
424
  0
DICTIONARY
  5
425
330
3EE
100
AcDbDictionary
280
     1
281
     1
  3
ADSK_XREC_LAYER_RECONCILED
360
426
  0
DICTIONARY
  5
427
330
3EF
100
AcDbDictionary
280
     1
281
     1
  3
ADSK_XREC_LAYER_RECONCILED
360
428
  0
DICTIONARY
  5
429
330
3F0
100
AcDbDictionary
280
     1
281
     1
  3
ADSK_XREC_LAYER_RECONCILED
360
42A
  0
DICTIONARY
  5
42B
330
3F1
100
AcDbDictionary
280
     1
281
     1
  3
ADSK_XREC_LAYER_RECONCILED
360
42C
  0
DICTIONARY
  5
42D
330
3F2
100
AcDbDictionary
280
     1
281
     1
  3
ADSK_XREC_LAYER_RECONCILED
360
42E
  0
DICTIONARY
  5
42F
330
3F3
100
AcDbDictionary
280
     1
281
     1
  3
ADSK_XREC_LAYER_RECONCILED
360
430
  0
DICTIONARY
  5
431
330
3F4
100
AcDbDictionary
280
     1
281
     1
  3
ADSK_XREC_LAYER_RECONCILED
360
432
  0
DICTIONARY
  5
433
330
3F5
100
AcDbDictionary
280
     1
281
     1
  3
ADSK_XREC_LAYER_RECONCILED
360
434
  0
DICTIONARY
  5
435
330
3F6
100
AcDbDictionary
280
     1
281
     1
  3
ADSK_XREC_LAYER_RECONCILED
360
436
  0
DICTIONARY
  5
437
330
3F7
100
AcDbDictionary
280
     1
281
     1
  3
ADSK_XREC_LAYER_RECONCILED
360
438
  0
DICTIONARY
  5
439
330
3F8
100
AcDbDictionary
280
     1
281
     1
  3
ADSK_XREC_LAYER_RECONCILED
360
43A
  0
DICTIONARY
  5
43B
330
3F9
100
AcDbDictionary
280
     1
281
     1
  3
ADSK_XREC_LAYER_RECONCILED
360
43C
  0
DICTIONARY
  5
43D
330
3FA
100
AcDbDictionary
280
     1
281
     1
  3
ADSK_XREC_LAYER_RECONCILED
360
43E
  0
DICTIONARY
  5
43F
330
3FB
100
AcDbDictionary
280
     1
281
     1
  3
ADSK_XREC_LAYER_RECONCILED
360
440
  0
DICTIONARY
  5
441
330
3FC
100
AcDbDictionary
280
     1
281
     1
  3
ADSK_XREC_LAYER_RECONCILED
360
442
  0
DICTIONARY
  5
443
330
3FD
100
AcDbDictionary
280
     1
281
     1
  3
ADSK_XREC_LAYER_RECONCILED
360
444
  0
DICTIONARY
  5
445
330
3FE
100
AcDbDictionary
280
     1
281
     1
  3
ADSK_XREC_LAYER_RECONCILED
360
446
  0
DICTIONARY
  5
447
330
3FF
100
AcDbDictionary
280
     1
281
     1
  3
ADSK_XREC_LAYER_RECONCILED
360
448
  0
DICTIONARY
  5
449
330
400
100
AcDbDictionary
280
     1
281
     1
  3
ADSK_XREC_LAYER_RECONCILED
360
44A
  0
DICTIONARY
  5
44B
330
401
100
AcDbDictionary
280
     1
281
     1
  3
ADSK_XREC_LAYER_RECONCILED
360
44C
  0
DICTIONARY
  5
44D
330
402
100
AcDbDictionary
280
     1
281
     1
  3
ADSK_XREC_LAYER_RECONCILED
360
44E
  0
DICTIONARY
  5
44F
330
403
100
AcDbDictionary
280
     1
281
     1
  3
ADSK_XREC_LAYER_RECONCILED
360
450
  0
DICTIONARY
  5
451
330
404
100
AcDbDictionary
280
     1
281
     1
  3
ADSK_XREC_LAYER_RECONCILED
360
452
  0
DICTIONARY
  5
453
330
405
100
AcDbDictionary
280
     1
281
     1
  3
ADSK_XREC_LAYER_RECONCILED
360
454
  0
DICTIONARY
  5
455
330
406
100
AcDbDictionary
280
     1
281
     1
  3
ADSK_XREC_LAYER_RECONCILED
360
456
  0
DICTIONARY
  5
457
330
407
100
AcDbDictionary
280
     1
281
     1
  3
ADSK_XREC_LAYER_RECONCILED
360
458
  0
DICTIONARY
  5
459
330
408
100
AcDbDictionary
280
     1
281
     1
  3
ADSK_XREC_LAYER_RECONCILED
360
45A
  0
DICTIONARY
  5
45B
330
409
100
AcDbDictionary
280
     1
281
     1
  3
ADSK_XREC_LAYER_RECONCILED
360
45C
  0
DICTIONARY
  5
45D
330
40A
100
AcDbDictionary
280
     1
281
     1
  3
ADSK_XREC_LAYER_RECONCILED
360
45E
  0
DICTIONARY
  5
45F
330
40B
100
AcDbDictionary
280
     1
281
     1
  3
ADSK_XREC_LAYER_RECONCILED
360
460
  0
DICTIONARY
  5
461
330
40C
100
AcDbDictionary
280
     1
281
     1
  3
ADSK_XREC_LAYER_RECONCILED
360
462
  0
DICTIONARY
  5
463
330
40D
100
AcDbDictionary
280
     1
281
     1
  3
ADSK_XREC_LAYER_RECONCILED
360
464
  0
DICTIONARY
  5
465
330
40E
100
AcDbDictionary
280
     1
281
     1
  3
ADSK_XREC_LAYER_RECONCILED
360
466
  0
XRECORD
  5
418
102
{ACAD_REACTORS
330
37F
102
}
330
37F
100
AcDbXrecord
280
     1
300
AMECH_PP
300
2013
300
PDSU_F_S
  0
DICTIONARY
  5
3D5
102
{ACAD_REACTORS
330
37F
102
}
330
37F
100
AcDbDictionary
281
     1
  0
DICTIONARY
  5
3DD
102
{ACAD_REACTORS
330
37F
102
}
330
37F
100
AcDbDictionary
281
     1
  3
Imperial24
350
3DE
  0
DICTIONARY
  5
380
102
{ACAD_REACTORS
330
37F
102
}
330
37F
100
AcDbDictionary
281
     1
  0
DICTIONARY
  5
3D4
102
{ACAD_REACTORS
330
37F
102
}
330
37F
100
AcDbDictionary
281
     1
  3
Layout1
350
3E2
  3
Model
350
3E6
  0
DICTIONARY
  5
383
102
{ACAD_REACTORS
330
37F
102
}
330
37F
100
AcDbDictionary
281
     1
  3
ByBlock
350
38C
  3
ByLayer
350
384
  3
Global
350
394
  0
DICTIONARY
  5
3D8
102
{ACAD_REACTORS
330
37F
102
}
330
37F
100
AcDbDictionary
281
     1
  3
Standard
350
3D9
  0
DICTIONARY
  5
3D1
102
{ACAD_REACTORS
330
37F
102
}
330
37F
100
AcDbDictionary
281
     1
  3
Standard
350
3D2
  0
DICTIONARY
  5
3D3
102
{ACAD_REACTORS
330
37F
102
}
330
37F
100
AcDbDictionary
281
     1
  0
ACDBDICTIONARYWDFLT
  5
381
102
{ACAD_REACTORS
330
37F
102
}
330
37F
100
AcDbDictionary
281
     1
  3
Normal
350
382
100
AcDbDictionaryWithDefault
340
382
  0
DICTIONARY
  5
3B5
102
{ACAD_REACTORS
330
37F
102
}
330
37F
100
AcDbDictionary
281
     1
  3
A0
350
3B6
  3
A1
350
3B7
  3
A2
350
3B8
  3
A3
350
3B9
  3
A4
350
3BA
  3
A5
350
3BB
  3
A6
350
3BC
  3
A7
350
3BD
  3
A8
350
3BE
  3
A9
350
3BF
  3
B0
350
3C0
  3
B1
350
3C1
  3
B2
350
3C2
  3
B3
350
3C3
  3
B4
350
3C4
  3
B5
350
3C5
  3
B6
350
3C6
  0
DICTIONARY
  5
3DA
102
{ACAD_REACTORS
330
37F
102
}
330
37F
100
AcDbDictionary
281
     1
  3
Imperial24
350
3DC
  0
DICTIONARY
  5
3D6
102
{ACAD_REACTORS
330
37F
102
}
330
37F
100
AcDbDictionary
281
     1
  3
Standard
350
3D7
  0
DICTIONARY
  5
39C
102
{ACAD_REACTORS
330
37F
102
}
330
37F
100
AcDbDictionary
281
     1
  3
2dWireframe
350
3A2
  3
Basic
350
3A1
  3
Brighten
350
3A8
  3
ColorChange
350
3AC
  3
Conceptual
350
3A5
  3
Dim
350
3A7
  3
EdgeColorOff
350
3B4
  3
Facepattern
350
3AB
  3
Flat
350
39D
  3
FlatWithEdges
350
39E
  3
Gouraud
350
39F
  3
GouraudWithEdges
350
3A0
  3
Hidden
350
3A4
  3
JitterOff
350
3B2
  3
Linepattern
350
3AA
  3
OverhangOff
350
3B3
  3
Realistic
350
3A6
  3
Shaded
350
3B1
  3
Shaded with edges
350
3B0
  3
Shades of Gray
350
3AD
  3
Sketchy
350
3AE
  3
Thicken
350
3A9
  3
Wireframe
350
3A3
  3
X-Ray
350
3AF
  0
XRECORD
  5
474
102
{ACAD_REACTORS
330
37F
102
}
330
37F
100
AcDbXrecord
280
     1
 90
        1
330
3D7
  0
DICTIONARY
  5
467
102
{ACAD_REACTORS
330
37F
102
}
330
37F
100
AcDbDictionary
281
     1
  3
CANNOSCALE
350
46C
  3
CMLEADERSTYLE
350
469
  3
CTABLESTYLE
350
468
  3
CVIEWDETAILSTYLE
350
46A
  3
CVIEWSECTIONSTYLE
350
46B
  3
DIMASSOC
350
46F
  3
INDEXCTL
350
46E
  3
SORTENTS
350
46D
  3
XCLIPFRAME
350
470
  0
XRECORD
  5
475
102
{ACAD_REACTORS
330
37F
102
}
330
37F
100
AcDbXrecord
280
     1
  1
DWGPROPS COOKIE
  2

  3

  4

  6

  7

  8
Micke
  9

300
=
301
=
302
=
303
=
304
=
305
=
306
=
307
=
308
=
309
=
 40
0.0000063194444444
 41
2456818.406432824
 42
2456818.40643897
  1

 90
        0
  0
XRECORD
  5
41C
102
{ACAD_REACTORS
330
41B
102
}
330
41B
100
AcDbXrecord
280
     1
290
     1
  0
XRECORD
  5
41E
102
{ACAD_REACTORS
330
41D
102
}
330
41D
100
AcDbXrecord
280
     1
290
     1
  0
XRECORD
  5
420
102
{ACAD_REACTORS
330
41F
102
}
330
41F
100
AcDbXrecord
280
     1
290
     1
  0
XRECORD
  5
422
102
{ACAD_REACTORS
330
421
102
}
330
421
100
AcDbXrecord
280
     1
290
     1
  0
XRECORD
  5
424
102
{ACAD_REACTORS
330
423
102
}
330
423
100
AcDbXrecord
280
     1
290
     1
  0
XRECORD
  5
426
102
{ACAD_REACTORS
330
425
102
}
330
425
100
AcDbXrecord
280
     1
290
     1
  0
XRECORD
  5
428
102
{ACAD_REACTORS
330
427
102
}
330
427
100
AcDbXrecord
280
     1
290
     1
  0
XRECORD
  5
42A
102
{ACAD_REACTORS
330
429
102
}
330
429
100
AcDbXrecord
280
     1
290
     1
  0
XRECORD
  5
42C
102
{ACAD_REACTORS
330
42B
102
}
330
42B
100
AcDbXrecord
280
     1
290
     1
  0
XRECORD
  5
42E
102
{ACAD_REACTORS
330
42D
102
}
330
42D
100
AcDbXrecord
280
     1
290
     1
  0
XRECORD
  5
430
102
{ACAD_REACTORS
330
42F
102
}
330
42F
100
AcDbXrecord
280
     1
290
     1
  0
XRECORD
  5
432
102
{ACAD_REACTORS
330
431
102
}
330
431
100
AcDbXrecord
280
     1
290
     1
  0
XRECORD
  5
434
102
{ACAD_REACTORS
330
433
102
}
330
433
100
AcDbXrecord
280
     1
290
     1
  0
XRECORD
  5
436
102
{ACAD_REACTORS
330
435
102
}
330
435
100
AcDbXrecord
280
     1
290
     1
  0
XRECORD
  5
438
102
{ACAD_REACTORS
330
437
102
}
330
437
100
AcDbXrecord
280
     1
290
     1
  0
XRECORD
  5
43A
102
{ACAD_REACTORS
330
439
102
}
330
439
100
AcDbXrecord
280
     1
290
     1
  0
XRECORD
  5
43C
102
{ACAD_REACTORS
330
43B
102
}
330
43B
100
AcDbXrecord
280
     1
290
     1
  0
XRECORD
  5
43E
102
{ACAD_REACTORS
330
43D
102
}
330
43D
100
AcDbXrecord
280
     1
290
     1
  0
XRECORD
  5
440
102
{ACAD_REACTORS
330
43F
102
}
330
43F
100
AcDbXrecord
280
     1
290
     1
  0
XRECORD
  5
442
102
{ACAD_REACTORS
330
441
102
}
330
441
100
AcDbXrecord
280
     1
290
     1
  0
XRECORD
  5
444
102
{ACAD_REACTORS
330
443
102
}
330
443
100
AcDbXrecord
280
     1
290
     1
  0
XRECORD
  5
446
102
{ACAD_REACTORS
330
445
102
}
330
445
100
AcDbXrecord
280
     1
290
     1
  0
XRECORD
  5
448
102
{ACAD_REACTORS
330
447
102
}
330
447
100
AcDbXrecord
280
     1
290
     1
  0
XRECORD
  5
44A
102
{ACAD_REACTORS
330
449
102
}
330
449
100
AcDbXrecord
280
     1
290
     1
  0
XRECORD
  5
44C
102
{ACAD_REACTORS
330
44B
102
}
330
44B
100
AcDbXrecord
280
     1
290
     1
  0
XRECORD
  5
44E
102
{ACAD_REACTORS
330
44D
102
}
330
44D
100
AcDbXrecord
280
     1
290
     1
  0
XRECORD
  5
450
102
{ACAD_REACTORS
330
44F
102
}
330
44F
100
AcDbXrecord
280
     1
290
     1
  0
XRECORD
  5
452
102
{ACAD_REACTORS
330
451
102
}
330
451
100
AcDbXrecord
280
     1
290
     1
  0
XRECORD
  5
454
102
{ACAD_REACTORS
330
453
102
}
330
453
100
AcDbXrecord
280
     1
290
     1
  0
XRECORD
  5
456
102
{ACAD_REACTORS
330
455
102
}
330
455
100
AcDbXrecord
280
     1
290
     1
  0
XRECORD
  5
458
102
{ACAD_REACTORS
330
457
102
}
330
457
100
AcDbXrecord
280
     1
290
     1
  0
XRECORD
  5
45A
102
{ACAD_REACTORS
330
459
102
}
330
459
100
AcDbXrecord
280
     1
290
     1
  0
XRECORD
  5
45C
102
{ACAD_REACTORS
330
45B
102
}
330
45B
100
AcDbXrecord
280
     1
290
     1
  0
XRECORD
  5
45E
102
{ACAD_REACTORS
330
45D
102
}
330
45D
100
AcDbXrecord
280
     1
290
     1
  0
XRECORD
  5
460
102
{ACAD_REACTORS
330
45F
102
}
330
45F
100
AcDbXrecord
280
     1
290
     1
  0
XRECORD
  5
462
102
{ACAD_REACTORS
330
461
102
}
330
461
100
AcDbXrecord
280
     1
290
     1
  0
XRECORD
  5
464
102
{ACAD_REACTORS
330
463
102
}
330
463
100
AcDbXrecord
280
     1
290
     1
  0
XRECORD
  5
466
102
{ACAD_REACTORS
330
465
102
}
330
465
100
AcDbXrecord
280
     1
290
     1
  0
ACDBDETAILVIEWSTYLE
  5
3DE
102
{ACAD_REACTORS
330
3DD
102
}
330
3DD
100
AcDbModelDocViewStyle
 70
     0
  3
Imperial24
290
     0
100
AcDbDetailViewStyle
 70
     0
 71
     0
 90
        3
 71
     1
340
3C8
 40
0.24
340
0
 40
0.24
300

 40
0.36
280
     3
 71
     2
340
3CF
 90
       25
 71
     3
340
3C8
 40
0.24
 90
        1
 40
0.75
 90
        1
300
%<\AcVar ViewType \f "%tc1">% %<\AcVar ViewDetailId>%\PSCALE %<\AcVar ViewScale \f "%sn">%
 71
     4
340
3CF
 90
       25
340
3CF
 90
       25
280
     0
  0
LAYOUT
  5
3E2
102
{ACAD_XDICTIONARY
360
4AD
102
}
102
{ACAD_REACTORS
330
3D4
102
}
330
3D4
100
AcDbPlotSettings
  1

  2
Brother DCP-9020CDW Printer
  4

  6

 40
0.0
 41
0.0
 42
0.0
 43
0.0
 44
0.0
 45
0.0
 46
0.0
 47
0.0
 48
0.0
 49
0.0
140
0.0
141
0.0
142
1.0
143
1.0
 70
   688
 72
     0
 73
     0
 74
     5
  7

 75
    16
147
1.0
148
0.0
149
0.0
100
AcDbLayout
  1
Layout1
 70
     1
 71
     1
 10
0.0
 20
0.0
 11
12.0
 21
9.0
 12
0.0
 22
0.0
 32
0.0
 14
1.000000000000000E+20
 24
1.000000000000000E+20
 34
1.000000000000000E+20
 15
-1.000000000000000E+20
 25
-1.000000000000000E+20
 35
-1.000000000000000E+20
146
0.0
 13
0.0
 23
0.0
 33
0.0
 16
1.0
 26
0.0
 36
0.0
 17
0.0
 27
1.0
 37
0.0
 76
     0
330
3DF
  0
LAYOUT
  5
3E6
102
{ACAD_XDICTIONARY
360
4AF
102
}
102
{ACAD_REACTORS
330
3D4
102
}
330
3D4
100
AcDbPlotSettings
  1

  2
Brother DCP-9020CDW Printer
  4

  6

 40
0.0
 41
0.0
 42
0.0
 43
0.0
 44
0.0
 45
0.0
 46
0.0
 47
0.0
 48
0.0
 49
0.0
140
0.0
141
0.0
142
1.0
143
1.0
 70
  1712
 72
     0
 73
     0
 74
     0
  7

 75
     0
147
1.0
148
0.0
149
0.0
100
AcDbLayout
  1
Model
 70
     1
 71
     0
 10
0.0
 20
0.0
 11
12.0
 21
9.0
 12
0.0
 22
0.0
 32
0.0
 14
0.0
 24
0.0
 34
0.0
 15
0.0
 25
0.0
 35
0.0
146
0.0
 13
0.0
 23
0.0
 33
0.0
 16
1.0
 26
0.0
 36
0.0
 17
0.0
 27
1.0
 37
0.0
 76
     0
330
3E3
331
412
  0
MATERIAL
  5
38C
102
{ACAD_XDICTIONARY
360
38D
102
}
102
{ACAD_REACTORS
330
383
102
}
330
383
100
AcDbMaterial
  1
ByBlock
 72
     0
 43
0.0208333333333333
 43
0.0
 43
0.0
 43
0.0
 43
0.0
 43
0.0208333333333333
 43
0.0
 43
0.0
 43
0.0
 43
0.0
 43
1.0
 43
0.0
 43
0.0
 43
0.0
 43
0.0
 43
1.0
 77
     0
 47
0.0208333333333333
 47
0.0
 47
0.0
 47
0.0
 47
0.0
 47
0.0208333333333333
 47
0.0
 47
0.0
 47
0.0
 47
0.0
 47
1.0
 47
0.0
 47
0.0
 47
0.0
 47
0.0
 47
1.0
171
     0
 49
0.0208333333333333
 49
0.0
 49
0.0
 49
0.0
 49
0.0
 49
0.0208333333333333
 49
0.0
 49
0.0
 49
0.0
 49
0.0
 49
1.0
 49
0.0
 49
0.0
 49
0.0
 49
0.0
 49
1.0
175
     0
142
0.0208333333333333
142
0.0
142
0.0
142
0.0
142
0.0
142
0.0208333333333333
142
0.0
142
0.0
142
0.0
142
0.0
142
1.0
142
0.0
142
0.0
142
0.0
142
0.0
142
1.0
179
     0
144
0.0208333333333333
144
0.0
144
0.0
144
0.0
144
0.0
144
0.0208333333333333
144
0.0
144
0.0
144
0.0
144
0.0
144
1.0
144
0.0
144
0.0
144
0.0
144
0.0
144
1.0
147
0.0208333333333333
147
0.0
147
0.0
147
0.0
147
0.0
147
0.0208333333333333
147
0.0
147
0.0
147
0.0
147
0.0
147
1.0
147
0.0
147
0.0
147
0.0
147
0.0
147
1.0
  0
MATERIAL
  5
384
102
{ACAD_XDICTIONARY
360
385
102
}
102
{ACAD_REACTORS
330
383
102
}
330
383
100
AcDbMaterial
  1
ByLayer
 72
     0
 43
0.0208333333333333
 43
0.0
 43
0.0
 43
0.0
 43
0.0
 43
0.0208333333333333
 43
0.0
 43
0.0
 43
0.0
 43
0.0
 43
1.0
 43
0.0
 43
0.0
 43
0.0
 43
0.0
 43
1.0
 77
     0
 47
0.0208333333333333
 47
0.0
 47
0.0
 47
0.0
 47
0.0
 47
0.0208333333333333
 47
0.0
 47
0.0
 47
0.0
 47
0.0
 47
1.0
 47
0.0
 47
0.0
 47
0.0
 47
0.0
 47
1.0
171
     0
 49
0.0208333333333333
 49
0.0
 49
0.0
 49
0.0
 49
0.0
 49
0.0208333333333333
 49
0.0
 49
0.0
 49
0.0
 49
0.0
 49
1.0
 49
0.0
 49
0.0
 49
0.0
 49
0.0
 49
1.0
175
     0
142
0.0208333333333333
142
0.0
142
0.0
142
0.0
142
0.0
142
0.0208333333333333
142
0.0
142
0.0
142
0.0
142
0.0
142
1.0
142
0.0
142
0.0
142
0.0
142
0.0
142
1.0
179
     0
144
0.0208333333333333
144
0.0
144
0.0
144
0.0
144
0.0
144
0.0208333333333333
144
0.0
144
0.0
144
0.0
144
0.0
144
1.0
144
0.0
144
0.0
144
0.0
144
0.0
144
1.0
147
0.0208333333333333
147
0.0
147
0.0
147
0.0
147
0.0
147
0.0208333333333333
147
0.0
147
0.0
147
0.0
147
0.0
147
1.0
147
0.0
147
0.0
147
0.0
147
0.0
147
1.0
  0
MATERIAL
  5
394
102
{ACAD_XDICTIONARY
360
395
102
}
102
{ACAD_REACTORS
330
383
102
}
330
383
100
AcDbMaterial
  1
Global
 72
     0
 43
0.0208333333333333
 43
0.0
 43
0.0
 43
0.0
 43
0.0
 43
0.0208333333333333
 43
0.0
 43
0.0
 43
0.0
 43
0.0
 43
1.0
 43
0.0
 43
0.0
 43
0.0
 43
0.0
 43
1.0
 77
     0
 47
0.0208333333333333
 47
0.0
 47
0.0
 47
0.0
 47
0.0
 47
0.0208333333333333
 47
0.0
 47
0.0
 47
0.0
 47
0.0
 47
1.0
 47
0.0
 47
0.0
 47
0.0
 47
0.0
 47
1.0
171
     0
 49
0.0208333333333333
 49
0.0
 49
0.0
 49
0.0
 49
0.0
 49
0.0208333333333333
 49
0.0
 49
0.0
 49
0.0
 49
0.0
 49
1.0
 49
0.0
 49
0.0
 49
0.0
 49
0.0
 49
1.0
175
     0
142
0.0208333333333333
142
0.0
142
0.0
142
0.0
142
0.0
142
0.0208333333333333
142
0.0
142
0.0
142
0.0
142
0.0
142
1.0
142
0.0
142
0.0
142
0.0
142
0.0
142
1.0
179
     0
144
0.0208333333333333
144
0.0
144
0.0
144
0.0
144
0.0
144
0.0208333333333333
144
0.0
144
0.0
144
0.0
144
0.0
144
1.0
144
0.0
144
0.0
144
0.0
144
0.0
144
1.0
147
0.0208333333333333
147
0.0
147
0.0
147
0.0
147
0.0
147
0.0208333333333333
147
0.0
147
0.0
147
0.0
147
0.0
147
1.0
147
0.0
147
0.0
147
0.0
147
0.0
147
1.0
  0
MLEADERSTYLE
  5
3D9
102
{ACAD_REACTORS
330
3D8
102
}
330
3D8
100
AcDbMLeaderStyle
170
     2
171
     1
172
     0
 90
        2
 40
0.0
 41
0.0
173
     1
 91
-1056964608
340
3CD
 92
       -2
290
     1
 42
0.09
291
     1
 43
0.36
  3
Standard
 44
0.18
300

342
3C8
174
     1
178
     6
175
     1
176
     0
 93
-1056964608
 45
0.18
292
     0
297
     0
 46
0.18
 94
-1056964608
 47
1.0
 49
1.0
140
1.0
293
     1
141
0.0
294
     1
177
     0
142
1.0
295
     0
296
     0
143
0.125
1001
ACAD_MLEADERVER
1070
     2
  0
MLINESTYLE
  5
3D2
102
{ACAD_REACTORS
330
3D1
102
}
330
3D1
100
AcDbMlineStyle
  2
STANDARD
 70
     0
  3

 62
   256
 51
90.0
 52
90.0
 71
     2
 49
0.5
 62
   256
  6
BYLAYER
 49
-0.5
 62
   256
  6
BYLAYER
  0
ACDBPLACEHOLDER
  5
382
102
{ACAD_REACTORS
330
381
102
}
330
381
  0
SCALE
  5
3B6
102
{ACAD_REACTORS
330
3B5
102
}
330
3B5
100
AcDbScale
 70
     0
300
1:1
140
1.0
141
1.0
290
     1
  0
SCALE
  5
3B7
102
{ACAD_REACTORS
330
3B5
102
}
330
3B5
100
AcDbScale
 70
     0
300
1/128" = 1'-0"
140
0.0078125
141
12.0
290
     0
  0
SCALE
  5
3B8
102
{ACAD_REACTORS
330
3B5
102
}
330
3B5
100
AcDbScale
 70
     0
300
1/64" = 1'-0"
140
0.015625
141
12.0
290
     0
  0
SCALE
  5
3B9
102
{ACAD_REACTORS
330
3B5
102
}
330
3B5
100
AcDbScale
 70
     0
300
1/32" = 1'-0"
140
0.03125
141
12.0
290
     0
  0
SCALE
  5
3BA
102
{ACAD_REACTORS
330
3B5
102
}
330
3B5
100
AcDbScale
 70
     0
300
1/16" = 1'-0"
140
0.0625
141
12.0
290
     0
  0
SCALE
  5
3BB
102
{ACAD_REACTORS
330
3B5
102
}
330
3B5
100
AcDbScale
 70
     0
300
3/32" = 1'-0"
140
0.09375
141
12.0
290
     0
  0
SCALE
  5
3BC
102
{ACAD_REACTORS
330
3B5
102
}
330
3B5
100
AcDbScale
 70
     0
300
1/8" = 1'-0"
140
0.125
141
12.0
290
     0
  0
SCALE
  5
3BD
102
{ACAD_REACTORS
330
3B5
102
}
330
3B5
100
AcDbScale
 70
     0
300
3/16" = 1'-0"
140
0.1875
141
12.0
290
     0
  0
SCALE
  5
3BE
102
{ACAD_REACTORS
330
3B5
102
}
330
3B5
100
AcDbScale
 70
     0
300
1/4" = 1'-0"
140
0.25
141
12.0
290
     0
  0
SCALE
  5
3BF
102
{ACAD_REACTORS
330
3B5
102
}
330
3B5
100
AcDbScale
 70
     0
300
3/8" = 1'-0"
140
0.375
141
12.0
290
     0
  0
SCALE
  5
3C0
102
{ACAD_REACTORS
330
3B5
102
}
330
3B5
100
AcDbScale
 70
     0
300
1/2" = 1'-0"
140
0.5
141
12.0
290
     0
  0
SCALE
  5
3C1
102
{ACAD_REACTORS
330
3B5
102
}
330
3B5
100
AcDbScale
 70
     0
300
3/4" = 1'-0"
140
0.75
141
12.0
290
     0
  0
SCALE
  5
3C2
102
{ACAD_REACTORS
330
3B5
102
}
330
3B5
100
AcDbScale
 70
     0
300
1" = 1'-0"
140
1.0
141
12.0
290
     0
  0
SCALE
  5
3C3
102
{ACAD_REACTORS
330
3B5
102
}
330
3B5
100
AcDbScale
 70
     0
300
1-1/2" = 1'-0"
140
1.5
141
12.0
290
     0
  0
SCALE
  5
3C4
102
{ACAD_REACTORS
330
3B5
102
}
330
3B5
100
AcDbScale
 70
     0
300
3" = 1'-0"
140
3.0
141
12.0
290
     0
  0
SCALE
  5
3C5
102
{ACAD_REACTORS
330
3B5
102
}
330
3B5
100
AcDbScale
 70
     0
300
6" = 1'-0"
140
6.0
141
12.0
290
     0
  0
SCALE
  5
3C6
102
{ACAD_REACTORS
330
3B5
102
}
330
3B5
100
AcDbScale
 70
     0
300
1'-0" = 1'-0"
140
12.0
141
12.0
290
     0
  0
ACDBSECTIONVIEWSTYLE
  5
3DC
102
{ACAD_REACTORS
330
3DA
102
}
330
3DA
100
AcDbModelDocViewStyle
 70
     0
  3
Imperial24
290
     0
100
AcDbSectionViewStyle
 70
     0
 71
     0
 90
       78
 71
     1
340
3C8
 40
0.24
340
0
340
0
 40
0.24
300
I, O, Q, S, X, Z
 40
0.48
 90
        3
 40
0.18
 90
        1
 71
     2
340
3DB
 90
       25
340
3CF
 90
       50
 40
0.24
 40
0.0
 40
0.24
 71
     3
340
3C8
 40
0.24
 90
        1
 40
0.75
 90
        1
300
%<\AcVar ViewType \f "%tc1">% %<\AcVar ViewSectionStartId>%-%<\AcVar ViewSectionEndId>%\PSCALE %<\AcVar ViewScale \f "%sn">%
 71
     4
300
ANSI31
 40
1.0
 90
        0
290
     0
290
     0
 90
        6
 40
0.0
 40
1.570796326794896
 40
0.2617993877991494
 40
1.308996938995747
 40
-0.2617993877991494
 40
1.832595714594046
  0
TABLESTYLE
  5
3D7
102
{ACAD_XDICTIONARY
360
472
102
}
102
{ACAD_REACTORS
330
3D6
102
}
330
3D6
100
AcDbTableStyle
  3
Standard
 70
     0
 71
     0
 40
0.06
 41
0.06
280
     0
281
     0
  7
STANDARD
140
0.18
170
     2
 62
     0
 63
     7
283
     0
274
    -2
284
     1
 64
     0
275
    -2
285
     1
 65
     0
276
    -2
286
     1
 66
     0
277
    -2
287
     1
 67
     0
278
    -2
288
     1
 68
     0
279
    -2
289
     1
 69
     0
  7
STANDARD
140
0.25
170
     5
 62
     0
 63
     7
283
     0
274
    -2
284
     1
 64
     0
275
    -2
285
     1
 65
     0
276
    -2
286
     1
 66
     0
277
    -2
287
     1
 67
     0
278
    -2
288
     1
 68
     0
279
    -2
289
     1
 69
     0
  7
STANDARD
140
0.18
170
     5
 62
     0
 63
     7
283
     0
274
    -2
284
     1
 64
     0
275
    -2
285
     1
 65
     0
276
    -2
286
     1
 66
     0
277
    -2
287
     1
 67
     0
278
    -2
288
     1
 68
     0
279
    -2
289
     1
 69
     0
  0
VISUALSTYLE
  5
3A2
102
{ACAD_XDICTIONARY
360
485
102
}
102
{ACAD_REACTORS
330
39C
102
}
330
39C
100
AcDbVisualStyle
  2
2dWireframe
 70
     4
 71
     0
 72
     2
 73
     0
 90
        0
 40
-0.6
 41
-30.0
 62
     5
 63
     7
 74
     1
 91
        4
 64
     7
 65
   257
 75
     1
175
     1
 42
1.0
 92
        0
 66
   257
 43
1.0
 76
     1
 77
     6
 78
     2
 67
     7
 79
     5
170
     0
171
     0
290
     0
174
     0
 93
        1
 44
0.0
173
     0
291
     0
 45
0.0
1001
ACAD
1000
AcDbSavedByObjectVersion
1070
     0
  0
VISUALSTYLE
  5
3A1
102
{ACAD_XDICTIONARY
360
483
102
}
102
{ACAD_REACTORS
330
39C
102
}
330
39C
100
AcDbVisualStyle
  2
Basic
 70
     7
 71
     1
 72
     0
 73
     1
 90
        0
 40
-0.6
 41
-30.0
 62
     5
 63
     7
 74
     0
 91
        4
 64
     7
 65
   257
 75
     1
175
     1
 42
1.0
 92
        8
 66
     7
 43
1.0
 76
     1
 77
     6
 78
     2
 67
     7
 79
     5
170
     0
171
     0
290
     0
174
     0
 93
        1
 44
0.0
173
     0
291
     1
 45
0.0
1001
ACAD
1000
AcDbSavedByObjectVersion
1070
     0
  0
VISUALSTYLE
  5
3A8
102
{ACAD_XDICTIONARY
360
491
102
}
102
{ACAD_REACTORS
330
39C
102
}
330
39C
100
AcDbVisualStyle
  2
Brighten
 70
    12
 71
     2
 72
     2
 73
     0
 90
        0
 40
-0.6
 41
-30.0
 62
     5
 63
     7
 74
     1
 91
        4
 64
     7
 65
   257
 75
     1
175
     1
 42
1.0
 92
        8
 66
     7
 43
1.0
 76
     1
 77
     6
 78
     2
 67
     7
 79
     5
170
     0
171
     0
290
     0
174
     0
 93
        1
 44
50.0
173
     0
291
     1
 45
0.0
1001
ACAD
1000
AcDbSavedByObjectVersion
1070
     0
  0
VISUALSTYLE
  5
3AC
102
{ACAD_XDICTIONARY
360
499
102
}
102
{ACAD_REACTORS
330
39C
102
}
330
39C
100
AcDbVisualStyle
  2
ColorChange
 70
    16
 71
     2
 72
     2
 73
     3
 90
        0
 40
-0.6
 41
-30.0
 62
     5
 63
     8
 74
     1
 91
        4
 64
     7
 65
   257
 75
     1
175
     1
 42
1.0
 92
        8
 66
     8
 43
1.0
 76
     1
 77
     6
 78
     2
 67
     7
 79
     5
170
     0
171
     0
290
     0
174
     0
 93
        1
 44
0.0
173
     0
291
     1
 45
0.0
1001
ACAD
1000
AcDbSavedByObjectVersion
1070
     0
  0
VISUALSTYLE
  5
3A5
102
{ACAD_XDICTIONARY
360
48B
102
}
102
{ACAD_REACTORS
330
39C
102
}
330
39C
100
AcDbVisualStyle
  2
Conceptual
 70
     9
 71
     3
 72
     2
 73
     0
 90
        0
 40
-0.6
 41
-30.0
 62
     5
 63
     7
 74
     2
 91
        2
 64
     7
 65
   257
 75
     1
175
     1
 42
179.0
 92
        8
 66
     7
 43
1.0
 76
     1
 77
     6
 78
     2
 67
     7
 79
     3
170
     0
171
     0
290
     0
174
     0
 93
        1
 44
0.0
173
     0
291
     0
 45
0.0
1001
ACAD
1000
AcDbSavedByObjectVersion
1070
     0
  0
VISUALSTYLE
  5
3A7
102
{ACAD_XDICTIONARY
360
48F
102
}
102
{ACAD_REACTORS
330
39C
102
}
330
39C
100
AcDbVisualStyle
  2
Dim
 70
    11
 71
     2
 72
     2
 73
     0
 90
        0
 40
-0.6
 41
-30.0
 62
     5
 63
     7
 74
     1
 91
        4
 64
     7
 65
   257
 75
     1
175
     1
 42
1.0
 92
        8
 66
     7
 43
1.0
 76
     1
 77
     6
 78
     2
 67
     7
 79
     5
170
     0
171
     0
290
     0
174
     0
 93
        1
 44
-50.0
173
     0
291
     1
 45
0.0
1001
ACAD
1000
AcDbSavedByObjectVersion
1070
     0
  0
VISUALSTYLE
  5
3B4
102
{ACAD_XDICTIONARY
360
4A9
102
}
102
{ACAD_REACTORS
330
39C
102
}
330
39C
100
AcDbVisualStyle
  2
EdgeColorOff
 70
    22
 71
     2
 72
     2
 73
     0
 90
        0
 40
-0.6
 41
-30.0
 62
     5
 63
     7
 74
     1
 91
        4
 64
     7
 65
   257
 75
     1
175
     1
 42
1.0
 92
        8
 66
     7
 43
1.0
 76
     1
 77
     6
 78
     2
 67
     7
 79
     5
170
     0
171
     0
290
     0
174
     0
 93
        1
 44
0.0
173
     0
291
     1
 45
0.0
1001
ACAD
1000
AcDbSavedByObjectVersion
1070
     0
  0
VISUALSTYLE
  5
3AB
102
{ACAD_XDICTIONARY
360
497
102
}
102
{ACAD_REACTORS
330
39C
102
}
330
39C
100
AcDbVisualStyle
  2
Facepattern
 70
    15
 71
     2
 72
     2
 73
     0
 90
        0
 40
-0.6
 41
-30.0
 62
     5
 63
     7
 74
     1
 91
        4
 64
     7
 65
   257
 75
     1
175
     1
 42
1.0
 92
        8
 66
     7
 43
1.0
 76
     1
 77
     6
 78
     2
 67
     7
 79
     5
170
     0
171
     0
290
     0
174
     0
 93
        1
 44
0.0
173
     0
291
     1
 45
0.0
1001
ACAD
1000
AcDbSavedByObjectVersion
1070
     0
  0
VISUALSTYLE
  5
39D
102
{ACAD_XDICTIONARY
360
47B
102
}
102
{ACAD_REACTORS
330
39C
102
}
330
39C
100
AcDbVisualStyle
  2
Flat
 70
     0
 71
     2
 72
     1
 73
     1
 90
        2
 40
-0.6
 41
30.0
 62
     5
 63
     7
 74
     0
 91
        0
 64
     7
 65
   257
 75
     1
175
     1
 42
1.0
 92
        8
 66
     7
 43
1.0
 76
     1
 77
     6
 78
     2
 67
     7
 79
     5
170
     0
171
     0
290
     0
174
     0
 93
       13
 44
0.0
173
     0
291
     1
 45
0.0
1001
ACAD
1000
AcDbSavedByObjectVersion
1070
     0
  0
VISUALSTYLE
  5
39E
102
{ACAD_XDICTIONARY
360
47D
102
}
102
{ACAD_REACTORS
330
39C
102
}
330
39C
100
AcDbVisualStyle
  2
FlatWithEdges
 70
     1
 71
     2
 72
     1
 73
     1
 90
        2
 40
-0.6
 41
30.0
 62
     5
 63
     7
 74
     1
 91
        0
 64
     7
 65
   257
 75
     1
175
     1
 42
1.0
 92
        0
 66
   257
 43
1.0
 76
     1
 77
     6
 78
     2
 67
     7
 79
     5
170
     0
171
     0
290
     0
174
     0
 93
       13
 44
0.0
173
     0
291
     1
 45
0.0
1001
ACAD
1000
AcDbSavedByObjectVersion
1070
     0
  0
VISUALSTYLE
  5
39F
102
{ACAD_XDICTIONARY
360
47F
102
}
102
{ACAD_REACTORS
330
39C
102
}
330
39C
100
AcDbVisualStyle
  2
Gouraud
 70
     2
 71
     2
 72
     2
 73
     1
 90
        2
 40
-0.6
 41
30.0
 62
     5
 63
     7
 74
     0
 91
        0
 64
     7
 65
   257
 75
     1
175
     1
 42
1.0
 92
        0
 66
     7
 43
1.0
 76
     1
 77
     6
 78
     2
 67
     7
 79
     5
170
     0
171
     0
290
     0
174
     0
 93
       13
 44
0.0
173
     0
291
     1
 45
0.0
1001
ACAD
1000
AcDbSavedByObjectVersion
1070
     0
  0
VISUALSTYLE
  5
3A0
102
{ACAD_XDICTIONARY
360
481
102
}
102
{ACAD_REACTORS
330
39C
102
}
330
39C
100
AcDbVisualStyle
  2
GouraudWithEdges
 70
     3
 71
     2
 72
     2
 73
     1
 90
        2
 40
-0.6
 41
30.0
 62
     5
 63
     7
 74
     1
 91
        0
 64
     7
 65
   257
 75
     1
175
     1
 42
1.0
 92
        0
 66
   257
 43
1.0
 76
     1
 77
     6
 78
     2
 67
     7
 79
     5
170
     0
171
     0
290
     0
174
     0
 93
       13
 44
0.0
173
     0
291
     1
 45
0.0
1001
ACAD
1000
AcDbSavedByObjectVersion
1070
     0
  0
VISUALSTYLE
  5
3A4
102
{ACAD_XDICTIONARY
360
489
102
}
102
{ACAD_REACTORS
330
39C
102
}
330
39C
100
AcDbVisualStyle
  2
Hidden
 70
     6
 71
     1
 72
     2
 73
     2
 90
        0
 40
-0.6
 41
-30.0
 62
     5
 63
     7
 74
     2
 91
        2
 64
     7
 65
   257
 75
     2
175
     1
 42
40.0
 92
        0
 66
   257
 43
1.0
 76
     1
 77
     6
 78
     2
 67
     7
 79
     3
170
     0
171
     0
290
     0
174
     0
 93
        1
 44
0.0
173
     0
291
     0
 45
0.0
1001
ACAD
1000
AcDbSavedByObjectVersion
1070
     0
  0
VISUALSTYLE
  5
3B2
102
{ACAD_XDICTIONARY
360
4A5
102
}
102
{ACAD_REACTORS
330
39C
102
}
330
39C
100
AcDbVisualStyle
  2
JitterOff
 70
    20
 71
     2
 72
     2
 73
     0
 90
        0
 40
-0.6
 41
-30.0
 62
     5
 63
     7
 74
     1
 91
        4
 64
     7
 65
   257
 75
     1
175
     1
 42
1.0
 92
       10
 66
     7
 43
1.0
 76
     1
 77
     6
 78
     2
 67
     7
 79
     5
170
     0
171
     0
290
     0
174
     0
 93
        1
 44
0.0
173
     0
291
     1
 45
0.0
1001
ACAD
1000
AcDbSavedByObjectVersion
1070
     0
  0
VISUALSTYLE
  5
3AA
102
{ACAD_XDICTIONARY
360
495
102
}
102
{ACAD_REACTORS
330
39C
102
}
330
39C
100
AcDbVisualStyle
  2
Linepattern
 70
    14
 71
     2
 72
     2
 73
     0
 90
        0
 40
-0.6
 41
-30.0
 62
     5
 63
     7
 74
     1
 91
        4
 64
     7
 65
   257
 75
     7
175
     7
 42
1.0
 92
        8
 66
     7
 43
1.0
 76
     1
 77
     6
 78
     2
 67
     7
 79
     5
170
     0
171
     0
290
     0
174
     0
 93
        1
 44
0.0
173
     0
291
     1
 45
0.0
1001
ACAD
1000
AcDbSavedByObjectVersion
1070
     0
  0
VISUALSTYLE
  5
3B3
102
{ACAD_XDICTIONARY
360
4A7
102
}
102
{ACAD_REACTORS
330
39C
102
}
330
39C
100
AcDbVisualStyle
  2
OverhangOff
 70
    21
 71
     2
 72
     2
 73
     0
 90
        0
 40
-0.6
 41
-30.0
 62
     5
 63
     7
 74
     1
 91
        4
 64
     7
 65
   257
 75
     1
175
     1
 42
1.0
 92
        9
 66
     7
 43
1.0
 76
     1
 77
     6
 78
     2
 67
     7
 79
     5
170
     0
171
     0
290
     0
174
     0
 93
        1
 44
0.0
173
     0
291
     1
 45
0.0
1001
ACAD
1000
AcDbSavedByObjectVersion
1070
     0
  0
VISUALSTYLE
  5
3A6
102
{ACAD_XDICTIONARY
360
48D
102
}
102
{ACAD_REACTORS
330
39C
102
}
330
39C
100
AcDbVisualStyle
  2
Realistic
 70
     8
 71
     2
 72
     3
 73
     0
 90
        2
 40
-0.6
 41
30.0
 62
     5
 63
     7
 74
     0
 91
        0
 64
     7
 65
   257
 75
     1
175
     1
 42
1.0
 92
        8
 66
   257
 43
1.0
 76
     1
 77
     6
 78
     2
 67
     7
 79
     3
170
     0
171
     0
290
     0
174
     0
 93
       13
 44
0.0
173
     0
291
     0
 45
0.0
1001
ACAD
1000
AcDbSavedByObjectVersion
1070
     0
  0
VISUALSTYLE
  5
3B1
102
{ACAD_XDICTIONARY
360
4A3
102
}
102
{ACAD_REACTORS
330
39C
102
}
330
39C
100
AcDbVisualStyle
  2
Shaded
 70
    27
 71
     2
 72
     2
 73
     1
 90
        2
 40
-0.6
 41
30.0
 62
     5
 63
     7
 74
     0
 91
        4
 64
     7
 65
   257
 75
     1
175
     1
 42
1.0
 92
        8
 66
   257
 43
1.0
 76
     1
 77
     6
 78
     2
 67
     8
 79
     3
170
     0
171
     0
290
     0
174
     0
 93
        5
 44
0.0
173
     0
291
     0
 45
0.0
1001
ACAD
1000
AcDbSavedByObjectVersion
1070
     0
  0
VISUALSTYLE
  5
3B0
102
{ACAD_XDICTIONARY
360
4A1
102
}
102
{ACAD_REACTORS
330
39C
102
}
330
39C
100
AcDbVisualStyle
  2
Shaded with edges
 70
    26
 71
     2
 72
     2
 73
     1
 90
        2
 40
-0.6
 41
30.0
 62
     5
 63
     7
 74
     1
 91
       10
 64
     7
 65
   257
 75
     2
175
     1
 42
1.0
 92
        8
 66
   257
 43
1.0
 76
     1
 77
     6
 78
     2
 67
     7
 79
     3
170
     0
171
     0
290
     0
174
     0
 93
        5
 44
0.0
173
     0
291
     0
 45
0.0
1001
ACAD
1000
AcDbSavedByObjectVersion
1070
     0
  0
VISUALSTYLE
  5
3AD
102
{ACAD_XDICTIONARY
360
49B
102
}
102
{ACAD_REACTORS
330
39C
102
}
330
39C
100
AcDbVisualStyle
  2
Shades of Gray
 70
    23
 71
     2
 72
     2
 73
     3
 90
        0
 40
-0.6
 41
-30.0
 62
     5
 63
     7
 74
     2
 91
        2
 64
     7
 65
     7
 75
     1
175
     1
 42
40.0
 92
        8
 66
     7
 43
1.0
 76
     1
 77
     6
 78
     2
 67
     7
 79
     3
170
     0
171
     0
290
     0
174
     0
 93
        1
 44
0.0
173
     0
291
     0
 45
0.0
1001
ACAD
1000
AcDbSavedByObjectVersion
1070
     0
  0
VISUALSTYLE
  5
3AE
102
{ACAD_XDICTIONARY
360
49D
102
}
102
{ACAD_REACTORS
330
39C
102
}
330
39C
100
AcDbVisualStyle
  2
Sketchy
 70
    24
 71
     1
 72
     2
 73
     2
 90
        0
 40
-0.6
 41
-30.0
 62
     5
 63
     7
 74
     2
 91
        2
 64
     7
 65
     7
 75
     1
175
     1
 42
40.0
 92
       11
 66
     7
 43
1.0
 76
     1
 77
     6
 78
     2
 67
     7
 79
     6
170
     0
171
     0
290
     0
174
     0
 93
        1
 44
0.0
173
     0
291
     0
 45
0.0
1001
ACAD
1000
AcDbSavedByObjectVersion
1070
     0
  0
VISUALSTYLE
  5
3A9
102
{ACAD_XDICTIONARY
360
493
102
}
102
{ACAD_REACTORS
330
39C
102
}
330
39C
100
AcDbVisualStyle
  2
Thicken
 70
    13
 71
     2
 72
     2
 73
     0
 90
        0
 40
-0.6
 41
-30.0
 62
     5
 63
     7
 74
     1
 91
        4
 64
     7
 65
   257
 75
     1
175
     1
 42
1.0
 92
       12
 66
     7
 43
1.0
 76
     1
 77
     6
 78
     2
 67
     7
 79
     5
170
     0
171
     0
290
     0
174
     0
 93
        1
 44
0.0
173
     0
291
     1
 45
0.0
1001
ACAD
1000
AcDbSavedByObjectVersion
1070
     0
  0
VISUALSTYLE
  5
3A3
102
{ACAD_XDICTIONARY
360
487
102
}
102
{ACAD_REACTORS
330
39C
102
}
330
39C
100
AcDbVisualStyle
  2
Wireframe
 70
     5
 71
     0
 72
     2
 73
     0
 90
        0
 40
-0.6
 41
-30.0
 62
     5
 63
     7
 74
     1
 91
        4
 64
     7
 65
   257
 75
     1
175
     1
 42
1.0
 92
        0
 66
   257
 43
1.0
 76
     1
 77
     6
 78
     2
 67
     7
 79
     3
170
     0
171
     0
290
     0
174
     0
 93
        1
 44
0.0
173
     0
291
     0
 45
0.0
1001
ACAD
1000
AcDbSavedByObjectVersion
1070
     0
  0
VISUALSTYLE
  5
3AF
102
{ACAD_XDICTIONARY
360
49F
102
}
102
{ACAD_REACTORS
330
39C
102
}
330
39C
100
AcDbVisualStyle
  2
X-Ray
 70
    25
 71
     2
 72
     2
 73
     1
 90
        1
 40
0.5
 41
-30.0
 62
     5
 63
     7
 74
     1
 91
        0
 64
     7
 65
   257
 75
     1
175
     1
 42
1.0
 92
        8
 66
     7
 43
1.0
 76
     1
 77
     6
 78
     2
 67
     7
 79
     3
170
     0
171
     0
290
     0
174
     0
 93
       13
 44
0.0
173
     0
291
     0
 45
0.0
1001
ACAD
1000
AcDbSavedByObjectVersion
1070
     0
  0
DICTIONARYVAR
  5
46C
102
{ACAD_REACTORS
330
467
102
}
330
467
100
DictionaryVariables
280
     0
  1
1:1
  0
DICTIONARYVAR
  5
469
102
{ACAD_REACTORS
330
467
102
}
330
467
100
DictionaryVariables
280
     0
  1
STANDARD
  0
DICTIONARYVAR
  5
468
102
{ACAD_REACTORS
330
467
102
}
330
467
100
DictionaryVariables
280
     0
  1
STANDARD
  0
DICTIONARYVAR
  5
46A
102
{ACAD_REACTORS
330
467
102
}
330
467
100
DictionaryVariables
280
     0
  1
Imperial24
  0
DICTIONARYVAR
  5
46B
102
{ACAD_REACTORS
330
467
102
}
330
467
100
DictionaryVariables
280
     0
  1
Imperial24
  0
DICTIONARYVAR
  5
46F
102
{ACAD_REACTORS
330
467
102
}
330
467
100
DictionaryVariables
280
     0
  1
1
  0
DICTIONARYVAR
  5
46E
102
{ACAD_REACTORS
330
467
102
}
330
467
100
DictionaryVariables
280
     0
  1
0
  0
DICTIONARYVAR
  5
46D
102
{ACAD_REACTORS
330
467
102
}
330
467
100
DictionaryVariables
280
     0
  1
127
  0
DICTIONARYVAR
  5
470
102
{ACAD_REACTORS
330
467
102
}
330
467
100
DictionaryVariables
280
     0
  1
2
  0
DICTIONARY
  5
4AD
330
3E2
100
AcDbDictionary
280
     1
281
     1
  3
ACAD_XREC_ROUNDTRIP
360
4AE
  0
DICTIONARY
  5
4AF
330
3E6
100
AcDbDictionary
280
     1
281
     1
  3
ACAD_XREC_ROUNDTRIP
360
4B0
  0
DICTIONARY
  5
38D
330
38C
100
AcDbDictionary
280
     1
281
     1
  3
ACAD_XREC_ROUNDTRIP
360
479
  3
BUMPTILE
360
38F
  3
DIFFUSETILE
360
38E
  3
OPACITYTILE
360
392
  3
REFLECTIONTILE
360
391
  3
REFRACTIONTILE
360
393
  3
SPECULARTILE
360
390
  0
DICTIONARY
  5
385
330
384
100
AcDbDictionary
280
     1
281
     1
  3
ACAD_XREC_ROUNDTRIP
360
478
  3
BUMPTILE
360
387
  3
DIFFUSETILE
360
386
  3
OPACITYTILE
360
38A
  3
REFLECTIONTILE
360
389
  3
REFRACTIONTILE
360
38B
  3
SPECULARTILE
360
388
  0
DICTIONARY
  5
395
330
394
100
AcDbDictionary
280
     1
281
     1
  3
ACAD_XREC_ROUNDTRIP
360
47A
  3
BUMPTILE
360
397
  3
DIFFUSETILE
360
396
  3
OPACITYTILE
360
39A
  3
REFLECTIONTILE
360
399
  3
REFRACTIONTILE
360
39B
  3
SPECULARTILE
360
398
  0
DICTIONARY
  5
472
330
3D7
100
AcDbDictionary
280
     1
281
     1
  3
ACAD_ROUNDTRIP_2008_TABLESTYLE_CELLSTYLEMAP
360
473
  3
ACAD_XREC_ROUNDTRIP
360
4AB
  0
DICTIONARY
  5
485
330
3A2
100
AcDbDictionary
280
     1
281
     1
  3
ACAD_XREC_ROUNDTRIP
360
486
  0
DICTIONARY
  5
483
330
3A1
100
AcDbDictionary
280
     1
281
     1
  3
ACAD_XREC_ROUNDTRIP
360
484
  0
DICTIONARY
  5
491
330
3A8
100
AcDbDictionary
280
     1
281
     1
  3
ACAD_XREC_ROUNDTRIP
360
492
  0
DICTIONARY
  5
499
330
3AC
100
AcDbDictionary
280
     1
281
     1
  3
ACAD_XREC_ROUNDTRIP
360
49A
  0
DICTIONARY
  5
48B
330
3A5
100
AcDbDictionary
280
     1
281
     1
  3
ACAD_XREC_ROUNDTRIP
360
48C
  0
DICTIONARY
  5
48F
330
3A7
100
AcDbDictionary
280
     1
281
     1
  3
ACAD_XREC_ROUNDTRIP
360
490
  0
DICTIONARY
  5
4A9
330
3B4
100
AcDbDictionary
280
     1
281
     1
  3
ACAD_XREC_ROUNDTRIP
360
4AA
  0
DICTIONARY
  5
497
330
3AB
100
AcDbDictionary
280
     1
281
     1
  3
ACAD_XREC_ROUNDTRIP
360
498
  0
DICTIONARY
  5
47B
330
39D
100
AcDbDictionary
280
     1
281
     1
  3
ACAD_XREC_ROUNDTRIP
360
47C
  0
DICTIONARY
  5
47D
330
39E
100
AcDbDictionary
280
     1
281
     1
  3
ACAD_XREC_ROUNDTRIP
360
47E
  0
DICTIONARY
  5
47F
330
39F
100
AcDbDictionary
280
     1
281
     1
  3
ACAD_XREC_ROUNDTRIP
360
480
  0
DICTIONARY
  5
481
330
3A0
100
AcDbDictionary
280
     1
281
     1
  3
ACAD_XREC_ROUNDTRIP
360
482
  0
DICTIONARY
  5
489
330
3A4
100
AcDbDictionary
280
     1
281
     1
  3
ACAD_XREC_ROUNDTRIP
360
48A
  0
DICTIONARY
  5
4A5
330
3B2
100
AcDbDictionary
280
     1
281
     1
  3
ACAD_XREC_ROUNDTRIP
360
4A6
  0
DICTIONARY
  5
495
330
3AA
100
AcDbDictionary
280
     1
281
     1
  3
ACAD_XREC_ROUNDTRIP
360
496
  0
DICTIONARY
  5
4A7
330
3B3
100
AcDbDictionary
280
     1
281
     1
  3
ACAD_XREC_ROUNDTRIP
360
4A8
  0
DICTIONARY
  5
48D
330
3A6
100
AcDbDictionary
280
     1
281
     1
  3
ACAD_XREC_ROUNDTRIP
360
48E
  0
DICTIONARY
  5
4A3
330
3B1
100
AcDbDictionary
280
     1
281
     1
  3
ACAD_XREC_ROUNDTRIP
360
4A4
  0
DICTIONARY
  5
4A1
330
3B0
100
AcDbDictionary
280
     1
281
     1
  3
ACAD_XREC_ROUNDTRIP
360
4A2
  0
DICTIONARY
  5
49B
330
3AD
100
AcDbDictionary
280
     1
281
     1
  3
ACAD_XREC_ROUNDTRIP
360
49C
  0
DICTIONARY
  5
49D
330
3AE
100
AcDbDictionary
280
     1
281
     1
  3
ACAD_XREC_ROUNDTRIP
360
49E
  0
DICTIONARY
  5
493
330
3A9
100
AcDbDictionary
280
     1
281
     1
  3
ACAD_XREC_ROUNDTRIP
360
494
  0
DICTIONARY
  5
487
330
3A3
100
AcDbDictionary
280
     1
281
     1
  3
ACAD_XREC_ROUNDTRIP
360
488
  0
DICTIONARY
  5
49F
330
3AF
100
AcDbDictionary
280
     1
281
     1
  3
ACAD_XREC_ROUNDTRIP
360
4A0
  0
XRECORD
  5
4AE
102
{ACAD_REACTORS
330
4AD
102
}
330
4AD
100
AcDbXrecord
280
     1
102
SHADEPLOT
 70
     0
102
SHADEPLOTRESLEVEL
 70
     2
102
SHADEPLOTCUSTOMDPI
 70
   300
  0
XRECORD
  5
4B0
102
{ACAD_REACTORS
330
4AF
102
}
330
4AF
100
AcDbXrecord
280
     1
102
SHADEPLOT
 70
     0
102
SHADEPLOTRESLEVEL
 70
     2
102
SHADEPLOTCUSTOMDPI
 70
   300
  0
XRECORD
  5
479
102
{ACAD_REACTORS
330
38D
102
}
330
38D
100
AcDbXrecord
280
     1
102
MATERIAL
148
0.0
149
0.0
149
0.0
 93
        0
 94
      127
282
     0
 72
     0
 77
     0
171
     0
175
     0
179
     0
273
     0
  0
XRECORD
  5
38F
102
{ACAD_REACTORS
330
38D
102
}
330
38D
100
AcDbXrecord
280
     1
270
     1
271
     1
  0
XRECORD
  5
38E
102
{ACAD_REACTORS
330
38D
102
}
330
38D
100
AcDbXrecord
280
     1
270
     1
271
     1
  0
XRECORD
  5
392
102
{ACAD_REACTORS
330
38D
102
}
330
38D
100
AcDbXrecord
280
     1
270
     1
271
     1
  0
XRECORD
  5
391
102
{ACAD_REACTORS
330
38D
102
}
330
38D
100
AcDbXrecord
280
     1
270
     1
271
     1
  0
XRECORD
  5
393
102
{ACAD_REACTORS
330
38D
102
}
330
38D
100
AcDbXrecord
280
     1
270
     1
271
     1
  0
XRECORD
  5
390
102
{ACAD_REACTORS
330
38D
102
}
330
38D
100
AcDbXrecord
280
     1
270
     1
271
     1
  0
XRECORD
  5
478
102
{ACAD_REACTORS
330
385
102
}
330
385
100
AcDbXrecord
280
     1
102
MATERIAL
148
0.0
149
0.0
149
0.0
 93
        0
 94
      127
282
     0
 72
     0
 77
     0
171
     0
175
     0
179
     0
273
     0
  0
XRECORD
  5
387
102
{ACAD_REACTORS
330
385
102
}
330
385
100
AcDbXrecord
280
     1
270
     1
271
     1
  0
XRECORD
  5
386
102
{ACAD_REACTORS
330
385
102
}
330
385
100
AcDbXrecord
280
     1
270
     1
271
     1
  0
XRECORD
  5
38A
102
{ACAD_REACTORS
330
385
102
}
330
385
100
AcDbXrecord
280
     1
270
     1
271
     1
  0
XRECORD
  5
389
102
{ACAD_REACTORS
330
385
102
}
330
385
100
AcDbXrecord
280
     1
270
     1
271
     1
  0
XRECORD
  5
38B
102
{ACAD_REACTORS
330
385
102
}
330
385
100
AcDbXrecord
280
     1
270
     1
271
     1
  0
XRECORD
  5
388
102
{ACAD_REACTORS
330
385
102
}
330
385
100
AcDbXrecord
280
     1
270
     1
271
     1
  0
XRECORD
  5
47A
102
{ACAD_REACTORS
330
395
102
}
330
395
100
AcDbXrecord
280
     1
102
MATERIAL
148
0.0
149
0.0
149
0.0
 93
        0
 94
      127
282
     0
 72
     0
 77
     0
171
     0
175
     0
179
     0
273
     0
  0
XRECORD
  5
397
102
{ACAD_REACTORS
330
395
102
}
330
395
100
AcDbXrecord
280
     1
270
     1
271
     1
  0
XRECORD
  5
396
102
{ACAD_REACTORS
330
395
102
}
330
395
100
AcDbXrecord
280
     1
270
     1
271
     1
  0
XRECORD
  5
39A
102
{ACAD_REACTORS
330
395
102
}
330
395
100
AcDbXrecord
280
     1
270
     1
271
     1
  0
XRECORD
  5
399
102
{ACAD_REACTORS
330
395
102
}
330
395
100
AcDbXrecord
280
     1
270
     1
271
     1
  0
XRECORD
  5
39B
102
{ACAD_REACTORS
330
395
102
}
330
395
100
AcDbXrecord
280
     1
270
     1
271
     1
  0
XRECORD
  5
398
102
{ACAD_REACTORS
330
395
102
}
330
395
100
AcDbXrecord
280
     1
270
     1
271
     1
  0
CELLSTYLEMAP
  5
473
102
{ACAD_REACTORS
330
472
102
}
330
472
100
AcDbCellStyleMap
 90
        3
300
CELLSTYLE
  1
TABLEFORMAT_BEGIN
 90
        5
170
     1
 91
        0
 92
    32768
 62
   257
 93
        1
300
CONTENTFORMAT
  1
CONTENTFORMAT_BEGIN
 90
        0
 91
        0
 92
      512
 93
        0
300

 40
0.0
140
1.0
 94
        5
 62
     0
340
3C8
144
0.25
309
CONTENTFORMAT_END
171
     0
 94
        0
309
TABLEFORMAT_END
  1
CELLSTYLE_BEGIN
 90
        1
 91
        1
300
_TITLE
309
CELLSTYLE_END
300
CELLSTYLE
  1
TABLEFORMAT_BEGIN
 90
        5
170
     1
 91
        0
 92
        0
 62
   257
 93
        1
300
CONTENTFORMAT
  1
CONTENTFORMAT_BEGIN
 90
        0
 91
        0
 92
      512
 93
        0
300

 40
0.0
140
1.0
 94
        5
 62
     0
340
3C8
144
0.18
309
CONTENTFORMAT_END
171
     0
 94
        0
309
TABLEFORMAT_END
  1
CELLSTYLE_BEGIN
 90
        2
 91
        1
300
_HEADER
309
CELLSTYLE_END
300
CELLSTYLE
  1
TABLEFORMAT_BEGIN
 90
        5
170
     1
 91
        0
 92
        0
 62
   257
 93
        1
300
CONTENTFORMAT
  1
CONTENTFORMAT_BEGIN
 90
        0
 91
        0
 92
      512
 93
        0
300

 40
0.0
140
1.0
 94
        2
 62
     0
340
3C8
144
0.18
309
CONTENTFORMAT_END
171
     0
 94
        0
309
TABLEFORMAT_END
  1
CELLSTYLE_BEGIN
 90
        3
 91
        2
300
_DATA
309
CELLSTYLE_END
  0
XRECORD
  5
4AB
102
{ACAD_REACTORS
330
472
102
}
330
472
100
AcDbXrecord
280
     1
102
ACAD_ROUNDTRIP_PRE2007_TABLESTYLE
 90
      512
 91
        0
  1

 92
      512
 93
        0
  2

 94
      512
 95
        0
  3

  0
XRECORD
  5
486
102
{ACAD_REACTORS
330
485
102
}
330
485
100
AcDbXrecord
280
     1
102
RTVSPost2010Prop28
280
     1
102
RTVSPost2010PropOp28
 70
     1
102
RTVSPost2010Prop29
280
     1
102
RTVSPost2010PropOp29
 70
     1
102
RTVSPost2010Prop30
280
     0
102
RTVSPost2010PropOp30
 70
     1
102
RTVSPost2010Prop31
280
     0
102
RTVSPost2010PropOp31
 70
     1
102
RTVSPost2010Prop32
280
     0
102
RTVSPost2010PropOp32
 70
     1
102
RTVSPost2010Prop33
280
     0
102
RTVSPost2010PropOp33
 70
     1
102
RTVSPost2010Prop34
280
     0
102
RTVSPost2010PropOp34
 70
     1
102
RTVSPost2010Prop35
280
     0
102
RTVSPost2010PropOp35
 70
     1
102
RTVSPost2010Prop36
280
     0
102
RTVSPost2010PropOp36
 70
     1
102
RTVSPost2010Prop37
 90
       50
102
RTVSPost2010PropOp37
 70
     1
102
RTVSPost2010Prop38
140
0.0
102
RTVSPost2010PropOp38
 70
     1
102
RTVSPost2010Prop39
140
1.0
102
RTVSPost2010PropOp39
 70
     1
102
RTVSPost2010Prop40
 90
        0
102
RTVSPost2010PropOp40
 70
     1
102
RTVSPost2010Prop41ColorIndex
 90
       18
102
RTVSPost2010Prop41ColorRGB
 90
        0
102
RTVSPost2010PropOp41
 70
     1
102
RTVSPost2010Prop42
 90
       50
102
RTVSPost2010PropOp42
 70
     1
102
RTVSPost2010Prop43
 90
        3
102
RTVSPost2010PropOp43
 70
     1
102
RTVSPost2010Prop44ColorIndex
 90
        5
102
RTVSPost2010Prop44ColorRGB
 90
      255
102
RTVSPost2010PropOp44
 70
     1
102
RTVSPost2010Prop45
280
     0
102
RTVSPost2010PropOp45
 70
     1
102
RTVSPost2010Prop46
 90
       50
102
RTVSPost2010PropOp46
 70
     1
102
RTVSPost2010Prop47
 90
       50
102
RTVSPost2010PropOp47
 70
     1
102
RTVSPost2010Prop48
 90
       50
102
RTVSPost2010PropOp48
 70
     1
102
RTVSPost2010Prop49
280
     0
102
RTVSPost2010PropOp49
 70
     1
102
RTVSPost2010Prop50
 90
       50
102
RTVSPost2010PropOp50
 70
     1
102
RTVSPost2010Prop51ColorIndex
 90
      256
102
RTVSPost2010Prop51ColorRGB
 90
-16777216
102
RTVSPost2010PropOp51
 70
     0
102
RTVSPost2010Prop52
140
1.0
102
RTVSPost2010PropOp52
 70
     0
102
RTVSPost2010Prop53
 90
        2
102
RTVSPost2010PropOp53
 70
     1
102
RTVSPost2010Prop54
  1
strokes_ogs.tif
102
RTVSPost2010PropOp54
 70
     1
102
RTVSPost2010Prop55
280
     0
102
RTVSPost2010PropOp55
 70
     1
102
RTVSPost2010Prop56
140
1.0
102
RTVSPost2010PropOp56
 70
     1
102
RTVSPost2010Prop57
140
1.0
102
RTVSPost2010PropOp57
 70
     1
102
RTVSPropertyOp0
 70
     1
102
RTVSPropertyOp1
 70
     1
102
RTVSPropertyOp2
 70
     1
102
RTVSPropertyOp3
 70
     1
102
RTVSPropertyOp4
 70
     1
102
RTVSPropertyOp5
 70
     1
102
RTVSPropertyOp6
 70
     1
102
RTVSPropertyOp7
 70
     1
102
RTVSPropertyOp8
 70
     1
102
RTVSPropertyOp9
 70
     1
102
RTVSPropertyOp10
 70
     1
102
RTVSPropertyOp11
 70
     1
102
RTVSPropertyOp12
 70
     1
102
RTVSPropertyOp13
 70
     1
102
RTVSPropertyOp14
 70
     1
102
RTVSPropertyOp15
 70
     1
102
RTVSPropertyOp16
 70
     1
102
RTVSPropertyOp17
 70
     1
102
RTVSPropertyOp18
 70
     1
102
RTVSPropertyOp19
 70
     1
102
RTVSPropertyOp20
 70
     1
102
RTVSPropertyOp21
 70
     1
102
RTVSPropertyOp22
 70
     1
102
RTVSPropertyOp23
 70
     1
102
RTVSPropertyOp24
 70
     1
102
RTVSPropertyOp25
 70
     1
102
RTVSPropertyOp26
 70
     1
102
RTVSPropertyOp27
 70
     1
102
RTVSPropertyOp28
 70
     1
102
RTVSPropertyOp29
 70
     1
102
RTVSPropertyOp30
 70
     1
102
RTVSPropertyOp31
 70
     1
102
RTVSPropertyOp32
 70
     1
102
RTVSPropertyOp33
 70
     1
102
RTVSPropertyOp34
 70
     1
102
RTVSPropertyOp35
 70
     1
102
RTVSPropertyOp36
 70
     1
102
RTVSPropertyOp37
 70
     1
102
RTVSPropertyOp38
 70
     1
102
RTVSPropertyOp39
 70
     1
102
RTVSPropertyOp40
 70
     1
102
RTVSPropertyOp41
 70
     1
102
RTVSPropertyOp42
 70
     1
102
RTVSPropertyOp43
 70
     1
102
RTVSPropertyOp44
 70
     1
102
RTVSPropertyOp45
 70
     1
102
RTVSPropertyOp46
 70
     1
102
RTVSPropertyOp47
 70
     1
102
RTVSPropertyOp48
 70
     1
102
RTVSPropertyOp49
 70
     1
102
RTVSPropertyOp50
 70
     1
102
RTVSPropertyOp51
 70
     0
102
RTVSPropertyOp52
 70
     0
102
RTVSPropertyOp53
 70
     1
102
RTVSPropertyOp54
 70
     1
102
RTVSPropertyOp55
 70
     1
102
RTVSPropertyOp56
 70
     1
102
RTVSPropertyOp57
 70
     1
102
RTVSPropertyOp58
 70
     1
102
RTVSPropertyOp59
 70
     1
102
RTVSPropertyOp60
 70
     1
102
RTVSPropertyOp61
 70
     1
102
RTVSPropertyOp62
 70
     1
  0
XRECORD
  5
484
102
{ACAD_REACTORS
330
483
102
}
330
483
100
AcDbXrecord
280
     1
102
RTVSPost2010Prop28
280
     0
102
RTVSPost2010PropOp28
 70
     1
102
RTVSPost2010Prop29
280
     1
102
RTVSPost2010PropOp29
 70
     1
102
RTVSPost2010Prop30
280
     1
102
RTVSPost2010PropOp30
 70
     1
102
RTVSPost2010Prop31
280
     0
102
RTVSPost2010PropOp31
 70
     1
102
RTVSPost2010Prop32
280
     0
102
RTVSPost2010PropOp32
 70
     1
102
RTVSPost2010Prop33
280
     0
102
RTVSPost2010PropOp33
 70
     1
102
RTVSPost2010Prop34
280
     0
102
RTVSPost2010PropOp34
 70
     1
102
RTVSPost2010Prop35
280
     0
102
RTVSPost2010PropOp35
 70
     1
102
RTVSPost2010Prop36
280
     0
102
RTVSPost2010PropOp36
 70
     1
102
RTVSPost2010Prop37
 90
       50
102
RTVSPost2010PropOp37
 70
     1
102
RTVSPost2010Prop38
140
0.0
102
RTVSPost2010PropOp38
 70
     1
102
RTVSPost2010Prop39
140
1.0
102
RTVSPost2010PropOp39
 70
     1
102
RTVSPost2010Prop40
 90
        0
102
RTVSPost2010PropOp40
 70
     1
102
RTVSPost2010Prop41ColorIndex
 90
       18
102
RTVSPost2010Prop41ColorRGB
 90
        0
102
RTVSPost2010PropOp41
 70
     1
102
RTVSPost2010Prop42
 90
       50
102
RTVSPost2010PropOp42
 70
     1
102
RTVSPost2010Prop43
 90
        3
102
RTVSPost2010PropOp43
 70
     1
102
RTVSPost2010Prop44ColorIndex
 90
        5
102
RTVSPost2010Prop44ColorRGB
 90
      255
102
RTVSPost2010PropOp44
 70
     1
102
RTVSPost2010Prop45
280
     0
102
RTVSPost2010PropOp45
 70
     1
102
RTVSPost2010Prop46
 90
       50
102
RTVSPost2010PropOp46
 70
     1
102
RTVSPost2010Prop47
 90
       50
102
RTVSPost2010PropOp47
 70
     1
102
RTVSPost2010Prop48
 90
       50
102
RTVSPost2010PropOp48
 70
     1
102
RTVSPost2010Prop49
280
     0
102
RTVSPost2010PropOp49
 70
     1
102
RTVSPost2010Prop50
 90
       50
102
RTVSPost2010PropOp50
 70
     1
102
RTVSPost2010Prop51ColorIndex
 90
      256
102
RTVSPost2010Prop51ColorRGB
 90
-16777216
102
RTVSPost2010PropOp51
 70
     0
102
RTVSPost2010Prop52
140
1.0
102
RTVSPost2010PropOp52
 70
     0
102
RTVSPost2010Prop53
 90
        2
102
RTVSPost2010PropOp53
 70
     1
102
RTVSPost2010Prop54
  1
strokes_ogs.tif
102
RTVSPost2010PropOp54
 70
     1
102
RTVSPost2010Prop55
280
     0
102
RTVSPost2010PropOp55
 70
     1
102
RTVSPost2010Prop56
140
1.0
102
RTVSPost2010PropOp56
 70
     1
102
RTVSPost2010Prop57
140
1.0
102
RTVSPost2010PropOp57
 70
     1
102
RTVSPropertyOp0
 70
     1
102
RTVSPropertyOp1
 70
     1
102
RTVSPropertyOp2
 70
     1
102
RTVSPropertyOp3
 70
     1
102
RTVSPropertyOp4
 70
     1
102
RTVSPropertyOp5
 70
     1
102
RTVSPropertyOp6
 70
     1
102
RTVSPropertyOp7
 70
     1
102
RTVSPropertyOp8
 70
     1
102
RTVSPropertyOp9
 70
     1
102
RTVSPropertyOp10
 70
     1
102
RTVSPropertyOp11
 70
     1
102
RTVSPropertyOp12
 70
     1
102
RTVSPropertyOp13
 70
     1
102
RTVSPropertyOp14
 70
     1
102
RTVSPropertyOp15
 70
     1
102
RTVSPropertyOp16
 70
     1
102
RTVSPropertyOp17
 70
     1
102
RTVSPropertyOp18
 70
     1
102
RTVSPropertyOp19
 70
     1
102
RTVSPropertyOp20
 70
     1
102
RTVSPropertyOp21
 70
     1
102
RTVSPropertyOp22
 70
     1
102
RTVSPropertyOp23
 70
     1
102
RTVSPropertyOp24
 70
     1
102
RTVSPropertyOp25
 70
     1
102
RTVSPropertyOp26
 70
     1
102
RTVSPropertyOp27
 70
     1
102
RTVSPropertyOp28
 70
     1
102
RTVSPropertyOp29
 70
     1
102
RTVSPropertyOp30
 70
     1
102
RTVSPropertyOp31
 70
     1
102
RTVSPropertyOp32
 70
     1
102
RTVSPropertyOp33
 70
     1
102
RTVSPropertyOp34
 70
     1
102
RTVSPropertyOp35
 70
     1
102
RTVSPropertyOp36
 70
     1
102
RTVSPropertyOp37
 70
     1
102
RTVSPropertyOp38
 70
     1
102
RTVSPropertyOp39
 70
     1
102
RTVSPropertyOp40
 70
     1
102
RTVSPropertyOp41
 70
     1
102
RTVSPropertyOp42
 70
     1
102
RTVSPropertyOp43
 70
     1
102
RTVSPropertyOp44
 70
     1
102
RTVSPropertyOp45
 70
     1
102
RTVSPropertyOp46
 70
     1
102
RTVSPropertyOp47
 70
     1
102
RTVSPropertyOp48
 70
     1
102
RTVSPropertyOp49
 70
     1
102
RTVSPropertyOp50
 70
     1
102
RTVSPropertyOp51
 70
     0
102
RTVSPropertyOp52
 70
     0
102
RTVSPropertyOp53
 70
     1
102
RTVSPropertyOp54
 70
     1
102
RTVSPropertyOp55
 70
     1
102
RTVSPropertyOp56
 70
     1
102
RTVSPropertyOp57
 70
     1
102
RTVSPropertyOp58
 70
     1
102
RTVSPropertyOp59
 70
     1
102
RTVSPropertyOp60
 70
     1
102
RTVSPropertyOp61
 70
     1
102
RTVSPropertyOp62
 70
     1
  0
XRECORD
  5
492
102
{ACAD_REACTORS
330
491
102
}
330
491
100
AcDbXrecord
280
     1
102
RTVSPost2010Prop28
280
     0
102
RTVSPost2010PropOp28
 70
     1
102
RTVSPost2010Prop29
280
     1
102
RTVSPost2010PropOp29
 70
     1
102
RTVSPost2010Prop30
280
     1
102
RTVSPost2010PropOp30
 70
     1
102
RTVSPost2010Prop31
280
     0
102
RTVSPost2010PropOp31
 70
     1
102
RTVSPost2010Prop32
280
     0
102
RTVSPost2010PropOp32
 70
     1
102
RTVSPost2010Prop33
280
     0
102
RTVSPost2010PropOp33
 70
     1
102
RTVSPost2010Prop34
280
     0
102
RTVSPost2010PropOp34
 70
     1
102
RTVSPost2010Prop35
280
     0
102
RTVSPost2010PropOp35
 70
     1
102
RTVSPost2010Prop36
280
     0
102
RTVSPost2010PropOp36
 70
     1
102
RTVSPost2010Prop37
 90
       50
102
RTVSPost2010PropOp37
 70
     1
102
RTVSPost2010Prop38
140
0.0
102
RTVSPost2010PropOp38
 70
     1
102
RTVSPost2010Prop39
140
1.0
102
RTVSPost2010PropOp39
 70
     1
102
RTVSPost2010Prop40
 90
        0
102
RTVSPost2010PropOp40
 70
     1
102
RTVSPost2010Prop41ColorIndex
 90
       18
102
RTVSPost2010Prop41ColorRGB
 90
        0
102
RTVSPost2010PropOp41
 70
     1
102
RTVSPost2010Prop42
 90
       50
102
RTVSPost2010PropOp42
 70
     1
102
RTVSPost2010Prop43
 90
        3
102
RTVSPost2010PropOp43
 70
     1
102
RTVSPost2010Prop44ColorIndex
 90
        5
102
RTVSPost2010Prop44ColorRGB
 90
      255
102
RTVSPost2010PropOp44
 70
     1
102
RTVSPost2010Prop45
280
     0
102
RTVSPost2010PropOp45
 70
     1
102
RTVSPost2010Prop46
 90
       50
102
RTVSPost2010PropOp46
 70
     1
102
RTVSPost2010Prop47
 90
       50
102
RTVSPost2010PropOp47
 70
     1
102
RTVSPost2010Prop48
 90
       50
102
RTVSPost2010PropOp48
 70
     1
102
RTVSPost2010Prop49
280
     0
102
RTVSPost2010PropOp49
 70
     1
102
RTVSPost2010Prop50
 90
       50
102
RTVSPost2010PropOp50
 70
     1
102
RTVSPost2010Prop51ColorIndex
 90
      256
102
RTVSPost2010Prop51ColorRGB
 90
-16777216
102
RTVSPost2010PropOp51
 70
     0
102
RTVSPost2010Prop52
140
1.0
102
RTVSPost2010PropOp52
 70
     0
102
RTVSPost2010Prop53
 90
        2
102
RTVSPost2010PropOp53
 70
     1
102
RTVSPost2010Prop54
  1
strokes_ogs.tif
102
RTVSPost2010PropOp54
 70
     1
102
RTVSPost2010Prop55
280
     0
102
RTVSPost2010PropOp55
 70
     1
102
RTVSPost2010Prop56
140
1.0
102
RTVSPost2010PropOp56
 70
     1
102
RTVSPost2010Prop57
140
1.0
102
RTVSPost2010PropOp57
 70
     1
102
RTVSPropertyOp0
 70
     1
102
RTVSPropertyOp1
 70
     1
102
RTVSPropertyOp2
 70
     1
102
RTVSPropertyOp3
 70
     1
102
RTVSPropertyOp4
 70
     1
102
RTVSPropertyOp5
 70
     1
102
RTVSPropertyOp6
 70
     1
102
RTVSPropertyOp7
 70
     1
102
RTVSPropertyOp8
 70
     1
102
RTVSPropertyOp9
 70
     1
102
RTVSPropertyOp10
 70
     1
102
RTVSPropertyOp11
 70
     1
102
RTVSPropertyOp12
 70
     1
102
RTVSPropertyOp13
 70
     1
102
RTVSPropertyOp14
 70
     1
102
RTVSPropertyOp15
 70
     1
102
RTVSPropertyOp16
 70
     1
102
RTVSPropertyOp17
 70
     1
102
RTVSPropertyOp18
 70
     1
102
RTVSPropertyOp19
 70
     1
102
RTVSPropertyOp20
 70
     1
102
RTVSPropertyOp21
 70
     1
102
RTVSPropertyOp22
 70
     1
102
RTVSPropertyOp23
 70
     1
102
RTVSPropertyOp24
 70
     1
102
RTVSPropertyOp25
 70
     1
102
RTVSPropertyOp26
 70
     1
102
RTVSPropertyOp27
 70
     1
102
RTVSPropertyOp28
 70
     1
102
RTVSPropertyOp29
 70
     1
102
RTVSPropertyOp30
 70
     1
102
RTVSPropertyOp31
 70
     1
102
RTVSPropertyOp32
 70
     1
102
RTVSPropertyOp33
 70
     1
102
RTVSPropertyOp34
 70
     1
102
RTVSPropertyOp35
 70
     1
102
RTVSPropertyOp36
 70
     1
102
RTVSPropertyOp37
 70
     1
102
RTVSPropertyOp38
 70
     1
102
RTVSPropertyOp39
 70
     1
102
RTVSPropertyOp40
 70
     1
102
RTVSPropertyOp41
 70
     1
102
RTVSPropertyOp42
 70
     1
102
RTVSPropertyOp43
 70
     1
102
RTVSPropertyOp44
 70
     1
102
RTVSPropertyOp45
 70
     1
102
RTVSPropertyOp46
 70
     1
102
RTVSPropertyOp47
 70
     1
102
RTVSPropertyOp48
 70
     1
102
RTVSPropertyOp49
 70
     1
102
RTVSPropertyOp50
 70
     1
102
RTVSPropertyOp51
 70
     0
102
RTVSPropertyOp52
 70
     0
102
RTVSPropertyOp53
 70
     1
102
RTVSPropertyOp54
 70
     1
102
RTVSPropertyOp55
 70
     1
102
RTVSPropertyOp56
 70
     1
102
RTVSPropertyOp57
 70
     1
102
RTVSPropertyOp58
 70
     1
102
RTVSPropertyOp59
 70
     1
102
RTVSPropertyOp60
 70
     1
102
RTVSPropertyOp61
 70
     1
102
RTVSPropertyOp62
 70
     1
  0
XRECORD
  5
49A
102
{ACAD_REACTORS
330
499
102
}
330
499
100
AcDbXrecord
280
     1
102
RTVSPost2010Prop28
280
     0
102
RTVSPost2010PropOp28
 70
     1
102
RTVSPost2010Prop29
280
     1
102
RTVSPost2010PropOp29
 70
     1
102
RTVSPost2010Prop30
280
     1
102
RTVSPost2010PropOp30
 70
     1
102
RTVSPost2010Prop31
280
     0
102
RTVSPost2010PropOp31
 70
     1
102
RTVSPost2010Prop32
280
     0
102
RTVSPost2010PropOp32
 70
     1
102
RTVSPost2010Prop33
280
     0
102
RTVSPost2010PropOp33
 70
     1
102
RTVSPost2010Prop34
280
     0
102
RTVSPost2010PropOp34
 70
     1
102
RTVSPost2010Prop35
280
     0
102
RTVSPost2010PropOp35
 70
     1
102
RTVSPost2010Prop36
280
     0
102
RTVSPost2010PropOp36
 70
     1
102
RTVSPost2010Prop37
 90
       50
102
RTVSPost2010PropOp37
 70
     1
102
RTVSPost2010Prop38
140
0.0
102
RTVSPost2010PropOp38
 70
     1
102
RTVSPost2010Prop39
140
1.0
102
RTVSPost2010PropOp39
 70
     1
102
RTVSPost2010Prop40
 90
        0
102
RTVSPost2010PropOp40
 70
     1
102
RTVSPost2010Prop41ColorIndex
 90
       18
102
RTVSPost2010Prop41ColorRGB
 90
        0
102
RTVSPost2010PropOp41
 70
     1
102
RTVSPost2010Prop42
 90
       50
102
RTVSPost2010PropOp42
 70
     1
102
RTVSPost2010Prop43
 90
        3
102
RTVSPost2010PropOp43
 70
     1
102
RTVSPost2010Prop44ColorIndex
 90
        5
102
RTVSPost2010Prop44ColorRGB
 90
      255
102
RTVSPost2010PropOp44
 70
     1
102
RTVSPost2010Prop45
280
     0
102
RTVSPost2010PropOp45
 70
     1
102
RTVSPost2010Prop46
 90
       50
102
RTVSPost2010PropOp46
 70
     1
102
RTVSPost2010Prop47
 90
       50
102
RTVSPost2010PropOp47
 70
     1
102
RTVSPost2010Prop48
 90
       50
102
RTVSPost2010PropOp48
 70
     1
102
RTVSPost2010Prop49
280
     0
102
RTVSPost2010PropOp49
 70
     1
102
RTVSPost2010Prop50
 90
       50
102
RTVSPost2010PropOp50
 70
     1
102
RTVSPost2010Prop51ColorIndex
 90
      256
102
RTVSPost2010Prop51ColorRGB
 90
-16777216
102
RTVSPost2010PropOp51
 70
     0
102
RTVSPost2010Prop52
140
1.0
102
RTVSPost2010PropOp52
 70
     0
102
RTVSPost2010Prop53
 90
        2
102
RTVSPost2010PropOp53
 70
     1
102
RTVSPost2010Prop54
  1
strokes_ogs.tif
102
RTVSPost2010PropOp54
 70
     1
102
RTVSPost2010Prop55
280
     0
102
RTVSPost2010PropOp55
 70
     1
102
RTVSPost2010Prop56
140
1.0
102
RTVSPost2010PropOp56
 70
     1
102
RTVSPost2010Prop57
140
1.0
102
RTVSPost2010PropOp57
 70
     1
102
RTVSPropertyOp0
 70
     1
102
RTVSPropertyOp1
 70
     1
102
RTVSPropertyOp2
 70
     1
102
RTVSPropertyOp3
 70
     1
102
RTVSPropertyOp4
 70
     1
102
RTVSPropertyOp5
 70
     1
102
RTVSPropertyOp6
 70
     1
102
RTVSPropertyOp7
 70
     1
102
RTVSPropertyOp8
 70
     1
102
RTVSPropertyOp9
 70
     1
102
RTVSPropertyOp10
 70
     1
102
RTVSPropertyOp11
 70
     1
102
RTVSPropertyOp12
 70
     1
102
RTVSPropertyOp13
 70
     1
102
RTVSPropertyOp14
 70
     1
102
RTVSPropertyOp15
 70
     1
102
RTVSPropertyOp16
 70
     1
102
RTVSPropertyOp17
 70
     1
102
RTVSPropertyOp18
 70
     1
102
RTVSPropertyOp19
 70
     1
102
RTVSPropertyOp20
 70
     1
102
RTVSPropertyOp21
 70
     1
102
RTVSPropertyOp22
 70
     1
102
RTVSPropertyOp23
 70
     1
102
RTVSPropertyOp24
 70
     1
102
RTVSPropertyOp25
 70
     1
102
RTVSPropertyOp26
 70
     1
102
RTVSPropertyOp27
 70
     1
102
RTVSPropertyOp28
 70
     1
102
RTVSPropertyOp29
 70
     1
102
RTVSPropertyOp30
 70
     1
102
RTVSPropertyOp31
 70
     1
102
RTVSPropertyOp32
 70
     1
102
RTVSPropertyOp33
 70
     1
102
RTVSPropertyOp34
 70
     1
102
RTVSPropertyOp35
 70
     1
102
RTVSPropertyOp36
 70
     1
102
RTVSPropertyOp37
 70
     1
102
RTVSPropertyOp38
 70
     1
102
RTVSPropertyOp39
 70
     1
102
RTVSPropertyOp40
 70
     1
102
RTVSPropertyOp41
 70
     1
102
RTVSPropertyOp42
 70
     1
102
RTVSPropertyOp43
 70
     1
102
RTVSPropertyOp44
 70
     1
102
RTVSPropertyOp45
 70
     1
102
RTVSPropertyOp46
 70
     1
102
RTVSPropertyOp47
 70
     1
102
RTVSPropertyOp48
 70
     1
102
RTVSPropertyOp49
 70
     1
102
RTVSPropertyOp50
 70
     1
102
RTVSPropertyOp51
 70
     0
102
RTVSPropertyOp52
 70
     0
102
RTVSPropertyOp53
 70
     1
102
RTVSPropertyOp54
 70
     1
102
RTVSPropertyOp55
 70
     1
102
RTVSPropertyOp56
 70
     1
102
RTVSPropertyOp57
 70
     1
102
RTVSPropertyOp58
 70
     1
102
RTVSPropertyOp59
 70
     1
102
RTVSPropertyOp60
 70
     1
102
RTVSPropertyOp61
 70
     1
102
RTVSPropertyOp62
 70
     1
  0
XRECORD
  5
48C
102
{ACAD_REACTORS
330
48B
102
}
330
48B
100
AcDbXrecord
280
     1
102
RTVSPost2010Prop28
280
     0
102
RTVSPost2010PropOp28
 70
     1
102
RTVSPost2010Prop29
280
     1
102
RTVSPost2010PropOp29
 70
     1
102
RTVSPost2010Prop30
280
     1
102
RTVSPost2010PropOp30
 70
     1
102
RTVSPost2010Prop31
280
     0
102
RTVSPost2010PropOp31
 70
     1
102
RTVSPost2010Prop32
280
     0
102
RTVSPost2010PropOp32
 70
     1
102
RTVSPost2010Prop33
280
     0
102
RTVSPost2010PropOp33
 70
     1
102
RTVSPost2010Prop34
280
     0
102
RTVSPost2010PropOp34
 70
     1
102
RTVSPost2010Prop35
280
     0
102
RTVSPost2010PropOp35
 70
     1
102
RTVSPost2010Prop36
280
     0
102
RTVSPost2010PropOp36
 70
     1
102
RTVSPost2010Prop37
 90
       50
102
RTVSPost2010PropOp37
 70
     1
102
RTVSPost2010Prop38
140
0.0
102
RTVSPost2010PropOp38
 70
     1
102
RTVSPost2010Prop39
140
1.0
102
RTVSPost2010PropOp39
 70
     1
102
RTVSPost2010Prop40
 90
        0
102
RTVSPost2010PropOp40
 70
     1
102
RTVSPost2010Prop41ColorIndex
 90
       18
102
RTVSPost2010Prop41ColorRGB
 90
        0
102
RTVSPost2010PropOp41
 70
     1
102
RTVSPost2010Prop42
 90
       50
102
RTVSPost2010PropOp42
 70
     1
102
RTVSPost2010Prop43
 90
        3
102
RTVSPost2010PropOp43
 70
     1
102
RTVSPost2010Prop44ColorIndex
 90
        5
102
RTVSPost2010Prop44ColorRGB
 90
      255
102
RTVSPost2010PropOp44
 70
     1
102
RTVSPost2010Prop45
280
     0
102
RTVSPost2010PropOp45
 70
     1
102
RTVSPost2010Prop46
 90
       50
102
RTVSPost2010PropOp46
 70
     1
102
RTVSPost2010Prop47
 90
       50
102
RTVSPost2010PropOp47
 70
     1
102
RTVSPost2010Prop48
 90
       50
102
RTVSPost2010PropOp48
 70
     1
102
RTVSPost2010Prop49
280
     0
102
RTVSPost2010PropOp49
 70
     1
102
RTVSPost2010Prop50
 90
       50
102
RTVSPost2010PropOp50
 70
     1
102
RTVSPost2010Prop51ColorIndex
 90
      256
102
RTVSPost2010Prop51ColorRGB
 90
-16777216
102
RTVSPost2010PropOp51
 70
     0
102
RTVSPost2010Prop52
140
1.0
102
RTVSPost2010PropOp52
 70
     0
102
RTVSPost2010Prop53
 90
        2
102
RTVSPost2010PropOp53
 70
     1
102
RTVSPost2010Prop54
  1
strokes_ogs.tif
102
RTVSPost2010PropOp54
 70
     1
102
RTVSPost2010Prop55
280
     0
102
RTVSPost2010PropOp55
 70
     1
102
RTVSPost2010Prop56
140
1.0
102
RTVSPost2010PropOp56
 70
     1
102
RTVSPost2010Prop57
140
1.0
102
RTVSPost2010PropOp57
 70
     1
102
RTVSPropertyOp0
 70
     1
102
RTVSPropertyOp1
 70
     1
102
RTVSPropertyOp2
 70
     1
102
RTVSPropertyOp3
 70
     1
102
RTVSPropertyOp4
 70
     1
102
RTVSPropertyOp5
 70
     1
102
RTVSPropertyOp6
 70
     1
102
RTVSPropertyOp7
 70
     1
102
RTVSPropertyOp8
 70
     1
102
RTVSPropertyOp9
 70
     1
102
RTVSPropertyOp10
 70
     1
102
RTVSPropertyOp11
 70
     1
102
RTVSPropertyOp12
 70
     1
102
RTVSPropertyOp13
 70
     1
102
RTVSPropertyOp14
 70
     1
102
RTVSPropertyOp15
 70
     1
102
RTVSPropertyOp16
 70
     1
102
RTVSPropertyOp17
 70
     1
102
RTVSPropertyOp18
 70
     1
102
RTVSPropertyOp19
 70
     1
102
RTVSPropertyOp20
 70
     1
102
RTVSPropertyOp21
 70
     1
102
RTVSPropertyOp22
 70
     1
102
RTVSPropertyOp23
 70
     1
102
RTVSPropertyOp24
 70
     1
102
RTVSPropertyOp25
 70
     1
102
RTVSPropertyOp26
 70
     1
102
RTVSPropertyOp27
 70
     1
102
RTVSPropertyOp28
 70
     1
102
RTVSPropertyOp29
 70
     1
102
RTVSPropertyOp30
 70
     1
102
RTVSPropertyOp31
 70
     1
102
RTVSPropertyOp32
 70
     1
102
RTVSPropertyOp33
 70
     1
102
RTVSPropertyOp34
 70
     1
102
RTVSPropertyOp35
 70
     1
102
RTVSPropertyOp36
 70
     1
102
RTVSPropertyOp37
 70
     1
102
RTVSPropertyOp38
 70
     1
102
RTVSPropertyOp39
 70
     1
102
RTVSPropertyOp40
 70
     1
102
RTVSPropertyOp41
 70
     1
102
RTVSPropertyOp42
 70
     1
102
RTVSPropertyOp43
 70
     1
102
RTVSPropertyOp44
 70
     1
102
RTVSPropertyOp45
 70
     1
102
RTVSPropertyOp46
 70
     1
102
RTVSPropertyOp47
 70
     1
102
RTVSPropertyOp48
 70
     1
102
RTVSPropertyOp49
 70
     1
102
RTVSPropertyOp50
 70
     1
102
RTVSPropertyOp51
 70
     0
102
RTVSPropertyOp52
 70
     0
102
RTVSPropertyOp53
 70
     1
102
RTVSPropertyOp54
 70
     1
102
RTVSPropertyOp55
 70
     1
102
RTVSPropertyOp56
 70
     1
102
RTVSPropertyOp57
 70
     1
102
RTVSPropertyOp58
 70
     1
102
RTVSPropertyOp59
 70
     1
102
RTVSPropertyOp60
 70
     1
102
RTVSPropertyOp61
 70
     1
102
RTVSPropertyOp62
 70
     1
  0
XRECORD
  5
490
102
{ACAD_REACTORS
330
48F
102
}
330
48F
100
AcDbXrecord
280
     1
102
RTVSPost2010Prop28
280
     0
102
RTVSPost2010PropOp28
 70
     1
102
RTVSPost2010Prop29
280
     1
102
RTVSPost2010PropOp29
 70
     1
102
RTVSPost2010Prop30
280
     1
102
RTVSPost2010PropOp30
 70
     1
102
RTVSPost2010Prop31
280
     0
102
RTVSPost2010PropOp31
 70
     1
102
RTVSPost2010Prop32
280
     0
102
RTVSPost2010PropOp32
 70
     1
102
RTVSPost2010Prop33
280
     0
102
RTVSPost2010PropOp33
 70
     1
102
RTVSPost2010Prop34
280
     0
102
RTVSPost2010PropOp34
 70
     1
102
RTVSPost2010Prop35
280
     0
102
RTVSPost2010PropOp35
 70
     1
102
RTVSPost2010Prop36
280
     0
102
RTVSPost2010PropOp36
 70
     1
102
RTVSPost2010Prop37
 90
       50
102
RTVSPost2010PropOp37
 70
     1
102
RTVSPost2010Prop38
140
0.0
102
RTVSPost2010PropOp38
 70
     1
102
RTVSPost2010Prop39
140
1.0
102
RTVSPost2010PropOp39
 70
     1
102
RTVSPost2010Prop40
 90
        0
102
RTVSPost2010PropOp40
 70
     1
102
RTVSPost2010Prop41ColorIndex
 90
       18
102
RTVSPost2010Prop41ColorRGB
 90
        0
102
RTVSPost2010PropOp41
 70
     1
102
RTVSPost2010Prop42
 90
       50
102
RTVSPost2010PropOp42
 70
     1
102
RTVSPost2010Prop43
 90
        3
102
RTVSPost2010PropOp43
 70
     1
102
RTVSPost2010Prop44ColorIndex
 90
        5
102
RTVSPost2010Prop44ColorRGB
 90
      255
102
RTVSPost2010PropOp44
 70
     1
102
RTVSPost2010Prop45
280
     0
102
RTVSPost2010PropOp45
 70
     1
102
RTVSPost2010Prop46
 90
       50
102
RTVSPost2010PropOp46
 70
     1
102
RTVSPost2010Prop47
 90
       50
102
RTVSPost2010PropOp47
 70
     1
102
RTVSPost2010Prop48
 90
       50
102
RTVSPost2010PropOp48
 70
     1
102
RTVSPost2010Prop49
280
     0
102
RTVSPost2010PropOp49
 70
     1
102
RTVSPost2010Prop50
 90
       50
102
RTVSPost2010PropOp50
 70
     1
102
RTVSPost2010Prop51ColorIndex
 90
      256
102
RTVSPost2010Prop51ColorRGB
 90
-16777216
102
RTVSPost2010PropOp51
 70
     0
102
RTVSPost2010Prop52
140
1.0
102
RTVSPost2010PropOp52
 70
     0
102
RTVSPost2010Prop53
 90
        2
102
RTVSPost2010PropOp53
 70
     1
102
RTVSPost2010Prop54
  1
strokes_ogs.tif
102
RTVSPost2010PropOp54
 70
     1
102
RTVSPost2010Prop55
280
     0
102
RTVSPost2010PropOp55
 70
     1
102
RTVSPost2010Prop56
140
1.0
102
RTVSPost2010PropOp56
 70
     1
102
RTVSPost2010Prop57
140
1.0
102
RTVSPost2010PropOp57
 70
     1
102
RTVSPropertyOp0
 70
     1
102
RTVSPropertyOp1
 70
     1
102
RTVSPropertyOp2
 70
     1
102
RTVSPropertyOp3
 70
     1
102
RTVSPropertyOp4
 70
     1
102
RTVSPropertyOp5
 70
     1
102
RTVSPropertyOp6
 70
     1
102
RTVSPropertyOp7
 70
     1
102
RTVSPropertyOp8
 70
     1
102
RTVSPropertyOp9
 70
     1
102
RTVSPropertyOp10
 70
     1
102
RTVSPropertyOp11
 70
     1
102
RTVSPropertyOp12
 70
     1
102
RTVSPropertyOp13
 70
     1
102
RTVSPropertyOp14
 70
     1
102
RTVSPropertyOp15
 70
     1
102
RTVSPropertyOp16
 70
     1
102
RTVSPropertyOp17
 70
     1
102
RTVSPropertyOp18
 70
     1
102
RTVSPropertyOp19
 70
     1
102
RTVSPropertyOp20
 70
     1
102
RTVSPropertyOp21
 70
     1
102
RTVSPropertyOp22
 70
     1
102
RTVSPropertyOp23
 70
     1
102
RTVSPropertyOp24
 70
     1
102
RTVSPropertyOp25
 70
     1
102
RTVSPropertyOp26
 70
     1
102
RTVSPropertyOp27
 70
     1
102
RTVSPropertyOp28
 70
     1
102
RTVSPropertyOp29
 70
     1
102
RTVSPropertyOp30
 70
     1
102
RTVSPropertyOp31
 70
     1
102
RTVSPropertyOp32
 70
     1
102
RTVSPropertyOp33
 70
     1
102
RTVSPropertyOp34
 70
     1
102
RTVSPropertyOp35
 70
     1
102
RTVSPropertyOp36
 70
     1
102
RTVSPropertyOp37
 70
     1
102
RTVSPropertyOp38
 70
     1
102
RTVSPropertyOp39
 70
     1
102
RTVSPropertyOp40
 70
     1
102
RTVSPropertyOp41
 70
     1
102
RTVSPropertyOp42
 70
     1
102
RTVSPropertyOp43
 70
     1
102
RTVSPropertyOp44
 70
     1
102
RTVSPropertyOp45
 70
     1
102
RTVSPropertyOp46
 70
     1
102
RTVSPropertyOp47
 70
     1
102
RTVSPropertyOp48
 70
     1
102
RTVSPropertyOp49
 70
     1
102
RTVSPropertyOp50
 70
     1
102
RTVSPropertyOp51
 70
     0
102
RTVSPropertyOp52
 70
     0
102
RTVSPropertyOp53
 70
     1
102
RTVSPropertyOp54
 70
     1
102
RTVSPropertyOp55
 70
     1
102
RTVSPropertyOp56
 70
     1
102
RTVSPropertyOp57
 70
     1
102
RTVSPropertyOp58
 70
     1
102
RTVSPropertyOp59
 70
     1
102
RTVSPropertyOp60
 70
     1
102
RTVSPropertyOp61
 70
     1
102
RTVSPropertyOp62
 70
     1
  0
XRECORD
  5
4AA
102
{ACAD_REACTORS
330
4A9
102
}
330
4A9
100
AcDbXrecord
280
     1
102
RTVSPost2010Prop28
280
     0
102
RTVSPost2010PropOp28
 70
     1
102
RTVSPost2010Prop29
280
     1
102
RTVSPost2010PropOp29
 70
     1
102
RTVSPost2010Prop30
280
     1
102
RTVSPost2010PropOp30
 70
     1
102
RTVSPost2010Prop31
280
     0
102
RTVSPost2010PropOp31
 70
     1
102
RTVSPost2010Prop32
280
     0
102
RTVSPost2010PropOp32
 70
     1
102
RTVSPost2010Prop33
280
     0
102
RTVSPost2010PropOp33
 70
     1
102
RTVSPost2010Prop34
280
     0
102
RTVSPost2010PropOp34
 70
     1
102
RTVSPost2010Prop35
280
     0
102
RTVSPost2010PropOp35
 70
     1
102
RTVSPost2010Prop36
280
     0
102
RTVSPost2010PropOp36
 70
     1
102
RTVSPost2010Prop37
 90
       50
102
RTVSPost2010PropOp37
 70
     0
102
RTVSPost2010Prop38
140
0.0
102
RTVSPost2010PropOp38
 70
     0
102
RTVSPost2010Prop39
140
1.0
102
RTVSPost2010PropOp39
 70
     0
102
RTVSPost2010Prop40
 90
        0
102
RTVSPost2010PropOp40
 70
     0
102
RTVSPost2010Prop41ColorIndex
 90
       18
102
RTVSPost2010Prop41ColorRGB
 90
        0
102
RTVSPost2010PropOp41
 70
     0
102
RTVSPost2010Prop42
 90
       50
102
RTVSPost2010PropOp42
 70
     0
102
RTVSPost2010Prop43
 90
        3
102
RTVSPost2010PropOp43
 70
     0
102
RTVSPost2010Prop44ColorIndex
 90
        5
102
RTVSPost2010Prop44ColorRGB
 90
      255
102
RTVSPost2010PropOp44
 70
     0
102
RTVSPost2010Prop45
280
     0
102
RTVSPost2010PropOp45
 70
     1
102
RTVSPost2010Prop46
 90
       50
102
RTVSPost2010PropOp46
 70
     0
102
RTVSPost2010Prop47
 90
       50
102
RTVSPost2010PropOp47
 70
     0
102
RTVSPost2010Prop48
 90
       50
102
RTVSPost2010PropOp48
 70
     0
102
RTVSPost2010Prop49
280
     0
102
RTVSPost2010PropOp49
 70
     1
102
RTVSPost2010Prop50
 90
       50
102
RTVSPost2010PropOp50
 70
     0
102
RTVSPost2010Prop51ColorIndex
 90
      256
102
RTVSPost2010Prop51ColorRGB
 90
-16777216
102
RTVSPost2010PropOp51
 70
     0
102
RTVSPost2010Prop52
140
1.0
102
RTVSPost2010PropOp52
 70
     0
102
RTVSPost2010Prop53
 90
        2
102
RTVSPost2010PropOp53
 70
     0
102
RTVSPost2010Prop54
  1
strokes_ogs.tif
102
RTVSPost2010PropOp54
 70
     0
102
RTVSPost2010Prop55
280
     0
102
RTVSPost2010PropOp55
 70
     1
102
RTVSPost2010Prop56
140
1.0
102
RTVSPost2010PropOp56
 70
     0
102
RTVSPost2010Prop57
140
1.0
102
RTVSPost2010PropOp57
 70
     0
102
RTVSPropertyOp0
 70
     0
102
RTVSPropertyOp1
 70
     0
102
RTVSPropertyOp2
 70
     0
102
RTVSPropertyOp3
 70
     0
102
RTVSPropertyOp4
 70
     0
102
RTVSPropertyOp5
 70
     0
102
RTVSPropertyOp6
 70
     0
102
RTVSPropertyOp7
 70
     0
102
RTVSPropertyOp8
 70
     0
102
RTVSPropertyOp9
 70
     0
102
RTVSPropertyOp10
 70
     0
102
RTVSPropertyOp11
 70
     0
102
RTVSPropertyOp12
 70
     0
102
RTVSPropertyOp13
 70
     0
102
RTVSPropertyOp14
 70
     2
102
RTVSPropertyOp15
 70
     0
102
RTVSPropertyOp16
 70
     0
102
RTVSPropertyOp17
 70
     0
102
RTVSPropertyOp18
 70
     0
102
RTVSPropertyOp19
 70
     0
102
RTVSPropertyOp20
 70
     0
102
RTVSPropertyOp21
 70
     0
102
RTVSPropertyOp22
 70
     0
102
RTVSPropertyOp23
 70
     0
102
RTVSPropertyOp24
 70
     0
102
RTVSPropertyOp25
 70
     0
102
RTVSPropertyOp26
 70
     0
102
RTVSPropertyOp27
 70
     0
102
RTVSPropertyOp28
 70
     1
102
RTVSPropertyOp29
 70
     1
102
RTVSPropertyOp30
 70
     1
102
RTVSPropertyOp31
 70
     1
102
RTVSPropertyOp32
 70
     1
102
RTVSPropertyOp33
 70
     1
102
RTVSPropertyOp34
 70
     1
102
RTVSPropertyOp35
 70
     1
102
RTVSPropertyOp36
 70
     1
102
RTVSPropertyOp37
 70
     0
102
RTVSPropertyOp38
 70
     0
102
RTVSPropertyOp39
 70
     0
102
RTVSPropertyOp40
 70
     0
102
RTVSPropertyOp41
 70
     0
102
RTVSPropertyOp42
 70
     0
102
RTVSPropertyOp43
 70
     0
102
RTVSPropertyOp44
 70
     0
102
RTVSPropertyOp45
 70
     1
102
RTVSPropertyOp46
 70
     0
102
RTVSPropertyOp47
 70
     0
102
RTVSPropertyOp48
 70
     0
102
RTVSPropertyOp49
 70
     1
102
RTVSPropertyOp50
 70
     0
102
RTVSPropertyOp51
 70
     0
102
RTVSPropertyOp52
 70
     0
102
RTVSPropertyOp53
 70
     0
102
RTVSPropertyOp54
 70
     0
102
RTVSPropertyOp55
 70
     1
102
RTVSPropertyOp56
 70
     0
102
RTVSPropertyOp57
 70
     0
102
RTVSPropertyOp58
 70
     0
102
RTVSPropertyOp59
 70
     0
102
RTVSPropertyOp60
 70
     0
102
RTVSPropertyOp61
 70
     0
102
RTVSPropertyOp62
 70
     0
  0
XRECORD
  5
498
102
{ACAD_REACTORS
330
497
102
}
330
497
100
AcDbXrecord
280
     1
102
RTVSPost2010Prop28
280
     0
102
RTVSPost2010PropOp28
 70
     1
102
RTVSPost2010Prop29
280
     1
102
RTVSPost2010PropOp29
 70
     1
102
RTVSPost2010Prop30
280
     1
102
RTVSPost2010PropOp30
 70
     1
102
RTVSPost2010Prop31
280
     0
102
RTVSPost2010PropOp31
 70
     1
102
RTVSPost2010Prop32
280
     0
102
RTVSPost2010PropOp32
 70
     1
102
RTVSPost2010Prop33
280
     0
102
RTVSPost2010PropOp33
 70
     1
102
RTVSPost2010Prop34
280
     0
102
RTVSPost2010PropOp34
 70
     1
102
RTVSPost2010Prop35
280
     0
102
RTVSPost2010PropOp35
 70
     1
102
RTVSPost2010Prop36
280
     0
102
RTVSPost2010PropOp36
 70
     1
102
RTVSPost2010Prop37
 90
       50
102
RTVSPost2010PropOp37
 70
     1
102
RTVSPost2010Prop38
140
0.0
102
RTVSPost2010PropOp38
 70
     1
102
RTVSPost2010Prop39
140
1.0
102
RTVSPost2010PropOp39
 70
     1
102
RTVSPost2010Prop40
 90
        0
102
RTVSPost2010PropOp40
 70
     1
102
RTVSPost2010Prop41ColorIndex
 90
       18
102
RTVSPost2010Prop41ColorRGB
 90
        0
102
RTVSPost2010PropOp41
 70
     1
102
RTVSPost2010Prop42
 90
       50
102
RTVSPost2010PropOp42
 70
     1
102
RTVSPost2010Prop43
 90
        3
102
RTVSPost2010PropOp43
 70
     1
102
RTVSPost2010Prop44ColorIndex
 90
        5
102
RTVSPost2010Prop44ColorRGB
 90
      255
102
RTVSPost2010PropOp44
 70
     1
102
RTVSPost2010Prop45
280
     0
102
RTVSPost2010PropOp45
 70
     1
102
RTVSPost2010Prop46
 90
       50
102
RTVSPost2010PropOp46
 70
     1
102
RTVSPost2010Prop47
 90
       50
102
RTVSPost2010PropOp47
 70
     1
102
RTVSPost2010Prop48
 90
       50
102
RTVSPost2010PropOp48
 70
     1
102
RTVSPost2010Prop49
280
     0
102
RTVSPost2010PropOp49
 70
     1
102
RTVSPost2010Prop50
 90
       50
102
RTVSPost2010PropOp50
 70
     1
102
RTVSPost2010Prop51ColorIndex
 90
      256
102
RTVSPost2010Prop51ColorRGB
 90
-16777216
102
RTVSPost2010PropOp51
 70
     0
102
RTVSPost2010Prop52
140
1.0
102
RTVSPost2010PropOp52
 70
     0
102
RTVSPost2010Prop53
 90
        2
102
RTVSPost2010PropOp53
 70
     1
102
RTVSPost2010Prop54
  1
strokes_ogs.tif
102
RTVSPost2010PropOp54
 70
     1
102
RTVSPost2010Prop55
280
     0
102
RTVSPost2010PropOp55
 70
     1
102
RTVSPost2010Prop56
140
1.0
102
RTVSPost2010PropOp56
 70
     1
102
RTVSPost2010Prop57
140
1.0
102
RTVSPost2010PropOp57
 70
     1
102
RTVSPropertyOp0
 70
     1
102
RTVSPropertyOp1
 70
     1
102
RTVSPropertyOp2
 70
     1
102
RTVSPropertyOp3
 70
     1
102
RTVSPropertyOp4
 70
     1
102
RTVSPropertyOp5
 70
     1
102
RTVSPropertyOp6
 70
     1
102
RTVSPropertyOp7
 70
     1
102
RTVSPropertyOp8
 70
     1
102
RTVSPropertyOp9
 70
     1
102
RTVSPropertyOp10
 70
     1
102
RTVSPropertyOp11
 70
     1
102
RTVSPropertyOp12
 70
     1
102
RTVSPropertyOp13
 70
     1
102
RTVSPropertyOp14
 70
     1
102
RTVSPropertyOp15
 70
     1
102
RTVSPropertyOp16
 70
     1
102
RTVSPropertyOp17
 70
     1
102
RTVSPropertyOp18
 70
     1
102
RTVSPropertyOp19
 70
     1
102
RTVSPropertyOp20
 70
     1
102
RTVSPropertyOp21
 70
     1
102
RTVSPropertyOp22
 70
     1
102
RTVSPropertyOp23
 70
     1
102
RTVSPropertyOp24
 70
     1
102
RTVSPropertyOp25
 70
     1
102
RTVSPropertyOp26
 70
     1
102
RTVSPropertyOp27
 70
     1
102
RTVSPropertyOp28
 70
     1
102
RTVSPropertyOp29
 70
     1
102
RTVSPropertyOp30
 70
     1
102
RTVSPropertyOp31
 70
     1
102
RTVSPropertyOp32
 70
     1
102
RTVSPropertyOp33
 70
     1
102
RTVSPropertyOp34
 70
     1
102
RTVSPropertyOp35
 70
     1
102
RTVSPropertyOp36
 70
     1
102
RTVSPropertyOp37
 70
     1
102
RTVSPropertyOp38
 70
     1
102
RTVSPropertyOp39
 70
     1
102
RTVSPropertyOp40
 70
     1
102
RTVSPropertyOp41
 70
     1
102
RTVSPropertyOp42
 70
     1
102
RTVSPropertyOp43
 70
     1
102
RTVSPropertyOp44
 70
     1
102
RTVSPropertyOp45
 70
     1
102
RTVSPropertyOp46
 70
     1
102
RTVSPropertyOp47
 70
     1
102
RTVSPropertyOp48
 70
     1
102
RTVSPropertyOp49
 70
     1
102
RTVSPropertyOp50
 70
     1
102
RTVSPropertyOp51
 70
     0
102
RTVSPropertyOp52
 70
     0
102
RTVSPropertyOp53
 70
     1
102
RTVSPropertyOp54
 70
     1
102
RTVSPropertyOp55
 70
     1
102
RTVSPropertyOp56
 70
     1
102
RTVSPropertyOp57
 70
     1
102
RTVSPropertyOp58
 70
     1
102
RTVSPropertyOp59
 70
     1
102
RTVSPropertyOp60
 70
     1
102
RTVSPropertyOp61
 70
     1
102
RTVSPropertyOp62
 70
     1
  0
XRECORD
  5
47C
102
{ACAD_REACTORS
330
47B
102
}
330
47B
100
AcDbXrecord
280
     1
102
RTVSPost2010Prop28
280
     0
102
RTVSPost2010PropOp28
 70
     1
102
RTVSPost2010Prop29
280
     1
102
RTVSPost2010PropOp29
 70
     1
102
RTVSPost2010Prop30
280
     1
102
RTVSPost2010PropOp30
 70
     1
102
RTVSPost2010Prop31
280
     0
102
RTVSPost2010PropOp31
 70
     1
102
RTVSPost2010Prop32
280
     0
102
RTVSPost2010PropOp32
 70
     1
102
RTVSPost2010Prop33
280
     0
102
RTVSPost2010PropOp33
 70
     1
102
RTVSPost2010Prop34
280
     0
102
RTVSPost2010PropOp34
 70
     1
102
RTVSPost2010Prop35
280
     0
102
RTVSPost2010PropOp35
 70
     1
102
RTVSPost2010Prop36
280
     0
102
RTVSPost2010PropOp36
 70
     1
102
RTVSPost2010Prop37
 90
       50
102
RTVSPost2010PropOp37
 70
     1
102
RTVSPost2010Prop38
140
0.0
102
RTVSPost2010PropOp38
 70
     1
102
RTVSPost2010Prop39
140
1.0
102
RTVSPost2010PropOp39
 70
     1
102
RTVSPost2010Prop40
 90
        0
102
RTVSPost2010PropOp40
 70
     1
102
RTVSPost2010Prop41ColorIndex
 90
       18
102
RTVSPost2010Prop41ColorRGB
 90
        0
102
RTVSPost2010PropOp41
 70
     1
102
RTVSPost2010Prop42
 90
       50
102
RTVSPost2010PropOp42
 70
     1
102
RTVSPost2010Prop43
 90
        3
102
RTVSPost2010PropOp43
 70
     1
102
RTVSPost2010Prop44ColorIndex
 90
        5
102
RTVSPost2010Prop44ColorRGB
 90
      255
102
RTVSPost2010PropOp44
 70
     1
102
RTVSPost2010Prop45
280
     0
102
RTVSPost2010PropOp45
 70
     1
102
RTVSPost2010Prop46
 90
       50
102
RTVSPost2010PropOp46
 70
     1
102
RTVSPost2010Prop47
 90
       50
102
RTVSPost2010PropOp47
 70
     1
102
RTVSPost2010Prop48
 90
       50
102
RTVSPost2010PropOp48
 70
     1
102
RTVSPost2010Prop49
280
     0
102
RTVSPost2010PropOp49
 70
     1
102
RTVSPost2010Prop50
 90
       50
102
RTVSPost2010PropOp50
 70
     1
102
RTVSPost2010Prop51ColorIndex
 90
      256
102
RTVSPost2010Prop51ColorRGB
 90
-16777216
102
RTVSPost2010PropOp51
 70
     0
102
RTVSPost2010Prop52
140
1.0
102
RTVSPost2010PropOp52
 70
     0
102
RTVSPost2010Prop53
 90
        2
102
RTVSPost2010PropOp53
 70
     1
102
RTVSPost2010Prop54
  1
strokes_ogs.tif
102
RTVSPost2010PropOp54
 70
     1
102
RTVSPost2010Prop55
280
     0
102
RTVSPost2010PropOp55
 70
     1
102
RTVSPost2010Prop56
140
1.0
102
RTVSPost2010PropOp56
 70
     1
102
RTVSPost2010Prop57
140
1.0
102
RTVSPost2010PropOp57
 70
     1
102
RTVSPropertyOp0
 70
     1
102
RTVSPropertyOp1
 70
     1
102
RTVSPropertyOp2
 70
     1
102
RTVSPropertyOp3
 70
     1
102
RTVSPropertyOp4
 70
     1
102
RTVSPropertyOp5
 70
     1
102
RTVSPropertyOp6
 70
     1
102
RTVSPropertyOp7
 70
     1
102
RTVSPropertyOp8
 70
     1
102
RTVSPropertyOp9
 70
     1
102
RTVSPropertyOp10
 70
     1
102
RTVSPropertyOp11
 70
     1
102
RTVSPropertyOp12
 70
     1
102
RTVSPropertyOp13
 70
     1
102
RTVSPropertyOp14
 70
     1
102
RTVSPropertyOp15
 70
     1
102
RTVSPropertyOp16
 70
     1
102
RTVSPropertyOp17
 70
     1
102
RTVSPropertyOp18
 70
     1
102
RTVSPropertyOp19
 70
     1
102
RTVSPropertyOp20
 70
     1
102
RTVSPropertyOp21
 70
     1
102
RTVSPropertyOp22
 70
     1
102
RTVSPropertyOp23
 70
     1
102
RTVSPropertyOp24
 70
     1
102
RTVSPropertyOp25
 70
     1
102
RTVSPropertyOp26
 70
     1
102
RTVSPropertyOp27
 70
     1
102
RTVSPropertyOp28
 70
     1
102
RTVSPropertyOp29
 70
     1
102
RTVSPropertyOp30
 70
     1
102
RTVSPropertyOp31
 70
     1
102
RTVSPropertyOp32
 70
     1
102
RTVSPropertyOp33
 70
     1
102
RTVSPropertyOp34
 70
     1
102
RTVSPropertyOp35
 70
     1
102
RTVSPropertyOp36
 70
     1
102
RTVSPropertyOp37
 70
     1
102
RTVSPropertyOp38
 70
     1
102
RTVSPropertyOp39
 70
     1
102
RTVSPropertyOp40
 70
     1
102
RTVSPropertyOp41
 70
     1
102
RTVSPropertyOp42
 70
     1
102
RTVSPropertyOp43
 70
     1
102
RTVSPropertyOp44
 70
     1
102
RTVSPropertyOp45
 70
     1
102
RTVSPropertyOp46
 70
     1
102
RTVSPropertyOp47
 70
     1
102
RTVSPropertyOp48
 70
     1
102
RTVSPropertyOp49
 70
     1
102
RTVSPropertyOp50
 70
     1
102
RTVSPropertyOp51
 70
     0
102
RTVSPropertyOp52
 70
     0
102
RTVSPropertyOp53
 70
     1
102
RTVSPropertyOp54
 70
     1
102
RTVSPropertyOp55
 70
     1
102
RTVSPropertyOp56
 70
     1
102
RTVSPropertyOp57
 70
     1
102
RTVSPropertyOp58
 70
     1
102
RTVSPropertyOp59
 70
     1
102
RTVSPropertyOp60
 70
     1
102
RTVSPropertyOp61
 70
     1
102
RTVSPropertyOp62
 70
     1
  0
XRECORD
  5
47E
102
{ACAD_REACTORS
330
47D
102
}
330
47D
100
AcDbXrecord
280
     1
102
RTVSPost2010Prop28
280
     0
102
RTVSPost2010PropOp28
 70
     1
102
RTVSPost2010Prop29
280
     1
102
RTVSPost2010PropOp29
 70
     1
102
RTVSPost2010Prop30
280
     1
102
RTVSPost2010PropOp30
 70
     1
102
RTVSPost2010Prop31
280
     0
102
RTVSPost2010PropOp31
 70
     1
102
RTVSPost2010Prop32
280
     0
102
RTVSPost2010PropOp32
 70
     1
102
RTVSPost2010Prop33
280
     0
102
RTVSPost2010PropOp33
 70
     1
102
RTVSPost2010Prop34
280
     0
102
RTVSPost2010PropOp34
 70
     1
102
RTVSPost2010Prop35
280
     0
102
RTVSPost2010PropOp35
 70
     1
102
RTVSPost2010Prop36
280
     0
102
RTVSPost2010PropOp36
 70
     1
102
RTVSPost2010Prop37
 90
       50
102
RTVSPost2010PropOp37
 70
     1
102
RTVSPost2010Prop38
140
0.0
102
RTVSPost2010PropOp38
 70
     1
102
RTVSPost2010Prop39
140
1.0
102
RTVSPost2010PropOp39
 70
     1
102
RTVSPost2010Prop40
 90
        0
102
RTVSPost2010PropOp40
 70
     1
102
RTVSPost2010Prop41ColorIndex
 90
       18
102
RTVSPost2010Prop41ColorRGB
 90
        0
102
RTVSPost2010PropOp41
 70
     1
102
RTVSPost2010Prop42
 90
       50
102
RTVSPost2010PropOp42
 70
     1
102
RTVSPost2010Prop43
 90
        3
102
RTVSPost2010PropOp43
 70
     1
102
RTVSPost2010Prop44ColorIndex
 90
        5
102
RTVSPost2010Prop44ColorRGB
 90
      255
102
RTVSPost2010PropOp44
 70
     1
102
RTVSPost2010Prop45
280
     0
102
RTVSPost2010PropOp45
 70
     1
102
RTVSPost2010Prop46
 90
       50
102
RTVSPost2010PropOp46
 70
     1
102
RTVSPost2010Prop47
 90
       50
102
RTVSPost2010PropOp47
 70
     1
102
RTVSPost2010Prop48
 90
       50
102
RTVSPost2010PropOp48
 70
     1
102
RTVSPost2010Prop49
280
     0
102
RTVSPost2010PropOp49
 70
     1
102
RTVSPost2010Prop50
 90
       50
102
RTVSPost2010PropOp50
 70
     1
102
RTVSPost2010Prop51ColorIndex
 90
      256
102
RTVSPost2010Prop51ColorRGB
 90
-16777216
102
RTVSPost2010PropOp51
 70
     0
102
RTVSPost2010Prop52
140
1.0
102
RTVSPost2010PropOp52
 70
     0
102
RTVSPost2010Prop53
 90
        2
102
RTVSPost2010PropOp53
 70
     1
102
RTVSPost2010Prop54
  1
strokes_ogs.tif
102
RTVSPost2010PropOp54
 70
     1
102
RTVSPost2010Prop55
280
     0
102
RTVSPost2010PropOp55
 70
     1
102
RTVSPost2010Prop56
140
1.0
102
RTVSPost2010PropOp56
 70
     1
102
RTVSPost2010Prop57
140
1.0
102
RTVSPost2010PropOp57
 70
     1
102
RTVSPropertyOp0
 70
     1
102
RTVSPropertyOp1
 70
     1
102
RTVSPropertyOp2
 70
     1
102
RTVSPropertyOp3
 70
     1
102
RTVSPropertyOp4
 70
     1
102
RTVSPropertyOp5
 70
     1
102
RTVSPropertyOp6
 70
     1
102
RTVSPropertyOp7
 70
     1
102
RTVSPropertyOp8
 70
     1
102
RTVSPropertyOp9
 70
     1
102
RTVSPropertyOp10
 70
     1
102
RTVSPropertyOp11
 70
     1
102
RTVSPropertyOp12
 70
     1
102
RTVSPropertyOp13
 70
     1
102
RTVSPropertyOp14
 70
     1
102
RTVSPropertyOp15
 70
     1
102
RTVSPropertyOp16
 70
     1
102
RTVSPropertyOp17
 70
     1
102
RTVSPropertyOp18
 70
     1
102
RTVSPropertyOp19
 70
     1
102
RTVSPropertyOp20
 70
     1
102
RTVSPropertyOp21
 70
     1
102
RTVSPropertyOp22
 70
     1
102
RTVSPropertyOp23
 70
     1
102
RTVSPropertyOp24
 70
     1
102
RTVSPropertyOp25
 70
     1
102
RTVSPropertyOp26
 70
     1
102
RTVSPropertyOp27
 70
     1
102
RTVSPropertyOp28
 70
     1
102
RTVSPropertyOp29
 70
     1
102
RTVSPropertyOp30
 70
     1
102
RTVSPropertyOp31
 70
     1
102
RTVSPropertyOp32
 70
     1
102
RTVSPropertyOp33
 70
     1
102
RTVSPropertyOp34
 70
     1
102
RTVSPropertyOp35
 70
     1
102
RTVSPropertyOp36
 70
     1
102
RTVSPropertyOp37
 70
     1
102
RTVSPropertyOp38
 70
     1
102
RTVSPropertyOp39
 70
     1
102
RTVSPropertyOp40
 70
     1
102
RTVSPropertyOp41
 70
     1
102
RTVSPropertyOp42
 70
     1
102
RTVSPropertyOp43
 70
     1
102
RTVSPropertyOp44
 70
     1
102
RTVSPropertyOp45
 70
     1
102
RTVSPropertyOp46
 70
     1
102
RTVSPropertyOp47
 70
     1
102
RTVSPropertyOp48
 70
     1
102
RTVSPropertyOp49
 70
     1
102
RTVSPropertyOp50
 70
     1
102
RTVSPropertyOp51
 70
     0
102
RTVSPropertyOp52
 70
     0
102
RTVSPropertyOp53
 70
     1
102
RTVSPropertyOp54
 70
     1
102
RTVSPropertyOp55
 70
     1
102
RTVSPropertyOp56
 70
     1
102
RTVSPropertyOp57
 70
     1
102
RTVSPropertyOp58
 70
     1
102
RTVSPropertyOp59
 70
     1
102
RTVSPropertyOp60
 70
     1
102
RTVSPropertyOp61
 70
     1
102
RTVSPropertyOp62
 70
     1
  0
XRECORD
  5
480
102
{ACAD_REACTORS
330
47F
102
}
330
47F
100
AcDbXrecord
280
     1
102
RTVSPost2010Prop28
280
     0
102
RTVSPost2010PropOp28
 70
     1
102
RTVSPost2010Prop29
280
     1
102
RTVSPost2010PropOp29
 70
     1
102
RTVSPost2010Prop30
280
     1
102
RTVSPost2010PropOp30
 70
     1
102
RTVSPost2010Prop31
280
     0
102
RTVSPost2010PropOp31
 70
     1
102
RTVSPost2010Prop32
280
     0
102
RTVSPost2010PropOp32
 70
     1
102
RTVSPost2010Prop33
280
     0
102
RTVSPost2010PropOp33
 70
     1
102
RTVSPost2010Prop34
280
     0
102
RTVSPost2010PropOp34
 70
     1
102
RTVSPost2010Prop35
280
     0
102
RTVSPost2010PropOp35
 70
     1
102
RTVSPost2010Prop36
280
     0
102
RTVSPost2010PropOp36
 70
     1
102
RTVSPost2010Prop37
 90
       50
102
RTVSPost2010PropOp37
 70
     1
102
RTVSPost2010Prop38
140
0.0
102
RTVSPost2010PropOp38
 70
     1
102
RTVSPost2010Prop39
140
1.0
102
RTVSPost2010PropOp39
 70
     1
102
RTVSPost2010Prop40
 90
        0
102
RTVSPost2010PropOp40
 70
     1
102
RTVSPost2010Prop41ColorIndex
 90
       18
102
RTVSPost2010Prop41ColorRGB
 90
        0
102
RTVSPost2010PropOp41
 70
     1
102
RTVSPost2010Prop42
 90
       50
102
RTVSPost2010PropOp42
 70
     1
102
RTVSPost2010Prop43
 90
        3
102
RTVSPost2010PropOp43
 70
     1
102
RTVSPost2010Prop44ColorIndex
 90
        5
102
RTVSPost2010Prop44ColorRGB
 90
      255
102
RTVSPost2010PropOp44
 70
     1
102
RTVSPost2010Prop45
280
     0
102
RTVSPost2010PropOp45
 70
     1
102
RTVSPost2010Prop46
 90
       50
102
RTVSPost2010PropOp46
 70
     1
102
RTVSPost2010Prop47
 90
       50
102
RTVSPost2010PropOp47
 70
     1
102
RTVSPost2010Prop48
 90
       50
102
RTVSPost2010PropOp48
 70
     1
102
RTVSPost2010Prop49
280
     0
102
RTVSPost2010PropOp49
 70
     1
102
RTVSPost2010Prop50
 90
       50
102
RTVSPost2010PropOp50
 70
     1
102
RTVSPost2010Prop51ColorIndex
 90
      256
102
RTVSPost2010Prop51ColorRGB
 90
-16777216
102
RTVSPost2010PropOp51
 70
     0
102
RTVSPost2010Prop52
140
1.0
102
RTVSPost2010PropOp52
 70
     0
102
RTVSPost2010Prop53
 90
        2
102
RTVSPost2010PropOp53
 70
     1
102
RTVSPost2010Prop54
  1
strokes_ogs.tif
102
RTVSPost2010PropOp54
 70
     1
102
RTVSPost2010Prop55
280
     0
102
RTVSPost2010PropOp55
 70
     1
102
RTVSPost2010Prop56
140
1.0
102
RTVSPost2010PropOp56
 70
     1
102
RTVSPost2010Prop57
140
1.0
102
RTVSPost2010PropOp57
 70
     1
102
RTVSPropertyOp0
 70
     1
102
RTVSPropertyOp1
 70
     1
102
RTVSPropertyOp2
 70
     1
102
RTVSPropertyOp3
 70
     1
102
RTVSPropertyOp4
 70
     1
102
RTVSPropertyOp5
 70
     1
102
RTVSPropertyOp6
 70
     1
102
RTVSPropertyOp7
 70
     1
102
RTVSPropertyOp8
 70
     1
102
RTVSPropertyOp9
 70
     1
102
RTVSPropertyOp10
 70
     1
102
RTVSPropertyOp11
 70
     1
102
RTVSPropertyOp12
 70
     1
102
RTVSPropertyOp13
 70
     1
102
RTVSPropertyOp14
 70
     1
102
RTVSPropertyOp15
 70
     1
102
RTVSPropertyOp16
 70
     1
102
RTVSPropertyOp17
 70
     1
102
RTVSPropertyOp18
 70
     1
102
RTVSPropertyOp19
 70
     1
102
RTVSPropertyOp20
 70
     1
102
RTVSPropertyOp21
 70
     1
102
RTVSPropertyOp22
 70
     1
102
RTVSPropertyOp23
 70
     1
102
RTVSPropertyOp24
 70
     1
102
RTVSPropertyOp25
 70
     1
102
RTVSPropertyOp26
 70
     1
102
RTVSPropertyOp27
 70
     1
102
RTVSPropertyOp28
 70
     1
102
RTVSPropertyOp29
 70
     1
102
RTVSPropertyOp30
 70
     1
102
RTVSPropertyOp31
 70
     1
102
RTVSPropertyOp32
 70
     1
102
RTVSPropertyOp33
 70
     1
102
RTVSPropertyOp34
 70
     1
102
RTVSPropertyOp35
 70
     1
102
RTVSPropertyOp36
 70
     1
102
RTVSPropertyOp37
 70
     1
102
RTVSPropertyOp38
 70
     1
102
RTVSPropertyOp39
 70
     1
102
RTVSPropertyOp40
 70
     1
102
RTVSPropertyOp41
 70
     1
102
RTVSPropertyOp42
 70
     1
102
RTVSPropertyOp43
 70
     1
102
RTVSPropertyOp44
 70
     1
102
RTVSPropertyOp45
 70
     1
102
RTVSPropertyOp46
 70
     1
102
RTVSPropertyOp47
 70
     1
102
RTVSPropertyOp48
 70
     1
102
RTVSPropertyOp49
 70
     1
102
RTVSPropertyOp50
 70
     1
102
RTVSPropertyOp51
 70
     0
102
RTVSPropertyOp52
 70
     0
102
RTVSPropertyOp53
 70
     1
102
RTVSPropertyOp54
 70
     1
102
RTVSPropertyOp55
 70
     1
102
RTVSPropertyOp56
 70
     1
102
RTVSPropertyOp57
 70
     1
102
RTVSPropertyOp58
 70
     1
102
RTVSPropertyOp59
 70
     1
102
RTVSPropertyOp60
 70
     1
102
RTVSPropertyOp61
 70
     1
102
RTVSPropertyOp62
 70
     1
  0
XRECORD
  5
482
102
{ACAD_REACTORS
330
481
102
}
330
481
100
AcDbXrecord
280
     1
102
RTVSPost2010Prop28
280
     0
102
RTVSPost2010PropOp28
 70
     1
102
RTVSPost2010Prop29
280
     1
102
RTVSPost2010PropOp29
 70
     1
102
RTVSPost2010Prop30
280
     1
102
RTVSPost2010PropOp30
 70
     1
102
RTVSPost2010Prop31
280
     0
102
RTVSPost2010PropOp31
 70
     1
102
RTVSPost2010Prop32
280
     0
102
RTVSPost2010PropOp32
 70
     1
102
RTVSPost2010Prop33
280
     0
102
RTVSPost2010PropOp33
 70
     1
102
RTVSPost2010Prop34
280
     0
102
RTVSPost2010PropOp34
 70
     1
102
RTVSPost2010Prop35
280
     0
102
RTVSPost2010PropOp35
 70
     1
102
RTVSPost2010Prop36
280
     0
102
RTVSPost2010PropOp36
 70
     1
102
RTVSPost2010Prop37
 90
       50
102
RTVSPost2010PropOp37
 70
     1
102
RTVSPost2010Prop38
140
0.0
102
RTVSPost2010PropOp38
 70
     1
102
RTVSPost2010Prop39
140
1.0
102
RTVSPost2010PropOp39
 70
     1
102
RTVSPost2010Prop40
 90
        0
102
RTVSPost2010PropOp40
 70
     1
102
RTVSPost2010Prop41ColorIndex
 90
       18
102
RTVSPost2010Prop41ColorRGB
 90
        0
102
RTVSPost2010PropOp41
 70
     1
102
RTVSPost2010Prop42
 90
       50
102
RTVSPost2010PropOp42
 70
     1
102
RTVSPost2010Prop43
 90
        3
102
RTVSPost2010PropOp43
 70
     1
102
RTVSPost2010Prop44ColorIndex
 90
        5
102
RTVSPost2010Prop44ColorRGB
 90
      255
102
RTVSPost2010PropOp44
 70
     1
102
RTVSPost2010Prop45
280
     0
102
RTVSPost2010PropOp45
 70
     1
102
RTVSPost2010Prop46
 90
       50
102
RTVSPost2010PropOp46
 70
     1
102
RTVSPost2010Prop47
 90
       50
102
RTVSPost2010PropOp47
 70
     1
102
RTVSPost2010Prop48
 90
       50
102
RTVSPost2010PropOp48
 70
     1
102
RTVSPost2010Prop49
280
     0
102
RTVSPost2010PropOp49
 70
     1
102
RTVSPost2010Prop50
 90
       50
102
RTVSPost2010PropOp50
 70
     1
102
RTVSPost2010Prop51ColorIndex
 90
      256
102
RTVSPost2010Prop51ColorRGB
 90
-16777216
102
RTVSPost2010PropOp51
 70
     0
102
RTVSPost2010Prop52
140
1.0
102
RTVSPost2010PropOp52
 70
     0
102
RTVSPost2010Prop53
 90
        2
102
RTVSPost2010PropOp53
 70
     1
102
RTVSPost2010Prop54
  1
strokes_ogs.tif
102
RTVSPost2010PropOp54
 70
     1
102
RTVSPost2010Prop55
280
     0
102
RTVSPost2010PropOp55
 70
     1
102
RTVSPost2010Prop56
140
1.0
102
RTVSPost2010PropOp56
 70
     1
102
RTVSPost2010Prop57
140
1.0
102
RTVSPost2010PropOp57
 70
     1
102
RTVSPropertyOp0
 70
     1
102
RTVSPropertyOp1
 70
     1
102
RTVSPropertyOp2
 70
     1
102
RTVSPropertyOp3
 70
     1
102
RTVSPropertyOp4
 70
     1
102
RTVSPropertyOp5
 70
     1
102
RTVSPropertyOp6
 70
     1
102
RTVSPropertyOp7
 70
     1
102
RTVSPropertyOp8
 70
     1
102
RTVSPropertyOp9
 70
     1
102
RTVSPropertyOp10
 70
     1
102
RTVSPropertyOp11
 70
     1
102
RTVSPropertyOp12
 70
     1
102
RTVSPropertyOp13
 70
     1
102
RTVSPropertyOp14
 70
     1
102
RTVSPropertyOp15
 70
     1
102
RTVSPropertyOp16
 70
     1
102
RTVSPropertyOp17
 70
     1
102
RTVSPropertyOp18
 70
     1
102
RTVSPropertyOp19
 70
     1
102
RTVSPropertyOp20
 70
     1
102
RTVSPropertyOp21
 70
     1
102
RTVSPropertyOp22
 70
     1
102
RTVSPropertyOp23
 70
     1
102
RTVSPropertyOp24
 70
     1
102
RTVSPropertyOp25
 70
     1
102
RTVSPropertyOp26
 70
     1
102
RTVSPropertyOp27
 70
     1
102
RTVSPropertyOp28
 70
     1
102
RTVSPropertyOp29
 70
     1
102
RTVSPropertyOp30
 70
     1
102
RTVSPropertyOp31
 70
     1
102
RTVSPropertyOp32
 70
     1
102
RTVSPropertyOp33
 70
     1
102
RTVSPropertyOp34
 70
     1
102
RTVSPropertyOp35
 70
     1
102
RTVSPropertyOp36
 70
     1
102
RTVSPropertyOp37
 70
     1
102
RTVSPropertyOp38
 70
     1
102
RTVSPropertyOp39
 70
     1
102
RTVSPropertyOp40
 70
     1
102
RTVSPropertyOp41
 70
     1
102
RTVSPropertyOp42
 70
     1
102
RTVSPropertyOp43
 70
     1
102
RTVSPropertyOp44
 70
     1
102
RTVSPropertyOp45
 70
     1
102
RTVSPropertyOp46
 70
     1
102
RTVSPropertyOp47
 70
     1
102
RTVSPropertyOp48
 70
     1
102
RTVSPropertyOp49
 70
     1
102
RTVSPropertyOp50
 70
     1
102
RTVSPropertyOp51
 70
     0
102
RTVSPropertyOp52
 70
     0
102
RTVSPropertyOp53
 70
     1
102
RTVSPropertyOp54
 70
     1
102
RTVSPropertyOp55
 70
     1
102
RTVSPropertyOp56
 70
     1
102
RTVSPropertyOp57
 70
     1
102
RTVSPropertyOp58
 70
     1
102
RTVSPropertyOp59
 70
     1
102
RTVSPropertyOp60
 70
     1
102
RTVSPropertyOp61
 70
     1
102
RTVSPropertyOp62
 70
     1
  0
XRECORD
  5
48A
102
{ACAD_REACTORS
330
489
102
}
330
489
100
AcDbXrecord
280
     1
102
RTVSPost2010Prop28
280
     0
102
RTVSPost2010PropOp28
 70
     1
102
RTVSPost2010Prop29
280
     1
102
RTVSPost2010PropOp29
 70
     1
102
RTVSPost2010Prop30
280
     1
102
RTVSPost2010PropOp30
 70
     1
102
RTVSPost2010Prop31
280
     0
102
RTVSPost2010PropOp31
 70
     1
102
RTVSPost2010Prop32
280
     0
102
RTVSPost2010PropOp32
 70
     1
102
RTVSPost2010Prop33
280
     0
102
RTVSPost2010PropOp33
 70
     1
102
RTVSPost2010Prop34
280
     0
102
RTVSPost2010PropOp34
 70
     1
102
RTVSPost2010Prop35
280
     0
102
RTVSPost2010PropOp35
 70
     1
102
RTVSPost2010Prop36
280
     0
102
RTVSPost2010PropOp36
 70
     1
102
RTVSPost2010Prop37
 90
       50
102
RTVSPost2010PropOp37
 70
     1
102
RTVSPost2010Prop38
140
0.0
102
RTVSPost2010PropOp38
 70
     1
102
RTVSPost2010Prop39
140
1.0
102
RTVSPost2010PropOp39
 70
     1
102
RTVSPost2010Prop40
 90
        0
102
RTVSPost2010PropOp40
 70
     1
102
RTVSPost2010Prop41ColorIndex
 90
       18
102
RTVSPost2010Prop41ColorRGB
 90
        0
102
RTVSPost2010PropOp41
 70
     1
102
RTVSPost2010Prop42
 90
       50
102
RTVSPost2010PropOp42
 70
     1
102
RTVSPost2010Prop43
 90
        3
102
RTVSPost2010PropOp43
 70
     1
102
RTVSPost2010Prop44ColorIndex
 90
        5
102
RTVSPost2010Prop44ColorRGB
 90
      255
102
RTVSPost2010PropOp44
 70
     1
102
RTVSPost2010Prop45
280
     0
102
RTVSPost2010PropOp45
 70
     1
102
RTVSPost2010Prop46
 90
       50
102
RTVSPost2010PropOp46
 70
     1
102
RTVSPost2010Prop47
 90
       50
102
RTVSPost2010PropOp47
 70
     1
102
RTVSPost2010Prop48
 90
       50
102
RTVSPost2010PropOp48
 70
     1
102
RTVSPost2010Prop49
280
     0
102
RTVSPost2010PropOp49
 70
     1
102
RTVSPost2010Prop50
 90
       50
102
RTVSPost2010PropOp50
 70
     1
102
RTVSPost2010Prop51ColorIndex
 90
      256
102
RTVSPost2010Prop51ColorRGB
 90
-16777216
102
RTVSPost2010PropOp51
 70
     0
102
RTVSPost2010Prop52
140
1.0
102
RTVSPost2010PropOp52
 70
     0
102
RTVSPost2010Prop53
 90
        2
102
RTVSPost2010PropOp53
 70
     1
102
RTVSPost2010Prop54
  1
strokes_ogs.tif
102
RTVSPost2010PropOp54
 70
     1
102
RTVSPost2010Prop55
280
     0
102
RTVSPost2010PropOp55
 70
     1
102
RTVSPost2010Prop56
140
1.0
102
RTVSPost2010PropOp56
 70
     1
102
RTVSPost2010Prop57
140
1.0
102
RTVSPost2010PropOp57
 70
     1
102
RTVSPropertyOp0
 70
     1
102
RTVSPropertyOp1
 70
     1
102
RTVSPropertyOp2
 70
     1
102
RTVSPropertyOp3
 70
     1
102
RTVSPropertyOp4
 70
     1
102
RTVSPropertyOp5
 70
     1
102
RTVSPropertyOp6
 70
     1
102
RTVSPropertyOp7
 70
     1
102
RTVSPropertyOp8
 70
     1
102
RTVSPropertyOp9
 70
     1
102
RTVSPropertyOp10
 70
     1
102
RTVSPropertyOp11
 70
     1
102
RTVSPropertyOp12
 70
     1
102
RTVSPropertyOp13
 70
     1
102
RTVSPropertyOp14
 70
     1
102
RTVSPropertyOp15
 70
     1
102
RTVSPropertyOp16
 70
     1
102
RTVSPropertyOp17
 70
     1
102
RTVSPropertyOp18
 70
     1
102
RTVSPropertyOp19
 70
     1
102
RTVSPropertyOp20
 70
     1
102
RTVSPropertyOp21
 70
     1
102
RTVSPropertyOp22
 70
     1
102
RTVSPropertyOp23
 70
     1
102
RTVSPropertyOp24
 70
     1
102
RTVSPropertyOp25
 70
     1
102
RTVSPropertyOp26
 70
     1
102
RTVSPropertyOp27
 70
     1
102
RTVSPropertyOp28
 70
     1
102
RTVSPropertyOp29
 70
     1
102
RTVSPropertyOp30
 70
     1
102
RTVSPropertyOp31
 70
     1
102
RTVSPropertyOp32
 70
     1
102
RTVSPropertyOp33
 70
     1
102
RTVSPropertyOp34
 70
     1
102
RTVSPropertyOp35
 70
     1
102
RTVSPropertyOp36
 70
     1
102
RTVSPropertyOp37
 70
     1
102
RTVSPropertyOp38
 70
     1
102
RTVSPropertyOp39
 70
     1
102
RTVSPropertyOp40
 70
     1
102
RTVSPropertyOp41
 70
     1
102
RTVSPropertyOp42
 70
     1
102
RTVSPropertyOp43
 70
     1
102
RTVSPropertyOp44
 70
     1
102
RTVSPropertyOp45
 70
     1
102
RTVSPropertyOp46
 70
     1
102
RTVSPropertyOp47
 70
     1
102
RTVSPropertyOp48
 70
     1
102
RTVSPropertyOp49
 70
     1
102
RTVSPropertyOp50
 70
     1
102
RTVSPropertyOp51
 70
     0
102
RTVSPropertyOp52
 70
     0
102
RTVSPropertyOp53
 70
     1
102
RTVSPropertyOp54
 70
     1
102
RTVSPropertyOp55
 70
     1
102
RTVSPropertyOp56
 70
     1
102
RTVSPropertyOp57
 70
     1
102
RTVSPropertyOp58
 70
     1
102
RTVSPropertyOp59
 70
     1
102
RTVSPropertyOp60
 70
     1
102
RTVSPropertyOp61
 70
     1
102
RTVSPropertyOp62
 70
     1
  0
XRECORD
  5
4A6
102
{ACAD_REACTORS
330
4A5
102
}
330
4A5
100
AcDbXrecord
280
     1
102
RTVSPost2010Prop28
280
     0
102
RTVSPost2010PropOp28
 70
     1
102
RTVSPost2010Prop29
280
     1
102
RTVSPost2010PropOp29
 70
     1
102
RTVSPost2010Prop30
280
     1
102
RTVSPost2010PropOp30
 70
     1
102
RTVSPost2010Prop31
280
     0
102
RTVSPost2010PropOp31
 70
     1
102
RTVSPost2010Prop32
280
     0
102
RTVSPost2010PropOp32
 70
     1
102
RTVSPost2010Prop33
280
     0
102
RTVSPost2010PropOp33
 70
     1
102
RTVSPost2010Prop34
280
     0
102
RTVSPost2010PropOp34
 70
     1
102
RTVSPost2010Prop35
280
     0
102
RTVSPost2010PropOp35
 70
     1
102
RTVSPost2010Prop36
280
     0
102
RTVSPost2010PropOp36
 70
     1
102
RTVSPost2010Prop37
 90
       50
102
RTVSPost2010PropOp37
 70
     0
102
RTVSPost2010Prop38
140
0.0
102
RTVSPost2010PropOp38
 70
     0
102
RTVSPost2010Prop39
140
1.0
102
RTVSPost2010PropOp39
 70
     0
102
RTVSPost2010Prop40
 90
        0
102
RTVSPost2010PropOp40
 70
     0
102
RTVSPost2010Prop41ColorIndex
 90
       18
102
RTVSPost2010Prop41ColorRGB
 90
        0
102
RTVSPost2010PropOp41
 70
     0
102
RTVSPost2010Prop42
 90
       50
102
RTVSPost2010PropOp42
 70
     0
102
RTVSPost2010Prop43
 90
        3
102
RTVSPost2010PropOp43
 70
     0
102
RTVSPost2010Prop44ColorIndex
 90
        5
102
RTVSPost2010Prop44ColorRGB
 90
      255
102
RTVSPost2010PropOp44
 70
     0
102
RTVSPost2010Prop45
280
     0
102
RTVSPost2010PropOp45
 70
     1
102
RTVSPost2010Prop46
 90
       50
102
RTVSPost2010PropOp46
 70
     0
102
RTVSPost2010Prop47
 90
       50
102
RTVSPost2010PropOp47
 70
     0
102
RTVSPost2010Prop48
 90
       50
102
RTVSPost2010PropOp48
 70
     0
102
RTVSPost2010Prop49
280
     0
102
RTVSPost2010PropOp49
 70
     1
102
RTVSPost2010Prop50
 90
       50
102
RTVSPost2010PropOp50
 70
     0
102
RTVSPost2010Prop51ColorIndex
 90
      256
102
RTVSPost2010Prop51ColorRGB
 90
-16777216
102
RTVSPost2010PropOp51
 70
     0
102
RTVSPost2010Prop52
140
1.0
102
RTVSPost2010PropOp52
 70
     0
102
RTVSPost2010Prop53
 90
        2
102
RTVSPost2010PropOp53
 70
     0
102
RTVSPost2010Prop54
  1
strokes_ogs.tif
102
RTVSPost2010PropOp54
 70
     0
102
RTVSPost2010Prop55
280
     0
102
RTVSPost2010PropOp55
 70
     1
102
RTVSPost2010Prop56
140
1.0
102
RTVSPost2010PropOp56
 70
     0
102
RTVSPost2010Prop57
140
1.0
102
RTVSPost2010PropOp57
 70
     0
102
RTVSPropertyOp0
 70
     0
102
RTVSPropertyOp1
 70
     0
102
RTVSPropertyOp2
 70
     0
102
RTVSPropertyOp3
 70
     0
102
RTVSPropertyOp4
 70
     0
102
RTVSPropertyOp5
 70
     0
102
RTVSPropertyOp6
 70
     0
102
RTVSPropertyOp7
 70
     0
102
RTVSPropertyOp8
 70
     0
102
RTVSPropertyOp9
 70
     0
102
RTVSPropertyOp10
 70
     0
102
RTVSPropertyOp11
 70
     0
102
RTVSPropertyOp12
 70
     0
102
RTVSPropertyOp13
 70
     0
102
RTVSPropertyOp14
 70
     2
102
RTVSPropertyOp15
 70
     0
102
RTVSPropertyOp16
 70
     0
102
RTVSPropertyOp17
 70
     0
102
RTVSPropertyOp18
 70
     0
102
RTVSPropertyOp19
 70
     0
102
RTVSPropertyOp20
 70
     0
102
RTVSPropertyOp21
 70
     0
102
RTVSPropertyOp22
 70
     0
102
RTVSPropertyOp23
 70
     0
102
RTVSPropertyOp24
 70
     0
102
RTVSPropertyOp25
 70
     0
102
RTVSPropertyOp26
 70
     0
102
RTVSPropertyOp27
 70
     0
102
RTVSPropertyOp28
 70
     1
102
RTVSPropertyOp29
 70
     1
102
RTVSPropertyOp30
 70
     1
102
RTVSPropertyOp31
 70
     1
102
RTVSPropertyOp32
 70
     1
102
RTVSPropertyOp33
 70
     1
102
RTVSPropertyOp34
 70
     1
102
RTVSPropertyOp35
 70
     1
102
RTVSPropertyOp36
 70
     1
102
RTVSPropertyOp37
 70
     0
102
RTVSPropertyOp38
 70
     0
102
RTVSPropertyOp39
 70
     0
102
RTVSPropertyOp40
 70
     0
102
RTVSPropertyOp41
 70
     0
102
RTVSPropertyOp42
 70
     0
102
RTVSPropertyOp43
 70
     0
102
RTVSPropertyOp44
 70
     0
102
RTVSPropertyOp45
 70
     1
102
RTVSPropertyOp46
 70
     0
102
RTVSPropertyOp47
 70
     0
102
RTVSPropertyOp48
 70
     0
102
RTVSPropertyOp49
 70
     1
102
RTVSPropertyOp50
 70
     0
102
RTVSPropertyOp51
 70
     0
102
RTVSPropertyOp52
 70
     0
102
RTVSPropertyOp53
 70
     0
102
RTVSPropertyOp54
 70
     0
102
RTVSPropertyOp55
 70
     1
102
RTVSPropertyOp56
 70
     0
102
RTVSPropertyOp57
 70
     0
102
RTVSPropertyOp58
 70
     0
102
RTVSPropertyOp59
 70
     0
102
RTVSPropertyOp60
 70
     0
102
RTVSPropertyOp61
 70
     0
102
RTVSPropertyOp62
 70
     0
  0
XRECORD
  5
496
102
{ACAD_REACTORS
330
495
102
}
330
495
100
AcDbXrecord
280
     1
102
RTVSPost2010Prop28
280
     0
102
RTVSPost2010PropOp28
 70
     1
102
RTVSPost2010Prop29
280
     1
102
RTVSPost2010PropOp29
 70
     1
102
RTVSPost2010Prop30
280
     1
102
RTVSPost2010PropOp30
 70
     1
102
RTVSPost2010Prop31
280
     0
102
RTVSPost2010PropOp31
 70
     1
102
RTVSPost2010Prop32
280
     0
102
RTVSPost2010PropOp32
 70
     1
102
RTVSPost2010Prop33
280
     0
102
RTVSPost2010PropOp33
 70
     1
102
RTVSPost2010Prop34
280
     0
102
RTVSPost2010PropOp34
 70
     1
102
RTVSPost2010Prop35
280
     0
102
RTVSPost2010PropOp35
 70
     1
102
RTVSPost2010Prop36
280
     0
102
RTVSPost2010PropOp36
 70
     1
102
RTVSPost2010Prop37
 90
       50
102
RTVSPost2010PropOp37
 70
     1
102
RTVSPost2010Prop38
140
0.0
102
RTVSPost2010PropOp38
 70
     1
102
RTVSPost2010Prop39
140
1.0
102
RTVSPost2010PropOp39
 70
     1
102
RTVSPost2010Prop40
 90
        0
102
RTVSPost2010PropOp40
 70
     1
102
RTVSPost2010Prop41ColorIndex
 90
       18
102
RTVSPost2010Prop41ColorRGB
 90
        0
102
RTVSPost2010PropOp41
 70
     1
102
RTVSPost2010Prop42
 90
       50
102
RTVSPost2010PropOp42
 70
     1
102
RTVSPost2010Prop43
 90
        3
102
RTVSPost2010PropOp43
 70
     1
102
RTVSPost2010Prop44ColorIndex
 90
        5
102
RTVSPost2010Prop44ColorRGB
 90
      255
102
RTVSPost2010PropOp44
 70
     1
102
RTVSPost2010Prop45
280
     0
102
RTVSPost2010PropOp45
 70
     1
102
RTVSPost2010Prop46
 90
       50
102
RTVSPost2010PropOp46
 70
     1
102
RTVSPost2010Prop47
 90
       50
102
RTVSPost2010PropOp47
 70
     1
102
RTVSPost2010Prop48
 90
       50
102
RTVSPost2010PropOp48
 70
     1
102
RTVSPost2010Prop49
280
     0
102
RTVSPost2010PropOp49
 70
     1
102
RTVSPost2010Prop50
 90
       50
102
RTVSPost2010PropOp50
 70
     1
102
RTVSPost2010Prop51ColorIndex
 90
      256
102
RTVSPost2010Prop51ColorRGB
 90
-16777216
102
RTVSPost2010PropOp51
 70
     0
102
RTVSPost2010Prop52
140
1.0
102
RTVSPost2010PropOp52
 70
     0
102
RTVSPost2010Prop53
 90
        2
102
RTVSPost2010PropOp53
 70
     1
102
RTVSPost2010Prop54
  1
strokes_ogs.tif
102
RTVSPost2010PropOp54
 70
     1
102
RTVSPost2010Prop55
280
     0
102
RTVSPost2010PropOp55
 70
     1
102
RTVSPost2010Prop56
140
1.0
102
RTVSPost2010PropOp56
 70
     1
102
RTVSPost2010Prop57
140
1.0
102
RTVSPost2010PropOp57
 70
     1
102
RTVSPropertyOp0
 70
     1
102
RTVSPropertyOp1
 70
     1
102
RTVSPropertyOp2
 70
     1
102
RTVSPropertyOp3
 70
     1
102
RTVSPropertyOp4
 70
     1
102
RTVSPropertyOp5
 70
     1
102
RTVSPropertyOp6
 70
     1
102
RTVSPropertyOp7
 70
     1
102
RTVSPropertyOp8
 70
     1
102
RTVSPropertyOp9
 70
     1
102
RTVSPropertyOp10
 70
     1
102
RTVSPropertyOp11
 70
     1
102
RTVSPropertyOp12
 70
     1
102
RTVSPropertyOp13
 70
     1
102
RTVSPropertyOp14
 70
     1
102
RTVSPropertyOp15
 70
     1
102
RTVSPropertyOp16
 70
     1
102
RTVSPropertyOp17
 70
     1
102
RTVSPropertyOp18
 70
     1
102
RTVSPropertyOp19
 70
     1
102
RTVSPropertyOp20
 70
     1
102
RTVSPropertyOp21
 70
     1
102
RTVSPropertyOp22
 70
     1
102
RTVSPropertyOp23
 70
     1
102
RTVSPropertyOp24
 70
     1
102
RTVSPropertyOp25
 70
     1
102
RTVSPropertyOp26
 70
     1
102
RTVSPropertyOp27
 70
     1
102
RTVSPropertyOp28
 70
     1
102
RTVSPropertyOp29
 70
     1
102
RTVSPropertyOp30
 70
     1
102
RTVSPropertyOp31
 70
     1
102
RTVSPropertyOp32
 70
     1
102
RTVSPropertyOp33
 70
     1
102
RTVSPropertyOp34
 70
     1
102
RTVSPropertyOp35
 70
     1
102
RTVSPropertyOp36
 70
     1
102
RTVSPropertyOp37
 70
     1
102
RTVSPropertyOp38
 70
     1
102
RTVSPropertyOp39
 70
     1
102
RTVSPropertyOp40
 70
     1
102
RTVSPropertyOp41
 70
     1
102
RTVSPropertyOp42
 70
     1
102
RTVSPropertyOp43
 70
     1
102
RTVSPropertyOp44
 70
     1
102
RTVSPropertyOp45
 70
     1
102
RTVSPropertyOp46
 70
     1
102
RTVSPropertyOp47
 70
     1
102
RTVSPropertyOp48
 70
     1
102
RTVSPropertyOp49
 70
     1
102
RTVSPropertyOp50
 70
     1
102
RTVSPropertyOp51
 70
     0
102
RTVSPropertyOp52
 70
     0
102
RTVSPropertyOp53
 70
     1
102
RTVSPropertyOp54
 70
     1
102
RTVSPropertyOp55
 70
     1
102
RTVSPropertyOp56
 70
     1
102
RTVSPropertyOp57
 70
     1
102
RTVSPropertyOp58
 70
     1
102
RTVSPropertyOp59
 70
     1
102
RTVSPropertyOp60
 70
     1
102
RTVSPropertyOp61
 70
     1
102
RTVSPropertyOp62
 70
     1
  0
XRECORD
  5
4A8
102
{ACAD_REACTORS
330
4A7
102
}
330
4A7
100
AcDbXrecord
280
     1
102
RTVSPost2010Prop28
280
     0
102
RTVSPost2010PropOp28
 70
     1
102
RTVSPost2010Prop29
280
     1
102
RTVSPost2010PropOp29
 70
     1
102
RTVSPost2010Prop30
280
     1
102
RTVSPost2010PropOp30
 70
     1
102
RTVSPost2010Prop31
280
     0
102
RTVSPost2010PropOp31
 70
     1
102
RTVSPost2010Prop32
280
     0
102
RTVSPost2010PropOp32
 70
     1
102
RTVSPost2010Prop33
280
     0
102
RTVSPost2010PropOp33
 70
     1
102
RTVSPost2010Prop34
280
     0
102
RTVSPost2010PropOp34
 70
     1
102
RTVSPost2010Prop35
280
     0
102
RTVSPost2010PropOp35
 70
     1
102
RTVSPost2010Prop36
280
     0
102
RTVSPost2010PropOp36
 70
     1
102
RTVSPost2010Prop37
 90
       50
102
RTVSPost2010PropOp37
 70
     0
102
RTVSPost2010Prop38
140
0.0
102
RTVSPost2010PropOp38
 70
     0
102
RTVSPost2010Prop39
140
1.0
102
RTVSPost2010PropOp39
 70
     0
102
RTVSPost2010Prop40
 90
        0
102
RTVSPost2010PropOp40
 70
     0
102
RTVSPost2010Prop41ColorIndex
 90
       18
102
RTVSPost2010Prop41ColorRGB
 90
        0
102
RTVSPost2010PropOp41
 70
     0
102
RTVSPost2010Prop42
 90
       50
102
RTVSPost2010PropOp42
 70
     0
102
RTVSPost2010Prop43
 90
        3
102
RTVSPost2010PropOp43
 70
     0
102
RTVSPost2010Prop44ColorIndex
 90
        5
102
RTVSPost2010Prop44ColorRGB
 90
      255
102
RTVSPost2010PropOp44
 70
     0
102
RTVSPost2010Prop45
280
     0
102
RTVSPost2010PropOp45
 70
     1
102
RTVSPost2010Prop46
 90
       50
102
RTVSPost2010PropOp46
 70
     0
102
RTVSPost2010Prop47
 90
       50
102
RTVSPost2010PropOp47
 70
     0
102
RTVSPost2010Prop48
 90
       50
102
RTVSPost2010PropOp48
 70
     0
102
RTVSPost2010Prop49
280
     0
102
RTVSPost2010PropOp49
 70
     1
102
RTVSPost2010Prop50
 90
       50
102
RTVSPost2010PropOp50
 70
     0
102
RTVSPost2010Prop51ColorIndex
 90
      256
102
RTVSPost2010Prop51ColorRGB
 90
-16777216
102
RTVSPost2010PropOp51
 70
     0
102
RTVSPost2010Prop52
140
1.0
102
RTVSPost2010PropOp52
 70
     0
102
RTVSPost2010Prop53
 90
        2
102
RTVSPost2010PropOp53
 70
     0
102
RTVSPost2010Prop54
  1
strokes_ogs.tif
102
RTVSPost2010PropOp54
 70
     0
102
RTVSPost2010Prop55
280
     0
102
RTVSPost2010PropOp55
 70
     1
102
RTVSPost2010Prop56
140
1.0
102
RTVSPost2010PropOp56
 70
     0
102
RTVSPost2010Prop57
140
1.0
102
RTVSPost2010PropOp57
 70
     0
102
RTVSPropertyOp0
 70
     0
102
RTVSPropertyOp1
 70
     0
102
RTVSPropertyOp2
 70
     0
102
RTVSPropertyOp3
 70
     0
102
RTVSPropertyOp4
 70
     0
102
RTVSPropertyOp5
 70
     0
102
RTVSPropertyOp6
 70
     0
102
RTVSPropertyOp7
 70
     0
102
RTVSPropertyOp8
 70
     0
102
RTVSPropertyOp9
 70
     0
102
RTVSPropertyOp10
 70
     0
102
RTVSPropertyOp11
 70
     0
102
RTVSPropertyOp12
 70
     0
102
RTVSPropertyOp13
 70
     0
102
RTVSPropertyOp14
 70
     2
102
RTVSPropertyOp15
 70
     0
102
RTVSPropertyOp16
 70
     0
102
RTVSPropertyOp17
 70
     0
102
RTVSPropertyOp18
 70
     0
102
RTVSPropertyOp19
 70
     0
102
RTVSPropertyOp20
 70
     0
102
RTVSPropertyOp21
 70
     0
102
RTVSPropertyOp22
 70
     0
102
RTVSPropertyOp23
 70
     0
102
RTVSPropertyOp24
 70
     0
102
RTVSPropertyOp25
 70
     0
102
RTVSPropertyOp26
 70
     0
102
RTVSPropertyOp27
 70
     0
102
RTVSPropertyOp28
 70
     1
102
RTVSPropertyOp29
 70
     1
102
RTVSPropertyOp30
 70
     1
102
RTVSPropertyOp31
 70
     1
102
RTVSPropertyOp32
 70
     1
102
RTVSPropertyOp33
 70
     1
102
RTVSPropertyOp34
 70
     1
102
RTVSPropertyOp35
 70
     1
102
RTVSPropertyOp36
 70
     1
102
RTVSPropertyOp37
 70
     0
102
RTVSPropertyOp38
 70
     0
102
RTVSPropertyOp39
 70
     0
102
RTVSPropertyOp40
 70
     0
102
RTVSPropertyOp41
 70
     0
102
RTVSPropertyOp42
 70
     0
102
RTVSPropertyOp43
 70
     0
102
RTVSPropertyOp44
 70
     0
102
RTVSPropertyOp45
 70
     1
102
RTVSPropertyOp46
 70
     0
102
RTVSPropertyOp47
 70
     0
102
RTVSPropertyOp48
 70
     0
102
RTVSPropertyOp49
 70
     1
102
RTVSPropertyOp50
 70
     0
102
RTVSPropertyOp51
 70
     0
102
RTVSPropertyOp52
 70
     0
102
RTVSPropertyOp53
 70
     0
102
RTVSPropertyOp54
 70
     0
102
RTVSPropertyOp55
 70
     1
102
RTVSPropertyOp56
 70
     0
102
RTVSPropertyOp57
 70
     0
102
RTVSPropertyOp58
 70
     0
102
RTVSPropertyOp59
 70
     0
102
RTVSPropertyOp60
 70
     0
102
RTVSPropertyOp61
 70
     0
102
RTVSPropertyOp62
 70
     0
  0
XRECORD
  5
48E
102
{ACAD_REACTORS
330
48D
102
}
330
48D
100
AcDbXrecord
280
     1
102
RTVSPost2010Prop28
280
     0
102
RTVSPost2010PropOp28
 70
     1
102
RTVSPost2010Prop29
280
     1
102
RTVSPost2010PropOp29
 70
     1
102
RTVSPost2010Prop30
280
     1
102
RTVSPost2010PropOp30
 70
     1
102
RTVSPost2010Prop31
280
     0
102
RTVSPost2010PropOp31
 70
     1
102
RTVSPost2010Prop32
280
     0
102
RTVSPost2010PropOp32
 70
     1
102
RTVSPost2010Prop33
280
     0
102
RTVSPost2010PropOp33
 70
     1
102
RTVSPost2010Prop34
280
     0
102
RTVSPost2010PropOp34
 70
     1
102
RTVSPost2010Prop35
280
     0
102
RTVSPost2010PropOp35
 70
     1
102
RTVSPost2010Prop36
280
     0
102
RTVSPost2010PropOp36
 70
     1
102
RTVSPost2010Prop37
 90
       50
102
RTVSPost2010PropOp37
 70
     1
102
RTVSPost2010Prop38
140
0.0
102
RTVSPost2010PropOp38
 70
     1
102
RTVSPost2010Prop39
140
1.0
102
RTVSPost2010PropOp39
 70
     1
102
RTVSPost2010Prop40
 90
        0
102
RTVSPost2010PropOp40
 70
     1
102
RTVSPost2010Prop41ColorIndex
 90
       18
102
RTVSPost2010Prop41ColorRGB
 90
        0
102
RTVSPost2010PropOp41
 70
     1
102
RTVSPost2010Prop42
 90
       50
102
RTVSPost2010PropOp42
 70
     1
102
RTVSPost2010Prop43
 90
        3
102
RTVSPost2010PropOp43
 70
     1
102
RTVSPost2010Prop44ColorIndex
 90
        5
102
RTVSPost2010Prop44ColorRGB
 90
      255
102
RTVSPost2010PropOp44
 70
     1
102
RTVSPost2010Prop45
280
     0
102
RTVSPost2010PropOp45
 70
     1
102
RTVSPost2010Prop46
 90
       50
102
RTVSPost2010PropOp46
 70
     1
102
RTVSPost2010Prop47
 90
       50
102
RTVSPost2010PropOp47
 70
     1
102
RTVSPost2010Prop48
 90
       50
102
RTVSPost2010PropOp48
 70
     1
102
RTVSPost2010Prop49
280
     0
102
RTVSPost2010PropOp49
 70
     1
102
RTVSPost2010Prop50
 90
       50
102
RTVSPost2010PropOp50
 70
     1
102
RTVSPost2010Prop51ColorIndex
 90
      256
102
RTVSPost2010Prop51ColorRGB
 90
-16777216
102
RTVSPost2010PropOp51
 70
     0
102
RTVSPost2010Prop52
140
1.0
102
RTVSPost2010PropOp52
 70
     0
102
RTVSPost2010Prop53
 90
        2
102
RTVSPost2010PropOp53
 70
     1
102
RTVSPost2010Prop54
  1
strokes_ogs.tif
102
RTVSPost2010PropOp54
 70
     1
102
RTVSPost2010Prop55
280
     0
102
RTVSPost2010PropOp55
 70
     1
102
RTVSPost2010Prop56
140
1.0
102
RTVSPost2010PropOp56
 70
     1
102
RTVSPost2010Prop57
140
1.0
102
RTVSPost2010PropOp57
 70
     1
102
RTVSPropertyOp0
 70
     1
102
RTVSPropertyOp1
 70
     1
102
RTVSPropertyOp2
 70
     1
102
RTVSPropertyOp3
 70
     1
102
RTVSPropertyOp4
 70
     1
102
RTVSPropertyOp5
 70
     1
102
RTVSPropertyOp6
 70
     1
102
RTVSPropertyOp7
 70
     1
102
RTVSPropertyOp8
 70
     1
102
RTVSPropertyOp9
 70
     1
102
RTVSPropertyOp10
 70
     1
102
RTVSPropertyOp11
 70
     1
102
RTVSPropertyOp12
 70
     1
102
RTVSPropertyOp13
 70
     1
102
RTVSPropertyOp14
 70
     1
102
RTVSPropertyOp15
 70
     1
102
RTVSPropertyOp16
 70
     1
102
RTVSPropertyOp17
 70
     1
102
RTVSPropertyOp18
 70
     1
102
RTVSPropertyOp19
 70
     1
102
RTVSPropertyOp20
 70
     1
102
RTVSPropertyOp21
 70
     1
102
RTVSPropertyOp22
 70
     1
102
RTVSPropertyOp23
 70
     1
102
RTVSPropertyOp24
 70
     1
102
RTVSPropertyOp25
 70
     1
102
RTVSPropertyOp26
 70
     1
102
RTVSPropertyOp27
 70
     1
102
RTVSPropertyOp28
 70
     1
102
RTVSPropertyOp29
 70
     1
102
RTVSPropertyOp30
 70
     1
102
RTVSPropertyOp31
 70
     1
102
RTVSPropertyOp32
 70
     1
102
RTVSPropertyOp33
 70
     1
102
RTVSPropertyOp34
 70
     1
102
RTVSPropertyOp35
 70
     1
102
RTVSPropertyOp36
 70
     1
102
RTVSPropertyOp37
 70
     1
102
RTVSPropertyOp38
 70
     1
102
RTVSPropertyOp39
 70
     1
102
RTVSPropertyOp40
 70
     1
102
RTVSPropertyOp41
 70
     1
102
RTVSPropertyOp42
 70
     1
102
RTVSPropertyOp43
 70
     1
102
RTVSPropertyOp44
 70
     1
102
RTVSPropertyOp45
 70
     1
102
RTVSPropertyOp46
 70
     1
102
RTVSPropertyOp47
 70
     1
102
RTVSPropertyOp48
 70
     1
102
RTVSPropertyOp49
 70
     1
102
RTVSPropertyOp50
 70
     1
102
RTVSPropertyOp51
 70
     0
102
RTVSPropertyOp52
 70
     0
102
RTVSPropertyOp53
 70
     1
102
RTVSPropertyOp54
 70
     1
102
RTVSPropertyOp55
 70
     1
102
RTVSPropertyOp56
 70
     1
102
RTVSPropertyOp57
 70
     1
102
RTVSPropertyOp58
 70
     1
102
RTVSPropertyOp59
 70
     1
102
RTVSPropertyOp60
 70
     1
102
RTVSPropertyOp61
 70
     1
102
RTVSPropertyOp62
 70
     1
  0
XRECORD
  5
4A4
102
{ACAD_REACTORS
330
4A3
102
}
330
4A3
100
AcDbXrecord
280
     1
102
RTVSPost2010Prop28
280
     0
102
RTVSPost2010PropOp28
 70
     1
102
RTVSPost2010Prop29
280
     1
102
RTVSPost2010PropOp29
 70
     1
102
RTVSPost2010Prop30
280
     1
102
RTVSPost2010PropOp30
 70
     1
102
RTVSPost2010Prop31
280
     0
102
RTVSPost2010PropOp31
 70
     1
102
RTVSPost2010Prop32
280
     0
102
RTVSPost2010PropOp32
 70
     1
102
RTVSPost2010Prop33
280
     0
102
RTVSPost2010PropOp33
 70
     1
102
RTVSPost2010Prop34
280
     0
102
RTVSPost2010PropOp34
 70
     1
102
RTVSPost2010Prop35
280
     0
102
RTVSPost2010PropOp35
 70
     1
102
RTVSPost2010Prop36
280
     0
102
RTVSPost2010PropOp36
 70
     1
102
RTVSPost2010Prop37
 90
       50
102
RTVSPost2010PropOp37
 70
     1
102
RTVSPost2010Prop38
140
0.0
102
RTVSPost2010PropOp38
 70
     1
102
RTVSPost2010Prop39
140
1.0
102
RTVSPost2010PropOp39
 70
     1
102
RTVSPost2010Prop40
 90
        0
102
RTVSPost2010PropOp40
 70
     1
102
RTVSPost2010Prop41ColorIndex
 90
       18
102
RTVSPost2010Prop41ColorRGB
 90
        0
102
RTVSPost2010PropOp41
 70
     1
102
RTVSPost2010Prop42
 90
       50
102
RTVSPost2010PropOp42
 70
     1
102
RTVSPost2010Prop43
 90
        3
102
RTVSPost2010PropOp43
 70
     1
102
RTVSPost2010Prop44ColorIndex
 90
        5
102
RTVSPost2010Prop44ColorRGB
 90
      255
102
RTVSPost2010PropOp44
 70
     1
102
RTVSPost2010Prop45
280
     0
102
RTVSPost2010PropOp45
 70
     1
102
RTVSPost2010Prop46
 90
       50
102
RTVSPost2010PropOp46
 70
     1
102
RTVSPost2010Prop47
 90
       50
102
RTVSPost2010PropOp47
 70
     1
102
RTVSPost2010Prop48
 90
       50
102
RTVSPost2010PropOp48
 70
     1
102
RTVSPost2010Prop49
280
     0
102
RTVSPost2010PropOp49
 70
     1
102
RTVSPost2010Prop50
 90
       50
102
RTVSPost2010PropOp50
 70
     1
102
RTVSPost2010Prop51ColorIndex
 90
      256
102
RTVSPost2010Prop51ColorRGB
 90
-16777216
102
RTVSPost2010PropOp51
 70
     0
102
RTVSPost2010Prop52
140
1.0
102
RTVSPost2010PropOp52
 70
     0
102
RTVSPost2010Prop53
 90
        2
102
RTVSPost2010PropOp53
 70
     1
102
RTVSPost2010Prop54
  1
strokes_ogs.tif
102
RTVSPost2010PropOp54
 70
     1
102
RTVSPost2010Prop55
280
     0
102
RTVSPost2010PropOp55
 70
     1
102
RTVSPost2010Prop56
140
1.0
102
RTVSPost2010PropOp56
 70
     1
102
RTVSPost2010Prop57
140
1.0
102
RTVSPost2010PropOp57
 70
     1
102
RTVSPropertyOp0
 70
     1
102
RTVSPropertyOp1
 70
     1
102
RTVSPropertyOp2
 70
     1
102
RTVSPropertyOp3
 70
     1
102
RTVSPropertyOp4
 70
     1
102
RTVSPropertyOp5
 70
     1
102
RTVSPropertyOp6
 70
     1
102
RTVSPropertyOp7
 70
     1
102
RTVSPropertyOp8
 70
     1
102
RTVSPropertyOp9
 70
     1
102
RTVSPropertyOp10
 70
     1
102
RTVSPropertyOp11
 70
     1
102
RTVSPropertyOp12
 70
     1
102
RTVSPropertyOp13
 70
     1
102
RTVSPropertyOp14
 70
     1
102
RTVSPropertyOp15
 70
     1
102
RTVSPropertyOp16
 70
     1
102
RTVSPropertyOp17
 70
     1
102
RTVSPropertyOp18
 70
     1
102
RTVSPropertyOp19
 70
     1
102
RTVSPropertyOp20
 70
     1
102
RTVSPropertyOp21
 70
     1
102
RTVSPropertyOp22
 70
     1
102
RTVSPropertyOp23
 70
     1
102
RTVSPropertyOp24
 70
     1
102
RTVSPropertyOp25
 70
     1
102
RTVSPropertyOp26
 70
     1
102
RTVSPropertyOp27
 70
     1
102
RTVSPropertyOp28
 70
     1
102
RTVSPropertyOp29
 70
     1
102
RTVSPropertyOp30
 70
     1
102
RTVSPropertyOp31
 70
     1
102
RTVSPropertyOp32
 70
     1
102
RTVSPropertyOp33
 70
     1
102
RTVSPropertyOp34
 70
     1
102
RTVSPropertyOp35
 70
     1
102
RTVSPropertyOp36
 70
     1
102
RTVSPropertyOp37
 70
     1
102
RTVSPropertyOp38
 70
     1
102
RTVSPropertyOp39
 70
     1
102
RTVSPropertyOp40
 70
     1
102
RTVSPropertyOp41
 70
     1
102
RTVSPropertyOp42
 70
     1
102
RTVSPropertyOp43
 70
     1
102
RTVSPropertyOp44
 70
     1
102
RTVSPropertyOp45
 70
     1
102
RTVSPropertyOp46
 70
     1
102
RTVSPropertyOp47
 70
     1
102
RTVSPropertyOp48
 70
     1
102
RTVSPropertyOp49
 70
     1
102
RTVSPropertyOp50
 70
     1
102
RTVSPropertyOp51
 70
     0
102
RTVSPropertyOp52
 70
     0
102
RTVSPropertyOp53
 70
     1
102
RTVSPropertyOp54
 70
     1
102
RTVSPropertyOp55
 70
     1
102
RTVSPropertyOp56
 70
     1
102
RTVSPropertyOp57
 70
     1
102
RTVSPropertyOp58
 70
     1
102
RTVSPropertyOp59
 70
     1
102
RTVSPropertyOp60
 70
     1
102
RTVSPropertyOp61
 70
     1
102
RTVSPropertyOp62
 70
     1
  0
XRECORD
  5
4A2
102
{ACAD_REACTORS
330
4A1
102
}
330
4A1
100
AcDbXrecord
280
     1
102
RTVSPost2010Prop28
280
     0
102
RTVSPost2010PropOp28
 70
     1
102
RTVSPost2010Prop29
280
     1
102
RTVSPost2010PropOp29
 70
     1
102
RTVSPost2010Prop30
280
     1
102
RTVSPost2010PropOp30
 70
     1
102
RTVSPost2010Prop31
280
     0
102
RTVSPost2010PropOp31
 70
     1
102
RTVSPost2010Prop32
280
     0
102
RTVSPost2010PropOp32
 70
     1
102
RTVSPost2010Prop33
280
     0
102
RTVSPost2010PropOp33
 70
     1
102
RTVSPost2010Prop34
280
     0
102
RTVSPost2010PropOp34
 70
     1
102
RTVSPost2010Prop35
280
     0
102
RTVSPost2010PropOp35
 70
     1
102
RTVSPost2010Prop36
280
     0
102
RTVSPost2010PropOp36
 70
     1
102
RTVSPost2010Prop37
 90
       50
102
RTVSPost2010PropOp37
 70
     1
102
RTVSPost2010Prop38
140
0.0
102
RTVSPost2010PropOp38
 70
     1
102
RTVSPost2010Prop39
140
1.0
102
RTVSPost2010PropOp39
 70
     1
102
RTVSPost2010Prop40
 90
        0
102
RTVSPost2010PropOp40
 70
     1
102
RTVSPost2010Prop41ColorIndex
 90
       18
102
RTVSPost2010Prop41ColorRGB
 90
        0
102
RTVSPost2010PropOp41
 70
     1
102
RTVSPost2010Prop42
 90
       50
102
RTVSPost2010PropOp42
 70
     1
102
RTVSPost2010Prop43
 90
        3
102
RTVSPost2010PropOp43
 70
     1
102
RTVSPost2010Prop44ColorIndex
 90
        5
102
RTVSPost2010Prop44ColorRGB
 90
      255
102
RTVSPost2010PropOp44
 70
     1
102
RTVSPost2010Prop45
280
     0
102
RTVSPost2010PropOp45
 70
     1
102
RTVSPost2010Prop46
 90
       50
102
RTVSPost2010PropOp46
 70
     1
102
RTVSPost2010Prop47
 90
       50
102
RTVSPost2010PropOp47
 70
     1
102
RTVSPost2010Prop48
 90
       50
102
RTVSPost2010PropOp48
 70
     1
102
RTVSPost2010Prop49
280
     0
102
RTVSPost2010PropOp49
 70
     1
102
RTVSPost2010Prop50
 90
       50
102
RTVSPost2010PropOp50
 70
     1
102
RTVSPost2010Prop51ColorIndex
 90
      256
102
RTVSPost2010Prop51ColorRGB
 90
-16777216
102
RTVSPost2010PropOp51
 70
     0
102
RTVSPost2010Prop52
140
1.0
102
RTVSPost2010PropOp52
 70
     0
102
RTVSPost2010Prop53
 90
        2
102
RTVSPost2010PropOp53
 70
     1
102
RTVSPost2010Prop54
  1
strokes_ogs.tif
102
RTVSPost2010PropOp54
 70
     1
102
RTVSPost2010Prop55
280
     0
102
RTVSPost2010PropOp55
 70
     1
102
RTVSPost2010Prop56
140
1.0
102
RTVSPost2010PropOp56
 70
     1
102
RTVSPost2010Prop57
140
1.0
102
RTVSPost2010PropOp57
 70
     1
102
RTVSPropertyOp0
 70
     1
102
RTVSPropertyOp1
 70
     1
102
RTVSPropertyOp2
 70
     1
102
RTVSPropertyOp3
 70
     1
102
RTVSPropertyOp4
 70
     1
102
RTVSPropertyOp5
 70
     1
102
RTVSPropertyOp6
 70
     1
102
RTVSPropertyOp7
 70
     1
102
RTVSPropertyOp8
 70
     1
102
RTVSPropertyOp9
 70
     1
102
RTVSPropertyOp10
 70
     1
102
RTVSPropertyOp11
 70
     1
102
RTVSPropertyOp12
 70
     1
102
RTVSPropertyOp13
 70
     1
102
RTVSPropertyOp14
 70
     1
102
RTVSPropertyOp15
 70
     1
102
RTVSPropertyOp16
 70
     1
102
RTVSPropertyOp17
 70
     1
102
RTVSPropertyOp18
 70
     1
102
RTVSPropertyOp19
 70
     1
102
RTVSPropertyOp20
 70
     1
102
RTVSPropertyOp21
 70
     1
102
RTVSPropertyOp22
 70
     1
102
RTVSPropertyOp23
 70
     1
102
RTVSPropertyOp24
 70
     1
102
RTVSPropertyOp25
 70
     1
102
RTVSPropertyOp26
 70
     1
102
RTVSPropertyOp27
 70
     1
102
RTVSPropertyOp28
 70
     1
102
RTVSPropertyOp29
 70
     1
102
RTVSPropertyOp30
 70
     1
102
RTVSPropertyOp31
 70
     1
102
RTVSPropertyOp32
 70
     1
102
RTVSPropertyOp33
 70
     1
102
RTVSPropertyOp34
 70
     1
102
RTVSPropertyOp35
 70
     1
102
RTVSPropertyOp36
 70
     1
102
RTVSPropertyOp37
 70
     1
102
RTVSPropertyOp38
 70
     1
102
RTVSPropertyOp39
 70
     1
102
RTVSPropertyOp40
 70
     1
102
RTVSPropertyOp41
 70
     1
102
RTVSPropertyOp42
 70
     1
102
RTVSPropertyOp43
 70
     1
102
RTVSPropertyOp44
 70
     1
102
RTVSPropertyOp45
 70
     1
102
RTVSPropertyOp46
 70
     1
102
RTVSPropertyOp47
 70
     1
102
RTVSPropertyOp48
 70
     1
102
RTVSPropertyOp49
 70
     1
102
RTVSPropertyOp50
 70
     1
102
RTVSPropertyOp51
 70
     0
102
RTVSPropertyOp52
 70
     0
102
RTVSPropertyOp53
 70
     1
102
RTVSPropertyOp54
 70
     1
102
RTVSPropertyOp55
 70
     1
102
RTVSPropertyOp56
 70
     1
102
RTVSPropertyOp57
 70
     1
102
RTVSPropertyOp58
 70
     1
102
RTVSPropertyOp59
 70
     1
102
RTVSPropertyOp60
 70
     1
102
RTVSPropertyOp61
 70
     1
102
RTVSPropertyOp62
 70
     1
  0
XRECORD
  5
49C
102
{ACAD_REACTORS
330
49B
102
}
330
49B
100
AcDbXrecord
280
     1
102
RTVSPost2010Prop28
280
     0
102
RTVSPost2010PropOp28
 70
     1
102
RTVSPost2010Prop29
280
     1
102
RTVSPost2010PropOp29
 70
     1
102
RTVSPost2010Prop30
280
     1
102
RTVSPost2010PropOp30
 70
     1
102
RTVSPost2010Prop31
280
     0
102
RTVSPost2010PropOp31
 70
     1
102
RTVSPost2010Prop32
280
     0
102
RTVSPost2010PropOp32
 70
     1
102
RTVSPost2010Prop33
280
     0
102
RTVSPost2010PropOp33
 70
     1
102
RTVSPost2010Prop34
280
     0
102
RTVSPost2010PropOp34
 70
     1
102
RTVSPost2010Prop35
280
     0
102
RTVSPost2010PropOp35
 70
     1
102
RTVSPost2010Prop36
280
     0
102
RTVSPost2010PropOp36
 70
     1
102
RTVSPost2010Prop37
 90
       50
102
RTVSPost2010PropOp37
 70
     1
102
RTVSPost2010Prop38
140
0.0
102
RTVSPost2010PropOp38
 70
     1
102
RTVSPost2010Prop39
140
1.0
102
RTVSPost2010PropOp39
 70
     1
102
RTVSPost2010Prop40
 90
        0
102
RTVSPost2010PropOp40
 70
     1
102
RTVSPost2010Prop41ColorIndex
 90
       18
102
RTVSPost2010Prop41ColorRGB
 90
        0
102
RTVSPost2010PropOp41
 70
     1
102
RTVSPost2010Prop42
 90
       50
102
RTVSPost2010PropOp42
 70
     1
102
RTVSPost2010Prop43
 90
        3
102
RTVSPost2010PropOp43
 70
     1
102
RTVSPost2010Prop44ColorIndex
 90
        5
102
RTVSPost2010Prop44ColorRGB
 90
      255
102
RTVSPost2010PropOp44
 70
     1
102
RTVSPost2010Prop45
280
     0
102
RTVSPost2010PropOp45
 70
     1
102
RTVSPost2010Prop46
 90
       50
102
RTVSPost2010PropOp46
 70
     1
102
RTVSPost2010Prop47
 90
       50
102
RTVSPost2010PropOp47
 70
     1
102
RTVSPost2010Prop48
 90
       50
102
RTVSPost2010PropOp48
 70
     1
102
RTVSPost2010Prop49
280
     0
102
RTVSPost2010PropOp49
 70
     1
102
RTVSPost2010Prop50
 90
       50
102
RTVSPost2010PropOp50
 70
     1
102
RTVSPost2010Prop51ColorIndex
 90
      256
102
RTVSPost2010Prop51ColorRGB
 90
-16777216
102
RTVSPost2010PropOp51
 70
     0
102
RTVSPost2010Prop52
140
1.0
102
RTVSPost2010PropOp52
 70
     0
102
RTVSPost2010Prop53
 90
        2
102
RTVSPost2010PropOp53
 70
     1
102
RTVSPost2010Prop54
  1
strokes_ogs.tif
102
RTVSPost2010PropOp54
 70
     1
102
RTVSPost2010Prop55
280
     0
102
RTVSPost2010PropOp55
 70
     1
102
RTVSPost2010Prop56
140
1.0
102
RTVSPost2010PropOp56
 70
     1
102
RTVSPost2010Prop57
140
1.0
102
RTVSPost2010PropOp57
 70
     1
102
RTVSPropertyOp0
 70
     1
102
RTVSPropertyOp1
 70
     1
102
RTVSPropertyOp2
 70
     1
102
RTVSPropertyOp3
 70
     1
102
RTVSPropertyOp4
 70
     1
102
RTVSPropertyOp5
 70
     1
102
RTVSPropertyOp6
 70
     1
102
RTVSPropertyOp7
 70
     1
102
RTVSPropertyOp8
 70
     1
102
RTVSPropertyOp9
 70
     1
102
RTVSPropertyOp10
 70
     1
102
RTVSPropertyOp11
 70
     1
102
RTVSPropertyOp12
 70
     1
102
RTVSPropertyOp13
 70
     1
102
RTVSPropertyOp14
 70
     1
102
RTVSPropertyOp15
 70
     1
102
RTVSPropertyOp16
 70
     1
102
RTVSPropertyOp17
 70
     1
102
RTVSPropertyOp18
 70
     1
102
RTVSPropertyOp19
 70
     1
102
RTVSPropertyOp20
 70
     1
102
RTVSPropertyOp21
 70
     1
102
RTVSPropertyOp22
 70
     1
102
RTVSPropertyOp23
 70
     1
102
RTVSPropertyOp24
 70
     1
102
RTVSPropertyOp25
 70
     1
102
RTVSPropertyOp26
 70
     1
102
RTVSPropertyOp27
 70
     1
102
RTVSPropertyOp28
 70
     1
102
RTVSPropertyOp29
 70
     1
102
RTVSPropertyOp30
 70
     1
102
RTVSPropertyOp31
 70
     1
102
RTVSPropertyOp32
 70
     1
102
RTVSPropertyOp33
 70
     1
102
RTVSPropertyOp34
 70
     1
102
RTVSPropertyOp35
 70
     1
102
RTVSPropertyOp36
 70
     1
102
RTVSPropertyOp37
 70
     1
102
RTVSPropertyOp38
 70
     1
102
RTVSPropertyOp39
 70
     1
102
RTVSPropertyOp40
 70
     1
102
RTVSPropertyOp41
 70
     1
102
RTVSPropertyOp42
 70
     1
102
RTVSPropertyOp43
 70
     1
102
RTVSPropertyOp44
 70
     1
102
RTVSPropertyOp45
 70
     1
102
RTVSPropertyOp46
 70
     1
102
RTVSPropertyOp47
 70
     1
102
RTVSPropertyOp48
 70
     1
102
RTVSPropertyOp49
 70
     1
102
RTVSPropertyOp50
 70
     1
102
RTVSPropertyOp51
 70
     0
102
RTVSPropertyOp52
 70
     0
102
RTVSPropertyOp53
 70
     1
102
RTVSPropertyOp54
 70
     1
102
RTVSPropertyOp55
 70
     1
102
RTVSPropertyOp56
 70
     1
102
RTVSPropertyOp57
 70
     1
102
RTVSPropertyOp58
 70
     1
102
RTVSPropertyOp59
 70
     1
102
RTVSPropertyOp60
 70
     1
102
RTVSPropertyOp61
 70
     1
102
RTVSPropertyOp62
 70
     1
  0
XRECORD
  5
49E
102
{ACAD_REACTORS
330
49D
102
}
330
49D
100
AcDbXrecord
280
     1
102
RTVSPost2010Prop28
280
     0
102
RTVSPost2010PropOp28
 70
     1
102
RTVSPost2010Prop29
280
     1
102
RTVSPost2010PropOp29
 70
     1
102
RTVSPost2010Prop30
280
     1
102
RTVSPost2010PropOp30
 70
     1
102
RTVSPost2010Prop31
280
     0
102
RTVSPost2010PropOp31
 70
     1
102
RTVSPost2010Prop32
280
     0
102
RTVSPost2010PropOp32
 70
     1
102
RTVSPost2010Prop33
280
     0
102
RTVSPost2010PropOp33
 70
     1
102
RTVSPost2010Prop34
280
     0
102
RTVSPost2010PropOp34
 70
     1
102
RTVSPost2010Prop35
280
     0
102
RTVSPost2010PropOp35
 70
     1
102
RTVSPost2010Prop36
280
     0
102
RTVSPost2010PropOp36
 70
     1
102
RTVSPost2010Prop37
 90
       50
102
RTVSPost2010PropOp37
 70
     1
102
RTVSPost2010Prop38
140
0.0
102
RTVSPost2010PropOp38
 70
     1
102
RTVSPost2010Prop39
140
1.0
102
RTVSPost2010PropOp39
 70
     1
102
RTVSPost2010Prop40
 90
        0
102
RTVSPost2010PropOp40
 70
     1
102
RTVSPost2010Prop41ColorIndex
 90
       18
102
RTVSPost2010Prop41ColorRGB
 90
        0
102
RTVSPost2010PropOp41
 70
     1
102
RTVSPost2010Prop42
 90
       50
102
RTVSPost2010PropOp42
 70
     1
102
RTVSPost2010Prop43
 90
        3
102
RTVSPost2010PropOp43
 70
     1
102
RTVSPost2010Prop44ColorIndex
 90
        5
102
RTVSPost2010Prop44ColorRGB
 90
      255
102
RTVSPost2010PropOp44
 70
     1
102
RTVSPost2010Prop45
280
     0
102
RTVSPost2010PropOp45
 70
     1
102
RTVSPost2010Prop46
 90
       50
102
RTVSPost2010PropOp46
 70
     1
102
RTVSPost2010Prop47
 90
       50
102
RTVSPost2010PropOp47
 70
     1
102
RTVSPost2010Prop48
 90
       50
102
RTVSPost2010PropOp48
 70
     1
102
RTVSPost2010Prop49
280
     0
102
RTVSPost2010PropOp49
 70
     1
102
RTVSPost2010Prop50
 90
       50
102
RTVSPost2010PropOp50
 70
     1
102
RTVSPost2010Prop51ColorIndex
 90
      256
102
RTVSPost2010Prop51ColorRGB
 90
-16777216
102
RTVSPost2010PropOp51
 70
     0
102
RTVSPost2010Prop52
140
1.0
102
RTVSPost2010PropOp52
 70
     0
102
RTVSPost2010Prop53
 90
        2
102
RTVSPost2010PropOp53
 70
     1
102
RTVSPost2010Prop54
  1
strokes_ogs.tif
102
RTVSPost2010PropOp54
 70
     1
102
RTVSPost2010Prop55
280
     0
102
RTVSPost2010PropOp55
 70
     1
102
RTVSPost2010Prop56
140
1.0
102
RTVSPost2010PropOp56
 70
     1
102
RTVSPost2010Prop57
140
1.0
102
RTVSPost2010PropOp57
 70
     1
102
RTVSPropertyOp0
 70
     1
102
RTVSPropertyOp1
 70
     1
102
RTVSPropertyOp2
 70
     1
102
RTVSPropertyOp3
 70
     1
102
RTVSPropertyOp4
 70
     1
102
RTVSPropertyOp5
 70
     1
102
RTVSPropertyOp6
 70
     1
102
RTVSPropertyOp7
 70
     1
102
RTVSPropertyOp8
 70
     1
102
RTVSPropertyOp9
 70
     1
102
RTVSPropertyOp10
 70
     1
102
RTVSPropertyOp11
 70
     1
102
RTVSPropertyOp12
 70
     1
102
RTVSPropertyOp13
 70
     1
102
RTVSPropertyOp14
 70
     1
102
RTVSPropertyOp15
 70
     1
102
RTVSPropertyOp16
 70
     1
102
RTVSPropertyOp17
 70
     1
102
RTVSPropertyOp18
 70
     1
102
RTVSPropertyOp19
 70
     1
102
RTVSPropertyOp20
 70
     1
102
RTVSPropertyOp21
 70
     1
102
RTVSPropertyOp22
 70
     1
102
RTVSPropertyOp23
 70
     1
102
RTVSPropertyOp24
 70
     1
102
RTVSPropertyOp25
 70
     1
102
RTVSPropertyOp26
 70
     1
102
RTVSPropertyOp27
 70
     1
102
RTVSPropertyOp28
 70
     1
102
RTVSPropertyOp29
 70
     1
102
RTVSPropertyOp30
 70
     1
102
RTVSPropertyOp31
 70
     1
102
RTVSPropertyOp32
 70
     1
102
RTVSPropertyOp33
 70
     1
102
RTVSPropertyOp34
 70
     1
102
RTVSPropertyOp35
 70
     1
102
RTVSPropertyOp36
 70
     1
102
RTVSPropertyOp37
 70
     1
102
RTVSPropertyOp38
 70
     1
102
RTVSPropertyOp39
 70
     1
102
RTVSPropertyOp40
 70
     1
102
RTVSPropertyOp41
 70
     1
102
RTVSPropertyOp42
 70
     1
102
RTVSPropertyOp43
 70
     1
102
RTVSPropertyOp44
 70
     1
102
RTVSPropertyOp45
 70
     1
102
RTVSPropertyOp46
 70
     1
102
RTVSPropertyOp47
 70
     1
102
RTVSPropertyOp48
 70
     1
102
RTVSPropertyOp49
 70
     1
102
RTVSPropertyOp50
 70
     1
102
RTVSPropertyOp51
 70
     0
102
RTVSPropertyOp52
 70
     0
102
RTVSPropertyOp53
 70
     1
102
RTVSPropertyOp54
 70
     1
102
RTVSPropertyOp55
 70
     1
102
RTVSPropertyOp56
 70
     1
102
RTVSPropertyOp57
 70
     1
102
RTVSPropertyOp58
 70
     1
102
RTVSPropertyOp59
 70
     1
102
RTVSPropertyOp60
 70
     1
102
RTVSPropertyOp61
 70
     1
102
RTVSPropertyOp62
 70
     1
  0
XRECORD
  5
494
102
{ACAD_REACTORS
330
493
102
}
330
493
100
AcDbXrecord
280
     1
102
RTVSPost2010Prop28
280
     0
102
RTVSPost2010PropOp28
 70
     1
102
RTVSPost2010Prop29
280
     1
102
RTVSPost2010PropOp29
 70
     1
102
RTVSPost2010Prop30
280
     1
102
RTVSPost2010PropOp30
 70
     1
102
RTVSPost2010Prop31
280
     0
102
RTVSPost2010PropOp31
 70
     1
102
RTVSPost2010Prop32
280
     0
102
RTVSPost2010PropOp32
 70
     1
102
RTVSPost2010Prop33
280
     0
102
RTVSPost2010PropOp33
 70
     1
102
RTVSPost2010Prop34
280
     0
102
RTVSPost2010PropOp34
 70
     1
102
RTVSPost2010Prop35
280
     0
102
RTVSPost2010PropOp35
 70
     1
102
RTVSPost2010Prop36
280
     0
102
RTVSPost2010PropOp36
 70
     1
102
RTVSPost2010Prop37
 90
       50
102
RTVSPost2010PropOp37
 70
     1
102
RTVSPost2010Prop38
140
0.0
102
RTVSPost2010PropOp38
 70
     1
102
RTVSPost2010Prop39
140
1.0
102
RTVSPost2010PropOp39
 70
     1
102
RTVSPost2010Prop40
 90
        0
102
RTVSPost2010PropOp40
 70
     1
102
RTVSPost2010Prop41ColorIndex
 90
       18
102
RTVSPost2010Prop41ColorRGB
 90
        0
102
RTVSPost2010PropOp41
 70
     1
102
RTVSPost2010Prop42
 90
       50
102
RTVSPost2010PropOp42
 70
     1
102
RTVSPost2010Prop43
 90
        3
102
RTVSPost2010PropOp43
 70
     1
102
RTVSPost2010Prop44ColorIndex
 90
        5
102
RTVSPost2010Prop44ColorRGB
 90
      255
102
RTVSPost2010PropOp44
 70
     1
102
RTVSPost2010Prop45
280
     0
102
RTVSPost2010PropOp45
 70
     1
102
RTVSPost2010Prop46
 90
       50
102
RTVSPost2010PropOp46
 70
     1
102
RTVSPost2010Prop47
 90
       50
102
RTVSPost2010PropOp47
 70
     1
102
RTVSPost2010Prop48
 90
       50
102
RTVSPost2010PropOp48
 70
     1
102
RTVSPost2010Prop49
280
     0
102
RTVSPost2010PropOp49
 70
     1
102
RTVSPost2010Prop50
 90
       50
102
RTVSPost2010PropOp50
 70
     1
102
RTVSPost2010Prop51ColorIndex
 90
      256
102
RTVSPost2010Prop51ColorRGB
 90
-16777216
102
RTVSPost2010PropOp51
 70
     0
102
RTVSPost2010Prop52
140
1.0
102
RTVSPost2010PropOp52
 70
     0
102
RTVSPost2010Prop53
 90
        2
102
RTVSPost2010PropOp53
 70
     1
102
RTVSPost2010Prop54
  1
strokes_ogs.tif
102
RTVSPost2010PropOp54
 70
     1
102
RTVSPost2010Prop55
280
     0
102
RTVSPost2010PropOp55
 70
     1
102
RTVSPost2010Prop56
140
1.0
102
RTVSPost2010PropOp56
 70
     1
102
RTVSPost2010Prop57
140
1.0
102
RTVSPost2010PropOp57
 70
     1
102
RTVSPropertyOp0
 70
     1
102
RTVSPropertyOp1
 70
     1
102
RTVSPropertyOp2
 70
     1
102
RTVSPropertyOp3
 70
     1
102
RTVSPropertyOp4
 70
     1
102
RTVSPropertyOp5
 70
     1
102
RTVSPropertyOp6
 70
     1
102
RTVSPropertyOp7
 70
     1
102
RTVSPropertyOp8
 70
     1
102
RTVSPropertyOp9
 70
     1
102
RTVSPropertyOp10
 70
     1
102
RTVSPropertyOp11
 70
     1
102
RTVSPropertyOp12
 70
     1
102
RTVSPropertyOp13
 70
     1
102
RTVSPropertyOp14
 70
     1
102
RTVSPropertyOp15
 70
     1
102
RTVSPropertyOp16
 70
     1
102
RTVSPropertyOp17
 70
     1
102
RTVSPropertyOp18
 70
     1
102
RTVSPropertyOp19
 70
     1
102
RTVSPropertyOp20
 70
     1
102
RTVSPropertyOp21
 70
     1
102
RTVSPropertyOp22
 70
     1
102
RTVSPropertyOp23
 70
     1
102
RTVSPropertyOp24
 70
     1
102
RTVSPropertyOp25
 70
     1
102
RTVSPropertyOp26
 70
     1
102
RTVSPropertyOp27
 70
     1
102
RTVSPropertyOp28
 70
     1
102
RTVSPropertyOp29
 70
     1
102
RTVSPropertyOp30
 70
     1
102
RTVSPropertyOp31
 70
     1
102
RTVSPropertyOp32
 70
     1
102
RTVSPropertyOp33
 70
     1
102
RTVSPropertyOp34
 70
     1
102
RTVSPropertyOp35
 70
     1
102
RTVSPropertyOp36
 70
     1
102
RTVSPropertyOp37
 70
     1
102
RTVSPropertyOp38
 70
     1
102
RTVSPropertyOp39
 70
     1
102
RTVSPropertyOp40
 70
     1
102
RTVSPropertyOp41
 70
     1
102
RTVSPropertyOp42
 70
     1
102
RTVSPropertyOp43
 70
     1
102
RTVSPropertyOp44
 70
     1
102
RTVSPropertyOp45
 70
     1
102
RTVSPropertyOp46
 70
     1
102
RTVSPropertyOp47
 70
     1
102
RTVSPropertyOp48
 70
     1
102
RTVSPropertyOp49
 70
     1
102
RTVSPropertyOp50
 70
     1
102
RTVSPropertyOp51
 70
     0
102
RTVSPropertyOp52
 70
     0
102
RTVSPropertyOp53
 70
     1
102
RTVSPropertyOp54
 70
     1
102
RTVSPropertyOp55
 70
     1
102
RTVSPropertyOp56
 70
     1
102
RTVSPropertyOp57
 70
     1
102
RTVSPropertyOp58
 70
     1
102
RTVSPropertyOp59
 70
     1
102
RTVSPropertyOp60
 70
     1
102
RTVSPropertyOp61
 70
     1
102
RTVSPropertyOp62
 70
     1
  0
XRECORD
  5
488
102
{ACAD_REACTORS
330
487
102
}
330
487
100
AcDbXrecord
280
     1
102
RTVSPost2010Prop28
280
     0
102
RTVSPost2010PropOp28
 70
     1
102
RTVSPost2010Prop29
280
     1
102
RTVSPost2010PropOp29
 70
     1
102
RTVSPost2010Prop30
280
     1
102
RTVSPost2010PropOp30
 70
     1
102
RTVSPost2010Prop31
280
     0
102
RTVSPost2010PropOp31
 70
     1
102
RTVSPost2010Prop32
280
     0
102
RTVSPost2010PropOp32
 70
     1
102
RTVSPost2010Prop33
280
     0
102
RTVSPost2010PropOp33
 70
     1
102
RTVSPost2010Prop34
280
     0
102
RTVSPost2010PropOp34
 70
     1
102
RTVSPost2010Prop35
280
     0
102
RTVSPost2010PropOp35
 70
     1
102
RTVSPost2010Prop36
280
     0
102
RTVSPost2010PropOp36
 70
     1
102
RTVSPost2010Prop37
 90
       50
102
RTVSPost2010PropOp37
 70
     1
102
RTVSPost2010Prop38
140
0.0
102
RTVSPost2010PropOp38
 70
     1
102
RTVSPost2010Prop39
140
1.0
102
RTVSPost2010PropOp39
 70
     1
102
RTVSPost2010Prop40
 90
        0
102
RTVSPost2010PropOp40
 70
     1
102
RTVSPost2010Prop41ColorIndex
 90
       18
102
RTVSPost2010Prop41ColorRGB
 90
        0
102
RTVSPost2010PropOp41
 70
     1
102
RTVSPost2010Prop42
 90
       50
102
RTVSPost2010PropOp42
 70
     1
102
RTVSPost2010Prop43
 90
        3
102
RTVSPost2010PropOp43
 70
     1
102
RTVSPost2010Prop44ColorIndex
 90
        5
102
RTVSPost2010Prop44ColorRGB
 90
      255
102
RTVSPost2010PropOp44
 70
     1
102
RTVSPost2010Prop45
280
     0
102
RTVSPost2010PropOp45
 70
     1
102
RTVSPost2010Prop46
 90
       50
102
RTVSPost2010PropOp46
 70
     1
102
RTVSPost2010Prop47
 90
       50
102
RTVSPost2010PropOp47
 70
     1
102
RTVSPost2010Prop48
 90
       50
102
RTVSPost2010PropOp48
 70
     1
102
RTVSPost2010Prop49
280
     0
102
RTVSPost2010PropOp49
 70
     1
102
RTVSPost2010Prop50
 90
       50
102
RTVSPost2010PropOp50
 70
     1
102
RTVSPost2010Prop51ColorIndex
 90
      256
102
RTVSPost2010Prop51ColorRGB
 90
-16777216
102
RTVSPost2010PropOp51
 70
     0
102
RTVSPost2010Prop52
140
1.0
102
RTVSPost2010PropOp52
 70
     0
102
RTVSPost2010Prop53
 90
        2
102
RTVSPost2010PropOp53
 70
     1
102
RTVSPost2010Prop54
  1
strokes_ogs.tif
102
RTVSPost2010PropOp54
 70
     1
102
RTVSPost2010Prop55
280
     0
102
RTVSPost2010PropOp55
 70
     1
102
RTVSPost2010Prop56
140
1.0
102
RTVSPost2010PropOp56
 70
     1
102
RTVSPost2010Prop57
140
1.0
102
RTVSPost2010PropOp57
 70
     1
102
RTVSPropertyOp0
 70
     1
102
RTVSPropertyOp1
 70
     1
102
RTVSPropertyOp2
 70
     1
102
RTVSPropertyOp3
 70
     1
102
RTVSPropertyOp4
 70
     1
102
RTVSPropertyOp5
 70
     1
102
RTVSPropertyOp6
 70
     1
102
RTVSPropertyOp7
 70
     1
102
RTVSPropertyOp8
 70
     1
102
RTVSPropertyOp9
 70
     1
102
RTVSPropertyOp10
 70
     1
102
RTVSPropertyOp11
 70
     1
102
RTVSPropertyOp12
 70
     1
102
RTVSPropertyOp13
 70
     1
102
RTVSPropertyOp14
 70
     1
102
RTVSPropertyOp15
 70
     1
102
RTVSPropertyOp16
 70
     1
102
RTVSPropertyOp17
 70
     1
102
RTVSPropertyOp18
 70
     1
102
RTVSPropertyOp19
 70
     1
102
RTVSPropertyOp20
 70
     1
102
RTVSPropertyOp21
 70
     1
102
RTVSPropertyOp22
 70
     1
102
RTVSPropertyOp23
 70
     1
102
RTVSPropertyOp24
 70
     1
102
RTVSPropertyOp25
 70
     1
102
RTVSPropertyOp26
 70
     1
102
RTVSPropertyOp27
 70
     1
102
RTVSPropertyOp28
 70
     1
102
RTVSPropertyOp29
 70
     1
102
RTVSPropertyOp30
 70
     1
102
RTVSPropertyOp31
 70
     1
102
RTVSPropertyOp32
 70
     1
102
RTVSPropertyOp33
 70
     1
102
RTVSPropertyOp34
 70
     1
102
RTVSPropertyOp35
 70
     1
102
RTVSPropertyOp36
 70
     1
102
RTVSPropertyOp37
 70
     1
102
RTVSPropertyOp38
 70
     1
102
RTVSPropertyOp39
 70
     1
102
RTVSPropertyOp40
 70
     1
102
RTVSPropertyOp41
 70
     1
102
RTVSPropertyOp42
 70
     1
102
RTVSPropertyOp43
 70
     1
102
RTVSPropertyOp44
 70
     1
102
RTVSPropertyOp45
 70
     1
102
RTVSPropertyOp46
 70
     1
102
RTVSPropertyOp47
 70
     1
102
RTVSPropertyOp48
 70
     1
102
RTVSPropertyOp49
 70
     1
102
RTVSPropertyOp50
 70
     1
102
RTVSPropertyOp51
 70
     0
102
RTVSPropertyOp52
 70
     0
102
RTVSPropertyOp53
 70
     1
102
RTVSPropertyOp54
 70
     1
102
RTVSPropertyOp55
 70
     1
102
RTVSPropertyOp56
 70
     1
102
RTVSPropertyOp57
 70
     1
102
RTVSPropertyOp58
 70
     1
102
RTVSPropertyOp59
 70
     1
102
RTVSPropertyOp60
 70
     1
102
RTVSPropertyOp61
 70
     1
102
RTVSPropertyOp62
 70
     1
  0
XRECORD
  5
4A0
102
{ACAD_REACTORS
330
49F
102
}
330
49F
100
AcDbXrecord
280
     1
102
RTVSPost2010Prop28
280
     0
102
RTVSPost2010PropOp28
 70
     1
102
RTVSPost2010Prop29
280
     1
102
RTVSPost2010PropOp29
 70
     1
102
RTVSPost2010Prop30
280
     1
102
RTVSPost2010PropOp30
 70
     1
102
RTVSPost2010Prop31
280
     0
102
RTVSPost2010PropOp31
 70
     1
102
RTVSPost2010Prop32
280
     0
102
RTVSPost2010PropOp32
 70
     1
102
RTVSPost2010Prop33
280
     0
102
RTVSPost2010PropOp33
 70
     1
102
RTVSPost2010Prop34
280
     0
102
RTVSPost2010PropOp34
 70
     1
102
RTVSPost2010Prop35
280
     0
102
RTVSPost2010PropOp35
 70
     1
102
RTVSPost2010Prop36
280
     0
102
RTVSPost2010PropOp36
 70
     1
102
RTVSPost2010Prop37
 90
       50
102
RTVSPost2010PropOp37
 70
     1
102
RTVSPost2010Prop38
140
0.0
102
RTVSPost2010PropOp38
 70
     1
102
RTVSPost2010Prop39
140
1.0
102
RTVSPost2010PropOp39
 70
     1
102
RTVSPost2010Prop40
 90
        0
102
RTVSPost2010PropOp40
 70
     1
102
RTVSPost2010Prop41ColorIndex
 90
       18
102
RTVSPost2010Prop41ColorRGB
 90
        0
102
RTVSPost2010PropOp41
 70
     1
102
RTVSPost2010Prop42
 90
       50
102
RTVSPost2010PropOp42
 70
     1
102
RTVSPost2010Prop43
 90
        3
102
RTVSPost2010PropOp43
 70
     1
102
RTVSPost2010Prop44ColorIndex
 90
        5
102
RTVSPost2010Prop44ColorRGB
 90
      255
102
RTVSPost2010PropOp44
 70
     1
102
RTVSPost2010Prop45
280
     0
102
RTVSPost2010PropOp45
 70
     1
102
RTVSPost2010Prop46
 90
       50
102
RTVSPost2010PropOp46
 70
     1
102
RTVSPost2010Prop47
 90
       50
102
RTVSPost2010PropOp47
 70
     1
102
RTVSPost2010Prop48
 90
       50
102
RTVSPost2010PropOp48
 70
     1
102
RTVSPost2010Prop49
280
     0
102
RTVSPost2010PropOp49
 70
     1
102
RTVSPost2010Prop50
 90
       50
102
RTVSPost2010PropOp50
 70
     1
102
RTVSPost2010Prop51ColorIndex
 90
      256
102
RTVSPost2010Prop51ColorRGB
 90
-16777216
102
RTVSPost2010PropOp51
 70
     0
102
RTVSPost2010Prop52
140
1.0
102
RTVSPost2010PropOp52
 70
     0
102
RTVSPost2010Prop53
 90
        2
102
RTVSPost2010PropOp53
 70
     1
102
RTVSPost2010Prop54
  1
strokes_ogs.tif
102
RTVSPost2010PropOp54
 70
     1
102
RTVSPost2010Prop55
280
     0
102
RTVSPost2010PropOp55
 70
     1
102
RTVSPost2010Prop56
140
1.0
102
RTVSPost2010PropOp56
 70
     1
102
RTVSPost2010Prop57
140
1.0
102
RTVSPost2010PropOp57
 70
     1
102
RTVSPropertyOp0
 70
     1
102
RTVSPropertyOp1
 70
     1
102
RTVSPropertyOp2
 70
     1
102
RTVSPropertyOp3
 70
     1
102
RTVSPropertyOp4
 70
     1
102
RTVSPropertyOp5
 70
     1
102
RTVSPropertyOp6
 70
     1
102
RTVSPropertyOp7
 70
     1
102
RTVSPropertyOp8
 70
     1
102
RTVSPropertyOp9
 70
     1
102
RTVSPropertyOp10
 70
     1
102
RTVSPropertyOp11
 70
     1
102
RTVSPropertyOp12
 70
     1
102
RTVSPropertyOp13
 70
     1
102
RTVSPropertyOp14
 70
     1
102
RTVSPropertyOp15
 70
     1
102
RTVSPropertyOp16
 70
     1
102
RTVSPropertyOp17
 70
     1
102
RTVSPropertyOp18
 70
     1
102
RTVSPropertyOp19
 70
     1
102
RTVSPropertyOp20
 70
     1
102
RTVSPropertyOp21
 70
     1
102
RTVSPropertyOp22
 70
     1
102
RTVSPropertyOp23
 70
     1
102
RTVSPropertyOp24
 70
     1
102
RTVSPropertyOp25
 70
     1
102
RTVSPropertyOp26
 70
     1
102
RTVSPropertyOp27
 70
     1
102
RTVSPropertyOp28
 70
     1
102
RTVSPropertyOp29
 70
     1
102
RTVSPropertyOp30
 70
     1
102
RTVSPropertyOp31
 70
     1
102
RTVSPropertyOp32
 70
     1
102
RTVSPropertyOp33
 70
     1
102
RTVSPropertyOp34
 70
     1
102
RTVSPropertyOp35
 70
     1
102
RTVSPropertyOp36
 70
     1
102
RTVSPropertyOp37
 70
     1
102
RTVSPropertyOp38
 70
     1
102
RTVSPropertyOp39
 70
     1
102
RTVSPropertyOp40
 70
     1
102
RTVSPropertyOp41
 70
     1
102
RTVSPropertyOp42
 70
     1
102
RTVSPropertyOp43
 70
     1
102
RTVSPropertyOp44
 70
     1
102
RTVSPropertyOp45
 70
     1
102
RTVSPropertyOp46
 70
     1
102
RTVSPropertyOp47
 70
     1
102
RTVSPropertyOp48
 70
     1
102
RTVSPropertyOp49
 70
     1
102
RTVSPropertyOp50
 70
     1
102
RTVSPropertyOp51
 70
     0
102
RTVSPropertyOp52
 70
     0
102
RTVSPropertyOp53
 70
     1
102
RTVSPropertyOp54
 70
     1
102
RTVSPropertyOp55
 70
     1
102
RTVSPropertyOp56
 70
     1
102
RTVSPropertyOp57
 70
     1
102
RTVSPropertyOp58
 70
     1
102
RTVSPropertyOp59
 70
     1
102
RTVSPropertyOp60
 70
     1
102
RTVSPropertyOp61
 70
     1
102
RTVSPropertyOp62
 70
     1
  0
ENDSEC
  0
EOF
