0
SECTION
2
HEADER
9
$ACADVER
1
AC1015
9
$DWGCODEPAGE
3
ANSI_1252
9
$HANDSEED
5
25c
9
$ANGBASE
50
0
9
$ANGDIR
70
0
9
$ATTMODE
70
1
9
$AUNITS
70
0
9
$AUPREC
70
0
9
$CECOLOR
62
256
9
$CELTSCALE
40
1
9
$CELTYPE
6
ByLayer
9
$CELWEIGHT
370
18
9
$CLAYER
8
0
9
$CMLJUST
70
0
9
$CMLSCALE
40
1
9
$CMLSTYLE
2
Standard
9
$DIMSTYLE
2
Standard
9
$TEXTSIZE
40
0.2
9
$TEXTSTYLE
7
Standard
9
$LUNITS
70
2
9
$LUPREC
70
4
9
$EXTNAMES
290
1
9
$INSUNITS
70
4
9
$LTSCALE
40
1
9
$LWDISPLAY
290
1
9
$PDMODE
70
0
9
$PDSIZE
40
0
9
$PLINEGEN
70
0
0
ENDSEC
0
SECTION
2
CLASSES
0
CLASS
1
RASTERVARIABLES
2
AcDbRasterVariables
3
ISM
90
0
280
0
281
0
0
ENDSEC
0
SECTION
2
TABLES
0
TABLE
2
VPORT
5
252
100
AcDbSymbolTable
0
VPORT
5
1
100
AcDbSymbolTableRecord
100
AcDbViewportTableRecord
2
*Active
70
0
10
0
20
0
11
1
21
1
12
-1
22
1
13
0
23
0
14
0.5
24
0.5
15
10
25
10
16
0
26
0
36
1
17
0
27
0
37
0
0
ENDTAB
0
TABLE
2
LTYPE
5
253
100
AcDbSymbolTable
0
LTYPE
5
14
100
AcDbSymbolTableRecord
100
AcDbLinetypeTableRecord
70
0
2
ByBlock
3

72
65
73
0
40
0
0
LTYPE
5
15
100
AcDbSymbolTableRecord
100
AcDbLinetypeTableRecord
70
0
2
ByLayer
3

72
65
73
0
40
0
0
LTYPE
5
16
100
AcDbSymbolTableRecord
100
AcDbLinetypeTableRecord
70
0
2
CONTINUOUS
3
Solid line
72
65
73
0
40
0
0
LTYPE
5
6A
100
AcDbSymbolTableRecord
100
AcDbLinetypeTableRecord
70
0
2
CENTER
3
____ _ ____ _ ____ _ ____
72
65
73
4
40
47.5
49
22
74
0
49
-8.5
74
0
49
8.5
74
0
49
-8.5
74
0
0
LTYPE
5
6B
100
AcDbSymbolTableRecord
100
AcDbLinetypeTableRecord
70
0
2
DASHED
3
__ __ __ __ __ __ __ __ __
72
65
73
2
40
25.72
49
12.86
74
0
49
-12.86
74
0
0
ENDTAB
0
TABLE
2
LAYER
5
254
100
AcDbSymbolTable
0
LAYER
5
10
100
AcDbSymbolTableRecord
100
AcDbLayerTableRecord
2
0
70
0
62
7
6
CONTINUOUS
290
1
370
-3
390
0
0
LAYER
5
6D
100
AcDbSymbolTableRecord
100
AcDbLayerTableRecord
2
80
70
0
62
-6
6
CONTINUOUS
290
1
370
-3
390
0
0
LAYER
5
6F
100
AcDbSymbolTableRecord
100
AcDbLayerTableRecord
2
81
70
0
62
-3
6
CONTINUOUS
290
1
370
-3
390
0
0
LAYER
5
71
100
AcDbSymbolTableRecord
100
AcDbLayerTableRecord
2
1
70
0
62
4
6
CONTINUOUS
290
1
370
-3
390
0
0
LAYER
5
1D9
100
AcDbSymbolTableRecord
100
AcDbLayerTableRecord
2
2
70
0
62
7
6
CONTINUOUS
290
1
370
-3
390
0
0
LAYER
5
23f
100
AcDbSymbolTableRecord
100
AcDbLayerTableRecord
2
SK1
70
0
62
4
6
CONTINUOUS
290
1
370
-3
390
0
0
LAYER
5
240
100
AcDbSymbolTableRecord
100
AcDbLayerTableRecord
2
SK6
70
0
62
5
6
CONTINUOUS
290
1
370
-3
390
0
0
LAYER
5
241
100
AcDbSymbolTableRecord
100
AcDbLayerTableRecord
2
SK2
70
0
62
7
6
CONTINUOUS
290
1
370
-3
390
0
0
ENDTAB
0
TABLE
2
STYLE
5
255
100
AcDbSymbolTable
0
STYLE
5
11
100
AcDbSymbolTableRecord
100
AcDbTextStyleTableRecord
2
Standard
3
txt
70
0
71
0
40
0
41
1
42
0
50
0
0
STYLE
5
1B7
100
AcDbSymbolTableRecord
100
AcDbTextStyleTableRecord
2
iso_b_vert
3
simplex.shx
70
0
71
0
40
0
41
1
42
0
50
0
0
STYLE
5
1B8
100
AcDbSymbolTableRecord
100
AcDbTextStyleTableRecord
2
DWGDirectTextStyle
3
simplex
70
0
71
0
40
0
41
1
42
0
50
0
0
ENDTAB
0
TABLE
2
DIMSTYLE
5
256
100
AcDbSymbolTable
100
AcDbDimStyleTable
0
DIMSTYLE
105
27
100
AcDbSymbolTableRecord
100
AcDbDimStyleTableRecord
2
Standard
70
0
3
<>
41
0.18
42
0.0625
44
0.18
140
0.18
147
0.09
73
0
74
0
77
1
271
2
275
0
278
52
280
0
340
11
0
ENDTAB
0
TABLE
2
VIEW
5
257
100
AcDbSymbolTable
0
ENDTAB
0
TABLE
2
UCS
5
258
100
AcDbSymbolTable
0
ENDTAB
0
TABLE
2
APPID
5
259
100
AcDbSymbolTable
0
APPID
5
12
100
AcDbSymbolTableRecord
100
AcDbRegAppTableRecord
2
ACAD
70
0
0
ENDTAB
0
TABLE
2
BLOCK_RECORD
5
25a
100
AcDbSymbolTable
0
BLOCK_RECORD
5
1F
100
AcDbSymbolTableRecord
100
AcDbBlockTableRecord
2
*Model_Space
340
0
70
0
0
BLOCK_RECORD
5
1B
100
AcDbSymbolTableRecord
100
AcDbBlockTableRecord
2
*Paper_Space
340
0
70
0
0
BLOCK_RECORD
5
23
100
AcDbSymbolTableRecord
100
AcDbBlockTableRecord
2
*Paper_Space0
340
0
70
0
0
BLOCK_RECORD
5
1BA
100
AcDbSymbolTableRecord
100
AcDbBlockTableRecord
2
DimnDraft3D1
340
0
70
0
0
BLOCK_RECORD
5
1C9
100
AcDbSymbolTableRecord
100
AcDbBlockTableRecord
2
DimnDraft3D2
340
0
70
0
0
BLOCK_RECORD
5
1D7
100
AcDbSymbolTableRecord
100
AcDbBlockTableRecord
2
DimnDraft3D3
340
0
70
0
0
ENDTAB
0
ENDSEC
0
SECTION
2
BLOCKS
0
BLOCK
5
20
100
AcDbEntity
8
0
100
AcDbBlockBegin
2
*Model_Space
70
0
10
0
20
0
30
0
3
*Model_Space
0
ENDBLK
5
21
100
AcDbEntity
8
0
100
AcDbBlockEnd
0
BLOCK
5
1C
100
AcDbEntity
8
0
100
AcDbBlockBegin
2
*Paper_Space
70
0
10
0
20
0
30
0
3
*Paper_Space
0
ENDBLK
5
1D
100
AcDbEntity
8
0
100
AcDbBlockEnd
0
BLOCK
5
24
100
AcDbEntity
8
0
100
AcDbBlockBegin
2
*Paper_Space0
70
0
10
0
20
0
30
0
3
*Paper_Space0
0
ENDBLK
5
25
100
AcDbEntity
8
0
100
AcDbBlockEnd
0
BLOCK
5
1C6
100
AcDbEntity
8
0
100
AcDbBlockBegin
2
DimnDraft3D1
70
0
10
0
20
0
30
0
3
DimnDraft3D1
0
MTEXT
5
1BB
100
AcDbEntity
8
SK2
62
256
6
ByLayer
370
18
48
1
60
0
100
AcDbMText
10
-93.552061
20
-2.703382
30
0
210
0
220
0
230
1
1
\W0.6367;12.7
40
3.50012
41
0
44
1.084337
50
90
71
7
72
5
7
iso_b_vert
0
LINE
5
1BD
100
AcDbEntity
8
SK2
62
256
6
ByLayer
370
13
48
1
60
0
100
AcDbLine
10
-86.0875
20
6.35
30
0
11
-95.852031
21
6.35
31
0
39
0
210
0
220
0
230
1
0
LINE
5
1BE
100
AcDbEntity
8
SK2
62
256
6
ByLayer
370
13
48
1
60
0
100
AcDbLine
10
-86.0875
20
-6.35
30
0
11
-95.852031
21
-6.35
31
0
39
0
210
0
220
0
230
1
0
LINE
5
1BF
100
AcDbEntity
8
SK2
62
256
6
ByLayer
370
13
48
1
60
0
100
AcDbLine
10
-92.677031
20
6.35
30
0
11
-92.677031
21
-6.35
31
0
39
0
210
0
220
0
230
1
0
LINE
5
1C0
100
AcDbEntity
8
SK2
62
256
6
ByLayer
370
13
48
1
60
0
100
AcDbLine
10
-92.677031
20
6.35
30
0
11
-92.259035
21
3.175002
31
0
39
0
210
0
220
0
230
1
0
LINE
5
1C1
100
AcDbEntity
8
SK2
62
256
6
ByLayer
370
13
48
1
60
0
100
AcDbLine
10
-92.677031
20
6.35
30
0
11
-93.095028
21
3.174998
31
0
39
0
210
0
220
0
230
1
0
LINE
5
1C2
100
AcDbEntity
8
SK2
62
256
6
ByLayer
370
13
48
1
60
0
100
AcDbLine
10
-92.259035
20
3.175002
30
0
11
-93.095028
21
3.174998
31
0
39
0
210
0
220
0
230
1
0
LINE
5
1C3
100
AcDbEntity
8
SK2
62
256
6
ByLayer
370
13
48
1
60
0
100
AcDbLine
10
-92.677031
20
-6.35
30
0
11
-93.095028
21
-3.175002
31
0
39
0
210
0
220
0
230
1
0
LINE
5
1C4
100
AcDbEntity
8
SK2
62
256
6
ByLayer
370
13
48
1
60
0
100
AcDbLine
10
-92.677031
20
-6.35
30
0
11
-92.259035
21
-3.174998
31
0
39
0
210
0
220
0
230
1
0
LINE
5
1C5
100
AcDbEntity
8
SK2
62
256
6
ByLayer
370
13
48
1
60
0
100
AcDbLine
10
-93.095028
20
-3.175002
30
0
11
-92.259035
21
-3.174998
31
0
39
0
210
0
220
0
230
1
0
ENDBLK
5
1C7
100
AcDbEntity
8
0
100
AcDbBlockEnd
0
BLOCK
5
1D4
100
AcDbEntity
8
0
100
AcDbBlockBegin
2
DimnDraft3D2
70
0
10
0
20
0
30
0
3
DimnDraft3D2
0
MTEXT
5
1CA
100
AcDbEntity
8
SK2
62
256
6
ByLayer
370
18
48
1
60
0
100
AcDbMText
10
-37.422511
20
16.922961
30
0
210
0
220
0
230
1
1
\W0.6940;104.5
40
3.50012
41
0
44
1.084337
50
0
71
7
72
5
7
iso_b_vert
0
LINE
5
1CB
100
AcDbEntity
8
SK2
62
256
6
ByLayer
370
13
48
1
60
0
100
AcDbLine
10
-85.5
20
6.9375
30
0
11
-85.5
21
19.222931
31
0
39
0
210
0
220
0
230
1
0
LINE
5
1CC
100
AcDbEntity
8
SK2
62
256
6
ByLayer
370
13
48
1
60
0
100
AcDbLine
10
19
20
-7.8625
30
0
11
19
21
19.222931
31
0
39
0
210
0
220
0
230
1
0
LINE
5
1CD
100
AcDbEntity
8
SK2
62
256
6
ByLayer
370
13
48
1
60
0
100
AcDbLine
10
-85.5
20
16.047931
30
0
11
19
21
16.047931
31
0
39
0
210
0
220
0
230
1
0
LINE
5
1CE
100
AcDbEntity
8
SK2
62
256
6
ByLayer
370
13
48
1
60
0
100
AcDbLine
10
-85.5
20
16.047931
30
0
11
-82.325002
21
16.465928
31
0
39
0
210
0
220
0
230
1
0
LINE
5
1CF
100
AcDbEntity
8
SK2
62
256
6
ByLayer
370
13
48
1
60
0
100
AcDbLine
10
-85.5
20
16.047931
30
0
11
-82.324998
21
15.629934
31
0
39
0
210
0
220
0
230
1
0
LINE
5
1D0
100
AcDbEntity
8
SK2
62
256
6
ByLayer
370
13
48
1
60
0
100
AcDbLine
10
-82.325002
20
16.465928
30
0
11
-82.324998
21
15.629934
31
0
39
0
210
0
220
0
230
1
0
LINE
5
1D1
100
AcDbEntity
8
SK2
62
256
6
ByLayer
370
13
48
1
60
0
100
AcDbLine
10
19
20
16.047931
30
0
11
15.825002
21
15.629934
31
0
39
0
210
0
220
0
230
1
0
LINE
5
1D2
100
AcDbEntity
8
SK2
62
256
6
ByLayer
370
13
48
1
60
0
100
AcDbLine
10
19
20
16.047931
30
0
11
15.824998
21
16.465928
31
0
39
0
210
0
220
0
230
1
0
LINE
5
1D3
100
AcDbEntity
8
SK2
62
256
6
ByLayer
370
13
48
1
60
0
100
AcDbLine
10
15.825002
20
15.629934
30
0
11
15.824998
21
16.465928
31
0
39
0
210
0
220
0
230
1
0
ENDBLK
5
1D5
100
AcDbEntity
8
0
100
AcDbBlockEnd
0
BLOCK
5
1E3
100
AcDbEntity
8
0
100
AcDbBlockBegin
2
DimnDraft3D3
70
0
10
0
20
0
30
0
3
DimnDraft3D3
0
MTEXT
5
1D8
100
AcDbEntity
8
2
62
256
6
ByLayer
370
18
48
1
60
0
100
AcDbMText
10
15.272563
20
-17.273069
30
0
210
0
220
0
230
1
1
\W0.3281;1
40
3.50012
41
0
44
1.084337
50
0
71
7
72
5
7
iso_b_vert
0
LINE
5
1DA
100
AcDbEntity
8
2
62
256
6
ByLayer
370
13
48
1
60
0
100
AcDbLine
10
18
20
-11.0375
30
0
11
18
21
-21.323099
31
0
39
0
210
0
220
0
230
1
0
LINE
5
1DB
100
AcDbEntity
8
2
62
256
6
ByLayer
370
13
48
1
60
0
100
AcDbLine
10
19
20
-11.0375
30
0
11
19
21
-21.323099
31
0
39
0
210
0
220
0
230
1
0
LINE
5
1DC
100
AcDbEntity
8
2
62
256
6
ByLayer
370
13
48
1
60
0
100
AcDbLine
10
27.7503
20
-18.148099
30
0
11
14.397533
21
-18.148099
31
0
39
0
210
0
220
0
230
1
0
LINE
5
1DD
100
AcDbEntity
8
2
62
256
6
ByLayer
370
13
48
1
60
0
100
AcDbLine
10
18
20
-18.148099
30
0
11
14.825002
21
-18.566096
31
0
39
0
210
0
220
0
230
1
0
LINE
5
1DE
100
AcDbEntity
8
2
62
256
6
ByLayer
370
13
48
1
60
0
100
AcDbLine
10
18
20
-18.148099
30
0
11
14.824998
21
-17.730102
31
0
39
0
210
0
220
0
230
1
0
LINE
5
1DF
100
AcDbEntity
8
2
62
256
6
ByLayer
370
13
48
1
60
0
100
AcDbLine
10
14.825002
20
-18.566096
30
0
11
14.824998
21
-17.730102
31
0
39
0
210
0
220
0
230
1
0
LINE
5
1E0
100
AcDbEntity
8
2
62
256
6
ByLayer
370
13
48
1
60
0
100
AcDbLine
10
19
20
-18.148099
30
0
11
22.174998
21
-17.730102
31
0
39
0
210
0
220
0
230
1
0
LINE
5
1E1
100
AcDbEntity
8
2
62
256
6
ByLayer
370
13
48
1
60
0
100
AcDbLine
10
19
20
-18.148099
30
0
11
22.175002
21
-18.566096
31
0
39
0
210
0
220
0
230
1
0
LINE
5
1E2
100
AcDbEntity
8
2
62
256
6
ByLayer
370
13
48
1
60
0
100
AcDbLine
10
22.174998
20
-17.730102
30
0
11
22.175002
21
-18.566096
31
0
39
0
210
0
220
0
230
1
0
ENDBLK
5
1E4
100
AcDbEntity
8
0
100
AcDbBlockEnd
0
ENDSEC
0
SECTION
2
ENTITIES
0
ARC
5
151
100
AcDbEntity
8
1
62
256
6
ByLayer
370
18
48
1
60
0
100
AcDbCircle
39
0
10
12.9
20
-5.76954
30
0
40
0.1
210
0
220
0
230
1
100
AcDbArc
50
279.5
51
0
0
ARC
5
152
100
AcDbEntity
8
1
62
256
6
ByLayer
370
18
48
1
60
0
100
AcDbCircle
39
0
10
-7.85
20
-2.717407
30
0
40
0.4
210
0
220
0
230
-1
100
AcDbArc
50
112.024313
51
180
0
ARC
5
153
100
AcDbEntity
8
1
62
256
6
ByLayer
370
18
48
1
60
0
100
AcDbCircle
39
0
10
-7.85
20
-2.86474
30
0
40
0.4
210
0
220
0
230
-1
100
AcDbArc
50
180
51
226.666667
0
ARC
5
154
100
AcDbEntity
8
1
62
256
6
ByLayer
370
18
48
1
60
0
100
AcDbCircle
39
0
10
-12.15
20
-2.86474
30
0
40
0.4
210
0
220
0
230
-1
100
AcDbArc
50
313.333333
51
0
0
ARC
5
155
100
AcDbEntity
8
1
62
256
6
ByLayer
370
18
48
1
60
0
100
AcDbCircle
39
0
10
-12.15
20
-2.717407
30
0
40
0.4
210
0
220
0
230
-1
100
AcDbArc
50
0
51
67.975687
0
ARC
5
156
100
AcDbEntity
8
1
62
256
6
ByLayer
370
18
48
1
60
0
100
AcDbCircle
39
0
10
7.1
20
-5.76954
30
0
40
0.1
210
0
220
0
230
1
100
AcDbArc
50
180
51
260.5
0
ARC
5
157
100
AcDbEntity
8
1
62
256
6
ByLayer
370
18
48
1
60
0
100
AcDbCircle
39
0
10
11.331245
20
-1.05
30
0
40
0.2
210
0
220
0
230
1
100
AcDbArc
50
199.163092
51
270
0
ARC
5
158
100
AcDbEntity
8
1
62
256
6
ByLayer
370
18
48
1
60
0
100
AcDbCircle
39
0
10
-8.308564
20
-2.100426
30
0
40
3
210
0
220
0
230
-1
100
AcDbArc
50
145.139463
51
160.836908
0
ARC
5
159
100
AcDbEntity
8
1
62
256
6
ByLayer
370
18
48
1
60
0
100
AcDbCircle
39
0
10
-10.606092
20
-0.5
30
0
40
0.2
210
0
220
0
230
-1
100
AcDbArc
50
90
51
145.139463
0
ARC
5
15A
100
AcDbEntity
8
1
62
256
6
ByLayer
370
18
48
1
60
0
100
AcDbCircle
39
0
10
-7.525
20
-3.118825
30
0
40
0.4
210
0
220
0
230
-1
100
AcDbArc
50
180
51
224.75
0
ARC
5
15B
100
AcDbEntity
8
1
62
256
6
ByLayer
370
18
48
1
60
0
100
AcDbCircle
39
0
10
12.475
20
-3.118825
30
0
40
0.4
210
0
220
0
230
1
100
AcDbArc
50
180
51
224.75
0
ARC
5
15C
100
AcDbEntity
8
1
62
256
6
ByLayer
370
18
48
1
60
0
100
AcDbCircle
39
0
10
-7.229974
20
-4.268692
30
0
40
0.2
210
0
220
0
230
-1
100
AcDbArc
50
1.5
51
44.75
0
ARC
5
15D
100
AcDbEntity
8
1
62
256
6
ByLayer
370
18
48
1
60
0
100
AcDbCircle
39
0
10
12.770026
20
-4.268692
30
0
40
0.2
210
0
220
0
230
1
100
AcDbArc
50
1.5
51
44.75
0
ELLIPSE
5
15E
100
AcDbEntity
8
1
62
256
6
ByLayer
370
18
48
1
60
0
100
AcDbEllipse
10
12.113243
20
-2.86474
30
0
11
2.44921270764475E-17
21
0.4
31
0
210
0
220
0
230
1
40
0.982904
41
1.5707963267949
42
2.38528331687673
0
ELLIPSE
5
15F
100
AcDbEntity
8
1
62
256
6
ByLayer
370
18
48
1
60
0
100
AcDbEllipse
10
7.886757
20
-2.86474
30
0
11
-7.34763812293426E-17
21
-0.4
31
0
210
0
220
0
230
1
40
0.982904
41
0.756309336713068
42
1.5707963267949
0
ELLIPSE
5
160
100
AcDbEntity
8
1
62
256
6
ByLayer
370
18
48
1
60
0
100
AcDbEllipse
10
7.886757
20
-2.717407
30
0
11
2.44921270764475E-17
21
0.4
31
0
210
0
220
0
230
1
40
0.982904
41
-1.5707963267949
42
-0.384396774495636
0
ELLIPSE
5
161
100
AcDbEntity
8
1
62
256
6
ByLayer
370
18
48
1
60
0
100
AcDbEllipse
10
12.113243
20
-2.717407
30
0
11
-7.34763812293426E-17
21
-0.4
31
0
210
0
220
0
230
1
40
0.982904
41
-2.75719587909416
42
-1.5707963267949
0
ELLIPSE
5
162
100
AcDbEntity
8
1
62
256
6
ByLayer
370
18
48
1
60
0
100
AcDbEllipse
10
7.149579
20
-5.76954
30
0
11
6.12303176911189E-18
21
0.1
31
0
210
0
220
0
230
1
40
0.982904
41
1.5707963267949
42
2.97578637465032
0
ELLIPSE
5
163
100
AcDbEntity
8
1
62
256
6
ByLayer
370
18
48
1
60
0
100
AcDbEllipse
10
12.850421
20
-5.76954
30
0
11
-1.83690953073357E-17
21
-0.1
31
0
210
0
220
0
230
1
40
0.982904
41
0.16580627893947
42
1.5707963267949
0
POINT
5
6C
100
AcDbEntity
8
80
62
256
6
ByLayer
370
18
48
1
60
0
100
AcDbPoint
10
0
20
0
30
0
39
0
210
0
220
0
230
1
50
360
0
POINT
5
6E
100
AcDbEntity
8
81
62
256
6
ByLayer
370
18
48
1
60
0
100
AcDbPoint
10
19
20
-9.45
30
0
39
0
210
0
220
0
230
1
50
360
0
SPLINE
5
164
100
AcDbEntity
8
1
62
256
6
ByLayer
370
18
48
1
60
0
100
AcDbSpline
70
4
71
3
72
13
73
9
40
0
40
0
40
0
40
0
40
0.191228297695145
40
0.380514039731736
40
0.567718387279159
40
0.7132611084202
40
0.857374749059683
40
1
40
1
40
1
40
1
41
1
10
8.35
20
-0.299519052839036
30
0
41
1
10
8.34999613955399
20
-0.320560001557402
30
0
41
1
10
8.35035752946582
20
-0.362323512571239
30
0
41
1
10
8.35197597240252
20
-0.424335281930275
30
0
41
1
10
8.35449111856374
20
-0.481051817208159
30
0
41
1
10
8.35764415426716
20
-0.532593720148651
30
0
41
1
10
8.36119500063801
20
-0.579093715629184
30
0
41
1
10
8.36402333986169
20
-0.609776775138886
30
0
41
1
10
8.36554568699959
20
-0.624999999999998
30
0
0
SPLINE
5
165
100
AcDbEntity
8
1
62
256
6
ByLayer
370
18
48
1
60
0
100
AcDbSpline
70
4
71
3
72
18
73
14
40
0
40
0
40
0
40
0
40
0.0901972382583446
40
0.182091431143094
40
0.275365812196163
40
0.36966907364966
40
0.464622244493109
40
0.559827355494782
40
0.649460628599975
40
0.738616043851304
40
0.826962978713998
40
0.914187706224564
40
1
40
1
40
1
40
1
41
1
10
14.4507796548422
20
-0.38465854283835
30
0
41
1
10
14.4485954642039
20
-0.379920934714707
30
0
41
1
10
14.4439405394664
20
-0.370693526059781
30
0
41
1
10
14.4361229501038
20
-0.357722704899765
30
0
41
1
10
14.427474497382
20
-0.345713007740276
30
0
41
1
10
14.4180663831371
20
-0.334835498244155
30
0
41
1
10
14.4079996059298
20
-0.325253937593589
30
0
41
1
10
14.3975926077431
20
-0.317254544096822
30
0
41
1
10
14.3870030281999
20
-0.310835005508922
30
0
41
1
10
14.3763761545608
20
-0.305949963893233
30
0
41
1
10
14.3656242592579
20
-0.30249196181709
30
0
41
1
10
14.3548579097359
20
-0.30044885769188
30
0
41
1
10
14.3476982585302
20
-0.30000065895657
30
0
41
1
10
14.3441342941678
20
-0.299999999999997
30
0
0
SPLINE
5
166
100
AcDbEntity
8
1
62
256
6
ByLayer
370
18
48
1
60
0
100
AcDbSpline
70
4
71
3
72
13
73
9
40
0
40
0
40
0
40
0
40
0.186461229165106
40
0.373078026638742
40
0.559795470031442
40
0.706538118749594
40
0.853281937096315
40
1
40
1
40
1
40
1
41
1
10
14.5856279933721
20
-0.722678498269935
30
0
41
1
10
14.578156591461
20
-0.700827658773578
30
0
41
1
10
14.562863954472
20
-0.657412061814142
30
0
41
1
10
14.5388789278221
20
-0.593163633917612
30
0
41
1
10
14.5156500418212
20
-0.534356356127383
30
0
41
1
10
14.4934342575625
20
-0.480813192634426
30
0
41
1
10
14.4724568129349
20
-0.43235574444587
30
0
41
1
10
14.4580720727579
20
-0.400485329063391
30
0
41
1
10
14.4507796548422
20
-0.384658542838351
30
0
0
SPLINE
5
167
100
AcDbEntity
8
1
62
256
6
ByLayer
370
18
48
1
60
0
100
AcDbSpline
70
4
71
3
72
15
73
11
40
0
40
0
40
0
40
0
40
0.124453836602208
40
0.248940368180789
40
0.373427182061556
40
0.497881403722259
40
0.623394636989883
40
0.748942212414262
40
0.874488509881396
40
1
40
1
40
1
40
1
41
1
10
12.0750000000001
20
-0.875787142402551
30
0
41
1
10
12.0750074589628
20
-0.85436759760692
30
0
41
1
10
12.074814312835
20
-0.811774065937271
30
0
41
1
10
12.0739315623954
20
-0.748627286909635
30
0
41
1
10
12.0723618407605
20
-0.686248878412788
30
0
41
1
10
12.0700375249856
20
-0.624484235438753
30
0
41
1
10
12.0668798347058
20
-0.563353215773
30
0
41
1
10
12.0628108850753
20
-0.502877499974475
30
0
41
1
10
12.0577784146572
20
-0.443252336756701
30
0
41
1
10
12.0537165609474
20
-0.404091305174124
30
0
41
1
10
12.0515146040701
20
-0.384658542838351
30
0
0
SPLINE
5
168
100
AcDbEntity
8
1
62
256
6
ByLayer
370
18
48
1
60
0
100
AcDbSpline
70
4
71
3
72
19
73
15
40
0
40
0
40
0
40
0
40
0.0884758495692953
40
0.176955532301347
40
0.268084845644569
40
0.35921720748634
40
0.447650499613871
40
0.536085235153961
40
0.626928089336471
40
0.717771244936874
40
0.787743636159924
40
0.857715786090022
40
0.928858148896984
40
1
40
1
40
1
40
1
41
1
10
12.0515146040701
20
-0.38465854283835
30
0
41
1
10
12.0509818153904
20
-0.379964430034552
30
0
41
1
10
12.0498361709467
20
-0.370915583783858
30
0
41
1
10
12.0478596815816
20
-0.358198460529881
30
0
41
1
10
12.0456115503719
20
-0.346486330471626
30
0
41
1
10
12.0431106745657
20
-0.335972189275702
30
0
41
1
10
12.0403860805766
20
-0.326799658115533
30
0
41
1
10
12.0374260700765
20
-0.318890621412116
30
0
41
1
10
12.0341983698509
20
-0.312247073489175
30
0
41
1
10
12.0309751948666
20
-0.307346267626355
30
0
41
1
10
12.0278521518938
20
-0.303932856032599
30
0
41
1
10
12.0248716145738
20
-0.301678733274889
30
0
41
1
10
12.0217555906279
20
-0.300308282516408
30
0
41
1
10
12.0195979613099
20
-0.300001160717403
30
0
41
1
10
12.0185009778636
20
-0.299999999999998
30
0
0
SPLINE
5
169
100
AcDbEntity
8
1
62
256
6
ByLayer
370
18
48
1
60
0
100
AcDbSpline
70
4
71
3
72
19
73
15
40
0
40
0
40
0
40
0
40
0.0909670066728891
40
0.181935334761754
40
0.275552418482716
40
0.369169838265941
40
0.46013184859008
40
0.551092843767843
40
0.644728140177137
40
0.738360604181484
40
0.803251676825513
40
0.868141758664754
40
0.934071531158807
40
1
40
1
40
1
40
1
41
1
10
11.4155898162429
20
-0.299999999999998
30
0
41
1
10
11.411122622015
20
-0.300002793435376
30
0
41
1
10
11.402188166209
20
-0.300511013423263
30
0
41
1
10
11.3886119659082
20
-0.302809720412597
30
0
41
1
10
11.3749961380939
20
-0.306676956538256
30
0
41
1
10
11.3615669425021
20
-0.312069253379074
30
0
41
1
10
11.3485549272089
20
-0.318874613135094
30
0
41
1
10
11.3359238230903
20
-0.327070779531164
30
0
41
1
10
11.323669025086
20
-0.336735606569654
30
0
41
1
10
11.3131172410248
20
-0.346710642545719
30
0
41
1
10
11.304267507645
20
-0.356420421283834
30
0
41
1
10
11.2969084146616
20
-0.365523768619093
30
0
41
1
10
11.2899468957363
20
-0.375259508403059
30
0
41
1
10
11.2856126473188
20
-0.382146870034976
30
0
41
1
10
11.2835253313999
20
-0.385683829425311
30
0
0
SPLINE
5
16A
100
AcDbEntity
8
1
62
256
6
ByLayer
370
18
48
1
60
0
100
AcDbSpline
70
4
71
3
72
19
73
15
40
0
40
0
40
0
40
0
40
0.0824429168457156
40
0.164906440946195
40
0.247370651245817
40
0.329814504050112
40
0.412254006815193
40
0.494713382750817
40
0.577172591983371
40
0.659611867371202
40
0.744698035433048
40
0.829807401453034
40
0.914915525713186
40
1
40
1
40
1
40
1
41
1
10
11.2835253313999
20
-0.385683829425312
30
0
41
1
10
11.2725734924019
20
-0.40425357483074
30
0
41
1
10
11.2508005734895
20
-0.441659106355215
30
0
41
1
10
11.2185095911888
20
-0.498562827074419
30
0
41
1
10
11.1866805190666
20
-0.556233996055592
30
0
41
1
10
11.1553756411398
20
-0.614652100513339
30
0
41
1
10
11.1246606107659
20
-0.673805540651778
30
0
41
1
10
11.0945999219155
20
-0.733684116900172
30
0
41
1
10
11.0652637697093
20
-0.794269814822428
30
0
41
1
10
11.0364177765712
20
-0.856199303187819
30
0
41
1
10
11.0081613907946
20
-0.919490726826883
30
0
41
1
10
10.980606330669
20
-0.984158135192323
30
0
41
1
10
10.9541218036495
20
-1.04951782358672
30
0
41
1
10
10.9372554527278
20
-1.09353397644768
30
0
41
1
10
10.9290143637782
20
-1.11565164925285
30
0
0
SPLINE
5
16B
100
AcDbEntity
8
1
62
256
6
ByLayer
370
18
48
1
60
0
100
AcDbSpline
70
4
71
3
72
23
73
19
40
0
40
0
40
0
40
0
40
0.0579623009242541
40
0.116156680946496
40
0.174380175257619
40
0.232382332715253
40
0.290036031224417
40
0.347855284080207
40
0.405700025709805
40
0.46338857859238
40
0.528319673231505
40
0.593414967448191
40
0.658536785258303
40
0.723504137162192
40
0.792547615276641
40
0.86173183775276
40
0.930933158963926
40
1
40
1
40
1
40
1
41
1
10
10.9290143637782
20
-1.11565164925285
30
0
41
1
10
10.9270927054174
20
-1.12078609500352
30
0
41
1
10
10.9228432775058
20
-1.13083491447241
30
0
41
1
10
10.9152124508444
20
-1.14523315578383
30
0
41
1
10
10.9064837855083
20
-1.15883613490919
30
0
41
1
10
10.8967580108379
20
-1.17153146863844
30
0
41
1
10
10.8861131794502
20
-1.18325560117668
30
0
41
1
10
10.8746642927097
20
-1.19402540118918
30
0
41
1
10
10.8624939461485
20
-1.2038390561818
30
0
41
1
10
10.8491611303883
20
-1.21304292759446
30
0
41
1
10
10.8346405620935
20
-1.2214798051208
30
0
41
1
10
10.8189517698235
20
-1.22903269240326
30
0
41
1
10
10.8027654113732
20
-1.23539381834084
30
0
41
1
10
10.7858346924883
20
-1.2406872850222
30
0
41
1
10
10.7681996977679
20
-1.24484738598971
30
0
41
1
10
10.7499164426785
20
-1.24783914213306
30
0
41
1
10
10.7314223379211
20
-1.24960970685661
30
0
41
1
10
10.7190216837972
20
-1.25000244838208
30
0
41
1
10
10.7128034716301
20
-1.25000000000052
30
0
0
SPLINE
5
16C
100
AcDbEntity
8
1
62
256
6
ByLayer
370
18
48
1
60
0
100
AcDbSpline
70
4
71
3
72
22
73
18
40
0
40
0
40
0
40
0
40
0.0711580263015437
40
0.142557868655957
40
0.214008167857678
40
0.285347671372599
40
0.356454922269266
40
0.427720955437846
40
0.499218909696261
40
0.570671744560219
40
0.641876043794427
40
0.701524953376932
40
0.761374636732206
40
0.821193060048682
40
0.880799194657723
40
0.940402336826626
40
1
40
1
40
1
40
1
41
1
10
9.2770831508133
20
-1.25
30
0
41
1
10
9.27072715485915
20
-1.2500018327902
30
0
41
1
10
9.25804543777335
20
-1.24958406654371
30
0
41
1
10
9.23912890596686
20
-1.24770050225145
30
0
41
1
10
9.2204223301164
20
-1.24452203196469
30
0
41
1
10
9.202045584586
20
-1.24001937918641
30
0
41
1
10
9.18408823085225
20
-1.23415106266801
30
0
41
1
10
9.16663991365451
20
-1.22684726442913
30
0
41
1
10
9.14979466011989
20
-1.21809184830862
30
0
41
1
10
9.13371025848286
20
-1.20788744207222
30
0
41
1
10
9.11936958246885
20
-1.19685833813552
30
0
41
1
10
9.10674870916892
20
-1.18523967179113
30
0
41
1
10
9.09572905714532
20
-1.1733115447499
30
0
41
1
10
9.08565057182999
20
-1.16042752303774
30
0
41
1
10
9.07664209774607
20
-1.14664545516925
30
0
41
1
10
9.06881358190009
20
-1.13201488513776
30
0
41
1
10
9.06444629019365
20
-1.12178857806723
30
0
41
1
10
9.06246958017491
20
-1.11654877501976
30
0
0
SPLINE
5
16D
100
AcDbEntity
8
1
62
256
6
ByLayer
370
18
48
1
60
0
100
AcDbSpline
70
4
71
3
72
19
73
15
40
0
40
0
40
0
40
0
40
0.0824240556722148
40
0.16486973495226
40
0.247316481677249
40
0.329741993334647
40
0.412159083501663
40
0.494596307320971
40
0.577033671458545
40
0.659450953015334
40
0.74457733576248
40
0.829726472106268
40
0.914874766151234
40
1
40
1
40
1
40
1
41
1
10
9.06246958018024
20
-1.11654877501644
30
0
41
1
10
9.05437930745735
20
-1.0950485101588
30
0
41
1
10
9.03783923163204
20
-1.05225688586653
30
0
41
1
10
9.01192072429925
20
-0.988702571117282
30
0
41
1
10
8.98499906717292
20
-0.925806824339976
30
0
41
1
10
8.95714259643604
20
-0.863590799839301
30
0
41
1
10
8.92842353763815
20
-0.802064912170138
30
0
41
1
10
8.89890999246357
20
-0.741237627177613
30
0
41
1
10
8.86867294810999
20
-0.681126248968317
30
0
41
1
10
8.83744571432018
20
-0.621099821791669
30
0
41
1
10
8.80527059046626
20
-0.561197052172504
30
0
41
1
10
8.77219838555043
20
-0.50146109067862
30
0
41
1
10
8.73864307633036
20
-0.442556168908086
30
0
41
1
10
8.7160205983494
20
-0.403861552552701
30
0
41
1
10
8.70464184120527
20
-0.38465854283835
30
0
0
SPLINE
5
16E
100
AcDbEntity
8
1
62
256
6
ByLayer
370
18
48
1
60
0
100
AcDbSpline
70
4
71
3
72
19
73
15
40
0
40
0
40
0
40
0
40
0.0884758495692897
40
0.176955532301344
40
0.268084845644571
40
0.359217207486347
40
0.447650499613879
40
0.536085235153971
40
0.626928089336481
40
0.717771244936885
40
0.787743636159931
40
0.857715786090029
40
0.928858148896989
40
1
40
1
40
1
40
1
41
1
10
8.70464184120527
20
-0.38465854283835
30
0
41
1
10
8.70185590590427
20
-0.379964430034552
30
0
41
1
10
8.69601371863649
20
-0.370915583783853
30
0
41
1
10
8.68630160718231
20
-0.358198460529872
30
0
41
1
10
8.67574134773736
20
-0.346486330471621
30
0
41
1
10
8.66451878938075
20
-0.335972189275703
30
0
41
1
10
8.65285724135084
20
-0.32679965811553
30
0
41
1
10
8.64076195485926
20
-0.318890621412109
30
0
41
1
10
8.62819204448862
20
-0.312247073489167
30
0
41
1
10
8.61622628730553
20
-0.307346267626357
30
0
41
1
10
8.60511877178851
20
-0.303932856032595
30
0
41
1
10
8.5948952278987
20
-0.30167873327489
30
0
41
1
10
8.58458945998812
20
-0.300308282516403
30
0
41
1
10
8.57770498029479
20
-0.300001160717404
30
0
41
1
10
8.57426529555359
20
-0.299999999999998
30
0
0
SPLINE
5
16F
100
AcDbEntity
8
1
62
256
6
ByLayer
370
18
48
1
60
0
100
AcDbSpline
70
4
71
3
72
19
73
15
40
0
40
0
40
0
40
0
40
0.0909670066728986
40
0.181935334761769
40
0.275552418482735
40
0.369169838265963
40
0.460131848590097
40
0.55109284376786
40
0.644728140177148
40
0.738360604181487
40
0.803251676825518
40
0.868141758664762
40
0.93407153115881
40
1
40
1
40
1
40
1
41
1
10
7.97831854650564
20
-0.299999999999998
30
0
41
1
10
7.97694306085908
20
-0.300002793435377
30
0
41
1
10
7.97425421527587
20
-0.300511013423267
30
0
41
1
10
7.97035848331379
20
-0.3028097204126
30
0
41
1
10
7.96664178149441
20
-0.306676956538254
30
0
41
1
10
7.96315681382924
20
-0.312069253379076
30
0
41
1
10
7.95994910624359
20
-0.318874613135096
30
0
41
1
10
7.95698667982173
20
-0.32707077953117
30
0
41
1
10
7.95425641342569
20
-0.336735606569655
30
0
41
1
10
7.95202113928222
20
-0.346710642545716
30
0
41
1
10
7.95022304903856
20
-0.356420421283837
30
0
41
1
10
7.94877650365646
20
-0.3655237686191
30
0
41
1
10
7.94745286002544
20
-0.375259508403059
30
0
41
1
10
7.94665235169413
20
-0.382146870034975
30
0
41
1
10
7.94627388125287
20
-0.38568382942531
30
0
0
SPLINE
5
170
100
AcDbEntity
8
1
62
256
6
ByLayer
370
18
48
1
60
0
100
AcDbSpline
70
4
71
3
72
15
73
11
40
0
40
0
40
0
40
0
40
0.124499906088666
40
0.249030521538981
40
0.373562156661645
40
0.498063453553504
40
0.623532580946484
40
0.749032017773666
40
0.874531208407052
40
1
40
1
40
1
40
1
41
1
10
7.94627388125287
20
-0.38568382942531
30
0
41
1
10
7.94430436832395
20
-0.40412912448401
30
0
41
1
10
7.94066678205233
20
-0.441282218946197
30
0
41
1
10
7.93614348446043
20
-0.497796726972671
30
0
41
1
10
7.93247142917223
20
-0.555068679387252
30
0
41
1
10
7.92959138023888
20
-0.61322922894103
30
0
41
1
10
7.92745107683569
20
-0.672273890121383
30
0
41
1
10
7.92599459668227
20
-0.732198558550577
30
0
41
1
10
7.92517321452817
20
-0.792833337791133
30
0
41
1
10
7.92499337008618
20
-0.833715314430186
30
0
41
1
10
7.92500000000006
20
-0.854269987360444
30
0
0
SPLINE
5
171
100
AcDbEntity
8
1
62
256
6
ByLayer
370
18
48
1
60
0
100
AcDbSpline
70
4
71
3
72
22
73
18
40
0
40
0
40
0
40
0
40
0.0661529771379884
40
0.132547402780804
40
0.198947430964868
40
0.265108075695216
40
0.331190387666661
40
0.397498944274757
40
0.463814813958787
40
0.529907132242933
40
0.597530726161189
40
0.665379483300215
40
0.733235472921698
40
0.80086896195812
40
0.867211365670461
40
0.933655003702799
40
1
40
1
40
1
40
1
41
1
10
5.65937792061813
20
-1.11565164925285
30
0
41
1
10
5.65887570996304
20
-1.1209254278601
30
0
41
1
10
5.65776060482629
20
-1.13128774940537
30
0
41
1
10
5.65574667741323
20
-1.14627019478473
30
0
41
1
10
5.6534303966544
20
-1.16054897887068
30
0
41
1
10
5.65083424238356
20
-1.17401055029774
30
0
41
1
10
5.64797736351212
20
-1.18655233482853
30
0
41
1
10
5.64489423942443
20
-1.19813749851038
30
0
41
1
10
5.64161836616396
20
-1.20869697002073
30
0
41
1
10
5.63815605761165
20
-1.21822421306511
30
0
41
1
10
5.63452889810312
20
-1.22661459108684
30
0
41
1
10
5.63076552808933
20
-1.23383132212285
30
0
41
1
10
5.62692895369237
20
-1.2397769312495
30
0
41
1
10
5.6230782841647
20
-1.2443774142579
30
0
41
1
10
5.61924360371344
20
-1.24762193456188
30
0
41
1
10
5.61544532131027
20
-1.24956513186474
30
0
41
1
10
5.61294288243932
20
-1.24999823187173
30
0
41
1
10
5.61169830398061
20
-1.25000000000131
30
0
0
SPLINE
5
172
100
AcDbEntity
8
1
62
256
6
ByLayer
370
18
48
1
60
0
100
AcDbSpline
70
4
71
3
72
19
73
15
40
0
40
0
40
0
40
0
40
0.0824045692539756
40
0.164829984219335
40
0.247255480096488
40
0.32966015971262
40
0.412064697001976
40
0.494490068576964
40
0.576915344098554
40
0.65931975037286
40
0.744478279609895
40
0.829660182838074
40
0.914841825786931
40
1
40
1
40
1
40
1
41
1
10
5.77529115488539
20
-0.38568382942531
30
0
41
1
10
5.77078319077205
20
-0.40421084095033
30
0
41
1
10
5.76200516817701
20
-0.441547212355547
30
0
41
1
10
5.74956520407537
20
-0.498399852343023
30
0
41
1
10
5.73782184499303
20
-0.556060593375753
30
0
41
1
10
5.72675688860946
20
-0.614501324517776
30
0
41
1
10
5.71634759814529
20
-0.673700788553053
30
0
41
1
10
5.70657170057042
20
-0.733635607675355
30
0
41
1
10
5.69740930626637
20
-0.794272978169526
30
0
41
1
10
5.68874542896035
20
-0.856263154692885
30
0
41
1
10
5.68058203205837
20
-0.919610955663118
30
0
41
1
10
5.67291965788533
20
-0.984313039307014
30
0
41
1
10
5.66582977112665
20
-1.0496438377638
30
0
41
1
10
5.66146677973734
20
-1.09358458306301
30
0
41
1
10
5.65937792061813
20
-1.11565164925285
30
0
0
SPLINE
5
173
100
AcDbEntity
8
1
62
256
6
ByLayer
370
18
48
1
60
0
100
AcDbSpline
70
4
71
3
72
19
73
15
40
0
40
0
40
0
40
0
40
0.087303749641968
40
0.174607736444122
40
0.264448464327817
40
0.35428924111504
40
0.441592235114169
40
0.528895029062811
40
0.618740450857942
40
0.708585361702274
40
0.780719954652625
40
0.852854241527649
40
0.926427315532963
40
1
40
1
40
1
40
1
41
1
10
5.83534963203983
20
-0.299999999999998
30
0
41
1
10
5.83320459833752
20
-0.300001799493447
30
0
41
1
10
5.82895082335281
20
-0.3004720046909
30
0
41
1
10
5.8225981728523
20
-0.30260013493899
30
0
41
1
10
5.81633844143813
20
-0.306191002812972
30
0
41
1
10
5.81027042325205
20
-0.311204819389351
30
0
41
1
10
5.80449026650854
20
-0.317538613698092
30
0
41
1
10
5.79896836510422
20
-0.325164755884031
30
0
41
1
10
5.79369464558656
20
-0.334149151038163
30
0
41
1
10
5.789035665092
20
-0.343781097861481
30
0
41
1
10
5.78499544891121
20
-0.353656292258608
30
0
41
1
10
5.78148901455946
20
-0.363560065830038
30
0
41
1
10
5.77823093818957
20
-0.374220261942714
30
0
41
1
10
5.77623923721046
20
-0.381790336203556
30
0
41
1
10
5.77529115488539
20
-0.385683829425309
30
0
0
SPLINE
5
174
100
AcDbEntity
8
1
62
256
6
ByLayer
370
18
48
1
60
0
100
AcDbSpline
70
4
71
3
72
19
73
15
40
0
40
0
40
0
40
0
40
0.087231403273948
40
0.174463523153817
40
0.264247978579802
40
0.354033066718216
40
0.441255789858723
40
0.5284788532243
40
0.618202776056854
40
0.707926809356665
40
0.780244803565623
40
0.852562750210202
40
0.926281436537629
40
1
40
1
40
1
40
1
41
1
10
6.53637670212602
20
-0.384658542838351
30
0
41
1
10
6.53428594829643
20
-0.380090509020302
30
0
41
1
10
6.52988723521056
20
-0.371262213700175
30
0
41
1
10
6.5225414682569
20
-0.358780984534588
30
0
41
1
10
6.5145027791393
20
-0.347220529916095
30
0
41
1
10
6.50590090300341
20
-0.336777972482107
30
0
41
1
10
6.4968971433824
20
-0.327612040067398
30
0
41
1
10
6.48748994806478
20
-0.319654509111424
30
0
41
1
10
6.47764647951196
20
-0.31292320693601
30
0
41
1
10
6.46809486045676
20
-0.307846307627789
30
0
41
1
10
6.45904749417905
20
-0.304235870416888
30
0
41
1
10
6.45052946757675
20
-0.30180724295877
30
0
41
1
10
6.44190402735086
20
-0.300331786117037
30
0
41
1
10
6.43612123076845
20
-0.300000914677787
30
0
41
1
10
6.43322754719058
20
-0.299999999999998
30
0
0
SPLINE
5
175
100
AcDbEntity
8
1
62
256
6
ByLayer
370
18
48
1
60
0
100
AcDbSpline
70
4
71
3
72
19
73
15
40
0
40
0
40
0
40
0
40
0.0823894771405789
40
0.164800417758779
40
0.247211584914939
40
0.329601371051239
40
0.411989042546185
40
0.494397795842782
40
0.576806641018367
40
0.659194437834876
40
0.74438425740949
40
0.829597344575003
40
0.91481032543165
40
1
40
1
40
1
40
1
41
1
10
6.7959143366257
20
-1.11654877501644
30
0
41
1
10
6.79042486254965
20
-1.09511881432761
30
0
41
1
10
6.77914128669167
20
-1.05244384587297
30
0
41
1
10
6.76129018814818
20
-0.988986401744444
30
0
41
1
10
6.74255966033512
20
-0.926128382573997
30
0
41
1
10
6.7229796661691
20
-0.863902753407157
30
0
41
1
10
6.70258065603458
20
-0.802335686273847
30
0
41
1
10
6.68139793489234
20
-0.741448998538796
30
0
41
1
10
6.65946920374959
20
-0.68127525574563
30
0
41
1
10
6.63657539507048
20
-0.621174190082392
30
0
41
1
10
6.61272201937535
20
-0.561199724006834
30
0
41
1
10
6.58792489896521
20
-0.501407757224229
30
0
41
1
10
6.56248921653606
20
-0.442494470968718
30
0
41
1
10
6.54514662790469
20
-0.403834698169384
30
0
41
1
10
6.53637670212602
20
-0.384658542838351
30
0
0
SPLINE
5
176
100
AcDbEntity
8
1
62
256
6
ByLayer
370
18
48
1
60
0
100
AcDbSpline
70
4
71
3
72
21
73
17
40
0
40
0
40
0
40
0
40
0.0715433360116434
40
0.143337606089372
40
0.215125720985565
40
0.286660633993599
40
0.358289654195229
40
0.430188072183478
40
0.5020768923325
40
0.573692775019605
40
0.6434038683794
40
0.713382975006605
40
0.783353809541269
40
0.853053579156539
40
0.926527463608336
40
1
40
1
40
1
40
1
41
1
10
6.93658561908088
20
-1.25
30
0
41
1
10
6.9321640696732
20
-1.24999588731867
30
0
41
1
10
6.92335661393045
20
-1.24949140278761
30
0
41
1
10
6.91025181939294
20
-1.24723044234781
30
0
41
1
10
6.89738177334399
20
-1.24349818838407
30
0
41
1
10
6.88483645220025
20
-1.23829802972839
30
0
41
1
10
6.8727060930831
20
-1.2316054690315
30
0
41
1
10
6.86105358748876
20
-1.22348713734252
30
0
41
1
10
6.84997835455478
20
-1.21401343924295
30
0
41
1
10
6.83967321987306
20
-1.20333723345201
30
0
41
1
10
6.83020713740036
20
-1.19151766082827
30
0
41
1
10
6.8215942729486
20
-1.17869329664342
30
0
41
1
10
6.81381636519668
20
-1.16486905163227
30
0
41
1
10
6.80683191080957
20
-1.14988554702976
30
0
41
1
10
6.8007681067149
20
-1.13377277290909
30
0
41
1
10
6.79740850312213
20
-1.12237618573351
30
0
41
1
10
6.79591433662525
20
-1.11654877501669
30
0
0
SPLINE
5
177
100
AcDbEntity
8
1
62
256
6
ByLayer
370
18
48
1
60
0
100
AcDbSpline
70
4
71
3
72
22
73
18
40
0
40
0
40
0
40
0
40
0.0661529771379888
40
0.132547402780804
40
0.198947430964869
40
0.265108075695216
40
0.331190387666658
40
0.397498944274755
40
0.46381481395878
40
0.529907132242928
40
0.597530726161183
40
0.665379483300206
40
0.733235472921685
40
0.800868961958107
40
0.867211365670453
40
0.933655003702794
40
1
40
1
40
1
40
1
41
1
10
13.198294489454
20
-1.11565164925285
30
0
41
1
10
13.1969574651084
20
-1.12092542786009
30
0
41
1
10
13.1939730249216
20
-1.13128774940537
30
0
41
1
10
13.1885502051374
20
-1.14627019478473
30
0
41
1
10
13.1822556905288
20
-1.16054897887068
30
0
41
1
10
13.175131028186
20
-1.17401055029775
30
0
41
1
10
13.1672005452126
20
-1.18655233482852
30
0
41
1
10
13.1585346448937
20
-1.19813749851038
30
0
41
1
10
13.1492034682651
20
-1.20869697002073
30
0
41
1
10
13.1391975543434
20
-1.21822421306511
30
0
41
1
10
13.1285418966801
20
-1.22661459108684
30
0
41
1
10
13.1172987298727
20
-1.23383132212284
30
0
41
1
10
13.1056374487769
20
-1.2397769312495
30
0
41
1
10
13.0937166514912
20
-1.2443774142579
30
0
41
1
10
13.0816108981209
20
-1.24762193456188
30
0
41
1
10
13.0693909808315
20
-1.24956513186474
30
0
41
1
10
13.0611799748158
20
-1.24999823187174
30
0
41
1
10
13.0570565024907
20
-1.25000000000131
30
0
0
SPLINE
5
178
100
AcDbEntity
8
1
62
256
6
ByLayer
370
18
48
1
60
0
100
AcDbSpline
70
4
71
3
72
19
73
15
40
0
40
0
40
0
40
0
40
0.0824045692539756
40
0.164829984219333
40
0.247255480096486
40
0.329660159712617
40
0.412064697001973
40
0.494490068576961
40
0.576915344098551
40
0.659319750372857
40
0.744478279609894
40
0.829660182838073
40
0.91484182578693
40
1
40
1
40
1
40
1
41
1
10
13.4545080577674
20
-0.38568382942531
30
0
41
1
10
13.4461108671177
20
-0.40421084095033
30
0
41
1
10
13.4295023582072
20
-0.441547212355546
30
0
41
1
10
13.4051351337935
20
-0.498399852343017
30
0
41
1
10
13.3813670311246
20
-0.556060593375751
30
0
41
1
10
13.3582342629987
20
-0.614501324517766
30
0
41
1
10
13.3357750514946
20
-0.67370078855305
30
0
41
1
10
13.3140217523247
20
-0.733635607675344
30
0
41
1
10
13.2930111915768
20
-0.794272978169523
30
0
41
1
10
13.2725552098002
20
-0.856263154692878
30
0
41
1
10
13.2527204118808
20
-0.919610955663114
30
0
41
1
10
13.2335725208603
20
-0.98431303930701
30
0
41
1
10
13.2153598178946
20
-1.0496438377638
30
0
41
1
10
13.2038748835022
20
-1.093584583063
30
0
41
1
10
13.198294489454
20
-1.11565164925285
30
0
0
SPLINE
5
179
100
AcDbEntity
8
1
62
256
6
ByLayer
370
18
48
1
60
0
100
AcDbSpline
70
4
71
3
72
19
73
15
40
0
40
0
40
0
40
0
40
0.0918795325795308
40
0.183759264452833
40
0.278306435671405
40
0.372853581886338
40
0.464733329394595
40
0.556612789833979
40
0.651173509074239
40
0.745733611255441
40
0.80886864521872
40
0.872003516195884
40
0.936001854654886
40
1
40
1
40
1
40
1
41
1
10
13.5526315789474
20
-0.300229600813304
30
0
41
1
10
13.5491593645537
20
-0.300500090109571
30
0
41
1
10
13.5422399312044
20
-0.301504759039409
30
0
41
1
10
13.5318016787266
20
-0.304435913103405
30
0
41
1
10
13.5214113949708
20
-0.308823432911082
30
0
41
1
10
13.5112412923693
20
-0.314615069450196
30
0
41
1
10
13.5014641356335
20
-0.321695525278165
30
0
41
1
10
13.4920475125655
20
-0.330040758290598
30
0
41
1
10
13.4829870804187
20
-0.339717624812236
30
0
41
1
10
13.4753223761023
20
-0.349472666953873
30
0
41
1
10
13.4690069314744
20
-0.35874549583301
30
0
41
1
10
13.4638552617748
20
-0.367213015044926
30
0
41
1
10
13.4589934903893
20
-0.3761803501801
30
0
41
1
10
13.4559660867071
20
-0.382467408960842
30
0
41
1
10
13.4545080577673
20
-0.385683829424022
30
0
0
SPLINE
5
17A
100
AcDbEntity
8
1
62
256
6
ByLayer
370
18
48
1
60
0
100
AcDbSpline
70
4
71
2
72
6
73
3
40
0
40
0
40
0
40
1
40
1
40
1
41
1
10
13.5585759939785
20
-0.299999999999998
30
0
41
1
10
13.5555983221799
20
-0.300000017600439
30
0
41
1
10
13.5526315789474
20
-0.300229600813307
30
0
0
SPLINE
5
17B
100
AcDbEntity
8
1
62
256
6
ByLayer
370
18
48
1
60
0
100
AcDbSpline
70
4
71
2
72
6
73
3
40
0
40
0
40
0
40
1
40
1
40
1
41
1
10
18.0420180769001
20
-7.83421743803116
30
0
41
1
10
18.0420139851413
20
-7.83596015591379
30
0
41
1
10
18.0419794301531
20
-7.83770248157484
30
0
0
SPLINE
5
17C
100
AcDbEntity
8
1
62
256
6
ByLayer
370
18
48
1
60
0
100
AcDbSpline
70
4
71
2
72
6
73
3
40
0
40
0
40
0
40
1
40
1
40
1
41
1
10
18.1577080898653
20
-7.84782742734471
30
0
41
1
10
18.157737508881
20
-7.84608466785167
30
0
41
1
10
18.1577375097032
20
-7.84434157655108
30
0
0
SPLINE
5
17D
100
AcDbEntity
8
1
62
256
6
ByLayer
370
18
48
1
60
0
100
AcDbSpline
70
4
71
3
72
43
73
39
40
0
40
0
40
0
40
0
40
0.028948381675114
40
0.0579561612845319
40
0.0870197915050175
40
0.116135684662582
40
0.145300215203303
40
0.174509722229462
40
0.202088025553686
40
0.2296999083624
40
0.257342228370227
40
0.285011823573886
40
0.312705514331697
40
0.340420105470167
40
0.368152388414304
40
0.395899143338239
40
0.423657141332669
40
0.45142314658562
40
0.478697998738968
40
0.505974376530694
40
0.533249207240202
40
0.560519419825246
40
0.588277529031443
40
0.616024439111347
40
0.643756926690509
40
0.671471778835459
40
0.699165795195494
40
0.726341921829892
40
0.753491874941255
40
0.780612669782193
40
0.807701340985159
40
0.83530666208411
40
0.862872366170284
40
0.890395376733762
40
0.917872646058012
40
0.945301157077596
40
0.972677925187263
40
1
40
1
40
1
40
1
41
1
10
19.0000000000001
20
-9.45
30
0
41
1
10
18.9980916813847
20
-9.41376728566512
30
0
41
1
10
18.9943405481286
20
-9.34106721845059
30
0
41
1
10
18.9889162913458
20
-9.2314145626355
30
0
41
1
10
18.9836924866741
20
-9.1210939519287
30
0
41
1
10
18.9786722426033
20
-9.0101427199441
30
0
41
1
10
18.9738587340117
20
-8.89860287691696
30
0
41
1
10
18.9693428045894
20
-8.78865544804803
30
0
41
1
10
18.9651131264137
20
-8.68037125060596
30
0
41
1
10
18.9611582361456
20
-8.5738149500848
30
0
41
1
10
18.9573966762152
20
-8.46688349056439
30
0
41
1
10
18.9538304423486
20
-8.35961406617806
30
0
41
1
10
18.9504613991798
20
-8.25204429776181
30
0
41
1
10
18.947291275883
20
-8.14421215532346
30
0
41
1
10
18.9443216639136
20
-8.036155923842
30
0
41
1
10
18.9415540144208
20
-7.92791415329249
30
0
41
1
10
18.9389896362726
20
-7.81952562372063
30
0
41
1
10
18.9366437440283
20
-7.71167522672901
30
0
41
1
10
18.9345130903281
20
-7.60440316265201
30
0
41
1
10
18.9325942764837
20
-7.49774792137423
30
0
41
1
10
18.9308751591858
20
-7.39110061386641
30
0
41
1
10
18.9293470862504
20
-7.28385259650751
30
0
41
1
10
18.9280147415014
20
-7.17604255851355
30
0
41
1
10
18.926882715417
20
-7.06771088112096
30
0
41
1
10
18.9259591212226
20
-6.9595422561007
30
0
41
1
10
18.9252439408013
20
-6.85157538200411
30
0
41
1
10
18.924740019413
20
-6.74448906861341
30
0
41
1
10
18.9244427382074
20
-6.63831641154565
30
0
41
1
10
18.9243473788181
20
-6.53308847468535
30
0
41
1
10
18.9244515714918
20
-6.42820036721868
30
0
41
1
10
18.9247566611281
20
-6.32297764247136
30
0
41
1
10
18.925266538298
20
-6.21746354529839
30
0
41
1
10
18.9259849604017
20
-6.11170276873539
30
0
41
1
10
18.9269073161024
20
-6.00644068569925
30
0
41
1
10
18.9280322882159
20
-5.90171234567349
30
0
41
1
10
18.9293584088668
20
-5.79755304799951
30
0
41
1
10
18.9308841326474
20
-5.69399418215935
30
0
41
1
10
18.9320342872623
20
-5.62531266486114
30
0
41
1
10
18.9326422488061
20
-5.591077018562
30
0
0
SPLINE
5
17E
100
AcDbEntity
8
1
62
256
6
ByLayer
370
18
48
1
60
0
100
AcDbSpline
70
4
71
3
72
23
73
19
40
0
40
0
40
0
40
0
40
0.0625946494743099
40
0.125237237333869
40
0.18792111368037
40
0.250639601519938
40
0.313386000977862
40
0.37503261647068
40
0.436693296514338
40
0.498361653213309
40
0.560031293211933
40
0.622954160832575
40
0.685864914428156
40
0.748756769331547
40
0.811622952304852
40
0.874456705895203
40
0.937251292766472
40
1
40
1
40
1
40
1
41
1
10
18.0419794301531
20
-7.83770248157484
30
0
41
1
10
18.0413023847512
20
-7.87184070602539
30
0
41
1
10
18.0399221422704
20
-7.94011163509699
30
0
41
1
10
18.0377738891401
20
-8.04246875998624
30
0
41
1
10
18.0355475886425
20
-8.14477768153255
30
0
41
1
10
18.0332437749765
20
-8.2470075468961
30
0
41
1
10
18.0308772711913
20
-8.34851643492514
30
0
41
1
10
18.0284503274682
20
-8.44927479923665
30
0
41
1
10
18.0259652016651
20
-8.54925440024708
30
0
41
1
10
18.0234080223357
20
-8.64903060835045
30
0
41
1
10
18.0207616983817
20
-8.74924928265733
30
0
41
1
10
18.0180253756593
20
-8.84987297498067
30
0
41
1
10
18.0151982758478
20
-8.95086272138892
30
0
41
1
10
18.0122997422597
20
-9.05151054727637
30
0
41
1
10
18.0093307908602
20
-9.1517843203865
30
0
41
1
10
18.0062925058947
20
-9.25165144965894
30
0
41
1
10
18.0031859228734
20
-9.35108252336197
30
0
41
1
10
18.0010694321502
20
-9.41707921665014
30
0
41
1
10
18.0000000000001
20
-9.45
30
0
0
SPLINE
5
17F
100
AcDbEntity
8
1
62
256
6
ByLayer
370
18
48
1
60
0
100
AcDbSpline
70
4
71
2
72
6
73
3
40
0
40
0
40
0
40
1
40
1
40
1
41
1
10
15.6279435720042
20
-7.43972313676239
30
0
41
1
10
16.7437194559537
20
-7.53734087764358
30
0
41
1
10
17.8594945745419
20
-7.63495855156434
30
0
0
SPLINE
5
180
100
AcDbEntity
8
1
62
256
6
ByLayer
370
18
48
1
60
0
100
AcDbSpline
70
4
71
3
72
13
73
9
40
0
40
0
40
0
40
0
40
0.166229799571529
40
0.33248291616447
40
0.498712436408999
40
0.665800695990827
40
0.832913147302744
40
1
40
1
40
1
40
1
41
1
10
14.7067508417274
20
-1.11654877501644
30
0
41
1
10
14.7007154501707
20
-1.09408818702898
30
0
41
1
10
14.6883922475739
20
-1.04936571118804
30
0
41
1
10
14.6691153875991
20
-0.982875531271024
30
0
41
1
10
14.6491249077586
20
-0.916904869119624
30
0
41
1
10
14.6284922382762
20
-0.851486423612191
30
0
41
1
10
14.6072975840928
20
-0.786651662671075
30
0
41
1
10
14.59290003808
20
-0.743921185298548
30
0
41
1
10
14.5856279933721
20
-0.722678498269935
30
0
0
SPLINE
5
181
100
AcDbEntity
8
1
62
256
6
ByLayer
370
18
48
1
60
0
100
AcDbSpline
70
4
71
3
72
21
73
17
40
0
40
0
40
0
40
0
40
0.0738413544716077
40
0.147935508781452
40
0.222011066762326
40
0.295826974595455
40
0.369887599478773
40
0.444248452311402
40
0.518588859352489
40
0.592621489145503
40
0.66195024470858
40
0.731557544668566
40
0.801154046022138
40
0.870468016620523
40
0.935234436338695
40
1
40
1
40
1
40
1
41
1
10
14.8624200251471
20
-1.25
30
0
41
1
10
14.8572534183582
20
-1.24999837617893
30
0
41
1
10
14.846987356556
20
-1.2494880839546
30
0
41
1
10
14.8317920853769
20
-1.2471970121664
30
0
41
1
10
14.816941542167
20
-1.24338110396306
30
0
41
1
10
14.8025306096004
20
-1.23802192712971
30
0
41
1
10
14.7886691292157
20
-1.23106218865229
30
0
41
1
10
14.775428979257
20
-1.22255369795416
30
0
41
1
10
14.7629341834846
20
-1.21256673626492
30
0
41
1
10
14.7515520102467
20
-1.20139275783141
30
0
41
1
10
14.7413257531443
20
-1.18914778319243
30
0
41
1
10
14.7322126332274
20
-1.17603393483784
30
0
41
1
10
14.724051965321
20
-1.16189727689954
30
0
41
1
10
14.7170811609274
20
-1.14717556580774
30
0
41
1
10
14.7112835225366
20
-1.13202572303568
30
0
41
1
10
14.7081545277363
20
-1.12177710281586
30
0
41
1
10
14.7067508417266
20
-1.11654877501682
30
0
0
SPLINE
5
182
100
AcDbEntity
8
1
62
256
6
ByLayer
370
18
48
1
60
0
100
AcDbSpline
70
4
71
3
72
20
73
16
40
0
40
0
40
0
40
0
40
0.0688580520148351
40
0.137780928168187
40
0.206644311567122
40
0.277699270977058
40
0.34881615497491
40
0.419884320956528
40
0.491378636352217
40
0.562949097473602
40
0.634538701245234
40
0.706059146776346
40
0.804010227985262
40
0.902024133738704
40
1
40
1
40
1
40
1
41
1
10
15.7346946580505
20
-5.591077018562
30
0
41
1
10
15.7262628532342
20
-5.59107222558725
30
0
41
1
10
15.7094268853601
20
-5.59057619446676
30
0
41
1
10
15.6842419637217
20
-5.58835546960235
30
0
41
1
10
15.6589801518915
20
-5.58467000291482
30
0
41
1
10
15.633726690621
20
-5.57949248775075
30
0
41
1
10
15.6085626596776
20
-5.57287759225302
30
0
41
1
10
15.5837578613569
20
-5.56495100997245
30
0
41
1
10
15.5593623999287
20
-5.55578823864285
30
0
41
1
10
15.5353968112048
20
-5.54549109501157
30
0
41
1
10
15.5119327119576
20
-5.53418122374733
30
0
41
1
10
15.4861604767747
20
-5.52044878325632
30
0
41
1
10
15.4583110331332
20
-5.50398881414125
30
0
41
1
10
15.4286427703394
20
-5.48453787881105
30
0
41
1
10
15.4094466505816
20
-5.47082167490857
30
0
41
1
10
15.4000000000001
20
-5.46376473967924
30
0
0
SPLINE
5
183
100
AcDbEntity
8
1
62
256
6
ByLayer
370
18
48
1
60
0
100
AcDbSpline
70
4
71
3
72
71
73
67
40
0
40
0
40
0
40
0
40
0.0157145107921036
40
0.0314949031845007
40
0.0473394350418982
40
0.063246315706278
40
0.0792137068098149
40
0.0952397231721692
40
0.11040194847329
40
0.125612919357253
40
0.140870946281412
40
0.156174306089898
40
0.171521242982471
40
0.186909969539437
40
0.202338667801481
40
0.217805490403128
40
0.233308561758348
40
0.248845979296672
40
0.264137514943208
40
0.27945847146874
40
0.294806977759955
40
0.310181142582304
40
0.325859219601432
40
0.341559881815748
40
0.357281077368872
40
0.37302073876602
40
0.388776784463618
40
0.404265400430709
40
0.419765807017838
40
0.435276001756199
40
0.450793975180597
40
0.466634562006626
40
0.482479005250712
40
0.498325157426868
40
0.514170870273248
40
0.53001399648069
40
0.545852391418061
40
0.561683914850997
40
0.577471922928107
40
0.593248852171243
40
0.609012599522839
40
0.624761072959808
40
0.640492193111739
40
0.655923517109813
40
0.6713341683244
40
0.686722221236594
40
0.70208576780782
40
0.7177356269578
40
0.733356016636529
40
0.748944974401701
40
0.764500562376741
40
0.780020868559242
40
0.79550400808129
40
0.810948124419933
40
0.826351390556183
40
0.841712010081157
40
0.857028218248072
40
0.872298282969025
40
0.887520505755613
40
0.902693222602656
40
0.917814804814413
40
0.934387548806719
40
0.950894425718085
40
0.967333422145891
40
0.98370258053165
40
1
40
1
40
1
40
1
41
1
10
13.4576907033453
20
-7.24985061377014
30
0
41
1
10
13.4822742113095
20
-7.25200139202671
30
0
41
1
10
13.5312279686591
20
-7.25628429083179
30
0
41
1
10
13.6038657923826
20
-7.2626392769508
30
0
41
1
10
13.6758195369088
20
-7.26893441389508
30
0
41
1
10
13.7470515200378
20
-7.27516640489933
30
0
41
1
10
13.8175213720156
20
-7.28133171806774
30
0
41
1
10
13.8858556644208
20
-7.28731019398326
30
0
41
1
10
13.9520775164315
20
-7.29310385531189
30
0
41
1
10
14.016213627368
20
-7.29871503794147
30
0
41
1
10
14.0795358028998
20
-7.3042550104503
30
0
41
1
10
14.1420113909428
20
-7.30972091615118
30
0
41
1
10
14.2036079965149
20
-7.31510992085042
30
0
41
1
10
14.2642935515558
20
-7.32041921895627
30
0
41
1
10
14.3240363557699
20
-7.32564603705225
30
0
41
1
10
14.3828051270706
20
-7.33078763831042
30
0
41
1
10
14.4405690430254
20
-7.33584132611733
30
0
41
1
10
14.4969590935389
20
-7.34077481627291
30
0
41
1
10
14.5519687972777
20
-7.34558754173397
30
0
41
1
10
14.6055933137669
20
-7.35027907901384
30
0
41
1
10
14.6581359788377
20
-7.35487596655897
30
0
41
1
10
14.7098828583222
20
-7.35940323188671
30
0
41
1
10
14.7607832430414
20
-7.36385643851874
30
0
41
1
10
14.8107858365152
20
-7.36823109859459
30
0
41
1
10
14.8595610645158
20
-7.37249837810554
30
0
41
1
10
14.9070842628195
20
-7.37665611921161
30
0
41
1
10
14.9530560358257
20
-7.38067812819184
30
0
41
1
10
14.9974809509143
20
-7.38456480464019
30
0
41
1
10
15.0403652677457
20
-7.388316696206
30
0
41
1
10
15.0819564652761
20
-7.39195545449237
30
0
41
1
10
15.1225098891903
20
-7.39550341935202
30
0
41
1
10
15.1619756509506
20
-7.39895622610346
30
0
41
1
10
15.200303736395
20
-7.4023094990745
30
0
41
1
10
15.2372127478046
20
-7.40553861915479
30
0
41
1
10
15.2726871443206
20
-7.40864222669537
30
0
41
1
10
15.3067125671485
20
-7.41161906546448
30
0
41
1
10
15.3392758537029
20
-7.41446798388514
30
0
41
1
10
15.370342466607
20
-7.41718596032839
30
0
41
1
10
15.3999054474179
20
-7.41977238600938
30
0
41
1
10
15.4279591304853
20
-7.42222676524792
30
0
41
1
10
15.4545168859138
20
-7.42455026777662
30
0
41
1
10
15.4795717793269
20
-7.42674228691611
30
0
41
1
10
15.5029782359408
20
-7.42879008652314
30
0
41
1
10
15.5247629059336
20
-7.43069599818617
30
0
41
1
10
15.5449536569432
20
-7.43246246000758
30
0
41
1
10
15.5636800870398
20
-7.43410081034934
30
0
41
1
10
15.5810585989982
20
-7.43562123313465
30
0
41
1
10
15.5970549081615
20
-7.43702072884469
30
0
41
1
10
15.6116355498522
20
-7.43829636969957
30
0
41
1
10
15.6246957910108
20
-7.43943899274386
30
0
41
1
10
15.636239734066
20
-7.44044895689357
30
0
41
1
10
15.6462726685968
20
-7.44132672492691
30
0
41
1
10
15.6548010492508
20
-7.44207286155238
30
0
41
1
10
15.6618324742485
20
-7.4426880315281
30
0
41
1
10
15.6673756612135
20
-7.44317299754735
30
0
41
1
10
15.6714404213085
20
-7.44352861797562
30
0
41
1
10
15.674037631613
20
-7.44375584443405
30
0
41
1
10
15.6751792056473
20
-7.44385571922063
30
0
41
1
10
15.6748780631461
20
-7.44382937266566
30
0
41
1
10
15.673148095459
20
-7.44367802010478
30
0
41
1
10
15.6698999115294
20
-7.44339384083389
30
0
41
1
10
15.6649817768084
20
-7.4429635598001
30
0
41
1
10
15.6582393348138
20
-7.4423736725611
30
0
41
1
10
15.6498506272506
20
-7.44163975574768
30
0
41
1
10
15.6398398242826
20
-7.4407639239752
30
0
41
1
10
15.6320851932135
20
-7.44008548166682
30
0
41
1
10
15.6279435720042
20
-7.43972313676239
30
0
0
SPLINE
5
184
100
AcDbEntity
8
1
62
256
6
ByLayer
370
18
48
1
60
0
100
AcDbSpline
70
4
71
3
72
19
73
15
40
0
40
0
40
0
40
0
40
0.0828570193055122
40
0.16572497592326
40
0.248592997464494
40
0.331450105313707
40
0.414306595630624
40
0.497173910498922
40
0.580041259581146
40
0.662897796559507
40
0.747167674152992
40
0.831448882646638
40
0.915730104367278
40
1
40
1
40
1
40
1
41
1
10
15.6072186417575
20
-6.1
30
0
41
1
10
15.6083959967672
20
-6.13649125030879
30
0
41
1
10
15.6106362841183
20
-6.20959172995587
30
0
41
1
10
15.6136447552113
20
-6.3195981682481
30
0
41
1
10
15.6163259801643
20
-6.4299166612055
30
0
41
1
10
15.6186955803037
20
-6.54051593258451
30
0
41
1
10
15.6207717026583
20
-6.65137083709422
30
0
41
1
10
15.6225657915329
20
-6.7624569748235
30
0
41
1
10
15.6240890867185
20
-6.87374053433171
30
0
41
1
10
15.625359895077
20
-6.98582116551926
30
0
41
1
10
15.6263844202141
20
-7.09867803401045
30
0
41
1
10
15.6271629095747
20
-7.21228710803076
30
0
41
1
10
15.6276939266921
20
-7.3259815103791
30
0
41
1
10
15.6278873632072
20
-7.40180462912675
30
0
41
1
10
15.6279435719976
20
-7.4397231367624
30
0
0
SPLINE
5
185
100
AcDbEntity
8
1
62
256
6
ByLayer
370
18
48
1
60
0
100
AcDbSpline
70
4
71
3
72
25
73
21
40
0
40
0
40
0
40
0
40
0.0567924421916239
40
0.113787579505493
40
0.170782443015973
40
0.227574510506435
40
0.28437085026133
40
0.341370725018038
40
0.398370150133995
40
0.455165874544235
40
0.511877190220782
40
0.56879209302425
40
0.62570664335398
40
0.682417476658496
40
0.738994433598105
40
0.795773927894115
40
0.852553528224431
40
0.90913063027384
40
0.954565296087367
40
1
40
1
40
1
40
1
41
1
10
17.8594945745419
20
-7.63495855156434
30
0
41
1
10
17.8651057818363
20
-7.6354544545082
30
0
41
1
10
17.8762615653036
20
-7.6369111976545
30
0
41
1
10
17.8927966008365
20
-7.64051067374827
30
0
41
1
10
17.9089664608106
20
-7.64546489990316
30
0
41
1
10
17.924649556791
20
-7.65175069461147
30
0
41
1
10
17.9397310423916
20
-7.65936668914397
30
0
41
1
10
17.9541371692716
20
-7.6682307192611
30
0
41
1
10
17.9677558475046
20
-7.67826171563491
30
0
41
1
10
17.9804632522717
20
-7.68938221346069
30
0
41
1
10
17.9921549820099
20
-7.70155337916626
30
0
41
1
10
18.0027900558284
20
-7.71467048073018
30
0
41
1
10
18.012296036167
20
-7.72862618200474
30
0
41
1
10
18.0205794274117
20
-7.74330190642567
30
0
41
1
10
18.0275563210608
20
-7.75862540391593
30
0
41
1
10
18.0332246247515
20
-7.7744837793148
30
0
41
1
10
18.0375558882126
20
-7.79075685889576
30
0
41
1
10
18.0403065233878
20
-7.80622908415284
30
0
41
1
10
18.0417447244084
20
-7.82074653376119
30
0
41
1
10
18.0420280007238
20
-7.82971963207629
30
0
41
1
10
18.0420180769001
20
-7.83421743803116
30
0
0
SPLINE
5
186
100
AcDbEntity
8
1
62
256
6
ByLayer
370
18
48
1
60
0
100
AcDbSpline
70
4
71
3
72
26
73
22
40
0
40
0
40
0
40
0
40
0.0449495996275961
40
0.0911184489829635
40
0.138510770249597
40
0.187120670720056
40
0.236927685751725
40
0.28789213463125
40
0.33694967805008
40
0.386905315555293
40
0.437661335457416
40
0.48909694630426
40
0.541069438352441
40
0.59950581202467
40
0.658161071497088
40
0.71677170314167
40
0.775067805663445
40
0.832782670331483
40
0.889661761000121
40
0.945470440212999
40
1
40
1
40
1
40
1
41
1
10
18.1577375097032
20
-7.84434157655108
30
0
41
1
10
18.1577365727716
20
-7.8395577748135
30
0
41
1
10
18.1574022190689
20
-7.82989865693764
30
0
41
1
10
18.1558622458469
20
-7.81528597459445
30
0
41
1
10
18.1532169865025
20
-7.8005102261266
30
0
41
1
10
18.1494170136611
20
-7.78568925166499
30
0
41
1
10
18.144432419574
20
-7.77096645411949
30
0
41
1
10
18.1383751104465
20
-7.75677335347968
30
0
41
1
10
18.131334117742
20
-7.74322584449975
30
0
41
1
10
18.1234099155407
20
-7.73041829506714
30
0
41
1
10
18.1145173035968
20
-7.71821311561309
30
0
41
1
10
18.1047240295838
20
-7.70672410824932
30
0
41
1
10
18.0936998519953
20
-7.69563669673066
30
0
41
1
10
18.0814495191932
20
-7.68517404100795
30
0
41
1
10
18.0680232340792
20
-7.67556571608712
30
0
41
1
10
18.0540181539875
20
-7.66724997193085
30
0
41
1
10
18.0396025084523
20
-7.66026468756202
30
0
41
1
10
18.0249426116341
20
-7.65461834066977
30
0
41
1
10
18.0102007613811
20
-7.65029216487781
30
0
41
1
10
17.9955191788847
20
-7.6472432711305
30
0
41
1
10
17.9857545894866
20
-7.64600419297115
30
0
41
1
10
17.9809049996072
20
-7.64558058739141
30
0
0
SPLINE
5
187
100
AcDbEntity
8
1
62
256
6
ByLayer
370
18
48
1
60
0
100
AcDbSpline
70
4
71
3
72
19
73
15
40
0
40
0
40
0
40
0
40
0.0872314032739494
40
0.174463523153826
40
0.264247978579803
40
0.354033066718212
40
0.441255789858724
40
0.528478853224294
40
0.618202776056847
40
0.707926809356668
40
0.780244803565621
40
0.852562750210206
40
0.926281436537627
40
1
40
1
40
1
40
1
41
1
10
9.24384355472486
20
-0.384658542838351
30
0
41
1
10
9.24707078662081
20
-0.380090509020302
30
0
41
1
10
9.25387422838574
20
-0.371262213700175
30
0
41
1
10
9.26527029695582
20
-0.358780984534596
30
0
41
1
10
9.27778914524967
20
-0.347220529916093
30
0
41
1
10
9.29123949214062
20
-0.336777972482105
30
0
41
1
10
9.3053799884206
20
-0.327612040067399
30
0
41
1
10
9.32022039296706
20
-0.319654509111429
30
0
41
1
10
9.33582448551104
20
-0.312923206936014
30
0
41
1
10
9.35104223871313
20
-0.307846307627789
30
0
41
1
10
9.36552563612811
20
-0.304235870416888
30
0
41
1
10
9.3792200451482
20
-0.301807242958771
30
0
41
1
10
9.39314885326506
20
-0.30033178611704
30
0
41
1
10
9.40252932182017
20
-0.300000914677783
30
0
41
1
10
9.40723372658299
20
-0.299999999999997
30
0
0
SPLINE
5
188
100
AcDbEntity
8
1
62
256
6
ByLayer
370
18
48
1
60
0
100
AcDbSpline
70
4
71
3
72
19
73
15
40
0
40
0
40
0
40
0
40
0.0823894771405795
40
0.16480041775878
40
0.247211584914941
40
0.32960137105124
40
0.411989042546187
40
0.494397795842784
40
0.576806641018368
40
0.659194437834878
40
0.744384257409491
40
0.829597344575004
40
0.91481032543165
40
1
40
1
40
1
40
1
41
1
10
8.86564441473129
20
-1.11654877501644
30
0
41
1
10
8.87320654025766
20
-1.09511881432761
30
0
41
1
10
8.88881211870462
20
-1.05244384587297
30
0
41
1
10
8.91366665179051
20
-0.988986401744444
30
0
41
1
10
8.93994612106757
20
-0.926128382573999
30
0
41
1
10
8.96763665978099
20
-0.863902753407157
30
0
41
1
10
8.99672855600274
20
-0.80233568627385
30
0
41
1
10
9.02720735459047
20
-0.7414489985388
30
0
41
1
10
9.05905531469467
20
-0.681275255745628
30
0
41
1
10
9.09263144847112
20
-0.621174190082398
30
0
41
1
10
9.12797977242785
20
-0.561199724006832
30
0
41
1
10
9.16513695820788
20
-0.501407757224233
30
0
41
1
10
9.20369085490842
20
-0.442494470968716
30
0
41
1
10
9.23030719693396
20
-0.403834698169385
30
0
41
1
10
9.24384355472486
20
-0.384658542838351
30
0
0
SPLINE
5
189
100
AcDbEntity
8
1
62
256
6
ByLayer
370
18
48
1
60
0
100
AcDbSpline
70
4
71
3
72
21
73
17
40
0
40
0
40
0
40
0
40
0.0715433360116463
40
0.143337606089376
40
0.21512572098557
40
0.286660633993596
40
0.35828965419523
40
0.430188072183485
40
0.502076892332516
40
0.573692775019619
40
0.643403868379414
40
0.713382975006622
40
0.783353809541282
40
0.853053579156552
40
0.926527463608343
40
1
40
1
40
1
40
1
41
1
10
8.6770409668736
20
-1.25
30
0
41
1
10
8.68281108230758
20
-1.24999588731867
30
0
41
1
10
8.6943326020557
20
-1.24949140278761
30
0
41
1
10
8.71156221492893
20
-1.24723044234781
30
0
41
1
10
8.72856412614312
20
-1.24349818838407
30
0
41
1
10
8.74521733220922
20
-1.23829802972839
30
0
41
1
10
8.76140024973526
20
-1.2316054690315
30
0
41
1
10
8.77701678329726
20
-1.22348713734252
30
0
41
1
10
8.79192374846144
20
-1.21401343924295
30
0
41
1
10
8.80585248387281
20
-1.20333723345201
30
0
41
1
10
8.81869905046575
20
-1.19151766082827
30
0
41
1
10
8.8304289519991
20
-1.17869329664342
30
0
41
1
10
8.84105604243087
20
-1.16486905163227
30
0
41
1
10
8.85062689089483
20
-1.14988554702976
30
0
41
1
10
8.85895913721665
20
-1.13377277290909
30
0
41
1
10
8.86358405768765
20
-1.12237618573352
30
0
41
1
10
8.86564441473165
20
-1.11654877501669
30
0
0
SPLINE
5
18A
100
AcDbEntity
8
1
62
256
6
ByLayer
370
18
48
1
60
0
100
AcDbSpline
70
4
71
3
72
12
73
8
40
0
40
0
40
0
40
0
40
0.186115217084042
40
0.372417278329901
40
0.55896420051627
40
0.779218504769837
40
1
40
1
40
1
40
1
41
1
10
7.92500000000006
20
-0.854269987360445
30
0
41
1
10
7.92500308598263
20
-0.870133937650579
30
0
41
1
10
7.92509967146248
20
-0.902010439585839
30
0
41
1
10
7.92552947025305
20
-0.950255439195728
30
0
41
1
10
7.92624572343259
20
-1.00186432645363
30
0
41
1
10
7.92727771809518
20
-1.05694942587889
30
0
41
1
10
7.92816761518877
20
-1.09600961727348
30
0
41
1
10
7.92865804629393
20
-1.11565164925285
30
0
0
SPLINE
5
18B
100
AcDbEntity
8
1
62
256
6
ByLayer
370
18
48
1
60
0
100
AcDbSpline
70
4
71
3
72
23
73
19
40
0
40
0
40
0
40
0
40
0.0579623009242544
40
0.116156680946494
40
0.174380175257617
40
0.232382332715252
40
0.29003603122442
40
0.347855284080206
40
0.405700025709803
40
0.463388578592379
40
0.528319673231507
40
0.593414967448191
40
0.658536785258303
40
0.723504137162192
40
0.792547615276643
40
0.861731837752762
40
0.930933158963927
40
1
40
1
40
1
40
1
41
1
10
7.92865804629393
20
-1.11565164925285
30
0
41
1
10
7.92878405975294
20
-1.12078609500352
30
0
41
1
10
7.92907480285695
20
-1.13083491447241
30
0
41
1
10
7.9296232122556
20
-1.14523315578383
30
0
41
1
10
7.93029305215899
20
-1.15883613490919
30
0
41
1
10
7.93109004707802
20
-1.17153146863843
30
0
41
1
10
7.93202632548228
20
-1.18325560117668
30
0
41
1
10
7.93310457539001
20
-1.19402540118918
30
0
41
1
10
7.93432947216247
20
-1.2038390561818
30
0
41
1
10
7.93576302660411
20
-1.21304292759446
30
0
41
1
10
7.93743958496562
20
-1.2214798051208
30
0
41
1
10
7.93938166865427
20
-1.22903269240326
30
0
41
1
10
7.94152116532894
20
-1.23539381834084
30
0
41
1
10
7.94390595382576
20
-1.2406872850222
30
0
41
1
10
7.94655590053253
20
-1.24484738598971
30
0
41
1
10
7.94947508045773
20
-1.24783914213305
30
0
41
1
10
7.95259969764618
20
-1.24960970685661
30
0
41
1
10
7.95481279212659
20
-1.25000244838208
30
0
41
1
10
7.95595133484097
20
-1.25000000000052
30
0
0
SPLINE
5
18C
100
AcDbEntity
8
1
62
256
6
ByLayer
370
18
48
1
60
0
100
AcDbSpline
70
4
71
3
72
22
73
18
40
0
40
0
40
0
40
0
40
0.0711580263015387
40
0.142557868655963
40
0.21400816785768
40
0.285347671372605
40
0.356454922269274
40
0.427720955437848
40
0.499218909696264
40
0.570671744560218
40
0.641876043794423
40
0.701524953376931
40
0.761374636732202
40
0.821193060048683
40
0.880799194657722
40
0.940402336826625
40
1
40
1
40
1
40
1
41
1
10
8.6770409668736
20
-1.25
30
0
41
1
10
8.68226606553952
20
-1.2500018327902
30
0
41
1
10
8.69275196527126
20
-1.24958406654371
30
0
41
1
10
8.70858041917274
20
-1.24770050225145
30
0
41
1
10
8.72441029142475
20
-1.24452203196469
30
0
41
1
10
8.74013533020719
20
-1.24001937918641
30
0
41
1
10
8.75567491663305
20
-1.23415106266801
30
0
41
1
10
8.77094897600862
20
-1.22684726442913
30
0
41
1
10
8.78585066730601
20
-1.21809184830862
30
0
41
1
10
8.80022072957076
20
-1.20788744207222
30
0
41
1
10
8.81315697563126
20
-1.19685833813552
30
0
41
1
10
8.82464159023675
20
-1.18523967179113
30
0
41
1
10
8.8347398488153
20
-1.1733115447499
30
0
41
1
10
8.8440354051269
20
-1.16042752303774
30
0
41
1
10
8.85239347195608
20
-1.14664545516925
30
0
41
1
10
8.85969743953467
20
-1.13201488513776
30
0
41
1
10
8.86378737563335
20
-1.12178857806723
30
0
41
1
10
8.86564441473444
20
-1.11654877501976
30
0
0
SPLINE
5
18D
100
AcDbEntity
8
1
62
256
6
ByLayer
370
18
48
1
60
0
100
AcDbSpline
70
4
71
3
72
19
73
15
40
0
40
0
40
0
40
0
40
0.0824240556722145
40
0.16486973495226
40
0.24731648167725
40
0.329741993334648
40
0.412159083501665
40
0.494596307320972
40
0.577033671458546
40
0.659450953015335
40
0.744577335762481
40
0.82972647210627
40
0.914874766151235
40
1
40
1
40
1
40
1
41
1
10
8.8656444147313
20
-1.11654877501644
30
0
41
1
10
8.87323177894068
20
-1.0950485101588
30
0
41
1
10
8.88888096990123
20
-1.05225688586653
30
0
41
1
10
8.91377995820765
20
-0.988702571117287
30
0
41
1
10
8.94008415810938
20
-0.925806824339982
30
0
41
1
10
8.96778030736663
20
-0.863590799839309
30
0
41
1
10
8.996860106714
20
-0.802064912170144
30
0
41
1
10
9.02731549208182
20
-0.741237627177624
30
0
41
1
10
9.05913624625768
20
-0.681126248968321
30
0
41
1
10
9.09267524141941
20
-0.621099821791675
30
0
41
1
10
9.12798153181117
20
-0.561197052172511
30
0
41
1
10
9.16510211049907
20
-0.501461090678625
30
0
41
1
10
9.20364831415483
20
-0.442556168908084
30
0
41
1
10
9.23028868429333
20
-0.403861552552702
30
0
41
1
10
9.24384355472486
20
-0.38465854283835
30
0
0
SPLINE
5
18E
100
AcDbEntity
8
1
62
256
6
ByLayer
370
18
48
1
60
0
100
AcDbSpline
70
4
71
3
72
19
73
15
40
0
40
0
40
0
40
0
40
0.0884758495692943
40
0.176955532301348
40
0.26808484564457
40
0.359217207486338
40
0.447650499613868
40
0.536085235153959
40
0.626928089336475
40
0.717771244936874
40
0.787743636159922
40
0.857715786090022
40
0.928858148896985
40
1
40
1
40
1
40
1
41
1
10
9.24384355472486
20
-0.38465854283835
30
0
41
1
10
9.24716227870554
20
-0.379964430034553
30
0
41
1
10
9.25415011041706
20
-0.370915583783857
30
0
41
1
10
9.26583871123629
20
-0.358198460529878
30
0
41
1
10
9.27864710189094
20
-0.346486330471625
30
0
41
1
10
9.2923705360537
20
-0.335972189275701
30
0
41
1
10
9.30675667807274
20
-0.326799658115533
30
0
41
1
10
9.32181197506444
20
-0.318890621412115
30
0
41
1
10
9.33760958566064
20
-0.312247073489172
30
0
41
1
10
9.35279851782809
20
-0.307346267626356
30
0
41
1
10
9.36702907631791
20
-0.303932856032597
30
0
41
1
10
9.38023315752771
20
-0.301678733274888
30
0
41
1
10
9.39365494938422
20
-0.300308282516411
30
0
41
1
10
9.40269705839551
20
-0.300001160717393
30
0
41
1
10
9.40723372658299
20
-0.299999999999998
30
0
0
SPLINE
5
18F
100
AcDbEntity
8
1
62
256
6
ByLayer
370
18
48
1
60
0
100
AcDbSpline
70
4
71
3
72
19
73
15
40
0
40
0
40
0
40
0
40
0.0909670066728972
40
0.181935334761767
40
0.275552418482735
40
0.369169838265963
40
0.460131848590096
40
0.551092843767856
40
0.644728140177144
40
0.738360604181487
40
0.803251676825516
40
0.868141758664754
40
0.934071531158808
40
1
40
1
40
1
40
1
41
1
10
10.6060916372517
20
-0.299999999999998
30
0
41
1
10
10.6119343171261
20
-0.300002793435376
30
0
41
1
10
10.6235576185154
20
-0.300511013423265
30
0
41
1
10
10.6410295507783
20
-0.302809720412596
30
0
41
1
10
10.6583620804119
20
-0.306676956538254
30
0
41
1
10
10.6752762436688
20
-0.312069253379073
30
0
41
1
10
10.6914959665477
20
-0.318874613135097
30
0
41
1
10
10.7070894970882
20
-0.327070779531164
30
0
41
1
10
10.7220745614885
20
-0.336735606569653
30
0
41
1
10
10.7348616196932
20
-0.346710642545719
30
0
41
1
10
10.7455094433166
20
-0.356420421283834
30
0
41
1
10
10.7543150816822
20
-0.365523768619091
30
0
41
1
10
10.7626002442384
20
-0.375259508403057
30
0
41
1
10
10.7677350009873
20
-0.382146870034981
30
0
41
1
10
10.7702007873474
20
-0.38568382942531
30
0
0
SPLINE
5
190
100
AcDbEntity
8
1
62
256
6
ByLayer
370
18
48
1
60
0
100
AcDbSpline
70
4
71
3
72
19
73
15
40
0
40
0
40
0
40
0
40
0.0824429168457161
40
0.164906440946195
40
0.247370651245818
40
0.329814504050112
40
0.412254006815193
40
0.494713382750817
40
0.57717259198337
40
0.659611867371201
40
0.744698035433046
40
0.829807401453032
40
0.914915525713185
40
1
40
1
40
1
40
1
41
1
10
10.7702007873474
20
-0.38568382942531
30
0
41
1
10
10.7831353336151
20
-0.404253574830739
30
0
41
1
10
10.8085683055865
20
-0.441659106355213
30
0
41
1
10
10.8454039195757
20
-0.498562827074416
30
0
41
1
10
10.8809157226765
20
-0.556233996055592
30
0
41
1
10
10.9150941040588
20
-0.614652100513336
30
0
41
1
10
10.9479341038419
20
-0.673805540651776
30
0
41
1
10
10.9794320883739
20
-0.733684116900169
30
0
41
1
10
11.0095782058308
20
-0.794269814822426
30
0
41
1
10
11.0386693731846
20
-0.856199303187815
30
0
41
1
10
11.0666461818433
20
-0.919490726826881
30
0
41
1
10
11.0934468248332
20
-0.98415813519232
30
0
41
1
10
11.1187647645844
20
-1.04951782358672
30
0
41
1
10
11.1346402639816
20
-1.09353397644769
30
0
41
1
10
11.1423275899281
20
-1.11565164925285
30
0
0
SPLINE
5
191
100
AcDbEntity
8
1
62
256
6
ByLayer
370
18
48
1
60
0
100
AcDbSpline
70
4
71
3
72
23
73
19
40
0
40
0
40
0
40
0
40
0.0579623009242532
40
0.116156680946494
40
0.174380175257616
40
0.232382332715251
40
0.290036031224417
40
0.347855284080206
40
0.4057000257098
40
0.463388578592378
40
0.528319673231505
40
0.593414967448189
40
0.658536785258302
40
0.723504137162191
40
0.792547615276642
40
0.861731837752761
40
0.930933158963926
40
1
40
1
40
1
40
1
41
1
10
11.1423275899281
20
-1.11565164925285
30
0
41
1
10
11.1441232348299
20
-1.12078609500352
30
0
41
1
10
11.1480819196374
20
-1.13083491447241
30
0
41
1
10
11.1551643369002
20
-1.14523315578383
30
0
41
1
10
11.1632231623329
20
-1.15883613490919
30
0
41
1
10
11.1721519420843
20
-1.17153146863843
30
0
41
1
10
11.1818604950678
20
-1.18325560117668
30
0
41
1
10
11.1922311319006
20
-1.19402540118918
30
0
41
1
10
11.2031765816893
20
-1.2038390561818
30
0
41
1
10
11.2150758430078
20
-1.21304292759445
30
0
41
1
10
11.2279198529411
20
-1.2214798051208
30
0
41
1
10
11.2416665615225
20
-1.22903269240326
30
0
41
1
10
11.2557134232981
20
-1.23539381834084
30
0
41
1
10
11.2702593536862
20
-1.2406872850222
30
0
41
1
10
11.2852444016998
20
-1.24484738598971
30
0
41
1
10
11.300608476864
20
-1.24783914213305
30
0
41
1
10
11.3159779644329
20
-1.24960970685661
30
0
41
1
10
11.3261655240764
20
-1.25000244838208
30
0
41
1
10
11.3312451935292
20
-1.25000000000052
30
0
0
SPLINE
5
192
100
AcDbEntity
8
1
62
256
6
ByLayer
370
18
48
1
60
0
100
AcDbSpline
70
4
71
3
72
22
73
18
40
0
40
0
40
0
40
0
40
0.0711580263015345
40
0.14255786865596
40
0.214008167857678
40
0.285347671372597
40
0.356454922269265
40
0.427720955437843
40
0.499218909696257
40
0.57067174456021
40
0.641876043794418
40
0.701524953376923
40
0.7613746367322
40
0.821193060048675
40
0.880799194657716
40
0.940402336826622
40
1
40
1
40
1
40
1
41
1
10
12.0458758823133
20
-1.25
30
0
41
1
10
12.0470067796015
20
-1.2500018327902
30
0
41
1
10
12.0492025969556
20
-1.24958406654371
30
0
41
1
10
12.0522906748606
20
-1.24770050225145
30
0
41
1
10
12.0551673784591
20
-1.2445220319647
30
0
41
1
10
12.057819085207
20
-1.24001937918641
30
0
41
1
10
12.0602368525149
20
-1.23415106266801
30
0
41
1
10
12.0624111103371
20
-1.22684726442913
30
0
41
1
10
12.0643546725743
20
-1.21809184830862
30
0
41
1
10
12.0660690119466
20
-1.20788744207222
30
0
41
1
10
12.0674734419001
20
-1.19685833813552
30
0
41
1
10
12.0686097005945
20
-1.18523967179113
30
0
41
1
10
12.0695310940396
20
-1.1733115447499
30
0
41
1
10
12.0703140230433
20
-1.16042752303774
30
0
41
1
10
12.070964430298
20
-1.14664545516925
30
0
41
1
10
12.0714889785654
20
-1.13201488513776
30
0
41
1
10
12.0717663341732
20
-1.12178857806723
30
0
41
1
10
12.0718860050908
20
-1.11654877501976
30
0
0
SPLINE
5
193
100
AcDbEntity
8
1
62
256
6
ByLayer
370
18
48
1
60
0
100
AcDbSpline
70
4
71
3
72
11
73
7
40
0
40
0
40
0
40
0
40
0.280858909215775
40
0.56095686991231
40
0.780617710372236
40
1
40
1
40
1
40
1
41
1
10
12.0718860050887
20
-1.11654877501644
30
0
41
1
10
12.0724245914448
20
-1.09356869400772
30
0
41
1
10
12.0733673869711
20
-1.04791623491747
30
0
41
1
10
12.0743407164534
20
-0.985059884562377
30
0
41
1
10
12.074883585726
20
-0.927729006624697
30
0
41
1
10
12.0749960460311
20
-0.893041807883308
30
0
41
1
10
12.0750000000001
20
-0.875787142402551
30
0
0
SPLINE
5
194
100
AcDbEntity
8
1
62
256
6
ByLayer
370
18
48
1
60
0
100
AcDbSpline
70
4
71
3
72
11
73
7
40
0
40
0
40
0
40
0
40
0.282603599367347
40
0.563247506412879
40
0.782297207842089
40
1
40
1
40
1
40
1
41
1
10
8.35410313683033
20
-0.121529653685547
30
0
41
1
10
8.35333871716087
20
-0.138388063432741
30
0
41
1
10
8.35202694362921
20
-0.171937188032684
30
0
41
1
10
8.35078553069828
20
-0.218397404423313
30
0
41
1
10
8.35013330856065
20
-0.260881830635088
30
0
41
1
10
8.35000080078583
20
-0.286677657130294
30
0
41
1
10
8.35
20
-0.299519052839037
30
0
0
SPLINE
5
195
100
AcDbEntity
8
1
62
256
6
ByLayer
370
18
48
1
60
0
100
AcDbSpline
70
4
71
3
72
14
73
10
40
0
40
0
40
0
40
0
40
0.136461316188007
40
0.274243661156461
40
0.413251537920997
40
0.553386321249084
40
0.701292217113421
40
0.850204099617009
40
1
40
1
40
1
40
1
41
1
10
8.35410313683033
20
-0.121529653685548
30
0
41
1
10
8.3550694190037
20
-0.100608896026098
30
0
41
1
10
8.35733226228045
20
-0.0584885550190863
30
0
41
1
10
8.3617261466298
20
0.0052216877529698
30
0
41
1
10
8.36712400186518
20
0.0697153106172728
30
0
41
1
10
8.37362760624664
20
0.135982739756605
30
0
41
1
10
8.38128499980127
20
0.203986981548555
30
0
41
1
10
8.39014542013739
20
0.27368818848817
30
0
41
1
10
8.39674589957622
20
0.320419892631802
30
0
41
1
10
8.40022729151335
20
0.343884845288362
30
0
0
SPLINE
5
196
100
AcDbEntity
8
1
62
256
6
ByLayer
370
18
48
1
60
0
100
AcDbSpline
70
4
71
3
72
23
73
19
40
0
40
0
40
0
40
0
40
0.0620731559092885
40
0.124403646073802
40
0.186956245930499
40
0.249694962106564
40
0.312583150813105
40
0.374457976517188
40
0.436405541966479
40
0.498390008171687
40
0.560375409137965
40
0.623589324491515
40
0.68672867583723
40
0.74975564407636
40
0.812632810114691
40
0.875323284819377
40
0.937790834373061
40
1
40
1
40
1
40
1
41
1
10
8.40022729151335
20
0.343884845288362
30
0
41
1
10
8.40484692990903
20
0.343525063331911
30
0
41
1
10
8.4147269977314
20
0.342848042605671
30
0
41
1
10
8.4314561625037
20
0.341962718738316
30
0
41
1
10
8.45011317700846
20
0.341208881810959
30
0
41
1
10
8.47068521708483
20
0.340589080268369
30
0
41
1
10
8.49301589194358
20
0.340108450419203
30
0
41
1
10
8.51703818821512
20
0.339765848668227
30
0
41
1
10
8.54268004676408
20
0.339559633245437
30
0
41
1
10
8.5700454077059
20
0.339488469269488
30
0
41
1
10
8.59928508196706
20
0.339553042404281
30
0
41
1
10
8.6303854409024
20
0.33975635819025
30
0
41
1
10
8.6633244899222
20
0.340100936508692
30
0
41
1
10
8.69782593742225
20
0.340584155245359
30
0
41
1
10
8.73381759830893
20
0.341204274337008
30
0
41
1
10
8.77122088126023
20
0.341959031472802
30
0
41
1
10
8.80995936903658
20
0.342845863964155
30
0
41
1
10
8.83666636678822
20
0.343524274382941
30
0
41
1
10
8.85022729151353
20
0.343884845288392
30
0
0
SPLINE
5
197
100
AcDbEntity
8
1
62
256
6
ByLayer
370
18
48
1
60
0
100
AcDbSpline
70
4
71
3
72
14
73
10
40
0
40
0
40
0
40
0
40
0.143005351944033
40
0.285210312173035
40
0.426508661698769
40
0.566796218042074
40
0.712569003803285
40
0.857006952582729
40
1
40
1
40
1
40
1
41
1
10
8.85022729151353
20
0.343884845288392
30
0
41
1
10
8.85995459072169
20
0.321483789358695
30
0
41
1
10
8.87964878314207
20
0.276861210290321
30
0
41
1
10
8.909971350851
20
0.210286153808186
30
0
41
1
10
8.94097762526287
20
0.144309039802341
30
0
41
1
10
8.97313491593953
20
0.077965183456878
30
0
41
1
10
9.00645459309928
20
0.0113459004753151
30
0
41
1
10
9.04094380229408
20
-0.0554576125674808
30
0
41
1
10
9.06447533700497
20
-0.099607283717785
30
0
41
1
10
9.07634090931608
20
-0.121529653684037
30
0
0
SPLINE
5
198
100
AcDbEntity
8
1
62
256
6
ByLayer
370
18
48
1
60
0
100
AcDbSpline
70
4
71
3
72
16
73
12
40
0
40
0
40
0
40
0
40
0.107305941325938
40
0.215940972675954
40
0.325846533858806
40
0.43696100721162
40
0.549219920361781
40
0.66052328414449
40
0.772799989746094
40
0.885982137400801
40
1
40
1
40
1
40
1
41
1
10
9.37846219946
20
-0.624999999999998
30
0
41
1
10
9.36654532083549
20
-0.607405310832606
30
0
41
1
10
9.34281358839124
20
-0.571895281473978
30
0
41
1
10
9.30776916992124
20
-0.517989056625848
30
0
41
1
10
9.27307534040025
20
-0.463155861366108
30
0
41
1
10
9.23876273496733
20
-0.407436223737962
30
0
41
1
10
9.20506374232074
20
-0.351217030434351
30
0
41
1
10
9.17199368388045
20
-0.29455515184342
30
0
41
1
10
9.13956639161271
20
-0.237507958945558
30
0
41
1
10
9.10761141896687
20
-0.17978317937549
30
0
41
1
10
9.0867082653454
20
-0.14101801414238
30
0
41
1
10
9.07634090931608
20
-0.121529653684037
30
0
0
SPLINE
5
199
100
AcDbEntity
8
1
62
256
6
ByLayer
370
18
48
1
60
0
100
AcDbSpline
70
4
71
3
72
15
73
11
40
0
40
0
40
0
40
0
40
0.144971275317872
40
0.2885578650732
40
0.430617539213154
40
0.571013170696103
40
0.680071498301148
40
0.787960437790111
40
0.894621738186701
40
1
40
1
40
1
40
1
41
1
10
10.9236590906838
20
-0.121529653685568
30
0
41
1
10
10.9104782913841
20
-0.146310140100932
30
0
41
1
10
10.8838457092947
20
-0.195520702724449
30
0
41
1
10
10.8429348884927
20
-0.268635833584115
30
0
41
1
10
10.801280378882
20
-0.340612622551018
30
0
41
1
10
10.7619074407255
20
-0.406397705118149
30
0
41
1
10
10.7250665393246
20
-0.466121683934632
30
0
41
1
10
10.6909758407429
20
-0.519936209017363
30
0
41
1
10
10.6565479532295
20
-0.572855010132968
30
0
41
1
10
10.6332406292835
20
-0.607721532562476
30
0
41
1
10
10.621537800541
20
-0.624999999999998
30
0
0
SPLINE
5
19A
100
AcDbEntity
8
1
62
256
6
ByLayer
370
18
48
1
60
0
100
AcDbSpline
70
4
71
3
72
14
73
10
40
0
40
0
40
0
40
0
40
0.136461316188008
40
0.274243661156465
40
0.413251537920997
40
0.553386321249083
40
0.701292217113421
40
0.850204099617009
40
1
40
1
40
1
40
1
41
1
10
10.9236590906838
20
-0.121529653685569
30
0
41
1
10
10.9349828237865
20
-0.100608896026118
30
0
41
1
10
10.957448696879
20
-0.0584885550190988
30
0
41
1
10
10.9904126523027
20
0.0052216877529538
30
0
41
1
10
11.0227867600846
20
0.0697153106172665
30
0
41
1
10
11.0550484055306
20
0.135982739756595
30
0
41
1
10
11.0871254479013
20
0.203986981548547
30
0
41
1
10
11.1189428090524
20
0.273688188488166
30
0
41
1
10
11.139583636681
20
0.320419892631805
30
0
41
1
10
11.149772708487
20
0.343884845288362
30
0
0
SPLINE
5
19B
100
AcDbEntity
8
1
62
256
6
ByLayer
370
18
48
1
60
0
100
AcDbSpline
70
4
71
3
72
23
73
19
40
0
40
0
40
0
40
0
40
0.0620731559092888
40
0.124403646073803
40
0.1869562459305
40
0.249694962106564
40
0.312583150813106
40
0.374457976517189
40
0.436405541966481
40
0.498390008171688
40
0.560375409137965
40
0.623589324491516
40
0.686728675837231
40
0.74975564407636
40
0.812632810114693
40
0.875323284819378
40
0.937790834373061
40
1
40
1
40
1
40
1
41
1
10
11.149772708487
20
0.343884845288363
30
0
41
1
10
11.1633039590512
20
0.343525063331912
30
0
41
1
10
11.1899534785766
20
0.342848042605668
30
0
41
1
10
11.2286116556517
20
0.341962718738316
30
0
41
1
10
11.265940819258
20
0.341208881810963
30
0
41
1
10
11.3018650215815
20
0.340589080268367
30
0
41
1
10
11.3361006481355
20
0.3401084504192
30
0
41
1
10
11.3686090118103
20
0.339765848668229
30
0
41
1
10
11.3993587192611
20
0.339559633245433
30
0
41
1
10
11.42848677492
20
0.33948846926949
30
0
41
1
10
11.4561270061758
20
0.339553042404277
30
0
41
1
10
11.4821913387072
20
0.339756358190253
30
0
41
1
10
11.5065953617744
20
0.340100936508691
30
0
41
1
10
11.5291277321808
20
0.340584155245358
30
0
41
1
10
11.5497593652952
20
0.341204274337007
30
0
41
1
10
11.5684677060599
20
0.341959031472801
30
0
41
1
10
11.5852398137007
20
0.342845863964156
30
0
41
1
10
11.5951429377868
20
0.343524274382941
30
0
41
1
10
11.5997727084868
20
0.343884845288392
30
0
0
SPLINE
5
19C
100
AcDbEntity
8
1
62
256
6
ByLayer
370
18
48
1
60
0
100
AcDbSpline
70
4
71
3
72
14
73
10
40
0
40
0
40
0
40
0
40
0.143005351944034
40
0.285210312173034
40
0.426508661698768
40
0.566796218042073
40
0.712569003803285
40
0.857006952582728
40
1
40
1
40
1
40
1
41
1
10
11.5997727084868
20
0.343884845288392
30
0
41
1
10
11.6030960656605
20
0.321483789358695
30
0
41
1
10
11.6094130238135
20
0.276861210290321
30
0
41
1
10
11.6179407295492
20
0.210286153808185
30
0
41
1
10
11.6254792457244
20
0.144309039802342
30
0
41
1
10
11.632125479736
20
0.0779651834568762
30
0
41
1
10
11.6378171804999
20
0.0113459004753187
30
0
41
1
10
11.6424961966499
20
-0.055457612567487
30
0
41
1
10
11.6448840311862
20
-0.0996072837177824
30
0
41
1
10
11.6458968631697
20
-0.121529653684037
30
0
0
SPLINE
5
19D
100
AcDbEntity
8
1
62
256
6
ByLayer
370
18
48
1
60
0
100
AcDbSpline
70
4
71
3
72
11
73
7
40
0
40
0
40
0
40
0
40
0.277311890469474
40
0.556779381784604
40
0.777793194377238
40
1
40
1
40
1
40
1
41
1
10
11.65
20
-0.299519052837647
30
0
41
1
10
11.6499983604449
20
-0.283161065970567
30
0
41
1
10
11.6497837274658
20
-0.25026432350254
30
0
41
1
10
11.6488851453994
20
-0.204154330572535
30
0
41
1
10
11.6475651169992
20
-0.161193027298554
30
0
41
1
10
11.6464974536622
20
-0.134784791566402
30
0
41
1
10
11.6458968631697
20
-0.121529653684036
30
0
0
SPLINE
5
19E
100
AcDbEntity
8
1
62
256
6
ByLayer
370
18
48
1
60
0
100
AcDbSpline
70
4
71
3
72
51
73
47
40
0
40
0
40
0
40
0
40
0.0277502176044202
40
0.0556208812063941
40
0.0835880120675525
40
0.111626977294853
40
0.139712612090884
40
0.16781935362202
40
0.195921385705586
40
0.221655423009242
40
0.247343811960059
40
0.272966788679474
40
0.298504857416988
40
0.323938905824568
40
0.349250321246279
40
0.374421106779188
40
0.399433995782306
40
0.424272563445831
40
0.448921333985408
40
0.473365881997655
40
0.497592926506062
40
0.520225605630428
40
0.542645167338986
40
0.56484365036491
40
0.586814211149505
40
0.608551152892608
40
0.631345048149455
40
0.65386709823559
40
0.676114818700069
40
0.69808718298148
40
0.719784584431191
40
0.741208782036077
40
0.76116136309956
40
0.780877326762413
40
0.800361104596131
40
0.819617929853114
40
0.838653748090244
40
0.857475121719405
40
0.876089130003677
40
0.894503266129011
40
0.912725333050381
40
0.930763339833702
40
0.948307965831808
40
0.965690566610534
40
0.982918758177274
40
1
40
1
40
1
40
1
41
1
10
10.5
20
6.35
30
0
41
1
10
10.5155662367013
20
6.3344337632987
30
0
41
1
10
10.5466788480452
20
6.30332115195476
30
0
41
1
10
10.5931848951932
20
6.25681510480678
30
0
41
1
10
10.6395605403772
20
6.21043945962278
30
0
41
1
10
10.6857353456114
20
6.16426465438861
30
0
41
1
10
10.7316333961021
20
6.11836660389787
30
0
41
1
10
10.77717810499
20
6.07282189501001
30
0
41
1
10
10.8210403726388
20
6.02895962736116
30
0
41
1
10
10.8631903211286
20
5.9868096788714
30
0
41
1
10
10.9036087839386
20
5.9463912160614
30
0
41
1
10
10.9434757895884
20
5.90652421041155
30
0
41
1
10
10.9827301712732
20
5.86726982872679
30
0
41
1
10
11.0213111521077
20
5.82868884789234
30
0
41
1
10
11.0591586639147
20
5.79084133608529
30
0
41
1
10
11.0962136185569
20
5.75378638144309
30
0
41
1
10
11.1324181938161
20
5.71758180618393
30
0
41
1
10
11.1677161097875
20
5.68228389021255
30
0
41
1
10
11.2020529142628
20
5.64794708573719
30
0
41
1
10
11.2353762117505
20
5.61462378824946
30
0
41
1
10
11.2670301826432
20
5.5829698173568
30
0
41
1
10
11.2970313529751
20
5.55296864702487
30
0
41
1
10
11.3254053021941
20
5.52459469780587
30
0
41
1
10
11.3527189284377
20
5.49728107156233
30
0
41
1
10
11.3789397081266
20
5.47106029187342
30
0
41
1
10
11.4045361428485
20
5.44546385715147
30
0
41
1
10
11.4294077098019
20
5.42059229019812
30
0
41
1
10
11.4534483753922
20
5.39655162460776
30
0
41
1
10
11.4761416717119
20
5.37385832828807
30
0
41
1
10
11.4974662640113
20
5.3525337359887
30
0
41
1
10
11.5174046816318
20
5.33259531836823
30
0
41
1
10
11.5355968878647
20
5.31440311213532
30
0
41
1
10
11.5521173406532
20
5.29788265934678
30
0
41
1
10
11.5670469322011
20
5.28295306779889
30
0
41
1
10
11.5807166789657
20
5.26928332103435
30
0
41
1
10
11.5931276379316
20
5.25687236206837
30
0
41
1
10
11.6042837455566
20
5.24571625444336
30
0
41
1
10
11.614191760121
20
5.23580823987898
30
0
41
1
10
11.6228611582508
20
5.22713884174919
30
0
41
1
10
11.6303040269218
20
5.21969597307817
30
0
41
1
10
11.6365349434773
20
5.21346505652274
30
0
41
1
10
11.6415413042663
20
5.20845869573372
30
0
41
1
10
11.6453658852416
20
5.20463411475842
30
0
41
1
10
11.6480529182913
20
5.20194708170872
30
0
41
1
10
11.6496479210244
20
5.20035207897563
30
0
41
1
10
11.6499963239434
20
5.20000367605666
30
0
41
1
10
11.6500033957182
20
5.19999660428167
30
0
0
SPLINE
5
19F
100
AcDbEntity
8
SK1
62
256
6
ByLayer
370
18
48
1
60
0
100
AcDbSpline
70
4
71
3
72
14
73
10
40
0
40
0
40
0
40
0
40
0.139857273192919
40
0.279791125408326
40
0.419784025320559
40
0.55981840558863
40
0.706546374479872
40
0.853280319939802
40
1
40
1
40
1
40
1
41
1
10
-2.4599357943771
20
-5.35
30
0
41
1
10
-2.46367316211933
20
-5.39657009180581
30
0
41
1
10
-2.4706264569209
20
-5.48975337500108
30
0
41
1
10
-2.47948702729946
20
-5.62961767224492
30
0
41
1
10
-2.4867797267764
20
-5.76958559235829
30
0
41
1
10
-2.49259359315118
20
-5.91185526026069
30
0
41
1
10
-2.4968390511021
20
-6.05640127573511
30
0
41
1
10
-2.49942531025357
20
-6.20319754989135
30
0
41
1
10
-2.50000001981704
20
-6.30106613670515
30
0
41
1
10
-2.5
20
-6.35
30
0
0
SPLINE
5
1A0
100
AcDbEntity
8
1
62
256
6
ByLayer
370
18
48
1
60
0
100
AcDbSpline
70
4
71
3
72
16
73
12
40
0
40
0
40
0
40
0
40
0.113480669587016
40
0.226593112875216
40
0.339334670225065
40
0.451702933902999
40
0.563695748845298
40
0.673321419719994
40
0.782581531791029
40
0.891474756431023
40
1
40
1
40
1
40
1
41
1
10
3.5378022314386
20
-6.35
30
0
41
1
10
3.57277431135666
20
-6.32887723465083
30
0
41
1
10
3.64293024021967
20
-6.28697655781141
30
0
41
1
10
3.74896626031455
20
-6.225046955223
30
0
41
1
10
3.8556181229447
20
-6.1641560694769
30
0
41
1
10
3.96287085310996
20
-6.10431133146225
30
0
41
1
10
4.07007026666279
20
-6.04587020463754
30
0
41
1
10
4.17718582426799
20
-5.98882076618475
30
0
41
1
10
4.28418740938278
20
-5.93315100515214
30
0
41
1
10
4.39170899308126
20
-5.87852140152265
30
0
41
1
10
4.46384737785323
20
-5.84274326022218
30
0
41
1
10
4.5
20
-5.82502783967817
30
0
0
SPLINE
5
1A1
100
AcDbEntity
8
1
62
256
6
ByLayer
370
18
48
1
60
0
100
AcDbSpline
70
4
71
2
72
6
73
3
40
0
40
0
40
0
40
1
40
1
40
1
41
1
10
8.36554568699959
20
-0.624999999999998
30
0
41
1
10
8.26998910738059
20
-0.720852774453117
30
0
41
1
10
8.17444416457539
20
-0.816715906291108
30
0
0
SPLINE
5
1A2
100
AcDbEntity
8
1
62
256
6
ByLayer
370
18
48
1
60
0
100
AcDbSpline
70
4
71
2
72
6
73
3
40
0
40
0
40
0
40
1
40
1
40
1
41
1
10
8.8763962574342
20
-0.816715906291838
30
0
41
1
10
8.93174290341635
20
-0.720852703422236
30
0
41
1
10
8.98708348753973
20
-0.624999999999998
30
0
0
SPLINE
5
1A3
100
AcDbEntity
8
1
62
256
6
ByLayer
370
18
48
1
60
0
100
AcDbSpline
70
4
71
2
72
6
73
3
40
0
40
0
40
0
40
1
40
1
40
1
41
1
10
8.8763962574342
20
-0.816715906291838
30
0
41
1
10
8.78611380852336
20
-0.983312591669629
30
0
41
1
10
8.69577327748391
20
-1.15
30
0
0
SPLINE
5
1A4
100
AcDbEntity
8
1
62
256
6
ByLayer
370
18
48
1
60
0
100
AcDbSpline
70
4
71
2
72
6
73
3
40
0
40
0
40
0
40
1
40
1
40
1
41
1
10
7.84050041013079
20
-1.15
30
0
41
1
10
8.00742309089853
20
-0.98331161960523
30
0
41
1
10
8.17444416457539
20
-0.816715906291108
30
0
0
SPLINE
5
1A5
100
AcDbEntity
8
1
62
256
6
ByLayer
370
18
48
1
60
0
100
AcDbSpline
70
4
71
3
72
33
73
29
40
0
40
0
40
0
40
0
40
0.0493981456702943
40
0.0988000546850281
40
0.148202439967166
40
0.197602854653745
40
0.246999746924129
40
0.288175338509765
40
0.329356333530216
40
0.3705392001357
40
0.411721064584349
40
0.452899746793268
40
0.49407379631664
40
0.535235019203234
40
0.576397915876576
40
0.617558794019904
40
0.648483694236839
40
0.679410515158795
40
0.710337155473737
40
0.741261809392825
40
0.773557891033014
40
0.805856602181085
40
0.838155121908477
40
0.870450942498935
40
0.902836772403989
40
0.93522562045866
40
0.967614342266238
40
1
40
1
40
1
40
1
41
1
10
9.54999999999963
20
-1.15
30
0
41
1
10
9.53071837877497
20
-1.15
30
0
41
1
10
9.49263975881856
20
-1.15
30
0
41
1
10
9.43693325911051
20
-1.15
30
0
41
1
10
9.38277637451407
20
-1.15
30
0
41
1
10
9.33026229561719
20
-1.15
30
0
41
1
10
9.28231143980168
20
-1.15
30
0
41
1
10
9.23868410706038
20
-1.15
30
0
41
1
10
9.19913587087644
20
-1.15
30
0
41
1
10
9.1610171817321
20
-1.15
30
0
41
1
10
9.12440460520089
20
-1.15
30
0
41
1
10
9.08937474283532
20
-1.15
30
0
41
1
10
9.05600547442797
20
-1.15
30
0
41
1
10
9.02437352680283
20
-1.15
30
0
41
1
10
8.99455835446927
20
-1.15
30
0
41
1
10
8.96894993132811
20
-1.15
30
0
41
1
10
8.947098331292
20
-1.15
30
0
41
1
10
8.92856398769403
20
-1.15
30
0
41
1
10
8.91120773235628
20
-1.15
30
0
41
1
10
8.89482322370411
20
-1.15
30
0
41
1
10
8.87950865937145
20
-1.15
30
0
41
1
10
8.86536027644059
20
-1.15
30
0
41
1
10
8.8526279155273
20
-1.15
30
0
41
1
10
8.84133151912305
20
-1.15
30
0
41
1
10
8.83150692701758
20
-1.15
30
0
41
1
10
8.82317790846323
20
-1.15
30
0
41
1
10
8.81637005237184
20
-1.15
30
0
41
1
10
8.81286337456222
20
-1.14999999999999
30
0
41
1
10
8.81136656613116
20
-1.15
30
0
0
SPLINE
5
1A6
100
AcDbEntity
8
1
62
256
6
ByLayer
370
18
48
1
60
0
100
AcDbSpline
70
4
71
3
72
34
73
30
40
0
40
0
40
0
40
0
40
0.0306514731228893
40
0.0613055494179179
40
0.0919597251777617
40
0.122611333945929
40
0.153342737571534
40
0.18407649278016
40
0.214810402039033
40
0.245542015749039
40
0.276190499053934
40
0.306840958094937
40
0.337491590832402
40
0.368140311011133
40
0.409082452617227
40
0.450026633668607
40
0.490969116622269
40
0.531848600772517
40
0.572732787414563
40
0.613620189148796
40
0.654508590879256
40
0.695395085349462
40
0.736276108243269
40
0.780226559713992
40
0.824180194066289
40
0.868136113203769
40
0.912092833309307
40
0.956048316123482
40
1
40
1
40
1
40
1
41
1
10
11.188633433868
20
-1.15
30
0
41
1
10
11.1872170277069
20
-1.15
30
0
41
1
10
11.1839243125932
20
-1.15
30
0
41
1
10
11.1775983522468
20
-1.15
30
0
41
1
10
11.1699076633634
20
-1.15
30
0
41
1
10
11.1608581323818
20
-1.15
30
0
41
1
10
11.1504613907563
20
-1.15
30
0
41
1
10
11.1387393854606
20
-1.15
30
0
41
1
10
11.1257267279071
20
-1.15
30
0
41
1
10
11.1114615272715
20
-1.15
30
0
41
1
10
11.0959726619039
20
-1.15
30
0
41
1
10
11.0792956714136
20
-1.15
30
0
41
1
10
11.0614476805965
20
-1.15
30
0
41
1
10
11.0403338765701
20
-1.15
30
0
41
1
10
11.0155079132627
20
-1.15
30
0
41
1
10
10.9865113832281
20
-1.15
30
0
41
1
10
10.9557082462035
20
-1.15
30
0
41
1
10
10.923180125805
20
-1.15
30
0
41
1
10
10.8890064489225
20
-1.15
30
0
41
1
10
10.853244188475
20
-1.15
30
0
41
1
10
10.8159691075829
20
-1.15
30
0
41
1
10
10.777257014024
20
-1.15
30
0
41
1
10
10.7361767097318
20
-1.15
30
0
41
1
10
10.6926844495232
20
-1.15
30
0
41
1
10
10.6467348767093
20
-1.15
30
0
41
1
10
10.599435607695
20
-1.15
30
0
41
1
10
10.5508623658093
20
-1.15
30
0
41
1
10
10.5010812883582
20
-1.15
30
0
41
1
10
10.4671537160591
20
-1.15
30
0
41
1
10
10.4499999999996
20
-1.15
30
0
0
SPLINE
5
1A7
100
AcDbEntity
8
1
62
256
6
ByLayer
370
18
48
1
60
0
100
AcDbSpline
70
4
71
2
72
6
73
3
40
0
40
0
40
0
40
1
40
1
40
1
41
1
10
11.3042267225152
20
-1.15
30
0
41
1
10
11.2138855694428
20
-0.98331161960522
30
0
41
1
10
11.1236037425646
20
-0.816715906291108
30
0
0
SPLINE
5
1A8
100
AcDbEntity
8
1
62
256
6
ByLayer
370
18
48
1
60
0
100
AcDbSpline
70
4
71
2
72
6
73
3
40
0
40
0
40
0
40
1
40
1
40
1
41
1
10
11.0129165124595
20
-0.624999999999998
30
0
41
1
10
11.0682571375925
20
-0.720852774453039
30
0
41
1
10
11.1236037425646
20
-0.816715906291108
30
0
0
SPLINE
5
1A9
100
AcDbEntity
8
1
62
256
6
ByLayer
370
18
48
1
60
0
100
AcDbSpline
70
4
71
2
72
6
73
3
40
0
40
0
40
0
40
1
40
1
40
1
41
1
10
11.8255558354252
20
-0.816715906291838
30
0
41
1
10
11.7300109722803
20
-0.720852703422297
30
0
41
1
10
11.6344543130003
20
-0.624999999999998
30
0
0
SPLINE
5
1AA
100
AcDbEntity
8
1
62
256
6
ByLayer
370
18
48
1
60
0
100
AcDbSpline
70
4
71
2
72
6
73
3
40
0
40
0
40
0
40
1
40
1
40
1
41
1
10
11.8255558354252
20
-0.816715906291838
30
0
41
1
10
11.9925758830698
20
-0.983312591669629
30
0
41
1
10
12.1594995898691
20
-1.15
30
0
0
SPLINE
5
1AB
100
AcDbEntity
8
1
62
256
6
ByLayer
370
18
48
1
60
0
100
AcDbSpline
70
4
71
2
72
6
73
3
40
0
40
0
40
0
40
1
40
1
40
1
41
1
10
10.621537800541
20
-0.624999999999998
30
0
41
1
10
10.6617537550269
20
-0.720852774453116
30
0
41
1
10
10.7019520928601
20
-0.816715906291108
30
0
0
SPLINE
5
1AC
100
AcDbEntity
8
1
62
256
6
ByLayer
370
18
48
1
60
0
100
AcDbSpline
70
4
71
2
72
6
73
3
40
0
40
0
40
0
40
1
40
1
40
1
41
1
10
9.29804790714061
20
-0.816715906291838
30
0
41
1
10
9.33824612430341
20
-0.720852703422295
30
0
41
1
10
9.37846219946
20
-0.624999999999998
30
0
0
SPLINE
5
1AD
100
AcDbEntity
8
1
62
256
6
ByLayer
370
18
48
1
60
0
100
AcDbSpline
70
4
71
2
72
6
73
3
40
0
40
0
40
0
40
1
40
1
40
1
41
1
10
9.29804790714061
20
-0.816715906291838
30
0
41
1
10
9.22131030840686
20
-0.983312591669628
30
0
41
1
10
9.14472713264702
20
-1.15
30
0
0
SPLINE
5
1AE
100
AcDbEntity
8
1
62
256
6
ByLayer
370
18
48
1
60
0
100
AcDbSpline
70
4
71
2
72
6
73
3
40
0
40
0
40
0
40
1
40
1
40
1
41
1
10
10.855272867354
20
-1.15
30
0
41
1
10
10.7786913396587
20
-0.983311619605219
30
0
41
1
10
10.7019520928601
20
-0.816715906291108
30
0
0
SPLINE
5
1AF
100
AcDbEntity
8
1
62
256
6
ByLayer
370
18
48
1
60
0
100
AcDbSpline
70
4
71
3
72
52
73
48
40
0
40
0
40
0
40
0
40
0.0157712515347714
40
0.0316673777670396
40
0.0476942386702185
40
0.0638578165391383
40
0.0801641640259602
40
0.0963241924013435
40
0.112633496570622
40
0.129097685777602
40
0.145722214165773
40
0.165729258370689
40
0.185979284403336
40
0.206479939067331
40
0.227238052801201
40
0.248259514037886
40
0.269549152917022
40
0.291110636323968
40
0.312946375936465
40
0.335057450638921
40
0.357443544329508
40
0.380102899808625
40
0.403032289109516
40
0.424894649570521
40
0.446987729388008
40
0.469305216127005
40
0.491839664869101
40
0.514582532520637
40
0.53892069015647
40
0.563469809843923
40
0.588216022921764
40
0.613144362670186
40
0.638238862221938
40
0.66348265904267
40
0.687404923183116
40
0.711428879886437
40
0.735538740188757
40
0.759718356056471
40
0.783951306887149
40
0.811039482949059
40
0.83815017710612
40
0.865260136442157
40
0.892346222790273
40
0.919385540235306
40
0.946355554569508
40
0.973234203927188
40
1
40
1
40
1
40
1
41
1
10
11.6500034340316
20
5.19999656596845
30
0
41
1
10
11.6499963622566
20
5.20000363774336
30
0
41
1
10
11.6496999548171
20
5.20030004518292
30
0
41
1
10
11.6483413590506
20
5.20165864094943
30
0
41
1
10
11.646054252008
20
5.20394574799198
30
0
41
1
10
11.6428209411404
20
5.20717905885958
30
0
41
1
10
11.6386505643798
20
5.21134943562018
30
0
41
1
10
11.6335484471559
20
5.21645155284412
30
0
41
1
10
11.6275213306084
20
5.2224786693916
30
0
41
1
10
11.6205276109631
20
5.22947238903688
30
0
41
1
10
11.612043623601
20
5.23795637639898
30
0
41
1
10
11.6018339001129
20
5.24816609988712
30
0
41
1
10
11.5896531996115
20
5.26034680038852
30
0
41
1
10
11.5760592555924
20
5.27394074440755
30
0
41
1
10
11.5610485155691
20
5.28895148443093
30
0
41
1
10
11.5446210942548
20
5.30537890574517
30
0
41
1
10
11.5267809015888
20
5.32321909841123
30
0
41
1
10
11.5075356909115
20
5.34246430908848
30
0
41
1
10
11.4868970979109
20
5.36310290208915
30
0
41
1
10
11.4648806531229
20
5.38511934687712
30
0
41
1
10
11.4415057593787
20
5.40849424062127
30
0
41
1
10
11.4167956832665
20
5.43320431673345
30
0
41
1
10
11.3912813479847
20
5.45871865201533
30
0
41
1
10
11.3650694145747
20
5.4849305854253
30
0
41
1
10
11.3382608910619
20
5.51173910893804
30
0
41
1
10
11.3103765940386
20
5.53962340596139
30
0
41
1
10
11.2814504147668
20
5.56854958523318
30
0
41
1
10
11.2509060959873
20
5.5990939040127
30
0
41
1
10
11.2187207629622
20
5.63127923703779
30
0
41
1
10
11.1848805544264
20
5.66511944557358
30
0
41
1
10
11.1500529431849
20
5.69994705681507
30
0
41
1
10
11.114291403748
20
5.73570859625195
30
0
41
1
10
11.0776513567161
20
5.77234864328393
30
0
41
1
10
11.040908830188
20
5.80909116981196
30
0
41
1
10
11.0041657645019
20
5.84583423549805
30
0
41
1
10
10.9675164704782
20
5.8824835295218
30
0
41
1
10
10.9302894631847
20
5.91971053681532
30
0
41
1
10
10.8925357975805
20
5.95746420241949
30
0
41
1
10
10.8528244897326
20
5.99717551026744
30
0
41
1
10
10.811153952294
20
6.03884604770597
30
0
41
1
10
10.7675342618289
20
6.08246573817108
30
0
41
1
10
10.7235286228731
20
6.12647137712693
30
0
41
1
10
10.6792069646917
20
6.17079303530827
30
0
41
1
10
10.6346377871232
20
6.21536221287682
30
0
41
1
10
10.5898890475378
20
6.26011095246223
30
0
41
1
10
10.5450238130651
20
6.30497618693489
30
0
41
1
10
10.5150138294078
20
6.33498617059218
30
0
41
1
10
10.5
20
6.35
30
0
0
SPLINE
5
1B0
100
AcDbEntity
8
1
62
256
6
ByLayer
370
18
48
1
60
0
100
AcDbSpline
70
4
71
3
72
13
73
9
40
0
40
0
40
0
40
0
40
0.181782945414284
40
0.365950868578408
40
0.552379327832389
40
0.700360235942722
40
0.849589858017936
40
1
40
1
40
1
40
1
41
1
10
11.6344543130003
20
-0.624999999999998
30
0
41
1
10
11.636392892251
20
-0.605595796779206
30
0
41
1
10
11.6399210560033
20
-0.566408938759777
30
0
41
1
10
11.6440899747698
20
-0.506867920901668
30
0
41
1
10
11.6469576909092
20
-0.450640103770571
30
0
41
1
10
11.6487785174296
20
-0.397943288099674
30
0
41
1
10
11.6497787870066
20
-0.348971974609405
30
0
41
1
10
11.6500018556392
20
-0.316067809119183
30
0
41
1
10
11.65
20
-0.299519052837647
30
0
0
SPLINE
5
1B1
100
AcDbEntity
8
1
62
256
6
ByLayer
370
18
48
1
60
0
100
AcDbSpline
70
4
71
3
72
15
73
11
40
0
40
0
40
0
40
0
40
0.144971275317873
40
0.288557865073203
40
0.430617539213157
40
0.571013170696107
40
0.68007149830115
40
0.787960437790113
40
0.894621738186702
40
1
40
1
40
1
40
1
41
1
10
10.7222377724858
20
-0.121529653685557
30
0
41
1
10
10.7365447929884
20
-0.146310140100923
30
0
41
1
10
10.7649565245661
20
-0.195520702724439
30
0
41
1
10
10.8071695650497
20
-0.268635833584112
30
0
41
1
10
10.8487253835352
20
-0.340612622551012
30
0
41
1
10
10.886706418664
20
-0.406397705118151
30
0
41
1
10
10.9211880739107
20
-0.466121683934631
30
0
41
1
10
10.9522579044536
20
-0.519936209017361
30
0
41
1
10
10.9828105885229
20
-0.57285501013297
30
0
41
1
10
11.0029407846332
20
-0.607721532562477
30
0
41
1
10
11.0129165124595
20
-0.624999999999998
30
0
0
SPLINE
5
1B2
100
AcDbEntity
8
1
62
256
6
ByLayer
370
18
48
1
60
0
100
AcDbSpline
70
4
71
3
72
14
73
10
40
0
40
0
40
0
40
0
40
0.136461316188011
40
0.274243661156469
40
0.413251537921007
40
0.553386321249091
40
0.701292217113428
40
0.850204099617012
40
1
40
1
40
1
40
1
41
1
10
10.7222377724858
20
-0.121529653685557
30
0
41
1
10
10.7099477572098
20
-0.100608896026106
30
0
41
1
10
10.6852190408405
20
-0.0584885550190908
30
0
41
1
10
10.6478612010675
20
0.0052216877529645
30
0
41
1
10
10.6100892380502
20
0.0697153106172737
30
0
41
1
10
10.5713239882227
20
0.135982739756601
30
0
41
1
10
10.5315895522975
20
0.203986981548553
30
0
41
1
10
10.4909117708102
20
0.273688188488171
30
0
41
1
10
10.4636704637428
20
0.320419892631802
30
0
41
1
10
10.4499999999996
20
0.343884845288362
30
0
0
SPLINE
5
1B3
100
AcDbEntity
8
1
62
256
6
ByLayer
370
18
48
1
60
0
100
AcDbSpline
70
4
71
3
72
23
73
19
40
0
40
0
40
0
40
0
40
0.0620731559092897
40
0.124403646073802
40
0.1869562459305
40
0.249694962106562
40
0.312583150813104
40
0.374457976517189
40
0.43640554196648
40
0.498390008171687
40
0.560375409137963
40
0.623589324491516
40
0.68672867583723
40
0.749755644076358
40
0.812632810114693
40
0.875323284819376
40
0.93779083437306
40
1
40
1
40
1
40
1
41
1
10
10.4499999999996
20
0.343884845288362
30
0
41
1
10
10.4318491110398
20
0.343525063331912
30
0
41
1
10
10.395319523692
20
0.342848042605671
30
0
41
1
10
10.3399321818446
20
0.341962718738313
30
0
41
1
10
10.2839460037335
20
0.341208881810965
30
0
41
1
10
10.2274497613337
20
0.340589080268366
30
0
41
1
10
10.1708834599209
20
0.340108450419203
30
0
41
1
10
10.1143527999746
20
0.339765848668227
30
0
41
1
10
10.0579612339749
20
0.339559633245435
30
0
41
1
10
10.0014678173741
20
0.339488469269488
30
0
41
1
10
9.94458791185719
20
0.339553042404279
30
0
41
1
10
9.88742322039036
20
0.339756358190252
30
0
41
1
10
9.8300801483034
20
0.340100936508692
30
0
41
1
10
9.773046330397
20
0.340584155245359
30
0
41
1
10
9.71642303639594
20
0.341204274337007
30
0
41
1
10
9.66031141267986
20
0.341959031472802
30
0
41
1
10
9.60480081726277
20
0.342845863964152
30
0
41
1
10
9.56819069542496
20
0.343524274382946
30
0
41
1
10
9.54999999999964
20
0.343884845288393
30
0
0
SPLINE
5
1B4
100
AcDbEntity
8
1
62
256
6
ByLayer
370
18
48
1
60
0
100
AcDbSpline
70
4
71
3
72
14
73
10
40
0
40
0
40
0
40
0
40
0.143005351944034
40
0.285210312173034
40
0.426508661698769
40
0.566796218042074
40
0.712569003803286
40
0.857006952582728
40
1
40
1
40
1
40
1
41
1
10
9.54999999999964
20
0.343884845288391
30
0
41
1
10
9.53694934361782
20
0.321483789358695
30
0
41
1
10
9.51093819304445
20
0.276861210290324
30
0
41
1
10
9.47208791959984
20
0.21028615380818
30
0
41
1
10
9.43354312901273
20
0.144309039802344
30
0
41
1
10
9.39473960432445
20
0.0779651834568753
30
0
41
1
10
9.35572822640078
20
0.0113459004753178
30
0
41
1
10
9.316560001056
20
-0.0554576125674862
30
0
41
1
10
9.29064063180881
20
-0.099607283717785
30
0
41
1
10
9.27776222751426
20
-0.121529653684037
30
0
0
SPLINE
5
1B5
100
AcDbEntity
8
1
62
256
6
ByLayer
370
18
48
1
60
0
100
AcDbSpline
70
4
71
3
72
16
73
12
40
0
40
0
40
0
40
0
40
0.107305941325939
40
0.215940972675952
40
0.325846533858806
40
0.436961007211618
40
0.549219920361781
40
0.660523284144488
40
0.772799989746094
40
0.8859821374008
40
1
40
1
40
1
40
1
41
1
10
8.98708348753973
20
-0.624999999999998
30
0
41
1
10
8.99724178606683
20
-0.607405310832606
30
0
41
1
10
9.01774351107597
20
-0.571895281473981
30
0
41
1
10
9.04886628450303
20
-0.517989056625847
30
0
41
1
10
9.08052424454678
20
-0.463155861366108
30
0
41
1
10
9.11269399233054
20
-0.40743622373796
30
0
41
1
10
9.145152158718
20
-0.351217030434355
30
0
41
1
10
9.17786590957526
20
-0.294555151843415
30
0
41
1
10
9.21080212175136
20
-0.23750795894556
30
0
41
1
10
9.24412953877506
20
-0.179783179375489
30
0
41
1
10
9.26651061735757
20
-0.14101801414238
30
0
41
1
10
9.27776222751426
20
-0.121529653684037
30
0
0
LINE
5
70
100
AcDbEntity
8
1
62
256
6
ByLayer
370
18
48
1
60
0
100
AcDbLine
10
14.706751
20
-1.116549
30
0
11
12.071886
21
-1.116549
31
0
39
0
210
0
220
0
230
1
0
LINE
5
72
100
AcDbEntity
8
1
62
256
6
ByLayer
370
18
48
1
60
0
100
AcDbLine
10
13.558576
20
-0.3
30
0
11
11.41559
21
-0.3
31
0
39
0
210
0
220
0
230
1
0
LINE
5
73
100
AcDbEntity
8
1
62
256
6
ByLayer
370
18
48
1
60
0
100
AcDbLine
10
13.198294
20
-1.115652
30
0
11
10.929014
21
-1.115652
31
0
39
0
210
0
220
0
230
1
0
LINE
5
74
100
AcDbEntity
8
1
62
256
6
ByLayer
370
18
48
1
60
0
100
AcDbLine
10
13.454508
20
-0.385684
30
0
11
11.283525
21
-0.385684
31
0
39
0
210
0
220
0
230
1
0
LINE
5
75
100
AcDbEntity
8
1
62
256
6
ByLayer
370
18
48
1
60
0
100
AcDbLine
10
6.536377
20
-0.384659
30
0
11
8.704642
21
-0.384659
31
0
39
0
210
0
220
0
230
1
0
LINE
5
76
100
AcDbEntity
8
1
62
256
6
ByLayer
370
18
48
1
60
0
100
AcDbLine
10
6.795914
20
-1.116549
30
0
11
9.06247
21
-1.116549
31
0
39
0
210
0
220
0
230
1
0
LINE
5
77
100
AcDbEntity
8
1
62
256
6
ByLayer
370
18
48
1
60
0
100
AcDbLine
10
13.5
20
-1.25
30
0
11
11.331245
21
-1.25
31
0
39
0
210
0
220
0
230
1
0
LINE
5
78
100
AcDbEntity
8
1
62
256
6
ByLayer
370
18
48
1
60
0
100
AcDbLine
10
18.319777
20
-1.25
30
0
11
13.5
21
-1.25
31
0
39
0
210
0
220
0
230
1
0
LINE
5
79
100
AcDbEntity
8
1
62
256
6
ByLayer
370
18
48
1
60
0
100
AcDbLine
10
18.632298
20
-1.25
30
0
11
18.319777
21
-1.25
31
0
39
0
210
0
220
0
230
1
0
LINE
5
7A
100
AcDbEntity
8
1
62
256
6
ByLayer
370
18
48
1
60
0
100
AcDbLine
10
18.810557
20
-9.290247
30
0
11
18.632298
21
-1.25
31
0
39
0
210
0
220
0
230
1
0
LINE
5
7B
100
AcDbEntity
8
1
62
256
6
ByLayer
370
18
48
1
60
0
100
AcDbLine
10
18.319777
20
-9.200903
30
0
11
18.810557
21
-9.290247
31
0
39
0
210
0
220
0
230
1
0
LINE
5
7C
100
AcDbEntity
8
1
62
256
6
ByLayer
370
18
48
1
60
0
100
AcDbLine
10
13.839955
20
-0.3
30
0
11
13.839955
21
-6.1
31
0
39
0
210
0
220
0
230
1
0
LINE
5
7D
100
AcDbEntity
8
1
62
256
6
ByLayer
370
18
48
1
60
0
100
AcDbLine
10
13.552632
20
-6.1
30
0
11
13.552632
21
-0.300229
31
0
39
0
210
0
220
0
230
1
0
LINE
5
7E
100
AcDbEntity
8
1
62
256
6
ByLayer
370
18
48
1
60
0
100
AcDbLine
10
18.13508
20
-9.188296
30
0
11
18.319777
21
-9.200903
31
0
39
0
210
0
220
0
230
1
0
LINE
5
7F
100
AcDbEntity
8
1
62
256
6
ByLayer
370
18
48
1
60
0
100
AcDbLine
10
13.5
20
-7.253552
30
0
11
13.5
21
-1.25
31
0
39
0
210
0
220
0
230
1
0
LINE
5
80
100
AcDbEntity
8
1
62
256
6
ByLayer
370
18
48
1
60
0
100
AcDbLine
10
10
20
-0.3
30
0
11
10.606092
21
-0.3
31
0
39
0
210
0
220
0
230
1
0
LINE
5
81
100
AcDbEntity
8
1
62
256
6
ByLayer
370
18
48
1
60
0
100
AcDbLine
10
18.319777
20
-9.200903
30
0
11
18.319777
21
-1.25
31
0
39
0
210
0
220
0
230
1
0
LINE
5
82
100
AcDbEntity
8
1
62
256
6
ByLayer
370
18
48
1
60
0
100
AcDbLine
10
5.83535
20
-0.3
30
0
11
7.978319
21
-0.3
31
0
39
0
210
0
220
0
230
1
0
LINE
5
83
100
AcDbEntity
8
1
62
256
6
ByLayer
370
18
48
1
60
0
100
AcDbLine
10
5.659378
20
-1.115652
30
0
11
7.928658
21
-1.115652
31
0
39
0
210
0
220
0
230
1
0
LINE
5
84
100
AcDbEntity
8
1
62
256
6
ByLayer
370
18
48
1
60
0
100
AcDbLine
10
5.775291
20
-0.385684
30
0
11
7.946274
21
-0.385684
31
0
39
0
210
0
220
0
230
1
0
LINE
5
85
100
AcDbEntity
8
1
62
256
6
ByLayer
370
18
48
1
60
0
100
AcDbLine
10
13.457691
20
-6.1
30
0
11
13.457691
21
-7.249851
31
0
39
0
210
0
220
0
230
1
0
LINE
5
86
100
AcDbEntity
8
1
62
256
6
ByLayer
370
18
48
1
60
0
100
AcDbLine
10
18.810557
20
-9.290247
30
0
11
19
21
-9.45
31
0
39
0
210
0
220
0
230
1
0
LINE
5
87
100
AcDbEntity
8
1
62
256
6
ByLayer
370
18
48
1
60
0
100
AcDbLine
10
18.157708
20
-7.847827
30
0
11
18.13508
21
-9.188296
31
0
39
0
210
0
220
0
230
1
0
LINE
5
88
100
AcDbEntity
8
1
62
256
6
ByLayer
370
18
48
1
60
0
100
AcDbLine
10
17.980905
20
-7.645581
30
0
11
17.859495
21
-7.634959
31
0
39
0
210
0
220
0
230
1
0
LINE
5
89
100
AcDbEntity
8
1
62
256
6
ByLayer
370
18
48
1
60
0
100
AcDbLine
10
18.157738
20
-7.844342
30
0
11
18.042018
21
-7.834217
31
0
39
0
210
0
220
0
230
1
0
LINE
5
8A
100
AcDbEntity
8
1
62
256
6
ByLayer
370
18
48
1
60
0
100
AcDbLine
10
18.13508
20
-9.188296
30
0
11
18
21
-9.45
31
0
39
0
210
0
220
0
230
1
0
LINE
5
8B
100
AcDbEntity
8
1
62
256
6
ByLayer
370
18
48
1
60
0
100
AcDbLine
10
18.932642
20
-5.591077
30
0
11
18.856868
21
-1.25
31
0
39
0
210
0
220
0
230
1
0
LINE
5
8C
100
AcDbEntity
8
1
62
256
6
ByLayer
370
18
48
1
60
0
100
AcDbLine
10
18.041979
20
-7.837702
30
0
11
18.157708
21
-7.847827
31
0
39
0
210
0
220
0
230
1
0
LINE
5
8D
100
AcDbEntity
8
1
62
256
6
ByLayer
370
18
48
1
60
0
100
AcDbLine
10
10
20
-6.1
30
0
11
10
21
-0.3
31
0
39
0
210
0
220
0
230
1
0
LINE
5
8E
100
AcDbEntity
8
1
62
256
6
ByLayer
370
18
48
1
60
0
100
AcDbLine
10
5.5
20
-6.1
30
0
11
5.5
21
-1.25
31
0
39
0
210
0
220
0
230
1
0
LINE
5
8F
100
AcDbEntity
8
1
62
256
6
ByLayer
370
18
48
1
60
0
100
AcDbLine
10
7.925
20
-3.118825
30
0
11
7.925
21
-0.85427
31
0
39
0
210
0
220
0
230
1
0
LINE
5
90
100
AcDbEntity
8
1
62
256
6
ByLayer
370
18
48
1
60
0
100
AcDbLine
10
12.075
20
-3.118825
30
0
11
12.075
21
-0.875787
31
0
39
0
210
0
220
0
230
1
0
LINE
5
91
100
AcDbEntity
8
1
62
256
6
ByLayer
370
18
48
1
60
0
100
AcDbLine
10
14.585628
20
-6.1
30
0
11
14.585628
21
-0.722678
31
0
39
0
210
0
220
0
230
1
0
LINE
5
92
100
AcDbEntity
8
1
62
256
6
ByLayer
370
18
48
1
60
0
100
AcDbLine
10
18.932642
20
-5.591077
30
0
11
15.734695
21
-5.591077
31
0
39
0
210
0
220
0
230
1
0
LINE
5
93
100
AcDbEntity
8
1
62
256
6
ByLayer
370
18
48
1
60
0
100
AcDbLine
10
13.5
20
-7.253552
30
0
11
17.980905
21
-7.645581
31
0
39
0
210
0
220
0
230
1
0
LINE
5
94
100
AcDbEntity
8
1
62
256
6
ByLayer
370
18
48
1
60
0
100
AcDbLine
10
12.190926
20
-3.400431
30
0
11
12.912063
21
-4.127889
31
0
39
0
210
0
220
0
230
1
0
LINE
5
95
100
AcDbEntity
8
1
62
256
6
ByLayer
370
18
48
1
60
0
100
AcDbLine
10
7.809074
20
-3.400431
30
0
11
7.087937
21
-4.127889
31
0
39
0
210
0
220
0
230
1
0
LINE
5
96
100
AcDbEntity
8
1
62
256
6
ByLayer
370
18
48
1
60
0
100
AcDbLine
10
12.969958
20
-4.263457
30
0
11
13.018049
21
-6.1
31
0
39
0
210
0
220
0
230
1
0
LINE
5
97
100
AcDbEntity
8
1
62
256
6
ByLayer
370
18
48
1
60
0
100
AcDbLine
10
7.030042
20
-4.263457
30
0
11
6.981951
21
-6.1
31
0
39
0
210
0
220
0
230
1
0
LINE
5
98
100
AcDbEntity
8
1
62
256
6
ByLayer
370
18
48
1
60
0
100
AcDbLine
10
15.734695
20
-5.591077
30
0
11
15.734695
21
-1.25
31
0
39
0
210
0
220
0
230
1
0
LINE
5
99
100
AcDbEntity
8
1
62
256
6
ByLayer
370
18
48
1
60
0
100
AcDbLine
10
13.5
20
-7.253552
30
0
11
13.457691
21
-7.249851
31
0
39
0
210
0
220
0
230
1
0
LINE
5
9A
100
AcDbEntity
8
1
62
256
6
ByLayer
370
18
48
1
60
0
100
AcDbLine
10
8.416571
20
-4.446597
30
0
11
8.416571
21
-5.946597
31
0
39
0
210
0
220
0
230
1
0
LINE
5
9B
100
AcDbEntity
8
1
62
256
6
ByLayer
370
18
48
1
60
0
100
AcDbLine
10
8.416571
20
-4.446597
30
0
11
8.604471
21
-4.446597
31
0
39
0
210
0
220
0
230
1
0
LINE
5
9C
100
AcDbEntity
8
1
62
256
6
ByLayer
370
18
48
1
60
0
100
AcDbLine
10
8.604471
20
-4.446597
30
0
11
8.604471
21
-5.946597
31
0
39
0
210
0
220
0
230
1
0
LINE
5
9D
100
AcDbEntity
8
1
62
256
6
ByLayer
370
18
48
1
60
0
100
AcDbLine
10
8.35
20
6.35
30
0
11
8.35
21
-0.299519
31
0
39
0
210
0
220
0
230
1
0
LINE
5
9E
100
AcDbEntity
8
1
62
256
6
ByLayer
370
18
48
1
60
0
100
AcDbLine
10
15.675
20
-7.443827
30
0
11
15.675
21
-6.1
31
0
39
0
210
0
220
0
230
1
0
LINE
5
9F
100
AcDbEntity
8
1
62
256
6
ByLayer
370
18
48
1
60
0
100
AcDbLine
10
8.359372
20
-4.446597
30
0
11
8.359372
21
-5.946597
31
0
39
0
210
0
220
0
230
1
0
LINE
5
A0
100
AcDbEntity
8
1
62
256
6
ByLayer
370
18
48
1
60
0
100
AcDbLine
10
8.633249
20
-4.446597
30
0
11
8.633249
21
-5.946597
31
0
39
0
210
0
220
0
230
1
0
LINE
5
A1
100
AcDbEntity
8
1
62
256
6
ByLayer
370
18
48
1
60
0
100
AcDbLine
10
11.640628
20
-5.946597
30
0
11
11.640628
21
-4.446597
31
0
39
0
210
0
220
0
230
1
0
LINE
5
A2
100
AcDbEntity
8
1
62
256
6
ByLayer
370
18
48
1
60
0
100
AcDbLine
10
11.214899
20
-4.446597
30
0
11
11.214899
21
-5.946597
31
0
39
0
210
0
220
0
230
1
0
LINE
5
A3
100
AcDbEntity
8
1
62
256
6
ByLayer
370
18
48
1
60
0
100
AcDbLine
10
11.366751
20
-5.946597
30
0
11
11.366751
21
-4.446597
31
0
39
0
210
0
220
0
230
1
0
LINE
5
A4
100
AcDbEntity
8
1
62
256
6
ByLayer
370
18
48
1
60
0
100
AcDbLine
10
12
20
5.553403
30
0
11
11.5
21
6.053403
31
0
39
0
210
0
220
0
230
1
0
LINE
5
A5
100
AcDbEntity
8
1
62
256
6
ByLayer
370
18
48
1
60
0
100
AcDbLine
10
13
20
-5.76954
30
0
11
13
21
-4.216597
31
0
39
0
210
0
220
0
230
1
0
LINE
5
A6
100
AcDbEntity
8
1
62
256
6
ByLayer
370
18
48
1
60
0
100
AcDbLine
10
13
20
-4.216597
30
0
11
11.875503
21
-3.155689
31
0
39
0
210
0
220
0
230
1
0
LINE
5
A7
100
AcDbEntity
8
1
62
256
6
ByLayer
370
18
48
1
60
0
100
AcDbLine
10
11.75
20
-2.86474
30
0
11
11.75
21
-2.717407
31
0
39
0
210
0
220
0
230
1
0
LINE
5
A8
100
AcDbEntity
8
1
62
256
6
ByLayer
370
18
48
1
60
0
100
AcDbLine
10
12
20
-2.346597
30
0
11
12
21
5.553403
31
0
39
0
210
0
220
0
230
1
0
LINE
5
A9
100
AcDbEntity
8
1
62
256
6
ByLayer
370
18
48
1
60
0
100
AcDbLine
10
12.447836
20
-5.946597
30
0
11
12.916505
21
-5.868169
31
0
39
0
210
0
220
0
230
1
0
LINE
5
AA
100
AcDbEntity
8
1
62
256
6
ByLayer
370
18
48
1
60
0
100
AcDbLine
10
7.083495
20
-5.868169
30
0
11
7.552164
21
-5.946597
31
0
39
0
210
0
220
0
230
1
0
LINE
5
AB
100
AcDbEntity
8
1
62
256
6
ByLayer
370
18
48
1
60
0
100
AcDbLine
10
8
20
5.553403
30
0
11
8
21
-2.346597
31
0
39
0
210
0
220
0
230
1
0
LINE
5
AC
100
AcDbEntity
8
1
62
256
6
ByLayer
370
18
48
1
60
0
100
AcDbLine
10
8.25
20
-2.717407
30
0
11
8.25
21
-2.86474
31
0
39
0
210
0
220
0
230
1
0
LINE
5
AD
100
AcDbEntity
8
1
62
256
6
ByLayer
370
18
48
1
60
0
100
AcDbLine
10
8.124497
20
-3.155689
30
0
11
7
21
-4.216597
31
0
39
0
210
0
220
0
230
1
0
LINE
5
AE
100
AcDbEntity
8
1
62
256
6
ByLayer
370
18
48
1
60
0
100
AcDbLine
10
7
20
-4.216597
30
0
11
7
21
-5.76954
31
0
39
0
210
0
220
0
230
1
0
LINE
5
AF
100
AcDbEntity
8
1
62
256
6
ByLayer
370
18
48
1
60
0
100
AcDbLine
10
8.5
20
6.053403
30
0
11
8
21
5.553403
31
0
39
0
210
0
220
0
230
1
0
LINE
5
B0
100
AcDbEntity
8
1
62
256
6
ByLayer
370
18
48
1
60
0
100
AcDbLine
10
8.785101
20
-5.946597
30
0
11
8.785101
21
-4.446597
31
0
39
0
210
0
220
0
230
1
0
LINE
5
B1
100
AcDbEntity
8
SK1
62
256
6
ByLayer
370
18
48
1
60
0
100
AcDbLine
10
-2.5
20
-1.15
30
0
11
-2.5
21
-6.35
31
0
39
0
210
0
220
0
230
1
0
LINE
5
B3
100
AcDbEntity
8
1
62
256
6
ByLayer
370
18
48
1
60
0
100
AcDbLine
10
18
20
-9.45
30
0
11
19
21
-9.45
31
0
39
0
210
0
220
0
230
1
0
LINE
5
B4
100
AcDbEntity
8
1
62
256
6
ByLayer
370
18
48
1
60
0
100
AcDbLine
10
14.344134
20
-0.3
30
0
11
13.839955
21
-0.3
31
0
39
0
210
0
220
0
230
1
0
LINE
5
B5
100
AcDbEntity
8
1
62
256
6
ByLayer
370
18
48
1
60
0
100
AcDbLine
10
14.45078
20
-0.384659
30
0
11
12.051515
21
-0.384659
31
0
39
0
210
0
220
0
230
1
0
LINE
5
B6
100
AcDbEntity
8
1
62
256
6
ByLayer
370
18
48
1
60
0
100
AcDbLine
10
8.64672
20
-4.446597
30
0
11
8.64672
21
-5.946597
31
0
39
0
210
0
220
0
230
1
0
LINE
5
B7
100
AcDbEntity
8
1
62
256
6
ByLayer
370
18
48
1
60
0
100
AcDbLine
10
8.914478
20
-4.446597
30
0
11
8.914478
21
-5.946597
31
0
39
0
210
0
220
0
230
1
0
LINE
5
B8
100
AcDbEntity
8
1
62
256
6
ByLayer
370
18
48
1
60
0
100
AcDbLine
10
9.198217
20
-4.446597
30
0
11
9.198217
21
-5.946597
31
0
39
0
210
0
220
0
230
1
0
LINE
5
B9
100
AcDbEntity
8
1
62
256
6
ByLayer
370
18
48
1
60
0
100
AcDbLine
10
9.905677
20
-4.446597
30
0
11
9.905677
21
-5.946597
31
0
39
0
210
0
220
0
230
1
0
LINE
5
BA
100
AcDbEntity
8
1
62
256
6
ByLayer
370
18
48
1
60
0
100
AcDbLine
10
9.905677
20
-4.446597
30
0
11
10.093577
21
-4.446597
31
0
39
0
210
0
220
0
230
1
0
LINE
5
BB
100
AcDbEntity
8
1
62
256
6
ByLayer
370
18
48
1
60
0
100
AcDbLine
10
10.093577
20
-4.446597
30
0
11
10.093577
21
-5.946597
31
0
39
0
210
0
220
0
230
1
0
LINE
5
BC
100
AcDbEntity
8
1
62
256
6
ByLayer
370
18
48
1
60
0
100
AcDbLine
10
10.497906
20
-4.446597
30
0
11
10.497906
21
-5.946597
31
0
39
0
210
0
220
0
230
1
0
LINE
5
BD
100
AcDbEntity
8
1
62
256
6
ByLayer
370
18
48
1
60
0
100
AcDbLine
10
10.593746
20
-4.446597
30
0
11
10.593746
21
-5.946597
31
0
39
0
210
0
220
0
230
1
0
LINE
5
BE
100
AcDbEntity
8
1
62
256
6
ByLayer
370
18
48
1
60
0
100
AcDbLine
10
11.163116
20
-4.446597
30
0
11
11.163116
21
-5.946597
31
0
39
0
210
0
220
0
230
1
0
LINE
5
BF
100
AcDbEntity
8
1
62
256
6
ByLayer
370
18
48
1
60
0
100
AcDbLine
10
11.163116
20
-4.446597
30
0
11
11.446856
21
-4.446597
31
0
39
0
210
0
220
0
230
1
0
LINE
5
C0
100
AcDbEntity
8
1
62
256
6
ByLayer
370
18
48
1
60
0
100
AcDbLine
10
11.446856
20
-4.446597
30
0
11
11.446856
21
-5.946597
31
0
39
0
210
0
220
0
230
1
0
LINE
5
C1
100
AcDbEntity
8
1
62
256
6
ByLayer
370
18
48
1
60
0
100
AcDbLine
10
11.395529
20
-4.446597
30
0
11
11.395529
21
-5.946597
31
0
39
0
210
0
220
0
230
1
0
LINE
5
C2
100
AcDbEntity
8
1
62
256
6
ByLayer
370
18
48
1
60
0
100
AcDbLine
10
11.257439
20
-4.446597
30
0
11
11.257439
21
-5.946597
31
0
39
0
210
0
220
0
230
1
0
LINE
5
C3
100
AcDbEntity
8
1
62
256
6
ByLayer
370
18
48
1
60
0
100
AcDbLine
10
11.35328
20
-4.446597
30
0
11
11.35328
21
-5.946597
31
0
39
0
210
0
220
0
230
1
0
LINE
5
C4
100
AcDbEntity
8
1
62
256
6
ByLayer
370
18
48
1
60
0
100
AcDbLine
10
10.801783
20
-4.446597
30
0
11
10.801783
21
-5.946597
31
0
39
0
210
0
220
0
230
1
0
LINE
5
C5
100
AcDbEntity
8
1
62
256
6
ByLayer
370
18
48
1
60
0
100
AcDbLine
10
10.094323
20
-4.446597
30
0
11
10.094323
21
-5.946597
31
0
39
0
210
0
220
0
230
1
0
LINE
5
C6
100
AcDbEntity
8
1
62
256
6
ByLayer
370
18
48
1
60
0
100
AcDbLine
10
9.906423
20
-4.446597
30
0
11
9.906423
21
-5.946597
31
0
39
0
210
0
220
0
230
1
0
LINE
5
C7
100
AcDbEntity
8
1
62
256
6
ByLayer
370
18
48
1
60
0
100
AcDbLine
10
9.502094
20
-4.446597
30
0
11
9.502094
21
-5.946597
31
0
39
0
210
0
220
0
230
1
0
LINE
5
C8
100
AcDbEntity
8
1
62
256
6
ByLayer
370
18
48
1
60
0
100
AcDbLine
10
9.406254
20
-4.446597
30
0
11
9.406254
21
-5.946597
31
0
39
0
210
0
220
0
230
1
0
LINE
5
C9
100
AcDbEntity
8
1
62
256
6
ByLayer
370
18
48
1
60
0
100
AcDbLine
10
8.836884
20
-4.446597
30
0
11
8.836884
21
-5.946597
31
0
39
0
210
0
220
0
230
1
0
LINE
5
CA
100
AcDbEntity
8
1
62
256
6
ByLayer
370
18
48
1
60
0
100
AcDbLine
10
8.553144
20
-4.446597
30
0
11
8.553144
21
-5.946597
31
0
39
0
210
0
220
0
230
1
0
LINE
5
CB
100
AcDbEntity
8
1
62
256
6
ByLayer
370
18
48
1
60
0
100
AcDbLine
10
7.594013
20
-5.946597
30
0
11
7.133356
21
-5.868169
31
0
39
0
210
0
220
0
230
1
0
LINE
5
CC
100
AcDbEntity
8
1
62
256
6
ByLayer
370
18
48
1
60
0
100
AcDbLine
10
12.405987
20
-5.946597
30
0
11
12.866644
21
-5.868169
31
0
39
0
210
0
220
0
230
1
0
LINE
5
CD
100
AcDbEntity
8
1
62
256
6
ByLayer
370
18
48
1
60
0
100
AcDbLine
10
11.965808
20
5.553403
30
0
11
11.965808
21
-2.346597
31
0
39
0
210
0
220
0
230
1
0
LINE
5
CE
100
AcDbEntity
8
1
62
256
6
ByLayer
370
18
48
1
60
0
100
AcDbLine
10
8.034192
20
5.553403
30
0
11
8.034192
21
-2.346597
31
0
39
0
210
0
220
0
230
1
0
LINE
5
CF
100
AcDbEntity
8
1
62
256
6
ByLayer
370
18
48
1
60
0
100
AcDbLine
10
11.720082
20
-2.717407
30
0
11
11.720082
21
-2.86474
31
0
39
0
210
0
220
0
230
1
0
LINE
5
D0
100
AcDbEntity
8
1
62
256
6
ByLayer
370
18
48
1
60
0
100
AcDbLine
10
8.279918
20
-2.717407
30
0
11
8.279918
21
-2.86474
31
0
39
0
210
0
220
0
230
1
0
LINE
5
D1
100
AcDbEntity
8
1
62
256
6
ByLayer
370
18
48
1
60
0
100
AcDbLine
10
11.84344
20
-3.155689
30
0
11
12.948712
21
-4.216597
31
0
39
0
210
0
220
0
230
1
0
LINE
5
D2
100
AcDbEntity
8
1
62
256
6
ByLayer
370
18
48
1
60
0
100
AcDbLine
10
8.15656
20
-3.155689
30
0
11
7.051288
21
-4.216597
31
0
39
0
210
0
220
0
230
1
0
LINE
5
D3
100
AcDbEntity
8
1
62
256
6
ByLayer
370
18
48
1
60
0
100
AcDbLine
10
12.948712
20
-4.216597
30
0
11
12.948712
21
-5.76954
31
0
39
0
210
0
220
0
230
1
0
LINE
5
D4
100
AcDbEntity
8
1
62
256
6
ByLayer
370
18
48
1
60
0
100
AcDbLine
10
7.051288
20
-4.216597
30
0
11
7.051288
21
-5.76954
31
0
39
0
210
0
220
0
230
1
0
LINE
5
D5
100
AcDbEntity
8
1
62
256
6
ByLayer
370
18
48
1
60
0
100
AcDbLine
10
11.474356
20
6.053403
30
0
11
11.965808
21
5.553403
31
0
39
0
210
0
220
0
230
1
0
LINE
5
D6
100
AcDbEntity
8
1
62
256
6
ByLayer
370
18
48
1
60
0
100
AcDbLine
10
8.525644
20
6.053403
30
0
11
8.034192
21
5.553403
31
0
39
0
210
0
220
0
230
1
0
LINE
5
D7
100
AcDbEntity
8
1
62
256
6
ByLayer
370
18
48
1
60
0
100
AcDbLine
10
11.085522
20
-4.446597
30
0
11
11.085522
21
-5.946597
31
0
39
0
210
0
220
0
230
1
0
LINE
5
D8
100
AcDbEntity
8
1
62
256
6
ByLayer
370
18
48
1
60
0
100
AcDbLine
10
11.36269
20
-4.446597
30
0
11
11.36269
21
-5.946597
31
0
39
0
210
0
220
0
230
1
0
LINE
5
D9
100
AcDbEntity
8
1
62
256
6
ByLayer
370
18
48
1
60
0
100
AcDbLine
10
11.583429
20
-4.446597
30
0
11
11.583429
21
-5.946597
31
0
39
0
210
0
220
0
230
1
0
LINE
5
DA
100
AcDbEntity
8
1
62
256
6
ByLayer
370
18
48
1
60
0
100
AcDbLine
10
11.636568
20
-4.446597
30
0
11
11.636568
21
-5.946597
31
0
39
0
210
0
220
0
230
1
0
LINE
5
DB
100
AcDbEntity
8
1
62
256
6
ByLayer
370
18
48
1
60
0
100
AcDbLine
10
8.742561
20
-4.446597
30
0
11
8.742561
21
-5.946597
31
0
39
0
210
0
220
0
230
1
0
LINE
5
DC
100
AcDbEntity
8
1
62
256
6
ByLayer
370
18
48
1
60
0
100
AcDbLine
10
8.772279
20
-4.446597
30
0
11
8.772279
21
-5.946597
31
0
39
0
210
0
220
0
230
1
0
LINE
5
DD
100
AcDbEntity
8
1
62
256
6
ByLayer
370
18
48
1
60
0
100
AcDbLine
10
4.8
20
6.35
30
0
11
4.8
21
5.35
31
0
39
0
210
0
220
0
230
1
0
LINE
5
DE
100
AcDbEntity
8
SK1
62
256
6
ByLayer
370
18
48
1
60
0
100
AcDbLine
10
-85.5
20
5.35
30
0
11
-84.5
21
5.35
31
0
39
0
210
0
220
0
230
1
0
LINE
5
DF
100
AcDbEntity
8
SK1
62
256
6
ByLayer
370
18
48
1
60
0
100
AcDbLine
10
-84.5
20
6.35
30
0
11
-85
21
5.85
31
0
39
0
210
0
220
0
230
1
0
LINE
5
E0
100
AcDbEntity
8
SK1
62
256
6
ByLayer
370
18
48
1
60
0
100
AcDbLine
10
-84.5
20
6.35
30
0
11
-84.5
21
5.35
31
0
39
0
210
0
220
0
230
1
0
LINE
5
E1
100
AcDbEntity
8
SK1
62
256
6
ByLayer
370
18
48
1
60
0
100
AcDbLine
10
-84.5
20
-6.35
30
0
11
-85.5
21
-5.35
31
0
39
0
210
0
220
0
230
1
0
LINE
5
E2
100
AcDbEntity
8
SK1
62
256
6
ByLayer
370
18
48
1
60
0
100
AcDbLine
10
-84.5
20
-5.35
30
0
11
-85.5
21
-5.35
31
0
39
0
210
0
220
0
230
1
0
LINE
5
E3
100
AcDbEntity
8
SK1
62
256
6
ByLayer
370
18
48
1
60
0
100
AcDbLine
10
-85.5
20
5.35
30
0
11
-85
21
5.85
31
0
39
0
210
0
220
0
230
1
0
LINE
5
E4
100
AcDbEntity
8
SK1
62
256
6
ByLayer
370
18
48
1
60
0
100
AcDbLine
10
-85
20
5.85
30
0
11
-84.5
21
5.35
31
0
39
0
210
0
220
0
230
1
0
LINE
5
E5
100
AcDbEntity
8
SK1
62
256
6
ByLayer
370
18
48
1
60
0
100
AcDbLine
10
-84.5
20
-6.35
30
0
11
-84.5
21
-5.35
31
0
39
0
210
0
220
0
230
1
0
LINE
5
E6
100
AcDbEntity
8
1
62
256
6
ByLayer
370
18
48
1
60
0
100
AcDbLine
10
11.5
20
5.35
30
0
11
10.5
21
6.35
31
0
39
0
210
0
220
0
230
1
0
LINE
5
E7
100
AcDbEntity
8
1
62
256
6
ByLayer
370
18
48
1
60
0
100
AcDbLine
10
11.645897
20
-0.12153
30
0
11
11.825556
21
-0.816716
31
0
39
0
210
0
220
0
230
1
0
LINE
5
E8
100
AcDbEntity
8
1
62
256
6
ByLayer
370
18
48
1
60
0
100
AcDbLine
10
11.599773
20
0.343885
30
0
11
14.033013
21
0.147414
31
0
39
0
210
0
220
0
230
1
0
LINE
5
E9
100
AcDbEntity
8
1
62
256
6
ByLayer
370
18
48
1
60
0
100
AcDbLine
10
11.149773
20
0.343885
30
0
11
13.583013
21
0.147414
31
0
39
0
210
0
220
0
230
1
0
LINE
5
EA
100
AcDbEntity
8
1
62
256
6
ByLayer
370
18
48
1
60
0
100
AcDbLine
10
10.701952
20
-0.816716
30
0
11
10.923659
21
-0.12153
31
0
39
0
210
0
220
0
230
1
0
LINE
5
EB
100
AcDbEntity
8
1
62
256
6
ByLayer
370
18
48
1
60
0
100
AcDbLine
10
9.076341
20
-0.12153
30
0
11
9.298048
21
-0.816716
31
0
39
0
210
0
220
0
230
1
0
LINE
5
EC
100
AcDbEntity
8
1
62
256
6
ByLayer
370
18
48
1
60
0
100
AcDbLine
10
8.850227
20
0.343885
30
0
11
6.416987
21
0.147414
31
0
39
0
210
0
220
0
230
1
0
LINE
5
ED
100
AcDbEntity
8
1
62
256
6
ByLayer
370
18
48
1
60
0
100
AcDbLine
10
8.400227
20
0.343885
30
0
11
5.966987
21
0.147414
31
0
39
0
210
0
220
0
230
1
0
LINE
5
EE
100
AcDbEntity
8
1
62
256
6
ByLayer
370
18
48
1
60
0
100
AcDbLine
10
8.174444
20
-0.816716
30
0
11
8.354103
21
-0.12153
31
0
39
0
210
0
220
0
230
1
0
LINE
5
EF
100
AcDbEntity
8
1
62
256
6
ByLayer
370
18
48
1
60
0
100
AcDbLine
10
9.277762
20
-0.12153
30
0
11
8.876396
21
-0.816716
31
0
39
0
210
0
220
0
230
1
0
LINE
5
F0
100
AcDbEntity
8
1
62
256
6
ByLayer
370
18
48
1
60
0
100
AcDbLine
10
11.123604
20
-0.816716
30
0
11
10.722238
21
-0.12153
31
0
39
0
210
0
220
0
230
1
0
LINE
5
F1
100
AcDbEntity
8
1
62
256
6
ByLayer
370
18
48
1
60
0
100
AcDbLine
10
10.45
20
0.343885
30
0
11
10.45
21
0.126234
31
0
39
0
210
0
220
0
230
1
0
LINE
5
F2
100
AcDbEntity
8
1
62
256
6
ByLayer
370
18
48
1
60
0
100
AcDbLine
10
9.55
20
0.126234
30
0
11
10.45
21
0.126234
31
0
39
0
210
0
220
0
230
1
0
LINE
5
F3
100
AcDbEntity
8
1
62
256
6
ByLayer
370
18
48
1
60
0
100
AcDbLine
10
9.55
20
0.343885
30
0
11
9.55
21
0.126234
31
0
39
0
210
0
220
0
230
1
0
LINE
5
F4
100
AcDbEntity
8
1
62
256
6
ByLayer
370
18
48
1
60
0
100
AcDbLine
10
10.45
20
0.126234
30
0
11
11.188633
21
-1.15
31
0
39
0
210
0
220
0
230
1
0
LINE
5
F5
100
AcDbEntity
8
1
62
256
6
ByLayer
370
18
48
1
60
0
100
AcDbLine
10
8.811367
20
-1.15
30
0
11
9.55
21
0.126234
31
0
39
0
210
0
220
0
230
1
0
LINE
5
F6
100
AcDbEntity
8
1
62
256
6
ByLayer
370
18
48
1
60
0
100
AcDbLine
10
4.5
20
-5.825028
30
0
11
4.5
21
-5.35
31
0
39
0
210
0
220
0
230
1
0
LINE
5
F7
100
AcDbEntity
8
1
62
256
6
ByLayer
370
18
48
1
60
0
100
AcDbLine
10
10.5
20
6.35
30
0
11
0
21
6.35
31
0
39
0
210
0
220
0
230
1
0
LINE
5
F8
100
AcDbEntity
8
SK1
62
256
6
ByLayer
370
18
48
1
60
0
100
AcDbLine
10
-85.5
20
5.35
30
0
11
-85.5
21
-5.35
31
0
39
0
210
0
220
0
230
1
0
LINE
5
F9
100
AcDbEntity
8
SK1
62
256
6
ByLayer
370
18
48
1
60
0
100
AcDbLine
10
-2.5
20
-6.35
30
0
11
-84.5
21
-6.35
31
0
39
0
210
0
220
0
230
1
0
LINE
5
FA
100
AcDbEntity
8
SK1
62
256
6
ByLayer
370
18
48
1
60
0
100
AcDbLine
10
-2.459936
20
-1.15
30
0
11
-2.459936
21
-5.35
31
0
39
0
210
0
220
0
230
1
0
LINE
5
FB
100
AcDbEntity
8
SK1
62
256
6
ByLayer
370
18
48
1
60
0
100
AcDbLine
10
-84.5
20
-5.35
30
0
11
-2.459936
21
-5.35
31
0
39
0
210
0
220
0
230
1
0
LINE
5
FC
100
AcDbEntity
8
1
62
256
6
ByLayer
370
18
48
1
60
0
100
AcDbLine
10
4.8
20
5.35
30
0
11
0
21
5.35
31
0
39
0
210
0
220
0
230
1
0
LINE
5
FD
100
AcDbEntity
8
1
62
256
6
ByLayer
370
18
48
1
60
0
100
AcDbLine
10
4.8
20
5.35
30
0
11
5.5
21
6.339949
31
0
39
0
210
0
220
0
230
1
0
LINE
5
FE
100
AcDbEntity
8
1
62
256
6
ByLayer
370
18
48
1
60
0
100
AcDbLine
10
4.5
20
-5.35
30
0
11
4.5
21
-1.15
31
0
39
0
210
0
220
0
230
1
0
LINE
5
FF
100
AcDbEntity
8
1
62
256
6
ByLayer
370
18
48
1
60
0
100
AcDbLine
10
11.5
20
5.35
30
0
11
14.5
21
2.35
31
0
39
0
210
0
220
0
230
1
0
LINE
5
100
100
AcDbEntity
8
SK1
62
256
6
ByLayer
370
18
48
1
60
0
100
AcDbLine
10
-84.5
20
-5.35
30
0
11
-84.5
21
5.35
31
0
39
0
210
0
220
0
230
1
0
LINE
5
101
100
AcDbEntity
8
1
62
256
6
ByLayer
370
18
48
1
60
0
100
AcDbLine
10
5.5
20
6.339949
30
0
11
5.5
21
-1.15
31
0
39
0
210
0
220
0
230
1
0
LINE
5
102
100
AcDbEntity
8
1
62
256
6
ByLayer
370
18
48
1
60
0
100
AcDbLine
10
5.5
20
6.339949
30
0
11
5.468378
21
6.35
31
0
39
0
210
0
220
0
230
1
0
LINE
5
103
100
AcDbEntity
8
1
62
256
6
ByLayer
370
18
48
1
60
0
100
AcDbLine
10
7.520726
20
6.35
30
0
11
7.520726
21
-1.15
31
0
39
0
210
0
220
0
230
1
0
LINE
5
104
100
AcDbEntity
8
1
62
256
6
ByLayer
370
18
48
1
60
0
100
AcDbLine
10
6.790606
20
-1.15
30
0
11
6.416987
21
0.147414
31
0
39
0
210
0
220
0
230
1
0
LINE
5
105
100
AcDbEntity
8
1
62
256
6
ByLayer
370
18
48
1
60
0
100
AcDbLine
10
6.416987
20
0.147414
30
0
11
5.966987
21
0.147414
31
0
39
0
210
0
220
0
230
1
0
LINE
5
106
100
AcDbEntity
8
1
62
256
6
ByLayer
370
18
48
1
60
0
100
AcDbLine
10
5.966987
20
0.147414
30
0
11
5.593368
21
-1.15
31
0
39
0
210
0
220
0
230
1
0
LINE
5
107
100
AcDbEntity
8
1
62
256
6
ByLayer
370
18
48
1
60
0
100
AcDbLine
10
14.406632
20
-1.15
30
0
11
14.033013
21
0.147414
31
0
39
0
210
0
220
0
230
1
0
LINE
5
108
100
AcDbEntity
8
1
62
256
6
ByLayer
370
18
48
1
60
0
100
AcDbLine
10
14.033013
20
0.147414
30
0
11
13.583013
21
0.147414
31
0
39
0
210
0
220
0
230
1
0
LINE
5
109
100
AcDbEntity
8
1
62
256
6
ByLayer
370
18
48
1
60
0
100
AcDbLine
10
13.583013
20
0.147414
30
0
11
13.209394
21
-1.15
31
0
39
0
210
0
220
0
230
1
0
LINE
5
10A
100
AcDbEntity
8
1
62
256
6
ByLayer
370
18
48
1
60
0
100
AcDbLine
10
12.479274
20
4.370726
30
0
11
12.479274
21
-1.15
31
0
39
0
210
0
220
0
230
1
0
LINE
5
10B
100
AcDbEntity
8
1
62
256
6
ByLayer
370
18
48
1
60
0
100
AcDbLine
10
14.5
20
2.35
30
0
11
12.479274
21
4.370726
31
0
39
0
210
0
220
0
230
1
0
LINE
5
10C
100
AcDbEntity
8
1
62
256
6
ByLayer
370
18
48
1
60
0
100
AcDbLine
10
14.5
20
2.35
30
0
11
14.5
21
-1.15
31
0
39
0
210
0
220
0
230
1
0
LINE
5
10D
100
AcDbEntity
8
1
62
256
6
ByLayer
370
18
48
1
60
0
100
AcDbLine
10
14.406632
20
-1.15
30
0
11
14.5
21
-1.15
31
0
39
0
210
0
220
0
230
1
0
LINE
5
10E
100
AcDbEntity
8
1
62
256
6
ByLayer
370
18
48
1
60
0
100
AcDbLine
10
11.65
20
5.2
30
0
11
11.65
21
-0.299519
31
0
39
0
210
0
220
0
230
1
0
LINE
5
10F
100
AcDbEntity
8
1
62
256
6
ByLayer
370
18
48
1
60
0
100
AcDbLine
10
15.4
20
-5.463765
30
0
11
15.4
21
-6.1
31
0
39
0
210
0
220
0
230
1
0
LINE
5
110
100
AcDbEntity
8
1
62
256
6
ByLayer
370
18
48
1
60
0
100
AcDbLine
10
8.574265
20
-0.3
30
0
11
7.978319
21
-0.3
31
0
39
0
210
0
220
0
230
1
0
LINE
5
111
100
AcDbEntity
8
1
62
256
6
ByLayer
370
18
48
1
60
0
100
AcDbLine
10
5.5
20
-1.25
30
0
11
5.611698
21
-1.25
31
0
39
0
210
0
220
0
230
1
0
LINE
5
112
100
AcDbEntity
8
1
62
256
6
ByLayer
370
18
48
1
60
0
100
AcDbLine
10
13.839955
20
-0.3
30
0
11
13.558576
21
-0.3
31
0
39
0
210
0
220
0
230
1
0
LINE
5
113
100
AcDbEntity
8
1
62
256
6
ByLayer
370
18
48
1
60
0
100
AcDbLine
10
9.277083
20
-1.25
30
0
11
10.712803
21
-1.25
31
0
39
0
210
0
220
0
230
1
0
LINE
5
114
100
AcDbEntity
8
1
62
256
6
ByLayer
370
18
48
1
60
0
100
AcDbLine
10
15.675
20
-6.1
30
0
11
13.457691
21
-6.1
31
0
39
0
210
0
220
0
230
1
0
LINE
5
115
100
AcDbEntity
8
1
62
256
6
ByLayer
370
18
48
1
60
0
100
AcDbLine
10
7.925
20
-3.118825
30
0
11
12.075
21
-3.118825
31
0
39
0
210
0
220
0
230
1
0
LINE
5
116
100
AcDbEntity
8
1
62
256
6
ByLayer
370
18
48
1
60
0
100
AcDbLine
10
12.190926
20
-3.400431
30
0
11
7.809074
21
-3.400431
31
0
39
0
210
0
220
0
230
1
0
LINE
5
117
100
AcDbEntity
8
1
62
256
6
ByLayer
370
18
48
1
60
0
100
AcDbLine
10
12.912063
20
-4.127889
30
0
11
7.087937
21
-4.127889
31
0
39
0
210
0
220
0
230
1
0
LINE
5
118
100
AcDbEntity
8
1
62
256
6
ByLayer
370
18
48
1
60
0
100
AcDbLine
10
12.969958
20
-4.263457
30
0
11
7.030042
21
-4.263457
31
0
39
0
210
0
220
0
230
1
0
LINE
5
119
100
AcDbEntity
8
1
62
256
6
ByLayer
370
18
48
1
60
0
100
AcDbLine
10
9.905677
20
-4.446597
30
0
11
9.198217
21
-4.446597
31
0
39
0
210
0
220
0
230
1
0
LINE
5
11A
100
AcDbEntity
8
1
62
256
6
ByLayer
370
18
48
1
60
0
100
AcDbLine
10
11.163116
20
-4.446597
30
0
11
10.593746
21
-4.446597
31
0
39
0
210
0
220
0
230
1
0
LINE
5
11B
100
AcDbEntity
8
1
62
256
6
ByLayer
370
18
48
1
60
0
100
AcDbLine
10
13
20
-5.76954
30
0
11
7.051288
21
-5.76954
31
0
39
0
210
0
220
0
230
1
0
LINE
5
11C
100
AcDbEntity
8
1
62
256
6
ByLayer
370
18
48
1
60
0
100
AcDbLine
10
13
20
-4.216597
30
0
11
7.051288
21
-4.216597
31
0
39
0
210
0
220
0
230
1
0
LINE
5
11D
100
AcDbEntity
8
1
62
256
6
ByLayer
370
18
48
1
60
0
100
AcDbLine
10
12
20
5.553403
30
0
11
8.034192
21
5.553403
31
0
39
0
210
0
220
0
230
1
0
LINE
5
11E
100
AcDbEntity
8
1
62
256
6
ByLayer
370
18
48
1
60
0
100
AcDbLine
10
11.5
20
6.053403
30
0
11
8.525644
21
6.053403
31
0
39
0
210
0
220
0
230
1
0
LINE
5
11F
100
AcDbEntity
8
1
62
256
6
ByLayer
370
18
48
1
60
0
100
AcDbLine
10
12.916505
20
-5.868169
30
0
11
7.133356
21
-5.868169
31
0
39
0
210
0
220
0
230
1
0
LINE
5
120
100
AcDbEntity
8
1
62
256
6
ByLayer
370
18
48
1
60
0
100
AcDbLine
10
12.447836
20
-5.946597
30
0
11
7.594013
21
-5.946597
31
0
39
0
210
0
220
0
230
1
0
LINE
5
121
100
AcDbEntity
8
1
62
256
6
ByLayer
370
18
48
1
60
0
100
AcDbLine
10
11.965808
20
-2.346597
30
0
11
8
21
-2.346597
31
0
39
0
210
0
220
0
230
1
0
LINE
5
122
100
AcDbEntity
8
1
62
256
6
ByLayer
370
18
48
1
60
0
100
AcDbLine
10
8.25
20
-2.86474
30
0
11
11.720082
21
-2.86474
31
0
39
0
210
0
220
0
230
1
0
LINE
5
123
100
AcDbEntity
8
1
62
256
6
ByLayer
370
18
48
1
60
0
100
AcDbLine
10
11.720082
20
-2.717407
30
0
11
8.25
21
-2.717407
31
0
39
0
210
0
220
0
230
1
0
LINE
5
124
100
AcDbEntity
8
1
62
256
6
ByLayer
370
18
48
1
60
0
100
AcDbLine
10
11.84344
20
-3.155689
30
0
11
8.124497
21
-3.155689
31
0
39
0
210
0
220
0
230
1
0
LINE
5
125
100
AcDbEntity
8
1
62
256
6
ByLayer
370
18
48
1
60
0
100
AcDbLine
10
10.45
20
0.126234
30
0
11
10.45
21
-1.15
31
0
39
0
210
0
220
0
230
1
0
LINE
5
126
100
AcDbEntity
8
1
62
256
6
ByLayer
370
18
48
1
60
0
100
AcDbLine
10
9.55
20
0.126234
30
0
11
9.55
21
-1.15
31
0
39
0
210
0
220
0
230
1
0
LINE
5
127
100
AcDbEntity
8
1
62
256
6
ByLayer
370
18
48
1
60
0
100
AcDbLine
10
10.621538
20
-0.625
30
0
11
9.378462
21
-0.625
31
0
39
0
210
0
220
0
230
1
0
LINE
5
128
100
AcDbEntity
8
1
62
256
6
ByLayer
370
18
48
1
60
0
100
AcDbLine
10
11.012917
20
-0.625
30
0
11
11.634454
21
-0.625
31
0
39
0
210
0
220
0
230
1
0
LINE
5
129
100
AcDbEntity
8
1
62
256
6
ByLayer
370
18
48
1
60
0
100
AcDbLine
10
8.365546
20
-0.625
30
0
11
8.987083
21
-0.625
31
0
39
0
210
0
220
0
230
1
0
LINE
5
12A
100
AcDbEntity
8
1
62
256
6
ByLayer
370
18
48
1
60
0
100
AcDbLine
10
10.712803
20
-1.25
30
0
11
11.331245
21
-1.25
31
0
39
0
210
0
220
0
230
1
0
LINE
5
12B
100
AcDbEntity
8
1
62
256
6
ByLayer
370
18
48
1
60
0
100
AcDbLine
10
18.632298
20
-1.25
30
0
11
18.856868
21
-1.25
31
0
39
0
210
0
220
0
230
1
0
LINE
5
12C
100
AcDbEntity
8
1
62
256
6
ByLayer
370
18
48
1
60
0
100
AcDbLine
10
7.955951
20
-1.25
30
0
11
9.277083
21
-1.25
31
0
39
0
210
0
220
0
230
1
0
LINE
5
12D
100
AcDbEntity
8
1
62
256
6
ByLayer
370
18
48
1
60
0
100
AcDbLine
10
9.407234
20
-0.3
30
0
11
10
21
-0.3
31
0
39
0
210
0
220
0
230
1
0
LINE
5
12E
100
AcDbEntity
8
1
62
256
6
ByLayer
370
18
48
1
60
0
100
AcDbLine
10
8.604471
20
-4.446597
30
0
11
8.836884
21
-4.446597
31
0
39
0
210
0
220
0
230
1
0
LINE
5
12F
100
AcDbEntity
8
1
62
256
6
ByLayer
370
18
48
1
60
0
100
AcDbLine
10
8.359372
20
-4.446597
30
0
11
8.416571
21
-4.446597
31
0
39
0
210
0
220
0
230
1
0
LINE
5
130
100
AcDbEntity
8
1
62
256
6
ByLayer
370
18
48
1
60
0
100
AcDbLine
10
10.093577
20
-4.446597
30
0
11
10.094323
21
-4.446597
31
0
39
0
210
0
220
0
230
1
0
LINE
5
131
100
AcDbEntity
8
1
62
256
6
ByLayer
370
18
48
1
60
0
100
AcDbLine
10
11.446856
20
-4.446597
30
0
11
11.583429
21
-4.446597
31
0
39
0
210
0
220
0
230
1
0
LINE
5
132
100
AcDbEntity
8
1
62
256
6
ByLayer
370
18
48
1
60
0
100
AcDbLine
10
11.583429
20
-4.446597
30
0
11
11.640628
21
-4.446597
31
0
39
0
210
0
220
0
230
1
0
LINE
5
133
100
AcDbEntity
8
1
62
256
6
ByLayer
370
18
48
1
60
0
100
AcDbLine
10
10.094323
20
-4.446597
30
0
11
10.497906
21
-4.446597
31
0
39
0
210
0
220
0
230
1
0
LINE
5
134
100
AcDbEntity
8
1
62
256
6
ByLayer
370
18
48
1
60
0
100
AcDbLine
10
8.836884
20
-4.446597
30
0
11
8.914478
21
-4.446597
31
0
39
0
210
0
220
0
230
1
0
LINE
5
135
100
AcDbEntity
8
SK1
62
256
6
ByLayer
370
18
48
1
60
0
100
AcDbLine
10
-2.5
20
-6.35
30
0
11
0
21
-6.35
31
0
39
0
210
0
220
0
230
1
0
LINE
5
136
100
AcDbEntity
8
SK1
62
256
6
ByLayer
370
18
48
1
60
0
100
AcDbLine
10
-2.459936
20
-5.35
30
0
11
0
21
-5.35
31
0
39
0
210
0
220
0
230
1
0
LINE
5
137
100
AcDbEntity
8
1
62
256
6
ByLayer
370
18
48
1
60
0
100
AcDbLine
10
4.8
20
5.35
30
0
11
11.5
21
5.35
31
0
39
0
210
0
220
0
230
1
0
LINE
5
138
100
AcDbEntity
8
1
62
256
6
ByLayer
370
18
48
1
60
0
100
AcDbLine
10
4.5
20
-1.15
30
0
11
14.406632
21
-1.15
31
0
39
0
210
0
220
0
230
1
0
LINE
5
139
100
AcDbEntity
8
SK1
62
256
6
ByLayer
370
18
48
1
60
0
100
AcDbLine
10
-2.459936
20
-1.15
30
0
11
0
21
-1.15
31
0
39
0
210
0
220
0
230
1
0
LINE
5
13A
100
AcDbEntity
8
1
62
256
6
ByLayer
370
18
48
1
60
0
100
AcDbLine
10
-2.5
20
-1.15
30
0
11
-2.459936
21
-1.15
31
0
39
0
210
0
220
0
230
1
0
LINE
5
13B
100
AcDbEntity
8
1
62
256
6
ByLayer
370
18
48
1
60
0
100
AcDbLine
10
5.611698
20
-1.25
30
0
11
7.955951
21
-1.25
31
0
39
0
210
0
220
0
230
1
0
LINE
5
13C
100
AcDbEntity
8
1
62
256
6
ByLayer
370
18
48
1
60
0
100
AcDbLine
10
5.5
20
-6.1
30
0
11
13.457691
21
-6.1
31
0
39
0
210
0
220
0
230
1
0
LINE
5
13D
100
AcDbEntity
8
1
62
256
6
ByLayer
370
18
48
1
60
0
100
AcDbLine
10
8.914478
20
-4.446597
30
0
11
9.198217
21
-4.446597
31
0
39
0
210
0
220
0
230
1
0
LINE
5
13E
100
AcDbEntity
8
1
62
256
6
ByLayer
370
18
48
1
60
0
100
AcDbLine
10
10.497906
20
-4.446597
30
0
11
10.593746
21
-4.446597
31
0
39
0
210
0
220
0
230
1
0
LINE
5
13F
100
AcDbEntity
8
1
62
256
6
ByLayer
370
18
48
1
60
0
100
AcDbLine
10
7
20
-5.76954
30
0
11
7.051288
21
-5.76954
31
0
39
0
210
0
220
0
230
1
0
LINE
5
140
100
AcDbEntity
8
1
62
256
6
ByLayer
370
18
48
1
60
0
100
AcDbLine
10
7
20
-4.216597
30
0
11
7.051288
21
-4.216597
31
0
39
0
210
0
220
0
230
1
0
LINE
5
141
100
AcDbEntity
8
1
62
256
6
ByLayer
370
18
48
1
60
0
100
AcDbLine
10
8
20
5.553403
30
0
11
8.034192
21
5.553403
31
0
39
0
210
0
220
0
230
1
0
LINE
5
142
100
AcDbEntity
8
1
62
256
6
ByLayer
370
18
48
1
60
0
100
AcDbLine
10
8.5
20
6.053403
30
0
11
8.525644
21
6.053403
31
0
39
0
210
0
220
0
230
1
0
LINE
5
143
100
AcDbEntity
8
1
62
256
6
ByLayer
370
18
48
1
60
0
100
AcDbLine
10
7.083495
20
-5.868169
30
0
11
7.133356
21
-5.868169
31
0
39
0
210
0
220
0
230
1
0
LINE
5
144
100
AcDbEntity
8
1
62
256
6
ByLayer
370
18
48
1
60
0
100
AcDbLine
10
7.552164
20
-5.946597
30
0
11
7.594013
21
-5.946597
31
0
39
0
210
0
220
0
230
1
0
LINE
5
145
100
AcDbEntity
8
1
62
256
6
ByLayer
370
18
48
1
60
0
100
AcDbLine
10
11.965808
20
-2.346597
30
0
11
12
21
-2.346597
31
0
39
0
210
0
220
0
230
1
0
LINE
5
146
100
AcDbEntity
8
1
62
256
6
ByLayer
370
18
48
1
60
0
100
AcDbLine
10
11.720082
20
-2.86474
30
0
11
11.75
21
-2.86474
31
0
39
0
210
0
220
0
230
1
0
LINE
5
147
100
AcDbEntity
8
1
62
256
6
ByLayer
370
18
48
1
60
0
100
AcDbLine
10
11.720082
20
-2.717407
30
0
11
11.75
21
-2.717407
31
0
39
0
210
0
220
0
230
1
0
LINE
5
148
100
AcDbEntity
8
1
62
256
6
ByLayer
370
18
48
1
60
0
100
AcDbLine
10
11.84344
20
-3.155689
30
0
11
11.875503
21
-3.155689
31
0
39
0
210
0
220
0
230
1
0
LINE
5
149
100
AcDbEntity
8
1
62
256
6
ByLayer
370
18
48
1
60
0
100
AcDbLine
10
10.5
20
6.35
30
0
11
11.5
21
5.35
31
0
39
0
210
0
220
0
230
1
0
LINE
5
14A
100
AcDbEntity
8
81
62
256
6
ByLayer
370
18
48
1
60
0
100
AcDbLine
10
19
20
-9.45
30
0
11
19
21
-11.221509
31
0
39
0
210
0
220
0
230
1
0
LINE
5
14B
100
AcDbEntity
8
80
62
256
6
ByLayer
370
18
48
1
60
0
100
AcDbLine
10
0
20
0
30
0
11
-5.352411
21
0
31
0
39
0
210
0
220
0
230
1
0
LINE
5
14C
100
AcDbEntity
8
SK1
62
256
6
ByLayer
370
18
48
1
60
0
100
AcDbLine
10
0
20
6.35
30
0
11
-84.5
21
6.35
31
0
39
0
210
0
220
0
230
1
0
LINE
5
14D
100
AcDbEntity
8
SK1
62
256
6
ByLayer
370
18
48
1
60
0
100
AcDbLine
10
0
20
5.35
30
0
11
-84.5
21
5.35
31
0
39
0
210
0
220
0
230
1
0
LINE
5
14E
100
AcDbEntity
8
1
62
256
6
ByLayer
370
18
48
1
60
0
100
AcDbLine
10
0
20
-1.15
30
0
11
4.5
21
-1.15
31
0
39
0
210
0
220
0
230
1
0
LINE
5
14F
100
AcDbEntity
8
1
62
256
6
ByLayer
370
18
48
1
60
0
100
AcDbLine
10
0
20
-5.35
30
0
11
4.5
21
-5.35
31
0
39
0
210
0
220
0
230
1
0
LINE
5
150
100
AcDbEntity
8
1
62
256
6
ByLayer
370
18
48
1
60
0
100
AcDbLine
10
0
20
-6.35
30
0
11
3.537802
21
-6.35
31
0
39
0
210
0
220
0
230
1
0
MTEXT
5
1B6
100
AcDbEntity
8
SK6
62
256
6
ByLayer
370
18
48
1
60
0
100
AcDbMText
10
-49.435312
20
-14.933023
30
0
210
0
220
0
230
1
1
\W0.7623;MBG-08A-09L
40
3.175
41
0
44
1.084337
50
0
71
7
72
5
7
iso_b_vert
0
DIMENSION
5
1C8
100
AcDbEntity
8
SK2
62
256
6
ByLayer
370
13
48
1
60
0
100
AcDbDimension
2
DimnDraft3D1
10
-92.677031
20
-6.35
30
0
11
-92.677031
21
0
31
0
70
32
71
5
72
1
41
1
210
0
220
0
230
1
3
Standard
100
AcDbAlignedDimension
13
-86.0875
23
6.35
33
0
14
-86.0875
24
-6.35
34
0
50
90
100
AcDbRotatedDimension
1001
ACAD
1000
DSTYLE
1002
{
1070
    74
1070
     0
1070
   279
1070
     0
1070
   172
1070
     1
1070
   173
1070
     1
1070
   340
1005
1B7
1070
   271
1070
     1
1070
   272
1070
     2
1070
    77
1070
     1
1070
    73
1070
     0
1070
   171
1070
     3
1070
   274
1070
     4
1070
   177
1070
     7
1070
   176
1070
     7
1070
   178
1070
     7
1070
    78
1070
     8
1070
    48
1040
-0.005
1070
    41
1041
3.175
1070
   147
1041
1.75006
1070
    42
1041
1.5875
1070
    44
1041
3.175
1070
   140
1041
3.50012
1070
   343
1005
0
1070
   344
1005
0
1002
}
0
DIMENSION
5
1D6
100
AcDbEntity
8
SK2
62
256
6
ByLayer
370
13
48
1
60
0
100
AcDbDimension
2
DimnDraft3D2
10
19
20
16.047931
30
0
11
-33.25
21
16.047931
31
0
70
32
71
5
72
1
41
1
210
0
220
0
230
1
3
Standard
100
AcDbAlignedDimension
13
-85.5
23
6.9375
33
0
14
19
24
-7.8625
34
0
50
0
100
AcDbRotatedDimension
1001
ACAD
1000
DSTYLE
1002
{
1070
   279
1070
     0
1070
   172
1070
     1
1070
   173
1070
     1
1070
   340
1005
1B7
1070
   271
1070
     1
1070
   272
1070
     2
1070
    77
1070
     1
1070
    73
1070
     0
1070
   171
1070
     3
1070
   274
1070
     4
1070
   177
1070
     7
1070
   176
1070
     7
1070
   178
1070
     7
1070
    78
1070
     8
1070
    48
1040
-0.005
1070
    41
1041
3.175
1070
   147
1041
1.75006
1070
    42
1041
1.5875
1070
    44
1041
3.175
1070
   140
1041
3.50012
1070
   343
1005
0
1070
   344
1005
0
1002
}
0
DIMENSION
5
1E5
100
AcDbEntity
8
2
62
256
6
ByLayer
370
13
48
1
60
0
100
AcDbDimension
2
DimnDraft3D3
10
19
20
-18.148099
30
0
11
14.719913
21
-18.148099
31
0
70
32
71
5
72
1
41
1
210
0
220
0
230
1
3
Standard
100
AcDbAlignedDimension
13
18
23
-11.0375
33
0
14
19
24
-11.0375
34
0
50
0
100
AcDbRotatedDimension
1001
ACAD
1000
DSTYLE
1002
{
1070
   279
1070
     0
1070
   172
1070
     1
1070
   173
1070
     1
1070
   340
1005
1B7
1070
   271
1070
     1
1070
   272
1070
     2
1070
    77
1070
     1
1070
    73
1070
     0
1070
   171
1070
     3
1070
   274
1070
     4
1070
   177
1070
     7
1070
   176
1070
     7
1070
   178
1070
     7
1070
    78
1070
     8
1070
    48
1040
-0.005
1070
    41
1041
3.175
1070
   147
1041
1.75006
1070
    42
1041
1.5875
1070
    44
1041
3.175
1070
   140
1041
3.50012
1070
   343
1005
0
1070
   344
1005
0
1002
}
0
ENDSEC
0
SECTION
2
OBJECTS
0
DICTIONARY
5
24f
330
0
100
AcDbDictionary
280
0
281
1
3
ACAD_GROUP
350
250
3
ACAD_MLINESTYLE
350
251
0
DICTIONARY
5
250
330
0
100
AcDbDictionary
280
0
281
1
0
DICTIONARY
5
251
330
0
100
AcDbDictionary
280
0
281
1
3
Standard
350
18
0
MLINESTYLE
5
18
330
251
100
AcDbMlineStyle
2
Standard
70
0
3

62
256
51
90
52
90
71
2
49
-0.5
62
256
6
ByLayer
49
0.5
62
256
6
ByLayer
0
RASTERVARIABLES
5
23e
330

100
AcDbRasterVariables
90
0
70
1
71
1
72
1
0
ENDSEC
0
EOF
