0
SECTION
2
HEADER
9
$ACADVER
1
AC1015
9
$DWGCODEPAGE
3
ANSI_1252
9
$HANDSEED
5
207
9
$ANGBASE
50
0
9
$ANGDIR
70
0
9
$ATTMODE
70
1
9
$AUNITS
70
0
9
$AUPREC
70
0
9
$CECOLOR
62
256
9
$CELTSCALE
40
1
9
$CELTYPE
6
ByLayer
9
$CELWEIGHT
370
18
9
$CLAYER
8
0
9
$CMLJUST
70
0
9
$CMLSCALE
40
1
9
$CMLSTYLE
2
Standard
9
$DIMSTYLE
2
Standard
9
$TEXTSIZE
40
0.2
9
$TEXTSTYLE
7
Standard
9
$LUNITS
70
2
9
$LUPREC
70
4
9
$EXTNAMES
290
1
9
$INSUNITS
70
4
9
$LTSCALE
40
1
9
$LWDISPLAY
290
1
9
$PDMODE
70
0
9
$PDSIZE
40
0
9
$PLINEGEN
70
0
0
ENDSEC
0
SECTION
2
CLASSES
0
CLASS
1
RASTERVARIABLES
2
AcDbRasterVariables
3
ISM
90
0
280
0
281
0
0
ENDSEC
0
SECTION
2
TABLES
0
TABLE
2
VPORT
5
1fd
100
AcDbSymbolTable
0
VPORT
5
1
100
AcDbSymbolTableRecord
100
AcDbViewportTableRecord
2
*Active
70
0
10
0
20
0
11
1
21
1
12
-1
22
1
13
0
23
0
14
0.5
24
0.5
15
10
25
10
16
0
26
0
36
1
17
0
27
0
37
0
0
ENDTAB
0
TABLE
2
LTYPE
5
1fe
100
AcDbSymbolTable
0
LTYPE
5
14
100
AcDbSymbolTableRecord
100
AcDbLinetypeTableRecord
70
0
2
ByBlock
3

72
65
73
0
40
0
0
LTYPE
5
15
100
AcDbSymbolTableRecord
100
AcDbLinetypeTableRecord
70
0
2
ByLayer
3

72
65
73
0
40
0
0
LTYPE
5
16
100
AcDbSymbolTableRecord
100
AcDbLinetypeTableRecord
70
0
2
CONTINUOUS
3
Solid line
72
65
73
0
40
0
0
LTYPE
5
6A
100
AcDbSymbolTableRecord
100
AcDbLinetypeTableRecord
70
0
2
CENTER
3
____ _ ____ _ ____ _ ____
72
65
73
4
40
47.5
49
22
74
0
49
-8.5
74
0
49
8.5
74
0
49
-8.5
74
0
0
LTYPE
5
6B
100
AcDbSymbolTableRecord
100
AcDbLinetypeTableRecord
70
0
2
DASHED
3
__ __ __ __ __ __ __ __ __
72
65
73
2
40
25.72
49
12.86
74
0
49
-12.86
74
0
0
ENDTAB
0
TABLE
2
LAYER
5
1ff
100
AcDbSymbolTable
0
LAYER
5
10
100
AcDbSymbolTableRecord
100
AcDbLayerTableRecord
2
0
70
0
62
7
6
CONTINUOUS
290
1
370
-3
390
0
0
LAYER
5
6D
100
AcDbSymbolTableRecord
100
AcDbLayerTableRecord
2
2
70
0
62
7
6
CONTINUOUS
290
1
370
-3
390
0
0
LAYER
5
6F
100
AcDbSymbolTableRecord
100
AcDbLayerTableRecord
2
80
70
0
62
-6
6
CONTINUOUS
290
1
370
-3
390
0
0
LAYER
5
71
100
AcDbSymbolTableRecord
100
AcDbLayerTableRecord
2
81
70
0
62
-3
6
CONTINUOUS
290
1
370
-3
390
0
0
LAYER
5
74
100
AcDbSymbolTableRecord
100
AcDbLayerTableRecord
2
1
70
0
62
4
6
CONTINUOUS
290
1
370
-3
390
0
0
LAYER
5
1ea
100
AcDbSymbolTableRecord
100
AcDbLayerTableRecord
2
SK1
70
0
62
4
6
CONTINUOUS
290
1
370
-3
390
0
0
LAYER
5
1eb
100
AcDbSymbolTableRecord
100
AcDbLayerTableRecord
2
SK6
70
0
62
5
6
CONTINUOUS
290
1
370
-3
390
0
0
LAYER
5
1ec
100
AcDbSymbolTableRecord
100
AcDbLayerTableRecord
2
SK2
70
0
62
7
6
CONTINUOUS
290
1
370
-3
390
0
0
ENDTAB
0
TABLE
2
STYLE
5
200
100
AcDbSymbolTable
0
STYLE
5
11
100
AcDbSymbolTableRecord
100
AcDbTextStyleTableRecord
2
Standard
3
txt
70
0
71
0
40
0
41
1
42
0
50
0
0
STYLE
5
124
100
AcDbSymbolTableRecord
100
AcDbTextStyleTableRecord
2
iso_b_vert
3
simplex.shx
70
0
71
0
40
0
41
1
42
0
50
0
0
STYLE
5
125
100
AcDbSymbolTableRecord
100
AcDbTextStyleTableRecord
2
DWGDirectTextStyle
3
simplex
70
0
71
0
40
0
41
1
42
0
50
0
0
ENDTAB
0
TABLE
2
DIMSTYLE
5
201
100
AcDbSymbolTable
100
AcDbDimStyleTable
0
DIMSTYLE
105
27
100
AcDbSymbolTableRecord
100
AcDbDimStyleTableRecord
2
Standard
70
0
3
<>
41
0.18
42
0.0625
44
0.18
140
0.18
147
0.09
73
0
74
0
77
1
271
2
275
0
278
52
280
0
340
11
0
ENDTAB
0
TABLE
2
VIEW
5
202
100
AcDbSymbolTable
0
ENDTAB
0
TABLE
2
UCS
5
203
100
AcDbSymbolTable
0
ENDTAB
0
TABLE
2
APPID
5
204
100
AcDbSymbolTable
0
APPID
5
12
100
AcDbSymbolTableRecord
100
AcDbRegAppTableRecord
2
ACAD
70
0
0
ENDTAB
0
TABLE
2
BLOCK_RECORD
5
205
100
AcDbSymbolTable
0
BLOCK_RECORD
5
1F
100
AcDbSymbolTableRecord
100
AcDbBlockTableRecord
2
*Model_Space
340
0
70
0
0
BLOCK_RECORD
5
1B
100
AcDbSymbolTableRecord
100
AcDbBlockTableRecord
2
*Paper_Space
340
0
70
0
0
BLOCK_RECORD
5
23
100
AcDbSymbolTableRecord
100
AcDbBlockTableRecord
2
*Paper_Space0
340
0
70
0
0
BLOCK_RECORD
5
127
100
AcDbSymbolTableRecord
100
AcDbBlockTableRecord
2
DimnDraft3D1
340
0
70
0
0
BLOCK_RECORD
5
135
100
AcDbSymbolTableRecord
100
AcDbBlockTableRecord
2
_CLOSED
340
0
70
0
0
BLOCK_RECORD
5
13C
100
AcDbSymbolTableRecord
100
AcDbBlockTableRecord
2
DimnDraft3D2
340
0
70
0
0
BLOCK_RECORD
5
14A
100
AcDbSymbolTableRecord
100
AcDbBlockTableRecord
2
DimnDraft3D3
340
0
70
0
0
BLOCK_RECORD
5
158
100
AcDbSymbolTableRecord
100
AcDbBlockTableRecord
2
DimnDraft3D4
340
0
70
0
0
BLOCK_RECORD
5
167
100
AcDbSymbolTableRecord
100
AcDbBlockTableRecord
2
DimnDraft3D5
340
0
70
0
0
BLOCK_RECORD
5
175
100
AcDbSymbolTableRecord
100
AcDbBlockTableRecord
2
DimnDraft3D6
340
0
70
0
0
BLOCK_RECORD
5
183
100
AcDbSymbolTableRecord
100
AcDbBlockTableRecord
2
DimnDraft3D7
340
0
70
0
0
ENDTAB
0
ENDSEC
0
SECTION
2
BLOCKS
0
BLOCK
5
20
100
AcDbEntity
8
0
100
AcDbBlockBegin
2
*Model_Space
70
0
10
0
20
0
30
0
3
*Model_Space
0
ENDBLK
5
21
100
AcDbEntity
8
0
100
AcDbBlockEnd
0
BLOCK
5
1C
100
AcDbEntity
8
0
100
AcDbBlockBegin
2
*Paper_Space
70
0
10
0
20
0
30
0
3
*Paper_Space
0
ENDBLK
5
1D
100
AcDbEntity
8
0
100
AcDbBlockEnd
0
BLOCK
5
24
100
AcDbEntity
8
0
100
AcDbBlockBegin
2
*Paper_Space0
70
0
10
0
20
0
30
0
3
*Paper_Space0
0
ENDBLK
5
25
100
AcDbEntity
8
0
100
AcDbBlockEnd
0
BLOCK
5
132
100
AcDbEntity
8
0
100
AcDbBlockBegin
2
DimnDraft3D1
70
0
10
0
20
0
30
0
3
DimnDraft3D1
0
MTEXT
5
128
100
AcDbEntity
8
2
62
256
6
ByLayer
370
18
48
1
60
0
100
AcDbMText
10
13.825
20
-45.0125
30
0
210
0
220
0
230
1
1
\W0.7121;8.7
40
4.5
41
0
44
1.084337
50
90
71
7
72
5
7
iso_b_vert
0
LINE
5
129
100
AcDbEntity
8
2
62
256
6
ByLayer
370
13
48
1
60
0
100
AcDbLine
10
25.2
20
-34.4375
30
0
11
11.95
21
-34.4375
31
0
39
0
210
0
220
0
230
1
0
LINE
5
12A
100
AcDbEntity
8
2
62
256
6
ByLayer
370
13
48
1
60
0
100
AcDbLine
10
18.2
20
-25.7375
30
0
11
11.95
21
-25.7375
31
0
39
0
210
0
220
0
230
1
0
LINE
5
12B
100
AcDbEntity
8
2
62
256
6
ByLayer
370
13
48
1
60
0
100
AcDbLine
10
14.95
20
-25.7375
30
0
11
14.95
21
-46.1375
31
0
39
0
210
0
220
0
230
1
0
LINE
5
12C
100
AcDbEntity
8
2
62
256
6
ByLayer
370
13
48
1
60
0
100
AcDbLine
10
14.95
20
-34.4375
30
0
11
14.555043
21
-31.437501
31
0
39
0
210
0
220
0
230
1
0
LINE
5
12D
100
AcDbEntity
8
2
62
256
6
ByLayer
370
13
48
1
60
0
100
AcDbLine
10
14.95
20
-34.4375
30
0
11
15.344957
21
-31.437499
31
0
39
0
210
0
220
0
230
1
0
LINE
5
12E
100
AcDbEntity
8
2
62
256
6
ByLayer
370
13
48
1
60
0
100
AcDbLine
10
14.555043
20
-31.437501
30
0
11
15.344957
21
-31.437499
31
0
39
0
210
0
220
0
230
1
0
LINE
5
12F
100
AcDbEntity
8
2
62
256
6
ByLayer
370
13
48
1
60
0
100
AcDbLine
10
14.95
20
-25.7375
30
0
11
15.344957
21
-28.737499
31
0
39
0
210
0
220
0
230
1
0
LINE
5
130
100
AcDbEntity
8
2
62
256
6
ByLayer
370
13
48
1
60
0
100
AcDbLine
10
14.95
20
-25.7375
30
0
11
14.555043
21
-28.737501
31
0
39
0
210
0
220
0
230
1
0
LINE
5
131
100
AcDbEntity
8
2
62
256
6
ByLayer
370
13
48
1
60
0
100
AcDbLine
10
15.344957
20
-28.737499
30
0
11
14.555043
21
-28.737501
31
0
39
0
210
0
220
0
230
1
0
ENDBLK
5
133
100
AcDbEntity
8
0
100
AcDbBlockEnd
0
BLOCK
5
136
100
AcDbEntity
8
0
100
AcDbBlockBegin
2
_CLOSED
70
0
10
0
20
0
30
0
3
_CLOSED
0
LINE
5
138
100
AcDbEntity
8
0
62
256
6
ByLayer
370
-2
48
1
60
0
100
AcDbLine
10
-1
20
0.166667
30
0
11
0
21
0
31
0
39
0
210
0
220
0
230
1
0
LINE
5
139
100
AcDbEntity
8
0
62
256
6
ByLayer
370
-2
48
1
60
0
100
AcDbLine
10
0
20
0
30
0
11
-1
21
-0.166667
31
0
39
0
210
0
220
0
230
1
0
LINE
5
13A
100
AcDbEntity
8
0
62
256
6
ByLayer
370
-2
48
1
60
0
100
AcDbLine
10
-1
20
0.166667
30
0
11
-1
21
-0.166667
31
0
39
0
210
0
220
0
230
1
0
LINE
5
13B
100
AcDbEntity
8
0
62
256
6
ByLayer
370
-2
48
1
60
0
100
AcDbLine
10
0
20
0
30
0
11
-1
21
0
31
0
39
0
210
0
220
0
230
1
0
ENDBLK
5
137
100
AcDbEntity
8
0
100
AcDbBlockEnd
0
BLOCK
5
147
100
AcDbEntity
8
0
100
AcDbBlockBegin
2
DimnDraft3D2
70
0
10
0
20
0
30
0
3
DimnDraft3D2
0
MTEXT
5
13D
100
AcDbEntity
8
2
62
256
6
ByLayer
370
18
48
1
60
0
100
AcDbMText
10
23.825
20
-28.594079
30
0
210
0
220
0
230
1
1
\W0.7346;20.0
40
4.5
41
0
44
1.084337
50
90
71
7
72
5
7
iso_b_vert
0
LINE
5
13E
100
AcDbEntity
8
2
62
256
6
ByLayer
370
13
48
1
60
0
100
AcDbLine
10
25.2
20
-34.4375
30
0
11
21.95
21
-34.4375
31
0
39
0
210
0
220
0
230
1
0
LINE
5
13F
100
AcDbEntity
8
2
62
256
6
ByLayer
370
13
48
1
60
0
100
AcDbLine
10
24.7
20
-14.4375
30
0
11
27.95
21
-14.4375
31
0
39
0
210
0
220
0
230
1
0
LINE
5
140
100
AcDbEntity
8
2
62
256
6
ByLayer
370
13
48
1
60
0
100
AcDbLine
10
24.95
20
-34.4375
30
0
11
24.95
21
-14.4375
31
0
39
0
210
0
220
0
230
1
0
LINE
5
141
100
AcDbEntity
8
2
62
256
6
ByLayer
370
13
48
1
60
0
100
AcDbLine
10
24.95
20
-34.4375
30
0
11
24.555043
21
-31.437501
31
0
39
0
210
0
220
0
230
1
0
LINE
5
142
100
AcDbEntity
8
2
62
256
6
ByLayer
370
13
48
1
60
0
100
AcDbLine
10
24.95
20
-34.4375
30
0
11
25.344957
21
-31.437499
31
0
39
0
210
0
220
0
230
1
0
LINE
5
143
100
AcDbEntity
8
2
62
256
6
ByLayer
370
13
48
1
60
0
100
AcDbLine
10
24.555043
20
-31.437501
30
0
11
25.344957
21
-31.437499
31
0
39
0
210
0
220
0
230
1
0
LINE
5
144
100
AcDbEntity
8
2
62
256
6
ByLayer
370
13
48
1
60
0
100
AcDbLine
10
24.95
20
-14.4375
30
0
11
25.344957
21
-17.437499
31
0
39
0
210
0
220
0
230
1
0
LINE
5
145
100
AcDbEntity
8
2
62
256
6
ByLayer
370
13
48
1
60
0
100
AcDbLine
10
24.95
20
-14.4375
30
0
11
24.555043
21
-17.437501
31
0
39
0
210
0
220
0
230
1
0
LINE
5
146
100
AcDbEntity
8
2
62
256
6
ByLayer
370
13
48
1
60
0
100
AcDbLine
10
25.344957
20
-17.437499
30
0
11
24.555043
21
-17.437501
31
0
39
0
210
0
220
0
230
1
0
ENDBLK
5
148
100
AcDbEntity
8
0
100
AcDbBlockEnd
0
BLOCK
5
155
100
AcDbEntity
8
0
100
AcDbBlockBegin
2
DimnDraft3D3
70
0
10
0
20
0
30
0
3
DimnDraft3D3
0
MTEXT
5
14B
100
AcDbEntity
8
2
62
256
6
ByLayer
370
18
48
1
60
0
100
AcDbMText
10
49.006731
20
-12.7375
30
0
210
0
220
0
230
1
1
\W0.7361;47
40
4.5
41
0
44
1.084337
50
90
71
7
72
5
7
iso_b_vert
0
LINE
5
14C
100
AcDbEntity
8
2
62
256
6
ByLayer
370
13
48
1
60
0
100
AcDbLine
10
30.2
20
-34.4375
30
0
11
53.131731
21
-34.4375
31
0
39
0
210
0
220
0
230
1
0
LINE
5
14D
100
AcDbEntity
8
2
62
256
6
ByLayer
370
13
48
1
60
0
100
AcDbLine
10
1.3
20
12.5625
30
0
11
53.131731
21
12.5625
31
0
39
0
210
0
220
0
230
1
0
LINE
5
14E
100
AcDbEntity
8
2
62
256
6
ByLayer
370
13
48
1
60
0
100
AcDbLine
10
50.131731
20
-34.4375
30
0
11
50.131731
21
12.5625
31
0
39
0
210
0
220
0
230
1
0
LINE
5
14F
100
AcDbEntity
8
2
62
256
6
ByLayer
370
13
48
1
60
0
100
AcDbLine
10
50.131731
20
-34.4375
30
0
11
49.736773
21
-31.437501
31
0
39
0
210
0
220
0
230
1
0
LINE
5
150
100
AcDbEntity
8
2
62
256
6
ByLayer
370
13
48
1
60
0
100
AcDbLine
10
50.131731
20
-34.4375
30
0
11
50.526688
21
-31.437499
31
0
39
0
210
0
220
0
230
1
0
LINE
5
151
100
AcDbEntity
8
2
62
256
6
ByLayer
370
13
48
1
60
0
100
AcDbLine
10
49.736773
20
-31.437501
30
0
11
50.526688
21
-31.437499
31
0
39
0
210
0
220
0
230
1
0
LINE
5
152
100
AcDbEntity
8
2
62
256
6
ByLayer
370
13
48
1
60
0
100
AcDbLine
10
50.131731
20
12.5625
30
0
11
50.526688
21
9.562501
31
0
39
0
210
0
220
0
230
1
0
LINE
5
153
100
AcDbEntity
8
2
62
256
6
ByLayer
370
13
48
1
60
0
100
AcDbLine
10
50.131731
20
12.5625
30
0
11
49.736773
21
9.562499
31
0
39
0
210
0
220
0
230
1
0
LINE
5
154
100
AcDbEntity
8
2
62
256
6
ByLayer
370
13
48
1
60
0
100
AcDbLine
10
50.526688
20
9.562501
30
0
11
49.736773
21
9.562499
31
0
39
0
210
0
220
0
230
1
0
ENDBLK
5
156
100
AcDbEntity
8
0
100
AcDbBlockEnd
0
BLOCK
5
164
100
AcDbEntity
8
0
100
AcDbBlockBegin
2
DimnDraft3D4
70
0
10
0
20
0
30
0
3
DimnDraft3D4
0
MTEXT
5
159
100
AcDbEntity
8
SK2
62
256
6
ByLayer
370
18
48
1
60
0
100
AcDbMText
10
-133.525
20
-1.563158
30
0
210
0
220
0
230
1
1
\W0.6740;25
40
4.5
41
0
44
1.084337
50
90
71
7
72
5
7
iso_b_vert
0
LINE
5
15B
100
AcDbEntity
8
SK2
62
256
6
ByLayer
370
13
48
1
60
0
100
AcDbLine
10
-124.15
20
12.4375
30
0
11
-135.4
21
12.4375
31
0
39
0
210
0
220
0
230
1
0
LINE
5
15C
100
AcDbEntity
8
SK2
62
256
6
ByLayer
370
13
48
1
60
0
100
AcDbLine
10
-124.15
20
-12.4375
30
0
11
-135.4
21
-12.4375
31
0
39
0
210
0
220
0
230
1
0
LINE
5
15D
100
AcDbEntity
8
SK2
62
256
6
ByLayer
370
13
48
1
60
0
100
AcDbLine
10
-132.4
20
12.4375
30
0
11
-132.4
21
-12.4375
31
0
39
0
210
0
220
0
230
1
0
LINE
5
15E
100
AcDbEntity
8
SK2
62
256
6
ByLayer
370
13
48
1
60
0
100
AcDbLine
10
-132.4
20
12.4375
30
0
11
-132.005043
21
9.437501
31
0
39
0
210
0
220
0
230
1
0
LINE
5
15F
100
AcDbEntity
8
SK2
62
256
6
ByLayer
370
13
48
1
60
0
100
AcDbLine
10
-132.4
20
12.4375
30
0
11
-132.794957
21
9.437499
31
0
39
0
210
0
220
0
230
1
0
LINE
5
160
100
AcDbEntity
8
SK2
62
256
6
ByLayer
370
13
48
1
60
0
100
AcDbLine
10
-132.005043
20
9.437501
30
0
11
-132.794957
21
9.437499
31
0
39
0
210
0
220
0
230
1
0
LINE
5
161
100
AcDbEntity
8
SK2
62
256
6
ByLayer
370
13
48
1
60
0
100
AcDbLine
10
-132.4
20
-12.4375
30
0
11
-132.794957
21
-9.437501
31
0
39
0
210
0
220
0
230
1
0
LINE
5
162
100
AcDbEntity
8
SK2
62
256
6
ByLayer
370
13
48
1
60
0
100
AcDbLine
10
-132.4
20
-12.4375
30
0
11
-132.005043
21
-9.437499
31
0
39
0
210
0
220
0
230
1
0
LINE
5
163
100
AcDbEntity
8
SK2
62
256
6
ByLayer
370
13
48
1
60
0
100
AcDbLine
10
-132.794957
20
-9.437501
30
0
11
-132.005043
21
-9.437499
31
0
39
0
210
0
220
0
230
1
0
ENDBLK
5
165
100
AcDbEntity
8
0
100
AcDbBlockEnd
0
BLOCK
5
172
100
AcDbEntity
8
0
100
AcDbBlockBegin
2
DimnDraft3D5
70
0
10
0
20
0
30
0
3
DimnDraft3D5
0
MTEXT
5
168
100
AcDbEntity
8
2
62
256
6
ByLayer
370
18
48
1
60
0
100
AcDbMText
10
34.325
20
-47.5625
30
0
210
0
220
0
230
1
1
\W0.6380;4
40
4.5
41
0
44
1.084337
50
0
71
7
72
5
7
iso_b_vert
0
LINE
5
169
100
AcDbEntity
8
2
62
256
6
ByLayer
370
13
48
1
60
0
100
AcDbLine
10
28.7
20
-35.9375
30
0
11
28.7
21
-51.6875
31
0
39
0
210
0
220
0
230
1
0
LINE
5
16A
100
AcDbEntity
8
2
62
256
6
ByLayer
370
13
48
1
60
0
100
AcDbLine
10
24.7
20
-35.9375
30
0
11
24.7
21
-51.6875
31
0
39
0
210
0
220
0
230
1
0
LINE
5
16B
100
AcDbEntity
8
2
62
256
6
ByLayer
370
13
48
1
60
0
100
AcDbLine
10
13.45
20
-48.6875
30
0
11
35.686842
21
-48.6875
31
0
39
0
210
0
220
0
230
1
0
LINE
5
16C
100
AcDbEntity
8
2
62
256
6
ByLayer
370
13
48
1
60
0
100
AcDbLine
10
28.7
20
-48.6875
30
0
11
31.699999
21
-48.292543
31
0
39
0
210
0
220
0
230
1
0
LINE
5
16D
100
AcDbEntity
8
2
62
256
6
ByLayer
370
13
48
1
60
0
100
AcDbLine
10
28.7
20
-48.6875
30
0
11
31.700001
21
-49.082457
31
0
39
0
210
0
220
0
230
1
0
LINE
5
16E
100
AcDbEntity
8
2
62
256
6
ByLayer
370
13
48
1
60
0
100
AcDbLine
10
31.699999
20
-48.292543
30
0
11
31.700001
21
-49.082457
31
0
39
0
210
0
220
0
230
1
0
LINE
5
16F
100
AcDbEntity
8
2
62
256
6
ByLayer
370
13
48
1
60
0
100
AcDbLine
10
24.7
20
-48.6875
30
0
11
21.700001
21
-49.082457
31
0
39
0
210
0
220
0
230
1
0
LINE
5
170
100
AcDbEntity
8
2
62
256
6
ByLayer
370
13
48
1
60
0
100
AcDbLine
10
24.7
20
-48.6875
30
0
11
21.699999
21
-48.292543
31
0
39
0
210
0
220
0
230
1
0
LINE
5
171
100
AcDbEntity
8
2
62
256
6
ByLayer
370
13
48
1
60
0
100
AcDbLine
10
21.700001
20
-49.082457
30
0
11
21.699999
21
-48.292543
31
0
39
0
210
0
220
0
230
1
0
ENDBLK
5
173
100
AcDbEntity
8
0
100
AcDbBlockEnd
0
BLOCK
5
180
100
AcDbEntity
8
0
100
AcDbBlockBegin
2
DimnDraft3D6
70
0
10
0
20
0
30
0
3
DimnDraft3D6
0
MTEXT
5
176
100
AcDbEntity
8
2
62
256
6
ByLayer
370
18
48
1
60
0
100
AcDbMText
10
10.193421
20
-57.5625
30
0
210
0
220
0
230
1
1
\W0.7346;28.7
40
4.5
41
0
44
1.084337
50
0
71
7
72
5
7
iso_b_vert
0
LINE
5
177
100
AcDbEntity
8
2
62
256
6
ByLayer
370
13
48
1
60
0
100
AcDbLine
10
28.7
20
-35.9375
30
0
11
28.7
21
-61.6875
31
0
39
0
210
0
220
0
230
1
0
LINE
5
178
100
AcDbEntity
8
2
62
256
6
ByLayer
370
13
48
1
60
0
100
AcDbLine
10
0
20
-13.9375
30
0
11
0
21
-61.6875
31
0
39
0
210
0
220
0
230
1
0
LINE
5
179
100
AcDbEntity
8
2
62
256
6
ByLayer
370
13
48
1
60
0
100
AcDbLine
10
28.7
20
-58.6875
30
0
11
0
21
-58.6875
31
0
39
0
210
0
220
0
230
1
0
LINE
5
17A
100
AcDbEntity
8
2
62
256
6
ByLayer
370
13
48
1
60
0
100
AcDbLine
10
28.7
20
-58.6875
30
0
11
25.700001
21
-59.082457
31
0
39
0
210
0
220
0
230
1
0
LINE
5
17B
100
AcDbEntity
8
2
62
256
6
ByLayer
370
13
48
1
60
0
100
AcDbLine
10
28.7
20
-58.6875
30
0
11
25.699999
21
-58.292543
31
0
39
0
210
0
220
0
230
1
0
LINE
5
17C
100
AcDbEntity
8
2
62
256
6
ByLayer
370
13
48
1
60
0
100
AcDbLine
10
25.700001
20
-59.082457
30
0
11
25.699999
21
-58.292543
31
0
39
0
210
0
220
0
230
1
0
LINE
5
17D
100
AcDbEntity
8
2
62
256
6
ByLayer
370
13
48
1
60
0
100
AcDbLine
10
0
20
-58.6875
30
0
11
2.999999
21
-58.292543
31
0
39
0
210
0
220
0
230
1
0
LINE
5
17E
100
AcDbEntity
8
2
62
256
6
ByLayer
370
13
48
1
60
0
100
AcDbLine
10
0
20
-58.6875
30
0
11
3.000001
21
-59.082457
31
0
39
0
210
0
220
0
230
1
0
LINE
5
17F
100
AcDbEntity
8
2
62
256
6
ByLayer
370
13
48
1
60
0
100
AcDbLine
10
2.999999
20
-58.292543
30
0
11
3.000001
21
-59.082457
31
0
39
0
210
0
220
0
230
1
0
ENDBLK
5
181
100
AcDbEntity
8
0
100
AcDbBlockEnd
0
BLOCK
5
18E
100
AcDbEntity
8
0
100
AcDbBlockBegin
2
DimnDraft3D7
70
0
10
0
20
0
30
0
3
DimnDraft3D7
0
MTEXT
5
184
100
AcDbEntity
8
SK2
62
256
6
ByLayer
370
18
48
1
60
0
100
AcDbMText
10
-49.657237
20
-67.5625
30
0
210
0
220
0
230
1
1
\W0.6217;150
40
4.5
41
0
44
1.084337
50
0
71
7
72
5
7
iso_b_vert
0
LINE
5
185
100
AcDbEntity
8
SK2
62
256
6
ByLayer
370
13
48
1
60
0
100
AcDbLine
10
28.7
20
-35.9375
30
0
11
28.7
21
-71.6875
31
0
39
0
210
0
220
0
230
1
0
LINE
5
186
100
AcDbEntity
8
SK2
62
256
6
ByLayer
370
13
48
1
60
0
100
AcDbLine
10
-122.65
20
-13.9375
30
0
11
-122.65
21
-71.6875
31
0
39
0
210
0
220
0
230
1
0
LINE
5
187
100
AcDbEntity
8
SK2
62
256
6
ByLayer
370
13
48
1
60
0
100
AcDbLine
10
28.7
20
-68.6875
30
0
11
-122.65
21
-68.6875
31
0
39
0
210
0
220
0
230
1
0
LINE
5
188
100
AcDbEntity
8
SK2
62
256
6
ByLayer
370
13
48
1
60
0
100
AcDbLine
10
28.7
20
-68.6875
30
0
11
25.700001
21
-69.082457
31
0
39
0
210
0
220
0
230
1
0
LINE
5
189
100
AcDbEntity
8
SK2
62
256
6
ByLayer
370
13
48
1
60
0
100
AcDbLine
10
28.7
20
-68.6875
30
0
11
25.699999
21
-68.292543
31
0
39
0
210
0
220
0
230
1
0
LINE
5
18A
100
AcDbEntity
8
SK2
62
256
6
ByLayer
370
13
48
1
60
0
100
AcDbLine
10
25.700001
20
-69.082457
30
0
11
25.699999
21
-68.292543
31
0
39
0
210
0
220
0
230
1
0
LINE
5
18B
100
AcDbEntity
8
SK2
62
256
6
ByLayer
370
13
48
1
60
0
100
AcDbLine
10
-122.65
20
-68.6875
30
0
11
-119.650001
21
-68.292543
31
0
39
0
210
0
220
0
230
1
0
LINE
5
18C
100
AcDbEntity
8
SK2
62
256
6
ByLayer
370
13
48
1
60
0
100
AcDbLine
10
-122.65
20
-68.6875
30
0
11
-119.649999
21
-69.082457
31
0
39
0
210
0
220
0
230
1
0
LINE
5
18D
100
AcDbEntity
8
SK2
62
256
6
ByLayer
370
13
48
1
60
0
100
AcDbLine
10
-119.650001
20
-68.292543
30
0
11
-119.649999
21
-69.082457
31
0
39
0
210
0
220
0
230
1
0
ENDBLK
5
18F
100
AcDbEntity
8
0
100
AcDbBlockEnd
0
ENDSEC
0
SECTION
2
ENTITIES
0
ARC
5
BD
100
AcDbEntity
8
1
62
256
6
ByLayer
370
18
48
1
60
0
100
AcDbCircle
39
0
10
-21.3
20
-14.5375
30
0
40
1.6
210
0
220
0
230
-1
100
AcDbArc
50
90
51
180
0
ARC
5
BE
100
AcDbEntity
8
1
62
256
6
ByLayer
370
18
48
1
60
0
100
AcDbCircle
39
0
10
-18.9
20
-25.7375
30
0
40
6
210
0
220
0
230
-1
100
AcDbArc
50
131.810315
51
161.342368
0
ARC
5
C0
100
AcDbEntity
8
1
62
256
6
ByLayer
370
18
48
1
60
0
100
AcDbCircle
39
0
10
29.89
20
1.48626
30
0
40
1.6
210
0
220
0
230
1
100
AcDbArc
50
180
51
240
0
ARC
5
C2
100
AcDbEntity
8
1
62
256
6
ByLayer
370
18
48
1
60
0
100
AcDbCircle
39
0
10
-21.35123
20
-5.9375
30
0
40
1.13980641809794
210
0
220
0
230
-1
100
AcDbArc
50
318.752695
51
41.247305
0
ARC
5
C3
100
AcDbEntity
8
1
62
256
6
ByLayer
370
18
48
1
60
0
100
AcDbCircle
39
0
10
-18.2
20
-8.229884
30
0
40
0.501259405157916
210
0
220
0
230
-1
100
AcDbArc
50
188.054217
51
351.945783
0
ARC
5
C4
100
AcDbEntity
8
1
62
256
6
ByLayer
370
18
48
1
60
0
100
AcDbCircle
39
0
10
-19.775615
20
-3.208455
30
0
40
1.13980641809794
210
0
220
0
230
-1
100
AcDbArc
50
252.227341
51
347.772659
0
ARC
5
C5
100
AcDbEntity
8
1
62
256
6
ByLayer
370
18
48
1
60
0
100
AcDbCircle
39
0
10
-16.624385
20
-8.666545
30
0
40
1.13980641809794
210
0
220
0
230
-1
100
AcDbArc
50
72.227341
51
161.247305
0
ARC
5
C6
100
AcDbEntity
8
1
62
256
6
ByLayer
370
18
48
1
60
0
100
AcDbCircle
39
0
10
-16.214737
20
-7.083692
30
0
40
0.501259405157916
210
0
220
0
230
-1
100
AcDbArc
50
262.925818
51
37.074182
0
ARC
5
C7
100
AcDbEntity
8
1
62
256
6
ByLayer
370
18
48
1
60
0
100
AcDbCircle
39
0
10
-20.185263
20
-4.791308
30
0
40
0.501259405157916
210
0
220
0
230
-1
100
AcDbArc
50
82.925818
51
231.945783
0
ARC
5
CB
100
AcDbEntity
8
1
62
256
6
ByLayer
370
18
48
1
60
0
100
AcDbCircle
39
0
10
-20.185263
20
-7.083692
30
0
40
0.501259405157916
210
0
220
0
230
-1
100
AcDbArc
50
128.054217
51
291.945783
0
ARC
5
CC
100
AcDbEntity
8
1
62
256
6
ByLayer
370
18
48
1
60
0
100
AcDbCircle
39
0
10
-18.2
20
-3.645116
30
0
40
0.501259405157916
210
0
220
0
230
-1
100
AcDbArc
50
8.054217
51
157.074182
0
ARC
5
CD
100
AcDbEntity
8
1
62
256
6
ByLayer
370
18
48
1
60
0
100
AcDbCircle
39
0
10
-19.775615
20
-8.666545
30
0
40
1.13980641809794
210
0
220
0
230
-1
100
AcDbArc
50
18.752695
51
101.247305
0
ARC
5
CE
100
AcDbEntity
8
1
62
256
6
ByLayer
370
18
48
1
60
0
100
AcDbCircle
39
0
10
-16.214737
20
-4.791308
30
0
40
0.501259405157916
210
0
220
0
230
-1
100
AcDbArc
50
322.925818
51
97.074182
0
ARC
5
CF
100
AcDbEntity
8
1
62
256
6
ByLayer
370
18
48
1
60
0
100
AcDbCircle
39
0
10
-16.624385
20
-3.208455
30
0
40
1.13980641809794
210
0
220
0
230
-1
100
AcDbArc
50
198.752695
51
287.772659
0
ARC
5
D0
100
AcDbEntity
8
1
62
256
6
ByLayer
370
18
48
1
60
0
100
AcDbCircle
39
0
10
-15.04877
20
-5.9375
30
0
40
1.13980641809794
210
0
220
0
230
-1
100
AcDbArc
50
132.227341
51
227.772659
0
CIRCLE
5
BF
100
AcDbEntity
8
1
62
256
6
ByLayer
370
18
48
1
60
0
100
AcDbCircle
10
-24.2
20
9.0625
30
0
40
1.64999999999999
39
0
210
0
220
0
230
-1
0
CIRCLE
5
C1
100
AcDbEntity
8
1
62
256
6
ByLayer
370
18
48
1
60
0
100
AcDbCircle
10
18.2
20
-5.9375
30
0
40
5.50000000000001
39
0
210
0
220
0
230
1
0
CIRCLE
5
C8
100
AcDbEntity
8
1
62
256
6
ByLayer
370
18
48
1
60
0
100
AcDbCircle
10
-18.2
20
-5.9375
30
0
40
5.0038
39
0
210
0
220
0
230
-1
0
CIRCLE
5
C9
100
AcDbEntity
8
1
62
256
6
ByLayer
370
18
48
1
60
0
100
AcDbCircle
10
-18.2
20
-5.9375
30
0
40
3.0330983114651
39
0
210
0
220
0
230
-1
0
CIRCLE
5
CA
100
AcDbEntity
8
1
62
256
6
ByLayer
370
18
48
1
60
0
100
AcDbCircle
10
18.2
20
-5.9375
30
0
40
4.4958
39
0
210
0
220
0
230
1
0
ELLIPSE
5
D1
100
AcDbEntity
8
1
62
256
6
ByLayer
370
18
48
1
60
0
100
AcDbEllipse
10
27.258476
20
-29.369974
30
0
11
-0.500000047292875
21
1.90876690912338E-08
31
0
210
0
220
0
230
1
40
0.493963
41
1.91986222889057
42
2.00712868428843
0
ELLIPSE
5
D2
100
AcDbEntity
8
1
62
256
6
ByLayer
370
18
48
1
60
0
100
AcDbEllipse
10
47.4
20
-38.330662
30
0
11
-19.1000000000267
21
1.93032059521001E-14
31
0
210
0
220
0
230
1
40
0.57735
41
-0.923476308416185
42
-0.449660365206064
0
ELLIPSE
5
D3
100
AcDbEntity
8
1
62
256
6
ByLayer
370
18
48
1
60
0
100
AcDbEllipse
10
27.140419
20
-25.3875
30
0
11
-2.14450692051094
21
2.16732244776276E-15
31
0
210
0
220
0
230
1
40
0.466308
41
2.3000379341078
42
2.41641269498141
0
ELLIPSE
5
D4
100
AcDbEntity
8
1
62
256
6
ByLayer
370
18
48
1
60
0
100
AcDbEllipse
10
47.4
20
-30.697804
30
0
11
1.6702177627081E-15
21
27.277626928765
31
0
210
0
220
0
230
1
40
0.700208
41
1.01977201038914
42
1.51975014752331
0
ELLIPSE
5
D5
100
AcDbEntity
8
1
62
256
6
ByLayer
370
18
48
1
60
0
100
AcDbEllipse
10
42.2
20
-30.697804
30
0
11
1.68770695384014E-15
21
27.5632565284719
31
0
210
0
220
0
230
1
40
0.700208
41
1.02612767746906
42
1.22152775035995
0
ELLIPSE
5
D6
100
AcDbEntity
8
1
62
256
6
ByLayer
370
18
48
1
60
0
100
AcDbEllipse
10
42.200003
20
-37.449232
30
0
11
-17.0877344934617
21
9.46287513571015
31
0
210
0
220
0
230
1
40
0.28551
41
0.18537334344487
42
0.215505008475818
0
ELLIPSE
5
D7
100
AcDbEntity
8
1
62
256
6
ByLayer
370
18
48
1
60
0
100
AcDbEllipse
10
42.2
20
-30.697804
30
0
11
1.51281504107262E-15
21
24.7069605077689
31
0
210
0
220
0
230
1
40
0.700208
41
1.36865712765979
42
1.51210363409926
0
ELLIPSE
5
D8
100
AcDbEntity
8
1
62
256
6
ByLayer
370
18
48
1
60
0
100
AcDbEllipse
10
26.141524
20
-29.369974
30
0
11
-0.500000047292875
21
-1.90876689687731E-08
31
0
210
0
220
0
230
1
40
0.493963
41
1.13446396930136
42
1.22173042469922
0
POINT
5
6C
100
AcDbEntity
8
2
62
256
6
ByLayer
370
18
48
1
60
0
100
AcDbPoint
10
28.7
20
34.5625
30
0
39
0
210
0
220
0
230
1
50
360
0
POINT
5
6E
100
AcDbEntity
8
80
62
256
6
ByLayer
370
18
48
1
60
0
100
AcDbPoint
10
0
20
0
30
0
39
0
210
0
220
0
230
1
50
360
0
POINT
5
70
100
AcDbEntity
8
81
62
256
6
ByLayer
370
18
48
1
60
0
100
AcDbPoint
10
28.7
20
-34.4375
30
0
39
0
210
0
220
0
230
1
50
360
0
SPLINE
5
D9
100
AcDbEntity
8
1
62
256
6
ByLayer
370
18
48
1
60
0
100
AcDbSpline
70
4
71
3
72
8
73
4
40
0
40
0
40
0
40
0
40
1
40
1
40
1
40
1
41
1
10
24.9130268336257
20
-25.7375000000158
30
0
41
1
10
24.9131455459349
20
-25.7824219494854
30
0
41
1
10
24.9132056044669
20
-25.8274739768507
30
0
41
1
10
24.9132056044669
20
-25.8725000000001
30
0
0
SPLINE
5
DA
100
AcDbEntity
8
1
62
256
6
ByLayer
370
18
48
1
60
0
100
AcDbSpline
70
4
71
3
72
18
73
14
40
0
40
0
40
0
40
0
40
0.144750876405297
40
0.144750876405297
40
0.315925214275803
40
0.315925214275803
40
0.377975172833704
40
0.377975172833704
40
0.605475544816662
40
0.605475544816662
40
0.831645385768217
40
0.831645385768217
40
1
40
1
40
1
40
1
41
1
10
25.6927288748259
20
-14.5375
30
0
41
1
10
25.6927288748259
20
-14.4071774646308
30
0
41
1
10
25.6736423010277
20
-14.2756204723182
30
0
41
1
10
25.5940480597819
20
-14.0022809518392
30
0
41
1
10
25.525561337902
20
-13.8597389533222
30
0
41
1
10
25.4071423865055
20
-13.6852048537367
30
0
41
1
10
25.3728251465755
20
-13.6400663759564
30
0
41
1
10
25.2048468189618
20
-13.4412544945666
30
0
41
1
10
25.0422735307235
20
-13.3086578746873
30
0
41
1
10
24.6901711144108
20
-13.1050978542722
30
0
41
1
10
24.4961746658588
20
-13.0308609797498
30
0
41
1
10
24.1505769841222
20
-12.9541262553026
30
0
41
1
10
23.9986496314887
20
-12.9375
30
0
41
1
10
23.8476159586825
20
-12.9375
30
0
0
SPLINE
5
DB
100
AcDbEntity
8
1
62
256
6
ByLayer
370
18
48
1
60
0
100
AcDbSpline
70
4
71
3
72
8
73
4
40
0
40
0
40
0
40
0
40
1
40
1
40
1
40
1
41
1
10
24.0652709837186
20
-21.2653640450004
30
0
41
1
10
25.2402233650273
20
-22.522186773981
30
0
41
1
10
25.4762539364342
20
-24.1764142974502
30
0
41
1
10
25.2522393757371
20
-25.7375
30
0
0
SPLINE
5
DC
100
AcDbEntity
8
1
62
256
6
ByLayer
370
18
48
1
60
0
100
AcDbSpline
70
4
71
3
72
10
73
6
40
0
40
0
40
0
40
0
40
0.208911983327506
40
0.208911983327506
40
1
40
1
40
1
40
1
41
1
10
24.8781230032223
20
-25.1328635823364
30
0
41
1
10
24.8826789944004
20
-25.1734074550235
30
0
41
1
10
24.8868450638919
20
-25.2144099336705
30
0
41
1
10
24.9046944041219
20
-25.4120512556148
30
0
41
1
10
24.912596586684
20
-25.5746901655127
30
0
41
1
10
24.9130268336263
20
-25.7375000000155
30
0
0
SPLINE
5
DD
100
AcDbEntity
8
1
62
256
6
ByLayer
370
18
48
1
60
0
100
AcDbSpline
70
4
71
2
72
6
73
3
40
0
40
0
40
0
40
1
40
1
40
1
41
0.500000006591692
10
24.9070885305181
20
-27.5645537700971
30
0
41
0.499999993408308
10
24.9067404670479
20
-28.2702129959455
30
0
41
0.500000006591692
10
24.906409491144
20
-28.9754430053147
30
0
0
SPLINE
5
DE
100
AcDbEntity
8
1
62
256
6
ByLayer
370
18
48
1
60
0
100
AcDbSpline
70
4
71
3
72
10
73
6
40
0
40
0
40
0
40
0
40
0.822583100030767
40
0.822583100030767
40
1
40
1
40
1
40
1
41
1
10
24.9132056044669
20
-26.7375000000001
30
0
41
1
10
24.9132056044669
20
-26.9698326216093
30
0
41
1
10
24.9114299890268
20
-27.2057059751261
30
0
41
1
10
24.9082926815939
20
-27.4713433739913
30
0
41
1
10
24.9076966332497
20
-27.5183792153898
30
0
41
1
10
24.9070885305182
20
-27.5645537701066
30
0
0
SPLINE
5
DF
100
AcDbEntity
8
1
62
256
6
ByLayer
370
18
48
1
60
0
100
AcDbSpline
70
4
71
3
72
14
73
10
40
0
40
0
40
0
40
0
40
0.237856562094197
40
0.237856562094197
40
0.586606245817349
40
0.586606245817349
40
0.947515469360122
40
0.947515469360122
40
1
40
1
40
1
40
1
41
1
10
24.5816931065434
20
-23.8091930063014
30
0
41
1
10
24.6003189245006
20
-23.8639673022822
30
0
41
1
10
24.6216661449539
20
-23.9278023160803
30
0
41
1
10
24.676256623975
20
-24.1013902761663
30
0
41
1
10
24.7111718518511
20
-24.221468795303
30
0
41
1
10
24.776034266221
20
-24.4822550961235
30
0
41
1
10
24.8065985177119
20
-24.6274105749993
30
0
41
1
10
24.8340841099788
20
-24.7944057040013
30
0
41
1
10
24.8374918340613
20
-24.815946301018
30
0
41
1
10
24.8407635152729
20
-24.8375000000001
30
0
0
SPLINE
5
E0
100
AcDbEntity
8
1
62
256
6
ByLayer
370
18
48
1
60
0
100
AcDbSpline
70
4
71
3
72
10
73
6
40
0
40
0
40
0
40
0
40
0.770049689008096
40
0.770049689008096
40
1
40
1
40
1
40
1
41
1
10
28.8024169312244
20
-25.1375
30
0
41
1
10
28.8024169312244
20
-25.0276223023624
30
0
41
1
10
28.7980264260866
20
-24.9162319150886
30
0
41
1
10
28.7873496479524
20
-24.781650459699
30
0
41
1
10
28.7845342983077
20
-24.7511348099146
30
0
41
1
10
28.7813980309684
20
-24.7212662453683
30
0
0
SPLINE
5
E1
100
AcDbEntity
8
1
62
256
6
ByLayer
370
18
48
1
60
0
100
AcDbSpline
70
4
71
2
72
6
73
3
40
0
40
0
40
0
40
1
40
1
40
1
41
0.500000056530088
10
24.906409491144
20
-28.9754430053152
30
0
41
0.499999943469912
10
24.9067247934546
20
-29.011557894397
30
0
41
0.500000056530088
10
24.9070556032776
20
-29.047694852724
30
0
0
SPLINE
5
E2
100
AcDbEntity
8
1
62
256
6
ByLayer
370
18
48
1
60
0
100
AcDbSpline
70
4
71
3
72
10
73
6
40
0
40
0
40
0
40
0
40
0.5
40
0.5
40
1
40
1
40
1
40
1
41
1
10
24.8407635152729
20
-24.8375000000001
30
0
41
1
10
24.848197124856
20
-24.8864723090185
30
0
41
1
10
24.8550298364851
20
-24.9355744015777
30
0
41
1
10
24.8674867574393
20
-25.0340396022426
30
0
41
1
10
24.8731161224292
20
-25.0834563483085
30
0
41
1
10
24.8781230032224
20
-25.1328635823364
30
0
0
SPLINE
5
E3
100
AcDbEntity
8
1
62
256
6
ByLayer
370
18
48
1
60
0
100
AcDbSpline
70
4
71
3
72
12
73
8
40
0
40
0
40
0
40
0
40
0.256073663354131
40
0.256073663354131
40
0.725560724053991
40
0.725560724053991
40
1
40
1
40
1
40
1
41
1
10
28.7453254314731
20
-26.050770130839
30
0
41
1
10
28.7542591882105
20
-26.0049106155136
30
0
41
1
10
28.7624532005511
20
-25.9550009896392
30
0
41
1
10
28.7826827519294
20
-25.805881440176
30
0
41
1
10
28.7924808859414
20
-25.6976664079792
30
0
41
1
10
28.8008288693173
20
-25.5214756636347
30
0
41
1
10
28.8024169312244
20
-25.4543134586865
30
0
41
1
10
28.8024169312244
20
-25.3875000000001
30
0
0
SPLINE
5
E4
100
AcDbEntity
8
1
62
256
6
ByLayer
370
18
48
1
60
0
100
AcDbSpline
70
4
71
5
72
12
73
6
40
0
40
0
40
0
40
0
40
0
40
0
40
1
40
1
40
1
40
1
40
1
40
1
41
1
10
27.85069317915
20
-29.692027240934
30
0
41
1
10
27.8374509449899
20
-29.674394283342
30
0
41
1
10
27.82303741434
20
-29.656739602171
30
0
41
1
10
27.8076634192
20
-29.639658134363
30
0
41
1
10
27.7920298026199
20
-29.6233777962621
30
0
41
1
10
27.77630513343
20
-29.608518466978
30
0
0
SPLINE
5
E5
100
AcDbEntity
8
1
62
256
6
ByLayer
370
18
48
1
60
0
100
AcDbSpline
70
4
71
5
72
12
73
6
40
0
40
0
40
0
40
0
40
0
40
0
40
1
40
1
40
1
40
1
40
1
40
1
41
1
10
27.31399222906
20
-29.8415952322569
30
0
41
1
10
27.356363959439
20
-29.8530218445425
30
0
41
1
10
27.398764915535
20
-29.8815255561667
30
0
41
1
10
27.434649754902
20
-29.9255449925155
30
0
41
1
10
27.457886119376
20
-29.9775576740716
30
0
41
1
10
27.4672011353609
20
-30.029534473802
30
0
0
SPLINE
5
E6
100
AcDbEntity
8
1
62
256
6
ByLayer
370
18
48
1
60
0
100
AcDbSpline
70
4
71
5
72
12
73
6
40
0
40
0
40
0
40
0
40
0
40
0
40
1
40
1
40
1
40
1
40
1
40
1
41
1
10
25.43739587444
20
-29.9071583634624
30
0
41
1
10
25.43636891774
20
-29.957466832063
30
0
41
1
10
25.42901374066
20
-30.007646230243
30
0
41
1
10
25.41535007194
20
-30.05663461406
30
0
41
1
10
25.39567216471
20
-30.103376999488
30
0
41
1
10
25.37051276658
20
-30.146954532001
30
0
0
SPLINE
5
E7
100
AcDbEntity
8
1
62
256
6
ByLayer
370
18
48
1
60
0
100
AcDbSpline
70
4
71
5
72
12
73
6
40
0
40
0
40
0
40
0
40
0
40
0
40
1
40
1
40
1
40
1
40
1
40
1
41
1
10
26.0860081468119
20
-30.029535237246
30
0
41
1
10
26.0511018801649
20
-30.029535353459
30
0
41
1
10
26.016193774068
20
-30.029534961532
30
0
41
1
10
25.983506441899
20
-30.029534778041
30
0
41
1
10
25.9552365346989
20
-30.02953470145
30
0
41
1
10
25.932799258564
20
-30.029534624267
30
0
0
SPLINE
5
E8
100
AcDbEntity
8
1
62
256
6
ByLayer
370
18
48
1
60
0
100
AcDbSpline
70
4
71
5
72
12
73
6
40
0
40
0
40
0
40
0
40
0
40
0
40
1
40
1
40
1
40
1
40
1
40
1
41
1
10
25.67495921042
20
-29.609043293808
30
0
41
1
10
25.6503525457859
20
-29.6221712889492
30
0
41
1
10
25.6242064184236
20
-29.6377820783204
30
0
41
1
10
25.597749793662
20
-29.6552210387504
30
0
41
1
10
25.5723659641724
20
-29.6735773712489
30
0
41
1
10
25.5492119695849
20
-29.6919336725393
30
0
0
SPLINE
5
E9
100
AcDbEntity
8
1
62
256
6
ByLayer
370
18
48
1
60
0
100
AcDbSpline
70
4
71
3
72
8
73
4
40
0
40
0
40
0
40
0
40
1
40
1
40
1
40
1
41
1
10
27.7763032604645
20
-29.6085193020158
30
0
41
1
10
27.77116096549
20
-29.5824167623419
30
0
41
1
10
27.7661286500306
20
-29.5548505579354
30
0
41
1
10
27.761153876169
20
-29.5266393494824
30
0
0
SPLINE
5
EA
100
AcDbEntity
8
1
62
256
6
ByLayer
370
18
48
1
60
0
100
AcDbSpline
70
4
71
2
72
8
73
5
40
0
40
0
40
0
40
0.5
40
0.5
40
1
40
1
40
1
41
1
10
26.085871898438
20
-30.3485831217962
30
0
41
1
10
26.0336766027806
20
-30.3489450357067
30
0
41
1
10
25.9884684052505
20
-30.4030365107734
30
0
41
1
10
25.9565882598583
20
-30.4411810107495
30
0
41
1
10
25.9327992585639
20
-30.5017928187542
30
0
0
SPLINE
5
EB
100
AcDbEntity
8
1
62
256
6
ByLayer
370
18
48
1
60
0
100
AcDbSpline
70
4
71
5
72
12
73
6
40
0
40
0
40
0
40
0
40
0
40
0
40
1
40
1
40
1
40
1
40
1
40
1
41
1
10
25.43750000184
20
-29.586149071261
30
0
41
1
10
25.43750000184
20
-29.577126047543
30
0
41
1
10
25.43750000184
20
-29.568102935457
30
0
41
1
10
25.43750000185
20
-29.559117977602
30
0
41
1
10
25.43750000185
20
-29.550209416284
30
0
41
1
10
25.43750000185
20
-29.541414529465
30
0
0
SPLINE
5
EC
100
AcDbEntity
8
1
62
256
6
ByLayer
370
18
48
1
60
0
100
AcDbSpline
70
4
71
11
72
24
73
12
40
0
40
0
40
0
40
0
40
0
40
0
40
0
40
0
40
0
40
0
40
0
40
0
40
1
40
1
40
1
40
1
40
1
40
1
40
1
40
1
40
1
40
1
40
1
40
1
41
1
10
28.32500000001
20
-34.437497548185
30
0
41
1
10
28.3821198668299
20
-34.437497548185
30
0
41
1
10
28.43923972959
20
-34.4285251799551
30
0
41
1
10
28.49479362988
20
-34.410580445735
30
0
41
1
10
28.54721557038
20
-34.383970819965
30
0
41
1
10
28.59500859356
20
-34.349311262895
30
0
41
1
10
28.63681371433
20
-34.307506142525
30
0
41
1
10
28.67147327259
20
-34.259713119595
30
0
41
1
10
28.69808289729
20
-34.207291173885
30
0
41
1
10
28.7160276324399
20
-34.151737281035
30
0
41
1
10
28.72500000001
20
-34.094617414615
30
0
41
1
10
28.72500000001
20
-34.037497548185
30
0
0
SPLINE
5
ED
100
AcDbEntity
8
1
62
256
6
ByLayer
370
18
48
1
60
0
100
AcDbSpline
70
4
71
1
72
4
73
2
40
0
40
0
40
1
40
1
41
1
10
25.4375000018193
20
-29.8969657138291
30
0
41
1
10
25.4375000018445
20
-29.5861490442
30
0
0
SPLINE
5
EE
100
AcDbEntity
8
1
62
256
6
ByLayer
370
18
48
1
60
0
100
AcDbSpline
70
4
71
3
72
8
73
4
40
0
40
0
40
0
40
0
40
1
40
1
40
1
40
1
41
1
10
27.7250363739983
20
-29.6090361908496
30
0
41
1
10
27.7661614358937
20
-29.6310171365626
30
0
41
1
10
27.8122492887144
20
-29.6614620782012
30
0
41
1
10
27.8507763297987
20
-29.6919334647004
30
0
0
SPLINE
5
EF
100
AcDbEntity
8
1
62
256
6
ByLayer
370
18
48
1
60
0
100
AcDbSpline
70
4
71
3
72
10
73
6
40
0
40
0
40
0
40
0
40
0.516778517254227
40
0.759344487887781
40
1
40
1
40
1
40
1
41
1
10
25.5492459591575
20
-29.6920057588168
30
0
41
1
10
25.5335478423492
20
-29.6703874514534
30
0
41
1
10
25.5104813291901
20
-29.6386219233097
30
0
41
1
10
25.4752076962201
20
-29.5972113567248
30
0
41
1
10
25.4500248887004
20
-29.5898267678757
30
0
41
1
10
25.43748326616
20
-29.5861490712611
30
0
0
SPLINE
5
F0
100
AcDbEntity
8
1
62
256
6
ByLayer
370
18
48
1
60
0
100
AcDbSpline
70
4
71
11
72
24
73
12
40
0
40
0
40
0
40
0
40
0
40
0
40
0
40
0
40
0
40
0
40
0
40
0
40
1
40
1
40
1
40
1
40
1
40
1
40
1
40
1
40
1
40
1
40
1
40
1
41
1
10
28.60336489806
20
-31.186135457765
30
0
41
1
10
28.6029842471
20
-31.177417117345
30
0
41
1
10
28.60218514584
20
-31.168717046855
30
0
41
1
10
28.60096856861
20
-31.160057562045
30
0
41
1
10
28.59933682858
20
-31.151460920215
30
0
41
1
10
28.5972935737699
20
-31.142949228385
30
0
41
1
10
28.59484377567
20
-31.134544351875
30
0
41
1
10
28.59199371063
20
-31.126267823785
30
0
41
1
10
28.5887509339199
20
-31.118140756315
30
0
41
1
10
28.58512424694
20
-31.110183754435
30
0
41
1
10
28.58112365763
20
-31.102416832615
30
0
41
1
10
28.57676033448
20
-31.094859335265
30
0
0
SPLINE
5
F1
100
AcDbEntity
8
1
62
256
6
ByLayer
370
18
48
1
60
0
100
AcDbSpline
70
4
71
5
72
12
73
6
40
0
40
0
40
0
40
0
40
0
40
0
40
1
40
1
40
1
40
1
40
1
40
1
41
1
10
25.835099462995
20
-29.73201468776
30
0
41
1
10
25.7932228999973
20
-29.7447051343862
30
0
41
1
10
25.7501320905556
20
-29.7712221346381
30
0
41
1
10
25.7115968882618
20
-29.8099512993813
30
0
41
1
10
25.6834609113906
20
-29.8550137117288
30
0
41
1
10
25.6677711686922
20
-29.9001783452375
30
0
0
SPLINE
5
F2
100
AcDbEntity
8
1
62
256
6
ByLayer
370
18
48
1
60
0
100
AcDbSpline
70
4
71
3
72
8
73
4
40
0
40
0
40
0
40
0
40
1
40
1
40
1
40
1
41
1
10
25.835099647616
20
-29.7320125441347
30
0
41
1
10
25.8524730400445
20
-29.7422517419673
30
0
41
1
10
25.8704780147519
20
-29.7504125834292
30
0
41
1
10
25.8891450637362
20
-29.7562560032638
30
0
0
SPLINE
5
F3
100
AcDbEntity
8
1
62
256
6
ByLayer
370
18
48
1
60
0
100
AcDbSpline
70
4
71
11
72
24
73
12
40
0
40
0
40
0
40
0
40
0
40
0
40
0
40
0
40
0
40
0
40
0
40
0
40
1
40
1
40
1
40
1
40
1
40
1
40
1
40
1
40
1
40
1
40
1
40
1
41
1
10
24.79663510196
20
-31.186135457765
30
0
41
1
10
24.79701575292
20
-31.177417117345
30
0
41
1
10
24.79781485418
20
-31.168717046855
30
0
41
1
10
24.79903143141
20
-31.160057562045
30
0
41
1
10
24.80066317144
20
-31.151460920215
30
0
41
1
10
24.80270642625
20
-31.142949228385
30
0
41
1
10
24.80515622435
20
-31.134544351875
30
0
41
1
10
24.80800628939
20
-31.126267823785
30
0
41
1
10
24.8112490661
20
-31.118140756315
30
0
41
1
10
24.8148757530799
20
-31.110183754435
30
0
41
1
10
24.81887634239
20
-31.102416832615
30
0
41
1
10
24.82323966554
20
-31.094859335265
30
0
0
SPLINE
5
F4
100
AcDbEntity
8
1
62
256
6
ByLayer
370
18
48
1
60
0
100
AcDbSpline
70
4
71
5
72
15
73
9
40
0
40
0
40
0
40
0
40
0
40
0
40
0.590893213830289
40
0.590893213830289
40
0.590893213830289
40
1
40
1
40
1
40
1
40
1
40
1
41
1
10
25.6673136592099
20
-31.180498789295
30
0
41
1
10
25.65308417725
20
-31.216805256355
30
0
41
1
10
25.6359957732899
20
-31.253689162795
30
0
41
1
10
25.61594638031
20
-31.288548405485
30
0
41
1
10
25.57624156885
20
-31.345011788755
30
0
41
1
10
25.5205527738399
20
-31.388299268455
30
0
41
1
10
25.49533134778
20
-31.402064626345
30
0
41
1
10
25.46756299538
20
-31.410115052965
30
0
41
1
10
25.43739587881
20
-31.410114852875
30
0
0
SPLINE
5
F5
100
AcDbEntity
8
1
62
256
6
ByLayer
370
18
48
1
60
0
100
AcDbSpline
70
4
71
1
72
4
73
2
40
0
40
0
40
1
40
1
41
1
10
27.9626041212099
20
-29.8969657138291
30
0
41
1
10
27.9626041212099
20
-29.5861490442
30
0
0
SPLINE
5
F6
100
AcDbEntity
8
1
62
256
6
ByLayer
370
18
48
1
60
0
100
AcDbSpline
70
4
71
5
72
12
73
6
40
0
40
0
40
0
40
0
40
0
40
0
40
1
40
1
40
1
40
1
40
1
40
1
41
1
10
26.0860077709599
20
-29.8415952322569
30
0
41
1
10
26.043636040581
20
-29.8530218445425
30
0
41
1
10
26.001235084485
20
-29.8815255561667
30
0
41
1
10
25.965350245118
20
-29.9255449925155
30
0
41
1
10
25.9421138806439
20
-29.9775576740716
30
0
41
1
10
25.9327988646589
20
-30.029534473802
30
0
0
SPLINE
5
F7
100
AcDbEntity
8
1
62
256
6
ByLayer
370
18
48
1
60
0
100
AcDbSpline
70
4
71
3
72
10
73
6
40
0
40
0
40
0
40
0
40
0.240222257204637
40
0.488202588130071
40
1
40
1
40
1
40
1
41
1
10
25.674970357955
20
-29.6090434608345
30
0
41
1
10
25.6871877689844
20
-29.6210369865321
30
0
41
1
10
25.7120171572109
20
-29.6454113736288
30
0
41
1
10
25.76764995137
20
-29.6886091572925
30
0
41
1
10
25.8079748136269
20
-29.7145107713619
30
0
41
1
10
25.8351382312617
20
-29.7319584778388
30
0
0
SPLINE
5
F8
100
AcDbEntity
8
1
62
256
6
ByLayer
370
18
48
1
60
0
100
AcDbSpline
70
4
71
5
72
12
73
6
40
0
40
0
40
0
40
0
40
0
40
0
40
1
40
1
40
1
40
1
40
1
40
1
41
1
10
27.510783340406
20
-29.756259179749
30
0
41
1
10
27.5531525237827
20
-29.7676885760641
30
0
41
1
10
27.5955507626964
20
-29.7961917253314
30
0
41
1
10
27.6314343317852
20
-29.8402077601827
30
0
41
1
10
27.6546725255407
20
-29.8922165284201
30
0
41
1
10
27.6639922778468
20
-29.9441910200622
30
0
0
SPLINE
5
F9
100
AcDbEntity
8
1
62
256
6
ByLayer
370
18
48
1
60
0
100
AcDbSpline
70
4
71
5
72
15
73
9
40
0
40
0
40
0
40
0
40
0
40
0
40
0.590893213830289
40
0.590893213830289
40
0.590893213830289
40
1
40
1
40
1
40
1
40
1
40
1
41
1
10
27.7326863408099
20
-31.180498789295
30
0
41
1
10
27.74691582277
20
-31.216805256355
30
0
41
1
10
27.76400422673
20
-31.253689162795
30
0
41
1
10
27.78405361971
20
-31.288548405485
30
0
41
1
10
27.8237584311699
20
-31.345011788755
30
0
41
1
10
27.8794472261799
20
-31.388299268455
30
0
41
1
10
27.90466865224
20
-31.402064626345
30
0
41
1
10
27.93243700464
20
-31.410115052965
30
0
41
1
10
27.9626041212099
20
-31.410114852875
30
0
0
SPLINE
5
FA
100
AcDbEntity
8
1
62
256
6
ByLayer
370
18
48
1
60
0
100
AcDbSpline
70
4
71
1
72
4
73
2
40
0
40
0
40
1
40
1
41
1
10
27.7326706217553
20
-31.1804987884909
30
0
41
1
10
27.7327090727587
20
-29.8997677176976
30
0
0
SPLINE
5
FB
100
AcDbEntity
8
1
62
256
6
ByLayer
370
18
48
1
60
0
100
AcDbSpline
70
4
71
5
72
12
73
6
40
0
40
0
40
0
40
0
40
0
40
0
40
1
40
1
40
1
40
1
40
1
40
1
41
1
10
26.7980685396587
20
-29.599376744291
30
0
41
1
10
26.7891787332233
20
-29.6164372024363
30
0
41
1
10
26.7799540654362
20
-29.6316031118683
30
0
41
1
10
26.7705006185013
20
-29.6446703525719
30
0
41
1
10
26.7609326335011
20
-29.6554801779679
30
0
41
1
10
26.751365920882
20
-29.663936842137
30
0
0
SPLINE
5
FC
100
AcDbEntity
8
1
62
256
6
ByLayer
370
18
48
1
60
0
100
AcDbSpline
70
4
71
5
72
12
73
6
40
0
40
0
40
0
40
0
40
0
40
0
40
1
40
1
40
1
40
1
40
1
40
1
41
1
10
26.7000010413345
20
-29.66063859731
30
0
41
1
10
26.7104884106886
20
-29.660637113425
30
0
41
1
10
26.7209937253354
20
-29.660972402754
30
0
41
1
10
26.7313196658463
20
-29.6616384903981
30
0
41
1
10
26.7413964730172
20
-29.662619059739
30
0
41
1
10
26.7513654625835
20
-29.663938371891
30
0
0
SPLINE
5
FD
100
AcDbEntity
8
1
62
256
6
ByLayer
370
18
48
1
60
0
100
AcDbSpline
70
4
71
11
72
24
73
12
40
0
40
0
40
0
40
0
40
0
40
0
40
0
40
0
40
0
40
0
40
0
40
0
40
1
40
1
40
1
40
1
40
1
40
1
40
1
40
1
40
1
40
1
40
1
40
1
41
1
10
25.07500000001
20
-34.437497548185
30
0
41
1
10
25.01788013319
20
-34.437497548185
30
0
41
1
10
24.9607602704299
20
-34.4285251799551
30
0
41
1
10
24.90520637014
20
-34.410580445735
30
0
41
1
10
24.8527844296399
20
-34.383970819965
30
0
41
1
10
24.80499140646
20
-34.349311262895
30
0
41
1
10
24.7631862856899
20
-34.307506142525
30
0
41
1
10
24.72852672743
20
-34.259713119595
30
0
41
1
10
24.70191710273
20
-34.207291173885
30
0
41
1
10
24.6839723675799
20
-34.151737281035
30
0
41
1
10
24.67500000001
20
-34.094617414615
30
0
41
1
10
24.67500000001
20
-34.037497548185
30
0
0
SPLINE
5
FE
100
AcDbEntity
8
1
62
256
6
ByLayer
370
18
48
1
60
0
100
AcDbSpline
70
4
71
5
72
12
73
6
40
0
40
0
40
0
40
0
40
0
40
0
40
1
40
1
40
1
40
1
40
1
40
1
41
1
10
27.8507278306607
20
-29.6919768187388
30
0
41
1
10
27.8701910120233
20
-29.6636568567981
30
0
41
1
10
27.8904317674057
20
-29.636105721366
30
0
41
1
10
27.9106956606545
20
-29.6106571279387
30
0
41
1
10
27.935530253223
20
-29.5855602610778
30
0
41
1
10
27.96251673387
20
-29.5861490712611
30
0
0
SPLINE
5
FF
100
AcDbEntity
8
1
62
256
6
ByLayer
370
18
48
1
60
0
100
AcDbSpline
70
4
71
5
72
12
73
6
40
0
40
0
40
0
40
0
40
0
40
0
40
1
40
1
40
1
40
1
40
1
40
1
41
1
10
25.6236939755116
20
-29.6085179066312
30
0
41
1
10
25.5912773800844
20
-29.5906153713104
30
0
41
1
10
25.5575710234345
20
-29.5731658397792
30
0
41
1
10
25.5238034388696
20
-29.5570058794957
30
0
41
1
10
25.4824382503798
20
-29.541045678802
30
0
41
1
10
25.4374905976945
20
-29.5414143744172
30
0
0
SPLINE
5
100
100
AcDbEntity
8
1
62
256
6
ByLayer
370
18
48
1
60
0
100
AcDbSpline
70
4
71
3
72
8
73
4
40
0
40
0
40
0
40
0
40
1
40
1
40
1
40
1
41
1
10
27.564900537025
20
-29.73201468776
30
0
41
1
10
27.5479286130052
20
-29.7424725682421
30
0
41
1
10
27.5297225228606
20
-29.7505068939951
30
0
41
1
10
27.5108549498835
20
-29.7562676747625
30
0
0
SPLINE
5
101
100
AcDbEntity
8
1
62
256
6
ByLayer
370
18
48
1
60
0
100
AcDbSpline
70
4
71
11
72
24
73
12
40
0
40
0
40
0
40
0
40
0
40
0
40
0
40
0
40
0
40
0
40
0
40
0
40
1
40
1
40
1
40
1
40
1
40
1
40
1
40
1
40
1
40
1
40
1
40
1
41
1
10
28.725
20
-34.037497548185
30
0
41
1
10
28.725
20
-34.0255985668711
30
0
41
1
10
28.7249480852265
20
-34.0136995855571
30
0
41
1
10
28.7248442556694
20
-34.0018008559103
30
0
41
1
10
28.7246885127184
20
-33.9899026296077
30
0
41
1
10
28.7244808590926
20
-33.9780051582965
30
0
41
1
10
28.7242212989404
20
-33.9661086936238
30
0
41
1
10
28.7239098377302
20
-33.9542134872167
30
0
41
1
10
28.7235464823198
20
-33.9423197906525
30
0
41
1
10
28.723131240966
20
-33.9304278554683
30
0
41
1
10
28.7226641232561
20
-33.9185379331612
30
0
41
1
10
28.7221451401759
20
-33.9066502751486
30
0
0
SPLINE
5
102
100
AcDbEntity
8
1
62
256
6
ByLayer
370
18
48
1
60
0
100
AcDbSpline
70
4
71
5
72
12
73
6
40
0
40
0
40
0
40
0
40
0
40
0
40
1
40
1
40
1
40
1
40
1
40
1
41
1
10
27.313991853208
20
-30.029535237246
30
0
41
1
10
27.3488981198549
20
-30.029535353459
30
0
41
1
10
27.383806225952
20
-30.029534961532
30
0
41
1
10
27.416493558121
20
-30.029534778041
30
0
41
1
10
27.444763465321
20
-30.02953470145
30
0
41
1
10
27.4672007414559
20
-30.029534624267
30
0
0
SPLINE
5
103
100
AcDbEntity
8
1
62
256
6
ByLayer
370
18
48
1
60
0
100
AcDbSpline
70
4
71
1
72
4
73
2
40
0
40
0
40
1
40
1
41
1
10
27.9626041212099
20
-29.907158245501
30
0
41
1
10
27.9626041212099
20
-29.8969657138291
30
0
0
SPLINE
5
104
100
AcDbEntity
8
1
62
256
6
ByLayer
370
18
48
1
60
0
100
AcDbSpline
70
4
71
11
72
24
73
12
40
0
40
0
40
0
40
0
40
0
40
0
40
0
40
0
40
0
40
0
40
0
40
0
40
1
40
1
40
1
40
1
40
1
40
1
40
1
40
1
40
1
40
1
40
1
40
1
41
1
10
24.67500000002
20
-34.037497548185
30
0
41
1
10
24.67500000002
20
-34.0255985668711
30
0
41
1
10
24.6750519147935
20
-34.0136995855571
30
0
41
1
10
24.6751557443505
20
-34.0018008559103
30
0
41
1
10
24.6753114873015
20
-33.9899026296077
30
0
41
1
10
24.6755191409273
20
-33.9780051582965
30
0
41
1
10
24.6757787010794
20
-33.9661086936238
30
0
41
1
10
24.6760901622896
20
-33.9542134872167
30
0
41
1
10
24.6764535177003
20
-33.9423197906525
30
0
41
1
10
24.6768687590539
20
-33.9304278554683
30
0
41
1
10
24.6773358767639
20
-33.9185379331612
30
0
41
1
10
24.6778548598439
20
-33.9066502751486
30
0
0
SPLINE
5
105
100
AcDbEntity
8
1
62
256
6
ByLayer
370
18
48
1
60
0
100
AcDbSpline
70
4
71
5
72
12
73
6
40
0
40
0
40
0
40
0
40
0
40
0
40
1
40
1
40
1
40
1
40
1
40
1
41
1
10
25.7360193976384
20
-29.9441761485455
30
0
41
1
10
25.7753754703023
20
-29.9612468134055
30
0
41
1
10
25.8147315429653
20
-29.9783174782655
30
0
41
1
10
25.8540876156294
20
-29.9953881431255
30
0
41
1
10
25.8934436882933
20
-30.0124588079855
30
0
41
1
10
25.9327997609564
20
-30.0295294728455
30
0
0
SPLINE
5
106
100
AcDbEntity
8
1
62
256
6
ByLayer
370
18
48
1
60
0
100
AcDbSpline
70
4
71
9
72
20
73
10
40
0
40
0
40
0
40
0
40
0
40
0
40
0
40
0
40
0
40
0
40
1
40
1
40
1
40
1
40
1
40
1
40
1
40
1
40
1
40
1
41
1
10
26.0860081468119
20
-29.8415950455308
30
0
41
1
10
26.0860081468119
20
-29.8508804679319
30
0
41
1
10
26.0860081468119
20
-29.8640621466555
30
0
41
1
10
26.0860081468119
20
-29.8808925822593
30
0
41
1
10
26.0860081468119
20
-29.9009858007243
30
0
41
1
10
26.0860081468119
20
-29.9238296796692
30
0
41
1
10
26.0860081468119
20
-29.9488085688049
30
0
41
1
10
26.0860081468119
20
-29.9752348077263
30
0
41
1
10
26.0860081468119
20
-30.002384714655
30
0
41
1
10
26.0860081468119
20
-30.02953462323
30
0
0
SPLINE
5
107
100
AcDbEntity
8
1
62
256
6
ByLayer
370
18
48
1
60
0
100
AcDbSpline
70
4
71
2
72
6
73
3
40
0
40
0
40
0
40
1
40
1
40
1
41
1
10
27.7327273024146
20
-29.9016951347803
30
0
41
1
10
27.700517838686
20
-29.9280810726918
30
0
41
1
10
27.6639776609112
20
-29.9442078563494
30
0
0
SPLINE
5
108
100
AcDbEntity
8
1
62
256
6
ByLayer
370
18
48
1
60
0
100
AcDbSpline
70
4
71
3
72
9
73
5
40
0
40
0
40
0
40
0
40
0.483279051500272
40
1
40
1
40
1
40
1
41
1
10
27.3141281014174
20
-30.3485831217959
30
0
41
1
10
27.3502464704358
20
-30.3636806153014
30
0
41
1
10
27.4249825238738
20
-30.3949203172056
30
0
41
1
10
27.452817715063
20
-30.4653831809605
30
0
41
1
10
27.4672007414559
20
-30.501792818754
30
0
0
SPLINE
5
109
100
AcDbEntity
8
1
62
256
6
ByLayer
370
18
48
1
60
0
100
AcDbSpline
70
4
71
5
72
12
73
6
40
0
40
0
40
0
40
0
40
0
40
0
40
1
40
1
40
1
40
1
40
1
40
1
41
1
10
25.43750000185
20
-29.462213135958
30
0
41
1
10
25.43750000185
20
-29.4781891961583
30
0
41
1
10
25.4375000018496
20
-29.494163648961
30
0
41
1
10
25.4375000018489
20
-29.5100718341451
30
0
41
1
10
25.437500001848
20
-29.5258455656979
30
0
41
1
10
25.437500001847
20
-29.5414160314035
30
0
0
SPLINE
5
10A
100
AcDbEntity
8
1
62
256
6
ByLayer
370
18
48
1
60
0
100
AcDbSpline
70
4
71
1
72
4
73
2
40
0
40
0
40
1
40
1
41
1
10
27.6639633016172
20
-29.9441759994222
30
0
41
1
10
27.4671988016576
20
-30.0295342082525
30
0
0
SPLINE
5
10B
100
AcDbEntity
8
1
62
256
6
ByLayer
370
18
48
1
60
0
100
AcDbSpline
70
4
71
9
72
20
73
10
40
0
40
0
40
0
40
0
40
0
40
0
40
0
40
0
40
0
40
0
40
1
40
1
40
1
40
1
40
1
40
1
40
1
40
1
40
1
40
1
41
1
10
25.4373958765404
20
-29.9071582454547
30
0
41
1
10
25.4374189894014
20
-29.9060258993538
30
0
41
1
10
25.4374392166947
20
-29.9048934943535
30
0
41
1
10
25.4374565582488
20
-29.9037610388575
30
0
41
1
10
25.4374710139207
20
-29.90262854127
30
0
41
1
10
25.4374825835963
20
-29.9014960099959
30
0
41
1
10
25.4374912671894
20
-29.9003634534403
30
0
41
1
10
25.4374970646431
20
-29.8992308800084
30
0
41
1
10
25.4374999759285
20
-29.8980982981059
30
0
41
1
10
25.4375000010455
20
-29.8969657161382
30
0
0
SPLINE
5
10C
100
AcDbEntity
8
1
62
256
6
ByLayer
370
18
48
1
60
0
100
AcDbSpline
70
4
71
5
72
12
73
6
40
0
40
0
40
0
40
0
40
0
40
0
40
1
40
1
40
1
40
1
40
1
40
1
41
1
10
25.5492186907865
20
-29.692010571283
30
0
41
1
10
25.5691175420038
20
-29.7405913336422
30
0
41
1
10
25.5924042953434
20
-29.7859256928869
30
0
41
1
10
25.6172354171986
20
-29.8280727888691
30
0
41
1
10
25.6422683377633
20
-29.8676819434051
30
0
41
1
10
25.6667474112288
20
-29.9007792576026
30
0
0
SPLINE
5
10D
100
AcDbEntity
8
1
62
256
6
ByLayer
370
18
48
1
60
0
100
AcDbSpline
70
4
71
3
72
8
73
4
40
0
40
0
40
0
40
0
40
1
40
1
40
1
40
1
41
1
10
25.9328004658063
20
-30.0295345677255
30
0
41
1
10
25.9328037934162
20
-30.1869539844272
30
0
41
1
10
25.9328071211801
20
-30.3443734011288
30
0
41
1
10
25.9328104490979
20
-30.5017928178305
30
0
0
SPLINE
5
10E
100
AcDbEntity
8
1
62
256
6
ByLayer
370
18
48
1
60
0
100
AcDbSpline
70
4
71
3
72
9
73
5
40
0
40
0
40
0
40
0
40
0.524705012072585
40
1
40
1
40
1
40
1
41
1
10
27.8507735414956
20
-29.6920105736159
30
0
41
1
10
27.8323096876974
20
-29.7326524735683
30
0
41
1
10
27.7971206703
20
-29.8101091378221
30
0
41
1
10
27.7538416384808
20
-29.8715779006209
30
0
41
1
10
27.7332713315748
20
-29.9007936954933
30
0
0
SPLINE
5
10F
100
AcDbEntity
8
1
62
256
6
ByLayer
370
18
48
1
60
0
100
AcDbSpline
70
4
71
5
72
12
73
6
40
0
40
0
40
0
40
0
40
0
40
0
40
1
40
1
40
1
40
1
40
1
40
1
41
1
10
26.6999989586855
20
-29.66063859731
30
0
41
1
10
26.6895115893313
20
-29.660637113425
30
0
41
1
10
26.6790062746846
20
-29.660972402754
30
0
41
1
10
26.6686803341736
20
-29.6616384903981
30
0
41
1
10
26.6586035270028
20
-29.662619059739
30
0
41
1
10
26.6486345374365
20
-29.663938371891
30
0
0
SPLINE
5
110
100
AcDbEntity
8
1
62
256
6
ByLayer
370
18
48
1
60
0
100
AcDbSpline
70
4
71
5
72
12
73
6
40
0
40
0
40
0
40
0
40
0
40
0
40
1
40
1
40
1
40
1
40
1
40
1
41
1
10
26.6019314603612
20
-29.599376744291
30
0
41
1
10
26.6108212667966
20
-29.6164372024363
30
0
41
1
10
26.6200459345837
20
-29.6316031118683
30
0
41
1
10
26.6294993815187
20
-29.6446703525719
30
0
41
1
10
26.6390673665189
20
-29.6554801779679
30
0
41
1
10
26.648634079138
20
-29.663936842137
30
0
0
SPLINE
5
111
100
AcDbEntity
8
1
62
256
6
ByLayer
370
18
48
1
60
0
100
AcDbSpline
70
4
71
5
72
12
73
6
40
0
40
0
40
0
40
0
40
0
40
0
40
1
40
1
40
1
40
1
40
1
40
1
41
1
10
26.7000008280972
20
-29.6343312788889
30
0
41
1
10
26.7000008703026
20
-29.6405765219452
30
0
41
1
10
26.7000009128328
20
-29.6463447386853
30
0
41
1
10
26.7000009555848
20
-29.6516195775142
30
0
41
1
10
26.7000009984538
20
-29.6563873172232
30
0
41
1
10
26.7000010413345
20
-29.660637278888
30
0
0
SPLINE
5
112
100
AcDbEntity
8
1
62
256
6
ByLayer
370
18
48
1
60
0
100
AcDbSpline
70
4
71
1
72
4
73
2
40
0
40
0
40
1
40
1
41
1
10
25.6673136592099
20
-31.180498789295
30
0
41
1
10
25.6673136592099
20
-29.8997677165347
30
0
0
SPLINE
5
113
100
AcDbEntity
8
1
62
256
6
ByLayer
370
18
48
1
60
0
100
AcDbSpline
70
4
71
5
72
12
73
6
40
0
40
0
40
0
40
0
40
0
40
0
40
1
40
1
40
1
40
1
40
1
40
1
41
1
10
27.96249999818
20
-29.5861490712611
30
0
41
1
10
27.96249999818
20
-29.577126047543
30
0
41
1
10
27.96249999818
20
-29.568102935457
30
0
41
1
10
27.96249999817
20
-29.559117977602
30
0
41
1
10
27.96249999817
20
-29.550209416284
30
0
41
1
10
27.96249999817
20
-29.541414529465
30
0
0
SPLINE
5
114
100
AcDbEntity
8
1
62
256
6
ByLayer
370
18
48
1
60
0
100
AcDbSpline
70
4
71
1
72
4
73
2
40
0
40
0
40
1
40
1
41
1
10
27.4671978196448
20
-30.0295345677255
30
0
41
1
10
27.4671736614808
20
-30.5017928178305
30
0
0
SPLINE
5
115
100
AcDbEntity
8
1
62
256
6
ByLayer
370
18
48
1
60
0
100
AcDbSpline
70
4
71
9
72
20
73
10
40
0
40
0
40
0
40
0
40
0
40
0
40
0
40
0
40
0
40
0
40
1
40
1
40
1
40
1
40
1
40
1
40
1
40
1
40
1
40
1
41
1
10
27.313991853208
20
-29.8415950455308
30
0
41
1
10
27.313991853208
20
-29.8508804679319
30
0
41
1
10
27.313991853208
20
-29.8640621466555
30
0
41
1
10
27.313991853208
20
-29.8808925822593
30
0
41
1
10
27.313991853208
20
-29.9009858007243
30
0
41
1
10
27.313991853208
20
-29.9238296796692
30
0
41
1
10
27.313991853208
20
-29.9488085688049
30
0
41
1
10
27.313991853208
20
-29.9752348077263
30
0
41
1
10
27.313991853208
20
-30.002384714655
30
0
41
1
10
27.313991853208
20
-30.02953462323
30
0
0
SPLINE
5
116
100
AcDbEntity
8
1
62
256
6
ByLayer
370
18
48
1
60
0
100
AcDbSpline
70
4
71
5
72
12
73
6
40
0
40
0
40
0
40
0
40
0
40
0
40
1
40
1
40
1
40
1
40
1
40
1
41
1
10
27.7250339999107
20
-29.6090504987508
30
0
41
1
10
27.6973052550467
20
-29.6384743533866
30
0
41
1
10
27.6647310239363
20
-29.6652373338556
30
0
41
1
10
27.630417363828
20
-29.6897182041633
30
0
41
1
10
27.5966956560121
20
-29.7127831761999
30
0
41
1
10
27.5648608405639
20
-29.7319477368961
30
0
0
SPLINE
5
117
100
AcDbEntity
8
1
62
256
6
ByLayer
370
18
48
1
60
0
100
AcDbSpline
70
4
71
5
72
12
73
6
40
0
40
0
40
0
40
0
40
0
40
0
40
1
40
1
40
1
40
1
40
1
40
1
41
1
10
25.62369664773
20
-29.608519565953
30
0
41
1
10
25.6340751906062
20
-29.6080500036852
30
0
41
1
10
25.6444537774032
20
-29.6078617673526
30
0
41
1
10
25.654774043809
20
-29.6079575052284
30
0
41
1
10
25.6649776300813
20
-29.6083366775776
30
0
41
1
10
25.6750081311782
20
-29.6089955743365
30
0
0
SPLINE
5
118
100
AcDbEntity
8
1
62
256
6
ByLayer
370
18
48
1
60
0
100
AcDbSpline
70
4
71
5
72
12
73
6
40
0
40
0
40
0
40
0
40
0
40
0
40
1
40
1
40
1
40
1
40
1
40
1
41
1
10
27.96249999817
20
-29.462213135958
30
0
41
1
10
27.96249999817
20
-29.4781891961583
30
0
41
1
10
27.9624999981703
20
-29.494163648961
30
0
41
1
10
27.962499998171
20
-29.5100718341451
30
0
41
1
10
27.9624999981718
20
-29.5258455656979
30
0
41
1
10
27.9624999981729
20
-29.5414160314035
30
0
0
SPLINE
5
119
100
AcDbEntity
8
1
62
256
6
ByLayer
370
18
48
1
60
0
100
AcDbSpline
70
4
71
5
72
12
73
6
40
0
40
0
40
0
40
0
40
0
40
0
40
1
40
1
40
1
40
1
40
1
40
1
41
1
10
27.96260412558
20
-29.9071583634624
30
0
41
1
10
27.96363108228
20
-29.957466832063
30
0
41
1
10
27.97098625936
20
-30.007646230243
30
0
41
1
10
27.98464992808
20
-30.05663461406
30
0
41
1
10
28.00432783531
20
-30.103376999488
30
0
41
1
10
28.02948723344
20
-30.146954532001
30
0
0
SPLINE
5
11A
100
AcDbEntity
8
1
62
256
6
ByLayer
370
18
48
1
60
0
100
AcDbSpline
70
4
71
3
72
8
73
4
40
0
40
0
40
0
40
0
40
1
40
1
40
1
40
1
41
1
10
27.7249627694498
20
-29.6089989093526
30
0
41
1
10
27.72939350832
20
-29.5830244317543
30
0
41
1
10
27.7338242471902
20
-29.5570499541559
30
0
41
1
10
27.7382549860603
20
-29.5310754765575
30
0
0
SPLINE
5
11B
100
AcDbEntity
8
1
62
256
6
ByLayer
370
18
48
1
60
0
100
AcDbSpline
70
4
71
3
72
8
73
4
40
0
40
0
40
0
40
0
40
1
40
1
40
1
40
1
41
1
10
25.6236635972525
20
-29.6085209473241
30
0
41
1
10
25.6286712679464
20
-29.5824843196709
30
0
41
1
10
25.6336789386403
20
-29.5549595505277
30
0
41
1
10
25.6386866093342
20
-29.5267959494608
30
0
0
SPLINE
5
11C
100
AcDbEntity
8
1
62
256
6
ByLayer
370
18
48
1
60
0
100
AcDbSpline
70
4
71
5
72
12
73
6
40
0
40
0
40
0
40
0
40
0
40
0
40
1
40
1
40
1
40
1
40
1
40
1
41
1
10
25.8892163543075
20
-29.7562448892352
30
0
41
1
10
25.8468468286048
20
-29.7676744690083
30
0
41
1
10
25.8044491045957
20
-29.7961791218313
30
0
41
1
10
25.7685674572095
20
-29.8401970955462
30
0
41
1
10
25.7453330313303
20
-29.8922070615627
30
0
41
1
10
25.7360185013409
20
-29.944181149502
30
0
0
SPLINE
5
11D
100
AcDbEntity
8
1
62
256
6
ByLayer
370
18
48
1
60
0
100
AcDbSpline
70
4
71
5
72
12
73
6
40
0
40
0
40
0
40
0
40
0
40
0
40
1
40
1
40
1
40
1
40
1
40
1
41
1
10
27.5648950390479
20
-29.7319581144545
30
0
41
1
10
27.6067615594707
20
-29.744666942142
30
0
41
1
10
27.6498406599628
20
-29.7712014162722
30
0
41
1
10
27.6883630825564
20
-29.8099452415019
30
0
41
1
10
27.7164860731672
20
-29.8550155253897
30
0
41
1
10
27.7321657972043
20
-29.9001790306576
30
0
0
SPLINE
5
11E
100
AcDbEntity
8
1
62
256
6
ByLayer
370
18
48
1
60
0
100
AcDbSpline
70
4
71
5
72
12
73
6
40
0
40
0
40
0
40
0
40
0
40
0
40
1
40
1
40
1
40
1
40
1
40
1
41
1
10
27.7763060245083
20
-29.6085179066312
30
0
41
1
10
27.8087226199356
20
-29.5906153713104
30
0
41
1
10
27.8424289765854
20
-29.5731658397792
30
0
41
1
10
27.8761965611504
20
-29.5570058794957
30
0
41
1
10
27.9175617496401
20
-29.541045678802
30
0
41
1
10
27.9625094023253
20
-29.5414143744173
30
0
0
SPLINE
5
11F
100
AcDbEntity
8
1
62
256
6
ByLayer
370
18
48
1
60
0
100
AcDbSpline
70
4
71
5
72
12
73
6
40
0
40
0
40
0
40
0
40
0
40
0
40
1
40
1
40
1
40
1
40
1
40
1
41
1
10
27.77630335229
20
-29.608519565953
30
0
41
1
10
27.7659248094138
20
-29.6080500036852
30
0
41
1
10
27.7555462226168
20
-29.6078617673526
30
0
41
1
10
27.7452259562109
20
-29.6079575052284
30
0
41
1
10
27.7350223699386
20
-29.6083366775776
30
0
41
1
10
27.7249918688416
20
-29.6089955743365
30
0
0
SPLINE
5
120
100
AcDbEntity
8
1
62
256
6
ByLayer
370
18
48
1
60
0
100
AcDbSpline
70
4
71
5
72
12
73
6
40
0
40
0
40
0
40
0
40
0
40
0
40
1
40
1
40
1
40
1
40
1
40
1
41
1
10
25.67503602837
20
-29.608997638529
30
0
41
1
10
25.6712783014021
20
-29.5941688075427
30
0
41
1
10
25.66778834666
20
-29.5789179624263
30
0
41
1
10
25.6645799683012
20
-29.5633313089745
30
0
41
1
10
25.6616621906135
20
-29.5474929588013
30
0
41
1
10
25.6590391639432
20
-29.5314771006566
30
0
0
SPLINE
5
121
100
AcDbEntity
8
1
62
256
6
ByLayer
370
18
48
1
60
0
100
AcDbSpline
70
4
71
5
72
12
73
6
40
0
40
0
40
0
40
0
40
0
40
0
40
1
40
1
40
1
40
1
40
1
40
1
41
1
10
25.54930682087
20
-29.692027240934
30
0
41
1
10
25.5625490550299
20
-29.674394283342
30
0
41
1
10
25.57696258568
20
-29.656739602171
30
0
41
1
10
25.59233658082
20
-29.639658134363
30
0
41
1
10
25.6079701973999
20
-29.623377796262
30
0
41
1
10
25.62369486659
20
-29.608518466978
30
0
0
SPLINE
5
122
100
AcDbEntity
8
1
62
256
6
ByLayer
370
18
48
1
60
0
100
AcDbSpline
70
4
71
5
72
12
73
6
40
0
40
0
40
0
40
0
40
0
40
0
40
1
40
1
40
1
40
1
40
1
40
1
41
1
10
25.6672498812
20
-29.9016951359474
30
0
41
1
10
25.68042110126
20
-29.9125119496434
30
0
41
1
10
25.69395355961
20
-29.9221644302929
30
0
41
1
10
25.707776323061
20
-29.930642438818
30
0
41
1
10
25.7218166075399
20
-29.9379684222769
30
0
41
1
10
25.736004703614
20
-29.9442078572515
30
0
0
LINE
5
72
100
AcDbEntity
8
80
62
256
6
ByLayer
370
18
48
1
60
0
100
AcDbLine
10
0
20
0
30
0
11
-5
21
0
31
0
39
0
210
0
220
0
230
1
0
LINE
5
73
100
AcDbEntity
8
1
62
256
6
ByLayer
370
18
48
1
60
0
100
AcDbLine
10
22.9
20
-14.5375
30
0
11
22.9
21
-21.265364
31
0
39
0
210
0
220
0
230
1
0
LINE
5
75
100
AcDbEntity
8
81
62
256
6
ByLayer
370
18
48
1
60
0
100
AcDbLine
10
28.7
20
-34.4375
30
0
11
33.7
21
-34.4375
31
0
39
0
210
0
220
0
230
1
0
LINE
5
76
100
AcDbEntity
8
1
62
256
6
ByLayer
370
18
48
1
60
0
100
AcDbLine
10
30.19864
20
-33.5375
30
0
11
28.745325
21
-33.5375
31
0
39
0
210
0
220
0
230
1
0
LINE
5
77
100
AcDbEntity
8
1
62
256
6
ByLayer
370
18
48
1
60
0
100
AcDbLine
10
0.5
20
12.564682
30
0
11
0
21
12.5625
31
0
39
0
210
0
220
0
230
1
0
LINE
5
78
100
AcDbEntity
8
1
62
256
6
ByLayer
370
18
48
1
60
0
100
AcDbLine
10
28.29
20
1.48626
30
0
11
28.29
21
9.0725
31
0
39
0
210
0
220
0
230
1
0
LINE
5
79
100
AcDbEntity
8
1
62
256
6
ByLayer
370
18
48
1
60
0
100
AcDbLine
10
28.665424
20
-25.3875
30
0
11
28.802417
21
-25.3875
31
0
39
0
210
0
220
0
230
1
0
LINE
5
7A
100
AcDbEntity
8
1
62
256
6
ByLayer
370
18
48
1
60
0
100
AcDbLine
10
35.881731
20
-3.820588
30
0
11
31.127088
21
-1.075493
31
0
39
0
210
0
220
0
230
1
0
LINE
5
7B
100
AcDbEntity
8
1
62
256
6
ByLayer
370
18
48
1
60
0
100
AcDbLine
10
3.079011
20
-12.9375
30
0
11
3.079011
21
12.606679
31
0
39
0
210
0
220
0
230
1
0
LINE
5
7C
100
AcDbEntity
8
1
62
256
6
ByLayer
370
18
48
1
60
0
100
AcDbLine
10
0.5
20
-12.8125
30
0
11
0.5
21
12.564682
31
0
39
0
210
0
220
0
230
1
0
LINE
5
7D
100
AcDbEntity
8
1
62
256
6
ByLayer
370
18
48
1
60
0
100
AcDbLine
10
24.929789
20
-29.248518
30
0
11
25.625439
21
-29.523614
31
0
39
0
210
0
220
0
230
1
0
LINE
5
7E
100
AcDbEntity
8
1
62
256
6
ByLayer
370
18
48
1
60
0
100
AcDbLine
10
27.774561
20
-29.523614
30
0
11
27.469785
21
-29.593815
31
0
39
0
210
0
220
0
230
1
0
LINE
5
7F
100
AcDbEntity
8
1
62
256
6
ByLayer
370
18
48
1
60
0
100
AcDbLine
10
24.755821
20
12.606679
30
0
11
28.29
21
9.0725
31
0
39
0
210
0
220
0
230
1
0
LINE
5
80
100
AcDbEntity
8
1
62
256
6
ByLayer
370
18
48
1
60
0
100
AcDbLine
10
25.692729
20
-14.5375
30
0
11
22.9
21
-14.5375
31
0
39
0
210
0
220
0
230
1
0
LINE
5
81
100
AcDbEntity
8
1
62
256
6
ByLayer
370
18
48
1
60
0
100
AcDbLine
10
35.881731
20
-29.534082
30
0
11
35.881731
21
-3.820588
31
0
39
0
210
0
220
0
230
1
0
LINE
5
82
100
AcDbEntity
8
1
62
256
6
ByLayer
370
18
48
1
60
0
100
AcDbLine
10
28.706023
20
-33.5375
30
0
11
28.745325
21
-33.5375
31
0
39
0
210
0
220
0
230
1
0
LINE
5
83
100
AcDbEntity
8
1
62
256
6
ByLayer
370
18
48
1
60
0
100
AcDbLine
10
28.700997
20
-25.1375
30
0
11
28.802417
21
-25.1375
31
0
39
0
210
0
220
0
230
1
0
LINE
5
84
100
AcDbEntity
8
1
62
256
6
ByLayer
370
18
48
1
60
0
100
AcDbLine
10
0.533494
20
-12.9375
30
0
11
0.5
21
-12.8125
31
0
39
0
210
0
220
0
230
1
0
LINE
5
85
100
AcDbEntity
8
1
62
256
6
ByLayer
370
18
48
1
60
0
100
AcDbLine
10
0
20
-12.3125
30
0
11
0
21
12.5625
31
0
39
0
210
0
220
0
230
1
0
LINE
5
86
100
AcDbEntity
8
1
62
256
6
ByLayer
370
18
48
1
60
0
100
AcDbLine
10
0.5
20
-12.8125
30
0
11
0
21
-12.3125
31
0
39
0
210
0
220
0
230
1
0
LINE
5
87
100
AcDbEntity
8
1
62
256
6
ByLayer
370
18
48
1
60
0
100
AcDbLine
10
27.429486
20
-29.602061
30
0
11
27.300647
21
-29.625225
31
0
39
0
210
0
220
0
230
1
0
LINE
5
88
100
AcDbEntity
8
1
62
256
6
ByLayer
370
18
48
1
60
0
100
AcDbLine
10
25.252239
20
-25.7375
30
0
11
24.913027
21
-25.7375
31
0
39
0
210
0
220
0
230
1
0
LINE
5
89
100
AcDbEntity
8
1
62
256
6
ByLayer
370
18
48
1
60
0
100
AcDbLine
10
22.9
20
-21.265364
30
0
11
24.065271
21
-21.265364
31
0
39
0
210
0
220
0
230
1
0
LINE
5
8A
100
AcDbEntity
8
1
62
256
6
ByLayer
370
18
48
1
60
0
100
AcDbLine
10
3.079011
20
-12.9375
30
0
11
0.533494
21
-12.9375
31
0
39
0
210
0
220
0
230
1
0
LINE
5
8B
100
AcDbEntity
8
1
62
256
6
ByLayer
370
18
48
1
60
0
100
AcDbLine
10
31.127016
20
-16.416324
30
0
11
31.127016
21
-1.075452
31
0
39
0
210
0
220
0
230
1
0
LINE
5
8C
100
AcDbEntity
8
1
62
256
6
ByLayer
370
18
48
1
60
0
100
AcDbLine
10
28.324879
20
-29.30599
30
0
11
27.774561
21
-29.523614
31
0
39
0
210
0
220
0
230
1
0
LINE
5
8D
100
AcDbEntity
8
1
62
256
6
ByLayer
370
18
48
1
60
0
100
AcDbLine
10
28.802417
20
-25.3875
30
0
11
28.802417
21
-25.1375
31
0
39
0
210
0
220
0
230
1
0
LINE
5
8E
100
AcDbEntity
8
1
62
256
6
ByLayer
370
18
48
1
60
0
100
AcDbLine
10
23.847616
20
-12.9375
30
0
11
3.079011
21
-12.9375
31
0
39
0
210
0
220
0
230
1
0
LINE
5
8F
100
AcDbEntity
8
1
62
256
6
ByLayer
370
18
48
1
60
0
100
AcDbLine
10
26.099353
20
-29.625225
30
0
11
27.300647
21
-29.625225
31
0
39
0
210
0
220
0
230
1
0
LINE
5
90
100
AcDbEntity
8
1
62
256
6
ByLayer
370
18
48
1
60
0
100
AcDbLine
10
28.745325
20
-33.5375
30
0
11
28.745325
21
-26.05077
31
0
39
0
210
0
220
0
230
1
0
LINE
5
91
100
AcDbEntity
8
1
62
256
6
ByLayer
370
18
48
1
60
0
100
AcDbLine
10
31.127016
20
-1.075452
30
0
11
29.09
21
0.10062
31
0
39
0
210
0
220
0
230
1
0
LINE
5
92
100
AcDbEntity
8
1
62
256
6
ByLayer
370
18
48
1
60
0
100
AcDbLine
10
25.320255
20
-29.402939
30
0
11
25.320255
21
-30.233975
31
0
39
0
210
0
220
0
230
1
0
LINE
5
93
100
AcDbEntity
8
1
62
256
6
ByLayer
370
18
48
1
60
0
100
AcDbLine
10
24.913206
20
-25.8725
30
0
11
24.913206
21
-26.7375
31
0
39
0
210
0
220
0
230
1
0
LINE
5
94
100
AcDbEntity
8
1
62
256
6
ByLayer
370
18
48
1
60
0
100
AcDbLine
10
25.692729
20
-16.416324
30
0
11
25.692729
21
-14.5375
31
0
39
0
210
0
220
0
230
1
0
LINE
5
95
100
AcDbEntity
8
1
62
256
6
ByLayer
370
18
48
1
60
0
100
AcDbLine
10
27.774561
20
-29.523614
30
0
11
25.625439
21
-29.523614
31
0
39
0
210
0
220
0
230
1
0
LINE
5
96
100
AcDbEntity
8
1
62
256
6
ByLayer
370
18
48
1
60
0
100
AcDbLine
10
0.5
20
12.564682
30
0
11
3.079011
21
12.606679
31
0
39
0
210
0
220
0
230
1
0
LINE
5
97
100
AcDbEntity
8
1
62
256
6
ByLayer
370
18
48
1
60
0
100
AcDbLine
10
3.079011
20
12.606679
30
0
11
24.755821
21
12.606679
31
0
39
0
210
0
220
0
230
1
0
LINE
5
98
100
AcDbEntity
8
1
62
256
6
ByLayer
370
18
48
1
60
0
100
AcDbLine
10
25.625439
20
-29.523614
30
0
11
25.930215
21
-29.593815
31
0
39
0
210
0
220
0
230
1
0
LINE
5
99
100
AcDbEntity
8
1
62
256
6
ByLayer
370
18
48
1
60
0
100
AcDbLine
10
31.127016
20
-16.416324
30
0
11
25.692729
21
-16.416324
31
0
39
0
210
0
220
0
230
1
0
LINE
5
9A
100
AcDbEntity
8
1
62
256
6
ByLayer
370
18
48
1
60
0
100
AcDbLine
10
25.970514
20
-29.602061
30
0
11
26.099353
21
-29.625225
31
0
39
0
210
0
220
0
230
1
0
LINE
5
9B
100
AcDbEntity
8
SK1
62
256
6
ByLayer
370
18
48
1
60
0
100
AcDbLine
10
-122.65
20
12.5625
30
0
11
0
21
12.5625
31
0
39
0
210
0
220
0
230
1
0
LINE
5
9D
100
AcDbEntity
8
1
62
256
6
ByLayer
370
18
48
1
60
0
100
AcDbLine
10
27.510774
20
-29.756243
30
0
11
27.313988
21
-29.841597
31
0
39
0
210
0
220
0
230
1
0
LINE
5
9E
100
AcDbEntity
8
1
62
256
6
ByLayer
370
18
48
1
60
0
100
AcDbLine
10
25.370513
20
-30.146955
30
0
11
24.82324
21
-31.094859
31
0
39
0
210
0
220
0
230
1
0
LINE
5
9F
100
AcDbEntity
8
1
62
256
6
ByLayer
370
18
48
1
60
0
100
AcDbLine
10
26.085872
20
-30.348584
30
0
11
27.314128
21
-30.348584
31
0
39
0
210
0
220
0
230
1
0
LINE
5
A0
100
AcDbEntity
8
1
62
256
6
ByLayer
370
18
48
1
60
0
100
AcDbLine
10
26.086008
20
-30.029535
30
0
11
26.086008
21
-30.348583
31
0
39
0
210
0
220
0
230
1
0
LINE
5
A1
100
AcDbEntity
8
1
62
256
6
ByLayer
370
18
48
1
60
0
100
AcDbLine
10
27.732662
20
-31.180504
30
0
11
27.467176
21
-30.501798
31
0
39
0
210
0
220
0
230
1
0
LINE
5
A2
100
AcDbEntity
8
1
62
256
6
ByLayer
370
18
48
1
60
0
100
AcDbLine
10
28.722145
20
-33.90665
30
0
11
28.649289
21
-32.237971
31
0
39
0
210
0
220
0
230
1
0
LINE
5
A3
100
AcDbEntity
8
1
62
256
6
ByLayer
370
18
48
1
60
0
100
AcDbLine
10
27.962604
20
-31.410115
30
0
11
27.962604
21
-29.907158
31
0
39
0
210
0
220
0
230
1
0
LINE
5
A4
100
AcDbEntity
8
1
62
256
6
ByLayer
370
18
48
1
60
0
100
AcDbLine
10
28.029487
20
-30.146955
30
0
11
28.57676
21
-31.094859
31
0
39
0
210
0
220
0
230
1
0
LINE
5
A5
100
AcDbEntity
8
1
62
256
6
ByLayer
370
18
48
1
60
0
100
AcDbLine
10
24.750711
20
-32.237971
30
0
11
24.785118
21
-31.449929
31
0
39
0
210
0
220
0
230
1
0
LINE
5
A6
100
AcDbEntity
8
1
62
256
6
ByLayer
370
18
48
1
60
0
100
AcDbLine
10
25.4375
20
-29.449264
30
0
11
25.4375
21
-29.462213
31
0
39
0
210
0
220
0
230
1
0
LINE
5
A7
100
AcDbEntity
8
1
62
256
6
ByLayer
370
18
48
1
60
0
100
AcDbLine
10
25.075
20
-34.437502
30
0
11
28.325
21
-34.437502
31
0
39
0
210
0
220
0
230
1
0
LINE
5
A8
100
AcDbEntity
8
1
62
256
6
ByLayer
370
18
48
1
60
0
100
AcDbLine
10
24.785118
20
-31.449929
30
0
11
24.796635
21
-31.186135
31
0
39
0
210
0
220
0
230
1
0
LINE
5
A9
100
AcDbEntity
8
1
62
256
6
ByLayer
370
18
48
1
60
0
100
AcDbLine
10
26.7
20
-30.029535
30
0
11
26.086006
21
-30.029535
31
0
39
0
210
0
220
0
230
1
0
LINE
5
AA
100
AcDbEntity
8
1
62
256
6
ByLayer
370
18
48
1
60
0
100
AcDbLine
10
28.649289
20
-32.237971
30
0
11
28.614882
21
-31.449929
31
0
39
0
210
0
220
0
230
1
0
LINE
5
AB
100
AcDbEntity
8
1
62
256
6
ByLayer
370
18
48
1
60
0
100
AcDbLine
10
27.929828
20
-29.462213
30
0
11
27.9625
21
-29.462213
31
0
39
0
210
0
220
0
230
1
0
LINE
5
AC
100
AcDbEntity
8
1
62
256
6
ByLayer
370
18
48
1
60
0
100
AcDbLine
10
24.677855
20
-33.90665
30
0
11
24.750711
21
-32.237971
31
0
39
0
210
0
220
0
230
1
0
LINE
5
AD
100
AcDbEntity
8
1
62
256
6
ByLayer
370
18
48
1
60
0
100
AcDbLine
10
27.962604
20
-31.410115
30
0
11
25.437396
21
-31.410115
31
0
39
0
210
0
220
0
230
1
0
LINE
5
AE
100
AcDbEntity
8
1
62
256
6
ByLayer
370
18
48
1
60
0
100
AcDbLine
10
25.437396
20
-31.410115
30
0
11
25.437396
21
-29.907158
31
0
39
0
210
0
220
0
230
1
0
LINE
5
AF
100
AcDbEntity
8
1
62
256
6
ByLayer
370
18
48
1
60
0
100
AcDbLine
10
26.751366
20
-29.663937
30
0
11
27.510784
21
-29.756247
31
0
39
0
210
0
220
0
230
1
0
LINE
5
B0
100
AcDbEntity
8
1
62
256
6
ByLayer
370
18
48
1
60
0
100
AcDbLine
10
25.667338
20
-31.180504
30
0
11
25.932824
21
-30.501798
31
0
39
0
210
0
220
0
230
1
0
LINE
5
B1
100
AcDbEntity
8
1
62
256
6
ByLayer
370
18
48
1
60
0
100
AcDbLine
10
27.9625
20
-29.449264
30
0
11
27.9625
21
-29.462213
31
0
39
0
210
0
220
0
230
1
0
LINE
5
B2
100
AcDbEntity
8
1
62
256
6
ByLayer
370
18
48
1
60
0
100
AcDbLine
10
28.614882
20
-31.449929
30
0
11
28.603365
21
-31.186135
31
0
39
0
210
0
220
0
230
1
0
LINE
5
B3
100
AcDbEntity
8
1
62
256
6
ByLayer
370
18
48
1
60
0
100
AcDbLine
10
27.313992
20
-30.029535
30
0
11
27.313992
21
-30.348583
31
0
39
0
210
0
220
0
230
1
0
LINE
5
B4
100
AcDbEntity
8
1
62
256
6
ByLayer
370
18
48
1
60
0
100
AcDbLine
10
26.7
20
-29.841594
30
0
11
27.313992
21
-29.841595
31
0
39
0
210
0
220
0
230
1
0
LINE
5
B5
100
AcDbEntity
8
1
62
256
6
ByLayer
370
18
48
1
60
0
100
AcDbLine
10
26.7
20
-29.841594
30
0
11
26.086008
21
-29.841595
31
0
39
0
210
0
220
0
230
1
0
LINE
5
B6
100
AcDbEntity
8
1
62
256
6
ByLayer
370
18
48
1
60
0
100
AcDbLine
10
26.7
20
-30.029535
30
0
11
27.313994
21
-30.029535
31
0
39
0
210
0
220
0
230
1
0
LINE
5
B7
100
AcDbEntity
8
1
62
256
6
ByLayer
370
18
48
1
60
0
100
AcDbLine
10
26.648634
20
-29.663937
30
0
11
25.889216
21
-29.756247
31
0
39
0
210
0
220
0
230
1
0
LINE
5
B8
100
AcDbEntity
8
1
62
256
6
ByLayer
370
18
48
1
60
0
100
AcDbLine
10
25.470172
20
-29.462213
30
0
11
25.4375
21
-29.462213
31
0
39
0
210
0
220
0
230
1
0
LINE
5
B9
100
AcDbEntity
8
1
62
256
6
ByLayer
370
18
48
1
60
0
100
AcDbLine
10
25.889226
20
-29.756243
30
0
11
26.086012
21
-29.841597
31
0
39
0
210
0
220
0
230
1
0
LINE
5
BA
100
AcDbEntity
8
SK1
62
256
6
ByLayer
370
18
48
1
60
0
100
AcDbLine
10
0
20
-12.3125
30
0
11
0
21
12.5625
31
0
39
0
210
0
220
0
230
1
0
LINE
5
BB
100
AcDbEntity
8
SK1
62
256
6
ByLayer
370
18
48
1
60
0
100
AcDbLine
10
0
20
-12.3125
30
0
11
-122.65
21
-12.3125
31
0
39
0
210
0
220
0
230
1
0
LINE
5
BC
100
AcDbEntity
8
SK1
62
256
6
ByLayer
370
18
48
1
60
0
100
AcDbLine
10
-122.65
20
-12.3125
30
0
11
-122.65
21
12.5625
31
0
39
0
210
0
220
0
230
1
0
MTEXT
5
123
100
AcDbEntity
8
SK6
62
256
6
ByLayer
370
18
48
1
60
0
100
AcDbMText
10
-72.464102
20
21.709589
30
0
210
0
220
0
230
1
1
\W0.7395;LG151.37-2525-027B30
40
3.5
41
0
44
1.084337
50
0
71
7
72
5
7
iso_b_vert
0
DIMENSION
5
134
100
AcDbEntity
8
2
62
256
6
ByLayer
370
13
48
1
60
0
100
AcDbDimension
2
DimnDraft3D1
10
14.95
20
-25.7375
30
0
11
14.95
21
-46.1375
31
0
70
32
71
5
72
1
41
1
210
0
220
0
230
1
3
Standard
100
AcDbAlignedDimension
13
25.2
23
-34.4375
33
0
14
18.2
24
-25.7375
34
0
50
90
100
AcDbRotatedDimension
1001
ACAD
1000
DSTYLE
1002
{
1070
    74
1070
     0
1070
   279
1070
     0
1070
   172
1070
     1
1070
   173
1070
     1
1070
   340
1005
124
1070
   271
1070
     3
1070
   272
1070
     3
1070
    77
1070
     1
1070
    73
1070
     0
1070
   171
1070
     4
1070
   274
1070
     4
1070
   177
1070
     2
1070
   176
1070
     2
1070
   178
1070
     7
1070
    78
1070
     8
1070
    41
1041
3.0
1070
   147
1041
2.25
1070
    42
1041
1.5
1070
    44
1041
3.0
1070
   140
1041
4.5
1070
   343
1005
135
1070
   344
1005
135
1002
}
0
DIMENSION
5
149
100
AcDbEntity
8
2
62
256
6
ByLayer
370
13
48
1
60
0
100
AcDbDimension
2
DimnDraft3D2
10
24.95
20
-14.4375
30
0
11
24.95
21
-29.719079
31
0
70
32
71
5
72
1
41
1
210
0
220
0
230
1
3
Standard
100
AcDbAlignedDimension
13
25.2
23
-34.4375
33
0
14
24.7
24
-14.4375
34
0
50
90
100
AcDbRotatedDimension
1001
ACAD
1000
DSTYLE
1002
{
1070
    74
1070
     0
1070
   279
1070
     0
1070
   172
1070
     1
1070
   173
1070
     1
1070
   340
1005
124
1070
   271
1070
     3
1070
   272
1070
     3
1070
    77
1070
     1
1070
    73
1070
     0
1070
   171
1070
     4
1070
   274
1070
     4
1070
   177
1070
     2
1070
   176
1070
     2
1070
   178
1070
     7
1070
    78
1070
     8
1070
    41
1041
3.0
1070
   147
1041
2.25
1070
    42
1041
1.5
1070
    44
1041
3.0
1070
   140
1041
4.5
1070
   343
1005
135
1070
   344
1005
135
1002
}
0
DIMENSION
5
157
100
AcDbEntity
8
2
62
256
6
ByLayer
370
13
48
1
60
0
100
AcDbDimension
2
DimnDraft3D3
10
50.131731
20
12.5625
30
0
11
50.131731
21
-13.8625
31
0
70
32
71
5
72
1
41
1
210
0
220
0
230
1
3
Standard
100
AcDbAlignedDimension
13
30.2
23
-34.4375
33
0
14
1.3
24
12.5625
34
0
50
90
100
AcDbRotatedDimension
1001
ACAD
1000
DSTYLE
1002
{
1070
    74
1070
     0
1070
   279
1070
     0
1070
   172
1070
     1
1070
   173
1070
     1
1070
   340
1005
124
1070
   271
1070
     3
1070
   272
1070
     3
1070
    77
1070
     1
1070
    73
1070
     0
1070
   171
1070
     4
1070
   274
1070
     4
1070
   177
1070
     2
1070
   176
1070
     2
1070
   178
1070
     7
1070
    78
1070
     8
1070
    41
1041
3.0
1070
   147
1041
2.25
1070
    42
1041
1.5
1070
    44
1041
3.0
1070
   140
1041
4.5
1070
   343
1005
135
1070
   344
1005
135
1002
}
0
DIMENSION
5
166
100
AcDbEntity
8
SK2
62
256
6
ByLayer
370
13
48
1
60
0
100
AcDbDimension
2
DimnDraft3D4
10
-132.4
20
-12.4375
30
0
11
-132.4
21
-2.688158
31
0
70
32
71
5
72
1
41
1
210
0
220
0
230
1
3
Standard
100
AcDbAlignedDimension
13
-124.15
23
12.4375
33
0
14
-124.15
24
-12.4375
34
0
50
90
100
AcDbRotatedDimension
1001
ACAD
1000
DSTYLE
1002
{
1070
    74
1070
     0
1070
   279
1070
     0
1070
   172
1070
     1
1070
   173
1070
     1
1070
   340
1005
124
1070
   271
1070
     3
1070
   272
1070
     3
1070
    77
1070
     1
1070
    73
1070
     0
1070
   171
1070
     4
1070
   274
1070
     4
1070
   177
1070
     2
1070
   176
1070
     2
1070
   178
1070
     7
1070
    78
1070
     8
1070
    41
1041
3.0
1070
   147
1041
2.25
1070
    42
1041
1.5
1070
    44
1041
3.0
1070
   140
1041
4.5
1070
   343
1005
135
1070
   344
1005
135
1002
}
0
DIMENSION
5
174
100
AcDbEntity
8
2
62
256
6
ByLayer
370
13
48
1
60
0
100
AcDbDimension
2
DimnDraft3D5
10
24.7
20
-48.6875
30
0
11
33.2
21
-48.6875
31
0
70
32
71
5
72
1
41
1
210
0
220
0
230
1
3
Standard
100
AcDbAlignedDimension
13
28.7
23
-35.9375
33
0
14
24.7
24
-35.9375
34
0
50
0
100
AcDbRotatedDimension
1001
ACAD
1000
DSTYLE
1002
{
1070
   279
1070
     0
1070
   172
1070
     1
1070
   173
1070
     1
1070
   340
1005
124
1070
   271
1070
     3
1070
   272
1070
     3
1070
    77
1070
     1
1070
    73
1070
     0
1070
   171
1070
     4
1070
   274
1070
     4
1070
   177
1070
     2
1070
   176
1070
     2
1070
   178
1070
     7
1070
    78
1070
     8
1070
    41
1041
3.0
1070
   147
1041
2.25
1070
    42
1041
1.5
1070
    44
1041
3.0
1070
   140
1041
4.5
1070
   343
1005
135
1070
   344
1005
135
1002
}
0
DIMENSION
5
182
100
AcDbEntity
8
2
62
256
6
ByLayer
370
13
48
1
60
0
100
AcDbDimension
2
DimnDraft3D6
10
0
20
-58.6875
30
0
11
9.068421
21
-58.6875
31
0
70
32
71
5
72
1
41
1
210
0
220
0
230
1
3
Standard
100
AcDbAlignedDimension
13
28.7
23
-35.9375
33
0
14
0
24
-13.9375
34
0
50
0
100
AcDbRotatedDimension
1001
ACAD
1000
DSTYLE
1002
{
1070
   279
1070
     0
1070
   172
1070
     1
1070
   173
1070
     1
1070
   340
1005
124
1070
   271
1070
     3
1070
   272
1070
     3
1070
    77
1070
     1
1070
    73
1070
     0
1070
   171
1070
     4
1070
   274
1070
     4
1070
   177
1070
     2
1070
   176
1070
     2
1070
   178
1070
     7
1070
    78
1070
     8
1070
    41
1041
3.0
1070
   147
1041
2.25
1070
    42
1041
1.5
1070
    44
1041
3.0
1070
   140
1041
4.5
1070
   343
1005
135
1070
   344
1005
135
1002
}
0
DIMENSION
5
190
100
AcDbEntity
8
SK2
62
256
6
ByLayer
370
13
48
1
60
0
100
AcDbDimension
2
DimnDraft3D7
10
-122.65
20
-68.6875
30
0
11
-50.782237
21
-68.6875
31
0
70
32
71
5
72
1
41
1
210
0
220
0
230
1
3
Standard
100
AcDbAlignedDimension
13
28.7
23
-35.9375
33
0
14
-122.65
24
-13.9375
34
0
50
0
100
AcDbRotatedDimension
1001
ACAD
1000
DSTYLE
1002
{
1070
   279
1070
     0
1070
   172
1070
     1
1070
   173
1070
     1
1070
   340
1005
124
1070
   271
1070
     3
1070
   272
1070
     3
1070
    77
1070
     1
1070
    73
1070
     0
1070
   171
1070
     4
1070
   274
1070
     4
1070
   177
1070
     2
1070
   176
1070
     2
1070
   178
1070
     7
1070
    78
1070
     8
1070
    41
1041
3.0
1070
   147
1041
2.25
1070
    42
1041
1.5
1070
    44
1041
3.0
1070
   140
1041
4.5
1070
   343
1005
135
1070
   344
1005
135
1002
}
0
ENDSEC
0
SECTION
2
OBJECTS
0
DICTIONARY
5
1fa
330
0
100
AcDbDictionary
280
0
281
1
3
ACAD_GROUP
350
1fb
3
ACAD_MLINESTYLE
350
1fc
0
DICTIONARY
5
1fb
330
0
100
AcDbDictionary
280
0
281
1
0
DICTIONARY
5
1fc
330
0
100
AcDbDictionary
280
0
281
1
3
Standard
350
18
0
MLINESTYLE
5
18
330
1fc
100
AcDbMlineStyle
2
Standard
70
0
3

62
256
51
90
52
90
71
2
49
-0.5
62
256
6
ByLayer
49
0.5
62
256
6
ByLayer
0
RASTERVARIABLES
5
1e9
330

100
AcDbRasterVariables
90
0
70
1
71
1
72
1
0
ENDSEC
0
EOF
