0
SECTION
2
HEADER
9
$ACADVER
1
AC1015
9
$DWGCODEPAGE
3
ANSI_1252
9
$HANDSEED
5
1fd
9
$ANGBASE
50
0
9
$ANGDIR
70
0
9
$ATTMODE
70
1
9
$AUNITS
70
0
9
$AUPREC
70
0
9
$CECOLOR
62
256
9
$CELTSCALE
40
1
9
$CELTYPE
6
ByLayer
9
$CELWEIGHT
370
18
9
$CLAYER
8
0
9
$CMLJUST
70
0
9
$CMLSCALE
40
1
9
$CMLSTYLE
2
Standard
9
$DIMSTYLE
2
Standard
9
$TEXTSIZE
40
0.2
9
$TEXTSTYLE
7
Standard
9
$LUNITS
70
2
9
$LUPREC
70
4
9
$EXTNAMES
290
1
9
$INSUNITS
70
4
9
$LTSCALE
40
1
9
$LWDISPLAY
290
1
9
$PDMODE
70
0
9
$PDSIZE
40
0
9
$PLINEGEN
70
0
0
ENDSEC
0
SECTION
2
CLASSES
0
CLASS
1
RASTERVARIABLES
2
AcDbRasterVariables
3
ISM
90
0
280
0
281
0
0
ENDSEC
0
SECTION
2
TABLES
0
TABLE
2
VPORT
5
1f3
100
AcDbSymbolTable
0
VPORT
5
1
100
AcDbSymbolTableRecord
100
AcDbViewportTableRecord
2
*Active
70
0
10
0
20
0
11
1
21
1
12
-1
22
1
13
0
23
0
14
0.5
24
0.5
15
10
25
10
16
0
26
0
36
1
17
0
27
0
37
0
0
ENDTAB
0
TABLE
2
LTYPE
5
1f4
100
AcDbSymbolTable
0
LTYPE
5
14
100
AcDbSymbolTableRecord
100
AcDbLinetypeTableRecord
70
0
2
ByBlock
3

72
65
73
0
40
0
0
LTYPE
5
15
100
AcDbSymbolTableRecord
100
AcDbLinetypeTableRecord
70
0
2
ByLayer
3

72
65
73
0
40
0
0
LTYPE
5
16
100
AcDbSymbolTableRecord
100
AcDbLinetypeTableRecord
70
0
2
CONTINUOUS
3
Solid line
72
65
73
0
40
0
0
LTYPE
5
6A
100
AcDbSymbolTableRecord
100
AcDbLinetypeTableRecord
70
0
2
CENTER
3
____ _ ____ _ ____ _ ____
72
65
73
4
40
47.5
49
22
74
0
49
-8.5
74
0
49
8.5
74
0
49
-8.5
74
0
0
LTYPE
5
6B
100
AcDbSymbolTableRecord
100
AcDbLinetypeTableRecord
70
0
2
DASHED
3
__ __ __ __ __ __ __ __ __
72
65
73
2
40
25.72
49
12.86
74
0
49
-12.86
74
0
0
ENDTAB
0
TABLE
2
LAYER
5
1f5
100
AcDbSymbolTable
0
LAYER
5
10
100
AcDbSymbolTableRecord
100
AcDbLayerTableRecord
2
0
70
0
62
7
6
CONTINUOUS
290
1
370
-3
390
0
0
LAYER
5
6D
100
AcDbSymbolTableRecord
100
AcDbLayerTableRecord
2
2
70
0
62
7
6
CONTINUOUS
290
1
370
-3
390
0
0
LAYER
5
6F
100
AcDbSymbolTableRecord
100
AcDbLayerTableRecord
2
80
70
0
62
-6
6
CONTINUOUS
290
1
370
-3
390
0
0
LAYER
5
71
100
AcDbSymbolTableRecord
100
AcDbLayerTableRecord
2
81
70
0
62
-3
6
CONTINUOUS
290
1
370
-3
390
0
0
LAYER
5
74
100
AcDbSymbolTableRecord
100
AcDbLayerTableRecord
2
1
70
0
62
4
6
CONTINUOUS
290
1
370
-3
390
0
0
LAYER
5
1e0
100
AcDbSymbolTableRecord
100
AcDbLayerTableRecord
2
SK1
70
0
62
4
6
CONTINUOUS
290
1
370
-3
390
0
0
LAYER
5
1e1
100
AcDbSymbolTableRecord
100
AcDbLayerTableRecord
2
SK6
70
0
62
5
6
CONTINUOUS
290
1
370
-3
390
0
0
LAYER
5
1e2
100
AcDbSymbolTableRecord
100
AcDbLayerTableRecord
2
SK2
70
0
62
7
6
CONTINUOUS
290
1
370
-3
390
0
0
ENDTAB
0
TABLE
2
STYLE
5
1f6
100
AcDbSymbolTable
0
STYLE
5
11
100
AcDbSymbolTableRecord
100
AcDbTextStyleTableRecord
2
Standard
3
txt
70
0
71
0
40
0
41
1
42
0
50
0
0
STYLE
5
11A
100
AcDbSymbolTableRecord
100
AcDbTextStyleTableRecord
2
iso_b_vert
3
simplex.shx
70
0
71
0
40
0
41
1
42
0
50
0
0
STYLE
5
11B
100
AcDbSymbolTableRecord
100
AcDbTextStyleTableRecord
2
DWGDirectTextStyle
3
simplex
70
0
71
0
40
0
41
1
42
0
50
0
0
ENDTAB
0
TABLE
2
DIMSTYLE
5
1f7
100
AcDbSymbolTable
100
AcDbDimStyleTable
0
DIMSTYLE
105
27
100
AcDbSymbolTableRecord
100
AcDbDimStyleTableRecord
2
Standard
70
0
3
<>
41
0.18
42
0.0625
44
0.18
140
0.18
147
0.09
73
0
74
0
77
1
271
2
275
0
278
52
280
0
340
11
0
ENDTAB
0
TABLE
2
VIEW
5
1f8
100
AcDbSymbolTable
0
ENDTAB
0
TABLE
2
UCS
5
1f9
100
AcDbSymbolTable
0
ENDTAB
0
TABLE
2
APPID
5
1fa
100
AcDbSymbolTable
0
APPID
5
12
100
AcDbSymbolTableRecord
100
AcDbRegAppTableRecord
2
ACAD
70
0
0
ENDTAB
0
TABLE
2
BLOCK_RECORD
5
1fb
100
AcDbSymbolTable
0
BLOCK_RECORD
5
1F
100
AcDbSymbolTableRecord
100
AcDbBlockTableRecord
2
*Model_Space
340
0
70
0
0
BLOCK_RECORD
5
1B
100
AcDbSymbolTableRecord
100
AcDbBlockTableRecord
2
*Paper_Space
340
0
70
0
0
BLOCK_RECORD
5
23
100
AcDbSymbolTableRecord
100
AcDbBlockTableRecord
2
*Paper_Space0
340
0
70
0
0
BLOCK_RECORD
5
11D
100
AcDbSymbolTableRecord
100
AcDbBlockTableRecord
2
DimnDraft3D11
340
0
70
0
0
BLOCK_RECORD
5
12B
100
AcDbSymbolTableRecord
100
AcDbBlockTableRecord
2
DimnDraft3D2
340
0
70
0
0
BLOCK_RECORD
5
139
100
AcDbSymbolTableRecord
100
AcDbBlockTableRecord
2
_CLOSED
340
0
70
0
0
BLOCK_RECORD
5
140
100
AcDbSymbolTableRecord
100
AcDbBlockTableRecord
2
DimnDraft3D3
340
0
70
0
0
BLOCK_RECORD
5
14E
100
AcDbSymbolTableRecord
100
AcDbBlockTableRecord
2
DimnDraft3D4
340
0
70
0
0
BLOCK_RECORD
5
15D
100
AcDbSymbolTableRecord
100
AcDbBlockTableRecord
2
DimnDraft3D5
340
0
70
0
0
BLOCK_RECORD
5
16B
100
AcDbSymbolTableRecord
100
AcDbBlockTableRecord
2
DimnDraft3D6
340
0
70
0
0
BLOCK_RECORD
5
179
100
AcDbSymbolTableRecord
100
AcDbBlockTableRecord
2
DimnDraft3D7
340
0
70
0
0
ENDTAB
0
ENDSEC
0
SECTION
2
BLOCKS
0
BLOCK
5
20
100
AcDbEntity
8
0
100
AcDbBlockBegin
2
*Model_Space
70
0
10
0
20
0
30
0
3
*Model_Space
0
ENDBLK
5
21
100
AcDbEntity
8
0
100
AcDbBlockEnd
0
BLOCK
5
1C
100
AcDbEntity
8
0
100
AcDbBlockBegin
2
*Paper_Space
70
0
10
0
20
0
30
0
3
*Paper_Space
0
ENDBLK
5
1D
100
AcDbEntity
8
0
100
AcDbBlockEnd
0
BLOCK
5
24
100
AcDbEntity
8
0
100
AcDbBlockBegin
2
*Paper_Space0
70
0
10
0
20
0
30
0
3
*Paper_Space0
0
ENDBLK
5
25
100
AcDbEntity
8
0
100
AcDbBlockEnd
0
BLOCK
5
11E
100
AcDbEntity
8
0
100
AcDbBlockBegin
2
DimnDraft3D11
70
0
10
0
20
0
30
0
3
DimnDraft3D11
0
LINE
5
120
100
AcDbEntity
8
2
62
256
6
ByLayer
370
25
48
1
60
0
100
AcDbLine
10
37.7
20
-8.9375
30
0
11
37.7
21
35.1875
31
0
39
0
210
0
220
0
230
1
0
LINE
5
121
100
AcDbEntity
8
2
62
256
6
ByLayer
370
25
48
1
60
0
100
AcDbLine
10
22.7
20
13.9375
30
0
11
22.7
21
35.1875
31
0
39
0
210
0
220
0
230
1
0
LINE
5
122
100
AcDbEntity
8
2
62
256
6
ByLayer
370
25
48
1
60
0
100
AcDbLine
10
48.95
20
32.1875
30
0
11
11.45
21
32.1875
31
0
39
0
210
0
220
0
230
1
0
LINE
5
123
100
AcDbEntity
8
2
62
256
6
ByLayer
370
25
48
1
60
0
100
AcDbLine
10
37.7
20
32.1875
30
0
11
40.699999
21
32.582457
31
0
39
0
210
0
220
0
230
1
0
LINE
5
124
100
AcDbEntity
8
2
62
256
6
ByLayer
370
25
48
1
60
0
100
AcDbLine
10
37.7
20
32.1875
30
0
11
40.700001
21
31.792543
31
0
39
0
210
0
220
0
230
1
0
LINE
5
125
100
AcDbEntity
8
2
62
256
6
ByLayer
370
25
48
1
60
0
100
AcDbLine
10
40.699999
20
32.582457
30
0
11
40.700001
21
31.792543
31
0
39
0
210
0
220
0
230
1
0
LINE
5
126
100
AcDbEntity
8
2
62
256
6
ByLayer
370
25
48
1
60
0
100
AcDbLine
10
22.7
20
32.1875
30
0
11
19.700001
21
31.792543
31
0
39
0
210
0
220
0
230
1
0
LINE
5
127
100
AcDbEntity
8
2
62
256
6
ByLayer
370
25
48
1
60
0
100
AcDbLine
10
22.7
20
32.1875
30
0
11
19.699999
21
32.582457
31
0
39
0
210
0
220
0
230
1
0
LINE
5
128
100
AcDbEntity
8
2
62
256
6
ByLayer
370
25
48
1
60
0
100
AcDbLine
10
19.700001
20
31.792543
30
0
11
19.699999
21
32.582457
31
0
39
0
210
0
220
0
230
1
0
MTEXT
5
129
100
AcDbEntity
8
2
62
256
6
ByLayer
370
18
48
1
60
0
100
AcDbMText
10
26.605921
20
33.3125
30
0
210
0
220
0
230
1
1
\W0.6563;15.0
40
4.5
41
0
44
1.084337
50
0
71
7
72
5
7
iso_b_vert
0
ENDBLK
5
11F
100
AcDbEntity
8
0
100
AcDbBlockEnd
0
BLOCK
5
136
100
AcDbEntity
8
0
100
AcDbBlockBegin
2
DimnDraft3D2
70
0
10
0
20
0
30
0
3
DimnDraft3D2
0
MTEXT
5
12C
100
AcDbEntity
8
2
62
256
6
ByLayer
370
18
48
1
60
0
100
AcDbMText
10
50.825
20
-4.8125
30
0
210
0
220
0
230
1
1
\W0.5404;3
40
4.5
41
0
44
1.084337
50
90
71
7
72
5
7
iso_b_vert
0
LINE
5
12D
100
AcDbEntity
8
2
62
256
6
ByLayer
370
13
48
1
60
0
100
AcDbLine
10
39.2
20
-13.4375
30
0
11
54.95
21
-13.4375
31
0
39
0
210
0
220
0
230
1
0
LINE
5
12E
100
AcDbEntity
8
2
62
256
6
ByLayer
370
13
48
1
60
0
100
AcDbLine
10
39.2
20
-10.4375
30
0
11
54.95
21
-10.4375
31
0
39
0
210
0
220
0
230
1
0
LINE
5
12F
100
AcDbEntity
8
2
62
256
6
ByLayer
370
13
48
1
60
0
100
AcDbLine
10
51.95
20
-3.924342
30
0
11
51.95
21
-24.6875
31
0
39
0
210
0
220
0
230
1
0
LINE
5
130
100
AcDbEntity
8
2
62
256
6
ByLayer
370
13
48
1
60
0
100
AcDbLine
10
51.95
20
-13.4375
30
0
11
52.344957
21
-16.437499
31
0
39
0
210
0
220
0
230
1
0
LINE
5
131
100
AcDbEntity
8
2
62
256
6
ByLayer
370
13
48
1
60
0
100
AcDbLine
10
51.95
20
-13.4375
30
0
11
51.555043
21
-16.437501
31
0
39
0
210
0
220
0
230
1
0
LINE
5
132
100
AcDbEntity
8
2
62
256
6
ByLayer
370
13
48
1
60
0
100
AcDbLine
10
52.344957
20
-16.437499
30
0
11
51.555043
21
-16.437501
31
0
39
0
210
0
220
0
230
1
0
LINE
5
133
100
AcDbEntity
8
2
62
256
6
ByLayer
370
13
48
1
60
0
100
AcDbLine
10
51.95
20
-10.4375
30
0
11
51.555043
21
-7.437501
31
0
39
0
210
0
220
0
230
1
0
LINE
5
134
100
AcDbEntity
8
2
62
256
6
ByLayer
370
13
48
1
60
0
100
AcDbLine
10
51.95
20
-10.4375
30
0
11
52.344957
21
-7.437499
31
0
39
0
210
0
220
0
230
1
0
LINE
5
135
100
AcDbEntity
8
2
62
256
6
ByLayer
370
13
48
1
60
0
100
AcDbLine
10
51.555043
20
-7.437501
30
0
11
52.344957
21
-7.437499
31
0
39
0
210
0
220
0
230
1
0
ENDBLK
5
137
100
AcDbEntity
8
0
100
AcDbBlockEnd
0
BLOCK
5
13A
100
AcDbEntity
8
0
100
AcDbBlockBegin
2
_CLOSED
70
0
10
0
20
0
30
0
3
_CLOSED
0
LINE
5
13C
100
AcDbEntity
8
0
62
256
6
ByLayer
370
-2
48
1
60
0
100
AcDbLine
10
-1
20
0.166667
30
0
11
0
21
0
31
0
39
0
210
0
220
0
230
1
0
LINE
5
13D
100
AcDbEntity
8
0
62
256
6
ByLayer
370
-2
48
1
60
0
100
AcDbLine
10
0
20
0
30
0
11
-1
21
-0.166667
31
0
39
0
210
0
220
0
230
1
0
LINE
5
13E
100
AcDbEntity
8
0
62
256
6
ByLayer
370
-2
48
1
60
0
100
AcDbLine
10
-1
20
0.166667
30
0
11
-1
21
-0.166667
31
0
39
0
210
0
220
0
230
1
0
LINE
5
13F
100
AcDbEntity
8
0
62
256
6
ByLayer
370
-2
48
1
60
0
100
AcDbLine
10
0
20
0
30
0
11
-1
21
0
31
0
39
0
210
0
220
0
230
1
0
ENDBLK
5
13B
100
AcDbEntity
8
0
100
AcDbBlockEnd
0
BLOCK
5
14B
100
AcDbEntity
8
0
100
AcDbBlockBegin
2
DimnDraft3D3
70
0
10
0
20
0
30
0
3
DimnDraft3D3
0
MTEXT
5
141
100
AcDbEntity
8
2
62
256
6
ByLayer
370
18
48
1
60
0
100
AcDbMText
10
60.825
20
-2.063158
30
0
210
0
220
0
230
1
1
\W0.6740;26
40
4.5
41
0
44
1.084337
50
90
71
7
72
5
7
iso_b_vert
0
LINE
5
142
100
AcDbEntity
8
2
62
256
6
ByLayer
370
13
48
1
60
0
100
AcDbLine
10
39.2
20
-13.4375
30
0
11
64.95
21
-13.4375
31
0
39
0
210
0
220
0
230
1
0
LINE
5
143
100
AcDbEntity
8
2
62
256
6
ByLayer
370
13
48
1
60
0
100
AcDbLine
10
1.5
20
12.4375
30
0
11
64.95
21
12.4375
31
0
39
0
210
0
220
0
230
1
0
LINE
5
144
100
AcDbEntity
8
2
62
256
6
ByLayer
370
13
48
1
60
0
100
AcDbLine
10
61.95
20
-13.4375
30
0
11
61.95
21
12.4375
31
0
39
0
210
0
220
0
230
1
0
LINE
5
145
100
AcDbEntity
8
2
62
256
6
ByLayer
370
13
48
1
60
0
100
AcDbLine
10
61.95
20
-13.4375
30
0
11
61.555043
21
-10.437501
31
0
39
0
210
0
220
0
230
1
0
LINE
5
146
100
AcDbEntity
8
2
62
256
6
ByLayer
370
13
48
1
60
0
100
AcDbLine
10
61.95
20
-13.4375
30
0
11
62.344957
21
-10.437499
31
0
39
0
210
0
220
0
230
1
0
LINE
5
147
100
AcDbEntity
8
2
62
256
6
ByLayer
370
13
48
1
60
0
100
AcDbLine
10
61.555043
20
-10.437501
30
0
11
62.344957
21
-10.437499
31
0
39
0
210
0
220
0
230
1
0
LINE
5
148
100
AcDbEntity
8
2
62
256
6
ByLayer
370
13
48
1
60
0
100
AcDbLine
10
61.95
20
12.4375
30
0
11
62.344957
21
9.437501
31
0
39
0
210
0
220
0
230
1
0
LINE
5
149
100
AcDbEntity
8
2
62
256
6
ByLayer
370
13
48
1
60
0
100
AcDbLine
10
61.95
20
12.4375
30
0
11
61.555043
21
9.437499
31
0
39
0
210
0
220
0
230
1
0
LINE
5
14A
100
AcDbEntity
8
2
62
256
6
ByLayer
370
13
48
1
60
0
100
AcDbLine
10
62.344957
20
9.437501
30
0
11
61.555043
21
9.437499
31
0
39
0
210
0
220
0
230
1
0
ENDBLK
5
14C
100
AcDbEntity
8
0
100
AcDbBlockEnd
0
BLOCK
5
15A
100
AcDbEntity
8
0
100
AcDbBlockBegin
2
DimnDraft3D4
70
0
10
0
20
0
30
0
3
DimnDraft3D4
0
MTEXT
5
14F
100
AcDbEntity
8
SK2
62
256
6
ByLayer
370
18
48
1
60
0
100
AcDbMText
10
-124.525
20
-1.563158
30
0
210
0
220
0
230
1
1
\W0.6740;25
40
4.5
41
0
44
1.084337
50
90
71
7
72
5
7
iso_b_vert
0
LINE
5
151
100
AcDbEntity
8
SK2
62
256
6
ByLayer
370
13
48
1
60
0
100
AcDbLine
10
-115.15
20
12.4375
30
0
11
-126.4
21
12.4375
31
0
39
0
210
0
220
0
230
1
0
LINE
5
152
100
AcDbEntity
8
SK2
62
256
6
ByLayer
370
13
48
1
60
0
100
AcDbLine
10
-115.15
20
-12.4375
30
0
11
-126.4
21
-12.4375
31
0
39
0
210
0
220
0
230
1
0
LINE
5
153
100
AcDbEntity
8
SK2
62
256
6
ByLayer
370
13
48
1
60
0
100
AcDbLine
10
-123.4
20
12.4375
30
0
11
-123.4
21
-12.4375
31
0
39
0
210
0
220
0
230
1
0
LINE
5
154
100
AcDbEntity
8
SK2
62
256
6
ByLayer
370
13
48
1
60
0
100
AcDbLine
10
-123.4
20
12.4375
30
0
11
-123.005043
21
9.437501
31
0
39
0
210
0
220
0
230
1
0
LINE
5
155
100
AcDbEntity
8
SK2
62
256
6
ByLayer
370
13
48
1
60
0
100
AcDbLine
10
-123.4
20
12.4375
30
0
11
-123.794957
21
9.437499
31
0
39
0
210
0
220
0
230
1
0
LINE
5
156
100
AcDbEntity
8
SK2
62
256
6
ByLayer
370
13
48
1
60
0
100
AcDbLine
10
-123.005043
20
9.437501
30
0
11
-123.794957
21
9.437499
31
0
39
0
210
0
220
0
230
1
0
LINE
5
157
100
AcDbEntity
8
SK2
62
256
6
ByLayer
370
13
48
1
60
0
100
AcDbLine
10
-123.4
20
-12.4375
30
0
11
-123.794957
21
-9.437501
31
0
39
0
210
0
220
0
230
1
0
LINE
5
158
100
AcDbEntity
8
SK2
62
256
6
ByLayer
370
13
48
1
60
0
100
AcDbLine
10
-123.4
20
-12.4375
30
0
11
-123.005043
21
-9.437499
31
0
39
0
210
0
220
0
230
1
0
LINE
5
159
100
AcDbEntity
8
SK2
62
256
6
ByLayer
370
13
48
1
60
0
100
AcDbLine
10
-123.794957
20
-9.437501
30
0
11
-123.005043
21
-9.437499
31
0
39
0
210
0
220
0
230
1
0
ENDBLK
5
15B
100
AcDbEntity
8
0
100
AcDbBlockEnd
0
BLOCK
5
168
100
AcDbEntity
8
0
100
AcDbBlockBegin
2
DimnDraft3D5
70
0
10
0
20
0
30
0
3
DimnDraft3D5
0
MTEXT
5
15E
100
AcDbEntity
8
2
62
256
6
ByLayer
370
18
48
1
60
0
100
AcDbMText
10
43.325
20
23.3125
30
0
210
0
220
0
230
1
1
\W0.7121;8.7
40
4.5
41
0
44
1.084337
50
0
71
7
72
5
7
iso_b_vert
0
LINE
5
15F
100
AcDbEntity
8
2
62
256
6
ByLayer
370
13
48
1
60
0
100
AcDbLine
10
37.7
20
-8.9375
30
0
11
37.7
21
25.1875
31
0
39
0
210
0
220
0
230
1
0
LINE
5
160
100
AcDbEntity
8
2
62
256
6
ByLayer
370
13
48
1
60
0
100
AcDbLine
10
29
20
13.9375
30
0
11
29
21
25.1875
31
0
39
0
210
0
220
0
230
1
0
LINE
5
161
100
AcDbEntity
8
2
62
256
6
ByLayer
370
13
48
1
60
0
100
AcDbLine
10
29
20
22.1875
30
0
11
49.4
21
22.1875
31
0
39
0
210
0
220
0
230
1
0
LINE
5
162
100
AcDbEntity
8
2
62
256
6
ByLayer
370
13
48
1
60
0
100
AcDbLine
10
37.7
20
22.1875
30
0
11
34.700001
21
21.792543
31
0
39
0
210
0
220
0
230
1
0
LINE
5
163
100
AcDbEntity
8
2
62
256
6
ByLayer
370
13
48
1
60
0
100
AcDbLine
10
37.7
20
22.1875
30
0
11
34.699999
21
22.582457
31
0
39
0
210
0
220
0
230
1
0
LINE
5
164
100
AcDbEntity
8
2
62
256
6
ByLayer
370
13
48
1
60
0
100
AcDbLine
10
34.700001
20
21.792543
30
0
11
34.699999
21
22.582457
31
0
39
0
210
0
220
0
230
1
0
LINE
5
165
100
AcDbEntity
8
2
62
256
6
ByLayer
370
13
48
1
60
0
100
AcDbLine
10
29
20
22.1875
30
0
11
31.999999
21
22.582457
31
0
39
0
210
0
220
0
230
1
0
LINE
5
166
100
AcDbEntity
8
2
62
256
6
ByLayer
370
13
48
1
60
0
100
AcDbLine
10
29
20
22.1875
30
0
11
32.000001
21
21.792543
31
0
39
0
210
0
220
0
230
1
0
LINE
5
167
100
AcDbEntity
8
2
62
256
6
ByLayer
370
13
48
1
60
0
100
AcDbLine
10
31.999999
20
22.582457
30
0
11
32.000001
21
21.792543
31
0
39
0
210
0
220
0
230
1
0
ENDBLK
5
169
100
AcDbEntity
8
0
100
AcDbBlockEnd
0
BLOCK
5
176
100
AcDbEntity
8
0
100
AcDbBlockBegin
2
DimnDraft3D6
70
0
10
0
20
0
30
0
3
DimnDraft3D6
0
MTEXT
5
16C
100
AcDbEntity
8
2
62
256
6
ByLayer
370
18
48
1
60
0
100
AcDbMText
10
14.693421
20
43.3125
30
0
210
0
220
0
230
1
1
\W0.7346;37.7
40
4.5
41
0
44
1.084337
50
0
71
7
72
5
7
iso_b_vert
0
LINE
5
16D
100
AcDbEntity
8
2
62
256
6
ByLayer
370
13
48
1
60
0
100
AcDbLine
10
37.7
20
-8.9375
30
0
11
37.7
21
45.1875
31
0
39
0
210
0
220
0
230
1
0
LINE
5
16E
100
AcDbEntity
8
2
62
256
6
ByLayer
370
13
48
1
60
0
100
AcDbLine
10
0
20
13.9375
30
0
11
0
21
45.1875
31
0
39
0
210
0
220
0
230
1
0
LINE
5
16F
100
AcDbEntity
8
2
62
256
6
ByLayer
370
13
48
1
60
0
100
AcDbLine
10
37.7
20
42.1875
30
0
11
0
21
42.1875
31
0
39
0
210
0
220
0
230
1
0
LINE
5
170
100
AcDbEntity
8
2
62
256
6
ByLayer
370
13
48
1
60
0
100
AcDbLine
10
37.7
20
42.1875
30
0
11
34.700001
21
41.792543
31
0
39
0
210
0
220
0
230
1
0
LINE
5
171
100
AcDbEntity
8
2
62
256
6
ByLayer
370
13
48
1
60
0
100
AcDbLine
10
37.7
20
42.1875
30
0
11
34.699999
21
42.582457
31
0
39
0
210
0
220
0
230
1
0
LINE
5
172
100
AcDbEntity
8
2
62
256
6
ByLayer
370
13
48
1
60
0
100
AcDbLine
10
34.700001
20
41.792543
30
0
11
34.699999
21
42.582457
31
0
39
0
210
0
220
0
230
1
0
LINE
5
173
100
AcDbEntity
8
2
62
256
6
ByLayer
370
13
48
1
60
0
100
AcDbLine
10
0
20
42.1875
30
0
11
2.999999
21
42.582457
31
0
39
0
210
0
220
0
230
1
0
LINE
5
174
100
AcDbEntity
8
2
62
256
6
ByLayer
370
13
48
1
60
0
100
AcDbLine
10
0
20
42.1875
30
0
11
3.000001
21
41.792543
31
0
39
0
210
0
220
0
230
1
0
LINE
5
175
100
AcDbEntity
8
2
62
256
6
ByLayer
370
13
48
1
60
0
100
AcDbLine
10
2.999999
20
42.582457
30
0
11
3.000001
21
41.792543
31
0
39
0
210
0
220
0
230
1
0
ENDBLK
5
177
100
AcDbEntity
8
0
100
AcDbBlockEnd
0
BLOCK
5
184
100
AcDbEntity
8
0
100
AcDbBlockBegin
2
DimnDraft3D7
70
0
10
0
20
0
30
0
3
DimnDraft3D7
0
MTEXT
5
17A
100
AcDbEntity
8
SK2
62
256
6
ByLayer
370
18
48
1
60
0
100
AcDbMText
10
-40.657237
20
53.3125
30
0
210
0
220
0
230
1
1
\W0.6217;150
40
4.5
41
0
44
1.084337
50
0
71
7
72
5
7
iso_b_vert
0
LINE
5
17B
100
AcDbEntity
8
SK2
62
256
6
ByLayer
370
13
48
1
60
0
100
AcDbLine
10
37.7
20
-8.9375
30
0
11
37.7
21
55.1875
31
0
39
0
210
0
220
0
230
1
0
LINE
5
17C
100
AcDbEntity
8
SK2
62
256
6
ByLayer
370
13
48
1
60
0
100
AcDbLine
10
-113.65
20
13.9375
30
0
11
-113.65
21
55.1875
31
0
39
0
210
0
220
0
230
1
0
LINE
5
17D
100
AcDbEntity
8
SK2
62
256
6
ByLayer
370
13
48
1
60
0
100
AcDbLine
10
37.7
20
52.1875
30
0
11
-113.65
21
52.1875
31
0
39
0
210
0
220
0
230
1
0
LINE
5
17E
100
AcDbEntity
8
SK2
62
256
6
ByLayer
370
13
48
1
60
0
100
AcDbLine
10
37.7
20
52.1875
30
0
11
34.700001
21
51.792543
31
0
39
0
210
0
220
0
230
1
0
LINE
5
17F
100
AcDbEntity
8
SK2
62
256
6
ByLayer
370
13
48
1
60
0
100
AcDbLine
10
37.7
20
52.1875
30
0
11
34.699999
21
52.582457
31
0
39
0
210
0
220
0
230
1
0
LINE
5
180
100
AcDbEntity
8
SK2
62
256
6
ByLayer
370
13
48
1
60
0
100
AcDbLine
10
34.700001
20
51.792543
30
0
11
34.699999
21
52.582457
31
0
39
0
210
0
220
0
230
1
0
LINE
5
181
100
AcDbEntity
8
SK2
62
256
6
ByLayer
370
13
48
1
60
0
100
AcDbLine
10
-113.65
20
52.1875
30
0
11
-110.650001
21
52.582457
31
0
39
0
210
0
220
0
230
1
0
LINE
5
182
100
AcDbEntity
8
SK2
62
256
6
ByLayer
370
13
48
1
60
0
100
AcDbLine
10
-113.65
20
52.1875
30
0
11
-110.649999
21
51.792543
31
0
39
0
210
0
220
0
230
1
0
LINE
5
183
100
AcDbEntity
8
SK2
62
256
6
ByLayer
370
13
48
1
60
0
100
AcDbLine
10
-110.650001
20
52.582457
30
0
11
-110.649999
21
51.792543
31
0
39
0
210
0
220
0
230
1
0
ENDBLK
5
185
100
AcDbEntity
8
0
100
AcDbBlockEnd
0
ENDSEC
0
SECTION
2
ENTITIES
0
ARC
5
B6
100
AcDbEntity
8
1
62
256
6
ByLayer
370
18
48
1
60
0
100
AcDbCircle
39
0
10
-22.8
20
-7.0375
30
0
40
1.6
210
0
220
0
230
-1
100
AcDbArc
50
270
51
0
0
ARC
5
B7
100
AcDbEntity
8
1
62
256
6
ByLayer
370
18
48
1
60
0
100
AcDbCircle
39
0
10
-29
20
-4.6375
30
0
40
6
210
0
220
0
230
-1
100
AcDbArc
50
288.902107
51
318.189685
0
ARC
5
B9
100
AcDbEntity
8
1
62
256
6
ByLayer
370
18
48
1
60
0
100
AcDbCircle
39
0
10
-17.429045
20
-4.461885
30
0
40
1.13980641809794
210
0
220
0
230
-1
100
AcDbArc
50
288.752695
51
17.772659
0
ARC
5
BA
100
AcDbEntity
8
1
62
256
6
ByLayer
370
18
48
1
60
0
100
AcDbCircle
39
0
10
-12.407616
20
-6.0375
30
0
40
0.501259405157916
210
0
220
0
230
-1
100
AcDbArc
50
278.054217
51
81.945783
0
ARC
5
BB
100
AcDbEntity
8
1
62
256
6
ByLayer
370
18
48
1
60
0
100
AcDbCircle
39
0
10
-14.7
20
-9.18873
30
0
40
1.13980641809794
210
0
220
0
230
-1
100
AcDbArc
50
48.752695
51
131.247305
0
ARC
5
BC
100
AcDbEntity
8
1
62
256
6
ByLayer
370
18
48
1
60
0
100
AcDbCircle
39
0
10
-14.7
20
-2.88627
30
0
40
1.13980641809794
210
0
220
0
230
-1
100
AcDbArc
50
222.227341
51
317.772659
0
ARC
5
BD
100
AcDbEntity
8
1
62
256
6
ByLayer
370
18
48
1
60
0
100
AcDbCircle
39
0
10
-15.846192
20
-4.052237
30
0
40
0.501259405157916
210
0
220
0
230
-1
100
AcDbArc
50
52.925818
51
187.074182
0
ARC
5
BF
100
AcDbEntity
8
1
62
256
6
ByLayer
370
18
48
1
60
0
100
AcDbCircle
39
0
10
-11.970955
20
-7.613115
30
0
40
1.13980641809794
210
0
220
0
230
-1
100
AcDbArc
50
108.752695
51
191.247305
0
ARC
5
C0
100
AcDbEntity
8
1
62
256
6
ByLayer
370
18
48
1
60
0
100
AcDbCircle
39
0
10
-11.970955
20
-4.461885
30
0
40
1.13980641809794
210
0
220
0
230
-1
100
AcDbArc
50
162.227341
51
251.247305
0
ARC
5
C2
100
AcDbEntity
8
1
62
256
6
ByLayer
370
18
48
1
60
0
100
AcDbCircle
39
0
10
-13.553808
20
-4.052237
30
0
40
0.501259405157916
210
0
220
0
230
-1
100
AcDbArc
50
352.925818
51
127.074182
0
ARC
5
C3
100
AcDbEntity
8
1
62
256
6
ByLayer
370
18
48
1
60
0
100
AcDbCircle
39
0
10
-17.429045
20
-7.613115
30
0
40
1.13980641809794
210
0
220
0
230
-1
100
AcDbArc
50
342.227341
51
77.772659
0
ARC
5
C4
100
AcDbEntity
8
1
62
256
6
ByLayer
370
18
48
1
60
0
100
AcDbCircle
39
0
10
-13.553808
20
-8.022763
30
0
40
0.501259405157916
210
0
220
0
230
-1
100
AcDbArc
50
218.054217
51
21.945783
0
ARC
5
C5
100
AcDbEntity
8
1
62
256
6
ByLayer
370
18
48
1
60
0
100
AcDbCircle
39
0
10
-16.992384
20
-6.0375
30
0
40
0.501259405157916
210
0
220
0
230
-1
100
AcDbArc
50
98.054217
51
247.074182
0
ARC
5
C7
100
AcDbEntity
8
1
62
256
6
ByLayer
370
18
48
1
60
0
100
AcDbCircle
39
0
10
-15.846192
20
-8.022763
30
0
40
0.501259405157916
210
0
220
0
230
-1
100
AcDbArc
50
172.925818
51
321.945783
0
CIRCLE
5
B8
100
AcDbEntity
8
1
62
256
6
ByLayer
370
18
48
1
60
0
100
AcDbCircle
10
14.7
20
-6.0375
30
0
40
5.5
39
0
210
0
220
0
230
1
0
CIRCLE
5
BE
100
AcDbEntity
8
1
62
256
6
ByLayer
370
18
48
1
60
0
100
AcDbCircle
10
14.7
20
-6.0375
30
0
40
4.4958
39
0
210
0
220
0
230
1
0
CIRCLE
5
C1
100
AcDbEntity
8
1
62
256
6
ByLayer
370
18
48
1
60
0
100
AcDbCircle
10
-14.7
20
-6.0375
30
0
40
3.0330983114651
39
0
210
0
220
0
230
-1
0
CIRCLE
5
C6
100
AcDbEntity
8
1
62
256
6
ByLayer
370
18
48
1
60
0
100
AcDbCircle
10
-14.7
20
-6.0375
30
0
40
5.0038
39
0
210
0
220
0
230
-1
0
ELLIPSE
5
C8
100
AcDbEntity
8
1
62
256
6
ByLayer
370
18
48
1
60
0
100
AcDbEllipse
10
33.960304
20
-30.4375
30
0
11
-31.1336264125057
21
7.29431814387121E-14
31
0
210
0
220
0
230
1
40
0.700208
41
-1.26299262026468
42
-1.20417363261596
0
ELLIPSE
5
C9
100
AcDbEntity
8
1
62
256
6
ByLayer
370
18
48
1
60
0
100
AcDbEllipse
10
42.184363
20
-30.437505
30
0
11
-10.8303433835511
21
19.5570617719603
31
0
210
0
220
0
230
1
40
0.28551
41
-0.201678464468178
42
-0.173051804491326
0
ELLIPSE
5
CA
100
AcDbEntity
8
1
62
256
6
ByLayer
370
18
48
1
60
0
100
AcDbEllipse
10
33.960304
20
-35.6375
30
0
11
-32.2761449522853
21
7.56199957628784E-14
31
0
210
0
220
0
230
1
40
0.700208
41
-1.53350716792034
42
-1.1852059897842
0
ELLIPSE
5
CB
100
AcDbEntity
8
1
62
256
6
ByLayer
370
18
48
1
60
0
100
AcDbEllipse
10
32.659999
20
-11.529024
30
0
11
-2.48012893983759E-07
21
0.499999403540283
31
0
210
0
220
0
230
1
40
0.493095
41
-1.17787732572357
42
-1.13446462177228
0
ELLIPSE
5
CC
100
AcDbEntity
8
1
62
256
6
ByLayer
370
18
48
1
60
0
100
AcDbEllipse
10
32.659999
20
-12.345976
30
0
11
-2.46874577712813E-07
21
-0.499999406283198
31
0
210
0
220
0
230
1
40
0.493095
41
1.13446461899001
42
1.17787732273677
0
ELLIPSE
5
CD
100
AcDbEntity
8
1
62
256
6
ByLayer
370
18
48
1
60
0
100
AcDbEllipse
10
28.65
20
-12.303711
30
0
11
2.51218979976569E-15
21
2.1445069206072
31
0
210
0
220
0
230
1
40
0.466308
41
-2.08785794874199
42
-2.02765327302898
0
ELLIPSE
5
CE
100
AcDbEntity
8
1
62
256
6
ByLayer
370
18
48
1
60
0
100
AcDbEllipse
10
61.353992
20
-30.432023
30
0
11
-67.8150794803469
21
9.33733726842704
31
0
210
0
220
0
230
1
40
0.257374
41
-1.09580536978825
42
-1.09238475153295
0
ELLIPSE
5
CF
100
AcDbEntity
8
1
62
256
6
ByLayer
370
18
48
1
60
0
100
AcDbEllipse
10
33.960304
20
-30.4375
30
0
11
-28.2773305322311
21
6.62511467275284E-14
31
0
210
0
220
0
230
1
40
0.700208
41
-1.52593017108516
42
-1.39446775707328
0
ELLIPSE
5
D0
100
AcDbEntity
8
1
62
256
6
ByLayer
370
18
48
1
60
0
100
AcDbEllipse
10
41.58173
20
-35.6375
30
0
11
2.6474845536302E-14
21
22.5999999999609
31
0
210
0
220
0
230
1
40
0.57735
41
0.375211181108932
42
0.798922266250855
0
POINT
5
6C
100
AcDbEntity
8
2
62
256
6
ByLayer
370
18
48
1
60
0
100
AcDbPoint
10
37.7
20
13.5625
30
0
39
0
210
0
220
0
230
1
50
360
0
POINT
5
6E
100
AcDbEntity
8
80
62
256
6
ByLayer
370
18
48
1
60
0
100
AcDbPoint
10
0
20
0
30
0
39
0
210
0
220
0
230
1
50
360
0
POINT
5
70
100
AcDbEntity
8
81
62
256
6
ByLayer
370
18
48
1
60
0
100
AcDbPoint
10
37.7
20
-13.4375
30
0
39
0
210
0
220
0
230
1
50
360
0
SPLINE
5
D1
100
AcDbEntity
8
1
62
256
6
ByLayer
370
18
48
1
60
0
100
AcDbSpline
70
4
71
1
72
4
73
2
40
0
40
0
40
1
40
1
41
1
10
33.0559443054592
20
-11.0430549438975
30
0
41
1
10
33.033067446571
20
-11.0523342815933
30
0
0
SPLINE
5
D2
100
AcDbEntity
8
1
62
256
6
ByLayer
370
18
48
1
60
0
100
AcDbSpline
70
4
71
3
72
14
73
10
40
0
40
0
40
0
40
0
40
0.133767382064055
40
0.133767382064055
40
0.534254447388938
40
0.534254447388938
40
0.932956343157717
40
0.932956343157717
40
1
40
1
40
1
40
1
41
1
10
21.2
20
-8.63589455452885
30
0
41
1
10
21.2
20
-8.70498528905929
30
0
41
1
10
21.2038950704098
20
-8.77418467570774
30
0
41
1
10
21.2346910162916
20
-9.04699872269228
30
0
41
1
10
21.2930184050511
20
-9.25016351529791
30
0
41
1
10
21.4720641058382
20
-9.61876916904146
30
0
41
1
10
21.5953242001947
20
-9.78984769881342
30
0
41
1
10
21.7684762597196
20
-9.95470514073742
30
0
41
1
10
21.7944102177136
20
-9.97788340267613
30
0
41
1
10
21.8210455474115
20
-10.0001976335527
30
0
0
SPLINE
5
D3
100
AcDbEntity
8
1
62
256
6
ByLayer
370
18
48
1
60
0
100
AcDbSpline
70
4
71
3
72
10
73
6
40
0
40
0
40
0
40
0
40
0.597039789321698
40
0.597039789321698
40
1
40
1
40
1
40
1
41
1
10
30.8592641056233
20
-10.639455105319
30
0
41
1
10
30.7043177211015
20
-10.6406646590436
30
0
41
1
10
30.5343213382005
20
-10.6420784680969
30
0
41
1
10
30.2424003523072
20
-10.6434953365871
30
0
41
1
10
30.1208869247114
20
-10.6438213487196
30
0
41
1
10
30
20
-10.6438213487196
30
0
0
SPLINE
5
D4
100
AcDbEntity
8
1
62
256
6
ByLayer
370
18
48
1
60
0
100
AcDbSpline
70
4
71
3
72
10
73
6
40
0
40
0
40
0
40
0
40
0.5
40
0.5
40
1
40
1
40
1
40
1
41
1
10
29
20
-10.9445117689128
30
0
41
1
10
28.2158824765543
20
-11.0423400813629
30
0
41
1
10
27.4373876494392
20
-11.0147722060981
30
0
41
1
10
25.8954835774731
20
-10.6232009815404
30
0
41
1
10
25.1534350136507
20
-10.2567214738678
30
0
41
1
10
24.5278640450004
20
-9.66207229095045
30
0
0
SPLINE
5
D5
100
AcDbEntity
8
1
62
256
6
ByLayer
370
18
48
1
60
0
100
AcDbSpline
70
4
71
3
72
14
73
10
40
0
40
0
40
0
40
0
40
0.158141100157587
40
0.158141100157587
40
0.483934531368167
40
0.483934531368167
40
0.805546835624189
40
0.805546835624189
40
1
40
1
40
1
40
1
41
1
10
29.5192754528564
20
-13.3638006362794
30
0
41
1
10
29.4920458908732
20
-13.3720267629088
30
0
41
1
10
29.4607258563837
20
-13.3800570459485
30
0
41
1
10
29.3545098543512
20
-13.403327145667
30
0
41
1
10
29.2665769734105
20
-13.4175546277196
30
0
41
1
10
29.0734339572682
20
-13.4396848277422
30
0
41
1
10
28.9657355700058
20
-13.447952657336
30
0
41
1
10
28.7880798411573
20
-13.4551981305208
30
0
41
1
10
28.7188518433741
20
-13.4566063489318
30
0
41
1
10
28.65
20
-13.4566063489318
30
0
0
SPLINE
5
D6
100
AcDbEntity
8
1
62
256
6
ByLayer
370
18
48
1
60
0
100
AcDbSpline
70
4
71
3
72
8
73
4
40
0
40
0
40
0
40
0
40
1
40
1
40
1
40
1
41
1
10
28.9835971841109
20
-10.6436370146071
30
0
41
1
10
28.9890629591646
20
-10.643663443862
30
0
41
1
10
28.994530663809
20
-10.6436818776084
30
0
41
1
10
29
20
-10.6436922961128
30
0
0
SPLINE
5
D7
100
AcDbEntity
8
1
62
256
6
ByLayer
370
18
48
1
60
0
100
AcDbSpline
70
4
71
3
72
10
73
6
40
0
40
0
40
0
40
0
40
0.5
40
0.5
40
1
40
1
40
1
40
1
41
1
10
28.5599999999999
20
-10.6294812852792
30
0
41
1
10
28.4831316874344
20
-10.6238267352723
30
0
41
1
10
28.406278222432
20
-10.6166840605206
30
0
41
1
10
28.2526012739293
20
-10.5993937588627
30
0
41
1
10
28.1760619909009
20
-10.5892757307185
30
0
41
1
10
28.1
20
-10.5777311545994
30
0
0
SPLINE
5
D8
100
AcDbEntity
8
1
62
256
6
ByLayer
370
18
48
1
60
0
100
AcDbSpline
70
4
71
3
72
12
73
8
40
0
40
0
40
0
40
0
40
0.341363188879897
40
0.341363188879897
40
0.682221843240772
40
0.682221843240772
40
1
40
1
40
1
40
1
41
1
10
28.1
20
-10.5777311545994
30
0
41
1
10
27.9580789400959
20
-10.556190586708
30
0
41
1
10
27.8151812692741
20
-10.5282591486299
30
0
41
1
10
27.5509751071712
20
-10.4664728517913
30
0
41
1
10
27.42594317074
20
-10.4318680528803
30
0
41
1
10
27.2158017425576
20
-10.3679942662127
30
0
41
1
10
27.1259073681968
20
-10.3378183301267
30
0
41
1
10
27.0538268389809
20
-10.3130969493241
30
0
0
SPLINE
5
D9
100
AcDbEntity
8
1
62
256
6
ByLayer
370
18
48
1
60
0
100
AcDbSpline
70
4
71
2
72
6
73
3
40
0
40
0
40
0
40
1
40
1
40
1
41
0.500000390851152
10
32.2673644050882
20
-10.6391269006703
30
0
41
0.499999609148848
10
31.5635097430784
20
-10.6392834694738
30
0
41
0.500000390851152
10
30.8592641060052
20
-10.6394551053189
30
0
0
SPLINE
5
DA
100
AcDbEntity
8
1
62
256
6
ByLayer
370
18
48
1
60
0
100
AcDbSpline
70
4
71
3
72
8
73
4
40
0
40
0
40
0
40
0
40
1
40
1
40
1
40
1
41
1
10
29.135
20
-10.6438213487196
30
0
41
1
10
29.0899674723158
20
-10.6438213487196
30
0
41
1
10
29.044902449536
20
-10.6437778305082
30
0
41
1
10
29
20
-10.6436922961128
30
0
0
SPLINE
5
DB
100
AcDbEntity
8
1
62
256
6
ByLayer
370
18
48
1
60
0
100
AcDbSpline
70
4
71
3
72
11
73
7
40
0
40
0
40
0
40
0
40
0.673735110937691
40
0.673735110937691
40
0.673735110937691
40
1
40
1
40
1
40
1
41
1
10
22.8
20
-10.0862557874743
30
0
41
1
10
22.5831611838668
20
-10.1445567379214
30
0
41
1
10
22.3531589915597
20
-10.1603829384737
30
0
41
1
10
22.1343004500246
20
-10.1146930986817
30
0
41
1
10
22.0268621238178
20
-10.0922638168384
30
0
41
1
10
21.9205283930195
20
-10.0545697360481
30
0
41
1
10
21.8210455474115
20
-10.0001976335527
30
0
0
SPLINE
5
DC
100
AcDbEntity
8
1
62
256
6
ByLayer
370
18
48
1
60
0
100
AcDbSpline
70
4
71
3
72
8
73
4
40
0
40
0
40
0
40
0
40
1
40
1
40
1
40
1
41
1
10
28.9835971841109
20
-10.6436370146071
30
0
41
1
10
28.8486723015941
20
-10.644480529186
30
0
41
1
10
28.7030264406677
20
-10.6400025278312
30
0
41
1
10
28.56
20
-10.6294812852792
30
0
0
SPLINE
5
DD
100
AcDbEntity
8
1
62
256
6
ByLayer
370
18
48
1
60
0
100
AcDbSpline
70
4
71
3
72
10
73
6
40
0
40
0
40
0
40
0
40
0.730922914244795
40
0.730922914244795
40
1
40
1
40
1
40
1
41
1
10
28.4
20
-13.4566063489318
30
0
41
1
10
28.2895201136785
20
-13.4566063489318
30
0
41
1
10
28.1775186216879
20
-13.4529031233453
30
0
41
1
10
28.034933366498
20
-13.4434034673042
30
0
41
1
10
27.9972287659739
20
-13.4403843690213
30
0
41
1
10
27.9605890849613
20
-13.4369635967088
30
0
0
SPLINE
5
DE
100
AcDbEntity
8
1
62
256
6
ByLayer
370
18
48
1
60
0
100
AcDbSpline
70
4
71
11
72
24
73
12
40
0
40
0
40
0
40
0
40
0
40
0
40
0
40
0
40
0
40
0
40
0
40
0
40
1
40
1
40
1
40
1
40
1
40
1
40
1
40
1
40
1
40
1
40
1
40
1
41
1
10
37.69999988733
20
-13.1625
30
0
41
1
10
37.69999988733
20
-13.20533990012
30
0
41
1
10
37.69327061116
20
-13.24817979718
30
0
41
1
10
37.67981206049
20
-13.2898452224
30
0
41
1
10
37.65985484116
20
-13.32916167778
30
0
41
1
10
37.63386017336
20
-13.3650064451601
30
0
41
1
10
37.60250633309
20
-13.39636028574
30
0
41
1
10
37.56666156589
20
-13.42235495443
30
0
41
1
10
37.52734510661
20
-13.44231217296
30
0
41
1
10
37.48567968697
20
-13.4557707243201
30
0
41
1
10
37.44283978715
20
-13.4625
30
0
41
1
10
37.39999988733
20
-13.4625
30
0
0
SPLINE
5
DF
100
AcDbEntity
8
1
62
256
6
ByLayer
370
18
48
1
60
0
100
AcDbSpline
70
4
71
5
72
12
73
6
40
0
40
0
40
0
40
0
40
0
40
0
40
1
40
1
40
1
40
1
40
1
40
1
41
1
10
33.14460824257
20
-12.734642042303
30
0
41
1
10
33.140860744939
20
-12.74328058573
30
0
41
1
10
33.1366481773674
20
-12.75184570067
30
0
41
1
10
33.1319674201208
20
-12.760323064521
30
0
41
1
10
33.1268173926973
20
-12.768696803044
30
0
41
1
10
33.1211997645859
20
-12.776950216318
30
0
0
SPLINE
5
E0
100
AcDbEntity
8
1
62
256
6
ByLayer
370
18
48
1
60
0
100
AcDbSpline
70
4
71
5
72
12
73
6
40
0
40
0
40
0
40
0
40
0
40
0
40
1
40
1
40
1
40
1
40
1
40
1
41
1
10
33.0661326672516
20
-11.052010427273
30
0
41
1
10
33.0382086649258
20
-11.0662917590605
30
0
41
1
10
33.010279000036
20
-11.0856009935443
30
0
41
1
10
32.9851301187892
20
-11.1085403240281
30
0
41
1
10
32.9654704881524
20
-11.1326389062444
30
0
41
1
10
32.9525528653357
20
-11.1556107364751
30
0
0
SPLINE
5
E1
100
AcDbEntity
8
1
62
256
6
ByLayer
370
18
48
1
60
0
100
AcDbSpline
70
4
71
11
72
24
73
12
40
0
40
0
40
0
40
0
40
0
40
0
40
0
40
0
40
0
40
0
40
0
40
0
40
1
40
1
40
1
40
1
40
1
40
1
40
1
40
1
40
1
40
1
40
1
40
1
41
1
10
35.07398463521
20
-11.098049439365
30
0
41
1
10
35.1034256203
20
-11.086529812354
30
0
41
1
10
35.1307107804
20
-11.073812143141
30
0
41
1
10
35.15559100055
20
-11.059993905366
30
0
41
1
10
35.17783996401
20
-11.045185245455
30
0
41
1
10
35.19725754457
20
-11.029507655829
30
0
41
1
10
35.21367278077
20
-11.013092419548
30
0
41
1
10
35.22694635033
20
-10.996078859003
30
0
41
1
10
35.23697247513
20
-10.978612430835
30
0
41
1
10
35.24368020756
20
-10.9608427161
30
0
41
1
10
35.24703407381
20
-10.942921358069
30
0
41
1
10
35.24703407385
20
-10.92500000002
30
0
0
SPLINE
5
E2
100
AcDbEntity
8
1
62
256
6
ByLayer
370
18
48
1
60
0
100
AcDbSpline
70
4
71
5
72
12
73
6
40
0
40
0
40
0
40
0
40
0
40
0
40
1
40
1
40
1
40
1
40
1
40
1
41
1
10
33.003068556809
20
-12.619304128482
30
0
41
1
10
33.000703879477
20
-12.626465584375
30
0
41
1
10
32.998017960404
20
-12.633553435443
30
0
41
1
10
32.995008839723
20
-12.640562159592
30
0
41
1
10
32.991676702845
20
-12.647487192848
30
0
41
1
10
32.988023911103
20
-12.654324860281
30
0
0
SPLINE
5
E3
100
AcDbEntity
8
1
62
256
6
ByLayer
370
18
48
1
60
0
100
AcDbSpline
70
4
71
5
72
12
73
6
40
0
40
0
40
0
40
0
40
0
40
0
40
1
40
1
40
1
40
1
40
1
40
1
41
1
10
32.9447956917021
20
-11.12033392243
30
0
41
1
10
32.9347588733156
20
-11.1237995202325
30
0
41
1
10
32.924152643408
20
-11.1272537384247
30
0
41
1
10
32.9130126914549
20
-11.1306899616098
30
0
41
1
10
32.9013787277078
20
-11.1341041740585
30
0
41
1
10
32.889294362364
20
-11.137500000002
30
0
0
SPLINE
5
E4
100
AcDbEntity
8
1
62
256
6
ByLayer
370
18
48
1
60
0
100
AcDbSpline
70
4
71
5
72
12
73
6
40
0
40
0
40
0
40
0
40
0
40
0
40
1
40
1
40
1
40
1
40
1
40
1
41
1
10
32.8979351536998
20
-12.0137996677874
30
0
41
1
10
32.9048612189766
20
-12.0088789154184
30
0
41
1
10
32.9111947147553
20
-12.0039089601148
30
0
41
1
10
32.9169129804846
20
-11.9989060282353
30
0
41
1
10
32.9219974353975
20
-11.9938867301708
30
0
41
1
10
32.926434283278
20
-11.9888678001899
30
0
0
SPLINE
5
E5
100
AcDbEntity
8
1
62
256
6
ByLayer
370
18
48
1
60
0
100
AcDbSpline
70
4
71
5
72
12
73
6
40
0
40
0
40
0
40
0
40
0
40
0
40
1
40
1
40
1
40
1
40
1
40
1
41
1
10
32.944799577582
20
-12.754627084048
30
0
41
1
10
32.930791490826
20
-12.7901619588705
30
0
41
1
10
32.9180761788811
20
-12.8281990235307
30
0
41
1
10
32.9080667656493
20
-12.8679106995998
30
0
41
1
10
32.9030690116696
20
-12.9087337959707
30
0
41
1
10
32.9029503818705
20
-12.9499996713899
30
0
0
SPLINE
5
E6
100
AcDbEntity
8
1
62
256
6
ByLayer
370
18
48
1
60
0
100
AcDbSpline
70
4
71
3
72
8
73
4
40
0
40
0
40
0
40
0
40
1
40
1
40
1
40
1
41
1
10
34.430369298142
20
-10.9250000166372
30
0
41
1
10
34.4406831369307
20
-10.925011142219
30
0
41
1
10
34.4509968854273
20
-10.9242752286881
30
0
41
1
10
34.4612068134552
20
-10.922812863251
30
0
0
SPLINE
5
E7
100
AcDbEntity
8
1
62
256
6
ByLayer
370
18
48
1
60
0
100
AcDbSpline
70
4
71
2
72
6
73
3
40
0
40
0
40
0
40
1
40
1
40
1
41
1
10
32.793695269364
20
-10.9250000000088
30
0
41
1
10
32.8519562034234
20
-10.9250000000087
30
0
41
1
10
32.903002269364
20
-10.9250000000088
30
0
0
SPLINE
5
E8
100
AcDbEntity
8
1
62
256
6
ByLayer
370
18
48
1
60
0
100
AcDbSpline
70
4
71
5
72
12
73
6
40
0
40
0
40
0
40
0
40
0
40
0
40
1
40
1
40
1
40
1
40
1
40
1
41
1
10
33.144608236661
20
-12.734641986822
30
0
41
1
10
33.1054679164946
20
-12.727626208444
30
0
41
1
10
33.0663128536089
20
-12.710137404504
30
0
41
1
10
33.033155607553
20
-12.683114202277
30
0
41
1
10
33.011690943061
20
-12.651198190478
30
0
41
1
10
33.003072586834
20
-12.619290701146
30
0
0
SPLINE
5
E9
100
AcDbEntity
8
1
62
256
6
ByLayer
370
18
48
1
60
0
100
AcDbSpline
70
4
71
5
72
12
73
6
40
0
40
0
40
0
40
0
40
0
40
0
40
1
40
1
40
1
40
1
40
1
40
1
41
1
10
32.952502255347
20
-11.155277802791
30
0
41
1
10
32.951166365054
20
-11.14811135715
30
0
41
1
10
32.949342905477
20
-11.141360289283
30
0
41
1
10
32.947491585901
20
-11.134230106838
30
0
41
1
10
32.945333587746
20
-11.127646553416
30
0
41
1
10
32.944805703311
20
-11.120371311763
30
0
0
SPLINE
5
EA
100
AcDbEntity
8
1
62
256
6
ByLayer
370
18
48
1
60
0
100
AcDbSpline
70
4
71
5
72
12
73
6
40
0
40
0
40
0
40
0
40
0
40
0
40
1
40
1
40
1
40
1
40
1
40
1
41
1
10
32.995301943315
20
-12.94999999999
30
0
41
1
10
32.975432995027
20
-12.94999999999
30
0
41
1
10
32.955563848575
20
-12.94999999999
30
0
41
1
10
32.936415511039
20
-12.94999999999
30
0
41
1
10
32.918706193297
20
-12.94999999999
30
0
41
1
10
32.903004135212
20
-12.94999999999
30
0
0
SPLINE
5
EB
100
AcDbEntity
8
1
62
256
6
ByLayer
370
18
48
1
60
0
100
AcDbSpline
70
4
71
5
72
12
73
6
40
0
40
0
40
0
40
0
40
0
40
0
40
1
40
1
40
1
40
1
40
1
40
1
41
1
10
32.8979351536998
20
-11.8612003322127
30
0
41
1
10
32.9048612189766
20
-11.8661210845817
30
0
41
1
10
32.9111947147553
20
-11.8710910398853
30
0
41
1
10
32.9169129804846
20
-11.8760939717647
30
0
41
1
10
32.9219974353975
20
-11.8811132698293
30
0
41
1
10
32.926434283278
20
-11.8861321998101
30
0
0
SPLINE
5
EC
100
AcDbEntity
8
1
62
256
6
ByLayer
370
18
48
1
60
0
100
AcDbSpline
70
4
71
5
72
12
73
6
40
0
40
0
40
0
40
0
40
0
40
0
40
1
40
1
40
1
40
1
40
1
40
1
41
1
10
33.144608236661
20
-11.140358013178
30
0
41
1
10
33.1054679164946
20
-11.147373791556
30
0
41
1
10
33.0663128536089
20
-11.164862595496
30
0
41
1
10
33.033155607553
20
-11.191885797723
30
0
41
1
10
33.011690943061
20
-11.223801809522
30
0
41
1
10
33.003072586834
20
-11.255709298854
30
0
0
SPLINE
5
ED
100
AcDbEntity
8
1
62
256
6
ByLayer
370
18
48
1
60
0
100
AcDbSpline
70
4
71
5
72
38
73
32
40
0
40
0
40
0
40
0
40
0
40
0
40
0.0221475375781468
40
0.0221475375781468
40
0.0221475375781468
40
0.0535671069669454
40
0.0535671069669454
40
0.0535671069669454
40
0.104713989400951
40
0.104713989400951
40
0.104713989400951
40
0.196759232162136
40
0.196759232162136
40
0.196759232162136
40
0.330292230798065
40
0.330292230798065
40
0.460995814030154
40
0.460995814030154
40
0.460995814030154
40
0.608071346912534
40
0.608071346912534
40
0.608071346912534
40
0.790251889712737
40
0.790251889712737
40
0.790251889712737
40
0.909415419143965
40
0.909415419143965
40
0.909415419143965
40
1
40
1
40
1
40
1
40
1
40
1
41
1
10
33.0550900271486
20
-11.042209905084
30
0
41
1
10
33.0550362334862
20
-11.042261396929
30
0
41
1
10
33.0550834273421
20
-11.04232720204
30
0
41
1
10
33.0550920970526
20
-11.0423323050391
30
0
41
1
10
33.0552677703205
20
-11.042416339739
30
0
41
1
10
33.0553836182085
20
-11.042482352689
30
0
41
1
10
33.0554429569132
20
-11.04257128953
30
0
41
1
10
33.0556169556205
20
-11.042739380644
30
0
41
1
10
33.0557906720854
20
-11.042915710809
30
0
41
1
10
33.0559028399383
20
-11.043017951734
30
0
41
1
10
33.0562123500661
20
-11.043312524273
30
0
41
1
10
33.0565179100447
20
-11.04360829805
30
0
41
1
10
33.056716087744
20
-11.043797713329
30
0
41
1
10
33.0572041896733
20
-11.044258680503
30
0
41
1
10
33.0576939478007
20
-11.044717655969
30
0
41
1
10
33.058270186983
20
-11.045253067788
30
0
41
1
10
33.058849796607
20
-11.045784296229
30
0
41
1
10
33.0594341379228
20
-11.046310836058
30
0
41
1
10
33.0600493018061
20
-11.046862992598
30
0
41
1
10
33.0606695336266
20
-11.04740988224
30
0
41
1
10
33.0609987478545
20
-11.047698399169
30
0
41
1
10
33.0617370625372
20
-11.048342522709
30
0
41
1
10
33.0624814858179
20
-11.048979856944
30
0
41
1
10
33.062892588587
20
-11.049332681881
30
0
41
1
10
33.0635773315938
20
-11.049911339639
30
0
41
1
10
33.064264059999
20
-11.050487075451
30
0
41
1
10
33.0645355626366
20
-11.050714361527
30
0
41
1
10
33.0650170301333
20
-11.051111640532
30
0
41
1
10
33.0655014666465
20
-11.051505020423
30
0
41
1
10
33.0657114417168
20
-11.05167460324
30
0
41
1
10
33.0659223262187
20
-11.051843643904
30
0
41
1
10
33.0661322902518
20
-11.052010563924
30
0
0
SPLINE
5
EE
100
AcDbEntity
8
1
62
256
6
ByLayer
370
18
48
1
60
0
100
AcDbSpline
70
4
71
9
72
20
73
10
40
0
40
0
40
0
40
0
40
0
40
0
40
0
40
0
40
0
40
0
40
1
40
1
40
1
40
1
40
1
40
1
40
1
40
1
40
1
40
1
41
1
10
33.115924361252
20
-12.359059912745
30
0
41
1
10
33.1229178850691
20
-12.359059912745
30
0
41
1
10
33.1328457831864
20
-12.359059912745
30
0
41
1
10
33.1455216521634
20
-12.359059912745
30
0
41
1
10
33.160654799373
20
-12.359059912745
30
0
41
1
10
33.1778595304038
20
-12.359059912745
30
0
41
1
10
33.1966721865408
20
-12.359059912745
30
0
41
1
10
33.2165748687358
20
-12.359059912745
30
0
41
1
10
33.237022564532
20
-12.359059912745
30
0
41
1
10
33.257470260264
20
-12.359059912745
30
0
0
SPLINE
5
EF
100
AcDbEntity
8
1
62
256
6
ByLayer
370
18
48
1
60
0
100
AcDbSpline
70
4
71
3
72
8
73
4
40
0
40
0
40
0
40
0
40
1
40
1
40
1
40
1
41
1
10
34.5379967546219
20
-10.8963577285389
30
0
41
1
10
34.5144482321776
20
-10.9099702078377
30
0
41
1
10
34.4882684173095
20
-10.918905807662
30
0
41
1
10
34.461361752507
20
-10.9227865555467
30
0
0
SPLINE
5
F0
100
AcDbEntity
8
1
62
256
6
ByLayer
370
18
48
1
60
0
100
AcDbSpline
70
4
71
5
72
12
73
6
40
0
40
0
40
0
40
0
40
0
40
0
40
1
40
1
40
1
40
1
40
1
40
1
41
1
10
32.9447956917021
20
-12.7546660775701
30
0
41
1
10
32.9347588733156
20
-12.7512004797675
30
0
41
1
10
32.924152643408
20
-12.7477462615753
30
0
41
1
10
32.9130126914549
20
-12.7443100383903
30
0
41
1
10
32.9013787277078
20
-12.7408958259415
30
0
41
1
10
32.889294362364
20
-12.737499999998
30
0
0
SPLINE
5
F1
100
AcDbEntity
8
1
62
256
6
ByLayer
370
18
48
1
60
0
100
AcDbSpline
70
4
71
5
72
12
73
6
40
0
40
0
40
0
40
0
40
0
40
0
40
1
40
1
40
1
40
1
40
1
40
1
41
1
10
32.988008637976
20
-12.654301713376
30
0
41
1
10
32.981691101165
20
-12.666011720557
30
0
41
1
10
32.974919858073
20
-12.678564597699
30
0
41
1
10
32.96768290764
20
-12.69167448289
30
0
41
1
10
32.960171696246
20
-12.70530315792
30
0
41
1
10
32.952440133762
20
-12.719188636772
30
0
0
SPLINE
5
F2
100
AcDbEntity
8
1
62
256
6
ByLayer
370
18
48
1
60
0
100
AcDbSpline
70
4
71
3
72
8
73
4
40
0
40
0
40
0
40
0
40
1
40
1
40
1
40
1
41
1
10
35.1726130680603
20
-10.5299616532779
30
0
41
1
10
35.2000005702068
20
-10.5141119061816
30
0
41
1
10
35.2312439799255
20
-10.5050082963599
30
0
41
1
10
35.26285866792
20
-10.50366607096
30
0
0
SPLINE
5
F3
100
AcDbEntity
8
1
62
256
6
ByLayer
370
18
48
1
60
0
100
AcDbSpline
70
4
71
3
72
8
73
4
40
0
40
0
40
0
40
0
40
1
40
1
40
1
40
1
41
1
10
35.1726130680603
20
-13.3450383467221
30
0
41
1
10
35.2000005702068
20
-13.3608880938185
30
0
41
1
10
35.2312439799255
20
-13.3699917036402
30
0
41
1
10
35.26285866792
20
-13.37133392904
30
0
0
SPLINE
5
F4
100
AcDbEntity
8
1
62
256
6
ByLayer
370
18
48
1
60
0
100
AcDbSpline
70
4
71
5
72
12
73
6
40
0
40
0
40
0
40
0
40
0
40
0
40
1
40
1
40
1
40
1
40
1
40
1
41
1
10
32.995301943315
20
-12.95000002594
30
0
41
1
10
32.995250882146
20
-12.924435932222
30
0
41
1
10
33.003297498276
20
-12.89868990261
30
0
41
1
10
33.018334676767
20
-12.875172571746
30
0
41
1
10
33.035893052333
20
-12.853189585506
30
0
41
1
10
33.055080960055
20
-12.832785590595
30
0
0
SPLINE
5
F5
100
AcDbEntity
8
1
62
256
6
ByLayer
370
18
48
1
60
0
100
AcDbSpline
70
4
71
5
72
12
73
6
40
0
40
0
40
0
40
0
40
0
40
0
40
1
40
1
40
1
40
1
40
1
40
1
41
1
10
32.923136470682
20
-11.9374989586755
30
0
41
1
10
32.923134969364
20
-11.9270115893214
30
0
41
1
10
32.923470255954
20
-11.9165062746746
30
0
41
1
10
32.924136355618
20
-11.9061803341636
30
0
41
1
10
32.925116951141
20
-11.8961035269928
30
0
41
1
10
32.926436304464
20
-11.8861345374265
30
0
0
SPLINE
5
F6
100
AcDbEntity
8
1
62
256
6
ByLayer
370
18
48
1
60
0
100
AcDbSpline
70
4
71
5
72
12
73
6
40
0
40
0
40
0
40
0
40
0
40
0
40
1
40
1
40
1
40
1
40
1
40
1
41
1
10
33.14460824257
20
-11.140357957697
30
0
41
1
10
33.140860744939
20
-11.13171941427
30
0
41
1
10
33.1366481773674
20
-11.12315429933
30
0
41
1
10
33.1319674201208
20
-11.114676935479
30
0
41
1
10
33.1268173926973
20
-11.106303196956
30
0
41
1
10
33.1211997645859
20
-11.098049783682
30
0
0
SPLINE
5
F7
100
AcDbEntity
8
1
62
256
6
ByLayer
370
18
48
1
60
0
100
AcDbSpline
70
4
71
5
72
12
73
6
40
0
40
0
40
0
40
0
40
0
40
0
40
1
40
1
40
1
40
1
40
1
40
1
41
1
10
33.25747148696
20
-12.35906128821
30
0
41
1
10
33.257471386853
20
-12.385350156017
30
0
41
1
10
33.257471188248
20
-12.411640515971
30
0
41
1
10
33.257470980229
20
-12.436258465421
30
0
41
1
10
33.257470897318
20
-12.457549805439
30
0
41
1
10
33.257470008061
20
-12.474449067024
30
0
0
SPLINE
5
F8
100
AcDbEntity
8
1
62
256
6
ByLayer
370
18
48
1
60
0
100
AcDbSpline
70
4
71
5
72
12
73
6
40
0
40
0
40
0
40
0
40
0
40
0
40
1
40
1
40
1
40
1
40
1
40
1
41
1
10
32.952502255347
20
-12.719722197209
30
0
41
1
10
32.951166365054
20
-12.72688864285
30
0
41
1
10
32.949342905477
20
-12.733639710717
30
0
41
1
10
32.947491585901
20
-12.740769893162
30
0
41
1
10
32.945333587746
20
-12.747353446584
30
0
41
1
10
32.944805703311
20
-12.754628688237
30
0
0
SPLINE
5
F9
100
AcDbEntity
8
1
62
256
6
ByLayer
370
18
48
1
60
0
100
AcDbSpline
70
4
71
5
72
12
73
6
40
0
40
0
40
0
40
0
40
0
40
0
40
1
40
1
40
1
40
1
40
1
40
1
41
1
10
33.1211998642341
20
-12.776950064352
30
0
41
1
10
33.085154681846
20
-12.766812458676
30
0
41
1
10
33.049098352383
20
-12.746852455566
30
0
41
1
10
33.01821379269
20
-12.71841242481
30
0
41
1
10
32.997442746516
20
-12.686043104844
30
0
41
1
10
32.988008808277
20
-12.654301366773
30
0
0
SPLINE
5
FA
100
AcDbEntity
8
1
62
256
6
ByLayer
370
18
48
1
60
0
100
AcDbSpline
70
4
71
5
72
12
73
6
40
0
40
0
40
0
40
0
40
0
40
0
40
1
40
1
40
1
40
1
40
1
40
1
41
1
10
32.944799577582
20
-11.120372915952
30
0
41
1
10
32.930791490826
20
-11.0848380411296
30
0
41
1
10
32.9180761788811
20
-11.0468009764693
30
0
41
1
10
32.9080667656493
20
-11.0070893004002
30
0
41
1
10
32.9030690116696
20
-10.9662662040294
30
0
41
1
10
32.9029503818705
20
-10.9250003286101
30
0
0
SPLINE
5
FB
100
AcDbEntity
8
1
62
256
6
ByLayer
370
18
48
1
60
0
100
AcDbSpline
70
4
71
11
72
24
73
12
40
0
40
0
40
0
40
0
40
0
40
0
40
0
40
0
40
0
40
0
40
0
40
0
40
1
40
1
40
1
40
1
40
1
40
1
40
1
40
1
40
1
40
1
40
1
40
1
41
1
10
37.69999988733
20
-10.7125
30
0
41
1
10
37.69999988733
20
-10.66966009988
30
0
41
1
10
37.69327061116
20
-10.62682020282
30
0
41
1
10
37.67981206049
20
-10.5851547776
30
0
41
1
10
37.65985484116
20
-10.54583832222
30
0
41
1
10
37.63386017336
20
-10.50999355484
30
0
41
1
10
37.60250633309
20
-10.47863971426
30
0
41
1
10
37.56666156589
20
-10.45264504557
30
0
41
1
10
37.52734510661
20
-10.43268782704
30
0
41
1
10
37.48567968697
20
-10.41922927568
30
0
41
1
10
37.44283978715
20
-10.4125
30
0
41
1
10
37.39999988733
20
-10.4125
30
0
0
SPLINE
5
FC
100
AcDbEntity
8
1
62
256
6
ByLayer
370
18
48
1
60
0
100
AcDbSpline
70
4
71
5
72
12
73
6
40
0
40
0
40
0
40
0
40
0
40
0
40
1
40
1
40
1
40
1
40
1
40
1
41
1
10
33.0661326672516
20
-11.052010427273
30
0
41
1
10
33.0780713376305
20
-11.061587441139
30
0
41
1
10
33.0896850826996
20
-11.071069783302
30
0
41
1
10
33.1008360249107
20
-11.080377170597
30
0
41
1
10
33.1113850343538
20
-11.089397585199
30
0
41
1
10
33.1211997576958
20
-11.098049846501
30
0
0
SPLINE
5
FD
100
AcDbEntity
8
1
62
256
6
ByLayer
370
18
48
1
60
0
100
AcDbSpline
70
4
71
5
72
12
73
6
40
0
40
0
40
0
40
0
40
0
40
0
40
1
40
1
40
1
40
1
40
1
40
1
41
1
10
33.055080960055
20
-11.042214409405
30
0
41
1
10
33.029326919372
20
-11.052841685624
30
0
41
1
10
33.003570637966
20
-11.066989614098
30
0
41
1
10
32.979755209001
20
-11.083867611557
30
0
41
1
10
32.959792096428
20
-11.102121057789
30
0
41
1
10
32.944796787958
20
-11.120372915952
30
0
0
SPLINE
5
FE
100
AcDbEntity
8
1
62
256
6
ByLayer
370
18
48
1
60
0
100
AcDbSpline
70
4
71
5
72
12
73
6
40
0
40
0
40
0
40
0
40
0
40
0
40
1
40
1
40
1
40
1
40
1
40
1
41
1
10
33.003068556809
20
-11.255695871518
30
0
41
1
10
33.000703879477
20
-11.248534415625
30
0
41
1
10
32.998017960404
20
-11.241446564557
30
0
41
1
10
32.995008839723
20
-11.234437840408
30
0
41
1
10
32.991676702845
20
-11.227512807152
30
0
41
1
10
32.988023911103
20
-11.220675139719
30
0
0
SPLINE
5
FF
100
AcDbEntity
8
1
62
256
6
ByLayer
370
18
48
1
60
0
100
AcDbSpline
70
4
71
3
72
8
73
4
40
0
40
0
40
0
40
0
40
1
40
1
40
1
40
1
41
1
10
34.43036929816
20
-12.9500000000001
30
0
41
1
10
34.44075298653
20
-12.9500000000001
30
0
41
1
10
34.4511366749
20
-12.9500000000001
30
0
41
1
10
34.46152036327
20
-12.9500000000001
30
0
0
SPLINE
5
100
100
AcDbEntity
8
1
62
256
6
ByLayer
370
18
48
1
60
0
100
AcDbSpline
70
4
71
5
72
12
73
6
40
0
40
0
40
0
40
0
40
0
40
0
40
1
40
1
40
1
40
1
40
1
40
1
41
1
10
32.8433616362343
20
-12.7374993700124
30
0
41
1
10
32.8529450792846
20
-12.7374994902939
30
0
41
1
10
32.8623481293264
20
-12.7374995995668
30
0
41
1
10
32.8715521761005
20
-12.7374996918601
30
0
41
1
10
32.8805393242575
20
-12.7374997665618
30
0
41
1
10
32.889292636232
20
-12.737499831271
30
0
0
SPLINE
5
101
100
AcDbEntity
8
1
62
256
6
ByLayer
370
18
48
1
60
0
100
AcDbSpline
70
4
71
3
72
9
73
5
40
0
40
0
40
0
40
0
40
0.559307564775141
40
1
40
1
40
1
40
1
41
1
10
34.18548501162
20
-11.51593871179
30
0
41
1
10
34.1998419563197
20
-11.4851785028281
30
0
41
1
10
34.225511097243
20
-11.4301815549962
30
0
41
1
10
34.2777593551958
20
-11.4096388818546
30
0
41
1
10
34.3007847672293
20
-11.4005858812018
30
0
0
SPLINE
5
102
100
AcDbEntity
8
1
62
256
6
ByLayer
370
18
48
1
60
0
100
AcDbSpline
70
4
71
9
72
20
73
10
40
0
40
0
40
0
40
0
40
0
40
0
40
0
40
0
40
0
40
0
40
1
40
1
40
1
40
1
40
1
40
1
40
1
40
1
40
1
40
1
41
1
10
33.115924361252
20
-11.515940087255
30
0
41
1
10
33.1229178850691
20
-11.515940087255
30
0
41
1
10
33.1328457831864
20
-11.515940087255
30
0
41
1
10
33.1455216521634
20
-11.515940087255
30
0
41
1
10
33.160654799373
20
-11.515940087255
30
0
41
1
10
33.1778595304038
20
-11.515940087255
30
0
41
1
10
33.1966721865408
20
-11.515940087255
30
0
41
1
10
33.2165748687358
20
-11.515940087255
30
0
41
1
10
33.237022564532
20
-11.515940087255
30
0
41
1
10
33.257470260264
20
-11.515940087255
30
0
0
SPLINE
5
103
100
AcDbEntity
8
1
62
256
6
ByLayer
370
18
48
1
60
0
100
AcDbSpline
70
4
71
3
72
8
73
4
40
0
40
0
40
0
40
0
40
1
40
1
40
1
40
1
41
1
10
34.5379967546219
20
-12.9786422714611
30
0
41
1
10
34.5144482321776
20
-12.9650297921624
30
0
41
1
10
34.4882684173095
20
-12.956094192338
30
0
41
1
10
34.461361752507
20
-12.9522134444533
30
0
0
SPLINE
5
104
100
AcDbEntity
8
1
62
256
6
ByLayer
370
18
48
1
60
0
100
AcDbSpline
70
4
71
3
72
9
73
5
40
0
40
0
40
0
40
0
40
0.492047922981876
40
1
40
1
40
1
40
1
41
1
10
32.995301943315
20
-10.925
30
0
41
1
10
33.000099924146
20
-10.9476770970675
30
0
41
1
10
33.0098509679101
20
-10.9937642686788
30
0
41
1
10
33.0398452845958
20
-11.0258928908127
30
0
41
1
10
33.055080960055
20
-11.0422126911573
30
0
0
SPLINE
5
105
100
AcDbEntity
8
1
62
256
6
ByLayer
370
18
48
1
60
0
100
AcDbSpline
70
4
71
5
72
12
73
6
40
0
40
0
40
0
40
0
40
0
40
0
40
1
40
1
40
1
40
1
40
1
40
1
41
1
10
32.995301943315
20
-10.92500000001
30
0
41
1
10
32.975432995027
20
-10.92500000001
30
0
41
1
10
32.955563848575
20
-10.92500000001
30
0
41
1
10
32.936415511039
20
-10.92500000001
30
0
41
1
10
32.918706193297
20
-10.92500000001
30
0
41
1
10
32.903004135212
20
-10.92500000001
30
0
0
SPLINE
5
106
100
AcDbEntity
8
1
62
256
6
ByLayer
370
18
48
1
60
0
100
AcDbSpline
70
4
71
5
72
12
73
6
40
0
40
0
40
0
40
0
40
0
40
0
40
1
40
1
40
1
40
1
40
1
40
1
41
1
10
32.8433616362343
20
-11.1375006299877
30
0
41
1
10
32.8529450792846
20
-11.1375005097062
30
0
41
1
10
32.8623481293264
20
-11.1375004004333
30
0
41
1
10
32.8715521761005
20
-11.1375003081399
30
0
41
1
10
32.8805393242575
20
-11.1375002334383
30
0
41
1
10
32.889292636232
20
-11.137500168729
30
0
0
SPLINE
5
107
100
AcDbEntity
8
1
62
256
6
ByLayer
370
18
48
1
60
0
100
AcDbSpline
70
4
71
5
72
12
73
6
40
0
40
0
40
0
40
0
40
0
40
0
40
1
40
1
40
1
40
1
40
1
40
1
41
1
10
33.0661326672516
20
-12.822989572727
30
0
41
1
10
33.0382086649258
20
-12.8087082409396
30
0
41
1
10
33.010279000036
20
-12.7893990064557
30
0
41
1
10
32.9851301187892
20
-12.7664596759719
30
0
41
1
10
32.9654704881524
20
-12.7423610937556
30
0
41
1
10
32.9525528653357
20
-12.719389263525
30
0
0
SPLINE
5
108
100
AcDbEntity
8
1
62
256
6
ByLayer
370
18
48
1
60
0
100
AcDbSpline
70
4
71
5
72
12
73
6
40
0
40
0
40
0
40
0
40
0
40
0
40
1
40
1
40
1
40
1
40
1
40
1
41
1
10
33.1159243625043
20
-12.359059804314
30
0
41
1
10
33.1245304829252
20
-12.390971946432
30
0
41
1
10
33.145998072348
20
-12.422906134705
30
0
41
1
10
33.1791511318913
20
-12.449932761572
30
0
41
1
10
33.2183241688776
20
-12.467433272878
30
0
41
1
10
33.257470258893
20
-12.474449058255
30
0
0
SPLINE
5
109
100
AcDbEntity
8
1
62
256
6
ByLayer
370
18
48
1
60
0
100
AcDbSpline
70
4
71
5
72
12
73
6
40
0
40
0
40
0
40
0
40
0
40
0
40
1
40
1
40
1
40
1
40
1
40
1
41
1
10
32.988008637976
20
-11.220698286624
30
0
41
1
10
32.981691101165
20
-11.208988279443
30
0
41
1
10
32.974919858073
20
-11.196435402301
30
0
41
1
10
32.96768290764
20
-11.18332551711
30
0
41
1
10
32.960171696246
20
-11.16969684208
30
0
41
1
10
32.952440133762
20
-11.155811363228
30
0
0
SPLINE
5
10A
100
AcDbEntity
8
1
62
256
6
ByLayer
370
18
48
1
60
0
100
AcDbSpline
70
4
71
11
72
24
73
12
40
0
40
0
40
0
40
0
40
0
40
0
40
0
40
0
40
0
40
0
40
0
40
0
40
1
40
1
40
1
40
1
40
1
40
1
40
1
40
1
40
1
40
1
40
1
40
1
41
1
10
37.39999988733
20
-10.4125
30
0
41
1
10
37.3910749082
20
-10.4125
30
0
41
1
10
37.38214992908
20
-10.41253894257
30
0
41
1
10
37.37322513875
20
-10.41261682771
30
0
41
1
10
37.36430072601
20
-10.41273365438
30
0
41
1
10
37.35537687967
20
-10.41288942053
30
0
41
1
10
37.3464537885
20
-10.41308412307
30
0
41
1
10
37.33753164126
20
-10.41331775788
30
0
41
1
10
37.32861062668
20
-10.41359031982
30
0
41
1
10
37.31969093348
20
-10.4139018026901
30
0
41
1
10
37.3107727503
20
-10.41425219931
30
0
41
1
10
37.30185626577
20
-10.41464150143
30
0
0
SPLINE
5
10B
100
AcDbEntity
8
1
62
256
6
ByLayer
370
18
48
1
60
0
100
AcDbSpline
70
4
71
5
72
12
73
6
40
0
40
0
40
0
40
0
40
0
40
0
40
1
40
1
40
1
40
1
40
1
40
1
41
1
10
33.055080960055
20
-12.832785590595
30
0
41
1
10
33.029326919372
20
-12.822158314376
30
0
41
1
10
33.003570637966
20
-12.808010385902
30
0
41
1
10
32.979755209001
20
-12.791132388443
30
0
41
1
10
32.959792096428
20
-12.772878942211
30
0
41
1
10
32.944796787958
20
-12.754627084048
30
0
0
SPLINE
5
10C
100
AcDbEntity
8
1
62
256
6
ByLayer
370
18
48
1
60
0
100
AcDbSpline
70
4
71
2
72
8
73
5
40
0
40
0
40
0
40
0.5
40
0.5
40
1
40
1
40
1
41
1
10
34.1854850116198
20
-12.35906128821
30
0
41
1
10
34.1857679736567
20
-12.3986875889322
30
0
41
1
10
34.2269909542428
20
-12.4329346502122
30
0
41
1
10
34.2554783756432
20
-12.4566013150806
30
0
41
1
10
34.3007847672299
20
-12.4744141183768
30
0
0
SPLINE
5
10D
100
AcDbEntity
8
1
62
256
6
ByLayer
370
18
48
1
60
0
100
AcDbSpline
70
4
71
11
72
24
73
12
40
0
40
0
40
0
40
0
40
0
40
0
40
0
40
0
40
0
40
0
40
0
40
0
40
1
40
1
40
1
40
1
40
1
40
1
40
1
40
1
40
1
40
1
40
1
40
1
41
1
10
37.39999988733
20
-13.4625
30
0
41
1
10
37.3910749082
20
-13.4625
30
0
41
1
10
37.38214992908
20
-13.46246105743
30
0
41
1
10
37.37322513875
20
-13.46238317229
30
0
41
1
10
37.36430072601
20
-13.46226634562
30
0
41
1
10
37.35537687967
20
-13.46211057947
30
0
41
1
10
37.3464537885
20
-13.46191587693
30
0
41
1
10
37.33753164126
20
-13.46168224212
30
0
41
1
10
37.32861062668
20
-13.46140968018
30
0
41
1
10
37.31969093348
20
-13.46109819731
30
0
41
1
10
37.3107727503
20
-13.46074780069
30
0
41
1
10
37.30185626577
20
-13.46035849857
30
0
0
SPLINE
5
10E
100
AcDbEntity
8
1
62
256
6
ByLayer
370
18
48
1
60
0
100
AcDbSpline
70
4
71
5
72
12
73
6
40
0
40
0
40
0
40
0
40
0
40
0
40
1
40
1
40
1
40
1
40
1
40
1
41
1
10
32.952477299911
20
-12.7196622837928
30
0
41
1
10
32.9413865199798
20
-12.7234770639413
30
0
41
1
10
32.9294440245055
20
-12.7271635768338
30
0
41
1
10
32.9167229037695
20
-12.7307257284648
30
0
41
1
10
32.9033080417164
20
-12.7341689579972
30
0
41
1
10
32.889294768184
20
-12.7375
30
0
0
SPLINE
5
10F
100
AcDbEntity
8
1
62
256
6
ByLayer
370
18
48
1
60
0
100
AcDbSpline
70
4
71
5
72
38
73
32
40
0
40
0
40
0
40
0
40
0
40
0
40
0.0221475375781468
40
0.0221475375781468
40
0.0221475375781468
40
0.0535671069669454
40
0.0535671069669454
40
0.0535671069669454
40
0.104713989400951
40
0.104713989400951
40
0.104713989400951
40
0.196759232162136
40
0.196759232162136
40
0.196759232162136
40
0.330292230798065
40
0.330292230798065
40
0.460995814030154
40
0.460995814030154
40
0.460995814030154
40
0.608071346912534
40
0.608071346912534
40
0.608071346912534
40
0.790251889712737
40
0.790251889712737
40
0.790251889712737
40
0.909415419143965
40
0.909415419143965
40
0.909415419143965
40
1
40
1
40
1
40
1
40
1
40
1
41
1
10
33.0550900271486
20
-12.832790094916
30
0
41
1
10
33.0550362334862
20
-12.832738603071
30
0
41
1
10
33.0550834273421
20
-12.8326727979601
30
0
41
1
10
33.0550920970526
20
-12.832667694961
30
0
41
1
10
33.0552677703205
20
-12.832583660261
30
0
41
1
10
33.0553836182085
20
-12.832517647311
30
0
41
1
10
33.0554429569132
20
-12.83242871047
30
0
41
1
10
33.0556169556205
20
-12.832260619356
30
0
41
1
10
33.0557906720854
20
-12.832084289191
30
0
41
1
10
33.0559028399383
20
-12.831982048266
30
0
41
1
10
33.0562123500661
20
-12.831687475727
30
0
41
1
10
33.0565179100447
20
-12.83139170195
30
0
41
1
10
33.056716087744
20
-12.831202286671
30
0
41
1
10
33.0572041896733
20
-12.830741319497
30
0
41
1
10
33.0576939478007
20
-12.830282344031
30
0
41
1
10
33.058270186983
20
-12.829746932212
30
0
41
1
10
33.058849796607
20
-12.829215703771
30
0
41
1
10
33.0594341379228
20
-12.828689163942
30
0
41
1
10
33.0600493018061
20
-12.828137007402
30
0
41
1
10
33.0606695336266
20
-12.82759011776
30
0
41
1
10
33.0609987478545
20
-12.827301600831
30
0
41
1
10
33.0617370625372
20
-12.826657477291
30
0
41
1
10
33.0624814858179
20
-12.826020143056
30
0
41
1
10
33.062892588587
20
-12.825667318119
30
0
41
1
10
33.0635773315938
20
-12.825088660361
30
0
41
1
10
33.064264059999
20
-12.824512924549
30
0
41
1
10
33.0645355626366
20
-12.824285638473
30
0
41
1
10
33.0650170301333
20
-12.823888359468
30
0
41
1
10
33.0655014666465
20
-12.823494979577
30
0
41
1
10
33.0657114417168
20
-12.82332539676
30
0
41
1
10
33.0659223262187
20
-12.823156356096
30
0
41
1
10
33.0661322902518
20
-12.822989436076
30
0
0
SPLINE
5
110
100
AcDbEntity
8
1
62
256
6
ByLayer
370
18
48
1
60
0
100
AcDbSpline
70
4
71
5
72
12
73
6
40
0
40
0
40
0
40
0
40
0
40
0
40
1
40
1
40
1
40
1
40
1
40
1
41
1
10
32.923136470682
20
-11.9375010413245
30
0
41
1
10
32.923134969364
20
-11.9479884106786
30
0
41
1
10
32.923470255954
20
-11.9584937253254
30
0
41
1
10
32.924136355618
20
-11.9688196658364
30
0
41
1
10
32.925116951141
20
-11.9788964730072
30
0
41
1
10
32.926436304464
20
-11.9888654625735
30
0
0
SPLINE
5
111
100
AcDbEntity
8
1
62
256
6
ByLayer
370
18
48
1
60
0
100
AcDbSpline
70
4
71
5
72
12
73
6
40
0
40
0
40
0
40
0
40
0
40
0
40
1
40
1
40
1
40
1
40
1
40
1
41
1
10
33.0661326672516
20
-12.822989572727
30
0
41
1
10
33.0780713376305
20
-12.813412558861
30
0
41
1
10
33.0896850826996
20
-12.803930216698
30
0
41
1
10
33.1008360249107
20
-12.794622829403
30
0
41
1
10
33.1113850343538
20
-12.785602414801
30
0
41
1
10
33.1211997576958
20
-12.776950153499
30
0
0
SPLINE
5
112
100
AcDbEntity
8
1
62
256
6
ByLayer
370
18
48
1
60
0
100
AcDbSpline
70
4
71
5
72
12
73
6
40
0
40
0
40
0
40
0
40
0
40
0
40
1
40
1
40
1
40
1
40
1
40
1
41
1
10
32.952477299911
20
-11.1553377162072
30
0
41
1
10
32.9413865199798
20
-11.1515229360588
30
0
41
1
10
32.9294440245055
20
-11.1478364231662
30
0
41
1
10
32.9167229037695
20
-11.1442742715353
30
0
41
1
10
32.9033080417164
20
-11.1408310420029
30
0
41
1
10
32.889294768184
20
-11.1375
30
0
0
SPLINE
5
113
100
AcDbEntity
8
1
62
256
6
ByLayer
370
18
48
1
60
0
100
AcDbSpline
70
4
71
5
72
12
73
6
40
0
40
0
40
0
40
0
40
0
40
0
40
1
40
1
40
1
40
1
40
1
40
1
41
1
10
32.897115470683
20
-11.9375
30
0
41
1
10
32.9032863457661
20
-11.9375
30
0
41
1
10
32.9089884349098
20
-11.9375
30
0
41
1
10
32.9142058775896
20
-11.9375
30
0
41
1
10
32.9189253524425
20
-11.9375
30
0
41
1
10
32.923136470683
20
-11.9375
30
0
0
SPLINE
5
114
100
AcDbEntity
8
1
62
256
6
ByLayer
370
18
48
1
60
0
100
AcDbSpline
70
4
71
5
72
12
73
6
40
0
40
0
40
0
40
0
40
0
40
0
40
1
40
1
40
1
40
1
40
1
40
1
41
1
10
33.1159243625043
20
-11.515940195686
30
0
41
1
10
33.1245304829252
20
-11.484028053568
30
0
41
1
10
33.145998072348
20
-11.452093865295
30
0
41
1
10
33.1791511318913
20
-11.425067238428
30
0
41
1
10
33.2183241688776
20
-11.407566727122
30
0
41
1
10
33.257470258893
20
-11.400550941745
30
0
0
SPLINE
5
115
100
AcDbEntity
8
1
62
256
6
ByLayer
370
18
48
1
60
0
100
AcDbSpline
70
4
71
5
72
12
73
6
40
0
40
0
40
0
40
0
40
0
40
0
40
1
40
1
40
1
40
1
40
1
40
1
41
1
10
33.1211998642341
20
-11.098049935648
30
0
41
1
10
33.085154681846
20
-11.108187541324
30
0
41
1
10
33.049098352383
20
-11.128147544434
30
0
41
1
10
33.01821379269
20
-11.15658757519
30
0
41
1
10
32.997442746516
20
-11.188956895156
30
0
41
1
10
32.988008808277
20
-11.220698633227
30
0
0
SPLINE
5
116
100
AcDbEntity
8
1
62
256
6
ByLayer
370
18
48
1
60
0
100
AcDbSpline
70
4
71
3
72
8
73
4
40
0
40
0
40
0
40
0
40
1
40
1
40
1
40
1
41
1
10
32.7934322692496
20
-12.9499999999897
30
0
41
1
10
32.8329337297425
20
-12.9499999999934
30
0
41
1
10
32.8702712064214
20
-12.9499999999969
30
0
41
1
10
32.9030022692496
20
-12.95
30
0
0
SPLINE
5
117
100
AcDbEntity
8
1
62
256
6
ByLayer
370
18
48
1
60
0
100
AcDbSpline
70
4
71
11
72
24
73
12
40
0
40
0
40
0
40
0
40
0
40
0
40
0
40
0
40
0
40
0
40
0
40
0
40
1
40
1
40
1
40
1
40
1
40
1
40
1
40
1
40
1
40
1
40
1
40
1
41
1
10
35.07398463521
20
-12.776950560635
30
0
41
1
10
35.1034256203
20
-12.788470187646
30
0
41
1
10
35.1307107804
20
-12.801187856859
30
0
41
1
10
35.15559100055
20
-12.815006094634
30
0
41
1
10
35.17783996401
20
-12.829814754545
30
0
41
1
10
35.19725754457
20
-12.845492344171
30
0
41
1
10
35.21367278077
20
-12.861907580452
30
0
41
1
10
35.22694635033
20
-12.878921140997
30
0
41
1
10
35.23697247513
20
-12.896387569165
30
0
41
1
10
35.24368020756
20
-12.9141572839
30
0
41
1
10
35.24703407381
20
-12.932078641931
30
0
41
1
10
35.24703407385
20
-12.94999999998
30
0
0
SPLINE
5
118
100
AcDbEntity
8
1
62
256
6
ByLayer
370
18
48
1
60
0
100
AcDbSpline
70
4
71
5
72
12
73
6
40
0
40
0
40
0
40
0
40
0
40
0
40
1
40
1
40
1
40
1
40
1
40
1
41
1
10
33.25747148696
20
-11.51593871179
30
0
41
1
10
33.257471386853
20
-11.489649843983
30
0
41
1
10
33.257471188248
20
-11.463359484029
30
0
41
1
10
33.257470980229
20
-11.438741534579
30
0
41
1
10
33.257470897318
20
-11.417450194561
30
0
41
1
10
33.257470008061
20
-11.400550932976
30
0
0
INSERT
5
12A
100
AcDbEntity
8
2
62
256
6
ByLayer
370
25
48
1
60
0
100
AcDbBlockReference
2
DimnDraft3D11
10
0
20
0
30
0
41
1
42
1
43
1
50
0
210
0
220
0
230
1
0
LINE
5
72
100
AcDbEntity
8
80
62
256
6
ByLayer
370
18
48
1
60
0
100
AcDbLine
10
0
20
0
30
0
11
-5
21
0
31
0
39
0
210
0
220
0
230
1
0
LINE
5
73
100
AcDbEntity
8
1
62
256
6
ByLayer
370
18
48
1
60
0
100
AcDbLine
10
24.527864
20
-8.6375
30
0
11
22.8
21
-8.6375
31
0
39
0
210
0
220
0
230
1
0
LINE
5
75
100
AcDbEntity
8
81
62
256
6
ByLayer
370
18
48
1
60
0
100
AcDbLine
10
37.7
20
-13.4375
30
0
11
42.7
21
-13.4375
31
0
39
0
210
0
220
0
230
1
0
LINE
5
76
100
AcDbEntity
8
1
62
256
6
ByLayer
370
18
48
1
60
0
100
AcDbLine
10
21.821046
20
-10.000198
30
0
11
21.821046
21
-14.69687
31
0
39
0
210
0
220
0
230
1
0
LINE
5
77
100
AcDbEntity
8
1
62
256
6
ByLayer
370
18
48
1
60
0
100
AcDbLine
10
21.821046
20
-14.69687
30
0
11
12.004915
21
-14.69687
31
0
39
0
210
0
220
0
230
1
0
LINE
5
78
100
AcDbEntity
8
1
62
256
6
ByLayer
370
18
48
1
60
0
100
AcDbLine
10
2.677087
20
-12.3125
30
0
11
0.5
21
-12.3125
31
0
39
0
210
0
220
0
230
1
0
LINE
5
79
100
AcDbEntity
8
1
62
256
6
ByLayer
370
18
48
1
60
0
100
AcDbLine
10
11
20
-12.3125
30
0
11
11.5
21
-12.8125
31
0
39
0
210
0
220
0
230
1
0
LINE
5
7A
100
AcDbEntity
8
1
62
256
6
ByLayer
370
18
48
1
60
0
100
AcDbLine
10
30
20
-10.643821
30
0
11
29.135
21
-10.643821
31
0
39
0
210
0
220
0
230
1
0
LINE
5
7B
100
AcDbEntity
8
1
62
256
6
ByLayer
370
18
48
1
60
0
100
AcDbLine
10
28.65
20
-13.456606
30
0
11
28.65
21
-13.345467
31
0
39
0
210
0
220
0
230
1
0
LINE
5
7C
100
AcDbEntity
8
1
62
256
6
ByLayer
370
18
48
1
60
0
100
AcDbLine
10
12.004915
20
-14.69687
30
0
11
11.5
21
-12.8125
31
0
39
0
210
0
220
0
230
1
0
LINE
5
7D
100
AcDbEntity
8
1
62
256
6
ByLayer
370
18
48
1
60
0
100
AcDbLine
10
36.8
20
-13.43846
30
0
11
36.8
21
-14.609776
31
0
39
0
210
0
220
0
230
1
0
LINE
5
7E
100
AcDbEntity
8
1
62
256
6
ByLayer
370
18
48
1
60
0
100
AcDbLine
10
32.692034
20
-10.657425
30
0
11
32.78662
21
-10.89661
31
0
39
0
210
0
220
0
230
1
0
LINE
5
7F
100
AcDbEntity
8
1
62
256
6
ByLayer
370
18
48
1
60
0
100
AcDbLine
10
2.677087
20
-12.3125
30
0
11
2.677087
21
12.600134
31
0
39
0
210
0
220
0
230
1
0
LINE
5
80
100
AcDbEntity
8
1
62
256
6
ByLayer
370
18
48
1
60
0
100
AcDbLine
10
29.519275
20
-13.363801
30
0
11
35.218263
21
-13.363801
31
0
39
0
210
0
220
0
230
1
0
LINE
5
81
100
AcDbEntity
8
1
62
256
6
ByLayer
370
18
48
1
60
0
100
AcDbLine
10
11
20
-12.3125
30
0
11
2.677087
21
-12.3125
31
0
39
0
210
0
220
0
230
1
0
LINE
5
82
100
AcDbEntity
8
1
62
256
6
ByLayer
370
18
48
1
60
0
100
AcDbLine
10
22.8
20
-8.6375
30
0
11
22.8
21
-10.086256
31
0
39
0
210
0
220
0
230
1
0
LINE
5
83
100
AcDbEntity
8
1
62
256
6
ByLayer
370
18
48
1
60
0
100
AcDbLine
10
21.2
20
-8.635895
30
0
11
21.2
21
-0.5375
31
0
39
0
210
0
220
0
230
1
0
LINE
5
84
100
AcDbEntity
8
1
62
256
6
ByLayer
370
18
48
1
60
0
100
AcDbLine
10
29
20
-10.643692
30
0
11
29
21
-10.944512
31
0
39
0
210
0
220
0
230
1
0
LINE
5
85
100
AcDbEntity
8
1
62
256
6
ByLayer
370
18
48
1
60
0
100
AcDbLine
10
2.677087
20
12.600134
30
0
11
9.067916
21
12.600134
31
0
39
0
210
0
220
0
230
1
0
LINE
5
86
100
AcDbEntity
8
1
62
256
6
ByLayer
370
18
48
1
60
0
100
AcDbLine
10
9.067916
20
12.600134
30
0
11
21.2
21
-0.5375
31
0
39
0
210
0
220
0
230
1
0
LINE
5
87
100
AcDbEntity
8
1
62
256
6
ByLayer
370
18
48
1
60
0
100
AcDbLine
10
13.392248
20
-19.874465
30
0
11
32.231388
21
-19.874465
31
0
39
0
210
0
220
0
230
1
0
LINE
5
88
100
AcDbEntity
8
1
62
256
6
ByLayer
370
18
48
1
60
0
100
AcDbLine
10
32.78662
20
-10.89661
30
0
11
32.78662
21
-12.97839
31
0
39
0
210
0
220
0
230
1
0
LINE
5
89
100
AcDbEntity
8
1
62
256
6
ByLayer
370
18
48
1
60
0
100
AcDbLine
10
0.5
20
12.564682
30
0
11
2.677087
21
12.600134
31
0
39
0
210
0
220
0
230
1
0
LINE
5
8A
100
AcDbEntity
8
1
62
256
6
ByLayer
370
18
48
1
60
0
100
AcDbLine
10
12.004925
20
-14.696905
30
0
11
13.392248
21
-19.874465
31
0
39
0
210
0
220
0
230
1
0
LINE
5
8B
100
AcDbEntity
8
1
62
256
6
ByLayer
370
18
48
1
60
0
100
AcDbLine
10
28.65
20
-13.456606
30
0
11
28.4
21
-13.456606
31
0
39
0
210
0
220
0
230
1
0
LINE
5
8C
100
AcDbEntity
8
1
62
256
6
ByLayer
370
18
48
1
60
0
100
AcDbLine
10
0
20
12.5625
30
0
11
0
21
-12.3125
31
0
39
0
210
0
220
0
230
1
0
LINE
5
8D
100
AcDbEntity
8
1
62
256
6
ByLayer
370
18
48
1
60
0
100
AcDbLine
10
32.78662
20
-10.89661
30
0
11
32.883447
21
-11.317715
31
0
39
0
210
0
220
0
230
1
0
LINE
5
8E
100
AcDbEntity
8
1
62
256
6
ByLayer
370
18
48
1
60
0
100
AcDbLine
10
0.5
20
-12.3125
30
0
11
0.5
21
12.564682
31
0
39
0
210
0
220
0
230
1
0
LINE
5
8F
100
AcDbEntity
8
1
62
256
6
ByLayer
370
18
48
1
60
0
100
AcDbLine
10
0
20
-12.3125
30
0
11
0.5
21
-12.3125
31
0
39
0
210
0
220
0
230
1
0
LINE
5
90
100
AcDbEntity
8
1
62
256
6
ByLayer
370
18
48
1
60
0
100
AcDbLine
10
32.757032
20
-13.053211
30
0
11
32.78662
21
-12.97839
31
0
39
0
210
0
220
0
230
1
0
LINE
5
91
100
AcDbEntity
8
1
62
256
6
ByLayer
370
18
48
1
60
0
100
AcDbLine
10
28.4
20
-13.456606
30
0
11
28.4
21
-13.375354
31
0
39
0
210
0
220
0
230
1
0
LINE
5
92
100
AcDbEntity
8
1
62
256
6
ByLayer
370
18
48
1
60
0
100
AcDbLine
10
32.887758
20
-12.53742
30
0
11
32.887758
21
-11.33758
31
0
39
0
210
0
220
0
230
1
0
LINE
5
93
100
AcDbEntity
8
1
62
256
6
ByLayer
370
18
48
1
60
0
100
AcDbLine
10
24.527864
20
-8.6375
30
0
11
24.527864
21
-9.662072
31
0
39
0
210
0
220
0
230
1
0
LINE
5
94
100
AcDbEntity
8
1
62
256
6
ByLayer
370
18
48
1
60
0
100
AcDbLine
10
0.5
20
12.564682
30
0
11
0
21
12.5625
31
0
39
0
210
0
220
0
230
1
0
LINE
5
95
100
AcDbEntity
8
1
62
256
6
ByLayer
370
18
48
1
60
0
100
AcDbLine
10
32.78662
20
-12.97839
30
0
11
32.883447
21
-12.557285
31
0
39
0
210
0
220
0
230
1
0
LINE
5
96
100
AcDbEntity
8
1
62
256
6
ByLayer
370
18
48
1
60
0
100
AcDbLine
10
37.7
20
-10.7125
30
0
11
37.7
21
-13.1625
31
0
39
0
210
0
220
0
230
1
0
LINE
5
97
100
AcDbEntity
8
1
62
256
6
ByLayer
370
18
48
1
60
0
100
AcDbLine
10
33.25747
20
-11.400551
30
0
11
34.300785
21
-11.400551
31
0
39
0
210
0
220
0
230
1
0
LINE
5
98
100
AcDbEntity
8
1
62
256
6
ByLayer
370
18
48
1
60
0
100
AcDbLine
10
33.144608
20
-12.734642
30
0
11
33.257471
21
-12.474448
31
0
39
0
210
0
220
0
230
1
0
LINE
5
99
100
AcDbEntity
8
1
62
256
6
ByLayer
370
18
48
1
60
0
100
AcDbLine
10
33.144608
20
-11.140358
30
0
11
33.257471
21
-11.400552
31
0
39
0
210
0
220
0
230
1
0
LINE
5
9A
100
AcDbEntity
8
1
62
256
6
ByLayer
370
18
48
1
60
0
100
AcDbLine
10
37.301856
20
-10.414642
30
0
11
35.262859
21
-10.503666
31
0
39
0
210
0
220
0
230
1
0
LINE
5
9B
100
AcDbEntity
8
1
62
256
6
ByLayer
370
18
48
1
60
0
100
AcDbLine
10
32.926436
20
-11.886134
30
0
11
33.003064
21
-11.255735
31
0
39
0
210
0
220
0
230
1
0
LINE
5
9C
100
AcDbEntity
8
1
62
256
6
ByLayer
370
18
48
1
60
0
100
AcDbLine
10
33.003062
20
-11.255746
30
0
11
33.115924
21
-11.51594
31
0
39
0
210
0
220
0
230
1
0
LINE
5
9D
100
AcDbEntity
8
1
62
256
6
ByLayer
370
18
48
1
60
0
100
AcDbLine
10
33.1212
20
-11.098049
30
0
11
35.073985
21
-11.098049
31
0
39
0
210
0
220
0
230
1
0
LINE
5
9E
100
AcDbEntity
8
1
62
256
6
ByLayer
370
18
48
1
60
0
100
AcDbLine
10
32.995302
20
-12.95
30
0
11
34.430369
21
-12.95
31
0
39
0
210
0
220
0
230
1
0
LINE
5
9F
100
AcDbEntity
8
1
62
256
6
ByLayer
370
18
48
1
60
0
100
AcDbLine
10
33.257471
20
-12.359061
30
0
11
34.185485
21
-12.359061
31
0
39
0
210
0
220
0
230
1
0
LINE
5
A0
100
AcDbEntity
8
1
62
256
6
ByLayer
370
18
48
1
60
0
100
AcDbLine
10
35.247034
20
-12.95
30
0
11
35.247034
21
-10.925
31
0
39
0
210
0
220
0
230
1
0
LINE
5
A1
100
AcDbEntity
8
1
62
256
6
ByLayer
370
18
48
1
60
0
100
AcDbLine
10
34.46152
20
-10.925
30
0
11
35.247034
21
-10.925
31
0
39
0
210
0
220
0
230
1
0
LINE
5
A2
100
AcDbEntity
8
1
62
256
6
ByLayer
370
18
48
1
60
0
100
AcDbLine
10
35.073985
20
-11.098049
30
0
11
34.300785
21
-11.400586
31
0
39
0
210
0
220
0
230
1
0
LINE
5
A3
100
AcDbEntity
8
1
62
256
6
ByLayer
370
18
48
1
60
0
100
AcDbLine
10
33.115924
20
-11.515936
30
0
11
33.115924
21
-12.359064
31
0
39
0
210
0
220
0
230
1
0
LINE
5
A4
100
AcDbEntity
8
1
62
256
6
ByLayer
370
18
48
1
60
0
100
AcDbLine
10
34.46152
20
-12.95
30
0
11
35.247034
21
-12.95
31
0
39
0
210
0
220
0
230
1
0
LINE
5
A5
100
AcDbEntity
8
1
62
256
6
ByLayer
370
18
48
1
60
0
100
AcDbLine
10
33.25747
20
-12.474449
30
0
11
34.300785
21
-12.474449
31
0
39
0
210
0
220
0
230
1
0
LINE
5
A6
100
AcDbEntity
8
1
62
256
6
ByLayer
370
18
48
1
60
0
100
AcDbLine
10
33.1212
20
-12.776951
30
0
11
35.073985
21
-12.776951
31
0
39
0
210
0
220
0
230
1
0
LINE
5
A7
100
AcDbEntity
8
1
62
256
6
ByLayer
370
18
48
1
60
0
100
AcDbLine
10
34.537997
20
-12.978642
30
0
11
35.172613
21
-13.345038
31
0
39
0
210
0
220
0
230
1
0
LINE
5
A8
100
AcDbEntity
8
1
62
256
6
ByLayer
370
18
48
1
60
0
100
AcDbLine
10
37.301856
20
-13.460358
30
0
11
35.262859
21
-13.371334
31
0
39
0
210
0
220
0
230
1
0
LINE
5
A9
100
AcDbEntity
8
1
62
256
6
ByLayer
370
18
48
1
60
0
100
AcDbLine
10
35.073985
20
-12.776951
30
0
11
34.300785
21
-12.474414
31
0
39
0
210
0
220
0
230
1
0
LINE
5
AA
100
AcDbEntity
8
1
62
256
6
ByLayer
370
18
48
1
60
0
100
AcDbLine
10
33.25747
20
-11.515939
30
0
11
33.25747
21
-12.359061
31
0
39
0
210
0
220
0
230
1
0
LINE
5
AB
100
AcDbEntity
8
1
62
256
6
ByLayer
370
18
48
1
60
0
100
AcDbLine
10
34.185485
20
-12.359061
30
0
11
34.185485
21
-11.515939
31
0
39
0
210
0
220
0
230
1
0
LINE
5
AC
100
AcDbEntity
8
1
62
256
6
ByLayer
370
18
48
1
60
0
100
AcDbLine
10
33.003062
20
-12.619254
30
0
11
33.115924
21
-12.35906
31
0
39
0
210
0
220
0
230
1
0
LINE
5
AD
100
AcDbEntity
8
1
62
256
6
ByLayer
370
18
48
1
60
0
100
AcDbLine
10
32.926436
20
-11.988866
30
0
11
33.003064
21
-12.619265
31
0
39
0
210
0
220
0
230
1
0
LINE
5
AE
100
AcDbEntity
8
1
62
256
6
ByLayer
370
18
48
1
60
0
100
AcDbLine
10
32.995302
20
-10.925
30
0
11
34.430369
21
-10.925
31
0
39
0
210
0
220
0
230
1
0
LINE
5
AF
100
AcDbEntity
8
1
62
256
6
ByLayer
370
18
48
1
60
0
100
AcDbLine
10
34.537997
20
-10.896358
30
0
11
35.172613
21
-10.529962
31
0
39
0
210
0
220
0
230
1
0
LINE
5
B0
100
AcDbEntity
8
1
62
256
6
ByLayer
370
18
48
1
60
0
100
AcDbLine
10
33.257471
20
-11.515939
30
0
11
34.185485
21
-11.515939
31
0
39
0
210
0
220
0
230
1
0
LINE
5
B1
100
AcDbEntity
8
SK1
62
256
6
ByLayer
370
18
48
1
60
0
100
AcDbLine
10
-113.65
20
-12.3125
30
0
11
-113.65
21
12.5625
31
0
39
0
210
0
220
0
230
1
0
LINE
5
B3
100
AcDbEntity
8
SK1
62
256
6
ByLayer
370
18
48
1
60
0
100
AcDbLine
10
-113.65
20
12.5625
30
0
11
0
21
12.5625
31
0
39
0
210
0
220
0
230
1
0
LINE
5
B4
100
AcDbEntity
8
SK1
62
256
6
ByLayer
370
18
48
1
60
0
100
AcDbLine
10
0
20
-12.3125
30
0
11
-113.65
21
-12.3125
31
0
39
0
210
0
220
0
230
1
0
LINE
5
B5
100
AcDbEntity
8
SK1
62
256
6
ByLayer
370
18
48
1
60
0
100
AcDbLine
10
0
20
-12.3125
30
0
11
0
21
12.5625
31
0
39
0
210
0
220
0
230
1
0
MTEXT
5
119
100
AcDbEntity
8
SK6
62
256
6
ByLayer
370
18
48
1
60
0
100
AcDbMText
10
-67.099987
20
-27.512166
30
0
210
0
220
0
230
1
1
\W0.7451;LF151.37-2525-034B25
40
3.5
41
0
44
1.084337
50
0
71
7
72
5
7
iso_b_vert
0
DIMENSION
5
138
100
AcDbEntity
8
2
62
256
6
ByLayer
370
13
48
1
60
0
100
AcDbDimension
2
DimnDraft3D2
10
51.95
20
-10.4375
30
0
11
51.95
21
-5.9375
31
0
70
32
71
5
72
1
41
1
210
0
220
0
230
1
3
Standard
100
AcDbAlignedDimension
13
39.2
23
-13.4375
33
0
14
39.2
24
-10.4375
34
0
50
90
100
AcDbRotatedDimension
1001
ACAD
1000
DSTYLE
1002
{
1070
    74
1070
     0
1070
   279
1070
     0
1070
   172
1070
     1
1070
   173
1070
     1
1070
   340
1005
11A
1070
   271
1070
     3
1070
   272
1070
     3
1070
    77
1070
     1
1070
    73
1070
     0
1070
   171
1070
     4
1070
   274
1070
     4
1070
   177
1070
     2
1070
   176
1070
     2
1070
   178
1070
     7
1070
    78
1070
     8
1070
    41
1041
3.0
1070
   147
1041
2.25
1070
    42
1041
1.5
1070
    44
1041
3.0
1070
   140
1041
4.5
1070
   343
1005
139
1070
   344
1005
139
1002
}
0
DIMENSION
5
14D
100
AcDbEntity
8
2
62
256
6
ByLayer
370
13
48
1
60
0
100
AcDbDimension
2
DimnDraft3D3
10
61.95
20
12.4375
30
0
11
61.95
21
-3.188158
31
0
70
32
71
5
72
1
41
1
210
0
220
0
230
1
3
Standard
100
AcDbAlignedDimension
13
39.2
23
-13.4375
33
0
14
1.5
24
12.4375
34
0
50
90
100
AcDbRotatedDimension
1001
ACAD
1000
DSTYLE
1002
{
1070
    74
1070
     0
1070
   279
1070
     0
1070
   172
1070
     1
1070
   173
1070
     1
1070
   340
1005
11A
1070
   271
1070
     3
1070
   272
1070
     3
1070
    77
1070
     1
1070
    73
1070
     0
1070
   171
1070
     4
1070
   274
1070
     4
1070
   177
1070
     2
1070
   176
1070
     2
1070
   178
1070
     7
1070
    78
1070
     8
1070
    41
1041
3.0
1070
   147
1041
2.25
1070
    42
1041
1.5
1070
    44
1041
3.0
1070
   140
1041
4.5
1070
   343
1005
139
1070
   344
1005
139
1002
}
0
DIMENSION
5
15C
100
AcDbEntity
8
SK2
62
256
6
ByLayer
370
13
48
1
60
0
100
AcDbDimension
2
DimnDraft3D4
10
-123.4
20
-12.4375
30
0
11
-123.4
21
-2.688158
31
0
70
32
71
5
72
1
41
1
210
0
220
0
230
1
3
Standard
100
AcDbAlignedDimension
13
-115.15
23
12.4375
33
0
14
-115.15
24
-12.4375
34
0
50
90
100
AcDbRotatedDimension
1001
ACAD
1000
DSTYLE
1002
{
1070
    74
1070
     0
1070
   279
1070
     0
1070
   172
1070
     1
1070
   173
1070
     1
1070
   340
1005
11A
1070
   271
1070
     3
1070
   272
1070
     3
1070
    77
1070
     1
1070
    73
1070
     0
1070
   171
1070
     4
1070
   274
1070
     4
1070
   177
1070
     2
1070
   176
1070
     2
1070
   178
1070
     7
1070
    78
1070
     8
1070
    41
1041
3.0
1070
   147
1041
2.25
1070
    42
1041
1.5
1070
    44
1041
3.0
1070
   140
1041
4.5
1070
   343
1005
139
1070
   344
1005
139
1002
}
0
DIMENSION
5
16A
100
AcDbEntity
8
2
62
256
6
ByLayer
370
13
48
1
60
0
100
AcDbDimension
2
DimnDraft3D5
10
29
20
22.1875
30
0
11
42.2
21
22.1875
31
0
70
32
71
5
72
1
41
1
210
0
220
0
230
1
3
Standard
100
AcDbAlignedDimension
13
37.7
23
-8.9375
33
0
14
29
24
13.9375
34
0
50
0
100
AcDbRotatedDimension
1001
ACAD
1000
DSTYLE
1002
{
1070
   279
1070
     0
1070
   172
1070
     1
1070
   173
1070
     1
1070
   340
1005
11A
1070
   271
1070
     3
1070
   272
1070
     3
1070
    77
1070
     1
1070
    73
1070
     0
1070
   171
1070
     4
1070
   274
1070
     4
1070
   177
1070
     2
1070
   176
1070
     2
1070
   178
1070
     7
1070
    78
1070
     8
1070
    41
1041
3.0
1070
   147
1041
2.25
1070
    42
1041
1.5
1070
    44
1041
3.0
1070
   140
1041
4.5
1070
   343
1005
139
1070
   344
1005
139
1002
}
0
DIMENSION
5
178
100
AcDbEntity
8
2
62
256
6
ByLayer
370
13
48
1
60
0
100
AcDbDimension
2
DimnDraft3D6
10
0
20
42.1875
30
0
11
13.568421
21
42.1875
31
0
70
32
71
5
72
1
41
1
210
0
220
0
230
1
3
Standard
100
AcDbAlignedDimension
13
37.7
23
-8.9375
33
0
14
0
24
13.9375
34
0
50
0
100
AcDbRotatedDimension
1001
ACAD
1000
DSTYLE
1002
{
1070
   279
1070
     0
1070
   172
1070
     1
1070
   173
1070
     1
1070
   340
1005
11A
1070
   271
1070
     3
1070
   272
1070
     3
1070
    77
1070
     1
1070
    73
1070
     0
1070
   171
1070
     4
1070
   274
1070
     4
1070
   177
1070
     2
1070
   176
1070
     2
1070
   178
1070
     7
1070
    78
1070
     8
1070
    41
1041
3.0
1070
   147
1041
2.25
1070
    42
1041
1.5
1070
    44
1041
3.0
1070
   140
1041
4.5
1070
   343
1005
139
1070
   344
1005
139
1002
}
0
DIMENSION
5
186
100
AcDbEntity
8
SK2
62
256
6
ByLayer
370
13
48
1
60
0
100
AcDbDimension
2
DimnDraft3D7
10
-113.65
20
52.1875
30
0
11
-41.782237
21
52.1875
31
0
70
32
71
5
72
1
41
1
210
0
220
0
230
1
3
Standard
100
AcDbAlignedDimension
13
37.7
23
-8.9375
33
0
14
-113.65
24
13.9375
34
0
50
0
100
AcDbRotatedDimension
1001
ACAD
1000
DSTYLE
1002
{
1070
   279
1070
     0
1070
   172
1070
     1
1070
   173
1070
     1
1070
   340
1005
11A
1070
   271
1070
     3
1070
   272
1070
     3
1070
    77
1070
     1
1070
    73
1070
     0
1070
   171
1070
     4
1070
   274
1070
     4
1070
   177
1070
     2
1070
   176
1070
     2
1070
   178
1070
     7
1070
    78
1070
     8
1070
    41
1041
3.0
1070
   147
1041
2.25
1070
    42
1041
1.5
1070
    44
1041
3.0
1070
   140
1041
4.5
1070
   343
1005
139
1070
   344
1005
139
1002
}
0
ENDSEC
0
SECTION
2
OBJECTS
0
DICTIONARY
5
1f0
330
0
100
AcDbDictionary
280
0
281
1
3
ACAD_GROUP
350
1f1
3
ACAD_MLINESTYLE
350
1f2
0
DICTIONARY
5
1f1
330
0
100
AcDbDictionary
280
0
281
1
0
DICTIONARY
5
1f2
330
0
100
AcDbDictionary
280
0
281
1
3
Standard
350
18
0
MLINESTYLE
5
18
330
1f2
100
AcDbMlineStyle
2
Standard
70
0
3

62
256
51
90
52
90
71
2
49
-0.5
62
256
6
ByLayer
49
0.5
62
256
6
ByLayer
0
RASTERVARIABLES
5
1df
330

100
AcDbRasterVariables
90
0
70
1
71
1
72
1
0
ENDSEC
0
EOF
