0
SECTION
2
HEADER
9
$ACADVER
1
AC1015
9
$DWGCODEPAGE
3
ANSI_1252
9
$HANDSEED
5
1fd
9
$ANGBASE
50
0
9
$ANGDIR
70
0
9
$ATTMODE
70
1
9
$AUNITS
70
0
9
$AUPREC
70
0
9
$CECOLOR
62
256
9
$CELTSCALE
40
1
9
$CELTYPE
6
ByLayer
9
$CELWEIGHT
370
18
9
$CLAYER
8
0
9
$CMLJUST
70
0
9
$CMLSCALE
40
1
9
$CMLSTYLE
2
Standard
9
$DIMSTYLE
2
Standard
9
$TEXTSIZE
40
0.2
9
$TEXTSTYLE
7
Standard
9
$LUNITS
70
2
9
$LUPREC
70
4
9
$EXTNAMES
290
1
9
$INSUNITS
70
4
9
$LTSCALE
40
1
9
$LWDISPLAY
290
1
9
$PDMODE
70
0
9
$PDSIZE
40
0
9
$PLINEGEN
70
0
0
ENDSEC
0
SECTION
2
CLASSES
0
CLASS
1
RASTERVARIABLES
2
AcDbRasterVariables
3
ISM
90
0
280
0
281
0
0
ENDSEC
0
SECTION
2
TABLES
0
TABLE
2
VPORT
5
1f3
100
AcDbSymbolTable
0
VPORT
5
1
100
AcDbSymbolTableRecord
100
AcDbViewportTableRecord
2
*Active
70
0
10
0
20
0
11
1
21
1
12
-1
22
1
13
0
23
0
14
0.5
24
0.5
15
10
25
10
16
0
26
0
36
1
17
0
27
0
37
0
0
ENDTAB
0
TABLE
2
LTYPE
5
1f4
100
AcDbSymbolTable
0
LTYPE
5
14
100
AcDbSymbolTableRecord
100
AcDbLinetypeTableRecord
70
0
2
ByBlock
3

72
65
73
0
40
0
0
LTYPE
5
15
100
AcDbSymbolTableRecord
100
AcDbLinetypeTableRecord
70
0
2
ByLayer
3

72
65
73
0
40
0
0
LTYPE
5
16
100
AcDbSymbolTableRecord
100
AcDbLinetypeTableRecord
70
0
2
CONTINUOUS
3
Solid line
72
65
73
0
40
0
0
LTYPE
5
6A
100
AcDbSymbolTableRecord
100
AcDbLinetypeTableRecord
70
0
2
CENTER
3
____ _ ____ _ ____ _ ____
72
65
73
4
40
47.5
49
22
74
0
49
-8.5
74
0
49
8.5
74
0
49
-8.5
74
0
0
LTYPE
5
6B
100
AcDbSymbolTableRecord
100
AcDbLinetypeTableRecord
70
0
2
DASHED
3
__ __ __ __ __ __ __ __ __
72
65
73
2
40
25.72
49
12.86
74
0
49
-12.86
74
0
0
ENDTAB
0
TABLE
2
LAYER
5
1f5
100
AcDbSymbolTable
0
LAYER
5
10
100
AcDbSymbolTableRecord
100
AcDbLayerTableRecord
2
0
70
0
62
7
6
CONTINUOUS
290
1
370
-3
390
0
0
LAYER
5
6D
100
AcDbSymbolTableRecord
100
AcDbLayerTableRecord
2
2
70
0
62
7
6
CONTINUOUS
290
1
370
-3
390
0
0
LAYER
5
6F
100
AcDbSymbolTableRecord
100
AcDbLayerTableRecord
2
80
70
0
62
-6
6
CONTINUOUS
290
1
370
-3
390
0
0
LAYER
5
71
100
AcDbSymbolTableRecord
100
AcDbLayerTableRecord
2
81
70
0
62
-3
6
CONTINUOUS
290
1
370
-3
390
0
0
LAYER
5
74
100
AcDbSymbolTableRecord
100
AcDbLayerTableRecord
2
1
70
0
62
4
6
CONTINUOUS
290
1
370
-3
390
0
0
LAYER
5
1e0
100
AcDbSymbolTableRecord
100
AcDbLayerTableRecord
2
SK1
70
0
62
4
6
CONTINUOUS
290
1
370
-3
390
0
0
LAYER
5
1e1
100
AcDbSymbolTableRecord
100
AcDbLayerTableRecord
2
SK6
70
0
62
5
6
CONTINUOUS
290
1
370
-3
390
0
0
LAYER
5
1e2
100
AcDbSymbolTableRecord
100
AcDbLayerTableRecord
2
SK2
70
0
62
7
6
CONTINUOUS
290
1
370
-3
390
0
0
ENDTAB
0
TABLE
2
STYLE
5
1f6
100
AcDbSymbolTable
0
STYLE
5
11
100
AcDbSymbolTableRecord
100
AcDbTextStyleTableRecord
2
Standard
3
txt
70
0
71
0
40
0
41
1
42
0
50
0
0
STYLE
5
11A
100
AcDbSymbolTableRecord
100
AcDbTextStyleTableRecord
2
iso_b_vert
3
simplex.shx
70
0
71
0
40
0
41
1
42
0
50
0
0
STYLE
5
11B
100
AcDbSymbolTableRecord
100
AcDbTextStyleTableRecord
2
DWGDirectTextStyle
3
simplex
70
0
71
0
40
0
41
1
42
0
50
0
0
ENDTAB
0
TABLE
2
DIMSTYLE
5
1f7
100
AcDbSymbolTable
100
AcDbDimStyleTable
0
DIMSTYLE
105
27
100
AcDbSymbolTableRecord
100
AcDbDimStyleTableRecord
2
Standard
70
0
3
<>
41
0.18
42
0.0625
44
0.18
140
0.18
147
0.09
73
0
74
0
77
1
271
2
275
0
278
52
280
0
340
11
0
ENDTAB
0
TABLE
2
VIEW
5
1f8
100
AcDbSymbolTable
0
ENDTAB
0
TABLE
2
UCS
5
1f9
100
AcDbSymbolTable
0
ENDTAB
0
TABLE
2
APPID
5
1fa
100
AcDbSymbolTable
0
APPID
5
12
100
AcDbSymbolTableRecord
100
AcDbRegAppTableRecord
2
ACAD
70
0
0
ENDTAB
0
TABLE
2
BLOCK_RECORD
5
1fb
100
AcDbSymbolTable
0
BLOCK_RECORD
5
1F
100
AcDbSymbolTableRecord
100
AcDbBlockTableRecord
2
*Model_Space
340
0
70
0
0
BLOCK_RECORD
5
1B
100
AcDbSymbolTableRecord
100
AcDbBlockTableRecord
2
*Paper_Space
340
0
70
0
0
BLOCK_RECORD
5
23
100
AcDbSymbolTableRecord
100
AcDbBlockTableRecord
2
*Paper_Space0
340
0
70
0
0
BLOCK_RECORD
5
11D
100
AcDbSymbolTableRecord
100
AcDbBlockTableRecord
2
DimnDraft3D11
340
0
70
0
0
BLOCK_RECORD
5
12B
100
AcDbSymbolTableRecord
100
AcDbBlockTableRecord
2
DimnDraft3D2
340
0
70
0
0
BLOCK_RECORD
5
139
100
AcDbSymbolTableRecord
100
AcDbBlockTableRecord
2
_CLOSED
340
0
70
0
0
BLOCK_RECORD
5
140
100
AcDbSymbolTableRecord
100
AcDbBlockTableRecord
2
DimnDraft3D3
340
0
70
0
0
BLOCK_RECORD
5
14E
100
AcDbSymbolTableRecord
100
AcDbBlockTableRecord
2
DimnDraft3D4
340
0
70
0
0
BLOCK_RECORD
5
15D
100
AcDbSymbolTableRecord
100
AcDbBlockTableRecord
2
DimnDraft3D5
340
0
70
0
0
BLOCK_RECORD
5
16B
100
AcDbSymbolTableRecord
100
AcDbBlockTableRecord
2
DimnDraft3D6
340
0
70
0
0
BLOCK_RECORD
5
179
100
AcDbSymbolTableRecord
100
AcDbBlockTableRecord
2
DimnDraft3D7
340
0
70
0
0
ENDTAB
0
ENDSEC
0
SECTION
2
BLOCKS
0
BLOCK
5
20
100
AcDbEntity
8
0
100
AcDbBlockBegin
2
*Model_Space
70
0
10
0
20
0
30
0
3
*Model_Space
0
ENDBLK
5
21
100
AcDbEntity
8
0
100
AcDbBlockEnd
0
BLOCK
5
1C
100
AcDbEntity
8
0
100
AcDbBlockBegin
2
*Paper_Space
70
0
10
0
20
0
30
0
3
*Paper_Space
0
ENDBLK
5
1D
100
AcDbEntity
8
0
100
AcDbBlockEnd
0
BLOCK
5
24
100
AcDbEntity
8
0
100
AcDbBlockBegin
2
*Paper_Space0
70
0
10
0
20
0
30
0
3
*Paper_Space0
0
ENDBLK
5
25
100
AcDbEntity
8
0
100
AcDbBlockEnd
0
BLOCK
5
11E
100
AcDbEntity
8
0
100
AcDbBlockBegin
2
DimnDraft3D11
70
0
10
0
20
0
30
0
3
DimnDraft3D11
0
LINE
5
120
100
AcDbEntity
8
2
62
256
6
ByLayer
370
25
48
1
60
0
100
AcDbLine
10
45.7
20
-6.9375
30
0
11
45.7
21
35.1875
31
0
39
0
210
0
220
0
230
1
0
LINE
5
121
100
AcDbEntity
8
2
62
256
6
ByLayer
370
25
48
1
60
0
100
AcDbLine
10
25.7
20
13.9375
30
0
11
25.7
21
35.1875
31
0
39
0
210
0
220
0
230
1
0
LINE
5
122
100
AcDbEntity
8
2
62
256
6
ByLayer
370
25
48
1
60
0
100
AcDbLine
10
45.7
20
32.1875
30
0
11
25.7
21
32.1875
31
0
39
0
210
0
220
0
230
1
0
LINE
5
123
100
AcDbEntity
8
2
62
256
6
ByLayer
370
25
48
1
60
0
100
AcDbLine
10
45.7
20
32.1875
30
0
11
42.700001
21
31.792543
31
0
39
0
210
0
220
0
230
1
0
LINE
5
124
100
AcDbEntity
8
2
62
256
6
ByLayer
370
25
48
1
60
0
100
AcDbLine
10
45.7
20
32.1875
30
0
11
42.699999
21
32.582457
31
0
39
0
210
0
220
0
230
1
0
LINE
5
125
100
AcDbEntity
8
2
62
256
6
ByLayer
370
25
48
1
60
0
100
AcDbLine
10
42.700001
20
31.792543
30
0
11
42.699999
21
32.582457
31
0
39
0
210
0
220
0
230
1
0
LINE
5
126
100
AcDbEntity
8
2
62
256
6
ByLayer
370
25
48
1
60
0
100
AcDbLine
10
25.7
20
32.1875
30
0
11
28.699999
21
32.582457
31
0
39
0
210
0
220
0
230
1
0
LINE
5
127
100
AcDbEntity
8
2
62
256
6
ByLayer
370
25
48
1
60
0
100
AcDbLine
10
25.7
20
32.1875
30
0
11
28.700001
21
31.792543
31
0
39
0
210
0
220
0
230
1
0
LINE
5
128
100
AcDbEntity
8
2
62
256
6
ByLayer
370
25
48
1
60
0
100
AcDbLine
10
28.699999
20
32.582457
30
0
11
28.700001
21
31.792543
31
0
39
0
210
0
220
0
230
1
0
MTEXT
5
129
100
AcDbEntity
8
2
62
256
6
ByLayer
370
18
48
1
60
0
100
AcDbMText
10
31.543421
20
33.3125
30
0
210
0
220
0
230
1
1
\W0.7346;20.0
40
4.5
41
0
44
1.084337
50
0
71
7
72
5
7
iso_b_vert
0
ENDBLK
5
11F
100
AcDbEntity
8
0
100
AcDbBlockEnd
0
BLOCK
5
136
100
AcDbEntity
8
0
100
AcDbBlockBegin
2
DimnDraft3D2
70
0
10
0
20
0
30
0
3
DimnDraft3D2
0
MTEXT
5
12C
100
AcDbEntity
8
2
62
256
6
ByLayer
370
18
48
1
60
0
100
AcDbMText
10
58.825
20
-2.8125
30
0
210
0
220
0
230
1
1
\W0.5404;5
40
4.5
41
0
44
1.084337
50
90
71
7
72
5
7
iso_b_vert
0
LINE
5
12D
100
AcDbEntity
8
2
62
256
6
ByLayer
370
13
48
1
60
0
100
AcDbLine
10
47.2
20
-13.4375
30
0
11
62.95
21
-13.4375
31
0
39
0
210
0
220
0
230
1
0
LINE
5
12E
100
AcDbEntity
8
2
62
256
6
ByLayer
370
13
48
1
60
0
100
AcDbLine
10
47.2
20
-8.4375
30
0
11
62.95
21
-8.4375
31
0
39
0
210
0
220
0
230
1
0
LINE
5
12F
100
AcDbEntity
8
2
62
256
6
ByLayer
370
13
48
1
60
0
100
AcDbLine
10
59.95
20
-1.924342
30
0
11
59.95
21
-24.6875
31
0
39
0
210
0
220
0
230
1
0
LINE
5
130
100
AcDbEntity
8
2
62
256
6
ByLayer
370
13
48
1
60
0
100
AcDbLine
10
59.95
20
-13.4375
30
0
11
60.344957
21
-16.437499
31
0
39
0
210
0
220
0
230
1
0
LINE
5
131
100
AcDbEntity
8
2
62
256
6
ByLayer
370
13
48
1
60
0
100
AcDbLine
10
59.95
20
-13.4375
30
0
11
59.555043
21
-16.437501
31
0
39
0
210
0
220
0
230
1
0
LINE
5
132
100
AcDbEntity
8
2
62
256
6
ByLayer
370
13
48
1
60
0
100
AcDbLine
10
60.344957
20
-16.437499
30
0
11
59.555043
21
-16.437501
31
0
39
0
210
0
220
0
230
1
0
LINE
5
133
100
AcDbEntity
8
2
62
256
6
ByLayer
370
13
48
1
60
0
100
AcDbLine
10
59.95
20
-8.4375
30
0
11
59.555043
21
-5.437501
31
0
39
0
210
0
220
0
230
1
0
LINE
5
134
100
AcDbEntity
8
2
62
256
6
ByLayer
370
13
48
1
60
0
100
AcDbLine
10
59.95
20
-8.4375
30
0
11
60.344957
21
-5.437499
31
0
39
0
210
0
220
0
230
1
0
LINE
5
135
100
AcDbEntity
8
2
62
256
6
ByLayer
370
13
48
1
60
0
100
AcDbLine
10
59.555043
20
-5.437501
30
0
11
60.344957
21
-5.437499
31
0
39
0
210
0
220
0
230
1
0
ENDBLK
5
137
100
AcDbEntity
8
0
100
AcDbBlockEnd
0
BLOCK
5
13A
100
AcDbEntity
8
0
100
AcDbBlockBegin
2
_CLOSED
70
0
10
0
20
0
30
0
3
_CLOSED
0
LINE
5
13C
100
AcDbEntity
8
0
62
256
6
ByLayer
370
-2
48
1
60
0
100
AcDbLine
10
-1
20
0.166667
30
0
11
0
21
0
31
0
39
0
210
0
220
0
230
1
0
LINE
5
13D
100
AcDbEntity
8
0
62
256
6
ByLayer
370
-2
48
1
60
0
100
AcDbLine
10
0
20
0
30
0
11
-1
21
-0.166667
31
0
39
0
210
0
220
0
230
1
0
LINE
5
13E
100
AcDbEntity
8
0
62
256
6
ByLayer
370
-2
48
1
60
0
100
AcDbLine
10
-1
20
0.166667
30
0
11
-1
21
-0.166667
31
0
39
0
210
0
220
0
230
1
0
LINE
5
13F
100
AcDbEntity
8
0
62
256
6
ByLayer
370
-2
48
1
60
0
100
AcDbLine
10
0
20
0
30
0
11
-1
21
0
31
0
39
0
210
0
220
0
230
1
0
ENDBLK
5
13B
100
AcDbEntity
8
0
100
AcDbBlockEnd
0
BLOCK
5
14B
100
AcDbEntity
8
0
100
AcDbBlockBegin
2
DimnDraft3D3
70
0
10
0
20
0
30
0
3
DimnDraft3D3
0
MTEXT
5
141
100
AcDbEntity
8
2
62
256
6
ByLayer
370
18
48
1
60
0
100
AcDbMText
10
68.825
20
-2.063158
30
0
210
0
220
0
230
1
1
\W0.6740;26
40
4.5
41
0
44
1.084337
50
90
71
7
72
5
7
iso_b_vert
0
LINE
5
142
100
AcDbEntity
8
2
62
256
6
ByLayer
370
13
48
1
60
0
100
AcDbLine
10
47.2
20
-13.4375
30
0
11
72.95
21
-13.4375
31
0
39
0
210
0
220
0
230
1
0
LINE
5
143
100
AcDbEntity
8
2
62
256
6
ByLayer
370
13
48
1
60
0
100
AcDbLine
10
1.5
20
12.4375
30
0
11
72.95
21
12.4375
31
0
39
0
210
0
220
0
230
1
0
LINE
5
144
100
AcDbEntity
8
2
62
256
6
ByLayer
370
13
48
1
60
0
100
AcDbLine
10
69.95
20
-13.4375
30
0
11
69.95
21
12.4375
31
0
39
0
210
0
220
0
230
1
0
LINE
5
145
100
AcDbEntity
8
2
62
256
6
ByLayer
370
13
48
1
60
0
100
AcDbLine
10
69.95
20
-13.4375
30
0
11
69.555043
21
-10.437501
31
0
39
0
210
0
220
0
230
1
0
LINE
5
146
100
AcDbEntity
8
2
62
256
6
ByLayer
370
13
48
1
60
0
100
AcDbLine
10
69.95
20
-13.4375
30
0
11
70.344957
21
-10.437499
31
0
39
0
210
0
220
0
230
1
0
LINE
5
147
100
AcDbEntity
8
2
62
256
6
ByLayer
370
13
48
1
60
0
100
AcDbLine
10
69.555043
20
-10.437501
30
0
11
70.344957
21
-10.437499
31
0
39
0
210
0
220
0
230
1
0
LINE
5
148
100
AcDbEntity
8
2
62
256
6
ByLayer
370
13
48
1
60
0
100
AcDbLine
10
69.95
20
12.4375
30
0
11
70.344957
21
9.437501
31
0
39
0
210
0
220
0
230
1
0
LINE
5
149
100
AcDbEntity
8
2
62
256
6
ByLayer
370
13
48
1
60
0
100
AcDbLine
10
69.95
20
12.4375
30
0
11
69.555043
21
9.437499
31
0
39
0
210
0
220
0
230
1
0
LINE
5
14A
100
AcDbEntity
8
2
62
256
6
ByLayer
370
13
48
1
60
0
100
AcDbLine
10
70.344957
20
9.437501
30
0
11
69.555043
21
9.437499
31
0
39
0
210
0
220
0
230
1
0
ENDBLK
5
14C
100
AcDbEntity
8
0
100
AcDbBlockEnd
0
BLOCK
5
15A
100
AcDbEntity
8
0
100
AcDbBlockBegin
2
DimnDraft3D4
70
0
10
0
20
0
30
0
3
DimnDraft3D4
0
MTEXT
5
14F
100
AcDbEntity
8
SK2
62
256
6
ByLayer
370
18
48
1
60
0
100
AcDbMText
10
-116.525
20
-1.563158
30
0
210
0
220
0
230
1
1
\W0.6740;25
40
4.5
41
0
44
1.084337
50
90
71
7
72
5
7
iso_b_vert
0
LINE
5
151
100
AcDbEntity
8
SK2
62
256
6
ByLayer
370
13
48
1
60
0
100
AcDbLine
10
-107.15
20
12.4375
30
0
11
-118.4
21
12.4375
31
0
39
0
210
0
220
0
230
1
0
LINE
5
152
100
AcDbEntity
8
SK2
62
256
6
ByLayer
370
13
48
1
60
0
100
AcDbLine
10
-107.15
20
-12.4375
30
0
11
-118.4
21
-12.4375
31
0
39
0
210
0
220
0
230
1
0
LINE
5
153
100
AcDbEntity
8
SK2
62
256
6
ByLayer
370
13
48
1
60
0
100
AcDbLine
10
-115.4
20
12.4375
30
0
11
-115.4
21
-12.4375
31
0
39
0
210
0
220
0
230
1
0
LINE
5
154
100
AcDbEntity
8
SK2
62
256
6
ByLayer
370
13
48
1
60
0
100
AcDbLine
10
-115.4
20
12.4375
30
0
11
-115.005043
21
9.437501
31
0
39
0
210
0
220
0
230
1
0
LINE
5
155
100
AcDbEntity
8
SK2
62
256
6
ByLayer
370
13
48
1
60
0
100
AcDbLine
10
-115.4
20
12.4375
30
0
11
-115.794957
21
9.437499
31
0
39
0
210
0
220
0
230
1
0
LINE
5
156
100
AcDbEntity
8
SK2
62
256
6
ByLayer
370
13
48
1
60
0
100
AcDbLine
10
-115.005043
20
9.437501
30
0
11
-115.794957
21
9.437499
31
0
39
0
210
0
220
0
230
1
0
LINE
5
157
100
AcDbEntity
8
SK2
62
256
6
ByLayer
370
13
48
1
60
0
100
AcDbLine
10
-115.4
20
-12.4375
30
0
11
-115.794957
21
-9.437501
31
0
39
0
210
0
220
0
230
1
0
LINE
5
158
100
AcDbEntity
8
SK2
62
256
6
ByLayer
370
13
48
1
60
0
100
AcDbLine
10
-115.4
20
-12.4375
30
0
11
-115.005043
21
-9.437499
31
0
39
0
210
0
220
0
230
1
0
LINE
5
159
100
AcDbEntity
8
SK2
62
256
6
ByLayer
370
13
48
1
60
0
100
AcDbLine
10
-115.794957
20
-9.437501
30
0
11
-115.005043
21
-9.437499
31
0
39
0
210
0
220
0
230
1
0
ENDBLK
5
15B
100
AcDbEntity
8
0
100
AcDbBlockEnd
0
BLOCK
5
168
100
AcDbEntity
8
0
100
AcDbBlockBegin
2
DimnDraft3D5
70
0
10
0
20
0
30
0
3
DimnDraft3D5
0
MTEXT
5
15E
100
AcDbEntity
8
2
62
256
6
ByLayer
370
18
48
1
60
0
100
AcDbMText
10
51.325
20
23.3125
30
0
210
0
220
0
230
1
1
\W0.6563;10.7
40
4.5
41
0
44
1.084337
50
0
71
7
72
5
7
iso_b_vert
0
LINE
5
15F
100
AcDbEntity
8
2
62
256
6
ByLayer
370
13
48
1
60
0
100
AcDbLine
10
45.7
20
-6.9375
30
0
11
45.7
21
25.1875
31
0
39
0
210
0
220
0
230
1
0
LINE
5
160
100
AcDbEntity
8
2
62
256
6
ByLayer
370
13
48
1
60
0
100
AcDbLine
10
35
20
13.9375
30
0
11
35
21
25.1875
31
0
39
0
210
0
220
0
230
1
0
LINE
5
161
100
AcDbEntity
8
2
62
256
6
ByLayer
370
13
48
1
60
0
100
AcDbLine
10
35
20
22.1875
30
0
11
59.638158
21
22.1875
31
0
39
0
210
0
220
0
230
1
0
LINE
5
162
100
AcDbEntity
8
2
62
256
6
ByLayer
370
13
48
1
60
0
100
AcDbLine
10
45.7
20
22.1875
30
0
11
42.700001
21
21.792543
31
0
39
0
210
0
220
0
230
1
0
LINE
5
163
100
AcDbEntity
8
2
62
256
6
ByLayer
370
13
48
1
60
0
100
AcDbLine
10
45.7
20
22.1875
30
0
11
42.699999
21
22.582457
31
0
39
0
210
0
220
0
230
1
0
LINE
5
164
100
AcDbEntity
8
2
62
256
6
ByLayer
370
13
48
1
60
0
100
AcDbLine
10
42.700001
20
21.792543
30
0
11
42.699999
21
22.582457
31
0
39
0
210
0
220
0
230
1
0
LINE
5
165
100
AcDbEntity
8
2
62
256
6
ByLayer
370
13
48
1
60
0
100
AcDbLine
10
35
20
22.1875
30
0
11
37.999999
21
22.582457
31
0
39
0
210
0
220
0
230
1
0
LINE
5
166
100
AcDbEntity
8
2
62
256
6
ByLayer
370
13
48
1
60
0
100
AcDbLine
10
35
20
22.1875
30
0
11
38.000001
21
21.792543
31
0
39
0
210
0
220
0
230
1
0
LINE
5
167
100
AcDbEntity
8
2
62
256
6
ByLayer
370
13
48
1
60
0
100
AcDbLine
10
37.999999
20
22.582457
30
0
11
38.000001
21
21.792543
31
0
39
0
210
0
220
0
230
1
0
ENDBLK
5
169
100
AcDbEntity
8
0
100
AcDbBlockEnd
0
BLOCK
5
176
100
AcDbEntity
8
0
100
AcDbBlockBegin
2
DimnDraft3D6
70
0
10
0
20
0
30
0
3
DimnDraft3D6
0
MTEXT
5
16C
100
AcDbEntity
8
2
62
256
6
ByLayer
370
18
48
1
60
0
100
AcDbMText
10
18.456579
20
43.3125
30
0
210
0
220
0
230
1
1
\W0.7640;45.7
40
4.5
41
0
44
1.084337
50
0
71
7
72
5
7
iso_b_vert
0
LINE
5
16D
100
AcDbEntity
8
2
62
256
6
ByLayer
370
13
48
1
60
0
100
AcDbLine
10
45.7
20
-6.9375
30
0
11
45.7
21
45.1875
31
0
39
0
210
0
220
0
230
1
0
LINE
5
16E
100
AcDbEntity
8
2
62
256
6
ByLayer
370
13
48
1
60
0
100
AcDbLine
10
0
20
13.9375
30
0
11
0
21
45.1875
31
0
39
0
210
0
220
0
230
1
0
LINE
5
16F
100
AcDbEntity
8
2
62
256
6
ByLayer
370
13
48
1
60
0
100
AcDbLine
10
45.7
20
42.1875
30
0
11
0
21
42.1875
31
0
39
0
210
0
220
0
230
1
0
LINE
5
170
100
AcDbEntity
8
2
62
256
6
ByLayer
370
13
48
1
60
0
100
AcDbLine
10
45.7
20
42.1875
30
0
11
42.700001
21
41.792543
31
0
39
0
210
0
220
0
230
1
0
LINE
5
171
100
AcDbEntity
8
2
62
256
6
ByLayer
370
13
48
1
60
0
100
AcDbLine
10
45.7
20
42.1875
30
0
11
42.699999
21
42.582457
31
0
39
0
210
0
220
0
230
1
0
LINE
5
172
100
AcDbEntity
8
2
62
256
6
ByLayer
370
13
48
1
60
0
100
AcDbLine
10
42.700001
20
41.792543
30
0
11
42.699999
21
42.582457
31
0
39
0
210
0
220
0
230
1
0
LINE
5
173
100
AcDbEntity
8
2
62
256
6
ByLayer
370
13
48
1
60
0
100
AcDbLine
10
0
20
42.1875
30
0
11
2.999999
21
42.582457
31
0
39
0
210
0
220
0
230
1
0
LINE
5
174
100
AcDbEntity
8
2
62
256
6
ByLayer
370
13
48
1
60
0
100
AcDbLine
10
0
20
42.1875
30
0
11
3.000001
21
41.792543
31
0
39
0
210
0
220
0
230
1
0
LINE
5
175
100
AcDbEntity
8
2
62
256
6
ByLayer
370
13
48
1
60
0
100
AcDbLine
10
2.999999
20
42.582457
30
0
11
3.000001
21
41.792543
31
0
39
0
210
0
220
0
230
1
0
ENDBLK
5
177
100
AcDbEntity
8
0
100
AcDbBlockEnd
0
BLOCK
5
184
100
AcDbEntity
8
0
100
AcDbBlockBegin
2
DimnDraft3D7
70
0
10
0
20
0
30
0
3
DimnDraft3D7
0
MTEXT
5
17A
100
AcDbEntity
8
SK2
62
256
6
ByLayer
370
18
48
1
60
0
100
AcDbMText
10
-32.657237
20
53.3125
30
0
210
0
220
0
230
1
1
\W0.6217;150
40
4.5
41
0
44
1.084337
50
0
71
7
72
5
7
iso_b_vert
0
LINE
5
17B
100
AcDbEntity
8
SK2
62
256
6
ByLayer
370
13
48
1
60
0
100
AcDbLine
10
45.7
20
-6.9375
30
0
11
45.7
21
55.1875
31
0
39
0
210
0
220
0
230
1
0
LINE
5
17C
100
AcDbEntity
8
SK2
62
256
6
ByLayer
370
13
48
1
60
0
100
AcDbLine
10
-105.65
20
13.9375
30
0
11
-105.65
21
55.1875
31
0
39
0
210
0
220
0
230
1
0
LINE
5
17D
100
AcDbEntity
8
SK2
62
256
6
ByLayer
370
13
48
1
60
0
100
AcDbLine
10
45.7
20
52.1875
30
0
11
-105.65
21
52.1875
31
0
39
0
210
0
220
0
230
1
0
LINE
5
17E
100
AcDbEntity
8
SK2
62
256
6
ByLayer
370
13
48
1
60
0
100
AcDbLine
10
45.7
20
52.1875
30
0
11
42.700001
21
51.792543
31
0
39
0
210
0
220
0
230
1
0
LINE
5
17F
100
AcDbEntity
8
SK2
62
256
6
ByLayer
370
13
48
1
60
0
100
AcDbLine
10
45.7
20
52.1875
30
0
11
42.699999
21
52.582457
31
0
39
0
210
0
220
0
230
1
0
LINE
5
180
100
AcDbEntity
8
SK2
62
256
6
ByLayer
370
13
48
1
60
0
100
AcDbLine
10
42.700001
20
51.792543
30
0
11
42.699999
21
52.582457
31
0
39
0
210
0
220
0
230
1
0
LINE
5
181
100
AcDbEntity
8
SK2
62
256
6
ByLayer
370
13
48
1
60
0
100
AcDbLine
10
-105.65
20
52.1875
30
0
11
-102.650001
21
52.582457
31
0
39
0
210
0
220
0
230
1
0
LINE
5
182
100
AcDbEntity
8
SK2
62
256
6
ByLayer
370
13
48
1
60
0
100
AcDbLine
10
-105.65
20
52.1875
30
0
11
-102.649999
21
51.792543
31
0
39
0
210
0
220
0
230
1
0
LINE
5
183
100
AcDbEntity
8
SK2
62
256
6
ByLayer
370
13
48
1
60
0
100
AcDbLine
10
-102.650001
20
52.582457
30
0
11
-102.649999
21
51.792543
31
0
39
0
210
0
220
0
230
1
0
ENDBLK
5
185
100
AcDbEntity
8
0
100
AcDbBlockEnd
0
ENDSEC
0
SECTION
2
ENTITIES
0
ARC
5
B9
100
AcDbEntity
8
1
62
256
6
ByLayer
370
18
48
1
60
0
100
AcDbCircle
39
0
10
-25.8
20
-5.0375
30
0
40
1.6
210
0
220
0
230
-1
100
AcDbArc
50
270
51
0
0
ARC
5
BA
100
AcDbEntity
8
1
62
256
6
ByLayer
370
18
48
1
60
0
100
AcDbCircle
39
0
10
-35
20
-2.6375
30
0
40
6
210
0
220
0
230
-1
100
AcDbArc
50
296.320705
51
318.189685
0
ARC
5
BC
100
AcDbEntity
8
1
62
256
6
ByLayer
370
18
48
1
60
0
100
AcDbCircle
39
0
10
-15.407616
20
-6.0375
30
0
40
0.501259405157916
210
0
220
0
230
-1
100
AcDbArc
50
278.054217
51
81.945783
0
ARC
5
BD
100
AcDbEntity
8
1
62
256
6
ByLayer
370
18
48
1
60
0
100
AcDbCircle
39
0
10
-19.992384
20
-6.0375
30
0
40
0.501259405157916
210
0
220
0
230
-1
100
AcDbArc
50
98.054217
51
247.074182
0
ARC
5
BF
100
AcDbEntity
8
1
62
256
6
ByLayer
370
18
48
1
60
0
100
AcDbCircle
39
0
10
-16.553808
20
-8.022763
30
0
40
0.501259405157916
210
0
220
0
230
-1
100
AcDbArc
50
218.054217
51
21.945783
0
ARC
5
C0
100
AcDbEntity
8
1
62
256
6
ByLayer
370
18
48
1
60
0
100
AcDbCircle
39
0
10
-16.553808
20
-4.052237
30
0
40
0.501259405157916
210
0
220
0
230
-1
100
AcDbArc
50
352.925818
51
127.074182
0
ARC
5
C1
100
AcDbEntity
8
1
62
256
6
ByLayer
370
18
48
1
60
0
100
AcDbCircle
39
0
10
-18.846192
20
-8.022763
30
0
40
0.501259405157916
210
0
220
0
230
-1
100
AcDbArc
50
172.925818
51
321.945783
0
ARC
5
C2
100
AcDbEntity
8
1
62
256
6
ByLayer
370
18
48
1
60
0
100
AcDbCircle
39
0
10
-18.846192
20
-4.052237
30
0
40
0.501259405157916
210
0
220
0
230
-1
100
AcDbArc
50
52.925818
51
187.074182
0
ARC
5
C3
100
AcDbEntity
8
1
62
256
6
ByLayer
370
18
48
1
60
0
100
AcDbCircle
39
0
10
-17.7
20
-9.18873
30
0
40
1.13980641809794
210
0
220
0
230
-1
100
AcDbArc
50
48.752695
51
131.247305
0
ARC
5
C4
100
AcDbEntity
8
1
62
256
6
ByLayer
370
18
48
1
60
0
100
AcDbCircle
39
0
10
-20.429045
20
-4.461885
30
0
40
1.13980641809794
210
0
220
0
230
-1
100
AcDbArc
50
288.752695
51
17.772659
0
ARC
5
C5
100
AcDbEntity
8
1
62
256
6
ByLayer
370
18
48
1
60
0
100
AcDbCircle
39
0
10
-14.970955
20
-7.613115
30
0
40
1.13980641809794
210
0
220
0
230
-1
100
AcDbArc
50
108.752695
51
191.247305
0
ARC
5
C6
100
AcDbEntity
8
1
62
256
6
ByLayer
370
18
48
1
60
0
100
AcDbCircle
39
0
10
-14.970955
20
-4.461885
30
0
40
1.13980641809794
210
0
220
0
230
-1
100
AcDbArc
50
162.227341
51
251.247305
0
ARC
5
C7
100
AcDbEntity
8
1
62
256
6
ByLayer
370
18
48
1
60
0
100
AcDbCircle
39
0
10
-17.7
20
-2.88627
30
0
40
1.13980641809794
210
0
220
0
230
-1
100
AcDbArc
50
222.227341
51
317.772659
0
ARC
5
C9
100
AcDbEntity
8
1
62
256
6
ByLayer
370
18
48
1
60
0
100
AcDbCircle
39
0
10
-20.429045
20
-7.613115
30
0
40
1.13980641809794
210
0
220
0
230
-1
100
AcDbArc
50
342.227341
51
77.772659
0
CIRCLE
5
BB
100
AcDbEntity
8
1
62
256
6
ByLayer
370
18
48
1
60
0
100
AcDbCircle
10
17.7
20
-6.0375
30
0
40
5.5
39
0
210
0
220
0
230
1
0
CIRCLE
5
BE
100
AcDbEntity
8
1
62
256
6
ByLayer
370
18
48
1
60
0
100
AcDbCircle
10
-17.7
20
-6.0375
30
0
40
5.0038
39
0
210
0
220
0
230
-1
0
CIRCLE
5
C8
100
AcDbEntity
8
1
62
256
6
ByLayer
370
18
48
1
60
0
100
AcDbCircle
10
17.7
20
-6.0375
30
0
40
4.4958
39
0
210
0
220
0
230
1
0
CIRCLE
5
CA
100
AcDbEntity
8
1
62
256
6
ByLayer
370
18
48
1
60
0
100
AcDbCircle
10
-17.7
20
-6.0375
30
0
40
3.0330983114651
39
0
210
0
220
0
230
-1
0
ELLIPSE
5
CB
100
AcDbEntity
8
1
62
256
6
ByLayer
370
18
48
1
60
0
100
AcDbEllipse
10
34.29
20
-11.476864
30
0
11
3.14023724958666E-15
21
2.68063365065618
31
0
210
0
220
0
230
1
40
0.466308
41
-2.4418772366753
42
-2.37428965514326
0
ELLIPSE
5
CC
100
AcDbEntity
8
1
62
256
6
ByLayer
370
18
48
1
60
0
100
AcDbEllipse
10
41.029618
20
-28.4375
30
0
11
-28.2773305335336
21
6.625114673058E-14
31
0
210
0
220
0
230
1
40
0.700208
41
-1.51402945964196
42
-1.35591495659884
0
ELLIPSE
5
CD
100
AcDbEntity
8
1
62
256
6
ByLayer
370
18
48
1
60
0
100
AcDbEllipse
10
64.729202
20
-28.438182
30
0
11
-60.6692133530646
21
9.59271051029357
31
0
210
0
220
0
230
1
40
0.285513
41
-1.09177486763522
42
-1.08554928443822
0
ELLIPSE
5
CE
100
AcDbEntity
8
1
62
256
6
ByLayer
370
18
48
1
60
0
100
AcDbEllipse
10
48.825999
20
-28.4375
30
0
11
-10.8303408356117
21
19.5570564870335
31
0
210
0
220
0
230
1
40
0.28551
41
-0.21357920643671
42
-0.183541298183804
0
ELLIPSE
5
CF
100
AcDbEntity
8
1
62
256
6
ByLayer
370
18
48
1
60
0
100
AcDbEllipse
10
49.842595
20
-36.1375
30
0
11
2.70605722075802E-14
21
23.1000000000634
31
0
210
0
220
0
230
1
40
0.57735
41
0.402362297270589
42
0.8794286518217
0
ELLIPSE
5
D0
100
AcDbEntity
8
1
62
256
6
ByLayer
370
18
48
1
60
0
100
AcDbEllipse
10
41.029618
20
-28.4375
30
0
11
-31.1336265452368
21
7.29431817496887E-14
31
0
210
0
220
0
230
1
40
0.700208
41
-1.2267359478695
42
-1.12243852178124
0
ELLIPSE
5
D1
100
AcDbEntity
8
1
62
256
6
ByLayer
370
18
48
1
60
0
100
AcDbEllipse
10
41.029618
20
-36.1375
30
0
11
-32.9902189557238
21
7.72930045188568E-14
31
0
210
0
220
0
230
1
40
0.700208
41
-1.52385800692693
42
-1.14933875832735
0
POINT
5
6C
100
AcDbEntity
8
2
62
256
6
ByLayer
370
18
48
1
60
0
100
AcDbPoint
10
45.7
20
13.5625
30
0
39
0
210
0
220
0
230
1
50
360
0
POINT
5
6E
100
AcDbEntity
8
80
62
256
6
ByLayer
370
18
48
1
60
0
100
AcDbPoint
10
0
20
0
30
0
39
0
210
0
220
0
230
1
50
360
0
POINT
5
70
100
AcDbEntity
8
81
62
256
6
ByLayer
370
18
48
1
60
0
100
AcDbPoint
10
45.7
20
-13.4375
30
0
39
0
210
0
220
0
230
1
50
360
0
SPLINE
5
D2
100
AcDbEntity
8
1
62
256
6
ByLayer
370
18
48
1
60
0
100
AcDbSpline
70
4
71
3
72
11
73
7
40
0
40
0
40
0
40
0
40
0.626067174304921
40
0.626067174304921
40
0.626067174304921
40
1
40
1
40
1
40
1
41
1
10
37.6020866466741
20
-8.64211728211953
30
0
41
1
10
37.3834752571066
20
-8.64468037281043
30
0
41
1
10
37.1433355855283
20
-8.64751286558925
30
0
41
1
10
36.8988748133582
20
-8.64908676343373
30
0
41
1
10
36.7511939203686
20
-8.6500375689028
30
0
41
1
10
36.6002740741511
20
-8.65056276238548
30
0
41
1
10
36.4499999999999
20
-8.65056276238548
30
0
0
SPLINE
5
D3
100
AcDbEntity
8
1
62
256
6
ByLayer
370
18
48
1
60
0
100
AcDbSpline
70
4
71
3
72
10
73
6
40
0
40
0
40
0
40
0
40
0.776522458712215
40
0.776522458712215
40
1
40
1
40
1
40
1
41
1
10
34.5170715182527
20
-8.62897737327145
30
0
41
1
10
34.3866320587704
20
-8.62006612779237
30
0
41
1
10
34.2482295671825
20
-8.60557834065492
30
0
41
1
10
34.0703853419068
20
-8.57944185870755
30
0
41
1
10
34.0301351279992
20
-8.57304698081828
30
0
41
1
10
33.9900000000004
20
-8.5661881620953
30
0
0
SPLINE
5
D4
100
AcDbEntity
8
1
62
256
6
ByLayer
370
18
48
1
60
0
100
AcDbSpline
70
4
71
3
72
14
73
10
40
0
40
0
40
0
40
0
40
0.326725296004718
40
0.326725296004718
40
0.652556386511674
40
0.652556386511674
40
0.9937270163514
40
0.9937270163514
40
1
40
1
40
1
40
1
41
1
10
33.64
20
-8.49559112688272
30
0
41
1
10
33.4660679279061
20
-8.45508403599123
30
0
41
1
10
33.2920410869526
20
-8.40469762603092
30
0
41
1
10
32.972181279668
20
-8.29603348469212
30
0
41
1
10
32.821747263807
20
-8.23640609173194
30
0
41
1
10
32.5541016922896
20
-8.12029343525256
30
0
41
1
10
32.4346109785391
20
-8.06242622539745
30
0
41
1
10
32.3419817306071
20
-8.01662163551558
30
0
41
1
10
32.3403214497249
20
-8.01580034159625
30
0
41
1
10
32.3386699403305
20
-8.01498312127839
30
0
0
SPLINE
5
D5
100
AcDbEntity
8
1
62
256
6
ByLayer
370
18
48
1
60
0
100
AcDbSpline
70
4
71
3
72
8
73
4
40
0
40
0
40
0
40
0
40
1
40
1
40
1
40
1
41
1
10
35.095
20
-13.527616791049
30
0
41
1
10
35.0806771411717
20
-13.5534731355321
30
0
41
1
10
35.0659255630524
20
-13.579185186154
30
0
41
1
10
35.0507341641932
20
-13.6047298702906
30
0
0
SPLINE
5
D6
100
AcDbEntity
8
1
62
256
6
ByLayer
370
18
48
1
60
0
100
AcDbSpline
70
4
71
3
72
10
73
6
40
0
40
0
40
0
40
0
40
0.854677730203601
40
0.854677730203601
40
1
40
1
40
1
40
1
41
1
10
34.04
20
-13.6645735692924
30
0
41
1
10
33.9027312775018
20
-13.6645735692924
30
0
41
1
10
33.7635728708148
20
-13.65900023538
30
0
41
1
10
33.6120975113234
20
-13.64679538552
30
0
41
1
10
33.5902559920509
20
-13.6448733814325
30
0
41
1
10
33.5686404991989
20
-13.642812677299
30
0
0
SPLINE
5
D7
100
AcDbEntity
8
1
62
256
6
ByLayer
370
18
48
1
60
0
100
AcDbSpline
70
4
71
2
72
6
73
3
40
0
40
0
40
0
40
1
40
1
40
1
41
0.499999765989824
10
38.8541213779124
20
-8.64166165595521
30
0
41
0.500000234010176
10
38.2282549217015
20
-8.64188355396586
30
0
41
0.499999765989824
10
37.6020866466721
20
-8.64211728211951
30
0
0
SPLINE
5
D8
100
AcDbEntity
8
1
62
256
6
ByLayer
370
18
48
1
60
0
100
AcDbSpline
70
4
71
3
72
12
73
8
40
0
40
0
40
0
40
0
40
0.175092618117955
40
0.175092618117955
40
0.696292694196187
40
0.696292694196187
40
1
40
1
40
1
40
1
41
1
10
35.0507341641932
20
-13.6047298702907
30
0
41
1
10
35.0131104919139
20
-13.6112453696466
30
0
41
1
10
34.973731705066
20
-13.6173528853195
30
0
41
1
10
34.8124364955854
20
-13.6395591191355
30
0
41
1
10
34.6770990943244
20
-13.6519969800849
30
0
41
1
10
34.4570119888813
20
-13.6625666348639
30
0
41
1
10
34.3732894675759
20
-13.6645735692924
30
0
41
1
10
34.2899999999999
20
-13.6645735692924
30
0
0
SPLINE
5
D9
100
AcDbEntity
8
1
62
256
6
ByLayer
370
18
48
1
60
0
100
AcDbSpline
70
4
71
3
72
10
73
6
40
0
40
0
40
0
40
0
40
0.12341769911105
40
0.12341769911105
40
1
40
1
40
1
40
1
41
1
10
34.5170715182527
20
-8.62897737327148
30
0
41
1
10
34.5366551285521
20
-8.63069374520779
30
0
41
1
10
34.5562893133324
20
-8.63231201009944
30
0
41
1
10
34.7155194943096
20
-8.64459587911011
30
0
41
1
10
34.8577833842193
20
-8.65029367853646
30
0
41
1
10
34.9999999999999
20
-8.65049534588567
30
0
0
SPLINE
5
DA
100
AcDbEntity
8
1
62
256
6
ByLayer
370
18
48
1
60
0
100
AcDbSpline
70
4
71
3
72
8
73
4
40
0
40
0
40
0
40
0
40
1
40
1
40
1
40
1
41
1
10
35.095
20
-8.65056276238508
30
0
41
1
10
35.0633272732033
20
-8.65056276238508
30
0
41
1
10
35.0316484876635
20
-8.65054022437266
30
0
41
1
10
34.9999999999999
20
-8.65049534588516
30
0
0
SPLINE
5
DB
100
AcDbEntity
8
1
62
256
6
ByLayer
370
18
48
1
60
0
100
AcDbSpline
70
4
71
3
72
10
73
6
40
0
40
0
40
0
40
0
40
0.5
40
0.5
40
1
40
1
40
1
40
1
41
1
10
35
20
-9.09286640542297
30
0
41
1
10
34.2204560224808
20
-9.21199705347968
30
0
41
1
10
33.4442999649318
20
-9.20698228707957
30
0
41
1
10
31.9013311957751
20
-8.85457939113067
30
0
41
1
10
31.1550485168953
20
-8.50264882954531
30
0
41
1
10
30.5278640450003
20
-7.9151366579008
30
0
0
SPLINE
5
DC
100
AcDbEntity
8
1
62
256
6
ByLayer
370
18
48
1
60
0
100
AcDbSpline
70
4
71
3
72
10
73
6
40
0
40
0
40
0
40
0
40
0.5
40
0.5
40
1
40
1
40
1
40
1
41
1
10
33.9900000000002
20
-8.56618816209524
30
0
41
1
10
33.9313621906479
20
-8.55616736174619
30
0
41
1
10
33.8727678204461
20
-8.54525486984144
30
0
41
1
10
33.7559035144171
20
-8.52167976961945
30
0
41
1
10
33.69779307725
20
-8.50905057346367
30
0
41
1
10
33.64
20
-8.49559112688272
30
0
0
SPLINE
5
DD
100
AcDbEntity
8
1
62
256
6
ByLayer
370
18
48
1
60
0
100
AcDbSpline
70
4
71
3
72
18
73
14
40
0
40
0
40
0
40
0
40
0.0120281340226264
40
0.0120281340226264
40
0.252878479212145
40
0.252878479212145
40
0.496715986971578
40
0.496715986971578
40
0.727998838685906
40
0.727998838685906
40
0.936511158064005
40
0.936511158064005
40
1
40
1
40
1
40
1
41
1
10
24.2
20
-7.03055019392073
30
0
41
1
10
24.2
20
-7.04121940141172
30
0
41
1
10
24.2000893178046
20
-7.05188898220825
30
0
41
1
10
24.2037984796015
20
-7.27348711887097
30
0
41
1
10
24.2430513030176
20
-7.48673991141948
30
0
41
1
10
24.388871382076
20
-7.88511814178491
30
0
41
1
10
24.4985923846618
20
-8.07587091476952
30
0
41
1
10
24.7688002432575
20
-8.39143220773937
30
0
41
1
10
24.9308758087097
20
-8.52383050609288
30
0
41
1
10
25.2707939264656
20
-8.70398598350428
30
0
41
1
10
25.4507197495078
20
-8.76115818729656
30
0
41
1
10
25.6877241196009
20
-8.78892158319391
30
0
41
1
10
25.7439093596914
20
-8.79220794312295
30
0
41
1
10
25.8
20
-8.79220794312295
30
0
0
SPLINE
5
DE
100
AcDbEntity
8
1
62
256
6
ByLayer
370
18
48
1
60
0
100
AcDbSpline
70
4
71
3
72
8
73
4
40
0
40
0
40
0
40
0
40
1
40
1
40
1
40
1
41
1
10
35.095
20
-13.6048261897997
30
0
41
1
10
35.0802440013693
20
-13.6048261897997
30
0
41
1
10
35.0654872828559
20
-13.6047940766317
30
0
41
1
10
35.0507341641932
20
-13.6047298702907
30
0
0
SPLINE
5
DF
100
AcDbEntity
8
1
62
256
6
ByLayer
370
18
48
1
60
0
100
AcDbSpline
70
4
71
5
72
12
73
6
40
0
40
0
40
0
40
0
40
0
40
0
40
1
40
1
40
1
40
1
40
1
40
1
41
1
10
39.870716309963
20
-12.2497437896251
30
0
41
1
10
39.8680996959343
20
-12.2634446789596
30
0
41
1
10
39.8660245165041
20
-12.2784162925908
30
0
41
1
10
39.8642388607174
20
-12.2949216749103
30
0
41
1
10
39.861595299801
20
-12.3086373993089
30
0
41
1
10
39.8592030701855
20
-12.3225490569413
30
0
0
SPLINE
5
E0
100
AcDbEntity
8
1
62
256
6
ByLayer
370
18
48
1
60
0
100
AcDbSpline
70
4
71
1
72
4
73
2
40
0
40
0
40
1
40
1
41
1
10
40.0700811804463
20
-10.9375000001146
30
0
41
1
10
40.0700619296417
20
-10.3023836768354
30
0
0
SPLINE
5
E1
100
AcDbEntity
8
1
62
256
6
ByLayer
370
18
48
1
60
0
100
AcDbSpline
70
4
71
11
72
24
73
12
40
0
40
0
40
0
40
0
40
0
40
0
40
0
40
0
40
0
40
0
40
0
40
0
40
1
40
1
40
1
40
1
40
1
40
1
40
1
40
1
40
1
40
1
40
1
40
1
41
1
10
45.69999410005
20
-13.0625000000051
30
0
41
1
10
45.69999410005
20
-13.1196198668251
30
0
41
1
10
45.69102173181
20
-13.176739729585
30
0
41
1
10
45.6730769975999
20
-13.2322936298751
30
0
41
1
10
45.6464673718199
20
-13.2847155703751
30
0
41
1
10
45.61180781475
20
-13.3325085935551
30
0
41
1
10
45.57000269439
20
-13.3743137143251
30
0
41
1
10
45.52220967146
20
-13.4089732725851
30
0
41
1
10
45.4697877257399
20
-13.4355828972851
30
0
41
1
10
45.41423383289
20
-13.453527632435
30
0
41
1
10
45.35711396647
20
-13.4625000000051
30
0
41
1
10
45.29999410005
20
-13.4625000000051
30
0
0
SPLINE
5
E2
100
AcDbEntity
8
1
62
256
6
ByLayer
370
18
48
1
60
0
100
AcDbSpline
70
4
71
3
72
8
73
4
40
0
40
0
40
0
40
0
40
1
40
1
40
1
40
1
41
1
10
40.0700875694315
20
-10.9374999998953
30
0
41
1
10
40.0700868189106
20
-11.1492054408169
30
0
41
1
10
40.0700860684174
20
-11.3609108817385
30
0
41
1
10
40.0700853179519
20
-11.5726163226601
30
0
0
SPLINE
5
E3
100
AcDbEntity
8
1
62
256
6
ByLayer
370
18
48
1
60
0
100
AcDbSpline
70
4
71
5
72
12
73
6
40
0
40
0
40
0
40
0
40
0
40
0
40
1
40
1
40
1
40
1
40
1
40
1
41
1
10
40.0810596981238
20
-12.3797083517221
30
0
41
1
10
40.089862000691
20
-12.3661202230689
30
0
41
1
10
40.0983452649875
20
-12.3527224070706
30
0
41
1
10
40.1065094910119
20
-12.3395149037472
30
0
41
1
10
40.1143546787633
20
-12.3264977130787
30
0
41
1
10
40.1218808282405
20
-12.3136708350651
30
0
0
SPLINE
5
E4
100
AcDbEntity
8
1
62
256
6
ByLayer
370
18
48
1
60
0
100
AcDbSpline
70
4
71
11
72
24
73
12
40
0
40
0
40
0
40
0
40
0
40
0
40
0
40
0
40
0
40
0
40
0
40
0
40
1
40
1
40
1
40
1
40
1
40
1
40
1
40
1
40
1
40
1
40
1
40
1
41
1
10
45.29999410005
20
-13.4624999999951
30
0
41
1
10
45.28809412788
20
-13.4624999999951
30
0
41
1
10
45.2761941556999
20
-13.4624480765751
30
0
41
1
10
45.26429443527
20
-13.4623442297251
30
0
41
1
10
45.25239521829
20
-13.462188460835
30
0
41
1
10
45.2404967565
20
-13.4619807726251
30
0
41
1
10
45.22859930161
20
-13.4617211692451
30
0
41
1
10
45.21670310528
20
-13.4614096561651
30
0
41
1
10
45.20480841918
20
-13.4610462402451
30
0
41
1
10
45.1929154949
20
-13.4606309297451
30
0
41
1
10
45.181024584
20
-13.4601637342551
30
0
41
1
10
45.1691359379699
20
-13.459644664765
30
0
0
SPLINE
5
E5
100
AcDbEntity
8
1
62
256
6
ByLayer
370
18
48
1
60
0
100
AcDbSpline
70
4
71
11
72
24
73
12
40
0
40
0
40
0
40
0
40
0
40
0
40
0
40
0
40
0
40
0
40
0
40
0
40
1
40
1
40
1
40
1
40
1
40
1
40
1
40
1
40
1
40
1
40
1
40
1
41
1
10
41.77618727128
20
-13.3115053267251
30
0
41
1
10
41.7674689308
20
-13.311124675755
30
0
41
1
10
41.75876886044
20
-13.3103255744751
30
0
41
1
10
41.7501093757299
20
-13.3091089972151
30
0
41
1
10
41.7415127339299
20
-13.3074772571651
30
0
41
1
10
41.7330010420699
20
-13.3054340023351
30
0
41
1
10
41.7245961655
20
-13.3029842042351
30
0
41
1
10
41.7163196373499
20
-13.300134139185
30
0
41
1
10
41.70819256983
20
-13.2968913624851
30
0
41
1
10
41.70023556791
20
-13.293264675525
30
0
41
1
10
41.69246864607
20
-13.289264086225
30
0
41
1
10
41.6849111487199
20
-13.2849007630951
30
0
0
SPLINE
5
E6
100
AcDbEntity
8
1
62
256
6
ByLayer
370
18
48
1
60
0
100
AcDbSpline
70
4
71
5
72
12
73
6
40
0
40
0
40
0
40
0
40
0
40
0
40
1
40
1
40
1
40
1
40
1
40
1
41
1
10
39.8706821432464
20
-12.2497537088604
30
0
41
1
10
39.8535073835389
20
-12.255647690436
30
0
41
1
10
39.8336995697386
20
-12.2612653402
30
0
41
1
10
39.8114653642039
20
-12.2665341754624
30
0
41
1
10
39.7870772823163
20
-12.2714062632385
30
0
41
1
10
39.7608548419852
20
-12.2758538772053
30
0
0
SPLINE
5
E7
100
AcDbEntity
8
1
62
256
6
ByLayer
370
18
48
1
60
0
100
AcDbSpline
70
4
71
5
72
12
73
6
40
0
40
0
40
0
40
0
40
0
40
0
40
1
40
1
40
1
40
1
40
1
40
1
41
1
10
40.1273167035644
20
-9.57836245541702
30
0
41
1
10
40.0650186086081
20
-9.5895321563265
30
0
41
1
10
40.0026874203335
20
-9.61410809803095
30
0
41
1
10
39.9493156068537
20
-9.65061976373912
30
0
41
1
10
39.9133942129257
20
-9.69325832848381
30
0
41
1
10
39.897071937741
20
-9.73587271829507
30
0
0
SPLINE
5
E8
100
AcDbEntity
8
1
62
256
6
ByLayer
370
18
48
1
60
0
100
AcDbSpline
70
4
71
11
72
24
73
12
40
0
40
0
40
0
40
0
40
0
40
0
40
0
40
0
40
0
40
0
40
0
40
0
40
1
40
1
40
1
40
1
40
1
40
1
40
1
40
1
40
1
40
1
40
1
40
1
41
1
10
41.77618727128
20
-8.56349467328505
30
0
41
1
10
41.7674689308
20
-8.56387532425506
30
0
41
1
10
41.75876886044
20
-8.56467442553506
30
0
41
1
10
41.7501093757299
20
-8.56589100279507
30
0
41
1
10
41.7415127339299
20
-8.56752274284506
30
0
41
1
10
41.7330010420699
20
-8.56956599767506
30
0
41
1
10
41.7245961655
20
-8.57201579577506
30
0
41
1
10
41.7163196373499
20
-8.57486586082507
30
0
41
1
10
41.70819256983
20
-8.57810863752505
30
0
41
1
10
41.70023556791
20
-8.58173532448507
30
0
41
1
10
41.69246864607
20
-8.58573591378507
30
0
41
1
10
41.6849111487199
20
-8.59009923691505
30
0
0
SPLINE
5
E9
100
AcDbEntity
8
1
62
256
6
ByLayer
370
18
48
1
60
0
100
AcDbSpline
70
4
71
9
72
20
73
10
40
0
40
0
40
0
40
0
40
0
40
0
40
0
40
0
40
0
40
0
40
1
40
1
40
1
40
1
40
1
40
1
40
1
40
1
40
1
40
1
41
1
10
40.300360091922
20
-11.5726156973651
30
0
41
1
10
40.267095086068
20
-11.5726156973651
30
0
41
1
10
40.23383008222
20
-11.5726156973651
30
0
41
1
10
40.2014517190362
20
-11.5726156973651
30
0
41
1
10
40.1708466540591
20
-11.5726156973651
30
0
41
1
10
40.1428574124292
20
-11.5726156973651
30
0
41
1
10
40.1182382944577
20
-11.5726156973651
30
0
41
1
10
40.0976167607471
20
-11.5726156973651
30
0
41
1
10
40.081465717818
20
-11.5726156973651
30
0
41
1
10
40.0700884157284
20
-11.5726156973651
30
0
0
SPLINE
5
EA
100
AcDbEntity
8
1
62
256
6
ByLayer
370
18
48
1
60
0
100
AcDbSpline
70
4
71
9
72
20
73
10
40
0
40
0
40
0
40
0
40
0
40
0
40
0
40
0
40
0
40
0
40
1
40
1
40
1
40
1
40
1
40
1
40
1
40
1
40
1
40
1
41
1
10
40.5048669519183
20
-12.6036019295324
30
0
41
1
10
40.4892050391792
20
-12.5945595199996
30
0
41
1
10
40.4730831978508
20
-12.5863137309361
30
0
41
1
10
40.4565477346532
20
-12.5788912980226
30
0
41
1
10
40.4396467700863
20
-12.572315816296
30
0
41
1
10
40.4224299823212
20
-12.5666075928168
30
0
41
1
10
40.4049483365208
20
-12.5617835250777
30
0
41
1
10
40.3872538027408
20
-12.5578570074514
30
0
41
1
10
40.3693990663215
20
-12.5548378670159
30
0
41
1
10
40.3514372347844
20
-12.5527323291861
30
0
0
SPLINE
5
EB
100
AcDbEntity
8
1
62
256
6
ByLayer
370
18
48
1
60
0
100
AcDbSpline
70
4
71
5
72
12
73
6
40
0
40
0
40
0
40
0
40
0
40
0
40
1
40
1
40
1
40
1
40
1
40
1
41
1
10
40.0700884349513
20
-11.5726165818671
30
0
41
1
10
40.0354851355092
20
-11.6859187218361
30
0
41
1
10
40.000881836067
20
-11.7992208618041
30
0
41
1
10
39.9662785366249
20
-11.912523001773
30
0
41
1
10
39.931675237183
20
-12.0258251417451
30
0
41
1
10
39.897071937741
20
-12.139127281715
30
0
0
SPLINE
5
EC
100
AcDbEntity
8
1
62
256
6
ByLayer
370
18
48
1
60
0
100
AcDbSpline
70
4
71
3
72
9
73
5
40
0
40
0
40
0
40
0
40
0.588846723710304
40
1
40
1
40
1
40
1
41
1
10
41.73243767813
20
-9.56132805698488
30
0
41
1
10
41.7858787416594
20
-9.52975663408546
30
0
41
1
10
41.8766342156691
20
-9.47614094492872
30
0
41
1
10
41.9051751399737
20
-9.36902782110062
30
0
41
1
10
41.91690983451
20
-9.32498790930507
30
0
0
SPLINE
5
ED
100
AcDbEntity
8
1
62
256
6
ByLayer
370
18
48
1
60
0
100
AcDbSpline
70
4
71
5
72
12
73
6
40
0
40
0
40
0
40
0
40
0
40
0
40
1
40
1
40
1
40
1
40
1
40
1
41
1
10
39.8591989539868
20
-9.55244093279262
30
0
41
1
10
39.8423808019004
20
-9.55942066310541
30
0
41
1
10
39.823690880656
20
-9.56643112037142
30
0
41
1
10
39.8032508177178
20
-9.57342251112343
30
0
41
1
10
39.7812041636134
20
-9.58034462577535
30
0
41
1
10
39.7577142274463
20
-9.5871482923794
30
0
0
SPLINE
5
EE
100
AcDbEntity
8
1
62
256
6
ByLayer
370
18
48
1
60
0
100
AcDbSpline
70
4
71
5
72
12
73
6
40
0
40
0
40
0
40
0
40
0
40
0
40
1
40
1
40
1
40
1
40
1
40
1
41
1
10
39.8706821432464
20
-9.62524629114975
30
0
41
1
10
39.8535073835389
20
-9.61935230957414
30
0
41
1
10
39.8336995697386
20
-9.61373465981012
30
0
41
1
10
39.8114653642039
20
-9.60846582454775
30
0
41
1
10
39.7870772823163
20
-9.6035937367717
30
0
41
1
10
39.7608548419852
20
-9.59914612280483
30
0
0
SPLINE
5
EF
100
AcDbEntity
8
1
62
256
6
ByLayer
370
18
48
1
60
0
100
AcDbSpline
70
4
71
5
72
12
73
6
40
0
40
0
40
0
40
0
40
0
40
0
40
1
40
1
40
1
40
1
40
1
40
1
41
1
10
40.0809926348635
20
-9.49528002462702
30
0
41
1
10
40.0283047413762
20
-9.5113787488923
30
0
41
1
10
39.9756068263304
20
-9.53481158157655
30
0
41
1
10
39.9286294369364
20
-9.56386696895734
30
0
41
1
10
39.8929153921762
20
-9.59511652568264
30
0
41
1
10
39.8707889950016
20
-9.62528831378717
30
0
0
SPLINE
5
F0
100
AcDbEntity
8
1
62
256
6
ByLayer
370
18
48
1
60
0
100
AcDbSpline
70
4
71
2
72
8
73
5
40
0
40
0
40
0
40
0.5
40
0.5
40
1
40
1
40
1
41
1
10
40.5594369556139
20
-11.5726165858541
30
0
41
1
10
40.5596649450379
20
-11.6225744559614
30
0
41
1
10
40.6010116993786
20
-11.6682002184495
30
0
41
1
10
40.6313664320322
20
-11.7016963862752
30
0
41
1
10
40.6823832727379
20
-11.7301316897131
30
0
0
SPLINE
5
F1
100
AcDbEntity
8
1
62
256
6
ByLayer
370
18
48
1
60
0
100
AcDbSpline
70
4
71
2
72
8
73
5
40
0
40
0
40
0
40
0.5
40
0.5
40
1
40
1
40
1
41
1
10
41.73243767813
20
-12.3136719435751
30
0
41
1
10
41.8084140753114
20
-12.3557689703282
30
0
41
1
10
41.8550046810585
20
-12.4071781438057
30
0
41
1
10
41.9171727153043
20
-12.475775819368
30
0
41
1
10
41.9169098345091
20
-12.550012090705
30
0
0
SPLINE
5
F2
100
AcDbEntity
8
1
62
256
6
ByLayer
370
18
48
1
60
0
100
AcDbSpline
70
4
71
1
72
4
73
2
40
0
40
0
40
1
40
1
41
1
10
39.8143412415496
20
-10.4063017585615
30
0
41
1
10
39.8970455023359
20
-9.73587371220026
30
0
0
SPLINE
5
F3
100
AcDbEntity
8
1
62
256
6
ByLayer
370
18
48
1
60
0
100
AcDbSpline
70
4
71
5
72
12
73
6
40
0
40
0
40
0
40
0
40
0
40
0
40
1
40
1
40
1
40
1
40
1
40
1
41
1
10
40.0622714281259
20
-9.46147273437506
30
0
41
1
10
40.051502710216
20
-9.43672697382505
30
0
41
1
10
40.0411905632263
20
-9.41035657708505
30
0
41
1
10
40.0344279875495
20
-9.38250482072505
30
0
41
1
10
40.0303972904948
20
-9.35396546025507
30
0
41
1
10
40.0304643667597
20
-9.32498806492507
30
0
0
SPLINE
5
F4
100
AcDbEntity
8
1
62
256
6
ByLayer
370
18
48
1
60
0
100
AcDbSpline
70
4
71
5
72
12
73
6
40
0
40
0
40
0
40
0
40
0
40
0
40
1
40
1
40
1
40
1
40
1
40
1
41
1
10
39.89392022194
20
-12.1537480977051
30
0
41
1
10
39.910777641904
20
-12.1962589114651
30
0
41
1
10
39.946627639221
20
-12.2389949142151
30
0
41
1
10
39.999282324339
20
-12.2759533905951
30
0
41
1
10
40.0605544852975
20
-12.3013877128151
30
0
41
1
10
40.1217938790768
20
-12.313693279535
30
0
0
SPLINE
5
F5
100
AcDbEntity
8
1
62
256
6
ByLayer
370
18
48
1
60
0
100
AcDbSpline
70
4
71
9
72
20
73
10
40
0
40
0
40
0
40
0
40
0
40
0
40
0
40
0
40
0
40
0
40
1
40
1
40
1
40
1
40
1
40
1
40
1
40
1
40
1
40
1
41
1
10
40.300360091922
20
-10.3023843026451
30
0
41
1
10
40.267095086068
20
-10.3023843026451
30
0
41
1
10
40.23383008222
20
-10.3023843026451
30
0
41
1
10
40.2014517190362
20
-10.3023843026451
30
0
41
1
10
40.1708466540591
20
-10.3023843026451
30
0
41
1
10
40.1428574124292
20
-10.3023843026451
30
0
41
1
10
40.1182382944577
20
-10.3023843026451
30
0
41
1
10
40.0976167607471
20
-10.3023843026451
30
0
41
1
10
40.081465717818
20
-10.3023843026451
30
0
41
1
10
40.0700884157284
20
-10.3023843026451
30
0
0
SPLINE
5
F6
100
AcDbEntity
8
1
62
256
6
ByLayer
370
18
48
1
60
0
100
AcDbSpline
70
4
71
3
72
8
73
4
40
0
40
0
40
0
40
0
40
1
40
1
40
1
40
1
41
1
10
40.307246781524
20
-12.550012090705
30
0
41
1
10
40.3219759706263
20
-12.550012090705
30
0
41
1
10
40.3367051597286
20
-12.550012090705
30
0
41
1
10
40.351434348831
20
-12.550012090705
30
0
0
SPLINE
5
F7
100
AcDbEntity
8
1
62
256
6
ByLayer
370
18
48
1
60
0
100
AcDbSpline
70
4
71
5
72
12
73
6
40
0
40
0
40
0
40
0
40
0
40
0
40
1
40
1
40
1
40
1
40
1
40
1
41
1
10
40.0809488747473
20
-12.3796776338338
30
0
41
1
10
40.0768425614236
20
-12.3860986227432
30
0
41
1
10
40.0725802264713
20
-12.392564727628
30
0
41
1
10
40.0689138304743
20
-12.3993433689869
30
0
41
1
10
40.0655938313388
20
-12.4063935194873
30
0
41
1
10
40.062368394917
20
-12.413525613705
30
0
0
SPLINE
5
F8
100
AcDbEntity
8
1
62
256
6
ByLayer
370
18
48
1
60
0
100
AcDbSpline
70
4
71
5
72
12
73
6
40
0
40
0
40
0
40
0
40
0
40
0
40
1
40
1
40
1
40
1
40
1
40
1
41
1
10
40.300360106865
20
-11.7301316678671
30
0
41
1
10
40.2380566425319
20
-11.7189656346511
30
0
41
1
10
40.1757177484666
20
-11.6943906634761
30
0
41
1
10
40.1223383098857
20
-11.6578769025681
30
0
41
1
10
40.0864121200294
20
-11.6152346526591
30
0
41
1
10
40.0700884349513
20
-11.5726165818671
30
0
0
SPLINE
5
F9
100
AcDbEntity
8
1
62
256
6
ByLayer
370
18
48
1
60
0
100
AcDbSpline
70
4
71
5
72
12
73
6
40
0
40
0
40
0
40
0
40
0
40
0
40
1
40
1
40
1
40
1
40
1
40
1
41
1
10
39.8707609448296
20
-9.62532657452209
30
0
41
1
10
39.8757427058163
20
-9.64537370571736
30
0
41
1
10
39.8805555384075
20
-9.66499160063657
30
0
41
1
10
39.8851994426031
20
-9.68418025929969
30
0
41
1
10
39.8896744184023
20
-9.70293968169679
30
0
41
1
10
39.8939804658028
20
-9.7212698678378
30
0
0
SPLINE
5
FA
100
AcDbEntity
8
1
62
256
6
ByLayer
370
18
48
1
60
0
100
AcDbSpline
70
4
71
5
72
12
73
6
40
0
40
0
40
0
40
0
40
0
40
0
40
1
40
1
40
1
40
1
40
1
40
1
41
1
10
40.0304720950698
20
-12.550012090625
30
0
41
1
10
39.9861298701949
20
-12.550012090625
30
0
41
1
10
39.941784744106
20
-12.5500117876051
30
0
41
1
10
39.900473298138
20
-12.5500111807651
30
0
41
1
10
39.865191164503
20
-12.5500103141051
30
0
41
1
10
39.837793588954
20
-12.5500092602951
30
0
0
SPLINE
5
FB
100
AcDbEntity
8
1
62
256
6
ByLayer
370
18
48
1
60
0
100
AcDbSpline
70
4
71
5
72
12
73
6
40
0
40
0
40
0
40
0
40
0
40
0
40
1
40
1
40
1
40
1
40
1
40
1
41
1
10
39.8970459440699
20
-9.73587013136506
30
0
41
1
10
39.8964608179069
20
-9.73293952603592
30
0
41
1
10
39.8958558241577
20
-9.73001251688103
30
0
41
1
10
39.8952308758299
20
-9.72708918953947
30
0
41
1
10
39.8945858905018
20
-9.72416962735213
30
0
41
1
10
39.8939207904317
20
-9.72125391127176
30
0
0
SPLINE
5
FC
100
AcDbEntity
8
1
62
256
6
ByLayer
370
18
48
1
60
0
100
AcDbSpline
70
4
71
3
72
9
73
5
40
0
40
0
40
0
40
0
40
0.412100802885575
40
1
40
1
40
1
40
1
41
1
10
40.559436955614
20
-10.3023834141561
30
0
41
1
10
40.5673618035288
20
-10.2730090451007
30
0
41
1
10
40.5865921662444
20
-10.2017294726036
30
0
41
1
10
40.646917851066
20
-10.1659204222496
30
0
41
1
10
40.682383272738
20
-10.1448683102971
30
0
0
SPLINE
5
FD
100
AcDbEntity
8
1
62
256
6
ByLayer
370
18
48
1
60
0
100
AcDbSpline
70
4
71
5
72
12
73
6
40
0
40
0
40
0
40
0
40
0
40
0
40
1
40
1
40
1
40
1
40
1
40
1
41
1
10
40.1273166859716
20
-9.57836241217507
30
0
41
1
10
40.1262732727162
20
-9.5749459325117
30
0
41
1
10
40.125199975652
20
-9.57153357579259
30
0
41
1
10
40.1240966747497
20
-9.56812555185013
30
0
41
1
10
40.1229632499266
20
-9.56472207735987
30
0
41
1
10
40.1217995819307
20
-9.56132337579078
30
0
0
SPLINE
5
FE
100
AcDbEntity
8
1
62
256
6
ByLayer
370
18
48
1
60
0
100
AcDbSpline
70
4
71
5
72
12
73
6
40
0
40
0
40
0
40
0
40
0
40
0
40
1
40
1
40
1
40
1
40
1
40
1
41
1
10
40.3003579409989
20
-10.3023843026451
30
0
41
1
10
40.3003583251059
20
-10.2681692688331
30
0
41
1
10
40.300358732302
20
-10.2339535066231
30
0
41
1
10
40.300359275028
20
-10.2011287551641
30
0
41
1
10
40.300360290847
20
-10.1710797129161
30
0
41
1
10
40.300359995202
20
-10.144868143136
30
0
0
SPLINE
5
FF
100
AcDbEntity
8
1
62
256
6
ByLayer
370
18
48
1
60
0
100
AcDbSpline
70
4
71
5
72
12
73
6
40
0
40
0
40
0
40
0
40
0
40
0
40
1
40
1
40
1
40
1
40
1
40
1
41
1
10
40.0623536673937
20
-9.46147887471614
30
0
41
1
10
40.0136302807653
20
-9.47280562447253
30
0
41
1
10
39.964901070959
20
-9.48890735057327
30
0
41
1
10
39.9204574977565
20
-9.50880683301051
30
0
41
1
10
39.8844967382421
20
-9.53062481086974
30
0
41
1
10
39.8592011634819
20
-9.55243985449505
30
0
0
SPLINE
5
100
100
AcDbEntity
8
1
62
256
6
ByLayer
370
18
48
1
60
0
100
AcDbSpline
70
4
71
11
72
24
73
12
40
0
40
0
40
0
40
0
40
0
40
0
40
0
40
0
40
0
40
0
40
0
40
0
40
1
40
1
40
1
40
1
40
1
40
1
40
1
40
1
40
1
40
1
40
1
40
1
41
1
10
45.29999410005
20
-8.41250000001506
30
0
41
1
10
45.28809412788
20
-8.41250000001506
30
0
41
1
10
45.2761941556999
20
-8.41255192343507
30
0
41
1
10
45.26429443527
20
-8.41265577028506
30
0
41
1
10
45.25239521829
20
-8.41281153917507
30
0
41
1
10
45.2404967565
20
-8.41301922738506
30
0
41
1
10
45.22859930161
20
-8.41327883076505
30
0
41
1
10
45.21670310528
20
-8.41359034384507
30
0
41
1
10
45.20480841918
20
-8.41395375976506
30
0
41
1
10
45.1929154949
20
-8.41436907026505
30
0
41
1
10
45.181024584
20
-8.41483626575507
30
0
41
1
10
45.1691359379699
20
-8.41535533524507
30
0
0
SPLINE
5
101
100
AcDbEntity
8
1
62
256
6
ByLayer
370
18
48
1
60
0
100
AcDbSpline
70
4
71
5
72
12
73
6
40
0
40
0
40
0
40
0
40
0
40
0
40
1
40
1
40
1
40
1
40
1
40
1
41
1
10
40.300360106865
20
-10.1448683321431
30
0
41
1
10
40.2380566425319
20
-10.1560343653591
30
0
41
1
10
40.1757177484666
20
-10.1806093365341
30
0
41
1
10
40.1223383098857
20
-10.2171230974421
30
0
41
1
10
40.0864121200294
20
-10.2597653473511
30
0
41
1
10
40.0700884349513
20
-10.302383418143
30
0
0
SPLINE
5
102
100
AcDbEntity
8
1
62
256
6
ByLayer
370
18
48
1
60
0
100
AcDbSpline
70
4
71
5
72
12
73
6
40
0
40
0
40
0
40
0
40
0
40
0
40
1
40
1
40
1
40
1
40
1
40
1
41
1
10
40.1273166859716
20
-12.2966375878351
30
0
41
1
10
40.0650132342345
20
-12.285471528445
30
0
41
1
10
40.0026743097189
20
-12.2608965530751
30
0
41
1
10
39.94929490456
20
-12.224382880595
30
0
41
1
10
39.9133687067589
20
-12.1817405372151
30
0
41
1
10
39.897045030944
20
-12.139122460715
30
0
0
SPLINE
5
103
100
AcDbEntity
8
1
62
256
6
ByLayer
370
18
48
1
60
0
100
AcDbSpline
70
4
71
5
72
12
73
6
40
0
40
0
40
0
40
0
40
0
40
0
40
1
40
1
40
1
40
1
40
1
40
1
41
1
10
39.8377850092383
20
-9.32499651465398
30
0
41
1
10
39.8130286938503
20
-9.32499651465571
30
0
41
1
10
39.7851162882071
20
-9.3249965146573
30
0
41
1
10
39.7543794794908
20
-9.32499651465895
30
0
41
1
10
39.7212358150094
20
-9.3249965146606
30
0
41
1
10
39.6861540092382
20
-9.32499651466225
30
0
0
SPLINE
5
104
100
AcDbEntity
8
1
62
256
6
ByLayer
370
18
48
1
60
0
100
AcDbSpline
70
4
71
5
72
12
73
6
40
0
40
0
40
0
40
0
40
0
40
0
40
1
40
1
40
1
40
1
40
1
40
1
41
1
10
40.300360046885
20
-11.5726165858541
30
0
41
1
10
40.300360076687
20
-11.6068319348901
30
0
41
1
10
40.300360150783
20
-11.6410477629881
30
0
41
1
10
40.300360105034
20
-11.6738724689081
30
0
41
1
10
40.300360166618
20
-11.7039212117071
30
0
41
1
10
40.300359995202
20
-11.7301316897131
30
0
0
SPLINE
5
105
100
AcDbEntity
8
1
62
256
6
ByLayer
370
18
48
1
60
0
100
AcDbSpline
70
4
71
5
72
12
73
6
40
0
40
0
40
0
40
0
40
0
40
0
40
1
40
1
40
1
40
1
40
1
40
1
41
1
10
39.8377850092383
20
-12.5500034853561
30
0
41
1
10
39.8130286938503
20
-12.5500034853544
30
0
41
1
10
39.7851162882071
20
-12.5500034853528
30
0
41
1
10
39.7543794794908
20
-12.5500034853512
30
0
41
1
10
39.7212358150094
20
-12.5500034853495
30
0
41
1
10
39.6861540092382
20
-12.5500034853479
30
0
0
SPLINE
5
106
100
AcDbEntity
8
1
62
256
6
ByLayer
370
18
48
1
60
0
100
AcDbSpline
70
4
71
11
72
24
73
12
40
0
40
0
40
0
40
0
40
0
40
0
40
0
40
0
40
0
40
0
40
0
40
0
40
1
40
1
40
1
40
1
40
1
40
1
40
1
40
1
40
1
40
1
40
1
40
1
41
1
10
45.69999410005
20
-8.81250000000506
30
0
41
1
10
45.69999410005
20
-8.75538013318507
30
0
41
1
10
45.69102173181
20
-8.69826027042507
30
0
41
1
10
45.6730769975999
20
-8.64270637013507
30
0
41
1
10
45.6464673718199
20
-8.59028442963506
30
0
41
1
10
45.61180781475
20
-8.54249140645507
30
0
41
1
10
45.57000269439
20
-8.50068628568505
30
0
41
1
10
45.52220967146
20
-8.46602672742506
30
0
41
1
10
45.4697877257399
20
-8.43941710272506
30
0
41
1
10
45.41423383289
20
-8.42147236757506
30
0
41
1
10
45.35711396647
20
-8.41250000000505
30
0
41
1
10
45.29999410005
20
-8.41250000000505
30
0
0
SPLINE
5
107
100
AcDbEntity
8
1
62
256
6
ByLayer
370
18
48
1
60
0
100
AcDbSpline
70
4
71
3
72
8
73
4
40
0
40
0
40
0
40
0
40
1
40
1
40
1
40
1
41
1
10
39.8706586681847
20
-12.249665312205
30
0
41
1
10
39.878409446971
20
-12.2176869232528
30
0
41
1
10
39.8861602257574
20
-12.1857085343006
30
0
41
1
10
39.8939110045437
20
-12.1537301453484
30
0
0
SPLINE
5
108
100
AcDbEntity
8
1
62
256
6
ByLayer
370
18
48
1
60
0
100
AcDbSpline
70
4
71
1
72
4
73
2
40
0
40
0
40
1
40
1
41
1
10
39.8143432841274
20
-11.4684632917392
30
0
41
1
10
39.8970950775786
20
-12.1391262858589
30
0
0
SPLINE
5
109
100
AcDbEntity
8
1
62
256
6
ByLayer
370
18
48
1
60
0
100
AcDbSpline
70
4
71
5
72
12
73
6
40
0
40
0
40
0
40
0
40
0
40
0
40
1
40
1
40
1
40
1
40
1
40
1
41
1
10
39.8970459440699
20
-12.1391298686451
30
0
41
1
10
39.8964608179069
20
-12.1420604739742
30
0
41
1
10
39.8958558241577
20
-12.1449874831291
30
0
41
1
10
39.8952308758299
20
-12.1479108104707
30
0
41
1
10
39.8945858905018
20
-12.150830372658
30
0
41
1
10
39.8939207904317
20
-12.1537460887384
30
0
0
SPLINE
5
10A
100
AcDbEntity
8
1
62
256
6
ByLayer
370
18
48
1
60
0
100
AcDbSpline
70
4
71
2
72
6
73
3
40
0
40
0
40
0
40
1
40
1
40
1
41
1
10
40.5048669519149
20
-9.27139807047504
30
0
41
1
10
40.4336659567316
20
-9.31237300963571
30
0
41
1
10
40.351431218547
20
-9.32221634835506
30
0
0
SPLINE
5
10B
100
AcDbEntity
8
1
62
256
6
ByLayer
370
18
48
1
60
0
100
AcDbSpline
70
4
71
3
72
8
73
4
40
0
40
0
40
0
40
0
40
1
40
1
40
1
40
1
41
1
10
39.8939877545946
20
-9.7212506705977
30
0
41
1
10
39.9220689352034
20
-9.65041502393186
30
0
41
1
10
40.0197490741392
20
-9.58185030563618
30
0
41
1
10
40.1217938256455
20
-9.5613251718878
30
0
0
SPLINE
5
10C
100
AcDbEntity
8
1
62
256
6
ByLayer
370
18
48
1
60
0
100
AcDbSpline
70
4
71
5
72
12
73
6
40
0
40
0
40
0
40
0
40
0
40
0
40
1
40
1
40
1
40
1
40
1
40
1
41
1
10
39.859199739551
20
-12.3225584613251
30
0
41
1
10
39.8512387951281
20
-12.3665608652744
30
0
41
1
10
39.8446978569633
20
-12.411661202608
30
0
41
1
10
39.8401059409295
20
-12.4575139802994
30
0
41
1
10
39.8377843548698
20
-12.5037426683
30
0
41
1
10
39.837793415607
20
-12.5500081335984
30
0
0
SPLINE
5
10D
100
AcDbEntity
8
1
62
256
6
ByLayer
370
18
48
1
60
0
100
AcDbSpline
70
4
71
5
72
12
73
6
40
0
40
0
40
0
40
0
40
0
40
0
40
1
40
1
40
1
40
1
40
1
40
1
41
1
10
40.0809488747473
20
-9.49532236617631
30
0
41
1
10
40.0768425614236
20
-9.48890137726693
30
0
41
1
10
40.0725802264713
20
-9.48243527238208
30
0
41
1
10
40.0689138304743
20
-9.47565663102318
30
0
41
1
10
40.0655938313388
20
-9.46860648052282
30
0
41
1
10
40.062368394917
20
-9.46147438630504
30
0
0
SPLINE
5
10E
100
AcDbEntity
8
1
62
256
6
ByLayer
370
18
48
1
60
0
100
AcDbSpline
70
4
71
3
72
8
73
4
40
0
40
0
40
0
40
0
40
1
40
1
40
1
40
1
41
1
10
40.0810596981237
20
-9.49526635789252
30
0
41
1
10
40.0946657991445
20
-9.51727945091588
30
0
41
1
10
40.1082719001653
20
-9.53929254393921
30
0
41
1
10
40.1218780011861
20
-9.56130563696257
30
0
0
SPLINE
5
10F
100
AcDbEntity
8
1
62
256
6
ByLayer
370
18
48
1
60
0
100
AcDbSpline
70
4
71
5
72
12
73
6
40
0
40
0
40
0
40
0
40
0
40
0
40
1
40
1
40
1
40
1
40
1
40
1
41
1
10
39.859199739551
20
-9.55244153868506
30
0
41
1
10
39.8512387951281
20
-9.50843913473571
30
0
41
1
10
39.8446978569633
20
-9.46333879740214
30
0
41
1
10
39.8401059409295
20
-9.41748601971074
30
0
41
1
10
39.8377843548698
20
-9.37125733171013
30
0
41
1
10
39.837793415607
20
-9.32499186641166
30
0
0
SPLINE
5
110
100
AcDbEntity
8
1
62
256
6
ByLayer
370
18
48
1
60
0
100
AcDbSpline
70
4
71
5
72
12
73
6
40
0
40
0
40
0
40
0
40
0
40
0
40
1
40
1
40
1
40
1
40
1
40
1
41
1
10
39.8591989539868
20
-12.3225590672175
30
0
41
1
10
39.8423808019004
20
-12.3155793369047
30
0
41
1
10
39.823690880656
20
-12.3085688796387
30
0
41
1
10
39.8032508177178
20
-12.3015774888867
30
0
41
1
10
39.7812041636134
20
-12.2946553742347
30
0
41
1
10
39.7577142274463
20
-12.2878517076307
30
0
0
SPLINE
5
111
100
AcDbEntity
8
1
62
256
6
ByLayer
370
18
48
1
60
0
100
AcDbSpline
70
4
71
3
72
9
73
5
40
0
40
0
40
0
40
0
40
0.500398384026024
40
1
40
1
40
1
40
1
41
1
10
39.870716056454
20
-9.62525626875018
30
0
41
1
10
39.8688200484015
20
-9.61299289329827
30
0
41
1
10
39.8650310512485
20
-9.58848566896782
30
0
41
1
10
39.8611449161937
20
-9.56445603062173
30
0
41
1
10
39.8592033968404
20
-9.55245078447274
30
0
0
SPLINE
5
112
100
AcDbEntity
8
1
62
256
6
ByLayer
370
18
48
1
60
0
100
AcDbSpline
70
4
71
5
72
12
73
6
40
0
40
0
40
0
40
0
40
0
40
0
40
1
40
1
40
1
40
1
40
1
40
1
41
1
10
40.0304720950698
20
-9.32498790938504
30
0
41
1
10
39.9861298701949
20
-9.32498790938504
30
0
41
1
10
39.941784744106
20
-9.32498821240506
30
0
41
1
10
39.900473298138
20
-9.32498881924505
30
0
41
1
10
39.865191164503
20
-9.32498968590505
30
0
41
1
10
39.837793588954
20
-9.32499073971505
30
0
0
SPLINE
5
113
100
AcDbEntity
8
1
62
256
6
ByLayer
370
18
48
1
60
0
100
AcDbSpline
70
4
71
5
72
12
73
6
40
0
40
0
40
0
40
0
40
0
40
0
40
1
40
1
40
1
40
1
40
1
40
1
41
1
10
40.0622714281259
20
-12.4135272656351
30
0
41
1
10
40.051502710216
20
-12.438273026185
30
0
41
1
10
40.0411905632263
20
-12.4646434229251
30
0
41
1
10
40.0344279875495
20
-12.492495179285
30
0
41
1
10
40.0303972904948
20
-12.521034539755
30
0
41
1
10
40.0304643667597
20
-12.5500119350851
30
0
0
SPLINE
5
114
100
AcDbEntity
8
1
62
256
6
ByLayer
370
18
48
1
60
0
100
AcDbSpline
70
4
71
5
72
12
73
6
40
0
40
0
40
0
40
0
40
0
40
0
40
1
40
1
40
1
40
1
40
1
40
1
41
1
10
40.0623536673937
20
-12.413521125294
30
0
41
1
10
40.0136302807653
20
-12.4021943755376
30
0
41
1
10
39.964901070959
20
-12.3860926494369
30
0
41
1
10
39.9204574977565
20
-12.3661931669996
30
0
41
1
10
39.8844967382421
20
-12.3443751891404
30
0
41
1
10
39.8592011634819
20
-12.3225601455151
30
0
0
SPLINE
5
115
100
AcDbEntity
8
1
62
256
6
ByLayer
370
18
48
1
60
0
100
AcDbSpline
70
4
71
1
72
4
73
2
40
0
40
0
40
1
40
1
41
1
10
40.0700630292135
20
-10.3023869709512
30
0
41
1
10
39.8970285163035
20
-9.73587815181386
30
0
0
SPLINE
5
116
100
AcDbEntity
8
1
62
256
6
ByLayer
370
18
48
1
60
0
100
AcDbSpline
70
4
71
5
72
12
73
6
40
0
40
0
40
0
40
0
40
0
40
0
40
1
40
1
40
1
40
1
40
1
40
1
41
1
10
40.1273166859716
20
-12.2966375878351
30
0
41
1
10
40.1262732727162
20
-12.3000540674984
30
0
41
1
10
40.125199975652
20
-12.3034664242175
30
0
41
1
10
40.1240966747497
20
-12.30687444816
30
0
41
1
10
40.1229632499266
20
-12.3102779226502
30
0
41
1
10
40.1217995819307
20
-12.3136766242193
30
0
0
SPLINE
5
117
100
AcDbEntity
8
1
62
256
6
ByLayer
370
18
48
1
60
0
100
AcDbSpline
70
4
71
3
72
8
73
4
40
0
40
0
40
0
40
0
40
1
40
1
40
1
40
1
41
1
10
40.0809192251401
20
-12.3797228777677
30
0
41
1
10
39.9931413936279
20
-12.3529339144482
30
0
41
1
10
39.9076236619386
20
-12.3000830620676
30
0
41
1
10
39.8707162322451
20
-12.2497441965665
30
0
0
SPLINE
5
118
100
AcDbEntity
8
1
62
256
6
ByLayer
370
18
48
1
60
0
100
AcDbSpline
70
4
71
3
72
8
73
4
40
0
40
0
40
0
40
0
40
1
40
1
40
1
40
1
41
1
10
40.307246739406
20
-9.32498083012646
30
0
41
1
10
40.3219062409605
20
-9.32489366873116
30
0
41
1
10
40.336560913513
20
-9.32400082691944
30
0
41
1
10
40.3511225079025
20
-9.32230768469378
30
0
0
INSERT
5
12A
100
AcDbEntity
8
2
62
256
6
ByLayer
370
25
48
1
60
0
100
AcDbBlockReference
2
DimnDraft3D11
10
0
20
0
30
0
41
1
42
1
43
1
50
0
210
0
220
0
230
1
0
LINE
5
72
100
AcDbEntity
8
80
62
256
6
ByLayer
370
18
48
1
60
0
100
AcDbLine
10
0
20
0
30
0
11
-5
21
0
31
0
39
0
210
0
220
0
230
1
0
LINE
5
73
100
AcDbEntity
8
1
62
256
6
ByLayer
370
18
48
1
60
0
100
AcDbLine
10
30.527864
20
-6.6375
30
0
11
25.8
21
-6.6375
31
0
39
0
210
0
220
0
230
1
0
LINE
5
75
100
AcDbEntity
8
81
62
256
6
ByLayer
370
18
48
1
60
0
100
AcDbLine
10
45.7
20
-13.4375
30
0
11
50.7
21
-13.4375
31
0
39
0
210
0
220
0
230
1
0
LINE
5
76
100
AcDbEntity
8
1
62
256
6
ByLayer
370
18
48
1
60
0
100
AcDbLine
10
2.931639
20
-12.3125
30
0
11
0.5
21
-12.3125
31
0
39
0
210
0
220
0
230
1
0
LINE
5
77
100
AcDbEntity
8
1
62
256
6
ByLayer
370
18
48
1
60
0
100
AcDbLine
10
39.814342
20
-12.037652
30
0
11
39.814342
21
-9.837348
31
0
39
0
210
0
220
0
230
1
0
LINE
5
78
100
AcDbEntity
8
1
62
256
6
ByLayer
370
18
48
1
60
0
100
AcDbLine
10
11
20
-12.3125
30
0
11
2.931639
21
-12.3125
31
0
39
0
210
0
220
0
230
1
0
LINE
5
79
100
AcDbEntity
8
1
62
256
6
ByLayer
370
18
48
1
60
0
100
AcDbLine
10
34.29
20
-13.664574
30
0
11
34.04
21
-13.664574
31
0
39
0
210
0
220
0
230
1
0
LINE
5
7A
100
AcDbEntity
8
1
62
256
6
ByLayer
370
18
48
1
60
0
100
AcDbLine
10
30.527864
20
-6.6375
30
0
11
30.527864
21
-7.915137
31
0
39
0
210
0
220
0
230
1
0
LINE
5
7B
100
AcDbEntity
8
1
62
256
6
ByLayer
370
18
48
1
60
0
100
AcDbLine
10
0
20
12.5625
30
0
11
0
21
-12.3125
31
0
39
0
210
0
220
0
230
1
0
LINE
5
7C
100
AcDbEntity
8
1
62
256
6
ByLayer
370
18
48
1
60
0
100
AcDbLine
10
27.53362
20
-15.058897
30
0
11
12.10192
21
-15.058897
31
0
39
0
210
0
220
0
230
1
0
LINE
5
7D
100
AcDbEntity
8
1
62
256
6
ByLayer
370
18
48
1
60
0
100
AcDbLine
10
25.8
20
-6.6375
30
0
11
25.8
21
-8.792208
31
0
39
0
210
0
220
0
230
1
0
LINE
5
7E
100
AcDbEntity
8
1
62
256
6
ByLayer
370
18
48
1
60
0
100
AcDbLine
10
2.931639
20
-12.3125
30
0
11
2.931639
21
12.604279
31
0
39
0
210
0
220
0
230
1
0
LINE
5
7F
100
AcDbEntity
8
1
62
256
6
ByLayer
370
18
48
1
60
0
100
AcDbLine
10
12.101925
20
-15.058914
30
0
11
13.803462
21
-21.409139
31
0
39
0
210
0
220
0
230
1
0
LINE
5
80
100
AcDbEntity
8
1
62
256
6
ByLayer
370
18
48
1
60
0
100
AcDbLine
10
39.712793
20
-9.396482
30
0
11
39.712793
21
-12.478518
31
0
39
0
210
0
220
0
230
1
0
LINE
5
81
100
AcDbEntity
8
1
62
256
6
ByLayer
370
18
48
1
60
0
100
AcDbLine
10
24.2
20
-7.03055
30
0
11
24.2
21
-0.5375
31
0
39
0
210
0
220
0
230
1
0
LINE
5
82
100
AcDbEntity
8
1
62
256
6
ByLayer
370
18
48
1
60
0
100
AcDbLine
10
35
20
-8.650495
30
0
11
35
21
-9.092866
31
0
39
0
210
0
220
0
230
1
0
LINE
5
83
100
AcDbEntity
8
1
62
256
6
ByLayer
370
18
48
1
60
0
100
AcDbLine
10
34.29
20
-13.664574
30
0
11
34.29
21
-13.524617
31
0
39
0
210
0
220
0
230
1
0
LINE
5
84
100
AcDbEntity
8
1
62
256
6
ByLayer
370
18
48
1
60
0
100
AcDbLine
10
35.095
20
-13.604826
30
0
11
44.62
21
-13.604826
31
0
39
0
210
0
220
0
230
1
0
LINE
5
85
100
AcDbEntity
8
1
62
256
6
ByLayer
370
18
48
1
60
0
100
AcDbLine
10
2.931639
20
12.604279
30
0
11
11.058221
21
12.604279
31
0
39
0
210
0
220
0
230
1
0
LINE
5
86
100
AcDbEntity
8
1
62
256
6
ByLayer
370
18
48
1
60
0
100
AcDbLine
10
27.53362
20
-8.792208
30
0
11
27.53362
21
-15.058897
31
0
39
0
210
0
220
0
230
1
0
LINE
5
87
100
AcDbEntity
8
1
62
256
6
ByLayer
370
18
48
1
60
0
100
AcDbLine
10
27.53362
20
-8.792208
30
0
11
25.8
21
-8.792208
31
0
39
0
210
0
220
0
230
1
0
LINE
5
88
100
AcDbEntity
8
1
62
256
6
ByLayer
370
18
48
1
60
0
100
AcDbLine
10
39.481682
20
-13.062942
30
0
11
39.712793
21
-12.478518
31
0
39
0
210
0
220
0
230
1
0
LINE
5
89
100
AcDbEntity
8
1
62
256
6
ByLayer
370
18
48
1
60
0
100
AcDbLine
10
39.712793
20
-12.478518
30
0
11
39.814342
21
-12.037652
31
0
39
0
210
0
220
0
230
1
0
LINE
5
8A
100
AcDbEntity
8
1
62
256
6
ByLayer
370
18
48
1
60
0
100
AcDbLine
10
39.712793
20
-9.396482
30
0
11
39.814342
21
-9.837348
31
0
39
0
210
0
220
0
230
1
0
LINE
5
8B
100
AcDbEntity
8
1
62
256
6
ByLayer
370
18
48
1
60
0
100
AcDbLine
10
44.62
20
-13.435656
30
0
11
44.62
21
-13.604826
31
0
39
0
210
0
220
0
230
1
0
LINE
5
8C
100
AcDbEntity
8
1
62
256
6
ByLayer
370
18
48
1
60
0
100
AcDbLine
10
44.62
20
-13.604826
30
0
11
44.62
21
-14.882301
31
0
39
0
210
0
220
0
230
1
0
LINE
5
8D
100
AcDbEntity
8
1
62
256
6
ByLayer
370
18
48
1
60
0
100
AcDbLine
10
12.10192
20
-15.058897
30
0
11
11.5
21
-12.8125
31
0
39
0
210
0
220
0
230
1
0
LINE
5
8E
100
AcDbEntity
8
1
62
256
6
ByLayer
370
18
48
1
60
0
100
AcDbLine
10
35.095
20
-13.527617
30
0
11
35.095
21
-13.604826
31
0
39
0
210
0
220
0
230
1
0
LINE
5
8F
100
AcDbEntity
8
1
62
256
6
ByLayer
370
18
48
1
60
0
100
AcDbLine
10
11.058221
20
12.604279
30
0
11
24.2
21
-0.5375
31
0
39
0
210
0
220
0
230
1
0
LINE
5
90
100
AcDbEntity
8
1
62
256
6
ByLayer
370
18
48
1
60
0
100
AcDbLine
10
0.5
20
-12.3125
30
0
11
0.5
21
12.564682
31
0
39
0
210
0
220
0
230
1
0
LINE
5
91
100
AcDbEntity
8
1
62
256
6
ByLayer
370
18
48
1
60
0
100
AcDbLine
10
0
20
-12.3125
30
0
11
0.5
21
-12.3125
31
0
39
0
210
0
220
0
230
1
0
LINE
5
92
100
AcDbEntity
8
1
62
256
6
ByLayer
370
18
48
1
60
0
100
AcDbLine
10
40.640381
20
-9.19313
30
0
11
39.63252
21
-9.19313
31
0
39
0
210
0
220
0
230
1
0
LINE
5
93
100
AcDbEntity
8
1
62
256
6
ByLayer
370
18
48
1
60
0
100
AcDbLine
10
36.45
20
-8.650563
30
0
11
35.095
21
-8.650563
31
0
39
0
210
0
220
0
230
1
0
LINE
5
94
100
AcDbEntity
8
1
62
256
6
ByLayer
370
18
48
1
60
0
100
AcDbLine
10
13.803462
20
-21.409139
30
0
11
39.568268
21
-21.409139
31
0
39
0
210
0
220
0
230
1
0
LINE
5
95
100
AcDbEntity
8
1
62
256
6
ByLayer
370
18
48
1
60
0
100
AcDbLine
10
0.5
20
12.564682
30
0
11
2.931639
21
12.604279
31
0
39
0
210
0
220
0
230
1
0
LINE
5
96
100
AcDbEntity
8
1
62
256
6
ByLayer
370
18
48
1
60
0
100
AcDbLine
10
39.425265
20
-8.669394
30
0
11
39.712793
21
-9.396482
31
0
39
0
210
0
220
0
230
1
0
LINE
5
97
100
AcDbEntity
8
1
62
256
6
ByLayer
370
18
48
1
60
0
100
AcDbLine
10
0.5
20
12.564682
30
0
11
0
21
12.5625
31
0
39
0
210
0
220
0
230
1
0
LINE
5
98
100
AcDbEntity
8
1
62
256
6
ByLayer
370
18
48
1
60
0
100
AcDbLine
10
11
20
-12.3125
30
0
11
11.5
21
-12.8125
31
0
39
0
210
0
220
0
230
1
0
LINE
5
99
100
AcDbEntity
8
1
62
256
6
ByLayer
370
18
48
1
60
0
100
AcDbLine
10
34.04
20
-13.664574
30
0
11
34.04
21
-13.561899
31
0
39
0
210
0
220
0
230
1
0
LINE
5
9A
100
AcDbEntity
8
SK1
62
256
6
ByLayer
370
18
48
1
60
0
100
AcDbLine
10
-105.65
20
-12.3125
30
0
11
-105.65
21
12.5625
31
0
39
0
210
0
220
0
230
1
0
LINE
5
9C
100
AcDbEntity
8
1
62
256
6
ByLayer
370
18
48
1
60
0
100
AcDbLine
10
45.7
20
-13.0625
30
0
11
45.7
21
-8.8125
31
0
39
0
210
0
220
0
230
1
0
LINE
5
9D
100
AcDbEntity
8
1
62
256
6
ByLayer
370
18
48
1
60
0
100
AcDbLine
10
40.30036
20
-11.730132
30
0
11
40.127344
21
-12.296642
31
0
39
0
210
0
220
0
230
1
0
LINE
5
9E
100
AcDbEntity
8
1
62
256
6
ByLayer
370
18
48
1
60
0
100
AcDbLine
10
40.30036
20
-11.572616
30
0
11
40.30036
21
-10.302384
31
0
39
0
210
0
220
0
230
1
0
LINE
5
9F
100
AcDbEntity
8
1
62
256
6
ByLayer
370
18
48
1
60
0
100
AcDbLine
10
42.036672
20
-13.322878
30
0
11
41.776187
21
-13.311505
31
0
39
0
210
0
220
0
230
1
0
LINE
5
A0
100
AcDbEntity
8
1
62
256
6
ByLayer
370
18
48
1
60
0
100
AcDbLine
10
40.504867
20
-12.603602
30
0
11
41.684911
21
-13.284901
31
0
39
0
210
0
220
0
230
1
0
LINE
5
A1
100
AcDbEntity
8
1
62
256
6
ByLayer
370
18
48
1
60
0
100
AcDbLine
10
45.169136
20
-13.459645
30
0
11
43.002517
21
-13.365048
31
0
39
0
210
0
220
0
230
1
0
LINE
5
A2
100
AcDbEntity
8
1
62
256
6
ByLayer
370
18
48
1
60
0
100
AcDbLine
10
42.036672
20
-8.552122
30
0
11
41.776187
21
-8.563495
31
0
39
0
210
0
220
0
230
1
0
LINE
5
A3
100
AcDbEntity
8
1
62
256
6
ByLayer
370
18
48
1
60
0
100
AcDbLine
10
41.91691
20
-12.550012
30
0
11
41.91691
21
-9.324988
31
0
39
0
210
0
220
0
230
1
0
LINE
5
A4
100
AcDbEntity
8
1
62
256
6
ByLayer
370
18
48
1
60
0
100
AcDbLine
10
45.169136
20
-8.415355
30
0
11
43.002517
21
-8.509952
31
0
39
0
210
0
220
0
230
1
0
LINE
5
A5
100
AcDbEntity
8
1
62
256
6
ByLayer
370
18
48
1
60
0
100
AcDbLine
10
40.121865
20
-9.561328
30
0
11
41.732438
21
-9.561328
31
0
39
0
210
0
220
0
230
1
0
LINE
5
A6
100
AcDbEntity
8
1
62
256
6
ByLayer
370
18
48
1
60
0
100
AcDbLine
10
40.30036
20
-10.302383
30
0
11
40.559437
21
-10.302383
31
0
39
0
210
0
220
0
230
1
0
LINE
5
A7
100
AcDbEntity
8
1
62
256
6
ByLayer
370
18
48
1
60
0
100
AcDbLine
10
40.03047
20
-12.550012
30
0
11
40.307247
21
-12.550012
31
0
39
0
210
0
220
0
230
1
0
LINE
5
A8
100
AcDbEntity
8
1
62
256
6
ByLayer
370
18
48
1
60
0
100
AcDbLine
10
40.30036
20
-10.144868
30
0
11
40.127344
21
-9.578358
31
0
39
0
210
0
220
0
230
1
0
LINE
5
A9
100
AcDbEntity
8
1
62
256
6
ByLayer
370
18
48
1
60
0
100
AcDbLine
10
40.30036
20
-11.572617
30
0
11
40.559437
21
-11.572617
31
0
39
0
210
0
220
0
230
1
0
LINE
5
AA
100
AcDbEntity
8
1
62
256
6
ByLayer
370
18
48
1
60
0
100
AcDbLine
10
43.002517
20
-13.365048
30
0
11
42.036672
21
-13.322878
31
0
39
0
210
0
220
0
230
1
0
LINE
5
AB
100
AcDbEntity
8
1
62
256
6
ByLayer
370
18
48
1
60
0
100
AcDbLine
10
40.504867
20
-9.271398
30
0
11
41.684911
21
-8.590099
31
0
39
0
210
0
220
0
230
1
0
LINE
5
AC
100
AcDbEntity
8
1
62
256
6
ByLayer
370
18
48
1
60
0
100
AcDbLine
10
40.30036
20
-11.730132
30
0
11
40.682382
21
-11.730132
31
0
39
0
210
0
220
0
230
1
0
LINE
5
AD
100
AcDbEntity
8
1
62
256
6
ByLayer
370
18
48
1
60
0
100
AcDbLine
10
43.002517
20
-8.509952
30
0
11
42.036672
21
-8.552122
31
0
39
0
210
0
220
0
230
1
0
LINE
5
AE
100
AcDbEntity
8
1
62
256
6
ByLayer
370
18
48
1
60
0
100
AcDbLine
10
40.351434
20
-12.550012
30
0
11
41.91691
21
-12.550012
31
0
39
0
210
0
220
0
230
1
0
LINE
5
AF
100
AcDbEntity
8
1
62
256
6
ByLayer
370
18
48
1
60
0
100
AcDbLine
10
40.351434
20
-9.324988
30
0
11
41.91691
21
-9.324988
31
0
39
0
210
0
220
0
230
1
0
LINE
5
B0
100
AcDbEntity
8
1
62
256
6
ByLayer
370
18
48
1
60
0
100
AcDbLine
10
41.732438
20
-9.561328
30
0
11
40.682382
21
-10.144869
31
0
39
0
210
0
220
0
230
1
0
LINE
5
B1
100
AcDbEntity
8
1
62
256
6
ByLayer
370
18
48
1
60
0
100
AcDbLine
10
40.559437
20
-10.302382
30
0
11
40.559437
21
-11.572618
31
0
39
0
210
0
220
0
230
1
0
LINE
5
B2
100
AcDbEntity
8
1
62
256
6
ByLayer
370
18
48
1
60
0
100
AcDbLine
10
40.03047
20
-9.324988
30
0
11
40.307247
21
-9.324988
31
0
39
0
210
0
220
0
230
1
0
LINE
5
B3
100
AcDbEntity
8
1
62
256
6
ByLayer
370
18
48
1
60
0
100
AcDbLine
10
40.30036
20
-10.144868
30
0
11
40.682382
21
-10.144868
31
0
39
0
210
0
220
0
230
1
0
LINE
5
B4
100
AcDbEntity
8
1
62
256
6
ByLayer
370
18
48
1
60
0
100
AcDbLine
10
41.732438
20
-12.313672
30
0
11
40.682382
21
-11.730131
31
0
39
0
210
0
220
0
230
1
0
LINE
5
B5
100
AcDbEntity
8
1
62
256
6
ByLayer
370
18
48
1
60
0
100
AcDbLine
10
40.121865
20
-12.313672
30
0
11
41.732438
21
-12.313672
31
0
39
0
210
0
220
0
230
1
0
LINE
5
B6
100
AcDbEntity
8
SK1
62
256
6
ByLayer
370
18
48
1
60
0
100
AcDbLine
10
-105.65
20
12.5625
30
0
11
0
21
12.5625
31
0
39
0
210
0
220
0
230
1
0
LINE
5
B7
100
AcDbEntity
8
SK1
62
256
6
ByLayer
370
18
48
1
60
0
100
AcDbLine
10
0
20
-12.3125
30
0
11
0
21
12.5625
31
0
39
0
210
0
220
0
230
1
0
LINE
5
B8
100
AcDbEntity
8
SK1
62
256
6
ByLayer
370
18
48
1
60
0
100
AcDbLine
10
0
20
-12.3125
30
0
11
-105.65
21
-12.3125
31
0
39
0
210
0
220
0
230
1
0
MTEXT
5
119
100
AcDbEntity
8
SK6
62
256
6
ByLayer
370
18
48
1
60
0
100
AcDbMText
10
-59.097472
20
-28.27743
30
0
210
0
220
0
230
1
1
\W0.7451;LF151.37-2525-030B40
40
3.5
41
0
44
1.084337
50
0
71
7
72
5
7
iso_b_vert
0
DIMENSION
5
138
100
AcDbEntity
8
2
62
256
6
ByLayer
370
13
48
1
60
0
100
AcDbDimension
2
DimnDraft3D2
10
59.95
20
-8.4375
30
0
11
59.95
21
-3.9375
31
0
70
32
71
5
72
1
41
1
210
0
220
0
230
1
3
Standard
100
AcDbAlignedDimension
13
47.2
23
-13.4375
33
0
14
47.2
24
-8.4375
34
0
50
90
100
AcDbRotatedDimension
1001
ACAD
1000
DSTYLE
1002
{
1070
    74
1070
     0
1070
   279
1070
     0
1070
   172
1070
     1
1070
   173
1070
     1
1070
   340
1005
11A
1070
   271
1070
     3
1070
   272
1070
     3
1070
    77
1070
     1
1070
    73
1070
     0
1070
   171
1070
     4
1070
   274
1070
     4
1070
   177
1070
     2
1070
   176
1070
     2
1070
   178
1070
     7
1070
    78
1070
     8
1070
    41
1041
3.0
1070
   147
1041
2.25
1070
    42
1041
1.5
1070
    44
1041
3.0
1070
   140
1041
4.5
1070
   343
1005
139
1070
   344
1005
139
1002
}
0
DIMENSION
5
14D
100
AcDbEntity
8
2
62
256
6
ByLayer
370
13
48
1
60
0
100
AcDbDimension
2
DimnDraft3D3
10
69.95
20
12.4375
30
0
11
69.95
21
-3.188158
31
0
70
32
71
5
72
1
41
1
210
0
220
0
230
1
3
Standard
100
AcDbAlignedDimension
13
47.2
23
-13.4375
33
0
14
1.5
24
12.4375
34
0
50
90
100
AcDbRotatedDimension
1001
ACAD
1000
DSTYLE
1002
{
1070
    74
1070
     0
1070
   279
1070
     0
1070
   172
1070
     1
1070
   173
1070
     1
1070
   340
1005
11A
1070
   271
1070
     3
1070
   272
1070
     3
1070
    77
1070
     1
1070
    73
1070
     0
1070
   171
1070
     4
1070
   274
1070
     4
1070
   177
1070
     2
1070
   176
1070
     2
1070
   178
1070
     7
1070
    78
1070
     8
1070
    41
1041
3.0
1070
   147
1041
2.25
1070
    42
1041
1.5
1070
    44
1041
3.0
1070
   140
1041
4.5
1070
   343
1005
139
1070
   344
1005
139
1002
}
0
DIMENSION
5
15C
100
AcDbEntity
8
SK2
62
256
6
ByLayer
370
13
48
1
60
0
100
AcDbDimension
2
DimnDraft3D4
10
-115.4
20
-12.4375
30
0
11
-115.4
21
-2.688158
31
0
70
32
71
5
72
1
41
1
210
0
220
0
230
1
3
Standard
100
AcDbAlignedDimension
13
-107.15
23
12.4375
33
0
14
-107.15
24
-12.4375
34
0
50
90
100
AcDbRotatedDimension
1001
ACAD
1000
DSTYLE
1002
{
1070
    74
1070
     0
1070
   279
1070
     0
1070
   172
1070
     1
1070
   173
1070
     1
1070
   340
1005
11A
1070
   271
1070
     3
1070
   272
1070
     3
1070
    77
1070
     1
1070
    73
1070
     0
1070
   171
1070
     4
1070
   274
1070
     4
1070
   177
1070
     2
1070
   176
1070
     2
1070
   178
1070
     7
1070
    78
1070
     8
1070
    41
1041
3.0
1070
   147
1041
2.25
1070
    42
1041
1.5
1070
    44
1041
3.0
1070
   140
1041
4.5
1070
   343
1005
139
1070
   344
1005
139
1002
}
0
DIMENSION
5
16A
100
AcDbEntity
8
2
62
256
6
ByLayer
370
13
48
1
60
0
100
AcDbDimension
2
DimnDraft3D5
10
35
20
22.1875
30
0
11
50.2
21
22.1875
31
0
70
32
71
5
72
1
41
1
210
0
220
0
230
1
3
Standard
100
AcDbAlignedDimension
13
45.7
23
-6.9375
33
0
14
35
24
13.9375
34
0
50
0
100
AcDbRotatedDimension
1001
ACAD
1000
DSTYLE
1002
{
1070
   279
1070
     0
1070
   172
1070
     1
1070
   173
1070
     1
1070
   340
1005
11A
1070
   271
1070
     3
1070
   272
1070
     3
1070
    77
1070
     1
1070
    73
1070
     0
1070
   171
1070
     4
1070
   274
1070
     4
1070
   177
1070
     2
1070
   176
1070
     2
1070
   178
1070
     7
1070
    78
1070
     8
1070
    41
1041
3.0
1070
   147
1041
2.25
1070
    42
1041
1.5
1070
    44
1041
3.0
1070
   140
1041
4.5
1070
   343
1005
139
1070
   344
1005
139
1002
}
0
DIMENSION
5
178
100
AcDbEntity
8
2
62
256
6
ByLayer
370
13
48
1
60
0
100
AcDbDimension
2
DimnDraft3D6
10
0
20
42.1875
30
0
11
17.331579
21
42.1875
31
0
70
32
71
5
72
1
41
1
210
0
220
0
230
1
3
Standard
100
AcDbAlignedDimension
13
45.7
23
-6.9375
33
0
14
0
24
13.9375
34
0
50
0
100
AcDbRotatedDimension
1001
ACAD
1000
DSTYLE
1002
{
1070
   279
1070
     0
1070
   172
1070
     1
1070
   173
1070
     1
1070
   340
1005
11A
1070
   271
1070
     3
1070
   272
1070
     3
1070
    77
1070
     1
1070
    73
1070
     0
1070
   171
1070
     4
1070
   274
1070
     4
1070
   177
1070
     2
1070
   176
1070
     2
1070
   178
1070
     7
1070
    78
1070
     8
1070
    41
1041
3.0
1070
   147
1041
2.25
1070
    42
1041
1.5
1070
    44
1041
3.0
1070
   140
1041
4.5
1070
   343
1005
139
1070
   344
1005
139
1002
}
0
DIMENSION
5
186
100
AcDbEntity
8
SK2
62
256
6
ByLayer
370
13
48
1
60
0
100
AcDbDimension
2
DimnDraft3D7
10
-105.65
20
52.1875
30
0
11
-33.782237
21
52.1875
31
0
70
32
71
5
72
1
41
1
210
0
220
0
230
1
3
Standard
100
AcDbAlignedDimension
13
45.7
23
-6.9375
33
0
14
-105.65
24
13.9375
34
0
50
0
100
AcDbRotatedDimension
1001
ACAD
1000
DSTYLE
1002
{
1070
   279
1070
     0
1070
   172
1070
     1
1070
   173
1070
     1
1070
   340
1005
11A
1070
   271
1070
     3
1070
   272
1070
     3
1070
    77
1070
     1
1070
    73
1070
     0
1070
   171
1070
     4
1070
   274
1070
     4
1070
   177
1070
     2
1070
   176
1070
     2
1070
   178
1070
     7
1070
    78
1070
     8
1070
    41
1041
3.0
1070
   147
1041
2.25
1070
    42
1041
1.5
1070
    44
1041
3.0
1070
   140
1041
4.5
1070
   343
1005
139
1070
   344
1005
139
1002
}
0
ENDSEC
0
SECTION
2
OBJECTS
0
DICTIONARY
5
1f0
330
0
100
AcDbDictionary
280
0
281
1
3
ACAD_GROUP
350
1f1
3
ACAD_MLINESTYLE
350
1f2
0
DICTIONARY
5
1f1
330
0
100
AcDbDictionary
280
0
281
1
0
DICTIONARY
5
1f2
330
0
100
AcDbDictionary
280
0
281
1
3
Standard
350
18
0
MLINESTYLE
5
18
330
1f2
100
AcDbMlineStyle
2
Standard
70
0
3

62
256
51
90
52
90
71
2
49
-0.5
62
256
6
ByLayer
49
0.5
62
256
6
ByLayer
0
RASTERVARIABLES
5
1df
330

100
AcDbRasterVariables
90
0
70
1
71
1
72
1
0
ENDSEC
0
EOF
