0
SECTION
2
HEADER
9
$ACADVER
1
AC1015
9
$DWGCODEPAGE
3
ANSI_1252
9
$HANDSEED
5
205
9
$ANGBASE
50
0
9
$ANGDIR
70
0
9
$ATTMODE
70
1
9
$AUNITS
70
0
9
$AUPREC
70
0
9
$CECOLOR
62
256
9
$CELTSCALE
40
1
9
$CELTYPE
6
ByLayer
9
$CELWEIGHT
370
18
9
$CLAYER
8
0
9
$CMLJUST
70
0
9
$CMLSCALE
40
1
9
$CMLSTYLE
2
Standard
9
$DIMSTYLE
2
Standard
9
$TEXTSIZE
40
0.2
9
$TEXTSTYLE
7
Standard
9
$LUNITS
70
2
9
$LUPREC
70
4
9
$EXTNAMES
290
1
9
$INSUNITS
70
4
9
$LTSCALE
40
1
9
$LWDISPLAY
290
1
9
$PDMODE
70
0
9
$PDSIZE
40
0
9
$PLINEGEN
70
0
0
ENDSEC
0
SECTION
2
CLASSES
0
CLASS
1
RASTERVARIABLES
2
AcDbRasterVariables
3
ISM
90
0
280
0
281
0
0
ENDSEC
0
SECTION
2
TABLES
0
TABLE
2
VPORT
5
1fb
100
AcDbSymbolTable
0
VPORT
5
1
100
AcDbSymbolTableRecord
100
AcDbViewportTableRecord
2
*Active
70
0
10
0
20
0
11
1
21
1
12
-1
22
1
13
0
23
0
14
0.5
24
0.5
15
10
25
10
16
0
26
0
36
1
17
0
27
0
37
0
0
ENDTAB
0
TABLE
2
LTYPE
5
1fc
100
AcDbSymbolTable
0
LTYPE
5
14
100
AcDbSymbolTableRecord
100
AcDbLinetypeTableRecord
70
0
2
ByBlock
3

72
65
73
0
40
0
0
LTYPE
5
15
100
AcDbSymbolTableRecord
100
AcDbLinetypeTableRecord
70
0
2
ByLayer
3

72
65
73
0
40
0
0
LTYPE
5
16
100
AcDbSymbolTableRecord
100
AcDbLinetypeTableRecord
70
0
2
CONTINUOUS
3
Solid line
72
65
73
0
40
0
0
LTYPE
5
6A
100
AcDbSymbolTableRecord
100
AcDbLinetypeTableRecord
70
0
2
CENTER
3
____ _ ____ _ ____ _ ____
72
65
73
4
40
47.5
49
22
74
0
49
-8.5
74
0
49
8.5
74
0
49
-8.5
74
0
0
LTYPE
5
6B
100
AcDbSymbolTableRecord
100
AcDbLinetypeTableRecord
70
0
2
DASHED
3
__ __ __ __ __ __ __ __ __
72
65
73
2
40
25.72
49
12.86
74
0
49
-12.86
74
0
0
ENDTAB
0
TABLE
2
LAYER
5
1fd
100
AcDbSymbolTable
0
LAYER
5
10
100
AcDbSymbolTableRecord
100
AcDbLayerTableRecord
2
0
70
0
62
7
6
CONTINUOUS
290
1
370
-3
390
0
0
LAYER
5
6D
100
AcDbSymbolTableRecord
100
AcDbLayerTableRecord
2
2
70
0
62
7
6
CONTINUOUS
290
1
370
-3
390
0
0
LAYER
5
6F
100
AcDbSymbolTableRecord
100
AcDbLayerTableRecord
2
80
70
0
62
-6
6
CONTINUOUS
290
1
370
-3
390
0
0
LAYER
5
71
100
AcDbSymbolTableRecord
100
AcDbLayerTableRecord
2
81
70
0
62
-3
6
CONTINUOUS
290
1
370
-3
390
0
0
LAYER
5
74
100
AcDbSymbolTableRecord
100
AcDbLayerTableRecord
2
1
70
0
62
4
6
CONTINUOUS
290
1
370
-3
390
0
0
LAYER
5
1e8
100
AcDbSymbolTableRecord
100
AcDbLayerTableRecord
2
SK1
70
0
62
4
6
CONTINUOUS
290
1
370
-3
390
0
0
LAYER
5
1e9
100
AcDbSymbolTableRecord
100
AcDbLayerTableRecord
2
SK6
70
0
62
5
6
CONTINUOUS
290
1
370
-3
390
0
0
LAYER
5
1ea
100
AcDbSymbolTableRecord
100
AcDbLayerTableRecord
2
SK2
70
0
62
7
6
CONTINUOUS
290
1
370
-3
390
0
0
ENDTAB
0
TABLE
2
STYLE
5
1fe
100
AcDbSymbolTable
0
STYLE
5
11
100
AcDbSymbolTableRecord
100
AcDbTextStyleTableRecord
2
Standard
3
txt
70
0
71
0
40
0
41
1
42
0
50
0
0
STYLE
5
122
100
AcDbSymbolTableRecord
100
AcDbTextStyleTableRecord
2
iso_b_vert
3
simplex.shx
70
0
71
0
40
0
41
1
42
0
50
0
0
STYLE
5
123
100
AcDbSymbolTableRecord
100
AcDbTextStyleTableRecord
2
DWGDirectTextStyle
3
simplex
70
0
71
0
40
0
41
1
42
0
50
0
0
ENDTAB
0
TABLE
2
DIMSTYLE
5
1ff
100
AcDbSymbolTable
100
AcDbDimStyleTable
0
DIMSTYLE
105
27
100
AcDbSymbolTableRecord
100
AcDbDimStyleTableRecord
2
Standard
70
0
3
<>
41
0.18
42
0.0625
44
0.18
140
0.18
147
0.09
73
0
74
0
77
1
271
2
275
0
278
52
280
0
340
11
0
ENDTAB
0
TABLE
2
VIEW
5
200
100
AcDbSymbolTable
0
ENDTAB
0
TABLE
2
UCS
5
201
100
AcDbSymbolTable
0
ENDTAB
0
TABLE
2
APPID
5
202
100
AcDbSymbolTable
0
APPID
5
12
100
AcDbSymbolTableRecord
100
AcDbRegAppTableRecord
2
ACAD
70
0
0
ENDTAB
0
TABLE
2
BLOCK_RECORD
5
203
100
AcDbSymbolTable
0
BLOCK_RECORD
5
1F
100
AcDbSymbolTableRecord
100
AcDbBlockTableRecord
2
*Model_Space
340
0
70
0
0
BLOCK_RECORD
5
1B
100
AcDbSymbolTableRecord
100
AcDbBlockTableRecord
2
*Paper_Space
340
0
70
0
0
BLOCK_RECORD
5
23
100
AcDbSymbolTableRecord
100
AcDbBlockTableRecord
2
*Paper_Space0
340
0
70
0
0
BLOCK_RECORD
5
125
100
AcDbSymbolTableRecord
100
AcDbBlockTableRecord
2
DimnDraft3D11
340
0
70
0
0
BLOCK_RECORD
5
133
100
AcDbSymbolTableRecord
100
AcDbBlockTableRecord
2
DimnDraft3D2
340
0
70
0
0
BLOCK_RECORD
5
141
100
AcDbSymbolTableRecord
100
AcDbBlockTableRecord
2
_CLOSED
340
0
70
0
0
BLOCK_RECORD
5
148
100
AcDbSymbolTableRecord
100
AcDbBlockTableRecord
2
DimnDraft3D3
340
0
70
0
0
BLOCK_RECORD
5
156
100
AcDbSymbolTableRecord
100
AcDbBlockTableRecord
2
DimnDraft3D4
340
0
70
0
0
BLOCK_RECORD
5
165
100
AcDbSymbolTableRecord
100
AcDbBlockTableRecord
2
DimnDraft3D5
340
0
70
0
0
BLOCK_RECORD
5
173
100
AcDbSymbolTableRecord
100
AcDbBlockTableRecord
2
DimnDraft3D6
340
0
70
0
0
BLOCK_RECORD
5
181
100
AcDbSymbolTableRecord
100
AcDbBlockTableRecord
2
DimnDraft3D7
340
0
70
0
0
ENDTAB
0
ENDSEC
0
SECTION
2
BLOCKS
0
BLOCK
5
20
100
AcDbEntity
8
0
100
AcDbBlockBegin
2
*Model_Space
70
0
10
0
20
0
30
0
3
*Model_Space
0
ENDBLK
5
21
100
AcDbEntity
8
0
100
AcDbBlockEnd
0
BLOCK
5
1C
100
AcDbEntity
8
0
100
AcDbBlockBegin
2
*Paper_Space
70
0
10
0
20
0
30
0
3
*Paper_Space
0
ENDBLK
5
1D
100
AcDbEntity
8
0
100
AcDbBlockEnd
0
BLOCK
5
24
100
AcDbEntity
8
0
100
AcDbBlockBegin
2
*Paper_Space0
70
0
10
0
20
0
30
0
3
*Paper_Space0
0
ENDBLK
5
25
100
AcDbEntity
8
0
100
AcDbBlockEnd
0
BLOCK
5
126
100
AcDbEntity
8
0
100
AcDbBlockBegin
2
DimnDraft3D11
70
0
10
0
20
0
30
0
3
DimnDraft3D11
0
LINE
5
128
100
AcDbEntity
8
2
62
256
6
ByLayer
370
25
48
1
60
0
100
AcDbLine
10
44.7
20
-7.9375
30
0
11
44.7
21
35.1875
31
0
39
0
210
0
220
0
230
1
0
LINE
5
129
100
AcDbEntity
8
2
62
256
6
ByLayer
370
25
48
1
60
0
100
AcDbLine
10
24.7
20
13.9375
30
0
11
24.7
21
35.1875
31
0
39
0
210
0
220
0
230
1
0
LINE
5
12A
100
AcDbEntity
8
2
62
256
6
ByLayer
370
25
48
1
60
0
100
AcDbLine
10
44.7
20
32.1875
30
0
11
24.7
21
32.1875
31
0
39
0
210
0
220
0
230
1
0
LINE
5
12B
100
AcDbEntity
8
2
62
256
6
ByLayer
370
25
48
1
60
0
100
AcDbLine
10
44.7
20
32.1875
30
0
11
41.700001
21
31.792543
31
0
39
0
210
0
220
0
230
1
0
LINE
5
12C
100
AcDbEntity
8
2
62
256
6
ByLayer
370
25
48
1
60
0
100
AcDbLine
10
44.7
20
32.1875
30
0
11
41.699999
21
32.582457
31
0
39
0
210
0
220
0
230
1
0
LINE
5
12D
100
AcDbEntity
8
2
62
256
6
ByLayer
370
25
48
1
60
0
100
AcDbLine
10
41.700001
20
31.792543
30
0
11
41.699999
21
32.582457
31
0
39
0
210
0
220
0
230
1
0
LINE
5
12E
100
AcDbEntity
8
2
62
256
6
ByLayer
370
25
48
1
60
0
100
AcDbLine
10
24.7
20
32.1875
30
0
11
27.699999
21
32.582457
31
0
39
0
210
0
220
0
230
1
0
LINE
5
12F
100
AcDbEntity
8
2
62
256
6
ByLayer
370
25
48
1
60
0
100
AcDbLine
10
24.7
20
32.1875
30
0
11
27.700001
21
31.792543
31
0
39
0
210
0
220
0
230
1
0
LINE
5
130
100
AcDbEntity
8
2
62
256
6
ByLayer
370
25
48
1
60
0
100
AcDbLine
10
27.699999
20
32.582457
30
0
11
27.700001
21
31.792543
31
0
39
0
210
0
220
0
230
1
0
MTEXT
5
131
100
AcDbEntity
8
2
62
256
6
ByLayer
370
18
48
1
60
0
100
AcDbMText
10
30.543421
20
33.3125
30
0
210
0
220
0
230
1
1
\W0.7346;20.0
40
4.5
41
0
44
1.084337
50
0
71
7
72
5
7
iso_b_vert
0
ENDBLK
5
127
100
AcDbEntity
8
0
100
AcDbBlockEnd
0
BLOCK
5
13E
100
AcDbEntity
8
0
100
AcDbBlockBegin
2
DimnDraft3D2
70
0
10
0
20
0
30
0
3
DimnDraft3D2
0
MTEXT
5
134
100
AcDbEntity
8
2
62
256
6
ByLayer
370
18
48
1
60
0
100
AcDbMText
10
57.825
20
-3.8125
30
0
210
0
220
0
230
1
1
\W0.6380;4
40
4.5
41
0
44
1.084337
50
90
71
7
72
5
7
iso_b_vert
0
LINE
5
135
100
AcDbEntity
8
2
62
256
6
ByLayer
370
13
48
1
60
0
100
AcDbLine
10
46.2
20
-13.4375
30
0
11
61.95
21
-13.4375
31
0
39
0
210
0
220
0
230
1
0
LINE
5
136
100
AcDbEntity
8
2
62
256
6
ByLayer
370
13
48
1
60
0
100
AcDbLine
10
46.2
20
-9.4375
30
0
11
61.95
21
-9.4375
31
0
39
0
210
0
220
0
230
1
0
LINE
5
137
100
AcDbEntity
8
2
62
256
6
ByLayer
370
13
48
1
60
0
100
AcDbLine
10
58.95
20
-2.450658
30
0
11
58.95
21
-24.6875
31
0
39
0
210
0
220
0
230
1
0
LINE
5
138
100
AcDbEntity
8
2
62
256
6
ByLayer
370
13
48
1
60
0
100
AcDbLine
10
58.95
20
-13.4375
30
0
11
59.344957
21
-16.437499
31
0
39
0
210
0
220
0
230
1
0
LINE
5
139
100
AcDbEntity
8
2
62
256
6
ByLayer
370
13
48
1
60
0
100
AcDbLine
10
58.95
20
-13.4375
30
0
11
58.555043
21
-16.437501
31
0
39
0
210
0
220
0
230
1
0
LINE
5
13A
100
AcDbEntity
8
2
62
256
6
ByLayer
370
13
48
1
60
0
100
AcDbLine
10
59.344957
20
-16.437499
30
0
11
58.555043
21
-16.437501
31
0
39
0
210
0
220
0
230
1
0
LINE
5
13B
100
AcDbEntity
8
2
62
256
6
ByLayer
370
13
48
1
60
0
100
AcDbLine
10
58.95
20
-9.4375
30
0
11
58.555043
21
-6.437501
31
0
39
0
210
0
220
0
230
1
0
LINE
5
13C
100
AcDbEntity
8
2
62
256
6
ByLayer
370
13
48
1
60
0
100
AcDbLine
10
58.95
20
-9.4375
30
0
11
59.344957
21
-6.437499
31
0
39
0
210
0
220
0
230
1
0
LINE
5
13D
100
AcDbEntity
8
2
62
256
6
ByLayer
370
13
48
1
60
0
100
AcDbLine
10
58.555043
20
-6.437501
30
0
11
59.344957
21
-6.437499
31
0
39
0
210
0
220
0
230
1
0
ENDBLK
5
13F
100
AcDbEntity
8
0
100
AcDbBlockEnd
0
BLOCK
5
142
100
AcDbEntity
8
0
100
AcDbBlockBegin
2
_CLOSED
70
0
10
0
20
0
30
0
3
_CLOSED
0
LINE
5
144
100
AcDbEntity
8
0
62
256
6
ByLayer
370
-2
48
1
60
0
100
AcDbLine
10
-1
20
0.166667
30
0
11
0
21
0
31
0
39
0
210
0
220
0
230
1
0
LINE
5
145
100
AcDbEntity
8
0
62
256
6
ByLayer
370
-2
48
1
60
0
100
AcDbLine
10
0
20
0
30
0
11
-1
21
-0.166667
31
0
39
0
210
0
220
0
230
1
0
LINE
5
146
100
AcDbEntity
8
0
62
256
6
ByLayer
370
-2
48
1
60
0
100
AcDbLine
10
-1
20
0.166667
30
0
11
-1
21
-0.166667
31
0
39
0
210
0
220
0
230
1
0
LINE
5
147
100
AcDbEntity
8
0
62
256
6
ByLayer
370
-2
48
1
60
0
100
AcDbLine
10
0
20
0
30
0
11
-1
21
0
31
0
39
0
210
0
220
0
230
1
0
ENDBLK
5
143
100
AcDbEntity
8
0
100
AcDbBlockEnd
0
BLOCK
5
153
100
AcDbEntity
8
0
100
AcDbBlockBegin
2
DimnDraft3D3
70
0
10
0
20
0
30
0
3
DimnDraft3D3
0
MTEXT
5
149
100
AcDbEntity
8
2
62
256
6
ByLayer
370
18
48
1
60
0
100
AcDbMText
10
67.825
20
-2.063158
30
0
210
0
220
0
230
1
1
\W0.6740;26
40
4.5
41
0
44
1.084337
50
90
71
7
72
5
7
iso_b_vert
0
LINE
5
14A
100
AcDbEntity
8
2
62
256
6
ByLayer
370
13
48
1
60
0
100
AcDbLine
10
46.2
20
-13.4375
30
0
11
71.95
21
-13.4375
31
0
39
0
210
0
220
0
230
1
0
LINE
5
14B
100
AcDbEntity
8
2
62
256
6
ByLayer
370
13
48
1
60
0
100
AcDbLine
10
1.5
20
12.4375
30
0
11
71.95
21
12.4375
31
0
39
0
210
0
220
0
230
1
0
LINE
5
14C
100
AcDbEntity
8
2
62
256
6
ByLayer
370
13
48
1
60
0
100
AcDbLine
10
68.95
20
-13.4375
30
0
11
68.95
21
12.4375
31
0
39
0
210
0
220
0
230
1
0
LINE
5
14D
100
AcDbEntity
8
2
62
256
6
ByLayer
370
13
48
1
60
0
100
AcDbLine
10
68.95
20
-13.4375
30
0
11
68.555043
21
-10.437501
31
0
39
0
210
0
220
0
230
1
0
LINE
5
14E
100
AcDbEntity
8
2
62
256
6
ByLayer
370
13
48
1
60
0
100
AcDbLine
10
68.95
20
-13.4375
30
0
11
69.344957
21
-10.437499
31
0
39
0
210
0
220
0
230
1
0
LINE
5
14F
100
AcDbEntity
8
2
62
256
6
ByLayer
370
13
48
1
60
0
100
AcDbLine
10
68.555043
20
-10.437501
30
0
11
69.344957
21
-10.437499
31
0
39
0
210
0
220
0
230
1
0
LINE
5
150
100
AcDbEntity
8
2
62
256
6
ByLayer
370
13
48
1
60
0
100
AcDbLine
10
68.95
20
12.4375
30
0
11
69.344957
21
9.437501
31
0
39
0
210
0
220
0
230
1
0
LINE
5
151
100
AcDbEntity
8
2
62
256
6
ByLayer
370
13
48
1
60
0
100
AcDbLine
10
68.95
20
12.4375
30
0
11
68.555043
21
9.437499
31
0
39
0
210
0
220
0
230
1
0
LINE
5
152
100
AcDbEntity
8
2
62
256
6
ByLayer
370
13
48
1
60
0
100
AcDbLine
10
69.344957
20
9.437501
30
0
11
68.555043
21
9.437499
31
0
39
0
210
0
220
0
230
1
0
ENDBLK
5
154
100
AcDbEntity
8
0
100
AcDbBlockEnd
0
BLOCK
5
162
100
AcDbEntity
8
0
100
AcDbBlockBegin
2
DimnDraft3D4
70
0
10
0
20
0
30
0
3
DimnDraft3D4
0
MTEXT
5
157
100
AcDbEntity
8
SK2
62
256
6
ByLayer
370
18
48
1
60
0
100
AcDbMText
10
-117.525
20
-1.563158
30
0
210
0
220
0
230
1
1
\W0.6740;25
40
4.5
41
0
44
1.084337
50
90
71
7
72
5
7
iso_b_vert
0
LINE
5
159
100
AcDbEntity
8
SK2
62
256
6
ByLayer
370
13
48
1
60
0
100
AcDbLine
10
-108.15
20
12.4375
30
0
11
-119.4
21
12.4375
31
0
39
0
210
0
220
0
230
1
0
LINE
5
15A
100
AcDbEntity
8
SK2
62
256
6
ByLayer
370
13
48
1
60
0
100
AcDbLine
10
-108.15
20
-12.4375
30
0
11
-119.4
21
-12.4375
31
0
39
0
210
0
220
0
230
1
0
LINE
5
15B
100
AcDbEntity
8
SK2
62
256
6
ByLayer
370
13
48
1
60
0
100
AcDbLine
10
-116.4
20
12.4375
30
0
11
-116.4
21
-12.4375
31
0
39
0
210
0
220
0
230
1
0
LINE
5
15C
100
AcDbEntity
8
SK2
62
256
6
ByLayer
370
13
48
1
60
0
100
AcDbLine
10
-116.4
20
12.4375
30
0
11
-116.005043
21
9.437501
31
0
39
0
210
0
220
0
230
1
0
LINE
5
15D
100
AcDbEntity
8
SK2
62
256
6
ByLayer
370
13
48
1
60
0
100
AcDbLine
10
-116.4
20
12.4375
30
0
11
-116.794957
21
9.437499
31
0
39
0
210
0
220
0
230
1
0
LINE
5
15E
100
AcDbEntity
8
SK2
62
256
6
ByLayer
370
13
48
1
60
0
100
AcDbLine
10
-116.005043
20
9.437501
30
0
11
-116.794957
21
9.437499
31
0
39
0
210
0
220
0
230
1
0
LINE
5
15F
100
AcDbEntity
8
SK2
62
256
6
ByLayer
370
13
48
1
60
0
100
AcDbLine
10
-116.4
20
-12.4375
30
0
11
-116.794957
21
-9.437501
31
0
39
0
210
0
220
0
230
1
0
LINE
5
160
100
AcDbEntity
8
SK2
62
256
6
ByLayer
370
13
48
1
60
0
100
AcDbLine
10
-116.4
20
-12.4375
30
0
11
-116.005043
21
-9.437499
31
0
39
0
210
0
220
0
230
1
0
LINE
5
161
100
AcDbEntity
8
SK2
62
256
6
ByLayer
370
13
48
1
60
0
100
AcDbLine
10
-116.794957
20
-9.437501
30
0
11
-116.005043
21
-9.437499
31
0
39
0
210
0
220
0
230
1
0
ENDBLK
5
163
100
AcDbEntity
8
0
100
AcDbBlockEnd
0
BLOCK
5
170
100
AcDbEntity
8
0
100
AcDbBlockBegin
2
DimnDraft3D5
70
0
10
0
20
0
30
0
3
DimnDraft3D5
0
MTEXT
5
166
100
AcDbEntity
8
2
62
256
6
ByLayer
370
18
48
1
60
0
100
AcDbMText
10
50.325
20
23.3125
30
0
210
0
220
0
230
1
1
\W0.7121;8.7
40
4.5
41
0
44
1.084337
50
0
71
7
72
5
7
iso_b_vert
0
LINE
5
167
100
AcDbEntity
8
2
62
256
6
ByLayer
370
13
48
1
60
0
100
AcDbLine
10
44.7
20
-7.9375
30
0
11
44.7
21
25.1875
31
0
39
0
210
0
220
0
230
1
0
LINE
5
168
100
AcDbEntity
8
2
62
256
6
ByLayer
370
13
48
1
60
0
100
AcDbLine
10
36
20
13.9375
30
0
11
36
21
25.1875
31
0
39
0
210
0
220
0
230
1
0
LINE
5
169
100
AcDbEntity
8
2
62
256
6
ByLayer
370
13
48
1
60
0
100
AcDbLine
10
36
20
22.1875
30
0
11
56.4
21
22.1875
31
0
39
0
210
0
220
0
230
1
0
LINE
5
16A
100
AcDbEntity
8
2
62
256
6
ByLayer
370
13
48
1
60
0
100
AcDbLine
10
44.7
20
22.1875
30
0
11
41.700001
21
21.792543
31
0
39
0
210
0
220
0
230
1
0
LINE
5
16B
100
AcDbEntity
8
2
62
256
6
ByLayer
370
13
48
1
60
0
100
AcDbLine
10
44.7
20
22.1875
30
0
11
41.699999
21
22.582457
31
0
39
0
210
0
220
0
230
1
0
LINE
5
16C
100
AcDbEntity
8
2
62
256
6
ByLayer
370
13
48
1
60
0
100
AcDbLine
10
41.700001
20
21.792543
30
0
11
41.699999
21
22.582457
31
0
39
0
210
0
220
0
230
1
0
LINE
5
16D
100
AcDbEntity
8
2
62
256
6
ByLayer
370
13
48
1
60
0
100
AcDbLine
10
36
20
22.1875
30
0
11
38.999999
21
22.582457
31
0
39
0
210
0
220
0
230
1
0
LINE
5
16E
100
AcDbEntity
8
2
62
256
6
ByLayer
370
13
48
1
60
0
100
AcDbLine
10
36
20
22.1875
30
0
11
39.000001
21
21.792543
31
0
39
0
210
0
220
0
230
1
0
LINE
5
16F
100
AcDbEntity
8
2
62
256
6
ByLayer
370
13
48
1
60
0
100
AcDbLine
10
38.999999
20
22.582457
30
0
11
39.000001
21
21.792543
31
0
39
0
210
0
220
0
230
1
0
ENDBLK
5
171
100
AcDbEntity
8
0
100
AcDbBlockEnd
0
BLOCK
5
17E
100
AcDbEntity
8
0
100
AcDbBlockBegin
2
DimnDraft3D6
70
0
10
0
20
0
30
0
3
DimnDraft3D6
0
MTEXT
5
174
100
AcDbEntity
8
2
62
256
6
ByLayer
370
18
48
1
60
0
100
AcDbMText
10
17.719737
20
43.3125
30
0
210
0
220
0
230
1
1
\W0.7983;44.7
40
4.5
41
0
44
1.084337
50
0
71
7
72
5
7
iso_b_vert
0
LINE
5
175
100
AcDbEntity
8
2
62
256
6
ByLayer
370
13
48
1
60
0
100
AcDbLine
10
44.7
20
-7.9375
30
0
11
44.7
21
45.1875
31
0
39
0
210
0
220
0
230
1
0
LINE
5
176
100
AcDbEntity
8
2
62
256
6
ByLayer
370
13
48
1
60
0
100
AcDbLine
10
0
20
13.9375
30
0
11
0
21
45.1875
31
0
39
0
210
0
220
0
230
1
0
LINE
5
177
100
AcDbEntity
8
2
62
256
6
ByLayer
370
13
48
1
60
0
100
AcDbLine
10
44.7
20
42.1875
30
0
11
0
21
42.1875
31
0
39
0
210
0
220
0
230
1
0
LINE
5
178
100
AcDbEntity
8
2
62
256
6
ByLayer
370
13
48
1
60
0
100
AcDbLine
10
44.7
20
42.1875
30
0
11
41.700001
21
41.792543
31
0
39
0
210
0
220
0
230
1
0
LINE
5
179
100
AcDbEntity
8
2
62
256
6
ByLayer
370
13
48
1
60
0
100
AcDbLine
10
44.7
20
42.1875
30
0
11
41.699999
21
42.582457
31
0
39
0
210
0
220
0
230
1
0
LINE
5
17A
100
AcDbEntity
8
2
62
256
6
ByLayer
370
13
48
1
60
0
100
AcDbLine
10
41.700001
20
41.792543
30
0
11
41.699999
21
42.582457
31
0
39
0
210
0
220
0
230
1
0
LINE
5
17B
100
AcDbEntity
8
2
62
256
6
ByLayer
370
13
48
1
60
0
100
AcDbLine
10
0
20
42.1875
30
0
11
2.999999
21
42.582457
31
0
39
0
210
0
220
0
230
1
0
LINE
5
17C
100
AcDbEntity
8
2
62
256
6
ByLayer
370
13
48
1
60
0
100
AcDbLine
10
0
20
42.1875
30
0
11
3.000001
21
41.792543
31
0
39
0
210
0
220
0
230
1
0
LINE
5
17D
100
AcDbEntity
8
2
62
256
6
ByLayer
370
13
48
1
60
0
100
AcDbLine
10
2.999999
20
42.582457
30
0
11
3.000001
21
41.792543
31
0
39
0
210
0
220
0
230
1
0
ENDBLK
5
17F
100
AcDbEntity
8
0
100
AcDbBlockEnd
0
BLOCK
5
18C
100
AcDbEntity
8
0
100
AcDbBlockBegin
2
DimnDraft3D7
70
0
10
0
20
0
30
0
3
DimnDraft3D7
0
MTEXT
5
182
100
AcDbEntity
8
SK2
62
256
6
ByLayer
370
18
48
1
60
0
100
AcDbMText
10
-33.657237
20
53.3125
30
0
210
0
220
0
230
1
1
\W0.6217;150
40
4.5
41
0
44
1.084337
50
0
71
7
72
5
7
iso_b_vert
0
LINE
5
183
100
AcDbEntity
8
SK2
62
256
6
ByLayer
370
13
48
1
60
0
100
AcDbLine
10
44.7
20
-7.9375
30
0
11
44.7
21
55.1875
31
0
39
0
210
0
220
0
230
1
0
LINE
5
184
100
AcDbEntity
8
SK2
62
256
6
ByLayer
370
13
48
1
60
0
100
AcDbLine
10
-106.65
20
13.9375
30
0
11
-106.65
21
55.1875
31
0
39
0
210
0
220
0
230
1
0
LINE
5
185
100
AcDbEntity
8
SK2
62
256
6
ByLayer
370
13
48
1
60
0
100
AcDbLine
10
44.7
20
52.1875
30
0
11
-106.65
21
52.1875
31
0
39
0
210
0
220
0
230
1
0
LINE
5
186
100
AcDbEntity
8
SK2
62
256
6
ByLayer
370
13
48
1
60
0
100
AcDbLine
10
44.7
20
52.1875
30
0
11
41.700001
21
51.792543
31
0
39
0
210
0
220
0
230
1
0
LINE
5
187
100
AcDbEntity
8
SK2
62
256
6
ByLayer
370
13
48
1
60
0
100
AcDbLine
10
44.7
20
52.1875
30
0
11
41.699999
21
52.582457
31
0
39
0
210
0
220
0
230
1
0
LINE
5
188
100
AcDbEntity
8
SK2
62
256
6
ByLayer
370
13
48
1
60
0
100
AcDbLine
10
41.700001
20
51.792543
30
0
11
41.699999
21
52.582457
31
0
39
0
210
0
220
0
230
1
0
LINE
5
189
100
AcDbEntity
8
SK2
62
256
6
ByLayer
370
13
48
1
60
0
100
AcDbLine
10
-106.65
20
52.1875
30
0
11
-103.650001
21
52.582457
31
0
39
0
210
0
220
0
230
1
0
LINE
5
18A
100
AcDbEntity
8
SK2
62
256
6
ByLayer
370
13
48
1
60
0
100
AcDbLine
10
-106.65
20
52.1875
30
0
11
-103.649999
21
51.792543
31
0
39
0
210
0
220
0
230
1
0
LINE
5
18B
100
AcDbEntity
8
SK2
62
256
6
ByLayer
370
13
48
1
60
0
100
AcDbLine
10
-103.650001
20
52.582457
30
0
11
-103.649999
21
51.792543
31
0
39
0
210
0
220
0
230
1
0
ENDBLK
5
18D
100
AcDbEntity
8
0
100
AcDbBlockEnd
0
ENDSEC
0
SECTION
2
ENTITIES
0
ARC
5
BD
100
AcDbEntity
8
1
62
256
6
ByLayer
370
18
48
1
60
0
100
AcDbCircle
39
0
10
-24.8
20
-6.0375
30
0
40
1.6
210
0
220
0
230
-1
100
AcDbArc
50
270
51
0
0
ARC
5
BE
100
AcDbEntity
8
1
62
256
6
ByLayer
370
18
48
1
60
0
100
AcDbCircle
39
0
10
-36
20
-3.6375
30
0
40
6
210
0
220
0
230
-1
100
AcDbArc
50
288.755225
51
318.189685
0
ARC
5
C0
100
AcDbEntity
8
1
62
256
6
ByLayer
370
18
48
1
60
0
100
AcDbCircle
39
0
10
-16.7
20
-2.88627
30
0
40
1.13980641809794
210
0
220
0
230
-1
100
AcDbArc
50
222.227341
51
317.772659
0
ARC
5
C1
100
AcDbEntity
8
1
62
256
6
ByLayer
370
18
48
1
60
0
100
AcDbCircle
39
0
10
-13.970955
20
-7.613115
30
0
40
1.13980641809794
210
0
220
0
230
-1
100
AcDbArc
50
108.752695
51
191.247305
0
ARC
5
C2
100
AcDbEntity
8
1
62
256
6
ByLayer
370
18
48
1
60
0
100
AcDbCircle
39
0
10
-17.846192
20
-4.052237
30
0
40
0.501259405157916
210
0
220
0
230
-1
100
AcDbArc
50
52.925818
51
187.074182
0
ARC
5
C3
100
AcDbEntity
8
1
62
256
6
ByLayer
370
18
48
1
60
0
100
AcDbCircle
39
0
10
-15.553808
20
-4.052237
30
0
40
0.501259405157916
210
0
220
0
230
-1
100
AcDbArc
50
352.925818
51
127.074182
0
ARC
5
C4
100
AcDbEntity
8
1
62
256
6
ByLayer
370
18
48
1
60
0
100
AcDbCircle
39
0
10
-17.846192
20
-8.022763
30
0
40
0.501259405157916
210
0
220
0
230
-1
100
AcDbArc
50
172.925818
51
321.945783
0
ARC
5
C5
100
AcDbEntity
8
1
62
256
6
ByLayer
370
18
48
1
60
0
100
AcDbCircle
39
0
10
-15.553808
20
-8.022763
30
0
40
0.501259405157916
210
0
220
0
230
-1
100
AcDbArc
50
218.054217
51
21.945783
0
ARC
5
C7
100
AcDbEntity
8
1
62
256
6
ByLayer
370
18
48
1
60
0
100
AcDbCircle
39
0
10
-16.7
20
-9.18873
30
0
40
1.13980641809794
210
0
220
0
230
-1
100
AcDbArc
50
48.752695
51
131.247305
0
ARC
5
C8
100
AcDbEntity
8
1
62
256
6
ByLayer
370
18
48
1
60
0
100
AcDbCircle
39
0
10
-18.992384
20
-6.0375
30
0
40
0.501259405157916
210
0
220
0
230
-1
100
AcDbArc
50
98.054217
51
247.074182
0
ARC
5
C9
100
AcDbEntity
8
1
62
256
6
ByLayer
370
18
48
1
60
0
100
AcDbCircle
39
0
10
-19.429045
20
-7.613115
30
0
40
1.13980641809794
210
0
220
0
230
-1
100
AcDbArc
50
342.227341
51
77.772659
0
ARC
5
CA
100
AcDbEntity
8
1
62
256
6
ByLayer
370
18
48
1
60
0
100
AcDbCircle
39
0
10
-14.407616
20
-6.0375
30
0
40
0.501259405157916
210
0
220
0
230
-1
100
AcDbArc
50
278.054217
51
81.945783
0
ARC
5
CC
100
AcDbEntity
8
1
62
256
6
ByLayer
370
18
48
1
60
0
100
AcDbCircle
39
0
10
-19.429045
20
-4.461885
30
0
40
1.13980641809794
210
0
220
0
230
-1
100
AcDbArc
50
288.752695
51
17.772659
0
ARC
5
CD
100
AcDbEntity
8
1
62
256
6
ByLayer
370
18
48
1
60
0
100
AcDbCircle
39
0
10
-13.970955
20
-4.461885
30
0
40
1.13980641809794
210
0
220
0
230
-1
100
AcDbArc
50
162.227341
51
251.247305
0
CIRCLE
5
BF
100
AcDbEntity
8
1
62
256
6
ByLayer
370
18
48
1
60
0
100
AcDbCircle
10
16.7
20
-6.0375
30
0
40
5.5
39
0
210
0
220
0
230
1
0
CIRCLE
5
C6
100
AcDbEntity
8
1
62
256
6
ByLayer
370
18
48
1
60
0
100
AcDbCircle
10
16.7
20
-6.0375
30
0
40
4.4958
39
0
210
0
220
0
230
1
0
CIRCLE
5
CB
100
AcDbEntity
8
1
62
256
6
ByLayer
370
18
48
1
60
0
100
AcDbCircle
10
-16.7
20
-6.0375
30
0
40
5.0038
39
0
210
0
220
0
230
-1
0
CIRCLE
5
CE
100
AcDbEntity
8
1
62
256
6
ByLayer
370
18
48
1
60
0
100
AcDbCircle
10
-16.7
20
-6.0375
30
0
40
3.0330983114651
39
0
210
0
220
0
230
-1
0
ELLIPSE
5
CF
100
AcDbEntity
8
1
62
256
6
ByLayer
370
18
48
1
60
0
100
AcDbEllipse
10
40.960304
20
-26.9375
30
0
11
-27.5632565296375
21
6.45781379735295E-14
31
0
210
0
220
0
230
1
40
0.700208
41
-1.22152775036719
42
-1.02612767748569
0
ELLIPSE
5
D0
100
AcDbEntity
8
1
62
256
6
ByLayer
370
18
48
1
60
0
100
AcDbEllipse
10
40.960304
20
-26.9375
30
0
11
-24.7069605174419
21
5.78861029532671E-14
31
0
210
0
220
0
230
1
40
0.700208
41
-1.51210363412018
42
-1.36865712773788
0
ELLIPSE
5
D1
100
AcDbEntity
8
1
62
256
6
ByLayer
370
18
48
1
60
0
100
AcDbEllipse
10
48.593162
20
-32.1375
30
0
11
2.23747588381709E-14
21
19.0999999999403
31
0
210
0
220
0
230
1
40
0.57735
41
0.449660365205443
42
0.94994138217875
0
ELLIPSE
5
D2
100
AcDbEntity
8
1
62
256
6
ByLayer
370
18
48
1
60
0
100
AcDbEllipse
10
47.711731
20
-26.937501
30
0
11
-9.46287406698631
21
17.0877322392204
31
0
210
0
220
0
230
1
40
0.28551
41
-0.215505024429947
42
-0.18537335743815
0
ELLIPSE
5
D3
100
AcDbEntity
8
1
62
256
6
ByLayer
370
18
48
1
60
0
100
AcDbEllipse
10
40.960304
20
-32.1375
30
0
11
-27.2776269287727
21
6.39089344723344E-14
31
0
210
0
220
0
230
1
40
0.700208
41
-1.51975014752327
42
-1.01977201038925
0
ELLIPSE
5
D4
100
AcDbEntity
8
1
62
256
6
ByLayer
370
18
48
1
60
0
100
AcDbEllipse
10
39.632474
20
-11.995976
30
0
11
-8.45443006965159E-08
21
0.500000209782699
31
0
210
0
220
0
230
1
40
0.493963
41
-2.00712883647675
42
-1.91986240584318
0
ELLIPSE
5
D5
100
AcDbEntity
8
1
62
256
6
ByLayer
370
18
48
1
60
0
100
AcDbEllipse
10
35.65
20
-11.877919
30
0
11
2.5121897996492E-15
21
2.14450692050776
31
0
210
0
220
0
230
1
40
0.466308
41
-2.41641269498264
42
-2.30003793410875
0
ELLIPSE
5
D6
100
AcDbEntity
8
1
62
256
6
ByLayer
370
18
48
1
60
0
100
AcDbEllipse
10
39.632474
20
-10.879024
30
0
11
-8.45889896646215E-08
21
-0.500000209893148
31
0
210
0
220
0
230
1
40
0.493963
41
1.9198624059646
42
2.00712883658138
0
POINT
5
6C
100
AcDbEntity
8
2
62
256
6
ByLayer
370
18
48
1
60
0
100
AcDbPoint
10
44.7
20
13.5625
30
0
39
0
210
0
220
0
230
1
50
360
0
POINT
5
6E
100
AcDbEntity
8
80
62
256
6
ByLayer
370
18
48
1
60
0
100
AcDbPoint
10
0
20
0
30
0
39
0
210
0
220
0
230
1
50
360
0
POINT
5
70
100
AcDbEntity
8
81
62
256
6
ByLayer
370
18
48
1
60
0
100
AcDbPoint
10
44.7
20
-13.4375
30
0
39
0
210
0
220
0
230
1
50
360
0
SPLINE
5
D7
100
AcDbEntity
8
1
62
256
6
ByLayer
370
18
48
1
60
0
100
AcDbSpline
70
4
71
2
72
6
73
3
40
0
40
0
40
0
40
1
40
1
40
1
41
0.500000056024212
10
39.3101948527239
20
-9.64455560327793
30
0
41
0.499999943975788
10
39.2740578943418
20
-9.64422479345443
30
0
41
0.500000056024212
10
39.2379430053151
20
-9.6439094911443
30
0
0
SPLINE
5
D8
100
AcDbEntity
8
1
62
256
6
ByLayer
370
18
48
1
60
0
100
AcDbSpline
70
4
71
3
72
12
73
8
40
0
40
0
40
0
40
0
40
0.348223291000299
40
0.348223291000299
40
0.695918860801065
40
0.695918860801065
40
1
40
1
40
1
40
1
41
1
10
35.1
20
-9.57826351527319
30
0
41
1
10
34.9580882936896
20
-9.55672243948706
30
0
41
1
10
34.8152129959606
20
-9.5287134146175
30
0
41
1
10
34.5510674713761
20
-9.46671335158439
30
0
41
1
10
34.4260714639129
20
-9.43197299045855
30
0
41
1
10
34.22222974961
20
-9.3698626577953
30
0
41
1
10
34.1372293928403
20
-9.34149654055423
30
0
41
1
10
34.0675453965577
20
-9.31778155153228
30
0
0
SPLINE
5
D9
100
AcDbEntity
8
1
62
256
6
ByLayer
370
18
48
1
60
0
100
AcDbSpline
70
4
71
3
72
10
73
6
40
0
40
0
40
0
40
0
40
0.729778255307982
40
0.729778255307982
40
1
40
1
40
1
40
1
41
1
10
37.8270537701066
20
-9.64458853051849
30
0
41
1
10
37.639814445491
20
-9.64705440691793
30
0
41
1
10
37.4364600996608
20
-9.64926037053363
30
0
41
1
10
37.1549037072289
20
-9.65052665389607
30
0
41
1
10
37.0773858868589
20
-9.65070560446722
30
0
41
1
10
36.9999999999999
20
-9.65070560446722
30
0
0
SPLINE
5
DA
100
AcDbEntity
8
1
62
256
6
ByLayer
370
18
48
1
60
0
100
AcDbSpline
70
4
71
3
72
12
73
8
40
0
40
0
40
0
40
0
40
0.256073663353986
40
0.256073663353986
40
0.725560724053942
40
0.725560724053942
40
1
40
1
40
1
40
1
41
1
10
36.3132701308388
20
-13.4828254314734
30
0
41
1
10
36.2674106155134
20
-13.4917591882109
30
0
41
1
10
36.2175009896391
20
-13.4999532005515
30
0
41
1
10
36.068381440176
20
-13.5201827519297
30
0
41
1
10
35.9601664079791
20
-13.5299808859417
30
0
41
1
10
35.7839756636346
20
-13.5383288693177
30
0
41
1
10
35.7168134586864
20
-13.5399169312247
30
0
41
1
10
35.6499999999999
20
-13.5399169312247
30
0
0
SPLINE
5
DB
100
AcDbEntity
8
1
62
256
6
ByLayer
370
18
48
1
60
0
100
AcDbSpline
70
4
71
3
72
8
73
4
40
0
40
0
40
0
40
0
40
1
40
1
40
1
40
1
41
1
10
36.135
20
-9.65070560446722
30
0
41
1
10
36.0899739768507
20
-9.65070560446722
30
0
41
1
10
36.0449219494854
20
-9.65064554593525
30
0
41
1
10
36.0000000000158
20
-9.650526833626
30
0
0
SPLINE
5
DC
100
AcDbEntity
8
1
62
256
6
ByLayer
370
18
48
1
60
0
100
AcDbSpline
70
4
71
3
72
10
73
6
40
0
40
0
40
0
40
0
40
0.208911983327432
40
0.208911983327432
40
1
40
1
40
1
40
1
41
1
10
35.3953635823366
20
-9.61562300322262
30
0
41
1
10
35.4359074550237
20
-9.62017899440076
30
0
41
1
10
35.4769099336706
20
-9.62434506389218
30
0
41
1
10
35.6745512556149
20
-9.64219440412217
30
0
41
1
10
35.8371901655128
20
-9.65009658668421
30
0
41
1
10
36.0000000000155
20
-9.6505268336266
30
0
0
SPLINE
5
DD
100
AcDbEntity
8
1
62
256
6
ByLayer
370
18
48
1
60
0
100
AcDbSpline
70
4
71
3
72
10
73
6
40
0
40
0
40
0
40
0
40
0.5
40
0.5
40
1
40
1
40
1
40
1
41
1
10
35.3953635823366
20
-9.61562300322268
30
0
41
1
10
35.3458772167314
20
-9.61060810331281
30
0
41
1
10
35.2964213528147
20
-9.60497278761321
30
0
41
1
10
35.1979568509158
20
-9.59251397265703
30
0
41
1
10
35.1488943984908
20
-9.58568529865383
30
0
41
1
10
35.1
20
-9.57826351527322
30
0
0
SPLINE
5
DE
100
AcDbEntity
8
1
62
256
6
ByLayer
370
18
48
1
60
0
100
AcDbSpline
70
4
71
2
72
6
73
3
40
0
40
0
40
0
40
1
40
1
40
1
41
0.500000086476738
10
39.2379430053148
20
-9.6439094911443
30
0
41
0.499999913523262
10
38.5327129956674
20
-9.64424046704839
30
0
41
0.500000086476738
10
37.8270537701061
20
-9.6445885305185
30
0
0
SPLINE
5
DF
100
AcDbEntity
8
1
62
256
6
ByLayer
370
18
48
1
60
0
100
AcDbSpline
70
4
71
3
72
10
73
6
40
0
40
0
40
0
40
0
40
0.5
40
0.5
40
1
40
1
40
1
40
1
41
1
10
36
20
-9.9897393757374
30
0
41
1
10
35.2201065654929
20
-10.1016534652946
30
0
41
1
10
34.4438636263612
20
-10.0931042626226
30
0
41
1
10
32.9015817503808
20
-9.73928232183087
30
0
41
1
10
32.1552866605566
20
-9.38932283326477
30
0
41
1
10
31.5278640450003
20
-8.80277098371903
30
0
0
SPLINE
5
E0
100
AcDbEntity
8
1
62
256
6
ByLayer
370
18
48
1
60
0
100
AcDbSpline
70
4
71
3
72
10
73
6
40
0
40
0
40
0
40
0
40
0.694359932263879
40
0.694359932263879
40
1
40
1
40
1
40
1
41
1
10
35.4
20
-13.5399169312247
30
0
41
1
10
35.2901223023623
20
-13.5399169312247
30
0
41
1
10
35.1787319150885
20
-13.5355264260869
30
0
41
1
10
35.0294760407525
20
-13.5236854792722
30
0
41
1
10
34.9848022180061
20
-13.5192843088777
30
0
41
1
10
34.9417474981592
20
-13.5142256120013
30
0
0
SPLINE
5
E1
100
AcDbEntity
8
1
62
256
6
ByLayer
370
18
48
1
60
0
100
AcDbSpline
70
4
71
3
72
16
73
12
40
0
40
0
40
0
40
0
40
0.131920051347795
40
0.131920051347795
40
0.390291120690834
40
0.390291120690834
40
0.642702535772868
40
0.642702535772868
40
0.829479638203006
40
0.829479638203006
40
1
40
1
40
1
40
1
41
1
10
23.2
20
-8.58511595868271
30
0
41
1
10
23.2
20
-8.70398677508817
30
0
41
1
10
23.2102667962196
20
-8.82329192999151
30
0
41
1
10
23.2701558609505
20
-9.168716227174
30
0
41
1
10
23.3494260931112
20
-9.39385501481379
30
0
41
1
10
23.5764547766808
20
-9.7911638160684
30
0
41
1
10
23.7267265035525
20
-9.97090317932532
30
0
41
1
10
24.0366034915164
20
-10.2144186105739
30
0
41
1
10
24.1875610389643
20
-10.2987161445423
30
0
41
1
10
24.4914792630023
20
-10.4035884457562
30
0
41
1
10
24.6467159226783
20
-10.4302288748262
30
0
41
1
10
24.8
20
-10.4302288748262
30
0
0
SPLINE
5
E2
100
AcDbEntity
8
1
62
256
6
ByLayer
370
18
48
1
60
0
100
AcDbSpline
70
4
71
1
72
4
73
2
40
0
40
0
40
1
40
1
41
1
10
40.2066759994221
20
-10.4735366983828
30
0
41
1
10
40.2920342082524
20
-10.6703011983425
30
0
0
SPLINE
5
E3
100
AcDbEntity
8
1
62
256
6
ByLayer
370
18
48
1
60
0
100
AcDbSpline
70
4
71
5
72
12
73
6
40
0
40
0
40
0
40
0
40
0
40
0
40
1
40
1
40
1
40
1
40
1
40
1
41
1
10
40.1696583634624
20
-12.7001041255601
30
0
41
1
10
40.219966832063
20
-12.70113108226
30
0
41
1
10
40.270146230243
20
-12.7084862593401
30
0
41
1
10
40.31913461406
20
-12.7221499280601
30
0
41
1
10
40.365876999488
20
-12.74182783529
30
0
41
1
10
40.409454532001
20
-12.76698723342
30
0
0
SPLINE
5
E4
100
AcDbEntity
8
1
62
256
6
ByLayer
370
18
48
1
60
0
100
AcDbSpline
70
4
71
5
72
12
73
6
40
0
40
0
40
0
40
0
40
0
40
0
40
1
40
1
40
1
40
1
40
1
40
1
41
1
10
39.9544768187388
20
-10.2867721693393
30
0
41
1
10
39.9261568567981
20
-10.2673089879768
30
0
41
1
10
39.8986057213659
20
-10.2470682325943
30
0
41
1
10
39.8731571279387
20
-10.2268043393456
30
0
41
1
10
39.8480602610778
20
-10.201969746777
30
0
41
1
10
39.848649071261
20
-10.1749832661301
30
0
0
SPLINE
5
E5
100
AcDbEntity
8
1
62
256
6
ByLayer
370
18
48
1
60
0
100
AcDbSpline
70
4
71
5
72
12
73
6
40
0
40
0
40
0
40
0
40
0
40
0
40
1
40
1
40
1
40
1
40
1
40
1
41
1
10
40.1696583634624
20
-10.1748958744201
30
0
41
1
10
40.219966832063
20
-10.1738689177201
30
0
41
1
10
40.270146230243
20
-10.1665137406401
30
0
41
1
10
40.31913461406
20
-10.1528500719201
30
0
41
1
10
40.365876999488
20
-10.1331721646901
30
0
41
1
10
40.409454532001
20
-10.10801276656
30
0
0
SPLINE
5
E6
100
AcDbEntity
8
1
62
256
6
ByLayer
370
18
48
1
60
0
100
AcDbSpline
70
4
71
5
72
15
73
9
40
0
40
0
40
0
40
0
40
0
40
0
40
0.590893213830289
40
0.590893213830289
40
0.590893213830289
40
1
40
1
40
1
40
1
40
1
40
1
41
1
10
41.442998789295
20
-12.4701863407901
30
0
41
1
10
41.479305256355
20
-12.4844158227501
30
0
41
1
10
41.5161891627949
20
-12.5015042267101
30
0
41
1
10
41.5510484054849
20
-12.52155361969
30
0
41
1
10
41.6075117887549
20
-12.5612584311501
30
0
41
1
10
41.650799268455
20
-12.6169472261601
30
0
41
1
10
41.6645646263449
20
-12.6421686522201
30
0
41
1
10
41.6726150529649
20
-12.6699370046201
30
0
41
1
10
41.672614852875
20
-12.7001041211901
30
0
0
SPLINE
5
E7
100
AcDbEntity
8
1
62
256
6
ByLayer
370
18
48
1
60
0
100
AcDbSpline
70
4
71
5
72
12
73
6
40
0
40
0
40
0
40
0
40
0
40
0
40
1
40
1
40
1
40
1
40
1
40
1
41
1
10
39.871497638529
20
-12.4624639716301
30
0
41
1
10
39.8566688075426
20
-12.4662216985979
30
0
41
1
10
39.8414179624262
20
-12.46971165334
30
0
41
1
10
39.8258313089744
20
-12.4729200316988
30
0
41
1
10
39.8099929588013
20
-12.4758378093865
30
0
41
1
10
39.7939771006565
20
-12.4784608360568
30
0
0
SPLINE
5
E8
100
AcDbEntity
8
1
62
256
6
ByLayer
370
18
48
1
60
0
100
AcDbSpline
70
4
71
5
72
12
73
6
40
0
40
0
40
0
40
0
40
0
40
0
40
1
40
1
40
1
40
1
40
1
40
1
41
1
10
39.8377841068643
20
-11.3278194472915
30
0
41
1
10
39.8618502828398
20
-11.3385734744818
30
0
41
1
10
39.8831524475418
20
-11.3499985555036
30
0
41
1
10
39.9012286330902
20
-11.3618887167835
30
0
41
1
10
39.9157216874017
20
-11.3740124193274
30
0
41
1
10
39.926436842137
20
-11.386134079118
30
0
0
SPLINE
5
E9
100
AcDbEntity
8
1
62
256
6
ByLayer
370
18
48
1
60
0
100
AcDbSpline
70
4
71
1
72
4
73
2
40
0
40
0
40
1
40
1
41
1
10
41.4429987884908
20
-10.4048293782447
30
0
41
1
10
40.1622677176975
20
-10.4047909272413
30
0
0
SPLINE
5
EA
100
AcDbEntity
8
1
62
256
6
ByLayer
370
18
48
1
60
0
100
AcDbSpline
70
4
71
5
72
12
73
6
40
0
40
0
40
0
40
0
40
0
40
0
40
1
40
1
40
1
40
1
40
1
40
1
41
1
10
39.8377841068643
20
-11.5471805526886
30
0
41
1
10
39.8618502828398
20
-11.5364265254984
30
0
41
1
10
39.8831524475418
20
-11.5250014444765
30
0
41
1
10
39.9012286330902
20
-11.5131112831967
30
0
41
1
10
39.9157216874017
20
-11.5009875806527
30
0
41
1
10
39.926436842137
20
-11.4888659208621
30
0
0
SPLINE
5
EB
100
AcDbEntity
8
1
62
256
6
ByLayer
370
18
48
1
60
0
100
AcDbSpline
70
4
71
3
72
8
73
4
40
0
40
0
40
0
40
0
40
1
40
1
40
1
40
1
41
1
10
39.8710193020157
20
-10.3611967395356
30
0
41
1
10
39.8449167623418
20
-10.36633903451
30
0
41
1
10
39.8173505579353
20
-10.3713713499695
30
0
41
1
10
39.7891393494823
20
-10.376346123831
30
0
0
SPLINE
5
EC
100
AcDbEntity
8
1
62
256
6
ByLayer
370
18
48
1
60
0
100
AcDbSpline
70
4
71
5
72
15
73
9
40
0
40
0
40
0
40
0
40
0
40
0
40
0.590893213830289
40
0.590893213830289
40
0.590893213830289
40
1
40
1
40
1
40
1
40
1
40
1
41
1
10
41.442998789295
20
-10.4048136591901
30
0
41
1
10
41.479305256355
20
-10.3905841772301
30
0
41
1
10
41.5161891627949
20
-10.3734957732701
30
0
41
1
10
41.5510484054849
20
-10.3534463802901
30
0
41
1
10
41.6075117887549
20
-10.3137415688301
30
0
41
1
10
41.650799268455
20
-10.2580527738201
30
0
41
1
10
41.6645646263449
20
-10.23283134776
30
0
41
1
10
41.6726150529649
20
-10.2050629953601
30
0
41
1
10
41.672614852875
20
-10.1748958787901
30
0
0
SPLINE
5
ED
100
AcDbEntity
8
1
62
256
6
ByLayer
370
18
48
1
60
0
100
AcDbSpline
70
4
71
5
72
12
73
6
40
0
40
0
40
0
40
0
40
0
40
0
40
1
40
1
40
1
40
1
40
1
40
1
41
1
10
39.871019565953
20
-12.5138033522701
30
0
41
1
10
39.8705500036851
20
-12.5034248093939
30
0
41
1
10
39.8703617673526
20
-12.4930462225968
30
0
41
1
10
39.8704575052283
20
-12.482725956191
30
0
41
1
10
39.8708366775775
20
-12.4725223699187
30
0
41
1
10
39.8714955743364
20
-12.4624918688218
30
0
0
SPLINE
5
EE
100
AcDbEntity
8
1
62
256
6
ByLayer
370
18
48
1
60
0
100
AcDbSpline
70
4
71
5
72
12
73
6
40
0
40
0
40
0
40
0
40
0
40
0
40
1
40
1
40
1
40
1
40
1
40
1
41
1
10
40.2920352372459
20
-10.8235081467921
30
0
41
1
10
40.292035353459
20
-10.7886018801451
30
0
41
1
10
40.2920349615319
20
-10.7536937740481
30
0
41
1
10
40.292034778041
20
-10.7210064418791
30
0
41
1
10
40.29203470145
20
-10.6927365346791
30
0
41
1
10
40.2920346242669
20
-10.6702992585441
30
0
0
SPLINE
5
EF
100
AcDbEntity
8
1
62
256
6
ByLayer
370
18
48
1
60
0
100
AcDbSpline
70
4
71
5
72
12
73
6
40
0
40
0
40
0
40
0
40
0
40
0
40
1
40
1
40
1
40
1
40
1
40
1
41
1
10
39.9545272409339
20
-12.5881931791301
30
0
41
1
10
39.936894283342
20
-12.5749509449701
30
0
41
1
10
39.919239602171
20
-12.5605374143201
30
0
41
1
10
39.9021581343629
20
-12.5451634191801
30
0
41
1
10
39.885877796262
20
-12.5295298026001
30
0
41
1
10
39.8710184669779
20
-12.5138051334101
30
0
0
SPLINE
5
F0
100
AcDbEntity
8
1
62
256
6
ByLayer
370
18
48
1
60
0
100
AcDbSpline
70
4
71
3
72
10
73
6
40
0
40
0
40
0
40
0
40
0.516778517254203
40
0.75934448788788
40
1
40
1
40
1
40
1
41
1
10
39.9545057588167
20
-12.5882540408425
30
0
41
1
10
39.9328874514533
20
-12.6039521576508
30
0
41
1
10
39.9011219233097
20
-12.6270186708099
30
0
41
1
10
39.8597113567246
20
-12.6622923037799
30
0
41
1
10
39.8523267678756
20
-12.6874751112995
30
0
41
1
10
39.848649071261
20
-12.70001673384
30
0
0
SPLINE
5
F1
100
AcDbEntity
8
1
62
256
6
ByLayer
370
18
48
1
60
0
100
AcDbSpline
70
4
71
11
72
24
73
12
40
0
40
0
40
0
40
0
40
0
40
0
40
0
40
0
40
0
40
0
40
0
40
0
40
1
40
1
40
1
40
1
40
1
40
1
40
1
40
1
40
1
40
1
40
1
40
1
41
1
10
44.2999975481849
20
-13.4624999999801
30
0
41
1
10
44.288098566871
20
-13.4624999999801
30
0
41
1
10
44.2761995855571
20
-13.4624480852065
30
0
41
1
10
44.2643008559102
20
-13.4623442556495
30
0
41
1
10
44.2524026296077
20
-13.4621885126985
30
0
41
1
10
44.2405051582964
20
-13.4619808590727
30
0
41
1
10
44.2286086936238
20
-13.4617212989206
30
0
41
1
10
44.2167134872167
20
-13.4614098377104
30
0
41
1
10
44.2048197906524
20
-13.4610464822998
30
0
41
1
10
44.1929278554682
20
-13.4606312409461
30
0
41
1
10
44.1810379331611
20
-13.4601641232361
30
0
41
1
10
44.1691502751485
20
-13.4596451401561
30
0
0
SPLINE
5
F2
100
AcDbEntity
8
1
62
256
6
ByLayer
370
18
48
1
60
0
100
AcDbSpline
70
4
71
5
72
12
73
6
40
0
40
0
40
0
40
0
40
0
40
0
40
1
40
1
40
1
40
1
40
1
40
1
41
1
10
39.871543293808
20
-12.4625407895801
30
0
41
1
10
39.8846712889492
20
-12.4871474542142
30
0
41
1
10
39.9002820783203
20
-12.5132935815764
30
0
41
1
10
39.9177210387504
20
-12.5397502063381
30
0
41
1
10
39.9360773712488
20
-12.5651340358277
30
0
41
1
10
39.9544336725392
20
-12.5882880304151
30
0
0
SPLINE
5
F3
100
AcDbEntity
8
1
62
256
6
ByLayer
370
18
48
1
60
0
100
AcDbSpline
70
4
71
5
72
12
73
6
40
0
40
0
40
0
40
0
40
0
40
0
40
1
40
1
40
1
40
1
40
1
40
1
41
1
10
39.848649071261
20
-12.6999999981601
30
0
41
1
10
39.8396260475429
20
-12.6999999981601
30
0
41
1
10
39.830602935457
20
-12.6999999981601
30
0
41
1
10
39.821617977602
20
-12.69999999815
30
0
41
1
10
39.812709416284
20
-12.69999999815
30
0
41
1
10
39.803914529465
20
-12.69999999815
30
0
0
SPLINE
5
F4
100
AcDbEntity
8
1
62
256
6
ByLayer
370
18
48
1
60
0
100
AcDbSpline
70
4
71
5
72
12
73
6
40
0
40
0
40
0
40
0
40
0
40
0
40
1
40
1
40
1
40
1
40
1
40
1
41
1
10
40.0187591797489
20
-10.6267166595941
30
0
41
1
10
40.030188576064
20
-10.5843474762173
30
0
41
1
10
40.0586917253313
20
-10.5419492373037
30
0
41
1
10
40.1027077601826
20
-10.5060656682148
30
0
41
1
10
40.1547165284201
20
-10.4828274744593
30
0
41
1
10
40.2066910200621
20
-10.4735077221533
30
0
0
SPLINE
5
F5
100
AcDbEntity
8
1
62
256
6
ByLayer
370
18
48
1
60
0
100
AcDbSpline
70
4
71
9
72
20
73
10
40
0
40
0
40
0
40
0
40
0
40
0
40
0
40
0
40
0
40
0
40
1
40
1
40
1
40
1
40
1
40
1
40
1
40
1
40
1
40
1
41
1
10
40.1040950455308
20
-12.0514918531881
30
0
41
1
10
40.1133804679318
20
-12.0514918531881
30
0
41
1
10
40.1265621466555
20
-12.0514918531881
30
0
41
1
10
40.1433925822593
20
-12.0514918531881
30
0
41
1
10
40.1634858007243
20
-12.0514918531881
30
0
41
1
10
40.1863296796692
20
-12.0514918531881
30
0
41
1
10
40.2113085688049
20
-12.0514918531881
30
0
41
1
10
40.2377348077263
20
-12.0514918531881
30
0
41
1
10
40.2648847146549
20
-12.0514918531881
30
0
41
1
10
40.29203462323
20
-12.0514918531881
30
0
0
SPLINE
5
F6
100
AcDbEntity
8
1
62
256
6
ByLayer
370
18
48
1
60
0
100
AcDbSpline
70
4
71
5
72
12
73
6
40
0
40
0
40
0
40
0
40
0
40
0
40
1
40
1
40
1
40
1
40
1
40
1
41
1
10
39.92313859731
20
-11.4374989586655
30
0
41
1
10
39.923137113425
20
-11.4270115893115
30
0
41
1
10
39.923472402754
20
-11.4165062746647
30
0
41
1
10
39.924138490398
20
-11.4061803341536
30
0
41
1
10
39.925119059739
20
-11.3961035269829
30
0
41
1
10
39.926438371891
20
-11.3861345374166
30
0
0
SPLINE
5
F7
100
AcDbEntity
8
1
62
256
6
ByLayer
370
18
48
1
60
0
100
AcDbSpline
70
4
71
1
72
4
73
2
40
0
40
0
40
1
40
1
41
1
10
41.442998789295
20
-12.4701863407901
30
0
41
1
10
40.1622677165346
20
-12.4701863407901
30
0
0
SPLINE
5
F8
100
AcDbEntity
8
1
62
256
6
ByLayer
370
18
48
1
60
0
100
AcDbSpline
70
4
71
1
72
4
73
2
40
0
40
0
40
1
40
1
41
1
10
40.159465713829
20
-12.6999999981807
30
0
41
1
10
39.8486490442
20
-12.6999999981556
30
0
0
SPLINE
5
F9
100
AcDbEntity
8
1
62
256
6
ByLayer
370
18
48
1
60
0
100
AcDbSpline
70
4
71
5
72
12
73
6
40
0
40
0
40
0
40
0
40
0
40
0
40
1
40
1
40
1
40
1
40
1
40
1
41
1
10
39.8710179066312
20
-12.5138060244884
30
0
41
1
10
39.8531153713104
20
-12.5462226199157
30
0
41
1
10
39.8356658397792
20
-12.5799289765655
30
0
41
1
10
39.8195058794956
20
-12.6136965611305
30
0
41
1
10
39.8035456788019
20
-12.6550617496202
30
0
41
1
10
39.8039143744171
20
-12.7000094023055
30
0
0
SPLINE
5
FA
100
AcDbEntity
8
1
62
256
6
ByLayer
370
18
48
1
60
0
100
AcDbSpline
70
4
71
5
72
12
73
6
40
0
40
0
40
0
40
0
40
0
40
0
40
1
40
1
40
1
40
1
40
1
40
1
41
1
10
39.8715504987507
20
-10.4124660000893
30
0
41
1
10
39.9009743533865
20
-10.4401947449533
30
0
41
1
10
39.9277373338555
20
-10.4727689760637
30
0
41
1
10
39.9522182041632
20
-10.5070826361721
30
0
41
1
10
39.9752831761999
20
-10.5408043439879
30
0
41
1
10
39.994447736896
20
-10.5726391594361
30
0
0
SPLINE
5
FB
100
AcDbEntity
8
1
62
256
6
ByLayer
370
18
48
1
60
0
100
AcDbSpline
70
4
71
11
72
24
73
12
40
0
40
0
40
0
40
0
40
0
40
0
40
0
40
0
40
0
40
0
40
0
40
0
40
1
40
1
40
1
40
1
40
1
40
1
40
1
40
1
40
1
40
1
40
1
40
1
41
1
10
44.699997548185
20
-9.81249999999005
30
0
41
1
10
44.699997548185
20
-9.75538013317006
30
0
41
1
10
44.691025179955
20
-9.69826027041006
30
0
41
1
10
44.673080445735
20
-9.64270637012007
30
0
41
1
10
44.646470819965
20
-9.59028442962006
30
0
41
1
10
44.611811262895
20
-9.54249140644006
30
0
41
1
10
44.570006142525
20
-9.50068628567007
30
0
41
1
10
44.5222131195949
20
-9.46602672741005
30
0
41
1
10
44.469791173885
20
-9.43941710271005
30
0
41
1
10
44.414237281035
20
-9.42147236756006
30
0
41
1
10
44.3571174146149
20
-9.41249999999008
30
0
41
1
10
44.2999975481849
20
-9.41249999999008
30
0
0
SPLINE
5
FC
100
AcDbEntity
8
1
62
256
6
ByLayer
370
18
48
1
60
0
100
AcDbSpline
70
4
71
3
72
9
73
5
40
0
40
0
40
0
40
0
40
0.483279051500061
40
1
40
1
40
1
40
1
41
1
10
40.6110831217958
20
-10.8233718985826
30
0
41
1
10
40.6261806153012
20
-10.7872535295642
30
0
41
1
10
40.6574203172055
20
-10.7125174761264
30
0
41
1
10
40.7278831809605
20
-10.6846822849371
30
0
41
1
10
40.764292818754
20
-10.6702992585441
30
0
0
SPLINE
5
FD
100
AcDbEntity
8
1
62
256
6
ByLayer
370
18
48
1
60
0
100
AcDbSpline
70
4
71
11
72
24
73
12
40
0
40
0
40
0
40
0
40
0
40
0
40
0
40
0
40
0
40
0
40
0
40
0
40
1
40
1
40
1
40
1
40
1
40
1
40
1
40
1
40
1
40
1
40
1
40
1
41
1
10
41.448635457765
20
-9.53413510194005
30
0
41
1
10
41.439917117345
20
-9.53451575290006
30
0
41
1
10
41.4312170468549
20
-9.53531485416005
30
0
41
1
10
41.422557562045
20
-9.53653143139005
30
0
41
1
10
41.4139609202149
20
-9.53816317142005
30
0
41
1
10
41.405449228385
20
-9.54020642623007
30
0
41
1
10
41.397044351875
20
-9.54265622433007
30
0
41
1
10
41.388767823785
20
-9.54550628937005
30
0
41
1
10
41.380640756315
20
-9.54874906608006
30
0
41
1
10
41.372683754435
20
-9.55237575306006
30
0
41
1
10
41.3649168326149
20
-9.55637634237007
30
0
41
1
10
41.357359335265
20
-9.56073966552006
30
0
0
SPLINE
5
FE
100
AcDbEntity
8
1
62
256
6
ByLayer
370
18
48
1
60
0
100
AcDbSpline
70
4
71
5
72
12
73
6
40
0
40
0
40
0
40
0
40
0
40
0
40
1
40
1
40
1
40
1
40
1
40
1
41
1
10
40.0187448892352
20
-12.2482836456925
30
0
41
1
10
40.0301744690082
20
-12.2906531713951
30
0
41
1
10
40.0586791218312
20
-12.3330508954043
30
0
41
1
10
40.1026970955462
20
-12.3689325427905
30
0
41
1
10
40.1547070615626
20
-12.3921669686697
30
0
41
1
10
40.2066811495019
20
-12.4014814986591
30
0
0
SPLINE
5
FF
100
AcDbEntity
8
1
62
256
6
ByLayer
370
18
48
1
60
0
100
AcDbSpline
70
4
71
5
72
12
73
6
40
0
40
0
40
0
40
0
40
0
40
0
40
1
40
1
40
1
40
1
40
1
40
1
41
1
10
39.871019565953
20
-10.3611966477101
30
0
41
1
10
39.8705500036851
20
-10.3715751905862
30
0
41
1
10
39.8703617673526
20
-10.3819537773833
30
0
41
1
10
39.8704575052283
20
-10.3922740437891
30
0
41
1
10
39.8708366775775
20
-10.4024776300614
30
0
41
1
10
39.8714955743364
20
-10.4125081311584
30
0
0
SPLINE
5
100
100
AcDbEntity
8
1
62
256
6
ByLayer
370
18
48
1
60
0
100
AcDbSpline
70
4
71
2
72
6
73
3
40
0
40
0
40
0
40
1
40
1
40
1
41
1
10
40.1641951347802
20
-10.4047726975854
30
0
41
1
10
40.1905810726917
20
-10.4369821613141
30
0
41
1
10
40.2067078563493
20
-10.4735223390888
30
0
0
SPLINE
5
101
100
AcDbEntity
8
1
62
256
6
ByLayer
370
18
48
1
60
0
100
AcDbSpline
70
4
71
3
72
8
73
4
40
0
40
0
40
0
40
0
40
1
40
1
40
1
40
1
41
1
10
39.8715361908495
20
-10.4124636260018
30
0
41
1
10
39.8935171365626
20
-10.3713385641062
30
0
41
1
10
39.9239620782012
20
-10.3252507112856
30
0
41
1
10
39.9544334647003
20
-10.2867236702014
30
0
0
SPLINE
5
102
100
AcDbEntity
8
1
62
256
6
ByLayer
370
18
48
1
60
0
100
AcDbSpline
70
4
71
11
72
24
73
12
40
0
40
0
40
0
40
0
40
0
40
0
40
0
40
0
40
0
40
0
40
0
40
0
40
1
40
1
40
1
40
1
40
1
40
1
40
1
40
1
40
1
40
1
40
1
40
1
41
1
10
41.448635457765
20
-13.34086489804
30
0
41
1
10
41.439917117345
20
-13.3404842470801
30
0
41
1
10
41.4312170468549
20
-13.3396851458201
30
0
41
1
10
41.422557562045
20
-13.3384685685901
30
0
41
1
10
41.4139609202149
20
-13.3368368285601
30
0
41
1
10
41.405449228385
20
-13.3347935737501
30
0
41
1
10
41.397044351875
20
-13.3323437756501
30
0
41
1
10
41.388767823785
20
-13.3294937106101
30
0
41
1
10
41.380640756315
20
-13.3262509339001
30
0
41
1
10
41.372683754435
20
-13.3226242469201
30
0
41
1
10
41.3649168326149
20
-13.3186236576101
30
0
41
1
10
41.357359335265
20
-13.3142603344601
30
0
0
SPLINE
5
103
100
AcDbEntity
8
1
62
256
6
ByLayer
370
18
48
1
60
0
100
AcDbSpline
70
4
71
11
72
24
73
12
40
0
40
0
40
0
40
0
40
0
40
0
40
0
40
0
40
0
40
0
40
0
40
0
40
1
40
1
40
1
40
1
40
1
40
1
40
1
40
1
40
1
40
1
40
1
40
1
41
1
10
44.699997548185
20
-13.0624999999901
30
0
41
1
10
44.699997548185
20
-13.1196198668101
30
0
41
1
10
44.691025179955
20
-13.1767397295701
30
0
41
1
10
44.673080445735
20
-13.2322936298601
30
0
41
1
10
44.646470819965
20
-13.2847155703601
30
0
41
1
10
44.611811262895
20
-13.3325085935401
30
0
41
1
10
44.570006142525
20
-13.3743137143101
30
0
41
1
10
44.5222131195949
20
-13.40897327257
30
0
41
1
10
44.469791173885
20
-13.4355828972701
30
0
41
1
10
44.414237281035
20
-13.4535276324201
30
0
41
1
10
44.3571174146149
20
-13.4624999999901
30
0
41
1
10
44.2999975481849
20
-13.4624999999901
30
0
0
SPLINE
5
104
100
AcDbEntity
8
1
62
256
6
ByLayer
370
18
48
1
60
0
100
AcDbSpline
70
4
71
1
72
4
73
2
40
0
40
0
40
1
40
1
41
1
10
40.159465713829
20
-10.1748958787901
30
0
41
1
10
39.8486490442
20
-10.1748958787901
30
0
0
SPLINE
5
105
100
AcDbEntity
8
1
62
256
6
ByLayer
370
18
48
1
60
0
100
AcDbSpline
70
4
71
5
72
12
73
6
40
0
40
0
40
0
40
0
40
0
40
0
40
1
40
1
40
1
40
1
40
1
40
1
41
1
10
39.9545272409339
20
-10.28680682085
30
0
41
1
10
39.936894283342
20
-10.30004905501
30
0
41
1
10
39.919239602171
20
-10.3144625856601
30
0
41
1
10
39.9021581343629
20
-10.3298365808001
30
0
41
1
10
39.885877796262
20
-10.3454701973801
30
0
41
1
10
39.8710184669779
20
-10.3611948665701
30
0
0
SPLINE
5
106
100
AcDbEntity
8
1
62
256
6
ByLayer
370
18
48
1
60
0
100
AcDbSpline
70
4
71
5
72
12
73
6
40
0
40
0
40
0
40
0
40
0
40
0
40
1
40
1
40
1
40
1
40
1
40
1
41
1
10
39.8970852788889
20
-11.4374991701839
30
0
41
1
10
39.9032642385282
20
-11.4374991283118
30
0
41
1
10
39.9089735178045
20
-11.4374990861226
30
0
41
1
10
39.9141972032299
20
-11.437499043717
30
0
41
1
10
39.9189219302996
20
-11.437499001197
30
0
41
1
10
39.923137278888
20
-11.4374989586655
30
0
0
SPLINE
5
107
100
AcDbEntity
8
1
62
256
6
ByLayer
370
18
48
1
60
0
100
AcDbSpline
70
4
71
5
72
12
73
6
40
0
40
0
40
0
40
0
40
0
40
0
40
1
40
1
40
1
40
1
40
1
40
1
41
1
10
39.724713135958
20
-10.1750000018301
30
0
41
1
10
39.7406891961583
20
-10.1750000018301
30
0
41
1
10
39.756663648961
20
-10.1750000018297
30
0
41
1
10
39.7725718341451
20
-10.175000001829
30
0
41
1
10
39.7883455656979
20
-10.1750000018282
30
0
41
1
10
39.8039160314034
20
-10.1750000018271
30
0
0
SPLINE
5
108
100
AcDbEntity
8
1
62
256
6
ByLayer
370
18
48
1
60
0
100
AcDbSpline
70
4
71
11
72
24
73
12
40
0
40
0
40
0
40
0
40
0
40
0
40
0
40
0
40
0
40
0
40
0
40
0
40
1
40
1
40
1
40
1
40
1
40
1
40
1
40
1
40
1
40
1
40
1
40
1
41
1
10
44.2999975481849
20
-9.41250000000005
30
0
41
1
10
44.288098566871
20
-9.41250000000005
30
0
41
1
10
44.2761995855571
20
-9.41255191477359
30
0
41
1
10
44.2643008559102
20
-9.41265574433058
30
0
41
1
10
44.2524026296077
20
-9.41281148728157
30
0
41
1
10
44.2405051582964
20
-9.41301914090744
30
0
41
1
10
44.2286086936238
20
-9.41327870105957
30
0
41
1
10
44.2167134872167
20
-9.41359016226977
30
0
41
1
10
44.2048197906524
20
-9.41395351768034
30
0
41
1
10
44.1929278554682
20
-9.41436875903403
30
0
41
1
10
44.1810379331611
20
-9.41483587674401
30
0
41
1
10
44.1691502751485
20
-9.41535485982399
30
0
0
SPLINE
5
109
100
AcDbEntity
8
1
62
256
6
ByLayer
370
18
48
1
60
0
100
AcDbSpline
70
4
71
5
72
12
73
6
40
0
40
0
40
0
40
0
40
0
40
0
40
1
40
1
40
1
40
1
40
1
40
1
41
1
10
39.848649071261
20
-10.1750000018201
30
0
41
1
10
39.8396260475429
20
-10.1750000018201
30
0
41
1
10
39.830602935457
20
-10.1750000018201
30
0
41
1
10
39.821617977602
20
-10.1750000018301
30
0
41
1
10
39.812709416284
20
-10.1750000018301
30
0
41
1
10
39.803914529465
20
-10.1750000018301
30
0
0
SPLINE
5
10A
100
AcDbEntity
8
1
62
256
6
ByLayer
370
18
48
1
60
0
100
AcDbSpline
70
4
71
5
72
12
73
6
40
0
40
0
40
0
40
0
40
0
40
0
40
1
40
1
40
1
40
1
40
1
40
1
41
1
10
39.9944581144545
20
-10.572604960952
30
0
41
1
10
40.0071669421419
20
-10.5307384405292
30
0
41
1
10
40.0337014162722
20
-10.4876593400372
30
0
41
1
10
40.0724452415019
20
-10.4491369174436
30
0
41
1
10
40.1175155253896
20
-10.4210139268328
30
0
41
1
10
40.1626790306576
20
-10.4053342027957
30
0
0
SPLINE
5
10B
100
AcDbEntity
8
1
62
256
6
ByLayer
370
18
48
1
60
0
100
AcDbSpline
70
4
71
1
72
4
73
2
40
0
40
0
40
1
40
1
41
1
10
40.1696582455009
20
-10.1748958787901
30
0
41
1
10
40.159465713829
20
-10.1748958787901
30
0
0
SPLINE
5
10C
100
AcDbEntity
8
1
62
256
6
ByLayer
370
18
48
1
60
0
100
AcDbSpline
70
4
71
5
72
12
73
6
40
0
40
0
40
0
40
0
40
0
40
0
40
1
40
1
40
1
40
1
40
1
40
1
41
1
10
39.724713135958
20
-12.69999999815
30
0
41
1
10
39.7406891961583
20
-12.69999999815
30
0
41
1
10
39.756663648961
20
-12.6999999981504
30
0
41
1
10
39.7725718341451
20
-12.6999999981511
30
0
41
1
10
39.7883455656979
20
-12.699999998152
30
0
41
1
10
39.8039160314034
20
-12.699999998153
30
0
0
SPLINE
5
10D
100
AcDbEntity
8
1
62
256
6
ByLayer
370
18
48
1
60
0
100
AcDbSpline
70
4
71
5
72
12
73
6
40
0
40
0
40
0
40
0
40
0
40
0
40
1
40
1
40
1
40
1
40
1
40
1
41
1
10
40.1040952322568
20
-10.8235077709401
30
0
41
1
10
40.1155218445425
20
-10.781136040561
30
0
41
1
10
40.1440255561666
20
-10.7387350844651
30
0
41
1
10
40.1880449925155
20
-10.7028502450981
30
0
41
1
10
40.2400576740716
20
-10.6796138806241
30
0
41
1
10
40.292034473802
20
-10.6702988646391
30
0
0
SPLINE
5
10E
100
AcDbEntity
8
1
62
256
6
ByLayer
370
18
48
1
60
0
100
AcDbSpline
70
4
71
3
72
8
73
4
40
0
40
0
40
0
40
0
40
1
40
1
40
1
40
1
41
1
10
39.9945125441346
20
-12.302400352384
30
0
41
1
10
40.0047517419672
20
-12.2850269599556
30
0
41
1
10
40.0129125834292
20
-12.2670219852481
30
0
41
1
10
40.0187560032637
20
-12.2483549362638
30
0
0
SPLINE
5
10F
100
AcDbEntity
8
1
62
256
6
ByLayer
370
18
48
1
60
0
100
AcDbSpline
70
4
71
3
72
10
73
6
40
0
40
0
40
0
40
0
40
0.240222257204695
40
0.488202588130177
40
1
40
1
40
1
40
1
41
1
10
39.8715434608345
20
-12.4625296420451
30
0
41
1
10
39.883536986532
20
-12.4503122310157
30
0
41
1
10
39.9079113736287
20
-12.4254828427891
30
0
41
1
10
39.9511091572924
20
-12.36985004863
30
0
41
1
10
39.9770107713618
20
-12.3295251863731
30
0
41
1
10
39.9944584778387
20
-12.3023617687383
30
0
0
SPLINE
5
110
100
AcDbEntity
8
1
62
256
6
ByLayer
370
18
48
1
60
0
100
AcDbSpline
70
4
71
3
72
9
73
5
40
0
40
0
40
0
40
0
40
0.524705012072451
40
1
40
1
40
1
40
1
41
1
10
39.9545105736158
20
-10.2867264585044
30
0
41
1
10
39.9951524735682
20
-10.3051903123026
30
0
41
1
10
40.072609137822
20
-10.3403793297
30
0
41
1
10
40.1340779006208
20
-10.3836583615193
30
0
41
1
10
40.1632936954932
20
-10.4042286684253
30
0
0
SPLINE
5
111
100
AcDbEntity
8
1
62
256
6
ByLayer
370
18
48
1
60
0
100
AcDbSpline
70
4
71
5
72
12
73
6
40
0
40
0
40
0
40
0
40
0
40
0
40
1
40
1
40
1
40
1
40
1
40
1
41
1
10
40.1641951359474
20
-12.4702501188001
30
0
41
1
10
40.1750119496434
20
-12.4570788987401
30
0
41
1
10
40.1846644302929
20
-12.4435464403901
30
0
41
1
10
40.193142438818
20
-12.4297236769391
30
0
41
1
10
40.2004684222769
20
-12.4156833924601
30
0
41
1
10
40.2067078572515
20
-12.4014952963861
30
0
0
SPLINE
5
112
100
AcDbEntity
8
1
62
256
6
ByLayer
370
18
48
1
60
0
100
AcDbSpline
70
4
71
1
72
4
73
2
40
0
40
0
40
1
40
1
41
1
10
40.2920345677255
20
-10.6703021803552
30
0
41
1
10
40.7642928178304
20
-10.6703263385192
30
0
0
SPLINE
5
113
100
AcDbEntity
8
1
62
256
6
ByLayer
370
18
48
1
60
0
100
AcDbSpline
70
4
71
9
72
20
73
10
40
0
40
0
40
0
40
0
40
0
40
0
40
0
40
0
40
0
40
0
40
1
40
1
40
1
40
1
40
1
40
1
40
1
40
1
40
1
40
1
41
1
10
40.1040950455308
20
-10.8235081467921
30
0
41
1
10
40.1133804679318
20
-10.8235081467921
30
0
41
1
10
40.1265621466555
20
-10.8235081467921
30
0
41
1
10
40.1433925822593
20
-10.8235081467921
30
0
41
1
10
40.1634858007243
20
-10.8235081467921
30
0
41
1
10
40.1863296796692
20
-10.8235081467921
30
0
41
1
10
40.2113085688049
20
-10.8235081467921
30
0
41
1
10
40.2377348077263
20
-10.8235081467921
30
0
41
1
10
40.2648847146549
20
-10.8235081467921
30
0
41
1
10
40.29203462323
20
-10.8235081467921
30
0
0
SPLINE
5
114
100
AcDbEntity
8
1
62
256
6
ByLayer
370
18
48
1
60
0
100
AcDbSpline
70
4
71
5
72
12
73
6
40
0
40
0
40
0
40
0
40
0
40
0
40
1
40
1
40
1
40
1
40
1
40
1
41
1
10
40.2066761485454
20
-12.4014806023617
30
0
41
1
10
40.2237468134055
20
-12.3621245296977
30
0
41
1
10
40.2408174782654
20
-12.3227684570347
30
0
41
1
10
40.2578881431253
20
-12.2834123843707
30
0
41
1
10
40.2749588079854
20
-12.2440563117067
30
0
41
1
10
40.2920294728454
20
-12.2047002390437
30
0
0
SPLINE
5
115
100
AcDbEntity
8
1
62
256
6
ByLayer
370
18
48
1
60
0
100
AcDbSpline
70
4
71
3
72
8
73
4
40
0
40
0
40
0
40
0
40
1
40
1
40
1
40
1
41
1
10
39.99451468776
20
-10.5725994629751
30
0
41
1
10
40.004972568242
20
-10.5895713869949
30
0
41
1
10
40.0130068939949
20
-10.6077774771395
30
0
41
1
10
40.0187676747625
20
-10.6266450501166
30
0
0
SPLINE
5
116
100
AcDbEntity
8
1
62
256
6
ByLayer
370
18
48
1
60
0
100
AcDbSpline
70
4
71
2
72
8
73
5
40
0
40
0
40
0
40
0.5
40
0.5
40
1
40
1
40
1
41
1
10
40.6110831217961
20
-12.051628101562
30
0
41
1
10
40.6114450357067
20
-12.1038233972194
30
0
41
1
10
40.6655365107734
20
-12.1490315947495
30
0
41
1
10
40.7036810107494
20
-12.1809117401416
30
0
41
1
10
40.7642928187541
20
-12.2047007414361
30
0
0
SPLINE
5
117
100
AcDbEntity
8
1
62
256
6
ByLayer
370
18
48
1
60
0
100
AcDbSpline
70
4
71
5
72
12
73
6
40
0
40
0
40
0
40
0
40
0
40
0
40
1
40
1
40
1
40
1
40
1
40
1
41
1
10
40.1040952322568
20
-12.0514922290401
30
0
41
1
10
40.1155218445425
20
-12.093863959419
30
0
41
1
10
40.1440255561666
20
-12.1362649155151
30
0
41
1
10
40.1880449925155
20
-12.1721497548821
30
0
41
1
10
40.2400576740716
20
-12.1953861193561
30
0
41
1
10
40.292034473802
20
-12.2047011353411
30
0
0
SPLINE
5
118
100
AcDbEntity
8
1
62
256
6
ByLayer
370
18
48
1
60
0
100
AcDbSpline
70
4
71
3
72
8
73
4
40
0
40
0
40
0
40
0
40
1
40
1
40
1
40
1
41
1
10
39.871020947324
20
-12.5138364027475
30
0
41
1
10
39.8449843196708
20
-12.5088287320536
30
0
41
1
10
39.8174595505276
20
-12.5038210613597
30
0
41
1
10
39.7892959494607
20
-12.4988133906658
30
0
0
SPLINE
5
119
100
AcDbEntity
8
1
62
256
6
ByLayer
370
18
48
1
60
0
100
AcDbSpline
70
4
71
5
72
12
73
6
40
0
40
0
40
0
40
0
40
0
40
0
40
1
40
1
40
1
40
1
40
1
40
1
41
1
10
39.8710179066312
20
-10.3611939754917
30
0
41
1
10
39.8531153713104
20
-10.3287773800644
30
0
41
1
10
39.8356658397792
20
-10.2950710234146
30
0
41
1
10
39.8195058794956
20
-10.2613034388496
30
0
41
1
10
39.8035456788019
20
-10.2199382503599
30
0
41
1
10
39.8039143744171
20
-10.1749905976747
30
0
0
SPLINE
5
11A
100
AcDbEntity
8
1
62
256
6
ByLayer
370
18
48
1
60
0
100
AcDbSpline
70
4
71
5
72
12
73
6
40
0
40
0
40
0
40
0
40
0
40
0
40
1
40
1
40
1
40
1
40
1
40
1
41
1
10
39.99451468776
20
-12.3024005370051
30
0
41
1
10
40.0072051343861
20
-12.3442771000027
30
0
41
1
10
40.033722134638
20
-12.3873679094445
30
0
41
1
10
40.0724512993813
20
-12.4259031117382
30
0
41
1
10
40.1175137117287
20
-12.4540390886095
30
0
41
1
10
40.1626783452375
20
-12.4697288313079
30
0
0
SPLINE
5
11B
100
AcDbEntity
8
1
62
256
6
ByLayer
370
18
48
1
60
0
100
AcDbSpline
70
4
71
5
72
12
73
6
40
0
40
0
40
0
40
0
40
0
40
0
40
1
40
1
40
1
40
1
40
1
40
1
41
1
10
39.92313859731
20
-11.4375010413146
30
0
41
1
10
39.923137113425
20
-11.4479884106687
30
0
41
1
10
39.923472402754
20
-11.4584937253155
30
0
41
1
10
39.924138490398
20
-11.4688196658265
30
0
41
1
10
39.925119059739
20
-11.4788964729973
30
0
41
1
10
39.926438371891
20
-11.4888654625636
30
0
0
SPLINE
5
11C
100
AcDbEntity
8
1
62
256
6
ByLayer
370
18
48
1
60
0
100
AcDbSpline
70
4
71
5
72
12
73
6
40
0
40
0
40
0
40
0
40
0
40
0
40
1
40
1
40
1
40
1
40
1
40
1
41
1
10
40.2920352372459
20
-12.0514918531881
30
0
41
1
10
40.292035353459
20
-12.086398119835
30
0
41
1
10
40.2920349615319
20
-12.1213062259321
30
0
41
1
10
40.292034778041
20
-12.1539935581011
30
0
41
1
10
40.29203470145
20
-12.1822634653011
30
0
41
1
10
40.2920346242669
20
-12.2047007414361
30
0
0
SPLINE
5
11D
100
AcDbEntity
8
1
62
256
6
ByLayer
370
18
48
1
60
0
100
AcDbSpline
70
4
71
5
72
12
73
6
40
0
40
0
40
0
40
0
40
0
40
0
40
1
40
1
40
1
40
1
40
1
40
1
41
1
10
39.954510571283
20
-12.5882813092136
30
0
41
1
10
40.0030913336421
20
-12.5683824579963
30
0
41
1
10
40.0484256928869
20
-12.5450957046565
30
0
41
1
10
40.0905727888691
20
-12.5202645828013
30
0
41
1
10
40.1301819434051
20
-12.4952316622368
30
0
41
1
10
40.1632792576025
20
-12.4707525887711
30
0
0
SPLINE
5
11E
100
AcDbEntity
8
1
62
256
6
ByLayer
370
18
48
1
60
0
100
AcDbSpline
70
4
71
9
72
20
73
10
40
0
40
0
40
0
40
0
40
0
40
0
40
0
40
0
40
0
40
0
40
1
40
1
40
1
40
1
40
1
40
1
40
1
40
1
40
1
40
1
41
1
10
40.1696582454546
20
-12.7001041234596
30
0
41
1
10
40.1685258993538
20
-12.7000810105986
30
0
41
1
10
40.1673934943535
20
-12.7000607833053
30
0
41
1
10
40.1662610388574
20
-12.7000434417512
30
0
41
1
10
40.1651285412699
20
-12.7000289860792
30
0
41
1
10
40.1639960099958
20
-12.7000174164038
30
0
41
1
10
40.1628634534402
20
-12.7000087328106
30
0
41
1
10
40.1617308800083
20
-12.700002935357
30
0
41
1
10
40.1605982981059
20
-12.7000000240716
30
0
41
1
10
40.1594657161381
20
-12.6999999989545
30
0
0
SPLINE
5
11F
100
AcDbEntity
8
1
62
256
6
ByLayer
370
18
48
1
60
0
100
AcDbSpline
70
4
71
3
72
8
73
4
40
0
40
0
40
0
40
0
40
1
40
1
40
1
40
1
41
1
10
39.8714989093526
20
-10.4125372305503
30
0
41
1
10
39.8455244317543
20
-10.4081064916801
30
0
41
1
10
39.8195499541559
20
-10.4036757528099
30
0
41
1
10
39.7935754765575
20
-10.3992450139397
30
0
0
SPLINE
5
120
100
AcDbEntity
8
1
62
256
6
ByLayer
370
18
48
1
60
0
100
AcDbSpline
70
4
71
3
72
8
73
4
40
0
40
0
40
0
40
0
40
1
40
1
40
1
40
1
41
1
10
40.2920345677255
20
-12.2046995341937
30
0
41
1
10
40.4494539844271
20
-12.2046962065838
30
0
41
1
10
40.6068734011288
20
-12.2046928788199
30
0
41
1
10
40.7642928178304
20
-12.2046895509022
30
0
0
INSERT
5
132
100
AcDbEntity
8
2
62
256
6
ByLayer
370
25
48
1
60
0
100
AcDbBlockReference
2
DimnDraft3D11
10
0
20
0
30
0
41
1
42
1
43
1
50
0
210
0
220
0
230
1
0
LINE
5
72
100
AcDbEntity
8
80
62
256
6
ByLayer
370
18
48
1
60
0
100
AcDbLine
10
0
20
0
30
0
11
-5
21
0
31
0
39
0
210
0
220
0
230
1
0
LINE
5
73
100
AcDbEntity
8
1
62
256
6
ByLayer
370
18
48
1
60
0
100
AcDbLine
10
31.527864
20
-7.6375
30
0
11
24.8
21
-7.6375
31
0
39
0
210
0
220
0
230
1
0
LINE
5
75
100
AcDbEntity
8
81
62
256
6
ByLayer
370
18
48
1
60
0
100
AcDbLine
10
44.7
20
-13.4375
30
0
11
49.7
21
-13.4375
31
0
39
0
210
0
220
0
230
1
0
LINE
5
76
100
AcDbEntity
8
1
62
256
6
ByLayer
370
18
48
1
60
0
100
AcDbLine
10
39.864561
20
-12.166986
30
0
11
39.887725
21
-12.038147
31
0
39
0
210
0
220
0
230
1
0
LINE
5
77
100
AcDbEntity
8
1
62
256
6
ByLayer
370
18
48
1
60
0
100
AcDbLine
10
26.678824
20
-15.864516
30
0
11
12.317785
21
-15.864516
31
0
39
0
210
0
220
0
230
1
0
LINE
5
78
100
AcDbEntity
8
1
62
256
6
ByLayer
370
18
48
1
60
0
100
AcDbLine
10
39.786114
20
-10.362939
30
0
11
39.856315
21
-10.667715
31
0
39
0
210
0
220
0
230
1
0
LINE
5
79
100
AcDbEntity
8
1
62
256
6
ByLayer
370
18
48
1
60
0
100
AcDbLine
10
37
20
-9.650706
30
0
11
36.135
21
-9.650706
31
0
39
0
210
0
220
0
230
1
0
LINE
5
7A
100
AcDbEntity
8
1
62
256
6
ByLayer
370
18
48
1
60
0
100
AcDbLine
10
0.5
20
12.564682
30
0
11
3.079011
21
12.606679
31
0
39
0
210
0
220
0
230
1
0
LINE
5
7B
100
AcDbEntity
8
1
62
256
6
ByLayer
370
18
48
1
60
0
100
AcDbLine
10
36.31327
20
-13.482825
30
0
11
43.8
21
-13.482825
31
0
39
0
210
0
220
0
230
1
0
LINE
5
7C
100
AcDbEntity
8
1
62
256
6
ByLayer
370
18
48
1
60
0
100
AcDbLine
10
39.511018
20
-9.667289
30
0
11
39.786114
21
-10.362939
31
0
39
0
210
0
220
0
230
1
0
LINE
5
7D
100
AcDbEntity
8
1
62
256
6
ByLayer
370
18
48
1
60
0
100
AcDbLine
10
35.65
20
-13.539917
30
0
11
35.4
21
-13.539917
31
0
39
0
210
0
220
0
230
1
0
LINE
5
7E
100
AcDbEntity
8
1
62
256
6
ByLayer
370
18
48
1
60
0
100
AcDbLine
10
39.786114
20
-12.512061
30
0
11
39.856315
21
-12.207285
31
0
39
0
210
0
220
0
230
1
0
LINE
5
7F
100
AcDbEntity
8
1
62
256
6
ByLayer
370
18
48
1
60
0
100
AcDbLine
10
3.079011
20
12.606679
30
0
11
10.055821
21
12.606679
31
0
39
0
210
0
220
0
230
1
0
LINE
5
80
100
AcDbEntity
8
1
62
256
6
ByLayer
370
18
48
1
60
0
100
AcDbLine
10
10.055821
20
12.606679
30
0
11
23.2
21
-0.5375
31
0
39
0
210
0
220
0
230
1
0
LINE
5
81
100
AcDbEntity
8
1
62
256
6
ByLayer
370
18
48
1
60
0
100
AcDbLine
10
12.317785
20
-15.864516
30
0
11
11.5
21
-12.8125
31
0
39
0
210
0
220
0
230
1
0
LINE
5
82
100
AcDbEntity
8
1
62
256
6
ByLayer
370
18
48
1
60
0
100
AcDbLine
10
23.2
20
-8.585116
30
0
11
23.2
21
-0.5375
31
0
39
0
210
0
220
0
230
1
0
LINE
5
83
100
AcDbEntity
8
1
62
256
6
ByLayer
370
18
48
1
60
0
100
AcDbLine
10
3.079011
20
-12.3125
30
0
11
3.079011
21
12.606679
31
0
39
0
210
0
220
0
230
1
0
LINE
5
84
100
AcDbEntity
8
1
62
256
6
ByLayer
370
18
48
1
60
0
100
AcDbLine
10
11
20
-12.3125
30
0
11
3.079011
21
-12.3125
31
0
39
0
210
0
220
0
230
1
0
LINE
5
85
100
AcDbEntity
8
1
62
256
6
ByLayer
370
18
48
1
60
0
100
AcDbLine
10
0
20
-12.3125
30
0
11
0.5
21
-12.3125
31
0
39
0
210
0
220
0
230
1
0
LINE
5
86
100
AcDbEntity
8
1
62
256
6
ByLayer
370
18
48
1
60
0
100
AcDbLine
10
39.786114
20
-10.362939
30
0
11
39.786114
21
-12.512061
31
0
39
0
210
0
220
0
230
1
0
LINE
5
87
100
AcDbEntity
8
1
62
256
6
ByLayer
370
18
48
1
60
0
100
AcDbLine
10
35.65
20
-13.539917
30
0
11
35.65
21
-13.402924
31
0
39
0
210
0
220
0
230
1
0
LINE
5
88
100
AcDbEntity
8
1
62
256
6
ByLayer
370
18
48
1
60
0
100
AcDbLine
10
36
20
-9.650527
30
0
11
36
21
-9.989739
31
0
39
0
210
0
220
0
230
1
0
LINE
5
89
100
AcDbEntity
8
1
62
256
6
ByLayer
370
18
48
1
60
0
100
AcDbLine
10
43.8
20
-13.482825
30
0
11
43.8
21
-14.93614
31
0
39
0
210
0
220
0
230
1
0
LINE
5
8A
100
AcDbEntity
8
1
62
256
6
ByLayer
370
18
48
1
60
0
100
AcDbLine
10
43.8
20
-13.443523
30
0
11
43.8
21
-13.482825
31
0
39
0
210
0
220
0
230
1
0
LINE
5
8B
100
AcDbEntity
8
1
62
256
6
ByLayer
370
18
48
1
60
0
100
AcDbLine
10
31.527864
20
-7.6375
30
0
11
31.527864
21
-8.802771
31
0
39
0
210
0
220
0
230
1
0
LINE
5
8C
100
AcDbEntity
8
1
62
256
6
ByLayer
370
18
48
1
60
0
100
AcDbLine
10
26.678824
20
-10.430229
30
0
11
26.678824
21
-15.864516
31
0
39
0
210
0
220
0
230
1
0
LINE
5
8D
100
AcDbEntity
8
1
62
256
6
ByLayer
370
18
48
1
60
0
100
AcDbLine
10
12.317768
20
-15.864451
30
0
11
13.700919
21
-21.026442
31
0
39
0
210
0
220
0
230
1
0
LINE
5
8E
100
AcDbEntity
8
1
62
256
6
ByLayer
370
18
48
1
60
0
100
AcDbLine
10
39.864561
20
-10.708014
30
0
11
39.887725
21
-10.836853
31
0
39
0
210
0
220
0
230
1
0
LINE
5
8F
100
AcDbEntity
8
1
62
256
6
ByLayer
370
18
48
1
60
0
100
AcDbLine
10
39.887725
20
-12.038147
30
0
11
39.887725
21
-10.836853
31
0
39
0
210
0
220
0
230
1
0
LINE
5
90
100
AcDbEntity
8
1
62
256
6
ByLayer
370
18
48
1
60
0
100
AcDbLine
10
0.5
20
-12.3125
30
0
11
0.5
21
12.564682
31
0
39
0
210
0
220
0
230
1
0
LINE
5
91
100
AcDbEntity
8
1
62
256
6
ByLayer
370
18
48
1
60
0
100
AcDbLine
10
26.678824
20
-10.430229
30
0
11
24.8
21
-10.430229
31
0
39
0
210
0
220
0
230
1
0
LINE
5
92
100
AcDbEntity
8
1
62
256
6
ByLayer
370
18
48
1
60
0
100
AcDbLine
10
3.079011
20
-12.3125
30
0
11
0.5
21
-12.3125
31
0
39
0
210
0
220
0
230
1
0
LINE
5
93
100
AcDbEntity
8
1
62
256
6
ByLayer
370
18
48
1
60
0
100
AcDbLine
10
39.56849
20
-13.062379
30
0
11
39.786114
21
-12.512061
31
0
39
0
210
0
220
0
230
1
0
LINE
5
94
100
AcDbEntity
8
1
62
256
6
ByLayer
370
18
48
1
60
0
100
AcDbLine
10
35.4
20
-13.539917
30
0
11
35.4
21
-13.438497
31
0
39
0
210
0
220
0
230
1
0
LINE
5
95
100
AcDbEntity
8
1
62
256
6
ByLayer
370
18
48
1
60
0
100
AcDbLine
10
0.5
20
12.564682
30
0
11
0
21
12.5625
31
0
39
0
210
0
220
0
230
1
0
LINE
5
96
100
AcDbEntity
8
1
62
256
6
ByLayer
370
18
48
1
60
0
100
AcDbLine
10
13.700919
20
-21.026442
30
0
11
39.623688
21
-21.026442
31
0
39
0
210
0
220
0
230
1
0
LINE
5
97
100
AcDbEntity
8
1
62
256
6
ByLayer
370
18
48
1
60
0
100
AcDbLine
10
24.8
20
-7.6375
30
0
11
24.8
21
-10.430229
31
0
39
0
210
0
220
0
230
1
0
LINE
5
98
100
AcDbEntity
8
1
62
256
6
ByLayer
370
18
48
1
60
0
100
AcDbLine
10
11
20
-12.3125
30
0
11
11.5
21
-12.8125
31
0
39
0
210
0
220
0
230
1
0
LINE
5
99
100
AcDbEntity
8
1
62
256
6
ByLayer
370
18
48
1
60
0
100
AcDbLine
10
0
20
12.5625
30
0
11
0
21
-12.3125
31
0
39
0
210
0
220
0
230
1
0
LINE
5
9A
100
AcDbEntity
8
1
62
256
6
ByLayer
370
18
48
1
60
0
100
AcDbLine
10
40.496475
20
-10.057755
30
0
11
39.665439
21
-10.057755
31
0
39
0
210
0
220
0
230
1
0
LINE
5
9B
100
AcDbEntity
8
SK1
62
256
6
ByLayer
370
18
48
1
60
0
100
AcDbLine
10
-106.65
20
-12.3125
30
0
11
-106.65
21
12.5625
31
0
39
0
210
0
220
0
230
1
0
LINE
5
9D
100
AcDbEntity
8
1
62
256
6
ByLayer
370
18
48
1
60
0
100
AcDbLine
10
41.672615
20
-12.700104
30
0
11
40.169658
21
-12.700104
31
0
39
0
210
0
220
0
230
1
0
LINE
5
9E
100
AcDbEntity
8
1
62
256
6
ByLayer
370
18
48
1
60
0
100
AcDbLine
10
41.443004
20
-10.404838
30
0
11
40.764298
21
-10.670324
31
0
39
0
210
0
220
0
230
1
0
LINE
5
9F
100
AcDbEntity
8
1
62
256
6
ByLayer
370
18
48
1
60
0
100
AcDbLine
10
40.409455
20
-10.108013
30
0
11
41.357359
21
-9.56074
31
0
39
0
210
0
220
0
230
1
0
LINE
5
A0
100
AcDbEntity
8
1
62
256
6
ByLayer
370
18
48
1
60
0
100
AcDbLine
10
42.500471
20
-13.386789
30
0
11
41.712429
21
-13.352382
31
0
39
0
210
0
220
0
230
1
0
LINE
5
A1
100
AcDbEntity
8
1
62
256
6
ByLayer
370
18
48
1
60
0
100
AcDbLine
10
39.711764
20
-10.175
30
0
11
39.724713
21
-10.175
31
0
39
0
210
0
220
0
230
1
0
LINE
5
A2
100
AcDbEntity
8
1
62
256
6
ByLayer
370
18
48
1
60
0
100
AcDbLine
10
44.16915
20
-13.459645
30
0
11
42.500471
21
-13.386789
31
0
39
0
210
0
220
0
230
1
0
LINE
5
A3
100
AcDbEntity
8
1
62
256
6
ByLayer
370
18
48
1
60
0
100
AcDbLine
10
40.292035
20
-12.051492
30
0
11
40.611083
21
-12.051492
31
0
39
0
210
0
220
0
230
1
0
LINE
5
A4
100
AcDbEntity
8
1
62
256
6
ByLayer
370
18
48
1
60
0
100
AcDbLine
10
39.926437
20
-11.488866
30
0
11
40.018747
21
-12.248284
31
0
39
0
210
0
220
0
230
1
0
LINE
5
A5
100
AcDbEntity
8
1
62
256
6
ByLayer
370
18
48
1
60
0
100
AcDbLine
10
41.443004
20
-12.470162
30
0
11
40.764298
21
-12.204676
31
0
39
0
210
0
220
0
230
1
0
LINE
5
A6
100
AcDbEntity
8
1
62
256
6
ByLayer
370
18
48
1
60
0
100
AcDbLine
10
40.611084
20
-12.051628
30
0
11
40.611084
21
-10.823372
31
0
39
0
210
0
220
0
230
1
0
LINE
5
A7
100
AcDbEntity
8
1
62
256
6
ByLayer
370
18
48
1
60
0
100
AcDbLine
10
40.292035
20
-11.4375
30
0
11
40.292035
21
-12.051494
31
0
39
0
210
0
220
0
230
1
0
LINE
5
A8
100
AcDbEntity
8
1
62
256
6
ByLayer
370
18
48
1
60
0
100
AcDbLine
10
40.292035
20
-10.823508
30
0
11
40.611083
21
-10.823508
31
0
39
0
210
0
220
0
230
1
0
LINE
5
A9
100
AcDbEntity
8
1
62
256
6
ByLayer
370
18
48
1
60
0
100
AcDbLine
10
40.104094
20
-11.4375
30
0
11
40.104095
21
-10.823508
31
0
39
0
210
0
220
0
230
1
0
LINE
5
AA
100
AcDbEntity
8
1
62
256
6
ByLayer
370
18
48
1
60
0
100
AcDbLine
10
44.700002
20
-13.0625
30
0
11
44.700002
21
-9.8125
31
0
39
0
210
0
220
0
230
1
0
LINE
5
AB
100
AcDbEntity
8
1
62
256
6
ByLayer
370
18
48
1
60
0
100
AcDbLine
10
39.711764
20
-12.7
30
0
11
39.724713
21
-12.7
31
0
39
0
210
0
220
0
230
1
0
LINE
5
AC
100
AcDbEntity
8
1
62
256
6
ByLayer
370
18
48
1
60
0
100
AcDbLine
10
39.724713
20
-10.207672
30
0
11
39.724713
21
-10.175
31
0
39
0
210
0
220
0
230
1
0
LINE
5
AD
100
AcDbEntity
8
1
62
256
6
ByLayer
370
18
48
1
60
0
100
AcDbLine
10
39.724713
20
-12.667328
30
0
11
39.724713
21
-12.7
31
0
39
0
210
0
220
0
230
1
0
LINE
5
AE
100
AcDbEntity
8
1
62
256
6
ByLayer
370
18
48
1
60
0
100
AcDbLine
10
40.409455
20
-12.766987
30
0
11
41.357359
21
-13.31426
31
0
39
0
210
0
220
0
230
1
0
LINE
5
AF
100
AcDbEntity
8
1
62
256
6
ByLayer
370
18
48
1
60
0
100
AcDbLine
10
41.712429
20
-13.352382
30
0
11
41.448635
21
-13.340865
31
0
39
0
210
0
220
0
230
1
0
LINE
5
B0
100
AcDbEntity
8
1
62
256
6
ByLayer
370
18
48
1
60
0
100
AcDbLine
10
44.16915
20
-9.415355
30
0
11
42.500471
21
-9.488211
31
0
39
0
210
0
220
0
230
1
0
LINE
5
B1
100
AcDbEntity
8
1
62
256
6
ByLayer
370
18
48
1
60
0
100
AcDbLine
10
41.712429
20
-9.522618
30
0
11
41.448635
21
-9.534135
31
0
39
0
210
0
220
0
230
1
0
LINE
5
B2
100
AcDbEntity
8
1
62
256
6
ByLayer
370
18
48
1
60
0
100
AcDbLine
10
40.018743
20
-12.248274
30
0
11
40.104097
21
-12.051488
31
0
39
0
210
0
220
0
230
1
0
LINE
5
B3
100
AcDbEntity
8
1
62
256
6
ByLayer
370
18
48
1
60
0
100
AcDbLine
10
40.292035
20
-11.4375
30
0
11
40.292035
21
-10.823506
31
0
39
0
210
0
220
0
230
1
0
LINE
5
B4
100
AcDbEntity
8
1
62
256
6
ByLayer
370
18
48
1
60
0
100
AcDbLine
10
40.018743
20
-10.626726
30
0
11
40.104097
21
-10.823512
31
0
39
0
210
0
220
0
230
1
0
LINE
5
B5
100
AcDbEntity
8
1
62
256
6
ByLayer
370
18
48
1
60
0
100
AcDbLine
10
41.672615
20
-10.174896
30
0
11
41.672615
21
-12.700104
31
0
39
0
210
0
220
0
230
1
0
LINE
5
B6
100
AcDbEntity
8
1
62
256
6
ByLayer
370
18
48
1
60
0
100
AcDbLine
10
41.672615
20
-10.174896
30
0
11
40.169658
21
-10.174896
31
0
39
0
210
0
220
0
230
1
0
LINE
5
B7
100
AcDbEntity
8
1
62
256
6
ByLayer
370
18
48
1
60
0
100
AcDbLine
10
40.104094
20
-11.4375
30
0
11
40.104095
21
-12.051492
31
0
39
0
210
0
220
0
230
1
0
LINE
5
B8
100
AcDbEntity
8
1
62
256
6
ByLayer
370
18
48
1
60
0
100
AcDbLine
10
42.500471
20
-9.488211
30
0
11
41.712429
21
-9.522618
31
0
39
0
210
0
220
0
230
1
0
LINE
5
B9
100
AcDbEntity
8
1
62
256
6
ByLayer
370
18
48
1
60
0
100
AcDbLine
10
39.926437
20
-11.386134
30
0
11
40.018747
21
-10.626716
31
0
39
0
210
0
220
0
230
1
0
LINE
5
BA
100
AcDbEntity
8
SK1
62
256
6
ByLayer
370
18
48
1
60
0
100
AcDbLine
10
0
20
-12.3125
30
0
11
-106.65
21
-12.3125
31
0
39
0
210
0
220
0
230
1
0
LINE
5
BB
100
AcDbEntity
8
SK1
62
256
6
ByLayer
370
18
48
1
60
0
100
AcDbLine
10
0
20
-12.3125
30
0
11
0
21
12.5625
31
0
39
0
210
0
220
0
230
1
0
LINE
5
BC
100
AcDbEntity
8
SK1
62
256
6
ByLayer
370
18
48
1
60
0
100
AcDbLine
10
-106.65
20
12.5625
30
0
11
0
21
12.5625
31
0
39
0
210
0
220
0
230
1
0
MTEXT
5
121
100
AcDbEntity
8
SK6
62
256
6
ByLayer
370
18
48
1
60
0
100
AcDbMText
10
-60.099999
20
-28.084882
30
0
210
0
220
0
230
1
1
\W0.7393;LF151.37-2525-027B30
40
3.5
41
0
44
1.084337
50
0
71
7
72
5
7
iso_b_vert
0
DIMENSION
5
140
100
AcDbEntity
8
2
62
256
6
ByLayer
370
13
48
1
60
0
100
AcDbDimension
2
DimnDraft3D2
10
58.95
20
-9.4375
30
0
11
58.95
21
-4.9375
31
0
70
32
71
5
72
1
41
1
210
0
220
0
230
1
3
Standard
100
AcDbAlignedDimension
13
46.2
23
-13.4375
33
0
14
46.2
24
-9.4375
34
0
50
90
100
AcDbRotatedDimension
1001
ACAD
1000
DSTYLE
1002
{
1070
    74
1070
     0
1070
   279
1070
     0
1070
   172
1070
     1
1070
   173
1070
     1
1070
   340
1005
122
1070
   271
1070
     3
1070
   272
1070
     3
1070
    77
1070
     1
1070
    73
1070
     0
1070
   171
1070
     4
1070
   274
1070
     4
1070
   177
1070
     2
1070
   176
1070
     2
1070
   178
1070
     7
1070
    78
1070
     8
1070
    41
1041
3.0
1070
   147
1041
2.25
1070
    42
1041
1.5
1070
    44
1041
3.0
1070
   140
1041
4.5
1070
   343
1005
141
1070
   344
1005
141
1002
}
0
DIMENSION
5
155
100
AcDbEntity
8
2
62
256
6
ByLayer
370
13
48
1
60
0
100
AcDbDimension
2
DimnDraft3D3
10
68.95
20
12.4375
30
0
11
68.95
21
-3.188158
31
0
70
32
71
5
72
1
41
1
210
0
220
0
230
1
3
Standard
100
AcDbAlignedDimension
13
46.2
23
-13.4375
33
0
14
1.5
24
12.4375
34
0
50
90
100
AcDbRotatedDimension
1001
ACAD
1000
DSTYLE
1002
{
1070
    74
1070
     0
1070
   279
1070
     0
1070
   172
1070
     1
1070
   173
1070
     1
1070
   340
1005
122
1070
   271
1070
     3
1070
   272
1070
     3
1070
    77
1070
     1
1070
    73
1070
     0
1070
   171
1070
     4
1070
   274
1070
     4
1070
   177
1070
     2
1070
   176
1070
     2
1070
   178
1070
     7
1070
    78
1070
     8
1070
    41
1041
3.0
1070
   147
1041
2.25
1070
    42
1041
1.5
1070
    44
1041
3.0
1070
   140
1041
4.5
1070
   343
1005
141
1070
   344
1005
141
1002
}
0
DIMENSION
5
164
100
AcDbEntity
8
SK2
62
256
6
ByLayer
370
13
48
1
60
0
100
AcDbDimension
2
DimnDraft3D4
10
-116.4
20
-12.4375
30
0
11
-116.4
21
-2.688158
31
0
70
32
71
5
72
1
41
1
210
0
220
0
230
1
3
Standard
100
AcDbAlignedDimension
13
-108.15
23
12.4375
33
0
14
-108.15
24
-12.4375
34
0
50
90
100
AcDbRotatedDimension
1001
ACAD
1000
DSTYLE
1002
{
1070
    74
1070
     0
1070
   279
1070
     0
1070
   172
1070
     1
1070
   173
1070
     1
1070
   340
1005
122
1070
   271
1070
     3
1070
   272
1070
     3
1070
    77
1070
     1
1070
    73
1070
     0
1070
   171
1070
     4
1070
   274
1070
     4
1070
   177
1070
     2
1070
   176
1070
     2
1070
   178
1070
     7
1070
    78
1070
     8
1070
    41
1041
3.0
1070
   147
1041
2.25
1070
    42
1041
1.5
1070
    44
1041
3.0
1070
   140
1041
4.5
1070
   343
1005
141
1070
   344
1005
141
1002
}
0
DIMENSION
5
172
100
AcDbEntity
8
2
62
256
6
ByLayer
370
13
48
1
60
0
100
AcDbDimension
2
DimnDraft3D5
10
36
20
22.1875
30
0
11
49.2
21
22.1875
31
0
70
32
71
5
72
1
41
1
210
0
220
0
230
1
3
Standard
100
AcDbAlignedDimension
13
44.7
23
-7.9375
33
0
14
36
24
13.9375
34
0
50
0
100
AcDbRotatedDimension
1001
ACAD
1000
DSTYLE
1002
{
1070
   279
1070
     0
1070
   172
1070
     1
1070
   173
1070
     1
1070
   340
1005
122
1070
   271
1070
     3
1070
   272
1070
     3
1070
    77
1070
     1
1070
    73
1070
     0
1070
   171
1070
     4
1070
   274
1070
     4
1070
   177
1070
     2
1070
   176
1070
     2
1070
   178
1070
     7
1070
    78
1070
     8
1070
    41
1041
3.0
1070
   147
1041
2.25
1070
    42
1041
1.5
1070
    44
1041
3.0
1070
   140
1041
4.5
1070
   343
1005
141
1070
   344
1005
141
1002
}
0
DIMENSION
5
180
100
AcDbEntity
8
2
62
256
6
ByLayer
370
13
48
1
60
0
100
AcDbDimension
2
DimnDraft3D6
10
0
20
42.1875
30
0
11
16.594737
21
42.1875
31
0
70
32
71
5
72
1
41
1
210
0
220
0
230
1
3
Standard
100
AcDbAlignedDimension
13
44.7
23
-7.9375
33
0
14
0
24
13.9375
34
0
50
0
100
AcDbRotatedDimension
1001
ACAD
1000
DSTYLE
1002
{
1070
   279
1070
     0
1070
   172
1070
     1
1070
   173
1070
     1
1070
   340
1005
122
1070
   271
1070
     3
1070
   272
1070
     3
1070
    77
1070
     1
1070
    73
1070
     0
1070
   171
1070
     4
1070
   274
1070
     4
1070
   177
1070
     2
1070
   176
1070
     2
1070
   178
1070
     7
1070
    78
1070
     8
1070
    41
1041
3.0
1070
   147
1041
2.25
1070
    42
1041
1.5
1070
    44
1041
3.0
1070
   140
1041
4.5
1070
   343
1005
141
1070
   344
1005
141
1002
}
0
DIMENSION
5
18E
100
AcDbEntity
8
SK2
62
256
6
ByLayer
370
13
48
1
60
0
100
AcDbDimension
2
DimnDraft3D7
10
-106.65
20
52.1875
30
0
11
-34.782237
21
52.1875
31
0
70
32
71
5
72
1
41
1
210
0
220
0
230
1
3
Standard
100
AcDbAlignedDimension
13
44.7
23
-7.9375
33
0
14
-106.65
24
13.9375
34
0
50
0
100
AcDbRotatedDimension
1001
ACAD
1000
DSTYLE
1002
{
1070
   279
1070
     0
1070
   172
1070
     1
1070
   173
1070
     1
1070
   340
1005
122
1070
   271
1070
     3
1070
   272
1070
     3
1070
    77
1070
     1
1070
    73
1070
     0
1070
   171
1070
     4
1070
   274
1070
     4
1070
   177
1070
     2
1070
   176
1070
     2
1070
   178
1070
     7
1070
    78
1070
     8
1070
    41
1041
3.0
1070
   147
1041
2.25
1070
    42
1041
1.5
1070
    44
1041
3.0
1070
   140
1041
4.5
1070
   343
1005
141
1070
   344
1005
141
1002
}
0
ENDSEC
0
SECTION
2
OBJECTS
0
DICTIONARY
5
1f8
330
0
100
AcDbDictionary
280
0
281
1
3
ACAD_GROUP
350
1f9
3
ACAD_MLINESTYLE
350
1fa
0
DICTIONARY
5
1f9
330
0
100
AcDbDictionary
280
0
281
1
0
DICTIONARY
5
1fa
330
0
100
AcDbDictionary
280
0
281
1
3
Standard
350
18
0
MLINESTYLE
5
18
330
1fa
100
AcDbMlineStyle
2
Standard
70
0
3

62
256
51
90
52
90
71
2
49
-0.5
62
256
6
ByLayer
49
0.5
62
256
6
ByLayer
0
RASTERVARIABLES
5
1e7
330

100
AcDbRasterVariables
90
0
70
1
71
1
72
1
0
ENDSEC
0
EOF
