0
SECTION
2
HEADER
9
$ACADVER
1
AC1015
9
$DWGCODEPAGE
3
ANSI_1252
9
$HANDSEED
5
1ff
9
$ANGBASE
50
0
9
$ANGDIR
70
0
9
$ATTMODE
70
1
9
$AUNITS
70
0
9
$AUPREC
70
0
9
$CECOLOR
62
256
9
$CELTSCALE
40
1
9
$CELTYPE
6
ByLayer
9
$CELWEIGHT
370
18
9
$CLAYER
8
0
9
$CMLJUST
70
0
9
$CMLSCALE
40
1
9
$CMLSTYLE
2
Standard
9
$DIMSTYLE
2
Standard
9
$TEXTSIZE
40
0.2
9
$TEXTSTYLE
7
Standard
9
$LUNITS
70
2
9
$LUPREC
70
4
9
$EXTNAMES
290
1
9
$INSUNITS
70
4
9
$LTSCALE
40
1
9
$LWDISPLAY
290
1
9
$PDMODE
70
0
9
$PDSIZE
40
0
9
$PLINEGEN
70
0
0
ENDSEC
0
SECTION
2
CLASSES
0
CLASS
1
RASTERVARIABLES
2
AcDbRasterVariables
3
ISM
90
0
280
0
281
0
0
ENDSEC
0
SECTION
2
TABLES
0
TABLE
2
VPORT
5
1f5
100
AcDbSymbolTable
0
VPORT
5
1
100
AcDbSymbolTableRecord
100
AcDbViewportTableRecord
2
*Active
70
0
10
0
20
0
11
1
21
1
12
-1
22
1
13
0
23
0
14
0.5
24
0.5
15
10
25
10
16
0
26
0
36
1
17
0
27
0
37
0
0
ENDTAB
0
TABLE
2
LTYPE
5
1f6
100
AcDbSymbolTable
0
LTYPE
5
14
100
AcDbSymbolTableRecord
100
AcDbLinetypeTableRecord
70
0
2
ByBlock
3

72
65
73
0
40
0
0
LTYPE
5
15
100
AcDbSymbolTableRecord
100
AcDbLinetypeTableRecord
70
0
2
ByLayer
3

72
65
73
0
40
0
0
LTYPE
5
16
100
AcDbSymbolTableRecord
100
AcDbLinetypeTableRecord
70
0
2
CONTINUOUS
3
Solid line
72
65
73
0
40
0
0
LTYPE
5
6A
100
AcDbSymbolTableRecord
100
AcDbLinetypeTableRecord
70
0
2
CENTER
3
____ _ ____ _ ____ _ ____
72
65
73
4
40
47.5
49
22
74
0
49
-8.5
74
0
49
8.5
74
0
49
-8.5
74
0
0
LTYPE
5
6B
100
AcDbSymbolTableRecord
100
AcDbLinetypeTableRecord
70
0
2
DASHED
3
__ __ __ __ __ __ __ __ __
72
65
73
2
40
25.72
49
12.86
74
0
49
-12.86
74
0
0
ENDTAB
0
TABLE
2
LAYER
5
1f7
100
AcDbSymbolTable
0
LAYER
5
10
100
AcDbSymbolTableRecord
100
AcDbLayerTableRecord
2
0
70
0
62
7
6
CONTINUOUS
290
1
370
-3
390
0
0
LAYER
5
6D
100
AcDbSymbolTableRecord
100
AcDbLayerTableRecord
2
2
70
0
62
7
6
CONTINUOUS
290
1
370
-3
390
0
0
LAYER
5
6F
100
AcDbSymbolTableRecord
100
AcDbLayerTableRecord
2
80
70
0
62
-6
6
CONTINUOUS
290
1
370
-3
390
0
0
LAYER
5
71
100
AcDbSymbolTableRecord
100
AcDbLayerTableRecord
2
81
70
0
62
-3
6
CONTINUOUS
290
1
370
-3
390
0
0
LAYER
5
74
100
AcDbSymbolTableRecord
100
AcDbLayerTableRecord
2
1
70
0
62
4
6
CONTINUOUS
290
1
370
-3
390
0
0
LAYER
5
1e2
100
AcDbSymbolTableRecord
100
AcDbLayerTableRecord
2
SK1
70
0
62
4
6
CONTINUOUS
290
1
370
-3
390
0
0
LAYER
5
1e3
100
AcDbSymbolTableRecord
100
AcDbLayerTableRecord
2
SK6
70
0
62
5
6
CONTINUOUS
290
1
370
-3
390
0
0
LAYER
5
1e4
100
AcDbSymbolTableRecord
100
AcDbLayerTableRecord
2
SK2
70
0
62
7
6
CONTINUOUS
290
1
370
-3
390
0
0
ENDTAB
0
TABLE
2
STYLE
5
1f8
100
AcDbSymbolTable
0
STYLE
5
11
100
AcDbSymbolTableRecord
100
AcDbTextStyleTableRecord
2
Standard
3
txt
70
0
71
0
40
0
41
1
42
0
50
0
0
STYLE
5
11C
100
AcDbSymbolTableRecord
100
AcDbTextStyleTableRecord
2
iso_b_vert
3
simplex.shx
70
0
71
0
40
0
41
1
42
0
50
0
0
STYLE
5
11D
100
AcDbSymbolTableRecord
100
AcDbTextStyleTableRecord
2
DWGDirectTextStyle
3
simplex
70
0
71
0
40
0
41
1
42
0
50
0
0
ENDTAB
0
TABLE
2
DIMSTYLE
5
1f9
100
AcDbSymbolTable
100
AcDbDimStyleTable
0
DIMSTYLE
105
27
100
AcDbSymbolTableRecord
100
AcDbDimStyleTableRecord
2
Standard
70
0
3
<>
41
0.18
42
0.0625
44
0.18
140
0.18
147
0.09
73
0
74
0
77
1
271
2
275
0
278
52
280
0
340
11
0
ENDTAB
0
TABLE
2
VIEW
5
1fa
100
AcDbSymbolTable
0
ENDTAB
0
TABLE
2
UCS
5
1fb
100
AcDbSymbolTable
0
ENDTAB
0
TABLE
2
APPID
5
1fc
100
AcDbSymbolTable
0
APPID
5
12
100
AcDbSymbolTableRecord
100
AcDbRegAppTableRecord
2
ACAD
70
0
0
ENDTAB
0
TABLE
2
BLOCK_RECORD
5
1fd
100
AcDbSymbolTable
0
BLOCK_RECORD
5
1F
100
AcDbSymbolTableRecord
100
AcDbBlockTableRecord
2
*Model_Space
340
0
70
0
0
BLOCK_RECORD
5
1B
100
AcDbSymbolTableRecord
100
AcDbBlockTableRecord
2
*Paper_Space
340
0
70
0
0
BLOCK_RECORD
5
23
100
AcDbSymbolTableRecord
100
AcDbBlockTableRecord
2
*Paper_Space0
340
0
70
0
0
BLOCK_RECORD
5
11F
100
AcDbSymbolTableRecord
100
AcDbBlockTableRecord
2
DimnDraft3D11
340
0
70
0
0
BLOCK_RECORD
5
12D
100
AcDbSymbolTableRecord
100
AcDbBlockTableRecord
2
DimnDraft3D2
340
0
70
0
0
BLOCK_RECORD
5
13B
100
AcDbSymbolTableRecord
100
AcDbBlockTableRecord
2
_CLOSED
340
0
70
0
0
BLOCK_RECORD
5
142
100
AcDbSymbolTableRecord
100
AcDbBlockTableRecord
2
DimnDraft3D3
340
0
70
0
0
BLOCK_RECORD
5
150
100
AcDbSymbolTableRecord
100
AcDbBlockTableRecord
2
DimnDraft3D4
340
0
70
0
0
BLOCK_RECORD
5
15F
100
AcDbSymbolTableRecord
100
AcDbBlockTableRecord
2
DimnDraft3D5
340
0
70
0
0
BLOCK_RECORD
5
16D
100
AcDbSymbolTableRecord
100
AcDbBlockTableRecord
2
DimnDraft3D6
340
0
70
0
0
BLOCK_RECORD
5
17B
100
AcDbSymbolTableRecord
100
AcDbBlockTableRecord
2
DimnDraft3D7
340
0
70
0
0
ENDTAB
0
ENDSEC
0
SECTION
2
BLOCKS
0
BLOCK
5
20
100
AcDbEntity
8
0
100
AcDbBlockBegin
2
*Model_Space
70
0
10
0
20
0
30
0
3
*Model_Space
0
ENDBLK
5
21
100
AcDbEntity
8
0
100
AcDbBlockEnd
0
BLOCK
5
1C
100
AcDbEntity
8
0
100
AcDbBlockBegin
2
*Paper_Space
70
0
10
0
20
0
30
0
3
*Paper_Space
0
ENDBLK
5
1D
100
AcDbEntity
8
0
100
AcDbBlockEnd
0
BLOCK
5
24
100
AcDbEntity
8
0
100
AcDbBlockBegin
2
*Paper_Space0
70
0
10
0
20
0
30
0
3
*Paper_Space0
0
ENDBLK
5
25
100
AcDbEntity
8
0
100
AcDbBlockEnd
0
BLOCK
5
120
100
AcDbEntity
8
0
100
AcDbBlockBegin
2
DimnDraft3D11
70
0
10
0
20
0
30
0
3
DimnDraft3D11
0
LINE
5
122
100
AcDbEntity
8
2
62
256
6
ByLayer
370
25
48
1
60
0
100
AcDbLine
10
45.7
20
-6.9375
30
0
11
45.7
21
35.1875
31
0
39
0
210
0
220
0
230
1
0
LINE
5
123
100
AcDbEntity
8
2
62
256
6
ByLayer
370
25
48
1
60
0
100
AcDbLine
10
25.7
20
13.9375
30
0
11
25.7
21
35.1875
31
0
39
0
210
0
220
0
230
1
0
LINE
5
124
100
AcDbEntity
8
2
62
256
6
ByLayer
370
25
48
1
60
0
100
AcDbLine
10
45.7
20
32.1875
30
0
11
25.7
21
32.1875
31
0
39
0
210
0
220
0
230
1
0
LINE
5
125
100
AcDbEntity
8
2
62
256
6
ByLayer
370
25
48
1
60
0
100
AcDbLine
10
45.7
20
32.1875
30
0
11
42.700001
21
31.792543
31
0
39
0
210
0
220
0
230
1
0
LINE
5
126
100
AcDbEntity
8
2
62
256
6
ByLayer
370
25
48
1
60
0
100
AcDbLine
10
45.7
20
32.1875
30
0
11
42.699999
21
32.582457
31
0
39
0
210
0
220
0
230
1
0
LINE
5
127
100
AcDbEntity
8
2
62
256
6
ByLayer
370
25
48
1
60
0
100
AcDbLine
10
42.700001
20
31.792543
30
0
11
42.699999
21
32.582457
31
0
39
0
210
0
220
0
230
1
0
LINE
5
128
100
AcDbEntity
8
2
62
256
6
ByLayer
370
25
48
1
60
0
100
AcDbLine
10
25.7
20
32.1875
30
0
11
28.699999
21
32.582457
31
0
39
0
210
0
220
0
230
1
0
LINE
5
129
100
AcDbEntity
8
2
62
256
6
ByLayer
370
25
48
1
60
0
100
AcDbLine
10
25.7
20
32.1875
30
0
11
28.700001
21
31.792543
31
0
39
0
210
0
220
0
230
1
0
LINE
5
12A
100
AcDbEntity
8
2
62
256
6
ByLayer
370
25
48
1
60
0
100
AcDbLine
10
28.699999
20
32.582457
30
0
11
28.700001
21
31.792543
31
0
39
0
210
0
220
0
230
1
0
MTEXT
5
12B
100
AcDbEntity
8
2
62
256
6
ByLayer
370
18
48
1
60
0
100
AcDbMText
10
31.543421
20
33.3125
30
0
210
0
220
0
230
1
1
\W0.7346;20.0
40
4.5
41
0
44
1.084337
50
0
71
7
72
5
7
iso_b_vert
0
ENDBLK
5
121
100
AcDbEntity
8
0
100
AcDbBlockEnd
0
BLOCK
5
138
100
AcDbEntity
8
0
100
AcDbBlockBegin
2
DimnDraft3D2
70
0
10
0
20
0
30
0
3
DimnDraft3D2
0
MTEXT
5
12E
100
AcDbEntity
8
2
62
256
6
ByLayer
370
18
48
1
60
0
100
AcDbMText
10
58.825
20
-2.8125
30
0
210
0
220
0
230
1
1
\W0.5404;5
40
4.5
41
0
44
1.084337
50
90
71
7
72
5
7
iso_b_vert
0
LINE
5
12F
100
AcDbEntity
8
2
62
256
6
ByLayer
370
13
48
1
60
0
100
AcDbLine
10
47.2
20
-13.4375
30
0
11
62.95
21
-13.4375
31
0
39
0
210
0
220
0
230
1
0
LINE
5
130
100
AcDbEntity
8
2
62
256
6
ByLayer
370
13
48
1
60
0
100
AcDbLine
10
47.2
20
-8.4375
30
0
11
62.95
21
-8.4375
31
0
39
0
210
0
220
0
230
1
0
LINE
5
131
100
AcDbEntity
8
2
62
256
6
ByLayer
370
13
48
1
60
0
100
AcDbLine
10
59.95
20
-1.924342
30
0
11
59.95
21
-24.6875
31
0
39
0
210
0
220
0
230
1
0
LINE
5
132
100
AcDbEntity
8
2
62
256
6
ByLayer
370
13
48
1
60
0
100
AcDbLine
10
59.95
20
-13.4375
30
0
11
60.344957
21
-16.437499
31
0
39
0
210
0
220
0
230
1
0
LINE
5
133
100
AcDbEntity
8
2
62
256
6
ByLayer
370
13
48
1
60
0
100
AcDbLine
10
59.95
20
-13.4375
30
0
11
59.555043
21
-16.437501
31
0
39
0
210
0
220
0
230
1
0
LINE
5
134
100
AcDbEntity
8
2
62
256
6
ByLayer
370
13
48
1
60
0
100
AcDbLine
10
60.344957
20
-16.437499
30
0
11
59.555043
21
-16.437501
31
0
39
0
210
0
220
0
230
1
0
LINE
5
135
100
AcDbEntity
8
2
62
256
6
ByLayer
370
13
48
1
60
0
100
AcDbLine
10
59.95
20
-8.4375
30
0
11
59.555043
21
-5.437501
31
0
39
0
210
0
220
0
230
1
0
LINE
5
136
100
AcDbEntity
8
2
62
256
6
ByLayer
370
13
48
1
60
0
100
AcDbLine
10
59.95
20
-8.4375
30
0
11
60.344957
21
-5.437499
31
0
39
0
210
0
220
0
230
1
0
LINE
5
137
100
AcDbEntity
8
2
62
256
6
ByLayer
370
13
48
1
60
0
100
AcDbLine
10
59.555043
20
-5.437501
30
0
11
60.344957
21
-5.437499
31
0
39
0
210
0
220
0
230
1
0
ENDBLK
5
139
100
AcDbEntity
8
0
100
AcDbBlockEnd
0
BLOCK
5
13C
100
AcDbEntity
8
0
100
AcDbBlockBegin
2
_CLOSED
70
0
10
0
20
0
30
0
3
_CLOSED
0
LINE
5
13E
100
AcDbEntity
8
0
62
256
6
ByLayer
370
-2
48
1
60
0
100
AcDbLine
10
-1
20
0.166667
30
0
11
0
21
0
31
0
39
0
210
0
220
0
230
1
0
LINE
5
13F
100
AcDbEntity
8
0
62
256
6
ByLayer
370
-2
48
1
60
0
100
AcDbLine
10
0
20
0
30
0
11
-1
21
-0.166667
31
0
39
0
210
0
220
0
230
1
0
LINE
5
140
100
AcDbEntity
8
0
62
256
6
ByLayer
370
-2
48
1
60
0
100
AcDbLine
10
-1
20
0.166667
30
0
11
-1
21
-0.166667
31
0
39
0
210
0
220
0
230
1
0
LINE
5
141
100
AcDbEntity
8
0
62
256
6
ByLayer
370
-2
48
1
60
0
100
AcDbLine
10
0
20
0
30
0
11
-1
21
0
31
0
39
0
210
0
220
0
230
1
0
ENDBLK
5
13D
100
AcDbEntity
8
0
100
AcDbBlockEnd
0
BLOCK
5
14D
100
AcDbEntity
8
0
100
AcDbBlockBegin
2
DimnDraft3D3
70
0
10
0
20
0
30
0
3
DimnDraft3D3
0
MTEXT
5
143
100
AcDbEntity
8
2
62
256
6
ByLayer
370
18
48
1
60
0
100
AcDbMText
10
68.825
20
-2.063158
30
0
210
0
220
0
230
1
1
\W0.6740;26
40
4.5
41
0
44
1.084337
50
90
71
7
72
5
7
iso_b_vert
0
LINE
5
144
100
AcDbEntity
8
2
62
256
6
ByLayer
370
13
48
1
60
0
100
AcDbLine
10
47.2
20
-13.4375
30
0
11
72.95
21
-13.4375
31
0
39
0
210
0
220
0
230
1
0
LINE
5
145
100
AcDbEntity
8
2
62
256
6
ByLayer
370
13
48
1
60
0
100
AcDbLine
10
1.5
20
12.4375
30
0
11
72.95
21
12.4375
31
0
39
0
210
0
220
0
230
1
0
LINE
5
146
100
AcDbEntity
8
2
62
256
6
ByLayer
370
13
48
1
60
0
100
AcDbLine
10
69.95
20
-13.4375
30
0
11
69.95
21
12.4375
31
0
39
0
210
0
220
0
230
1
0
LINE
5
147
100
AcDbEntity
8
2
62
256
6
ByLayer
370
13
48
1
60
0
100
AcDbLine
10
69.95
20
-13.4375
30
0
11
69.555043
21
-10.437501
31
0
39
0
210
0
220
0
230
1
0
LINE
5
148
100
AcDbEntity
8
2
62
256
6
ByLayer
370
13
48
1
60
0
100
AcDbLine
10
69.95
20
-13.4375
30
0
11
70.344957
21
-10.437499
31
0
39
0
210
0
220
0
230
1
0
LINE
5
149
100
AcDbEntity
8
2
62
256
6
ByLayer
370
13
48
1
60
0
100
AcDbLine
10
69.555043
20
-10.437501
30
0
11
70.344957
21
-10.437499
31
0
39
0
210
0
220
0
230
1
0
LINE
5
14A
100
AcDbEntity
8
2
62
256
6
ByLayer
370
13
48
1
60
0
100
AcDbLine
10
69.95
20
12.4375
30
0
11
70.344957
21
9.437501
31
0
39
0
210
0
220
0
230
1
0
LINE
5
14B
100
AcDbEntity
8
2
62
256
6
ByLayer
370
13
48
1
60
0
100
AcDbLine
10
69.95
20
12.4375
30
0
11
69.555043
21
9.437499
31
0
39
0
210
0
220
0
230
1
0
LINE
5
14C
100
AcDbEntity
8
2
62
256
6
ByLayer
370
13
48
1
60
0
100
AcDbLine
10
70.344957
20
9.437501
30
0
11
69.555043
21
9.437499
31
0
39
0
210
0
220
0
230
1
0
ENDBLK
5
14E
100
AcDbEntity
8
0
100
AcDbBlockEnd
0
BLOCK
5
15C
100
AcDbEntity
8
0
100
AcDbBlockBegin
2
DimnDraft3D4
70
0
10
0
20
0
30
0
3
DimnDraft3D4
0
MTEXT
5
151
100
AcDbEntity
8
SK2
62
256
6
ByLayer
370
18
48
1
60
0
100
AcDbMText
10
-116.525
20
-1.563158
30
0
210
0
220
0
230
1
1
\W0.6740;25
40
4.5
41
0
44
1.084337
50
90
71
7
72
5
7
iso_b_vert
0
LINE
5
153
100
AcDbEntity
8
SK2
62
256
6
ByLayer
370
13
48
1
60
0
100
AcDbLine
10
-107.15
20
12.4375
30
0
11
-118.4
21
12.4375
31
0
39
0
210
0
220
0
230
1
0
LINE
5
154
100
AcDbEntity
8
SK2
62
256
6
ByLayer
370
13
48
1
60
0
100
AcDbLine
10
-107.15
20
-12.4375
30
0
11
-118.4
21
-12.4375
31
0
39
0
210
0
220
0
230
1
0
LINE
5
155
100
AcDbEntity
8
SK2
62
256
6
ByLayer
370
13
48
1
60
0
100
AcDbLine
10
-115.4
20
12.4375
30
0
11
-115.4
21
-12.4375
31
0
39
0
210
0
220
0
230
1
0
LINE
5
156
100
AcDbEntity
8
SK2
62
256
6
ByLayer
370
13
48
1
60
0
100
AcDbLine
10
-115.4
20
12.4375
30
0
11
-115.005043
21
9.437501
31
0
39
0
210
0
220
0
230
1
0
LINE
5
157
100
AcDbEntity
8
SK2
62
256
6
ByLayer
370
13
48
1
60
0
100
AcDbLine
10
-115.4
20
12.4375
30
0
11
-115.794957
21
9.437499
31
0
39
0
210
0
220
0
230
1
0
LINE
5
158
100
AcDbEntity
8
SK2
62
256
6
ByLayer
370
13
48
1
60
0
100
AcDbLine
10
-115.005043
20
9.437501
30
0
11
-115.794957
21
9.437499
31
0
39
0
210
0
220
0
230
1
0
LINE
5
159
100
AcDbEntity
8
SK2
62
256
6
ByLayer
370
13
48
1
60
0
100
AcDbLine
10
-115.4
20
-12.4375
30
0
11
-115.794957
21
-9.437501
31
0
39
0
210
0
220
0
230
1
0
LINE
5
15A
100
AcDbEntity
8
SK2
62
256
6
ByLayer
370
13
48
1
60
0
100
AcDbLine
10
-115.4
20
-12.4375
30
0
11
-115.005043
21
-9.437499
31
0
39
0
210
0
220
0
230
1
0
LINE
5
15B
100
AcDbEntity
8
SK2
62
256
6
ByLayer
370
13
48
1
60
0
100
AcDbLine
10
-115.794957
20
-9.437501
30
0
11
-115.005043
21
-9.437499
31
0
39
0
210
0
220
0
230
1
0
ENDBLK
5
15D
100
AcDbEntity
8
0
100
AcDbBlockEnd
0
BLOCK
5
16A
100
AcDbEntity
8
0
100
AcDbBlockBegin
2
DimnDraft3D5
70
0
10
0
20
0
30
0
3
DimnDraft3D5
0
MTEXT
5
160
100
AcDbEntity
8
2
62
256
6
ByLayer
370
18
48
1
60
0
100
AcDbMText
10
51.325
20
23.3125
30
0
210
0
220
0
230
1
1
\W0.6563;10.7
40
4.5
41
0
44
1.084337
50
0
71
7
72
5
7
iso_b_vert
0
LINE
5
161
100
AcDbEntity
8
2
62
256
6
ByLayer
370
13
48
1
60
0
100
AcDbLine
10
45.7
20
-6.9375
30
0
11
45.7
21
25.1875
31
0
39
0
210
0
220
0
230
1
0
LINE
5
162
100
AcDbEntity
8
2
62
256
6
ByLayer
370
13
48
1
60
0
100
AcDbLine
10
35
20
13.9375
30
0
11
35
21
25.1875
31
0
39
0
210
0
220
0
230
1
0
LINE
5
163
100
AcDbEntity
8
2
62
256
6
ByLayer
370
13
48
1
60
0
100
AcDbLine
10
35
20
22.1875
30
0
11
59.638158
21
22.1875
31
0
39
0
210
0
220
0
230
1
0
LINE
5
164
100
AcDbEntity
8
2
62
256
6
ByLayer
370
13
48
1
60
0
100
AcDbLine
10
45.7
20
22.1875
30
0
11
42.700001
21
21.792543
31
0
39
0
210
0
220
0
230
1
0
LINE
5
165
100
AcDbEntity
8
2
62
256
6
ByLayer
370
13
48
1
60
0
100
AcDbLine
10
45.7
20
22.1875
30
0
11
42.699999
21
22.582457
31
0
39
0
210
0
220
0
230
1
0
LINE
5
166
100
AcDbEntity
8
2
62
256
6
ByLayer
370
13
48
1
60
0
100
AcDbLine
10
42.700001
20
21.792543
30
0
11
42.699999
21
22.582457
31
0
39
0
210
0
220
0
230
1
0
LINE
5
167
100
AcDbEntity
8
2
62
256
6
ByLayer
370
13
48
1
60
0
100
AcDbLine
10
35
20
22.1875
30
0
11
37.999999
21
22.582457
31
0
39
0
210
0
220
0
230
1
0
LINE
5
168
100
AcDbEntity
8
2
62
256
6
ByLayer
370
13
48
1
60
0
100
AcDbLine
10
35
20
22.1875
30
0
11
38.000001
21
21.792543
31
0
39
0
210
0
220
0
230
1
0
LINE
5
169
100
AcDbEntity
8
2
62
256
6
ByLayer
370
13
48
1
60
0
100
AcDbLine
10
37.999999
20
22.582457
30
0
11
38.000001
21
21.792543
31
0
39
0
210
0
220
0
230
1
0
ENDBLK
5
16B
100
AcDbEntity
8
0
100
AcDbBlockEnd
0
BLOCK
5
178
100
AcDbEntity
8
0
100
AcDbBlockBegin
2
DimnDraft3D6
70
0
10
0
20
0
30
0
3
DimnDraft3D6
0
MTEXT
5
16E
100
AcDbEntity
8
2
62
256
6
ByLayer
370
18
48
1
60
0
100
AcDbMText
10
18.456579
20
43.3125
30
0
210
0
220
0
230
1
1
\W0.7640;45.7
40
4.5
41
0
44
1.084337
50
0
71
7
72
5
7
iso_b_vert
0
LINE
5
16F
100
AcDbEntity
8
2
62
256
6
ByLayer
370
13
48
1
60
0
100
AcDbLine
10
45.7
20
-6.9375
30
0
11
45.7
21
45.1875
31
0
39
0
210
0
220
0
230
1
0
LINE
5
170
100
AcDbEntity
8
2
62
256
6
ByLayer
370
13
48
1
60
0
100
AcDbLine
10
0
20
13.9375
30
0
11
0
21
45.1875
31
0
39
0
210
0
220
0
230
1
0
LINE
5
171
100
AcDbEntity
8
2
62
256
6
ByLayer
370
13
48
1
60
0
100
AcDbLine
10
45.7
20
42.1875
30
0
11
0
21
42.1875
31
0
39
0
210
0
220
0
230
1
0
LINE
5
172
100
AcDbEntity
8
2
62
256
6
ByLayer
370
13
48
1
60
0
100
AcDbLine
10
45.7
20
42.1875
30
0
11
42.700001
21
41.792543
31
0
39
0
210
0
220
0
230
1
0
LINE
5
173
100
AcDbEntity
8
2
62
256
6
ByLayer
370
13
48
1
60
0
100
AcDbLine
10
45.7
20
42.1875
30
0
11
42.699999
21
42.582457
31
0
39
0
210
0
220
0
230
1
0
LINE
5
174
100
AcDbEntity
8
2
62
256
6
ByLayer
370
13
48
1
60
0
100
AcDbLine
10
42.700001
20
41.792543
30
0
11
42.699999
21
42.582457
31
0
39
0
210
0
220
0
230
1
0
LINE
5
175
100
AcDbEntity
8
2
62
256
6
ByLayer
370
13
48
1
60
0
100
AcDbLine
10
0
20
42.1875
30
0
11
2.999999
21
42.582457
31
0
39
0
210
0
220
0
230
1
0
LINE
5
176
100
AcDbEntity
8
2
62
256
6
ByLayer
370
13
48
1
60
0
100
AcDbLine
10
0
20
42.1875
30
0
11
3.000001
21
41.792543
31
0
39
0
210
0
220
0
230
1
0
LINE
5
177
100
AcDbEntity
8
2
62
256
6
ByLayer
370
13
48
1
60
0
100
AcDbLine
10
2.999999
20
42.582457
30
0
11
3.000001
21
41.792543
31
0
39
0
210
0
220
0
230
1
0
ENDBLK
5
179
100
AcDbEntity
8
0
100
AcDbBlockEnd
0
BLOCK
5
186
100
AcDbEntity
8
0
100
AcDbBlockBegin
2
DimnDraft3D7
70
0
10
0
20
0
30
0
3
DimnDraft3D7
0
MTEXT
5
17C
100
AcDbEntity
8
SK2
62
256
6
ByLayer
370
18
48
1
60
0
100
AcDbMText
10
-32.657237
20
53.3125
30
0
210
0
220
0
230
1
1
\W0.6217;150
40
4.5
41
0
44
1.084337
50
0
71
7
72
5
7
iso_b_vert
0
LINE
5
17D
100
AcDbEntity
8
SK2
62
256
6
ByLayer
370
13
48
1
60
0
100
AcDbLine
10
45.7
20
-6.9375
30
0
11
45.7
21
55.1875
31
0
39
0
210
0
220
0
230
1
0
LINE
5
17E
100
AcDbEntity
8
SK2
62
256
6
ByLayer
370
13
48
1
60
0
100
AcDbLine
10
-105.65
20
13.9375
30
0
11
-105.65
21
55.1875
31
0
39
0
210
0
220
0
230
1
0
LINE
5
17F
100
AcDbEntity
8
SK2
62
256
6
ByLayer
370
13
48
1
60
0
100
AcDbLine
10
45.7
20
52.1875
30
0
11
-105.65
21
52.1875
31
0
39
0
210
0
220
0
230
1
0
LINE
5
180
100
AcDbEntity
8
SK2
62
256
6
ByLayer
370
13
48
1
60
0
100
AcDbLine
10
45.7
20
52.1875
30
0
11
42.700001
21
51.792543
31
0
39
0
210
0
220
0
230
1
0
LINE
5
181
100
AcDbEntity
8
SK2
62
256
6
ByLayer
370
13
48
1
60
0
100
AcDbLine
10
45.7
20
52.1875
30
0
11
42.699999
21
52.582457
31
0
39
0
210
0
220
0
230
1
0
LINE
5
182
100
AcDbEntity
8
SK2
62
256
6
ByLayer
370
13
48
1
60
0
100
AcDbLine
10
42.700001
20
51.792543
30
0
11
42.699999
21
52.582457
31
0
39
0
210
0
220
0
230
1
0
LINE
5
183
100
AcDbEntity
8
SK2
62
256
6
ByLayer
370
13
48
1
60
0
100
AcDbLine
10
-105.65
20
52.1875
30
0
11
-102.650001
21
52.582457
31
0
39
0
210
0
220
0
230
1
0
LINE
5
184
100
AcDbEntity
8
SK2
62
256
6
ByLayer
370
13
48
1
60
0
100
AcDbLine
10
-105.65
20
52.1875
30
0
11
-102.649999
21
51.792543
31
0
39
0
210
0
220
0
230
1
0
LINE
5
185
100
AcDbEntity
8
SK2
62
256
6
ByLayer
370
13
48
1
60
0
100
AcDbLine
10
-102.650001
20
52.582457
30
0
11
-102.649999
21
51.792543
31
0
39
0
210
0
220
0
230
1
0
ENDBLK
5
187
100
AcDbEntity
8
0
100
AcDbBlockEnd
0
ENDSEC
0
SECTION
2
ENTITIES
0
ARC
5
BB
100
AcDbEntity
8
1
62
256
6
ByLayer
370
18
48
1
60
0
100
AcDbCircle
39
0
10
-25.8
20
-5.0375
30
0
40
1.6
210
0
220
0
230
-1
100
AcDbArc
50
270
51
0
0
ARC
5
BC
100
AcDbEntity
8
1
62
256
6
ByLayer
370
18
48
1
60
0
100
AcDbCircle
39
0
10
-35
20
-2.6375
30
0
40
6
210
0
220
0
230
-1
100
AcDbArc
50
295.283397
51
318.189685
0
ARC
5
BE
100
AcDbEntity
8
1
62
256
6
ByLayer
370
18
48
1
60
0
100
AcDbCircle
39
0
10
-19.992384
20
-6.0375
30
0
40
0.501259405157916
210
0
220
0
230
-1
100
AcDbArc
50
98.054217
51
247.074182
0
ARC
5
BF
100
AcDbEntity
8
1
62
256
6
ByLayer
370
18
48
1
60
0
100
AcDbCircle
39
0
10
-14.970955
20
-7.613115
30
0
40
1.13980641809794
210
0
220
0
230
-1
100
AcDbArc
50
108.752695
51
191.247305
0
ARC
5
C1
100
AcDbEntity
8
1
62
256
6
ByLayer
370
18
48
1
60
0
100
AcDbCircle
39
0
10
-18.846192
20
-8.022763
30
0
40
0.501259405157916
210
0
220
0
230
-1
100
AcDbArc
50
172.925818
51
321.945783
0
ARC
5
C3
100
AcDbEntity
8
1
62
256
6
ByLayer
370
18
48
1
60
0
100
AcDbCircle
39
0
10
-18.846192
20
-4.052237
30
0
40
0.501259405157916
210
0
220
0
230
-1
100
AcDbArc
50
52.925818
51
187.074182
0
ARC
5
C5
100
AcDbEntity
8
1
62
256
6
ByLayer
370
18
48
1
60
0
100
AcDbCircle
39
0
10
-20.429045
20
-7.613115
30
0
40
1.13980641809794
210
0
220
0
230
-1
100
AcDbArc
50
342.227341
51
77.772659
0
ARC
5
C6
100
AcDbEntity
8
1
62
256
6
ByLayer
370
18
48
1
60
0
100
AcDbCircle
39
0
10
-20.429045
20
-4.461885
30
0
40
1.13980641809794
210
0
220
0
230
-1
100
AcDbArc
50
288.752695
51
17.772659
0
ARC
5
C7
100
AcDbEntity
8
1
62
256
6
ByLayer
370
18
48
1
60
0
100
AcDbCircle
39
0
10
-15.407616
20
-6.0375
30
0
40
0.501259405157916
210
0
220
0
230
-1
100
AcDbArc
50
278.054217
51
81.945783
0
ARC
5
C8
100
AcDbEntity
8
1
62
256
6
ByLayer
370
18
48
1
60
0
100
AcDbCircle
39
0
10
-17.7
20
-2.88627
30
0
40
1.13980641809794
210
0
220
0
230
-1
100
AcDbArc
50
222.227341
51
317.772659
0
ARC
5
C9
100
AcDbEntity
8
1
62
256
6
ByLayer
370
18
48
1
60
0
100
AcDbCircle
39
0
10
-14.970955
20
-4.461885
30
0
40
1.13980641809794
210
0
220
0
230
-1
100
AcDbArc
50
162.227341
51
251.247305
0
ARC
5
CA
100
AcDbEntity
8
1
62
256
6
ByLayer
370
18
48
1
60
0
100
AcDbCircle
39
0
10
-16.553808
20
-4.052237
30
0
40
0.501259405157916
210
0
220
0
230
-1
100
AcDbArc
50
352.925818
51
127.074182
0
ARC
5
CB
100
AcDbEntity
8
1
62
256
6
ByLayer
370
18
48
1
60
0
100
AcDbCircle
39
0
10
-17.7
20
-9.18873
30
0
40
1.13980641809794
210
0
220
0
230
-1
100
AcDbArc
50
48.752695
51
131.247305
0
ARC
5
CC
100
AcDbEntity
8
1
62
256
6
ByLayer
370
18
48
1
60
0
100
AcDbCircle
39
0
10
-16.553808
20
-8.022763
30
0
40
0.501259405157916
210
0
220
0
230
-1
100
AcDbArc
50
218.054217
51
21.945783
0
CIRCLE
5
BD
100
AcDbEntity
8
1
62
256
6
ByLayer
370
18
48
1
60
0
100
AcDbCircle
10
17.7
20
-6.0375
30
0
40
5.5
39
0
210
0
220
0
230
1
0
CIRCLE
5
C0
100
AcDbEntity
8
1
62
256
6
ByLayer
370
18
48
1
60
0
100
AcDbCircle
10
17.7
20
-6.0375
30
0
40
4.4958
39
0
210
0
220
0
230
1
0
CIRCLE
5
C2
100
AcDbEntity
8
1
62
256
6
ByLayer
370
18
48
1
60
0
100
AcDbCircle
10
-17.7
20
-6.0375
30
0
40
3.0330983114651
39
0
210
0
220
0
230
-1
0
CIRCLE
5
C4
100
AcDbEntity
8
1
62
256
6
ByLayer
370
18
48
1
60
0
100
AcDbCircle
10
-17.7
20
-6.0375
30
0
40
5.0038
39
0
210
0
220
0
230
-1
0
ELLIPSE
5
CD
100
AcDbEntity
8
1
62
256
6
ByLayer
370
18
48
1
60
0
100
AcDbEllipse
10
40.936157
20
-25.9375
30
0
11
-24.7069605157469
21
5.78861029492959E-14
31
0
210
0
220
0
230
1
40
0.700208
41
-1.51075048330315
42
-1.32816002553947
0
ELLIPSE
5
CE
100
AcDbEntity
8
1
62
256
6
ByLayer
370
18
48
1
60
0
100
AcDbEllipse
10
47.464193
20
-25.9375
30
0
11
-9.35639157033039
21
17.074577345559
31
0
210
0
220
0
230
1
40
0.297515
41
-0.22165414842992
42
-0.184746668686726
0
ELLIPSE
5
CF
100
AcDbEntity
8
1
62
256
6
ByLayer
370
18
48
1
60
0
100
AcDbEllipse
10
34.29
20
-11.584751
30
0
11
3.17749251069376E-15
21
2.71243624983903
31
0
210
0
220
0
230
1
40
0.46084
41
-2.44187723667542
42
-2.35069921618255
0
ELLIPSE
5
D0
100
AcDbEntity
8
1
62
256
6
ByLayer
370
18
48
1
60
0
100
AcDbEllipse
10
49.842595
20
-31.1375
30
0
11
2.12033054959294E-14
21
18.1000000000041
31
0
210
0
220
0
230
1
40
0.57735
41
0.523330854755333
42
1.1425769285038
0
ELLIPSE
5
D1
100
AcDbEntity
8
1
62
256
6
ByLayer
370
18
48
1
60
0
100
AcDbEllipse
10
40.936157
20
-25.9375
30
0
11
-27.5632565292671
21
6.45781379726617E-14
31
0
210
0
220
0
230
1
40
0.700208
41
-1.18357732584575
42
-1.05912259148994
0
ELLIPSE
5
D2
100
AcDbEntity
8
1
62
256
6
ByLayer
370
18
48
1
60
0
100
AcDbEllipse
10
60.416204
20
-25.938483
30
0
11
-53.0134960215823
21
7.95745264289137
31
0
210
0
220
0
230
1
40
0.289783
41
-1.11600391301998
42
-1.10888869197771
0
ELLIPSE
5
D3
100
AcDbEntity
8
1
62
256
6
ByLayer
370
18
48
1
60
0
100
AcDbEllipse
10
40.936157
20
-31.1375
30
0
11
-25.8494789220514
21
6.05629169607425E-14
31
0
210
0
220
0
230
1
40
0.700208
41
-1.51338322699826
42
-1.02148564102579
0
POINT
5
6C
100
AcDbEntity
8
2
62
256
6
ByLayer
370
18
48
1
60
0
100
AcDbPoint
10
45.7
20
13.5625
30
0
39
0
210
0
220
0
230
1
50
360
0
POINT
5
6E
100
AcDbEntity
8
80
62
256
6
ByLayer
370
18
48
1
60
0
100
AcDbPoint
10
0
20
0
30
0
39
0
210
0
220
0
230
1
50
360
0
POINT
5
70
100
AcDbEntity
8
81
62
256
6
ByLayer
370
18
48
1
60
0
100
AcDbPoint
10
45.7
20
-13.4375
30
0
39
0
210
0
220
0
230
1
50
360
0
SPLINE
5
D4
100
AcDbEntity
8
1
62
256
6
ByLayer
370
18
48
1
60
0
100
AcDbSpline
70
4
71
3
72
10
73
6
40
0
40
0
40
0
40
0
40
0.759510257846296
40
0.759510257846296
40
1
40
1
40
1
40
1
41
1
10
34.04
20
-13.8422385802609
30
0
41
1
10
33.9036660640814
20
-13.8422385802609
30
0
41
1
10
33.7654562496803
20
-13.8351574985717
30
0
41
1
10
33.5961905504209
20
-13.8177379083713
30
0
41
1
10
33.556086315323
20
-13.8128989641932
30
0
41
1
10
33.5169001376483
20
-13.8074868946844
30
0
0
SPLINE
5
D5
100
AcDbEntity
8
1
62
256
6
ByLayer
370
18
48
1
60
0
100
AcDbSpline
70
4
71
3
72
11
73
7
40
0
40
0
40
0
40
0
40
0.625184140880302
40
0.625184140880302
40
0.625184140880302
40
1
40
1
40
1
40
1
41
1
10
37.6011704986379
20
-8.64007804010748
30
0
41
1
10
37.3826780913972
20
-8.64210574988383
30
0
41
1
10
37.1430849571368
20
-8.64467362532488
30
0
41
1
10
36.8992492235588
20
-8.64611239464153
30
0
41
1
10
36.7514210060664
20
-8.646984665085
30
0
41
1
10
36.6003913231965
20
-8.64747589692971
30
0
41
1
10
36.4499999999999
20
-8.64747589692971
30
0
0
SPLINE
5
D6
100
AcDbEntity
8
1
62
256
6
ByLayer
370
18
48
1
60
0
100
AcDbSpline
70
4
71
3
72
10
73
6
40
0
40
0
40
0
40
0
40
0.101246596721897
40
0.101246596721897
40
1
40
1
40
1
40
1
41
1
10
34.5273968373835
20
-8.62693579921455
30
0
41
1
10
34.5431321187202
20
-8.62827722649209
30
0
41
1
10
34.5588994109904
20
-8.62955566156322
30
0
41
1
10
34.7146484155786
20
-8.64152923617107
30
0
41
1
10
34.8573501446942
20
-8.64722563643764
30
0
41
1
10
34.9999999999999
20
-8.64741332590535
30
0
0
SPLINE
5
D7
100
AcDbEntity
8
1
62
256
6
ByLayer
370
18
48
1
60
0
100
AcDbSpline
70
4
71
3
72
12
73
8
40
0
40
0
40
0
40
0
40
0.36497515983783
40
0.36497515983783
40
0.72884821813406
40
0.72884821813406
40
1
40
1
40
1
40
1
41
1
10
33.64
20
-8.49252560468548
30
0
41
1
10
33.4662706481358
20
-8.45203070400336
30
0
41
1
10
33.2926294372096
20
-8.40176905598744
30
0
41
1
10
32.9738078454378
20
-8.29378232895249
30
0
41
1
10
32.8240384379877
20
-8.23473176435417
30
0
41
1
10
32.5966398624826
20
-8.13707241532731
30
0
41
1
10
32.5083230955392
20
-8.09629176783952
30
0
41
1
10
32.4325946839452
20
-8.06043770408962
30
0
0
SPLINE
5
D8
100
AcDbEntity
8
1
62
256
6
ByLayer
370
18
48
1
60
0
100
AcDbSpline
70
4
71
3
72
10
73
6
40
0
40
0
40
0
40
0
40
0.773276132048838
40
0.773276132048838
40
1
40
1
40
1
40
1
41
1
10
34.5273968373835
20
-8.62693579921455
30
0
41
1
10
34.3952185740108
20
-8.61803026047721
30
0
41
1
10
34.2545931286954
20
-8.60345825157194
30
0
41
1
10
34.0731863536198
20
-8.57689740331983
30
0
41
1
10
34.0315270125661
20
-8.57028702068322
30
0
41
1
10
33.99
20
-8.56318412048935
30
0
0
SPLINE
5
D9
100
AcDbEntity
8
1
62
256
6
ByLayer
370
18
48
1
60
0
100
AcDbSpline
70
4
71
3
72
16
73
12
40
0
40
0
40
0
40
0
40
0.205952631490451
40
0.205952631490451
40
0.459343789012457
40
0.459343789012457
40
0.700837673578525
40
0.700837673578525
40
0.912980944958937
40
0.912980944958937
40
1
40
1
40
1
40
1
41
1
10
24.1999999999999
20
-7.29594695311044
30
0
41
1
10
24.1999999999999
20
-7.47936762621123
30
0
41
1
10
24.2254401798577
20
-7.6645022347808
30
0
41
1
10
24.3362511676676
20
-8.05776226991233
30
0
41
1
10
24.4360747636775
20
-8.26749502368335
30
0
41
1
10
24.695236005382
20
-8.6223891280859
30
0
41
1
10
24.8561763407144
20
-8.77568231613691
30
0
41
1
10
25.1987159817501
20
-8.98765702396915
30
0
41
1
10
25.3810503068373
20
-9.05837604312532
30
0
41
1
10
25.6438184691111
20
-9.10273279281876
30
0
41
1
10
25.7220429848493
20
-9.10932422245367
30
0
41
1
10
25.8
20
-9.10932422245367
30
0
0
SPLINE
5
DA
100
AcDbEntity
8
1
62
256
6
ByLayer
370
18
48
1
60
0
100
AcDbSpline
70
4
71
2
72
6
73
3
40
0
40
0
40
0
40
1
40
1
40
1
41
0.500000103539375
10
38.8546660833558
20
-8.63972070687589
30
0
41
0.499999896460625
10
38.2280797846988
20
-8.63989271260241
30
0
41
0.500000103539375
10
37.601170498638
20
-8.64007804010749
30
0
0
SPLINE
5
DB
100
AcDbEntity
8
1
62
256
6
ByLayer
370
18
48
1
60
0
100
AcDbSpline
70
4
71
3
72
12
73
8
40
0
40
0
40
0
40
0
40
0.159999905644279
40
0.159999905644279
40
0.698536123954102
40
0.698536123954102
40
1
40
1
40
1
40
1
41
1
10
35.0319430763441
20
-13.7693541310437
30
0
41
1
10
34.9981145834077
20
-13.7766195757205
30
0
41
1
10
34.9629311173023
20
-13.7834639885662
30
0
41
1
10
34.8054627494541
20
-13.8110014226014
30
0
41
1
10
34.669312400961
20
-13.8268266747757
30
0
41
1
10
34.4512136161098
20
-13.8398318860136
30
0
41
1
10
34.3704083021282
20
-13.8422385802609
30
0
41
1
10
34.2899999999999
20
-13.8422385802609
30
0
0
SPLINE
5
DC
100
AcDbEntity
8
1
62
256
6
ByLayer
370
18
48
1
60
0
100
AcDbSpline
70
4
71
3
72
10
73
6
40
0
40
0
40
0
40
0
40
0.5
40
0.5
40
1
40
1
40
1
40
1
41
1
10
35
20
-9.14425256172296
30
0
41
1
10
34.2248800792142
20
-9.27858879136861
30
0
41
1
10
33.451149144299
20
-9.2938718400566
30
0
41
1
10
31.9076917640567
20
-8.98120390339153
30
0
41
1
10
31.1568612475773
20
-8.64627729932099
30
0
41
1
10
30.5278640450003
20
-8.06641823950886
30
0
0
SPLINE
5
DD
100
AcDbEntity
8
1
62
256
6
ByLayer
370
18
48
1
60
0
100
AcDbSpline
70
4
71
3
72
8
73
4
40
0
40
0
40
0
40
0
40
1
40
1
40
1
40
1
41
1
10
35.095
20
-13.7696100754859
30
0
41
1
10
35.073978840684
20
-13.7696100754859
30
0
41
1
10
35.0529554977146
20
-13.7695247219236
30
0
41
1
10
35.0319430763448
20
-13.7693541310441
30
0
0
SPLINE
5
DE
100
AcDbEntity
8
1
62
256
6
ByLayer
370
18
48
1
60
0
100
AcDbSpline
70
4
71
3
72
8
73
4
40
0
40
0
40
0
40
0
40
1
40
1
40
1
40
1
41
1
10
35.095
20
-13.6598339960298
30
0
41
1
10
35.0748421266616
20
-13.6966557269949
30
0
41
1
10
35.0538334615923
20
-13.7331851628607
30
0
41
1
10
35.0319430763433
20
-13.7693541310425
30
0
0
SPLINE
5
DF
100
AcDbEntity
8
1
62
256
6
ByLayer
370
18
48
1
60
0
100
AcDbSpline
70
4
71
3
72
8
73
4
40
0
40
0
40
0
40
0
40
1
40
1
40
1
40
1
41
1
10
33.99
20
-8.56318412048935
30
0
41
1
10
33.8726829205792
20
-8.5431178683159
30
0
41
1
10
33.7559126350116
20
-8.51954389832574
30
0
41
1
10
33.64
20
-8.49252560468548
30
0
0
SPLINE
5
E0
100
AcDbEntity
8
1
62
256
6
ByLayer
370
18
48
1
60
0
100
AcDbSpline
70
4
71
3
72
8
73
4
40
0
40
0
40
0
40
0
40
1
40
1
40
1
40
1
41
1
10
35.095
20
-8.64747589692928
30
0
41
1
10
35.0633273576867
20
-8.64747589692928
30
0
41
1
10
35.0316487410536
20
-8.64745496727446
30
0
41
1
10
34.9999999999999
20
-8.64741332590475
30
0
0
SPLINE
5
E1
100
AcDbEntity
8
1
62
256
6
ByLayer
370
18
48
1
60
0
100
AcDbSpline
70
4
71
3
72
9
73
5
40
0
40
0
40
0
40
0
40
0.588846723710301
40
1
40
1
40
1
40
1
41
1
10
41.73243767813
20
-9.55869118770292
30
0
41
1
10
41.7858787416594
20
-9.52778454892763
30
0
41
1
10
41.8766342156691
20
-9.47529781930717
30
0
41
1
10
41.9051751399738
20
-9.36856665659525
30
0
41
1
10
41.91690983451
20
-9.32468378936403
30
0
0
SPLINE
5
E2
100
AcDbEntity
8
1
62
256
6
ByLayer
370
18
48
1
60
0
100
AcDbSpline
70
4
71
9
72
20
73
10
40
0
40
0
40
0
40
0
40
0
40
0
40
0
40
0
40
0
40
0
40
1
40
1
40
1
40
1
40
1
40
1
40
1
40
1
40
1
40
1
41
1
10
40.300360091922
20
-10.2851752451282
30
0
41
1
10
40.267095086068
20
-10.2851752451282
30
0
41
1
10
40.23383008222
20
-10.2853082268656
30
0
41
1
10
40.2014517190362
20
-10.2855741903635
30
0
41
1
10
40.1708466540591
20
-10.2859684095859
30
0
41
1
10
40.1428574124292
20
-10.2864814326719
30
0
41
1
10
40.1182382944577
20
-10.2870994339547
30
0
41
1
10
40.0976167607471
20
-10.2878049211899
30
0
41
1
10
40.081465717818
20
-10.2885777008575
30
0
41
1
10
40.0700884157284
20
-10.2893959629586
30
0
0
SPLINE
5
E3
100
AcDbEntity
8
1
62
256
6
ByLayer
370
18
48
1
60
0
100
AcDbSpline
70
4
71
1
72
4
73
2
40
0
40
0
40
1
40
1
41
1
10
39.8143412097986
20
-10.4116695114671
30
0
41
1
10
39.8970455023359
20
-9.73552280653399
30
0
0
SPLINE
5
E4
100
AcDbEntity
8
1
62
256
6
ByLayer
370
18
48
1
60
0
100
AcDbSpline
70
4
71
5
72
12
73
6
40
0
40
0
40
0
40
0
40
0
40
0
40
1
40
1
40
1
40
1
40
1
40
1
41
1
10
40.300360106865
20
-11.7139341013032
30
0
41
1
10
40.2380566425319
20
-11.7025266334496
30
0
41
1
10
40.1757177484666
20
-11.6781327905051
30
0
41
1
10
40.1223383098857
20
-11.6422620622908
30
0
41
1
10
40.0864121200294
20
-11.6006224235584
30
0
41
1
10
40.0700884349513
20
-11.5591929642669
30
0
0
SPLINE
5
E5
100
AcDbEntity
8
1
62
256
6
ByLayer
370
18
48
1
60
0
100
AcDbSpline
70
4
71
5
72
12
73
6
40
0
40
0
40
0
40
0
40
0
40
0
40
1
40
1
40
1
40
1
40
1
40
1
41
1
10
40.3003579409989
20
-10.2851752451132
30
0
41
1
10
40.3003583251059
20
-10.2509719388782
30
0
41
1
10
40.300358732302
20
-10.2169242014145
30
0
41
1
10
40.300359275028
20
-10.1844234459615
30
0
41
1
10
40.300360290847
20
-10.1548406994337
30
0
41
1
10
40.300359995202
20
-10.1292138013868
30
0
0
SPLINE
5
E6
100
AcDbEntity
8
1
62
256
6
ByLayer
370
18
48
1
60
0
100
AcDbSpline
70
4
71
5
72
12
73
6
40
0
40
0
40
0
40
0
40
0
40
0
40
1
40
1
40
1
40
1
40
1
40
1
41
1
10
39.859199739551
20
-12.3229093118154
30
0
41
1
10
39.8512387951281
20
-12.36720566848
30
0
41
1
10
39.8446978569633
20
-12.4125206851769
30
0
41
1
10
39.8401059409295
20
-12.4585105944518
30
0
41
1
10
39.8377843548698
20
-12.5048008130627
30
0
41
1
10
39.837793415607
20
-12.5510501154438
30
0
0
SPLINE
5
E7
100
AcDbEntity
8
1
62
256
6
ByLayer
370
18
48
1
60
0
100
AcDbSpline
70
4
71
3
72
8
73
4
40
0
40
0
40
0
40
0
40
1
40
1
40
1
40
1
41
1
10
40.0809192251401
20
-12.3772774787994
30
0
41
1
10
39.9931413936279
20
-12.3501312386533
30
0
41
1
10
39.9076236619386
20
-12.2982811376943
30
0
41
1
10
39.8707162322451
20
-12.2497598319652
30
0
0
SPLINE
5
E8
100
AcDbEntity
8
1
62
256
6
ByLayer
370
18
48
1
60
0
100
AcDbSpline
70
4
71
5
72
12
73
6
40
0
40
0
40
0
40
0
40
0
40
0
40
1
40
1
40
1
40
1
40
1
40
1
41
1
10
39.8377850092383
20
-12.5510457955863
30
0
41
1
10
39.8096473032953
20
-12.5519830603801
30
0
41
1
10
39.7774324653363
20
-12.5528364394883
30
0
41
1
10
39.741627504071
20
-12.5535897566247
30
0
41
1
10
39.7028627137082
20
-12.5542298262285
30
0
41
1
10
39.6618458695852
20
-12.5547476596144
30
0
0
SPLINE
5
E9
100
AcDbEntity
8
1
62
256
6
ByLayer
370
18
48
1
60
0
100
AcDbSpline
70
4
71
1
72
4
73
2
40
0
40
0
40
1
40
1
41
1
10
40.0700630292135
20
-10.2893985512763
30
0
41
1
10
39.8970285163035
20
-9.73552726511042
30
0
0
SPLINE
5
EA
100
AcDbEntity
8
1
62
256
6
ByLayer
370
18
48
1
60
0
100
AcDbSpline
70
4
71
5
72
12
73
6
40
0
40
0
40
0
40
0
40
0
40
0
40
1
40
1
40
1
40
1
40
1
40
1
41
1
10
39.8707609448296
20
-9.62624592695195
30
0
41
1
10
39.8757427058163
20
-9.64613610480995
30
0
41
1
10
39.8805555384075
20
-9.66557013685986
30
0
41
1
10
39.8851994426031
20
-9.68454802312155
30
0
41
1
10
39.8896744184023
20
-9.70306976358509
30
0
41
1
10
39.8939804658028
20
-9.72113535826043
30
0
0
SPLINE
5
EB
100
AcDbEntity
8
1
62
256
6
ByLayer
370
18
48
1
60
0
100
AcDbSpline
70
4
71
2
72
8
73
5
40
0
40
0
40
0
40
0.5
40
0.5
40
1
40
1
40
1
41
1
10
41.73243767813
20
-12.3100919147673
30
0
41
1
10
41.8084140753114
20
-12.3531019226839
30
0
41
1
10
41.8550046810585
20
-12.4050621882848
30
0
41
1
10
41.9171727153043
20
-12.4743952119596
30
0
41
1
10
41.9169098345091
20
-12.5486028355231
30
0
0
SPLINE
5
EC
100
AcDbEntity
8
1
62
256
6
ByLayer
370
18
48
1
60
0
100
AcDbSpline
70
4
71
3
72
8
73
4
40
0
40
0
40
0
40
0
40
1
40
1
40
1
40
1
41
1
10
39.8939877545946
20
-9.72111567060665
30
0
41
1
10
39.9220689352034
20
-9.64839369721372
30
0
41
1
10
40.0197490741392
20
-9.57875664899575
30
0
41
1
10
40.1217938256455
20
-9.55868935619537
30
0
0
SPLINE
5
ED
100
AcDbEntity
8
1
62
256
6
ByLayer
370
18
48
1
60
0
100
AcDbSpline
70
4
71
3
72
8
73
4
40
0
40
0
40
0
40
0
40
1
40
1
40
1
40
1
41
1
10
39.8706586681847
20
-12.2496837820639
30
0
41
1
10
39.878409446971
20
-12.2173763569333
30
0
41
1
10
39.8861602257574
20
-12.1850689318027
30
0
41
1
10
39.8939110045437
20
-12.152761506672
30
0
0
SPLINE
5
EE
100
AcDbEntity
8
1
62
256
6
ByLayer
370
18
48
1
60
0
100
AcDbSpline
70
4
71
3
72
8
73
4
40
0
40
0
40
0
40
0
40
1
40
1
40
1
40
1
41
1
10
40.0700875694315
20
-10.9242940827918
30
0
41
1
10
40.0700868189106
20
-11.1359270315258
30
0
41
1
10
40.0700860684174
20
-11.3475599802601
30
0
41
1
10
40.0700853179519
20
-11.5591929289947
30
0
0
SPLINE
5
EF
100
AcDbEntity
8
1
62
256
6
ByLayer
370
18
48
1
60
0
100
AcDbSpline
70
4
71
5
72
12
73
6
40
0
40
0
40
0
40
0
40
0
40
0
40
1
40
1
40
1
40
1
40
1
40
1
41
1
10
40.0304720950698
20
-9.32468378450176
30
0
41
1
10
39.9861298701949
20
-9.32468378162366
30
0
41
1
10
39.941784744106
20
-9.32494651503629
30
0
41
1
10
39.900473298138
20
-9.32547268335142
30
0
41
1
10
39.865191164503
20
-9.32622413235688
30
0
41
1
10
39.837793588954
20
-9.32713785800584
30
0
0
SPLINE
5
F0
100
AcDbEntity
8
1
62
256
6
ByLayer
370
18
48
1
60
0
100
AcDbSpline
70
4
71
3
72
8
73
4
40
0
40
0
40
0
40
0
40
1
40
1
40
1
40
1
41
1
10
40.307246781524
20
-12.5486028355238
30
0
41
1
10
40.3219759706263
20
-12.5486028355238
30
0
41
1
10
40.3367051597286
20
-12.5486028355238
30
0
41
1
10
40.351434348831
20
-12.5486028355238
30
0
0
SPLINE
5
F1
100
AcDbEntity
8
1
62
256
6
ByLayer
370
18
48
1
60
0
100
AcDbSpline
70
4
71
5
72
12
73
6
40
0
40
0
40
0
40
0
40
0
40
0
40
1
40
1
40
1
40
1
40
1
40
1
41
1
10
39.870716309963
20
-12.2497594230759
30
0
41
1
10
39.8680996959343
20
-12.2635258946668
30
0
41
1
10
39.8660245165041
20
-12.2785244124426
30
0
41
1
10
39.8642388607174
20
-12.2950848732399
30
0
41
1
10
39.861595299801
20
-12.3089005514313
30
0
41
1
10
39.8592030701854
20
-12.3228997515738
30
0
0
SPLINE
5
F2
100
AcDbEntity
8
1
62
256
6
ByLayer
370
18
48
1
60
0
100
AcDbSpline
70
4
71
5
72
12
73
6
40
0
40
0
40
0
40
0
40
0
40
0
40
1
40
1
40
1
40
1
40
1
40
1
41
1
10
39.8706821432464
20
-9.62616273712396
30
0
41
1
10
39.8542259379277
20
-9.62122334645736
30
0
41
1
10
39.835352392062
20
-9.61650037320669
30
0
41
1
10
39.8142432991969
20
-9.61205073655694
30
0
41
1
10
39.791135957844
20
-9.6079116574104
30
0
41
1
10
39.7663079478606
20
-9.60410461687272
30
0
0
SPLINE
5
F3
100
AcDbEntity
8
1
62
256
6
ByLayer
370
18
48
1
60
0
100
AcDbSpline
70
4
71
5
72
12
73
6
40
0
40
0
40
0
40
0
40
0
40
0
40
1
40
1
40
1
40
1
40
1
40
1
41
1
10
40.0623536673937
20
-9.46044023689689
30
0
41
1
10
40.0136302807653
20
-9.47164466716049
30
0
41
1
10
39.964901070959
20
-9.48793499476776
30
0
41
1
10
39.9204574977565
20
-9.50834610306595
30
0
41
1
10
39.8844967382421
20
-9.53095041461518
30
0
41
1
10
39.8592011634819
20
-9.5537398699401
30
0
0
SPLINE
5
F4
100
AcDbEntity
8
1
62
256
6
ByLayer
370
18
48
1
60
0
100
AcDbSpline
70
4
71
9
72
20
73
10
40
0
40
0
40
0
40
0
40
0
40
0
40
0
40
0
40
0
40
0
40
1
40
1
40
1
40
1
40
1
40
1
40
1
40
1
40
1
40
1
41
1
10
40.300360091922
20
-11.5549713632739
30
0
41
1
10
40.267095086068
20
-11.5549713632739
30
0
41
1
10
40.23383008222
20
-11.5551043450113
30
0
41
1
10
40.2014517190362
20
-11.5553703085093
30
0
41
1
10
40.1708466540591
20
-11.5557645277317
30
0
41
1
10
40.1428574124292
20
-11.5562775508177
30
0
41
1
10
40.1182382944577
20
-11.5568955521005
30
0
41
1
10
40.0976167607471
20
-11.5576010393357
30
0
41
1
10
40.081465717818
20
-11.5583738190033
30
0
41
1
10
40.0700884157284
20
-11.5591920811044
30
0
0
SPLINE
5
F5
100
AcDbEntity
8
1
62
256
6
ByLayer
370
18
48
1
60
0
100
AcDbSpline
70
4
71
5
72
12
73
6
40
0
40
0
40
0
40
0
40
0
40
0
40
1
40
1
40
1
40
1
40
1
40
1
41
1
10
40.0622714281259
20
-9.46043416405359
30
0
41
1
10
40.051502710216
20
-9.43595569217982
30
0
41
1
10
40.0411905632263
20
-9.40980286565747
30
0
41
1
10
40.0344279875495
20
-9.38210642642579
30
0
41
1
10
40.0303972904948
20
-9.35365139586472
30
0
41
1
10
40.0304643667597
20
-9.32468394492992
30
0
0
SPLINE
5
F6
100
AcDbEntity
8
1
62
256
6
ByLayer
370
18
48
1
60
0
100
AcDbSpline
70
4
71
3
72
9
73
5
40
0
40
0
40
0
40
0
40
0.41210080288557
40
1
40
1
40
1
40
1
41
1
10
40.559436955614
20
-10.2851743569287
30
0
41
1
10
40.5673618035288
20
-10.2559046840648
30
0
41
1
10
40.5865921662444
20
-10.1848791663784
30
0
41
1
10
40.646917851066
20
-10.1498232942623
30
0
41
1
10
40.6823832727379
20
-10.1292139751911
30
0
0
SPLINE
5
F7
100
AcDbEntity
8
1
62
256
6
ByLayer
370
18
48
1
60
0
100
AcDbSpline
70
4
71
5
72
12
73
6
40
0
40
0
40
0
40
0
40
0
40
0
40
1
40
1
40
1
40
1
40
1
40
1
41
1
10
40.1273166859716
20
-12.2926892355282
30
0
41
1
10
40.0650132342345
20
-12.28128173922
30
0
41
1
10
40.0026743097189
20
-12.256887894735
30
0
41
1
10
39.94929490456
20
-12.2210172525504
30
0
41
1
10
39.9133687067589
20
-12.1793775204153
30
0
41
1
10
39.897045030944
20
-12.1379480555969
30
0
0
SPLINE
5
F8
100
AcDbEntity
8
1
62
256
6
ByLayer
370
18
48
1
60
0
100
AcDbSpline
70
4
71
5
72
12
73
6
40
0
40
0
40
0
40
0
40
0
40
0
40
1
40
1
40
1
40
1
40
1
40
1
41
1
10
40.0700884349513
20
-11.5591929642669
30
0
41
1
10
40.0354851355092
20
-11.6749449675939
30
0
41
1
10
40.000881836067
20
-11.7906969709199
30
0
41
1
10
39.9662785366249
20
-11.9064489742469
30
0
41
1
10
39.931675237183
20
-12.0222009775768
30
0
41
1
10
39.897071937741
20
-12.1379529809048
30
0
0
SPLINE
5
F9
100
AcDbEntity
8
1
62
256
6
ByLayer
370
18
48
1
60
0
100
AcDbSpline
70
4
71
5
72
12
73
6
40
0
40
0
40
0
40
0
40
0
40
0
40
1
40
1
40
1
40
1
40
1
40
1
41
1
10
40.0810596981237
20
-12.3772643675764
30
0
41
1
10
40.089862000691
20
-12.3634950679065
30
0
41
1
10
40.0983452649875
20
-12.3498931591784
30
0
41
1
10
40.1065094910119
20
-12.3364586414119
30
0
41
1
10
40.1143546787633
20
-12.3231915145871
30
0
41
1
10
40.1218808282405
20
-12.310091778704
30
0
0
SPLINE
5
FA
100
AcDbEntity
8
1
62
256
6
ByLayer
370
18
48
1
60
0
100
AcDbSpline
70
4
71
11
72
24
73
12
40
0
40
0
40
0
40
0
40
0
40
0
40
0
40
0
40
0
40
0
40
0
40
0
40
1
40
1
40
1
40
1
40
1
40
1
40
1
40
1
40
1
40
1
40
1
40
1
41
1
10
45.29999410005
20
-13.4607780579972
30
0
41
1
10
45.28809412788
20
-13.4607780579972
30
0
41
1
10
45.2761941556999
20
-13.4607261523701
30
0
41
1
10
45.26429443527
20
-13.4606223411058
30
0
41
1
10
45.25239521829
20
-13.4604666255939
30
0
41
1
10
45.2404967565
20
-13.4602590085535
30
0
41
1
10
45.22859930161
20
-13.4599994941331
30
0
41
1
10
45.21670310528
20
-13.4596880878008
30
0
41
1
10
45.20480841918
20
-13.4593247964144
30
0
41
1
10
45.1929154949
20
-13.4589096282309
30
0
41
1
10
45.181024584
20
-13.4584425928371
30
0
41
1
10
45.1691359379699
20
-13.4579237012193
30
0
0
SPLINE
5
FB
100
AcDbEntity
8
1
62
256
6
ByLayer
370
18
48
1
60
0
100
AcDbSpline
70
4
71
5
72
12
73
6
40
0
40
0
40
0
40
0
40
0
40
0
40
1
40
1
40
1
40
1
40
1
40
1
41
1
10
39.8591989539868
20
-12.3229099202995
30
0
41
1
10
39.8416333429132
20
-12.3163043123819
30
0
41
1
10
39.8220258892357
20
-12.3096289275002
30
0
41
1
10
39.8005151685055
20
-12.3029351921711
30
0
41
1
10
39.7772658442976
20
-12.2962754592457
30
0
41
1
10
39.7524659780393
20
-12.2897013748164
30
0
0
SPLINE
5
FC
100
AcDbEntity
8
1
62
256
6
ByLayer
370
18
48
1
60
0
100
AcDbSpline
70
4
71
5
72
12
73
6
40
0
40
0
40
0
40
0
40
0
40
0
40
1
40
1
40
1
40
1
40
1
40
1
41
1
10
40.300360046885
20
-11.5549722514436
30
0
41
1
10
40.300360076687
20
-11.5891758757336
30
0
41
1
10
40.300360150783
20
-11.6235362738647
30
0
41
1
10
40.300360105034
20
-11.6566624732308
30
0
41
1
10
40.300360166618
20
-11.687156913187
30
0
41
1
10
40.300359995202
20
-11.7139341244398
30
0
0
SPLINE
5
FD
100
AcDbEntity
8
1
62
256
6
ByLayer
370
18
48
1
60
0
100
AcDbSpline
70
4
71
5
72
12
73
6
40
0
40
0
40
0
40
0
40
0
40
0
40
1
40
1
40
1
40
1
40
1
40
1
41
1
10
40.0809926348635
20
-9.49382461990484
30
0
41
1
10
40.0283047413762
20
-9.50969673337789
30
0
41
1
10
39.9756068263304
20
-9.53326793633912
30
0
41
1
10
39.9286294369364
20
-9.56285376028464
30
0
41
1
10
39.8929153921762
20
-9.59496321274955
30
0
41
1
10
39.8707889950016
20
-9.62620630753631
30
0
0
SPLINE
5
FE
100
AcDbEntity
8
1
62
256
6
ByLayer
370
18
48
1
60
0
100
AcDbSpline
70
4
71
3
72
9
73
5
40
0
40
0
40
0
40
0
40
0.50039838402601
40
1
40
1
40
1
40
1
41
1
10
39.870716056454
20
-9.62617126055946
30
0
41
1
10
39.8688200484015
20
-9.61395611262881
30
0
41
1
10
39.8650310512485
20
-9.58954526654983
30
0
41
1
10
39.8611449161937
20
-9.56567589074584
30
0
41
1
10
39.8592033968404
20
-9.55375071202187
30
0
0
SPLINE
5
FF
100
AcDbEntity
8
1
62
256
6
ByLayer
370
18
48
1
60
0
100
AcDbSpline
70
4
71
5
72
12
73
6
40
0
40
0
40
0
40
0
40
0
40
0
40
1
40
1
40
1
40
1
40
1
40
1
41
1
10
40.0809488747473
20
-12.3772316269713
30
0
41
1
10
40.0768425614236
20
-12.3837382759436
30
0
41
1
10
40.0725802264713
20
-12.3902853956377
30
0
41
1
10
40.0689138304743
20
-12.3971439919258
30
0
41
1
10
40.0655938313388
20
-12.4042711409784
30
0
41
1
10
40.062368394917
20
-12.4114754313039
30
0
0
SPLINE
5
100
100
AcDbEntity
8
1
62
256
6
ByLayer
370
18
48
1
60
0
100
AcDbSpline
70
4
71
2
72
6
73
3
40
0
40
0
40
0
40
1
40
1
40
1
41
1
10
40.5048669519149
20
-9.27111231443337
30
0
41
1
10
40.4336659567316
20
-9.31207321250574
30
0
41
1
10
40.351431218547
20
-9.32191317815875
30
0
0
SPLINE
5
101
100
AcDbEntity
8
1
62
256
6
ByLayer
370
18
48
1
60
0
100
AcDbSpline
70
4
71
2
72
8
73
5
40
0
40
0
40
0
40
0.5
40
0.5
40
1
40
1
40
1
41
1
10
40.5594369556139
20
-11.5549722514436
30
0
41
1
10
40.5596649450379
20
-11.6049157851921
30
0
41
1
10
40.6010116993786
20
-11.6510306125017
30
0
41
1
10
40.6313664320322
20
-11.6848858274194
30
0
41
1
10
40.6823832727379
20
-11.7139341244398
30
0
0
SPLINE
5
102
100
AcDbEntity
8
1
62
256
6
ByLayer
370
18
48
1
60
0
100
AcDbSpline
70
4
71
11
72
24
73
12
40
0
40
0
40
0
40
0
40
0
40
0
40
0
40
0
40
0
40
0
40
0
40
0
40
1
40
1
40
1
40
1
40
1
40
1
40
1
40
1
40
1
40
1
40
1
40
1
41
1
10
45.69999410005
20
-8.8123714968709
30
0
41
1
10
45.69999410005
20
-8.75527120360263
30
0
41
1
10
45.69102173181
20
-8.69817091439302
30
0
41
1
10
45.6730769975999
20
-8.64263605103716
30
0
41
1
10
45.6464673718199
20
-8.59023207422689
30
0
41
1
10
45.61180781475
20
-8.54245542852229
30
0
41
1
10
45.57000269439
20
-8.50066463332305
30
0
41
1
10
45.52220967146
20
-8.46601695202804
30
0
41
1
10
45.4697877257399
20
-8.43941644578183
30
0
41
1
10
45.41423383289
20
-8.42147785984437
30
0
41
1
10
45.35711396647
20
-8.41250856688066
30
0
41
1
10
45.29999410005
20
-8.41250856688066
30
0
0
SPLINE
5
103
100
AcDbEntity
8
1
62
256
6
ByLayer
370
18
48
1
60
0
100
AcDbSpline
70
4
71
5
72
12
73
6
40
0
40
0
40
0
40
0
40
0
40
0
40
1
40
1
40
1
40
1
40
1
40
1
41
1
10
40.1273166859716
20
-9.57534554488043
30
0
41
1
10
40.1262732727162
20
-9.57200527916635
30
0
41
1
10
40.125199975652
20
-9.5686690444231
30
0
41
1
10
40.1240966747497
20
-9.56533704580181
30
0
41
1
10
40.1229632499266
20
-9.56200949514468
30
0
41
1
10
40.1217995819307
20
-9.55868661093569
30
0
0
SPLINE
5
104
100
AcDbEntity
8
1
62
256
6
ByLayer
370
18
48
1
60
0
100
AcDbSpline
70
4
71
5
72
12
73
6
40
0
40
0
40
0
40
0
40
0
40
0
40
1
40
1
40
1
40
1
40
1
40
1
41
1
10
40.0623536673937
20
-12.4114708963244
30
0
41
1
10
40.0136302807653
20
-12.4000295898637
30
0
41
1
10
39.964901070959
20
-12.3841275005882
30
0
41
1
10
39.9204574977565
20
-12.3647532821232
30
0
41
1
10
39.8844967382421
20
-12.3437365909062
30
0
41
1
10
39.8592011634819
20
-12.3229109099217
30
0
0
SPLINE
5
105
100
AcDbEntity
8
1
62
256
6
ByLayer
370
18
48
1
60
0
100
AcDbSpline
70
4
71
5
72
12
73
6
40
0
40
0
40
0
40
0
40
0
40
0
40
1
40
1
40
1
40
1
40
1
40
1
41
1
10
40.0304720950698
20
-12.5486028305016
30
0
41
1
10
39.9861298701949
20
-12.5486028276235
30
0
41
1
10
39.941784744106
20
-12.5488649552038
30
0
41
1
10
39.900473298138
20
-12.5493899102549
30
0
41
1
10
39.865191164503
20
-12.5501396265343
30
0
41
1
10
39.837793588954
20
-12.5510512452855
30
0
0
SPLINE
5
106
100
AcDbEntity
8
1
62
256
6
ByLayer
370
18
48
1
60
0
100
AcDbSpline
70
4
71
11
72
24
73
12
40
0
40
0
40
0
40
0
40
0
40
0
40
0
40
0
40
0
40
0
40
0
40
0
40
1
40
1
40
1
40
1
40
1
40
1
40
1
40
1
40
1
40
1
40
1
40
1
41
1
10
45.29999410005
20
-8.41250856689067
30
0
41
1
10
45.28809412788
20
-8.41250856689067
30
0
41
1
10
45.2761941556999
20
-8.41256047251781
30
0
41
1
10
45.26429443527
20
-8.41266428378208
30
0
41
1
10
45.25239521829
20
-8.41281999929396
30
0
41
1
10
45.2404967565
20
-8.4130276163344
30
0
41
1
10
45.22859930161
20
-8.41328713075481
30
0
41
1
10
45.21670310528
20
-8.41359853708707
30
0
41
1
10
45.20480841918
20
-8.4139618284735
30
0
41
1
10
45.1929154949
20
-8.41437699665696
30
0
41
1
10
45.181024584
20
-8.41484403205075
30
0
41
1
10
45.1691359379699
20
-8.4153629236686
30
0
0
SPLINE
5
107
100
AcDbEntity
8
1
62
256
6
ByLayer
370
18
48
1
60
0
100
AcDbSpline
70
4
71
5
72
12
73
6
40
0
40
0
40
0
40
0
40
0
40
0
40
1
40
1
40
1
40
1
40
1
40
1
41
1
10
40.1273166859716
20
-12.2926892355282
30
0
41
1
10
40.1262732727162
20
-12.2961795876563
30
0
41
1
10
40.125199975652
20
-12.2996657276924
30
0
41
1
10
40.1240966747497
20
-12.3031474412667
30
0
41
1
10
40.1229632499266
20
-12.3066245070187
30
0
41
1
10
40.1217995819307
20
-12.3100966966476
30
0
0
SPLINE
5
108
100
AcDbEntity
8
1
62
256
6
ByLayer
370
18
48
1
60
0
100
AcDbSpline
70
4
71
5
72
12
73
6
40
0
40
0
40
0
40
0
40
0
40
0
40
1
40
1
40
1
40
1
40
1
40
1
41
1
10
40.0809488747473
20
-9.49386475582568
30
0
41
1
10
40.0768425614236
20
-9.48753382760418
30
0
41
1
10
40.0725802264713
20
-9.48115316907393
30
0
41
1
10
40.0689138304743
20
-9.47445912838643
30
0
41
1
10
40.0655938313388
20
-9.46749080825936
30
0
41
1
10
40.062368394917
20
-9.46043579813042
30
0
0
SPLINE
5
109
100
AcDbEntity
8
1
62
256
6
ByLayer
370
18
48
1
60
0
100
AcDbSpline
70
4
71
3
72
8
73
4
40
0
40
0
40
0
40
0
40
1
40
1
40
1
40
1
41
1
10
40.0810596981237
20
-9.49380953301267
30
0
41
1
10
40.0946657991445
20
-9.51542944460206
30
0
41
1
10
40.1082719001653
20
-9.53704935619149
30
0
41
1
10
40.1218780011861
20
-9.55866926778091
30
0
0
SPLINE
5
10A
100
AcDbEntity
8
1
62
256
6
ByLayer
370
18
48
1
60
0
100
AcDbSpline
70
4
71
11
72
24
73
12
40
0
40
0
40
0
40
0
40
0
40
0
40
0
40
0
40
0
40
0
40
0
40
0
40
1
40
1
40
1
40
1
40
1
40
1
40
1
40
1
40
1
40
1
40
1
40
1
41
1
10
41.77618727128
20
-8.5634514980573
30
0
41
1
10
41.7674689308
20
-8.56383201858773
30
0
41
1
10
41.75876886044
20
-8.56463084603567
30
0
41
1
10
41.7501093757299
20
-8.56584700640502
30
0
41
1
10
41.7415127339299
20
-8.56747818729846
30
0
41
1
10
41.7330010420699
20
-8.56952074195607
30
0
41
1
10
41.7245961655
20
-8.57196970057143
30
0
41
1
10
41.7163196373499
20
-8.57481878897534
30
0
41
1
10
41.70819256983
20
-8.57806045445676
30
0
41
1
10
41.70023556791
20
-8.58168589864169
30
0
41
1
10
41.69246864607
20
-8.58568511703967
30
0
41
1
10
41.6849111487199
20
-8.59004694496781
30
0
0
SPLINE
5
10B
100
AcDbEntity
8
1
62
256
6
ByLayer
370
18
48
1
60
0
100
AcDbSpline
70
4
71
5
72
12
73
6
40
0
40
0
40
0
40
0
40
0
40
0
40
1
40
1
40
1
40
1
40
1
40
1
41
1
10
39.8706821432464
20
-12.2497708016911
30
0
41
1
10
39.8527516007961
20
-12.2566913636811
30
0
41
1
10
39.8319511680287
20
-12.2632666907121
30
0
41
1
10
39.8085160083046
20
-12.2694055107805
30
0
41
1
10
39.7827595174026
20
-12.2750470971897
30
0
41
1
10
39.7550499439462
20
-12.2801565784256
30
0
0
SPLINE
5
10C
100
AcDbEntity
8
1
62
256
6
ByLayer
370
18
48
1
60
0
100
AcDbSpline
70
4
71
1
72
4
73
2
40
0
40
0
40
1
40
1
41
1
10
40.0700811804463
20
-10.924294022141
30
0
41
1
10
40.0700619296417
20
-10.2893953373634
30
0
0
SPLINE
5
10D
100
AcDbEntity
8
1
62
256
6
ByLayer
370
18
48
1
60
0
100
AcDbSpline
70
4
71
3
72
8
73
4
40
0
40
0
40
0
40
0
40
1
40
1
40
1
40
1
41
1
10
40.307246739406
20
-9.3246767129456
30
0
41
1
10
40.3219062409605
20
-9.32459039518778
30
0
41
1
10
40.336560913513
20
-9.3236986731001
30
0
41
1
10
40.3511225079025
20
-9.32200692484142
30
0
0
SPLINE
5
10E
100
AcDbEntity
8
1
62
256
6
ByLayer
370
18
48
1
60
0
100
AcDbSpline
70
4
71
5
72
12
73
6
40
0
40
0
40
0
40
0
40
0
40
0
40
1
40
1
40
1
40
1
40
1
40
1
41
1
10
39.89392022194
20
-12.1527788301686
30
0
41
1
10
39.910777641904
20
-12.1941289666548
30
0
41
1
10
39.946627639221
20
-12.2359000759056
30
0
41
1
10
39.999282324339
20
-12.2722553912022
30
0
41
1
10
40.0605544852975
20
-12.2975420695362
30
0
41
1
10
40.1217938790768
20
-12.3101137120911
30
0
0
SPLINE
5
10F
100
AcDbEntity
8
1
62
256
6
ByLayer
370
18
48
1
60
0
100
AcDbSpline
70
4
71
5
72
12
73
6
40
0
40
0
40
0
40
0
40
0
40
0
40
1
40
1
40
1
40
1
40
1
40
1
41
1
10
39.8970459440699
20
-9.73551919515612
30
0
41
1
10
39.8964608179069
20
-9.7326316766254
30
0
41
1
10
39.8958558241577
20
-9.72974773546457
30
0
41
1
10
39.8952308758299
20
-9.726867451483
30
0
41
1
10
39.8945858905018
20
-9.7239909021109
30
0
41
1
10
39.8939207904317
20
-9.72111816231285
30
0
0
SPLINE
5
110
100
AcDbEntity
8
1
62
256
6
ByLayer
370
18
48
1
60
0
100
AcDbSpline
70
4
71
9
72
20
73
10
40
0
40
0
40
0
40
0
40
0
40
0
40
0
40
0
40
0
40
0
40
1
40
1
40
1
40
1
40
1
40
1
40
1
40
1
40
1
40
1
41
1
10
40.5048669519183
20
-12.6021743104519
30
0
41
1
10
40.4892050391792
20
-12.5931349995269
30
0
41
1
10
40.4730831978508
20
-12.5848920360895
30
0
41
1
10
40.4565477346532
20
-12.5774721466583
30
0
41
1
10
40.4396467700863
20
-12.5708989181851
30
0
41
1
10
40.4224299823212
20
-12.5651926507715
30
0
41
1
10
40.4049483365208
20
-12.5603702361199
30
0
41
1
10
40.3872538027408
20
-12.5564450640132
30
0
41
1
10
40.3693990663215
20
-12.5534269581617
30
0
41
1
10
40.3514372347844
20
-12.5513221418471
30
0
0
SPLINE
5
111
100
AcDbEntity
8
1
62
256
6
ByLayer
370
18
48
1
60
0
100
AcDbSpline
70
4
71
5
72
12
73
6
40
0
40
0
40
0
40
0
40
0
40
0
40
1
40
1
40
1
40
1
40
1
40
1
41
1
10
39.8970459440699
20
-12.1379553953469
30
0
41
1
10
39.8964608179069
20
-12.140927078984
30
0
41
1
10
39.8958558241577
20
-12.143895150107
30
0
41
1
10
39.8952308758299
20
-12.146859517306
30
0
41
1
10
39.8945858905018
20
-12.1498200913866
30
0
41
1
10
39.8939207904317
20
-12.1527767854631
30
0
0
SPLINE
5
112
100
AcDbEntity
8
1
62
256
6
ByLayer
370
18
48
1
60
0
100
AcDbSpline
70
4
71
5
72
12
73
6
40
0
40
0
40
0
40
0
40
0
40
0
40
1
40
1
40
1
40
1
40
1
40
1
41
1
10
40.1273167035645
20
-9.57534558639227
30
0
41
1
10
40.0650186086081
20
-9.58626636434036
30
0
41
1
10
40.0026874203335
20
-9.61100669518069
30
0
41
1
10
39.9493156068537
20
-9.64813637687934
30
0
41
1
10
39.9133942129257
20
-9.69174825992513
30
0
41
1
10
39.897071937741
20
-9.73552195280109
30
0
0
SPLINE
5
113
100
AcDbEntity
8
1
62
256
6
ByLayer
370
18
48
1
60
0
100
AcDbSpline
70
4
71
5
72
12
73
6
40
0
40
0
40
0
40
0
40
0
40
0
40
1
40
1
40
1
40
1
40
1
40
1
41
1
10
39.859199739551
20
-9.55374163905961
30
0
41
1
10
39.8512387951281
20
-9.51006334487519
30
0
41
1
10
39.8446978569633
20
-9.46520859642334
30
0
41
1
10
39.8401059409295
20
-9.41952437551885
30
0
41
1
10
39.8377843548698
20
-9.37338890096208
30
0
41
1
10
39.837793415607
20
-9.32713898078518
30
0
0
SPLINE
5
114
100
AcDbEntity
8
1
62
256
6
ByLayer
370
18
48
1
60
0
100
AcDbSpline
70
4
71
5
72
12
73
6
40
0
40
0
40
0
40
0
40
0
40
0
40
1
40
1
40
1
40
1
40
1
40
1
41
1
10
39.8377850092383
20
-9.32714395422667
30
0
41
1
10
39.8156691332255
20
-9.32788063233753
30
0
41
1
10
39.791034503558
20
-9.32856548789832
30
0
41
1
10
39.764117594078
20
-9.32919066628887
30
0
41
1
10
39.7352095631067
20
-9.32974945429009
30
0
41
1
10
39.7046365141316
20
-9.33023664189267
30
0
0
SPLINE
5
115
100
AcDbEntity
8
1
62
256
6
ByLayer
370
18
48
1
60
0
100
AcDbSpline
70
4
71
1
72
4
73
2
40
0
40
0
40
1
40
1
41
1
10
39.8143432934044
20
-11.4734692634355
30
0
41
1
10
39.8970950775786
20
-12.1379523179012
30
0
0
SPLINE
5
116
100
AcDbEntity
8
1
62
256
6
ByLayer
370
18
48
1
60
0
100
AcDbSpline
70
4
71
11
72
24
73
12
40
0
40
0
40
0
40
0
40
0
40
0
40
0
40
0
40
0
40
0
40
0
40
0
40
1
40
1
40
1
40
1
40
1
40
1
40
1
40
1
40
1
40
1
40
1
40
1
41
1
10
45.69999410005
20
-13.060915128017
30
0
41
1
10
45.69999410005
20
-13.1180154212852
30
0
41
1
10
45.69102173181
20
-13.1751157104949
30
0
41
1
10
45.6730769975999
20
-13.2306505738507
30
0
41
1
10
45.6464673718199
20
-13.283054550661
30
0
41
1
10
45.61180781475
20
-13.3308311963656
30
0
41
1
10
45.57000269439
20
-13.3726219915648
30
0
41
1
10
45.52220967146
20
-13.4072696728599
30
0
41
1
10
45.4697877257399
20
-13.4338701791061
30
0
41
1
10
45.41423383289
20
-13.4518087650435
30
0
41
1
10
45.35711396647
20
-13.4607780580072
30
0
41
1
10
45.29999410005
20
-13.4607780580072
30
0
0
SPLINE
5
117
100
AcDbEntity
8
1
62
256
6
ByLayer
370
18
48
1
60
0
100
AcDbSpline
70
4
71
5
72
12
73
6
40
0
40
0
40
0
40
0
40
0
40
0
40
1
40
1
40
1
40
1
40
1
40
1
41
1
10
40.0622714281259
20
-12.4114770999549
30
0
41
1
10
40.051502710216
20
-12.436473189673
30
0
41
1
10
40.0411905632263
20
-12.4630430836779
30
0
41
1
10
40.0344279875495
20
-12.4910310689637
30
0
41
1
10
40.0303972904948
20
-12.5196351998905
30
0
41
1
10
40.0304643667597
20
-12.5486026799564
30
0
0
SPLINE
5
118
100
AcDbEntity
8
1
62
256
6
ByLayer
370
18
48
1
60
0
100
AcDbSpline
70
4
71
5
72
12
73
6
40
0
40
0
40
0
40
0
40
0
40
0
40
1
40
1
40
1
40
1
40
1
40
1
41
1
10
40.300360106865
20
-10.1292139957315
30
0
41
1
10
40.2380566425319
20
-10.1401309416685
30
0
41
1
10
40.1757177484666
20
-10.1648701986163
30
0
41
1
10
40.1223383098857
20
-10.2020019675102
30
0
41
1
10
40.0864121200294
20
-10.2456176037277
30
0
41
1
10
40.0700884349513
20
-10.2893950777234
30
0
0
SPLINE
5
119
100
AcDbEntity
8
1
62
256
6
ByLayer
370
18
48
1
60
0
100
AcDbSpline
70
4
71
11
72
24
73
12
40
0
40
0
40
0
40
0
40
0
40
0
40
0
40
0
40
0
40
0
40
0
40
0
40
1
40
1
40
1
40
1
40
1
40
1
40
1
40
1
40
1
40
1
40
1
40
1
41
1
10
41.77618727128
20
-13.3098351268306
30
0
41
1
10
41.7674689308
20
-13.3094546063002
30
0
41
1
10
41.75876886044
20
-13.3086557788522
30
0
41
1
10
41.7501093757299
20
-13.3074396184828
30
0
41
1
10
41.7415127339299
20
-13.3058084375894
30
0
41
1
10
41.7330010420699
20
-13.3037658829318
30
0
41
1
10
41.7245961655
20
-13.3013169243164
30
0
41
1
10
41.7163196373499
20
-13.2984678359125
30
0
41
1
10
41.70819256983
20
-13.2952261704311
30
0
41
1
10
41.70023556791
20
-13.2916007262462
30
0
41
1
10
41.69246864607
20
-13.2876015078482
30
0
41
1
10
41.6849111487199
20
-13.2832396799201
30
0
0
SPLINE
5
11A
100
AcDbEntity
8
1
62
256
6
ByLayer
370
18
48
1
60
0
100
AcDbSpline
70
4
71
5
72
12
73
6
40
0
40
0
40
0
40
0
40
0
40
0
40
1
40
1
40
1
40
1
40
1
40
1
41
1
10
39.8591989539868
20
-9.55374103617407
30
0
41
1
10
39.8430951996694
20
-9.56104707783325
30
0
41
1
10
39.8252753160432
20
-9.56835079793325
30
0
41
1
10
39.8058460802361
20
-9.57560442461784
30
0
41
1
10
39.7849326981599
20
-9.58276014105101
30
0
41
1
10
39.7626770623052
20
-9.58977136726557
30
0
0
INSERT
5
12C
100
AcDbEntity
8
2
62
256
6
ByLayer
370
25
48
1
60
0
100
AcDbBlockReference
2
DimnDraft3D11
10
0
20
0
30
0
41
1
42
1
43
1
50
0
210
0
220
0
230
1
0
LINE
5
72
100
AcDbEntity
8
80
62
256
6
ByLayer
370
18
48
1
60
0
100
AcDbLine
10
0
20
0
30
0
11
-5
21
0
31
0
39
0
210
0
220
0
230
1
0
LINE
5
73
100
AcDbEntity
8
1
62
256
6
ByLayer
370
18
48
1
60
0
100
AcDbLine
10
30.527864
20
-6.6375
30
0
11
25.8
21
-6.6375
31
0
39
0
210
0
220
0
230
1
0
LINE
5
75
100
AcDbEntity
8
81
62
256
6
ByLayer
370
18
48
1
60
0
100
AcDbLine
10
45.7
20
-13.4375
30
0
11
50.7
21
-13.4375
31
0
39
0
210
0
220
0
230
1
0
LINE
5
76
100
AcDbEntity
8
1
62
256
6
ByLayer
370
18
48
1
60
0
100
AcDbLine
10
44.62
20
-13.43393
30
0
11
44.62
21
-13.76961
31
0
39
0
210
0
220
0
230
1
0
LINE
5
77
100
AcDbEntity
8
1
62
256
6
ByLayer
370
18
48
1
60
0
100
AcDbLine
10
0
20
-12.3125
30
0
11
0.5
21
-12.3125
31
0
39
0
210
0
220
0
230
1
0
LINE
5
78
100
AcDbEntity
8
1
62
256
6
ByLayer
370
18
48
1
60
0
100
AcDbLine
10
27.440158
20
-9.109324
30
0
11
25.8
21
-9.109324
31
0
39
0
210
0
220
0
230
1
0
LINE
5
79
100
AcDbEntity
8
1
62
256
6
ByLayer
370
18
48
1
60
0
100
AcDbLine
10
12.273803
20
-15.700371
30
0
11
14.396248
21
-23.621445
31
0
39
0
210
0
220
0
230
1
0
LINE
5
7A
100
AcDbEntity
8
1
62
256
6
ByLayer
370
18
48
1
60
0
100
AcDbLine
10
27.440158
20
-15.700288
30
0
11
12.273781
21
-15.700288
31
0
39
0
210
0
220
0
230
1
0
LINE
5
7B
100
AcDbEntity
8
1
62
256
6
ByLayer
370
18
48
1
60
0
100
AcDbLine
10
24.2
20
-7.295947
30
0
11
24.2
21
-0.5375
31
0
39
0
210
0
220
0
230
1
0
LINE
5
7C
100
AcDbEntity
8
1
62
256
6
ByLayer
370
18
48
1
60
0
100
AcDbLine
10
39.728282
20
-12.388774
30
0
11
39.814342
21
-12.022426
31
0
39
0
210
0
220
0
230
1
0
LINE
5
7D
100
AcDbEntity
8
1
62
256
6
ByLayer
370
18
48
1
60
0
100
AcDbLine
10
12.273781
20
-15.700288
30
0
11
11.5
21
-12.8125
31
0
39
0
210
0
220
0
230
1
0
LINE
5
7E
100
AcDbEntity
8
1
62
256
6
ByLayer
370
18
48
1
60
0
100
AcDbLine
10
35.095
20
-13.659834
30
0
11
35.095
21
-13.76961
31
0
39
0
210
0
220
0
230
1
0
LINE
5
7F
100
AcDbEntity
8
1
62
256
6
ByLayer
370
18
48
1
60
0
100
AcDbLine
10
0.5
20
-12.3125
30
0
11
0.5
21
12.564682
31
0
39
0
210
0
220
0
230
1
0
LINE
5
80
100
AcDbEntity
8
1
62
256
6
ByLayer
370
18
48
1
60
0
100
AcDbLine
10
36.45
20
-8.647476
30
0
11
35.095
21
-8.647476
31
0
39
0
210
0
220
0
230
1
0
LINE
5
81
100
AcDbEntity
8
1
62
256
6
ByLayer
370
18
48
1
60
0
100
AcDbLine
10
0.5
20
12.564682
30
0
11
2.931639
21
12.604279
31
0
39
0
210
0
220
0
230
1
0
LINE
5
82
100
AcDbEntity
8
1
62
256
6
ByLayer
370
18
48
1
60
0
100
AcDbLine
10
0.5
20
12.564682
30
0
11
0
21
12.5625
31
0
39
0
210
0
220
0
230
1
0
LINE
5
83
100
AcDbEntity
8
1
62
256
6
ByLayer
370
18
48
1
60
0
100
AcDbLine
10
27.440158
20
-9.109324
30
0
11
27.440158
21
-15.700288
31
0
39
0
210
0
220
0
230
1
0
LINE
5
84
100
AcDbEntity
8
1
62
256
6
ByLayer
370
18
48
1
60
0
100
AcDbLine
10
39.695542
20
-9.297429
30
0
11
39.814342
21
-9.822876
31
0
39
0
210
0
220
0
230
1
0
LINE
5
85
100
AcDbEntity
8
1
62
256
6
ByLayer
370
18
48
1
60
0
100
AcDbLine
10
11.058221
20
12.604279
30
0
11
24.2
21
-0.5375
31
0
39
0
210
0
220
0
230
1
0
LINE
5
86
100
AcDbEntity
8
1
62
256
6
ByLayer
370
18
48
1
60
0
100
AcDbLine
10
44.62
20
-13.76961
30
0
11
44.62
21
-15.460016
31
0
39
0
210
0
220
0
230
1
0
LINE
5
87
100
AcDbEntity
8
1
62
256
6
ByLayer
370
18
48
1
60
0
100
AcDbLine
10
25.8
20
-6.6375
30
0
11
25.8
21
-9.109324
31
0
39
0
210
0
220
0
230
1
0
LINE
5
88
100
AcDbEntity
8
1
62
256
6
ByLayer
370
18
48
1
60
0
100
AcDbLine
10
39.453498
20
-8.668678
30
0
11
39.695542
21
-9.297429
31
0
39
0
210
0
220
0
230
1
0
LINE
5
89
100
AcDbEntity
8
1
62
256
6
ByLayer
370
18
48
1
60
0
100
AcDbLine
10
35.095
20
-13.76961
30
0
11
44.62
21
-13.76961
31
0
39
0
210
0
220
0
230
1
0
LINE
5
8A
100
AcDbEntity
8
1
62
256
6
ByLayer
370
18
48
1
60
0
100
AcDbLine
10
39.814342
20
-12.022426
30
0
11
39.814342
21
-9.822876
31
0
39
0
210
0
220
0
230
1
0
LINE
5
8B
100
AcDbEntity
8
1
62
256
6
ByLayer
370
18
48
1
60
0
100
AcDbLine
10
2.931639
20
-12.3125
30
0
11
0.5
21
-12.3125
31
0
39
0
210
0
220
0
230
1
0
LINE
5
8C
100
AcDbEntity
8
1
62
256
6
ByLayer
370
18
48
1
60
0
100
AcDbLine
10
34.29
20
-13.842239
30
0
11
34.29
21
-13.64596
31
0
39
0
210
0
220
0
230
1
0
LINE
5
8D
100
AcDbEntity
8
1
62
256
6
ByLayer
370
18
48
1
60
0
100
AcDbLine
10
35
20
-8.647413
30
0
11
35
21
-9.144253
31
0
39
0
210
0
220
0
230
1
0
LINE
5
8E
100
AcDbEntity
8
1
62
256
6
ByLayer
370
18
48
1
60
0
100
AcDbLine
10
2.931639
20
-12.3125
30
0
11
2.931639
21
12.604279
31
0
39
0
210
0
220
0
230
1
0
LINE
5
8F
100
AcDbEntity
8
1
62
256
6
ByLayer
370
18
48
1
60
0
100
AcDbLine
10
0
20
12.5625
30
0
11
0
21
-12.3125
31
0
39
0
210
0
220
0
230
1
0
LINE
5
90
100
AcDbEntity
8
1
62
256
6
ByLayer
370
18
48
1
60
0
100
AcDbLine
10
14.396248
20
-23.621445
30
0
11
40.336125
21
-23.621445
31
0
39
0
210
0
220
0
230
1
0
LINE
5
91
100
AcDbEntity
8
1
62
256
6
ByLayer
370
18
48
1
60
0
100
AcDbLine
10
30.527864
20
-6.6375
30
0
11
30.527864
21
-8.066418
31
0
39
0
210
0
220
0
230
1
0
LINE
5
92
100
AcDbEntity
8
1
62
256
6
ByLayer
370
18
48
1
60
0
100
AcDbLine
10
2.931639
20
12.604279
30
0
11
11.058221
21
12.604279
31
0
39
0
210
0
220
0
230
1
0
LINE
5
93
100
AcDbEntity
8
1
62
256
6
ByLayer
370
18
48
1
60
0
100
AcDbLine
10
40.412046
20
-9.308448
30
0
11
39.698146
21
-9.308448
31
0
39
0
210
0
220
0
230
1
0
LINE
5
94
100
AcDbEntity
8
1
62
256
6
ByLayer
370
18
48
1
60
0
100
AcDbLine
10
39.695542
20
-9.297429
30
0
11
39.728282
21
-12.388774
31
0
39
0
210
0
220
0
230
1
0
LINE
5
95
100
AcDbEntity
8
1
62
256
6
ByLayer
370
18
48
1
60
0
100
AcDbLine
10
11
20
-12.3125
30
0
11
2.931639
21
-12.3125
31
0
39
0
210
0
220
0
230
1
0
LINE
5
96
100
AcDbEntity
8
1
62
256
6
ByLayer
370
18
48
1
60
0
100
AcDbLine
10
39.452873
20
-13.067323
30
0
11
39.728282
21
-12.388774
31
0
39
0
210
0
220
0
230
1
0
LINE
5
97
100
AcDbEntity
8
1
62
256
6
ByLayer
370
18
48
1
60
0
100
AcDbLine
10
34.29
20
-13.842239
30
0
11
34.04
21
-13.842239
31
0
39
0
210
0
220
0
230
1
0
LINE
5
98
100
AcDbEntity
8
1
62
256
6
ByLayer
370
18
48
1
60
0
100
AcDbLine
10
11
20
-12.3125
30
0
11
11.5
21
-12.8125
31
0
39
0
210
0
220
0
230
1
0
LINE
5
99
100
AcDbEntity
8
1
62
256
6
ByLayer
370
18
48
1
60
0
100
AcDbLine
10
34.04
20
-13.842239
30
0
11
34.04
21
-13.693449
31
0
39
0
210
0
220
0
230
1
0
LINE
5
9A
100
AcDbEntity
8
SK1
62
256
6
ByLayer
370
18
48
1
60
0
100
AcDbLine
10
0
20
-12.3125
30
0
11
-105.65
21
-12.3125
31
0
39
0
210
0
220
0
230
1
0
LINE
5
9C
100
AcDbEntity
8
SK1
62
256
6
ByLayer
370
18
48
1
60
0
100
AcDbLine
10
-105.65
20
12.5625
30
0
11
0
21
12.5625
31
0
39
0
210
0
220
0
230
1
0
LINE
5
9D
100
AcDbEntity
8
SK1
62
256
6
ByLayer
370
18
48
1
60
0
100
AcDbLine
10
0
20
-12.3125
30
0
11
0
21
12.5625
31
0
39
0
210
0
220
0
230
1
0
LINE
5
9E
100
AcDbEntity
8
1
62
256
6
ByLayer
370
18
48
1
60
0
100
AcDbLine
10
40.30036
20
-11.713934
30
0
11
40.682382
21
-11.713934
31
0
39
0
210
0
220
0
230
1
0
LINE
5
9F
100
AcDbEntity
8
1
62
256
6
ByLayer
370
18
48
1
60
0
100
AcDbLine
10
43.002517
20
-8.509927
30
0
11
42.036672
21
-8.552082
31
0
39
0
210
0
220
0
230
1
0
LINE
5
A0
100
AcDbEntity
8
1
62
256
6
ByLayer
370
18
48
1
60
0
100
AcDbLine
10
41.91691
20
-12.548603
30
0
11
41.91691
21
-9.324684
31
0
39
0
210
0
220
0
230
1
0
LINE
5
A1
100
AcDbEntity
8
1
62
256
6
ByLayer
370
18
48
1
60
0
100
AcDbLine
10
45.169136
20
-8.415363
30
0
11
43.002517
21
-8.509927
31
0
39
0
210
0
220
0
230
1
0
LINE
5
A2
100
AcDbEntity
8
1
62
256
6
ByLayer
370
18
48
1
60
0
100
AcDbLine
10
42.036672
20
-8.552082
30
0
11
41.776187
21
-8.563451
31
0
39
0
210
0
220
0
230
1
0
LINE
5
A3
100
AcDbEntity
8
1
62
256
6
ByLayer
370
18
48
1
60
0
100
AcDbLine
10
40.30036
20
-10.129214
30
0
11
40.682382
21
-10.129214
31
0
39
0
210
0
220
0
230
1
0
LINE
5
A4
100
AcDbEntity
8
1
62
256
6
ByLayer
370
18
48
1
60
0
100
AcDbLine
10
39.615244
20
-12.667055
30
0
11
40.617233
21
-12.667055
31
0
39
0
210
0
220
0
230
1
0
LINE
5
A5
100
AcDbEntity
8
1
62
256
6
ByLayer
370
18
48
1
60
0
100
AcDbLine
10
40.351434
20
-12.548603
30
0
11
41.91691
21
-12.548603
31
0
39
0
210
0
220
0
230
1
0
LINE
5
A6
100
AcDbEntity
8
1
62
256
6
ByLayer
370
18
48
1
60
0
100
AcDbLine
10
40.03047
20
-9.324684
30
0
11
40.307247
21
-9.324684
31
0
39
0
210
0
220
0
230
1
0
LINE
5
A7
100
AcDbEntity
8
1
62
256
6
ByLayer
370
18
48
1
60
0
100
AcDbLine
10
40.121865
20
-12.310092
30
0
11
41.732438
21
-12.310092
31
0
39
0
210
0
220
0
230
1
0
LINE
5
A8
100
AcDbEntity
8
1
62
256
6
ByLayer
370
18
48
1
60
0
100
AcDbLine
10
41.732438
20
-9.558691
30
0
11
40.682382
21
-10.129214
31
0
39
0
210
0
220
0
230
1
0
LINE
5
A9
100
AcDbEntity
8
1
62
256
6
ByLayer
370
18
48
1
60
0
100
AcDbLine
10
40.351434
20
-9.324684
30
0
11
41.91691
21
-9.324684
31
0
39
0
210
0
220
0
230
1
0
LINE
5
AA
100
AcDbEntity
8
1
62
256
6
ByLayer
370
18
48
1
60
0
100
AcDbLine
10
40.559437
20
-10.285173
30
0
11
40.559437
21
-11.554973
31
0
39
0
210
0
220
0
230
1
0
LINE
5
AB
100
AcDbEntity
8
1
62
256
6
ByLayer
370
18
48
1
60
0
100
AcDbLine
10
40.30036
20
-11.554972
30
0
11
40.30036
21
-10.285175
31
0
39
0
210
0
220
0
230
1
0
LINE
5
AC
100
AcDbEntity
8
1
62
256
6
ByLayer
370
18
48
1
60
0
100
AcDbLine
10
40.30036
20
-11.554972
30
0
11
40.559437
21
-11.554972
31
0
39
0
210
0
220
0
230
1
0
LINE
5
AD
100
AcDbEntity
8
1
62
256
6
ByLayer
370
18
48
1
60
0
100
AcDbLine
10
42.036672
20
-13.321204
30
0
11
41.776187
21
-13.309835
31
0
39
0
210
0
220
0
230
1
0
LINE
5
AE
100
AcDbEntity
8
1
62
256
6
ByLayer
370
18
48
1
60
0
100
AcDbLine
10
40.305062
20
-12.54862
30
0
11
40.361155
21
-12.553528
31
0
39
0
210
0
220
0
230
1
0
LINE
5
AF
100
AcDbEntity
8
1
62
256
6
ByLayer
370
18
48
1
60
0
100
AcDbLine
10
41.732438
20
-12.310092
30
0
11
40.682382
21
-11.713934
31
0
39
0
210
0
220
0
230
1
0
LINE
5
B0
100
AcDbEntity
8
1
62
256
6
ByLayer
370
18
48
1
60
0
100
AcDbLine
10
40.30036
20
-10.285174
30
0
11
40.559437
21
-10.285174
31
0
39
0
210
0
220
0
230
1
0
LINE
5
B1
100
AcDbEntity
8
1
62
256
6
ByLayer
370
18
48
1
60
0
100
AcDbLine
10
40.03047
20
-12.548603
30
0
11
40.307247
21
-12.548603
31
0
39
0
210
0
220
0
230
1
0
LINE
5
B2
100
AcDbEntity
8
1
62
256
6
ByLayer
370
18
48
1
60
0
100
AcDbLine
10
40.121865
20
-9.558691
30
0
11
41.732438
21
-9.558691
31
0
39
0
210
0
220
0
230
1
0
LINE
5
B3
100
AcDbEntity
8
1
62
256
6
ByLayer
370
18
48
1
60
0
100
AcDbLine
10
43.002517
20
-13.36336
30
0
11
42.036672
21
-13.321204
31
0
39
0
210
0
220
0
230
1
0
LINE
5
B4
100
AcDbEntity
8
1
62
256
6
ByLayer
370
18
48
1
60
0
100
AcDbLine
10
40.504867
20
-9.271112
30
0
11
41.684911
21
-8.590047
31
0
39
0
210
0
220
0
230
1
0
LINE
5
B5
100
AcDbEntity
8
1
62
256
6
ByLayer
370
18
48
1
60
0
100
AcDbLine
10
45.7
20
-13.060915
30
0
11
45.7
21
-8.812371
31
0
39
0
210
0
220
0
230
1
0
LINE
5
B6
100
AcDbEntity
8
1
62
256
6
ByLayer
370
18
48
1
60
0
100
AcDbLine
10
40.504867
20
-12.602174
30
0
11
41.684911
21
-13.28324
31
0
39
0
210
0
220
0
230
1
0
LINE
5
B7
100
AcDbEntity
8
1
62
256
6
ByLayer
370
18
48
1
60
0
100
AcDbLine
10
40.30036
20
-10.129214
30
0
11
40.127344
21
-9.575341
31
0
39
0
210
0
220
0
230
1
0
LINE
5
B8
100
AcDbEntity
8
1
62
256
6
ByLayer
370
18
48
1
60
0
100
AcDbLine
10
40.30036
20
-11.713934
30
0
11
40.127344
21
-12.292694
31
0
39
0
210
0
220
0
230
1
0
LINE
5
B9
100
AcDbEntity
8
1
62
256
6
ByLayer
370
18
48
1
60
0
100
AcDbLine
10
45.169136
20
-13.457924
30
0
11
43.002517
21
-13.36336
31
0
39
0
210
0
220
0
230
1
0
LINE
5
BA
100
AcDbEntity
8
SK1
62
256
6
ByLayer
370
18
48
1
60
0
100
AcDbLine
10
-105.65
20
-12.3125
30
0
11
-105.65
21
12.5625
31
0
39
0
210
0
220
0
230
1
0
MTEXT
5
11B
100
AcDbEntity
8
SK6
62
256
6
ByLayer
370
18
48
1
60
0
100
AcDbMText
10
-59.097472
20
-29.383583
30
0
210
0
220
0
230
1
1
\W0.7451;LF151.37-2525-025B40
40
3.5
41
0
44
1.084337
50
0
71
7
72
5
7
iso_b_vert
0
DIMENSION
5
13A
100
AcDbEntity
8
2
62
256
6
ByLayer
370
13
48
1
60
0
100
AcDbDimension
2
DimnDraft3D2
10
59.95
20
-8.4375
30
0
11
59.95
21
-3.9375
31
0
70
32
71
5
72
1
41
1
210
0
220
0
230
1
3
Standard
100
AcDbAlignedDimension
13
47.2
23
-13.4375
33
0
14
47.2
24
-8.4375
34
0
50
90
100
AcDbRotatedDimension
1001
ACAD
1000
DSTYLE
1002
{
1070
    74
1070
     0
1070
   279
1070
     0
1070
   172
1070
     1
1070
   173
1070
     1
1070
   340
1005
11C
1070
   271
1070
     3
1070
   272
1070
     3
1070
    77
1070
     1
1070
    73
1070
     0
1070
   171
1070
     4
1070
   274
1070
     4
1070
   177
1070
     2
1070
   176
1070
     2
1070
   178
1070
     7
1070
    78
1070
     8
1070
    41
1041
3.0
1070
   147
1041
2.25
1070
    42
1041
1.5
1070
    44
1041
3.0
1070
   140
1041
4.5
1070
   343
1005
13B
1070
   344
1005
13B
1002
}
0
DIMENSION
5
14F
100
AcDbEntity
8
2
62
256
6
ByLayer
370
13
48
1
60
0
100
AcDbDimension
2
DimnDraft3D3
10
69.95
20
12.4375
30
0
11
69.95
21
-3.188158
31
0
70
32
71
5
72
1
41
1
210
0
220
0
230
1
3
Standard
100
AcDbAlignedDimension
13
47.2
23
-13.4375
33
0
14
1.5
24
12.4375
34
0
50
90
100
AcDbRotatedDimension
1001
ACAD
1000
DSTYLE
1002
{
1070
    74
1070
     0
1070
   279
1070
     0
1070
   172
1070
     1
1070
   173
1070
     1
1070
   340
1005
11C
1070
   271
1070
     3
1070
   272
1070
     3
1070
    77
1070
     1
1070
    73
1070
     0
1070
   171
1070
     4
1070
   274
1070
     4
1070
   177
1070
     2
1070
   176
1070
     2
1070
   178
1070
     7
1070
    78
1070
     8
1070
    41
1041
3.0
1070
   147
1041
2.25
1070
    42
1041
1.5
1070
    44
1041
3.0
1070
   140
1041
4.5
1070
   343
1005
13B
1070
   344
1005
13B
1002
}
0
DIMENSION
5
15E
100
AcDbEntity
8
SK2
62
256
6
ByLayer
370
13
48
1
60
0
100
AcDbDimension
2
DimnDraft3D4
10
-115.4
20
-12.4375
30
0
11
-115.4
21
-2.688158
31
0
70
32
71
5
72
1
41
1
210
0
220
0
230
1
3
Standard
100
AcDbAlignedDimension
13
-107.15
23
12.4375
33
0
14
-107.15
24
-12.4375
34
0
50
90
100
AcDbRotatedDimension
1001
ACAD
1000
DSTYLE
1002
{
1070
    74
1070
     0
1070
   279
1070
     0
1070
   172
1070
     1
1070
   173
1070
     1
1070
   340
1005
11C
1070
   271
1070
     3
1070
   272
1070
     3
1070
    77
1070
     1
1070
    73
1070
     0
1070
   171
1070
     4
1070
   274
1070
     4
1070
   177
1070
     2
1070
   176
1070
     2
1070
   178
1070
     7
1070
    78
1070
     8
1070
    41
1041
3.0
1070
   147
1041
2.25
1070
    42
1041
1.5
1070
    44
1041
3.0
1070
   140
1041
4.5
1070
   343
1005
13B
1070
   344
1005
13B
1002
}
0
DIMENSION
5
16C
100
AcDbEntity
8
2
62
256
6
ByLayer
370
13
48
1
60
0
100
AcDbDimension
2
DimnDraft3D5
10
35
20
22.1875
30
0
11
50.2
21
22.1875
31
0
70
32
71
5
72
1
41
1
210
0
220
0
230
1
3
Standard
100
AcDbAlignedDimension
13
45.7
23
-6.9375
33
0
14
35
24
13.9375
34
0
50
0
100
AcDbRotatedDimension
1001
ACAD
1000
DSTYLE
1002
{
1070
   279
1070
     0
1070
   172
1070
     1
1070
   173
1070
     1
1070
   340
1005
11C
1070
   271
1070
     3
1070
   272
1070
     3
1070
    77
1070
     1
1070
    73
1070
     0
1070
   171
1070
     4
1070
   274
1070
     4
1070
   177
1070
     2
1070
   176
1070
     2
1070
   178
1070
     7
1070
    78
1070
     8
1070
    41
1041
3.0
1070
   147
1041
2.25
1070
    42
1041
1.5
1070
    44
1041
3.0
1070
   140
1041
4.5
1070
   343
1005
13B
1070
   344
1005
13B
1002
}
0
DIMENSION
5
17A
100
AcDbEntity
8
2
62
256
6
ByLayer
370
13
48
1
60
0
100
AcDbDimension
2
DimnDraft3D6
10
0
20
42.1875
30
0
11
17.331579
21
42.1875
31
0
70
32
71
5
72
1
41
1
210
0
220
0
230
1
3
Standard
100
AcDbAlignedDimension
13
45.7
23
-6.9375
33
0
14
0
24
13.9375
34
0
50
0
100
AcDbRotatedDimension
1001
ACAD
1000
DSTYLE
1002
{
1070
   279
1070
     0
1070
   172
1070
     1
1070
   173
1070
     1
1070
   340
1005
11C
1070
   271
1070
     3
1070
   272
1070
     3
1070
    77
1070
     1
1070
    73
1070
     0
1070
   171
1070
     4
1070
   274
1070
     4
1070
   177
1070
     2
1070
   176
1070
     2
1070
   178
1070
     7
1070
    78
1070
     8
1070
    41
1041
3.0
1070
   147
1041
2.25
1070
    42
1041
1.5
1070
    44
1041
3.0
1070
   140
1041
4.5
1070
   343
1005
13B
1070
   344
1005
13B
1002
}
0
DIMENSION
5
188
100
AcDbEntity
8
SK2
62
256
6
ByLayer
370
13
48
1
60
0
100
AcDbDimension
2
DimnDraft3D7
10
-105.65
20
52.1875
30
0
11
-33.782237
21
52.1875
31
0
70
32
71
5
72
1
41
1
210
0
220
0
230
1
3
Standard
100
AcDbAlignedDimension
13
45.7
23
-6.9375
33
0
14
-105.65
24
13.9375
34
0
50
0
100
AcDbRotatedDimension
1001
ACAD
1000
DSTYLE
1002
{
1070
   279
1070
     0
1070
   172
1070
     1
1070
   173
1070
     1
1070
   340
1005
11C
1070
   271
1070
     3
1070
   272
1070
     3
1070
    77
1070
     1
1070
    73
1070
     0
1070
   171
1070
     4
1070
   274
1070
     4
1070
   177
1070
     2
1070
   176
1070
     2
1070
   178
1070
     7
1070
    78
1070
     8
1070
    41
1041
3.0
1070
   147
1041
2.25
1070
    42
1041
1.5
1070
    44
1041
3.0
1070
   140
1041
4.5
1070
   343
1005
13B
1070
   344
1005
13B
1002
}
0
ENDSEC
0
SECTION
2
OBJECTS
0
DICTIONARY
5
1f2
330
0
100
AcDbDictionary
280
0
281
1
3
ACAD_GROUP
350
1f3
3
ACAD_MLINESTYLE
350
1f4
0
DICTIONARY
5
1f3
330
0
100
AcDbDictionary
280
0
281
1
0
DICTIONARY
5
1f4
330
0
100
AcDbDictionary
280
0
281
1
3
Standard
350
18
0
MLINESTYLE
5
18
330
1f4
100
AcDbMlineStyle
2
Standard
70
0
3

62
256
51
90
52
90
71
2
49
-0.5
62
256
6
ByLayer
49
0.5
62
256
6
ByLayer
0
RASTERVARIABLES
5
1e1
330

100
AcDbRasterVariables
90
0
70
1
71
1
72
1
0
ENDSEC
0
EOF
