0
SECTION
2
HEADER
9
$ACADVER
1
AC1015
9
$DWGCODEPAGE
3
ANSI_1252
9
$HANDSEED
5
1d8
9
$ANGBASE
50
0
9
$ANGDIR
70
0
9
$ATTMODE
70
1
9
$AUNITS
70
0
9
$AUPREC
70
0
9
$CECOLOR
62
256
9
$CELTSCALE
40
1
9
$CELTYPE
6
ByLayer
9
$CELWEIGHT
370
18
9
$CLAYER
8
0
9
$CMLJUST
70
0
9
$CMLSCALE
40
1
9
$CMLSTYLE
2
Standard
9
$DIMSTYLE
2
Standard
9
$TEXTSIZE
40
0.2
9
$TEXTSTYLE
7
Standard
9
$LUNITS
70
2
9
$LUPREC
70
4
9
$EXTNAMES
290
1
9
$INSUNITS
70
4
9
$LTSCALE
40
1
9
$LWDISPLAY
290
1
9
$PDMODE
70
0
9
$PDSIZE
40
0
9
$PLINEGEN
70
0
0
ENDSEC
0
SECTION
2
CLASSES
0
CLASS
1
RASTERVARIABLES
2
AcDbRasterVariables
3
ISM
90
0
280
0
281
0
0
ENDSEC
0
SECTION
2
TABLES
0
TABLE
2
VPORT
5
1ce
100
AcDbSymbolTable
0
VPORT
5
1
100
AcDbSymbolTableRecord
100
AcDbViewportTableRecord
2
*Active
70
0
10
0
20
0
11
1
21
1
12
-1
22
1
13
0
23
0
14
0.5
24
0.5
15
10
25
10
16
0
26
0
36
1
17
0
27
0
37
0
0
ENDTAB
0
TABLE
2
LTYPE
5
1cf
100
AcDbSymbolTable
0
LTYPE
5
14
100
AcDbSymbolTableRecord
100
AcDbLinetypeTableRecord
70
0
2
ByBlock
3

72
65
73
0
40
0
0
LTYPE
5
15
100
AcDbSymbolTableRecord
100
AcDbLinetypeTableRecord
70
0
2
ByLayer
3

72
65
73
0
40
0
0
LTYPE
5
16
100
AcDbSymbolTableRecord
100
AcDbLinetypeTableRecord
70
0
2
CONTINUOUS
3
Solid line
72
65
73
0
40
0
0
LTYPE
5
6A
100
AcDbSymbolTableRecord
100
AcDbLinetypeTableRecord
70
0
2
CENTER
3
____ _ ____ _ ____ _ ____
72
65
73
4
40
47.5
49
22
74
0
49
-8.5
74
0
49
8.5
74
0
49
-8.5
74
0
0
LTYPE
5
6B
100
AcDbSymbolTableRecord
100
AcDbLinetypeTableRecord
70
0
2
DASHED
3
__ __ __ __ __ __ __ __ __
72
65
73
2
40
25.72
49
12.86
74
0
49
-12.86
74
0
0
ENDTAB
0
TABLE
2
LAYER
5
1d0
100
AcDbSymbolTable
0
LAYER
5
10
100
AcDbSymbolTableRecord
100
AcDbLayerTableRecord
2
0
70
0
62
7
6
CONTINUOUS
290
1
370
-3
390
0
0
LAYER
5
6D
100
AcDbSymbolTableRecord
100
AcDbLayerTableRecord
2
80
70
0
62
-6
6
CONTINUOUS
290
1
370
-3
390
0
0
LAYER
5
6F
100
AcDbSymbolTableRecord
100
AcDbLayerTableRecord
2
2
70
0
62
7
6
CONTINUOUS
290
1
370
-3
390
0
0
LAYER
5
71
100
AcDbSymbolTableRecord
100
AcDbLayerTableRecord
2
81
70
0
62
-3
6
CONTINUOUS
290
1
370
-3
390
0
0
LAYER
5
75
100
AcDbSymbolTableRecord
100
AcDbLayerTableRecord
2
1
70
0
62
4
6
CONTINUOUS
290
1
370
-3
390
0
0
LAYER
5
1bb
100
AcDbSymbolTableRecord
100
AcDbLayerTableRecord
2
SK1
70
0
62
4
6
CONTINUOUS
290
1
370
-3
390
0
0
LAYER
5
1bc
100
AcDbSymbolTableRecord
100
AcDbLayerTableRecord
2
SK6
70
0
62
5
6
CONTINUOUS
290
1
370
-3
390
0
0
LAYER
5
1bd
100
AcDbSymbolTableRecord
100
AcDbLayerTableRecord
2
SK2
70
0
62
7
6
CONTINUOUS
290
1
370
-3
390
0
0
ENDTAB
0
TABLE
2
STYLE
5
1d1
100
AcDbSymbolTable
0
STYLE
5
11
100
AcDbSymbolTableRecord
100
AcDbTextStyleTableRecord
2
Standard
3
txt
70
0
71
0
40
0
41
1
42
0
50
0
0
STYLE
5
103
100
AcDbSymbolTableRecord
100
AcDbTextStyleTableRecord
2
iso_b_vert
3
simplex.shx
70
0
71
0
40
0
41
1
42
0
50
0
0
STYLE
5
104
100
AcDbSymbolTableRecord
100
AcDbTextStyleTableRecord
2
DWGDirectTextStyle
3
simplex
70
0
71
0
40
0
41
1
42
0
50
0
0
ENDTAB
0
TABLE
2
DIMSTYLE
5
1d2
100
AcDbSymbolTable
100
AcDbDimStyleTable
0
DIMSTYLE
105
27
100
AcDbSymbolTableRecord
100
AcDbDimStyleTableRecord
2
Standard
70
0
3
<>
41
0.18
42
0.0625
44
0.18
140
0.18
147
0.09
73
0
74
0
77
1
271
2
275
0
278
52
280
0
340
11
0
ENDTAB
0
TABLE
2
VIEW
5
1d3
100
AcDbSymbolTable
0
ENDTAB
0
TABLE
2
UCS
5
1d4
100
AcDbSymbolTable
0
ENDTAB
0
TABLE
2
APPID
5
1d5
100
AcDbSymbolTable
0
APPID
5
12
100
AcDbSymbolTableRecord
100
AcDbRegAppTableRecord
2
ACAD
70
0
0
ENDTAB
0
TABLE
2
BLOCK_RECORD
5
1d6
100
AcDbSymbolTable
0
BLOCK_RECORD
5
1F
100
AcDbSymbolTableRecord
100
AcDbBlockTableRecord
2
*Model_Space
340
0
70
0
0
BLOCK_RECORD
5
1B
100
AcDbSymbolTableRecord
100
AcDbBlockTableRecord
2
*Paper_Space
340
0
70
0
0
BLOCK_RECORD
5
23
100
AcDbSymbolTableRecord
100
AcDbBlockTableRecord
2
*Paper_Space0
340
0
70
0
0
BLOCK_RECORD
5
106
100
AcDbSymbolTableRecord
100
AcDbBlockTableRecord
2
DimnDraft3D1
340
0
70
0
0
BLOCK_RECORD
5
114
100
AcDbSymbolTableRecord
100
AcDbBlockTableRecord
2
_CLOSED
340
0
70
0
0
BLOCK_RECORD
5
11B
100
AcDbSymbolTableRecord
100
AcDbBlockTableRecord
2
DimnDraft3D2
340
0
70
0
0
BLOCK_RECORD
5
129
100
AcDbSymbolTableRecord
100
AcDbBlockTableRecord
2
DimnDraft3D3
340
0
70
0
0
BLOCK_RECORD
5
138
100
AcDbSymbolTableRecord
100
AcDbBlockTableRecord
2
DimnDraft3D4
340
0
70
0
0
BLOCK_RECORD
5
146
100
AcDbSymbolTableRecord
100
AcDbBlockTableRecord
2
DimnDraft3D5
340
0
70
0
0
BLOCK_RECORD
5
154
100
AcDbSymbolTableRecord
100
AcDbBlockTableRecord
2
DimnDraft3D6
340
0
70
0
0
ENDTAB
0
ENDSEC
0
SECTION
2
BLOCKS
0
BLOCK
5
20
100
AcDbEntity
8
0
100
AcDbBlockBegin
2
*Model_Space
70
0
10
0
20
0
30
0
3
*Model_Space
0
ENDBLK
5
21
100
AcDbEntity
8
0
100
AcDbBlockEnd
0
BLOCK
5
1C
100
AcDbEntity
8
0
100
AcDbBlockBegin
2
*Paper_Space
70
0
10
0
20
0
30
0
3
*Paper_Space
0
ENDBLK
5
1D
100
AcDbEntity
8
0
100
AcDbBlockEnd
0
BLOCK
5
24
100
AcDbEntity
8
0
100
AcDbBlockBegin
2
*Paper_Space0
70
0
10
0
20
0
30
0
3
*Paper_Space0
0
ENDBLK
5
25
100
AcDbEntity
8
0
100
AcDbBlockEnd
0
BLOCK
5
111
100
AcDbEntity
8
0
100
AcDbBlockBegin
2
DimnDraft3D1
70
0
10
0
20
0
30
0
3
DimnDraft3D1
0
MTEXT
5
107
100
AcDbEntity
8
2
62
256
6
ByLayer
370
18
48
1
60
0
100
AcDbMText
10
61.125
20
-2.8125
30
0
210
0
220
0
230
1
1
\W0.5404;5
40
4.5
41
0
44
1.084337
50
90
71
7
72
5
7
iso_b_vert
0
LINE
5
108
100
AcDbEntity
8
2
62
256
6
ByLayer
370
13
48
1
60
0
100
AcDbLine
10
49.5
20
-13.4375
30
0
11
65.25
21
-13.4375
31
0
39
0
210
0
220
0
230
1
0
LINE
5
109
100
AcDbEntity
8
2
62
256
6
ByLayer
370
13
48
1
60
0
100
AcDbLine
10
49.5
20
-8.4375
30
0
11
65.25
21
-8.4375
31
0
39
0
210
0
220
0
230
1
0
LINE
5
10A
100
AcDbEntity
8
2
62
256
6
ByLayer
370
13
48
1
60
0
100
AcDbLine
10
62.25
20
-1.924342
30
0
11
62.25
21
-24.6875
31
0
39
0
210
0
220
0
230
1
0
LINE
5
10B
100
AcDbEntity
8
2
62
256
6
ByLayer
370
13
48
1
60
0
100
AcDbLine
10
62.25
20
-13.4375
30
0
11
62.644957
21
-16.437499
31
0
39
0
210
0
220
0
230
1
0
LINE
5
10C
100
AcDbEntity
8
2
62
256
6
ByLayer
370
13
48
1
60
0
100
AcDbLine
10
62.25
20
-13.4375
30
0
11
61.855043
21
-16.437501
31
0
39
0
210
0
220
0
230
1
0
LINE
5
10D
100
AcDbEntity
8
2
62
256
6
ByLayer
370
13
48
1
60
0
100
AcDbLine
10
62.644957
20
-16.437499
30
0
11
61.855043
21
-16.437501
31
0
39
0
210
0
220
0
230
1
0
LINE
5
10E
100
AcDbEntity
8
2
62
256
6
ByLayer
370
13
48
1
60
0
100
AcDbLine
10
62.25
20
-8.4375
30
0
11
61.855043
21
-5.437501
31
0
39
0
210
0
220
0
230
1
0
LINE
5
10F
100
AcDbEntity
8
2
62
256
6
ByLayer
370
13
48
1
60
0
100
AcDbLine
10
62.25
20
-8.4375
30
0
11
62.644957
21
-5.437499
31
0
39
0
210
0
220
0
230
1
0
LINE
5
110
100
AcDbEntity
8
2
62
256
6
ByLayer
370
13
48
1
60
0
100
AcDbLine
10
61.855043
20
-5.437501
30
0
11
62.644957
21
-5.437499
31
0
39
0
210
0
220
0
230
1
0
ENDBLK
5
112
100
AcDbEntity
8
0
100
AcDbBlockEnd
0
BLOCK
5
115
100
AcDbEntity
8
0
100
AcDbBlockBegin
2
_CLOSED
70
0
10
0
20
0
30
0
3
_CLOSED
0
LINE
5
117
100
AcDbEntity
8
0
62
256
6
ByLayer
370
-2
48
1
60
0
100
AcDbLine
10
-1
20
0.166667
30
0
11
0
21
0
31
0
39
0
210
0
220
0
230
1
0
LINE
5
118
100
AcDbEntity
8
0
62
256
6
ByLayer
370
-2
48
1
60
0
100
AcDbLine
10
0
20
0
30
0
11
-1
21
-0.166667
31
0
39
0
210
0
220
0
230
1
0
LINE
5
119
100
AcDbEntity
8
0
62
256
6
ByLayer
370
-2
48
1
60
0
100
AcDbLine
10
-1
20
0.166667
30
0
11
-1
21
-0.166667
31
0
39
0
210
0
220
0
230
1
0
LINE
5
11A
100
AcDbEntity
8
0
62
256
6
ByLayer
370
-2
48
1
60
0
100
AcDbLine
10
0
20
0
30
0
11
-1
21
0
31
0
39
0
210
0
220
0
230
1
0
ENDBLK
5
116
100
AcDbEntity
8
0
100
AcDbBlockEnd
0
BLOCK
5
126
100
AcDbEntity
8
0
100
AcDbBlockBegin
2
DimnDraft3D2
70
0
10
0
20
0
30
0
3
DimnDraft3D2
0
MTEXT
5
11C
100
AcDbEntity
8
2
62
256
6
ByLayer
370
18
48
1
60
0
100
AcDbMText
10
71.125
20
-2.063158
30
0
210
0
220
0
230
1
1
\W0.6740;26
40
4.5
41
0
44
1.084337
50
90
71
7
72
5
7
iso_b_vert
0
LINE
5
11D
100
AcDbEntity
8
2
62
256
6
ByLayer
370
13
48
1
60
0
100
AcDbLine
10
49.5
20
-13.4375
30
0
11
75.25
21
-13.4375
31
0
39
0
210
0
220
0
230
1
0
LINE
5
11E
100
AcDbEntity
8
2
62
256
6
ByLayer
370
13
48
1
60
0
100
AcDbLine
10
1.5
20
12.4375
30
0
11
75.25
21
12.4375
31
0
39
0
210
0
220
0
230
1
0
LINE
5
11F
100
AcDbEntity
8
2
62
256
6
ByLayer
370
13
48
1
60
0
100
AcDbLine
10
72.25
20
-13.4375
30
0
11
72.25
21
12.4375
31
0
39
0
210
0
220
0
230
1
0
LINE
5
120
100
AcDbEntity
8
2
62
256
6
ByLayer
370
13
48
1
60
0
100
AcDbLine
10
72.25
20
-13.4375
30
0
11
71.855043
21
-10.437501
31
0
39
0
210
0
220
0
230
1
0
LINE
5
121
100
AcDbEntity
8
2
62
256
6
ByLayer
370
13
48
1
60
0
100
AcDbLine
10
72.25
20
-13.4375
30
0
11
72.644957
21
-10.437499
31
0
39
0
210
0
220
0
230
1
0
LINE
5
122
100
AcDbEntity
8
2
62
256
6
ByLayer
370
13
48
1
60
0
100
AcDbLine
10
71.855043
20
-10.437501
30
0
11
72.644957
21
-10.437499
31
0
39
0
210
0
220
0
230
1
0
LINE
5
123
100
AcDbEntity
8
2
62
256
6
ByLayer
370
13
48
1
60
0
100
AcDbLine
10
72.25
20
12.4375
30
0
11
72.644957
21
9.437501
31
0
39
0
210
0
220
0
230
1
0
LINE
5
124
100
AcDbEntity
8
2
62
256
6
ByLayer
370
13
48
1
60
0
100
AcDbLine
10
72.25
20
12.4375
30
0
11
71.855043
21
9.437499
31
0
39
0
210
0
220
0
230
1
0
LINE
5
125
100
AcDbEntity
8
2
62
256
6
ByLayer
370
13
48
1
60
0
100
AcDbLine
10
72.644957
20
9.437501
30
0
11
71.855043
21
9.437499
31
0
39
0
210
0
220
0
230
1
0
ENDBLK
5
127
100
AcDbEntity
8
0
100
AcDbBlockEnd
0
BLOCK
5
135
100
AcDbEntity
8
0
100
AcDbBlockBegin
2
DimnDraft3D3
70
0
10
0
20
0
30
0
3
DimnDraft3D3
0
MTEXT
5
12A
100
AcDbEntity
8
SK2
62
256
6
ByLayer
370
18
48
1
60
0
100
AcDbMText
10
-114.225
20
-1.563158
30
0
210
0
220
0
230
1
1
\W0.6740;25
40
4.5
41
0
44
1.084337
50
90
71
7
72
5
7
iso_b_vert
0
LINE
5
12C
100
AcDbEntity
8
SK2
62
256
6
ByLayer
370
13
48
1
60
0
100
AcDbLine
10
-104.85
20
12.4375
30
0
11
-116.1
21
12.4375
31
0
39
0
210
0
220
0
230
1
0
LINE
5
12D
100
AcDbEntity
8
SK2
62
256
6
ByLayer
370
13
48
1
60
0
100
AcDbLine
10
-104.85
20
-12.4375
30
0
11
-116.1
21
-12.4375
31
0
39
0
210
0
220
0
230
1
0
LINE
5
12E
100
AcDbEntity
8
SK2
62
256
6
ByLayer
370
13
48
1
60
0
100
AcDbLine
10
-113.1
20
12.4375
30
0
11
-113.1
21
-12.4375
31
0
39
0
210
0
220
0
230
1
0
LINE
5
12F
100
AcDbEntity
8
SK2
62
256
6
ByLayer
370
13
48
1
60
0
100
AcDbLine
10
-113.1
20
12.4375
30
0
11
-112.705043
21
9.437501
31
0
39
0
210
0
220
0
230
1
0
LINE
5
130
100
AcDbEntity
8
SK2
62
256
6
ByLayer
370
13
48
1
60
0
100
AcDbLine
10
-113.1
20
12.4375
30
0
11
-113.494957
21
9.437499
31
0
39
0
210
0
220
0
230
1
0
LINE
5
131
100
AcDbEntity
8
SK2
62
256
6
ByLayer
370
13
48
1
60
0
100
AcDbLine
10
-112.705043
20
9.437501
30
0
11
-113.494957
21
9.437499
31
0
39
0
210
0
220
0
230
1
0
LINE
5
132
100
AcDbEntity
8
SK2
62
256
6
ByLayer
370
13
48
1
60
0
100
AcDbLine
10
-113.1
20
-12.4375
30
0
11
-113.494957
21
-9.437501
31
0
39
0
210
0
220
0
230
1
0
LINE
5
133
100
AcDbEntity
8
SK2
62
256
6
ByLayer
370
13
48
1
60
0
100
AcDbLine
10
-113.1
20
-12.4375
30
0
11
-112.705043
21
-9.437499
31
0
39
0
210
0
220
0
230
1
0
LINE
5
134
100
AcDbEntity
8
SK2
62
256
6
ByLayer
370
13
48
1
60
0
100
AcDbLine
10
-113.494957
20
-9.437501
30
0
11
-112.705043
21
-9.437499
31
0
39
0
210
0
220
0
230
1
0
ENDBLK
5
136
100
AcDbEntity
8
0
100
AcDbBlockEnd
0
BLOCK
5
143
100
AcDbEntity
8
0
100
AcDbBlockBegin
2
DimnDraft3D4
70
0
10
0
20
0
30
0
3
DimnDraft3D4
0
MTEXT
5
139
100
AcDbEntity
8
2
62
256
6
ByLayer
370
18
48
1
60
0
100
AcDbMText
10
33.936842
20
23.3125
30
0
210
0
220
0
230
1
1
\W0.6740;25
40
4.5
41
0
44
1.084337
50
0
71
7
72
5
7
iso_b_vert
0
LINE
5
13A
100
AcDbEntity
8
2
62
256
6
ByLayer
370
13
48
1
60
0
100
AcDbLine
10
48
20
-6.9375
30
0
11
48
21
25.1875
31
0
39
0
210
0
220
0
230
1
0
LINE
5
13B
100
AcDbEntity
8
2
62
256
6
ByLayer
370
13
48
1
60
0
100
AcDbLine
10
23
20
13.9375
30
0
11
23
21
25.1875
31
0
39
0
210
0
220
0
230
1
0
LINE
5
13C
100
AcDbEntity
8
2
62
256
6
ByLayer
370
13
48
1
60
0
100
AcDbLine
10
48
20
22.1875
30
0
11
23
21
22.1875
31
0
39
0
210
0
220
0
230
1
0
LINE
5
13D
100
AcDbEntity
8
2
62
256
6
ByLayer
370
13
48
1
60
0
100
AcDbLine
10
48
20
22.1875
30
0
11
45.000001
21
21.792543
31
0
39
0
210
0
220
0
230
1
0
LINE
5
13E
100
AcDbEntity
8
2
62
256
6
ByLayer
370
13
48
1
60
0
100
AcDbLine
10
48
20
22.1875
30
0
11
44.999999
21
22.582457
31
0
39
0
210
0
220
0
230
1
0
LINE
5
13F
100
AcDbEntity
8
2
62
256
6
ByLayer
370
13
48
1
60
0
100
AcDbLine
10
45.000001
20
21.792543
30
0
11
44.999999
21
22.582457
31
0
39
0
210
0
220
0
230
1
0
LINE
5
140
100
AcDbEntity
8
2
62
256
6
ByLayer
370
13
48
1
60
0
100
AcDbLine
10
23
20
22.1875
30
0
11
25.999999
21
22.582457
31
0
39
0
210
0
220
0
230
1
0
LINE
5
141
100
AcDbEntity
8
2
62
256
6
ByLayer
370
13
48
1
60
0
100
AcDbLine
10
23
20
22.1875
30
0
11
26.000001
21
21.792543
31
0
39
0
210
0
220
0
230
1
0
LINE
5
142
100
AcDbEntity
8
2
62
256
6
ByLayer
370
13
48
1
60
0
100
AcDbLine
10
25.999999
20
22.582457
30
0
11
26.000001
21
21.792543
31
0
39
0
210
0
220
0
230
1
0
ENDBLK
5
144
100
AcDbEntity
8
0
100
AcDbBlockEnd
0
BLOCK
5
151
100
AcDbEntity
8
0
100
AcDbBlockBegin
2
DimnDraft3D5
70
0
10
0
20
0
30
0
3
DimnDraft3D5
0
MTEXT
5
147
100
AcDbEntity
8
2
62
256
6
ByLayer
370
18
48
1
60
0
100
AcDbMText
10
22.2
20
33.3125
30
0
210
0
220
0
230
1
1
\W0.7361;48
40
4.5
41
0
44
1.084337
50
0
71
7
72
5
7
iso_b_vert
0
LINE
5
148
100
AcDbEntity
8
2
62
256
6
ByLayer
370
13
48
1
60
0
100
AcDbLine
10
48
20
-6.9375
30
0
11
48
21
35.1875
31
0
39
0
210
0
220
0
230
1
0
LINE
5
149
100
AcDbEntity
8
2
62
256
6
ByLayer
370
13
48
1
60
0
100
AcDbLine
10
0
20
13.9375
30
0
11
0
21
35.1875
31
0
39
0
210
0
220
0
230
1
0
LINE
5
14A
100
AcDbEntity
8
2
62
256
6
ByLayer
370
13
48
1
60
0
100
AcDbLine
10
48
20
32.1875
30
0
11
0
21
32.1875
31
0
39
0
210
0
220
0
230
1
0
LINE
5
14B
100
AcDbEntity
8
2
62
256
6
ByLayer
370
13
48
1
60
0
100
AcDbLine
10
48
20
32.1875
30
0
11
45.000001
21
31.792543
31
0
39
0
210
0
220
0
230
1
0
LINE
5
14C
100
AcDbEntity
8
2
62
256
6
ByLayer
370
13
48
1
60
0
100
AcDbLine
10
48
20
32.1875
30
0
11
44.999999
21
32.582457
31
0
39
0
210
0
220
0
230
1
0
LINE
5
14D
100
AcDbEntity
8
2
62
256
6
ByLayer
370
13
48
1
60
0
100
AcDbLine
10
45.000001
20
31.792543
30
0
11
44.999999
21
32.582457
31
0
39
0
210
0
220
0
230
1
0
LINE
5
14E
100
AcDbEntity
8
2
62
256
6
ByLayer
370
13
48
1
60
0
100
AcDbLine
10
0
20
32.1875
30
0
11
2.999999
21
32.582457
31
0
39
0
210
0
220
0
230
1
0
LINE
5
14F
100
AcDbEntity
8
2
62
256
6
ByLayer
370
13
48
1
60
0
100
AcDbLine
10
0
20
32.1875
30
0
11
3.000001
21
31.792543
31
0
39
0
210
0
220
0
230
1
0
LINE
5
150
100
AcDbEntity
8
2
62
256
6
ByLayer
370
13
48
1
60
0
100
AcDbLine
10
2.999999
20
32.582457
30
0
11
3.000001
21
31.792543
31
0
39
0
210
0
220
0
230
1
0
ENDBLK
5
152
100
AcDbEntity
8
0
100
AcDbBlockEnd
0
BLOCK
5
15F
100
AcDbEntity
8
0
100
AcDbBlockBegin
2
DimnDraft3D6
70
0
10
0
20
0
30
0
3
DimnDraft3D6
0
MTEXT
5
155
100
AcDbEntity
8
SK2
62
256
6
ByLayer
370
18
48
1
60
0
100
AcDbMText
10
-30.357237
20
43.3125
30
0
210
0
220
0
230
1
1
\W0.6217;150
40
4.5
41
0
44
1.084337
50
0
71
7
72
5
7
iso_b_vert
0
LINE
5
156
100
AcDbEntity
8
SK2
62
256
6
ByLayer
370
13
48
1
60
0
100
AcDbLine
10
48
20
-6.9375
30
0
11
48
21
45.1875
31
0
39
0
210
0
220
0
230
1
0
LINE
5
157
100
AcDbEntity
8
SK2
62
256
6
ByLayer
370
13
48
1
60
0
100
AcDbLine
10
-103.35
20
13.9375
30
0
11
-103.35
21
45.1875
31
0
39
0
210
0
220
0
230
1
0
LINE
5
158
100
AcDbEntity
8
SK2
62
256
6
ByLayer
370
13
48
1
60
0
100
AcDbLine
10
48
20
42.1875
30
0
11
-103.35
21
42.1875
31
0
39
0
210
0
220
0
230
1
0
LINE
5
159
100
AcDbEntity
8
SK2
62
256
6
ByLayer
370
13
48
1
60
0
100
AcDbLine
10
48
20
42.1875
30
0
11
45.000001
21
41.792543
31
0
39
0
210
0
220
0
230
1
0
LINE
5
15A
100
AcDbEntity
8
SK2
62
256
6
ByLayer
370
13
48
1
60
0
100
AcDbLine
10
48
20
42.1875
30
0
11
44.999999
21
42.582457
31
0
39
0
210
0
220
0
230
1
0
LINE
5
15B
100
AcDbEntity
8
SK2
62
256
6
ByLayer
370
13
48
1
60
0
100
AcDbLine
10
45.000001
20
41.792543
30
0
11
44.999999
21
42.582457
31
0
39
0
210
0
220
0
230
1
0
LINE
5
15C
100
AcDbEntity
8
SK2
62
256
6
ByLayer
370
13
48
1
60
0
100
AcDbLine
10
-103.35
20
42.1875
30
0
11
-100.350001
21
42.582457
31
0
39
0
210
0
220
0
230
1
0
LINE
5
15D
100
AcDbEntity
8
SK2
62
256
6
ByLayer
370
13
48
1
60
0
100
AcDbLine
10
-103.35
20
42.1875
30
0
11
-100.349999
21
41.792543
31
0
39
0
210
0
220
0
230
1
0
LINE
5
15E
100
AcDbEntity
8
SK2
62
256
6
ByLayer
370
13
48
1
60
0
100
AcDbLine
10
-100.350001
20
42.582457
30
0
11
-100.349999
21
41.792543
31
0
39
0
210
0
220
0
230
1
0
ENDBLK
5
160
100
AcDbEntity
8
0
100
AcDbBlockEnd
0
ENDSEC
0
SECTION
2
ENTITIES
0
ARC
5
BD
100
AcDbEntity
8
1
62
256
6
ByLayer
370
18
48
1
60
0
100
AcDbCircle
39
0
10
-23.1
20
-7.1625
30
0
40
1.6
210
0
220
0
230
-1
100
AcDbArc
50
323.765711
51
0
0
ARC
5
BF
100
AcDbEntity
8
1
62
256
6
ByLayer
370
18
48
1
60
0
100
AcDbCircle
39
0
10
47.7
20
-8.7375
30
0
40
0.3
210
0
220
0
230
1
100
AcDbArc
50
360
51
92.5
0
ARC
5
C0
100
AcDbEntity
8
1
62
256
6
ByLayer
370
18
48
1
60
0
100
AcDbCircle
39
0
10
-23.3
20
-8.7375
30
0
40
0.3
210
0
220
0
230
-1
100
AcDbArc
50
0
51
92.5
0
ARC
5
C1
100
AcDbEntity
8
1
62
256
6
ByLayer
370
18
48
1
60
0
100
AcDbCircle
39
0
10
-47.7
20
-13.1375
30
0
40
0.3
210
0
220
0
230
-1
100
AcDbArc
50
180
51
272.5
0
ARC
5
C3
100
AcDbEntity
8
1
62
256
6
ByLayer
370
18
48
1
60
0
100
AcDbCircle
39
0
10
14.35
20
-5.4625
30
0
40
2.807
210
0
220
0
230
1
100
AcDbArc
50
180
51
239.965127
0
ARC
5
C5
100
AcDbEntity
8
1
62
256
6
ByLayer
370
18
48
1
60
0
100
AcDbCircle
39
0
10
14.35
20
-5.4625
30
0
40
2.807
210
0
220
0
230
1
100
AcDbArc
50
59.965127
51
120.034873
0
ARC
5
C6
100
AcDbEntity
8
1
62
256
6
ByLayer
370
18
48
1
60
0
100
AcDbCircle
39
0
10
14.35
20
-5.4625
30
0
40
2.807
210
0
220
0
230
1
100
AcDbArc
50
300.034873
51
360
0
ARC
5
C7
100
AcDbEntity
8
1
62
256
6
ByLayer
370
18
48
1
60
0
100
AcDbCircle
39
0
10
14.35
20
-5.4625
30
0
40
2.807
210
0
220
0
230
1
100
AcDbArc
50
120.034873
51
180
0
ARC
5
C8
100
AcDbEntity
8
1
62
256
6
ByLayer
370
18
48
1
60
0
100
AcDbCircle
39
0
10
14.35
20
-5.4625
30
0
40
2.0135
210
0
220
0
230
1
100
AcDbArc
50
88.140164
51
91.859836
0
ARC
5
CA
100
AcDbEntity
8
1
62
256
6
ByLayer
370
18
48
1
60
0
100
AcDbCircle
39
0
10
14.35
20
-5.4625
30
0
40
2.807
210
0
220
0
230
1
100
AcDbArc
50
360
51
59.965127
0
ARC
5
CB
100
AcDbEntity
8
1
62
256
6
ByLayer
370
18
48
1
60
0
100
AcDbCircle
39
0
10
14.35
20
-5.4625
30
0
40
2.0135
210
0
220
0
230
1
100
AcDbArc
50
268.140164
51
271.859836
0
ARC
5
CC
100
AcDbEntity
8
1
62
256
6
ByLayer
370
18
48
1
60
0
100
AcDbCircle
39
0
10
14.35
20
-5.4625
30
0
40
2.807
210
0
220
0
230
1
100
AcDbArc
50
239.965127
51
300.034873
0
CIRCLE
5
BE
100
AcDbEntity
8
1
62
256
6
ByLayer
370
18
48
1
60
0
100
AcDbCircle
10
14.35
20
-5.4625
30
0
40
6.15
39
0
210
0
220
0
230
1
0
CIRCLE
5
C2
100
AcDbEntity
8
1
62
256
6
ByLayer
370
18
48
1
60
0
100
AcDbCircle
10
-14.35
20
-5.4625
30
0
40
3
39
0
210
0
220
0
230
-1
0
CIRCLE
5
C4
100
AcDbEntity
8
1
62
256
6
ByLayer
370
18
48
1
60
0
100
AcDbCircle
10
14.35
20
-5.4625
30
0
40
5.13
39
0
210
0
220
0
230
1
0
CIRCLE
5
C9
100
AcDbEntity
8
1
62
256
6
ByLayer
370
18
48
1
60
0
100
AcDbCircle
10
-14.35
20
-5.4625
30
0
40
5.93
39
0
210
0
220
0
230
-1
0
ELLIPSE
5
CD
100
AcDbEntity
8
1
62
256
6
ByLayer
370
18
48
1
60
0
100
AcDbEllipse
10
-819.589876
20
-73.66546
30
0
11
-5711.19057289677
21
-11.2862509573827
31
0
210
0
220
0
230
1
40
0.011191
41
-1.72181500075408
42
-1.71990263406561
0
ELLIPSE
5
CE
100
AcDbEntity
8
1
62
256
6
ByLayer
370
18
48
1
60
0
100
AcDbEllipse
10
638.198404
20
-100.376236
30
0
11
-2603.57484535476
21
15.4187228248406
31
0
210
0
220
0
230
1
40
0.03299
41
-1.33914856674624
42
-1.33799538155443
0
ELLIPSE
5
CF
100
AcDbEntity
8
1
62
256
6
ByLayer
370
18
48
1
60
0
100
AcDbEllipse
10
42.209437
20
-98.6375
30
0
11
-122.14235821541
21
2.86168147539668E-13
31
0
210
0
220
0
230
1
40
0.700208
41
-1.55112600976892
42
-1.46419289239514
0
ELLIPSE
5
D0
100
AcDbEntity
8
1
62
256
6
ByLayer
370
18
48
1
60
0
100
AcDbEllipse
10
108.43768
20
-73.434864
30
0
11
-534.970010109473
21
11.4742845778553
31
0
210
0
220
0
230
1
40
0.118972
41
-1.41774238489526
42
-1.41319056212889
0
ELLIPSE
5
D1
100
AcDbEntity
8
1
62
256
6
ByLayer
370
18
48
1
60
0
100
AcDbEllipse
10
52.216244
20
-98.6375
30
0
11
1.00188547097274E-13
21
85.5249999963078
31
0
210
0
220
0
230
1
40
0.57735
41
0.105836763140454
42
0.296643738784389
0
ELLIPSE
5
D2
100
AcDbEntity
8
1
62
256
6
ByLayer
370
18
48
1
60
0
100
AcDbEllipse
10
42.209437
20
-73.4375
30
0
11
-92.3654723198432
21
2.16403682527403E-13
31
0
210
0
220
0
230
1
40
0.700208
41
-1.5448436273672
42
-1.42962436121394
0
ELLIPSE
5
D3
100
AcDbEntity
8
1
62
256
6
ByLayer
370
18
48
1
60
0
100
AcDbEllipse
10
40.346355
20
-12.796249
30
0
11
-0.0995929688005711
21
0.00901348352538118
31
0
210
0
220
0
230
1
40
1
41
-0.0842756002250653
42
0.0902573147858546
0
ELLIPSE
5
D4
100
AcDbEntity
8
1
62
256
6
ByLayer
370
18
48
1
60
0
100
AcDbEllipse
10
40.346355
20
-9.078751
30
0
11
-0.0995928541762516
21
-0.00901474983965191
31
0
210
0
220
0
230
1
40
1
41
-0.0902700297031791
42
0.0842628853170371
0
ELLIPSE
5
D5
100
AcDbEntity
8
1
62
256
6
ByLayer
370
18
48
1
60
0
100
AcDbEllipse
10
40.55644
20
-11.604799
30
0
11
-0.0913599198720278
21
0.0406615918692505
31
0
210
0
220
0
230
1
40
1
41
-0.24533660512019
42
0.244213940433772
0
ELLIPSE
5
D6
100
AcDbEntity
8
1
62
256
6
ByLayer
370
18
48
1
60
0
100
AcDbEllipse
10
40.55644
20
-10.270201
30
0
11
-0.0913773168475511
21
-0.0406224811904031
31
0
210
0
220
0
230
1
40
1
41
-0.243785886701215
42
0.245764658853277
0
POINT
5
6C
100
AcDbEntity
8
80
62
256
6
ByLayer
370
18
48
1
60
0
100
AcDbPoint
10
0
20
0
30
0
39
0
210
0
220
0
230
1
50
360
0
POINT
5
6E
100
AcDbEntity
8
2
62
256
6
ByLayer
370
18
48
1
60
0
100
AcDbPoint
10
48
20
13.5625
30
0
39
0
210
0
220
0
230
1
50
360
0
POINT
5
70
100
AcDbEntity
8
81
62
256
6
ByLayer
370
18
48
1
60
0
100
AcDbPoint
10
48
20
-13.4375
30
0
39
0
210
0
220
0
230
1
50
360
0
SPLINE
5
D7
100
AcDbEntity
8
1
62
256
6
ByLayer
370
18
48
1
60
0
100
AcDbSpline
70
4
71
3
72
8
73
4
40
0
40
0
40
0
40
0
40
1
40
1
40
1
40
1
41
1
10
28.7077971527932
20
-8.78389348198289
30
0
41
1
10
28.5472556777501
20
-8.78394084694804
30
0
41
1
10
28.3862370779992
20
-8.7837099084868
30
0
41
1
10
28.2268719481264
20
-8.78321673473985
30
0
0
SPLINE
5
D8
100
AcDbEntity
8
1
62
256
6
ByLayer
370
18
48
1
60
0
100
AcDbSpline
70
4
71
3
72
14
73
10
40
0
40
0
40
0
40
0
40
0.318825335745324
40
0.318825335745324
40
0.641378913519533
40
0.641378913519533
40
0.963672388635772
40
0.963672388635772
40
1
40
1
40
1
40
1
41
1
10
40.1195868846333
20
-11.4017185456529
30
0
41
1
10
40.106793014013
20
-11.4073967975871
30
0
41
1
10
40.0946194073437
20
-11.415813697317
30
0
41
1
10
40.0733610363011
20
-11.4368885821228
30
0
41
1
10
40.064021619688
20
-11.4498876111591
30
0
41
1
10
40.049605342509
20
-11.4785233263037
30
0
41
1
10
40.0443262529216
20
-11.4945534661563
30
0
41
1
10
40.0410810594112
20
-11.5128488581192
30
0
41
1
10
40.0407776400381
20
-11.5147339976233
30
0
41
1
10
40.0405040733832
20
-11.5166252121208
30
0
0
SPLINE
5
D9
100
AcDbEntity
8
1
62
256
6
ByLayer
370
18
48
1
60
0
100
AcDbSpline
70
4
71
3
72
8
73
4
40
0
40
0
40
0
40
0
40
1
40
1
40
1
40
1
41
1
10
40.2283156668964
20
-11.353453893118
30
0
41
1
10
40.1920733240275
20
-11.3695441243477
30
0
41
1
10
40.1558304974701
20
-11.3856326893238
30
0
41
1
10
40.1195868846333
20
-11.4017185456529
30
0
0
SPLINE
5
DA
100
AcDbEntity
8
1
62
256
6
ByLayer
370
18
48
1
60
0
100
AcDbSpline
70
4
71
3
72
14
73
10
40
0
40
0
40
0
40
0
40
0.320648283087878
40
0.320648283087878
40
0.642556656032455
40
0.642556656032455
40
0.964767987534562
40
0.964767987534562
40
1
40
1
40
1
40
1
41
1
10
40.0405040733832
20
-10.3583747878793
30
0
41
1
10
40.0428848120555
20
-10.3748332538918
30
0
41
1
10
40.0476180403294
20
-10.3910167196512
30
0
41
1
10
40.0610331974549
20
-10.4202320241539
30
0
41
1
10
40.0699156352927
20
-10.4336536819564
30
0
41
1
10
40.090540376174
20
-10.4558637034434
30
0
41
1
10
40.1025693737438
20
-10.4649539171942
30
0
41
1
10
40.1167287638944
20
-10.4719760997768
30
0
41
1
10
40.1181531019785
20
-10.4726451043815
30
0
41
1
10
40.1195868846332
20
-10.4732814543474
30
0
0
SPLINE
5
DB
100
AcDbEntity
8
1
62
256
6
ByLayer
370
18
48
1
60
0
100
AcDbSpline
70
4
71
3
72
14
73
10
40
0
40
0
40
0
40
0
40
0.275104320463925
40
0.275104320463925
40
0.551285892222257
40
0.551285892222257
40
0.827540816329091
40
0.827540816329091
40
1
40
1
40
1
40
1
41
1
10
40.3092231349798
20
-11.2125000000001
30
0
41
1
10
40.3092231349798
20
-11.2292141719496
30
0
41
1
10
40.3068686319536
20
-11.2461570737925
30
0
41
1
10
40.2978207623995
20
-11.2777773389956
30
0
41
1
10
40.2909852714478
20
-11.2928813158536
30
0
41
1
10
40.2738400953992
20
-11.3191198763754
30
0
41
1
10
40.2632933134876
20
-11.3306150508634
30
0
41
1
10
40.2443144629827
20
-11.3451511046952
30
0
41
1
10
40.2364504363819
20
-11.349842362746
30
0
41
1
10
40.2283156668964
20
-11.353453893118
30
0
0
SPLINE
5
DC
100
AcDbEntity
8
1
62
256
6
ByLayer
370
18
48
1
60
0
100
AcDbSpline
70
4
71
3
72
8
73
4
40
0
40
0
40
0
40
0
40
1
40
1
40
1
40
1
41
1
10
23.1
20
-8.77150534557461
30
0
41
1
10
23.1498117803869
20
-8.77158889756404
30
0
41
1
10
23.1999372073439
20
-8.77163126827696
30
0
41
1
10
23.25
20
-8.77163126827696
30
0
0
SPLINE
5
DD
100
AcDbEntity
8
1
62
256
6
ByLayer
370
18
48
1
60
0
100
AcDbSpline
70
4
71
3
72
8
73
4
40
0
40
0
40
0
40
0
40
1
40
1
40
1
40
1
41
1
10
37.95
20
-13.2453874888064
30
0
41
1
10
37.9795702105018
20
-13.2453874888064
30
0
41
1
10
38.0091447143508
20
-13.2453593936192
30
0
41
1
10
38.0386977474119
20
-13.2453032548983
30
0
0
SPLINE
5
DE
100
AcDbEntity
8
1
62
256
6
ByLayer
370
18
48
1
60
0
100
AcDbSpline
70
4
71
3
72
12
73
8
40
0
40
0
40
0
40
0
40
0.266876355246425
40
0.266876355246425
40
0.652498595854577
40
0.652498595854577
40
1
40
1
40
1
40
1
41
1
10
39.8125725945097
20
-8.78427946157481
30
0
41
1
10
39.7926215495089
20
-8.78367301529977
30
0
41
1
10
39.7697811636803
20
-8.78313634342717
30
0
41
1
10
39.7091641440095
20
-8.78203017217137
30
0
41
1
10
39.6683468330434
20
-8.78153770401914
30
0
41
1
10
39.587572211625
20
-8.78095074601168
30
0
41
1
10
39.547013518709
20
-8.78081461942611
30
0
41
1
10
39.5069791473824
20
-8.78082555449487
30
0
0
SPLINE
5
DF
100
AcDbEntity
8
1
62
256
6
ByLayer
370
18
48
1
60
0
100
AcDbSpline
70
4
71
3
72
10
73
6
40
0
40
0
40
0
40
0
40
0.69956335916692
40
0.69956335916692
40
1
40
1
40
1
40
1
41
1
10
40.0405040733832
20
-11.5166252121208
30
0
41
1
10
39.9861138835951
20
-11.8926341796141
30
0
41
1
10
39.9317047975816
20
-12.2686390798678
30
0
41
1
10
39.8538427941772
20
-12.8061055888759
30
0
41
1
10
39.8304385949931
20
-12.9675777173183
30
0
41
1
10
39.8070128723949
20
-13.1290451916656
30
0
0
SPLINE
5
E0
100
AcDbEntity
8
1
62
256
6
ByLayer
370
18
48
1
60
0
100
AcDbSpline
70
4
71
3
72
10
73
6
40
0
40
0
40
0
40
0
40
0.770147049964215
40
0.770147049964215
40
1
40
1
40
1
40
1
41
1
10
25.820141165649
20
-8.77643601822595
30
0
41
1
10
25.5909455301929
20
-8.77585386478887
30
0
41
1
10
25.3635397591415
20
-8.77465151549487
30
0
41
1
10
25.0840281181934
20
-8.77264320743589
30
0
41
1
10
25.0200966116042
20
-8.77214655780858
30
0
41
1
10
24.9573977654218
20
-8.77163126827696
30
0
0
SPLINE
5
E1
100
AcDbEntity
8
1
62
256
6
ByLayer
370
18
48
1
60
0
100
AcDbSpline
70
4
71
3
72
10
73
6
40
0
40
0
40
0
40
0
40
0.40270118113907
40
0.40270118113907
40
1
40
1
40
1
40
1
41
1
10
39.8125725945097
20
-8.78427946157481
30
0
41
1
10
39.8432212667596
20
-8.99556478836399
30
0
41
1
10
39.8738355514935
20
-9.20685754947345
30
0
41
1
10
39.9498190226546
20
-9.73155463314598
30
0
41
1
10
39.9951686730818
20
-10.0449631758839
30
0
41
1
10
40.0405040733832
20
-10.3583747878794
30
0
0
SPLINE
5
E2
100
AcDbEntity
8
1
62
256
6
ByLayer
370
18
48
1
60
0
100
AcDbSpline
70
4
71
3
72
18
73
14
40
0
40
0
40
0
40
0
40
0.100484568699846
40
0.100484568699846
40
0.318247481783343
40
0.318247481783343
40
0.535611697504203
40
0.535611697504203
40
0.751302069211386
40
0.751302069211386
40
0.964875871109399
40
0.964875871109399
40
1
40
1
40
1
40
1
41
1
10
21.5
20
-7.79021806845319
30
0
41
1
10
21.5
20
-7.8747392540397
30
0
41
1
10
21.5066101037249
20
-7.95951489700002
30
0
41
1
10
21.5479938020888
20
-8.22321374428523
30
0
41
1
10
21.6077662116977
20
-8.40104262331985
30
0
41
1
10
21.7804997099926
20
-8.72196812485012
30
0
41
1
10
21.8957872250546
20
-8.86958937726746
30
0
41
1
10
22.1643877254064
20
-9.11333700507569
30
0
41
1
10
22.3211587477751
20
-9.21322602586341
30
0
41
1
10
22.652879254212
20
-9.35197315702374
30
0
41
1
10
22.8322385151126
20
-9.39332493415296
30
0
41
1
10
23.040541875789
20
-9.40506410593645
30
0
41
1
10
23.0702768198887
20
-9.40590135526841
30
0
41
1
10
23.1
20
-9.40590135526841
30
0
0
SPLINE
5
E3
100
AcDbEntity
8
1
62
256
6
ByLayer
370
18
48
1
60
0
100
AcDbSpline
70
4
71
3
72
8
73
4
40
0
40
0
40
0
40
0
40
1
40
1
40
1
40
1
41
1
10
40.1195868846333
20
-10.4732814543472
30
0
41
1
10
40.1558305132186
20
-10.489367317666
30
0
41
1
10
40.1920733375391
20
-10.505455881651
30
0
41
1
10
40.2283156668964
20
-10.5215461068822
30
0
0
SPLINE
5
E4
100
AcDbEntity
8
1
62
256
6
ByLayer
370
18
48
1
60
0
100
AcDbSpline
70
4
71
3
72
14
73
10
40
0
40
0
40
0
40
0
40
0.219767426683065
40
0.219767426683065
40
0.437515714558146
40
0.437515714558146
40
0.748679982916781
40
0.748679982916781
40
1
40
1
40
1
40
1
41
1
10
23.1
20
-8.77150534557461
30
0
41
1
10
22.9607226791713
20
-8.77127172820241
30
0
41
1
10
22.8215998186473
20
-8.75167590932298
30
0
41
1
10
22.5698106897342
20
-8.68433671334682
30
0
41
1
10
22.4533615147607
20
-8.63630127231178
30
0
41
1
10
22.2053795777565
20
-8.50266838072568
30
0
41
1
10
22.0836158707883
20
-8.40734033812268
30
0
41
1
10
21.9119927403569
20
-8.240033869673
30
0
41
1
10
21.8505739852728
20
-8.16434129979709
30
0
41
1
10
21.8089384575594
20
-8.10756126599969
30
0
0
SPLINE
5
E5
100
AcDbEntity
8
1
62
256
6
ByLayer
370
18
48
1
60
0
100
AcDbSpline
70
4
71
3
72
14
73
10
40
0
40
0
40
0
40
0
40
0.273335586308424
40
0.273335586308424
40
0.549864884754063
40
0.549864884754063
40
0.826242595228957
40
0.826242595228957
40
1
40
1
40
1
40
1
41
1
10
40.2283156668964
20
-10.5215461068822
30
0
41
1
10
40.2411000042653
20
-10.5272218697634
30
0
41
1
10
40.2532642576505
20
-10.5356344671604
30
0
41
1
10
40.2745054552683
20
-10.5566974924647
30
0
41
1
10
40.2838367514309
20
-10.56968848382
30
0
41
1
10
40.2982441671546
20
-10.5983080111582
30
0
41
1
10
40.3035213092883
20
-10.6143300066481
30
0
41
1
10
40.3082833172109
20
-10.6411457275077
30
0
41
1
10
40.3092231349939
20
-10.6518528161224
30
0
41
1
10
40.3092231349941
20
-10.6624999999982
30
0
0
SPLINE
5
E6
100
AcDbEntity
8
1
62
256
6
ByLayer
370
18
48
1
60
0
100
AcDbSpline
70
4
71
3
72
9
73
5
40
0
40
0
40
0
40
0
40
0.50828709143411
40
1
40
1
40
1
40
1
41
1
10
40.74894541544
20
-11.3652325237381
30
0
41
1
10
40.7914754634341
20
-11.3482098141083
30
0
41
1
10
40.8751487431826
20
-11.3147194699373
30
0
41
1
10
40.911212957408
20
-11.2031136227202
30
0
41
1
10
40.92894619708
20
-11.148235586972
30
0
0
SPLINE
5
E7
100
AcDbEntity
8
1
62
256
6
ByLayer
370
18
48
1
60
0
100
AcDbSpline
70
4
71
2
72
6
73
3
40
0
40
0
40
0
40
1
40
1
40
1
41
1
10
40.748945415449
20
-11.365232523702
30
0
41
1
10
40.6679467190096
20
-11.3884847566733
30
0
41
1
10
40.5901186384095
20
-11.4205853518301
30
0
0
SPLINE
5
E8
100
AcDbEntity
8
1
62
256
6
ByLayer
370
18
48
1
60
0
100
AcDbSpline
70
4
71
2
72
6
73
3
40
0
40
0
40
0
40
1
40
1
40
1
41
1
10
40.928946197118
20
-10.7267644129421
30
0
41
1
10
40.93783748929
20
-10.8219834459669
30
0
41
1
10
40.9378609595285
20
-10.9174999993025
30
0
0
SPLINE
5
E9
100
AcDbEntity
8
1
62
256
6
ByLayer
370
18
48
1
60
0
100
AcDbSpline
70
4
71
3
72
8
73
4
40
0
40
0
40
0
40
0
40
1
40
1
40
1
40
1
41
1
10
40.74894541545
20
-10.5097674762981
30
0
41
1
10
40.6960031564366
20
-10.4913165335887
30
0
41
1
10
40.6430608974233
20
-10.4728655908794
30
0
41
1
10
40.5901186384099
20
-10.4544146481701
30
0
0
SPLINE
5
EA
100
AcDbEntity
8
1
62
256
6
ByLayer
370
18
48
1
60
0
100
AcDbSpline
70
4
71
3
72
8
73
4
40
0
40
0
40
0
40
0
40
1
40
1
40
1
40
1
41
1
10
40.5901186384099
20
-10.4544146481771
30
0
41
1
10
40.5765866338567
20
-10.444147242735
30
0
41
1
10
40.5630546293033
20
-10.4338798372928
30
0
41
1
10
40.5495226247499
20
-10.4236124318507
30
0
0
SPLINE
5
EB
100
AcDbEntity
8
1
62
256
6
ByLayer
370
18
48
1
60
0
100
AcDbSpline
70
4
71
2
72
6
73
3
40
0
40
0
40
0
40
1
40
1
40
1
41
1
10
40.5901186384085
20
-11.4205853518231
30
0
41
1
10
40.5658197594152
20
-11.4307546708636
30
0
41
1
10
40.549522624748
20
-11.451387568149
30
0
0
SPLINE
5
EC
100
AcDbEntity
8
1
62
256
6
ByLayer
370
18
48
1
60
0
100
AcDbSpline
70
4
71
3
72
8
73
4
40
0
40
0
40
0
40
0
40
1
40
1
40
1
40
1
41
1
10
40.92894619712
20
-11.148235587058
30
0
41
1
10
40.9319177845899
20
-11.0846570582713
30
0
41
1
10
40.93488937206
20
-11.0210785294844
30
0
41
1
10
40.93786095953
20
-10.9575000006976
30
0
0
SPLINE
5
ED
100
AcDbEntity
8
1
62
256
6
ByLayer
370
18
48
1
60
0
100
AcDbSpline
70
4
71
2
72
10
73
7
40
0
40
0
40
0
40
0.5
40
0.5
40
0.75
40
0.75
40
1
40
1
40
1
41
1
10
40.7489454154405
20
-10.5097674762621
30
0
41
1
10
40.816539241663
20
-10.5292621635149
30
0
41
1
10
40.8642354827661
20
-10.5809857110099
30
0
41
1
10
40.8902224727178
20
-10.6091669529261
30
0
41
1
10
40.9068593747274
20
-10.6450223538963
30
0
41
1
10
40.9248252361493
20
-10.6837418922267
30
0
41
1
10
40.92894619708
20
-10.7267644130281
30
0
0
SPLINE
5
EE
100
AcDbEntity
8
1
62
256
6
ByLayer
370
18
48
1
60
0
100
AcDbSpline
70
4
71
3
72
14
73
10
40
0
40
0
40
0
40
0
40
0.222411655270652
40
0.222411655270652
40
0.515858824453692
40
0.515858824453692
40
0.780847480391322
40
0.780847480391322
40
1
40
1
40
1
40
1
41
1
10
12.7205358593441
20
-3.57669884373019
30
0
41
1
10
12.7091462249201
20
-3.53459849870379
30
0
41
1
10
12.7032956435496
20
-3.49002085285696
30
0
41
1
10
12.7044780289879
20
-3.38597751286989
30
0
41
1
10
12.7164205388668
20
-3.32452065156684
30
0
41
1
10
12.7611484449685
20
-3.21548721105532
30
0
41
1
10
12.792590444784
20
-3.16551450771547
30
0
41
1
10
12.8643498449848
20
-3.087753943645
30
0
41
1
10
12.9030748695198
20
-3.0566728549135
30
0
41
1
10
12.9450206807898
20
-3.03242137728191
30
0
0
SPLINE
5
EF
100
AcDbEntity
8
1
62
256
6
ByLayer
370
18
48
1
60
0
100
AcDbSpline
70
4
71
3
72
16
73
12
40
0
40
0
40
0
40
0
40
0.191930281182745
40
0.191930281182745
40
0.488707775608021
40
0.488707775608021
40
0.756688906725717
40
0.756688906725717
40
0.994950483060341
40
0.994950483060341
40
1
40
1
40
1
40
1
41
1
10
15.1704318716269
20
-3.11029700056534
30
0
41
1
10
15.1970101552166
20
-3.08352146433748
30
0
41
1
10
15.22722378362
20
-3.05942478745646
30
0
41
1
10
15.3109482684759
20
-3.00793142047476
30
0
41
1
10
15.3698143864776
20
-2.98513873198362
30
0
41
1
10
15.486965618469
20
-2.96498867003837
30
0
41
1
10
15.5465803486937
20
-2.96518410677302
30
0
41
1
10
15.6551819835097
20
-2.98596517595107
30
0
41
1
10
15.7061620099742
20
-3.00464099149465
30
0
41
1
10
15.7530102361109
20
-3.03128755827169
30
0
41
1
10
15.7539957845871
20
-3.03185273485516
30
0
41
1
10
15.7549793192102
20
-3.03242137728191
30
0
0
SPLINE
5
F0
100
AcDbEntity
8
1
62
256
6
ByLayer
370
18
48
1
60
0
100
AcDbSpline
70
4
71
3
72
18
73
14
40
0
40
0
40
0
40
0
40
0.181347322288267
40
0.181347322288267
40
0.360491893295303
40
0.360491893295303
40
0.541701215502883
40
0.541701215502883
40
0.695189055143493
40
0.695189055143493
40
0.891526265458831
40
0.891526265458831
40
1
40
1
40
1
40
1
41
1
10
12.7205358593456
20
-3.57669884372979
30
0
41
1
10
12.7473131816822
20
-3.67567783350972
30
0
41
1
10
12.7614899989259
20
-3.7808526563046
30
0
41
1
10
12.7597428781363
20
-3.99406341242434
30
0
41
1
10
12.7438614825796
20
-4.10459170730383
30
0
41
1
10
12.6790625518664
20
-4.3198243078439
30
0
41
1
10
12.6283565316106
20
-4.42772432747984
30
0
41
1
10
12.509722370224
20
-4.60437583157625
30
0
41
1
10
12.4442832783194
20
-4.67877944229301
30
0
41
1
10
12.2834431085831
20
-4.82206833324071
30
0
41
1
10
12.1823244174428
20
-4.88634222717428
30
0
41
1
10
12.0207935514181
20
-4.95894187670439
30
0
41
1
10
11.961563034439
20
-4.97984360786404
30
0
41
1
10
11.9018316724036
20
-4.99573322052527
30
0
0
SPLINE
5
F1
100
AcDbEntity
8
1
62
256
6
ByLayer
370
18
48
1
60
0
100
AcDbSpline
70
4
71
3
72
12
73
8
40
0
40
0
40
0
40
0
40
0.368706056538499
40
0.368706056538499
40
0.737980850952361
40
0.737980850952361
40
1
40
1
40
1
40
1
41
1
10
14.2846527300225
20
-3.45006068804389
30
0
41
1
10
14.1755098784395
20
-3.44388109441482
30
0
41
1
10
14.0666482559057
20
-3.42157320692735
30
0
41
1
10
13.8674903687157
20
-3.3517126889781
30
0
41
1
10
13.7744272224264
20
-3.30344602561598
30
0
41
1
10
13.6329890576063
20
-3.20550496666672
30
0
41
1
10
13.5786614800674
20
-3.15975470209691
30
0
41
1
10
13.5295681283698
20
-3.11029700056829
30
0
0
SPLINE
5
F2
100
AcDbEntity
8
1
62
256
6
ByLayer
370
18
48
1
60
0
100
AcDbSpline
70
4
71
3
72
12
73
8
40
0
40
0
40
0
40
0
40
0.368706056448691
40
0.368706056448691
40
0.737980850847992
40
0.737980850847992
40
1
40
1
40
1
40
1
41
1
10
14.4153472699774
20
-7.47493931195615
30
0
41
1
10
14.524490121534
20
-7.48111890558374
30
0
41
1
10
14.6333517440413
20
-7.50342679306161
30
0
41
1
10
14.8325096312106
20
-7.57328731098858
30
0
41
1
10
14.9255727775013
20
-7.62155397434299
30
0
41
1
10
15.0670109423506
20
-7.71949503329699
30
0
41
1
10
15.1213385199131
20
-7.76524529788355
30
0
41
1
10
15.1704318716301
20
-7.81470299943175
30
0
0
SPLINE
5
F3
100
AcDbEntity
8
1
62
256
6
ByLayer
370
18
48
1
60
0
100
AcDbSpline
70
4
71
3
72
12
73
8
40
0
40
0
40
0
40
0
40
0.455353062346803
40
0.455353062346803
40
0.827333545905709
40
0.827333545905709
40
1
40
1
40
1
40
1
41
1
10
15.1704318716301
20
-3.11029700056829
30
0
41
1
10
15.0858278731655
20
-3.19552889367611
30
0
41
1
10
14.9849078459312
20
-3.27022818062557
30
0
41
1
10
14.7792931745274
20
-3.3742358000776
30
0
41
1
10
14.6762317035148
20
-3.41028164189473
30
0
41
1
10
14.5187586027533
20
-3.44067084327486
30
0
41
1
10
14.467139749605
20
-3.44712823326103
30
0
41
1
10
14.4153472699775
20
-3.45006068804389
30
0
0
SPLINE
5
F4
100
AcDbEntity
8
1
62
256
6
ByLayer
370
18
48
1
60
0
100
AcDbSpline
70
4
71
3
72
12
73
8
40
0
40
0
40
0
40
0
40
0.455353062347104
40
0.455353062347104
40
0.827333545906256
40
0.827333545906256
40
1
40
1
40
1
40
1
41
1
10
13.5295681283698
20
-7.81470299943175
30
0
41
1
10
13.6141721268345
20
-7.72947110632393
30
0
41
1
10
13.7150921540688
20
-7.65477181937447
30
0
41
1
10
13.9207068254726
20
-7.55076419992244
30
0
41
1
10
14.0237682964852
20
-7.51471835810531
30
0
41
1
10
14.1812413972466
20
-7.48432915672518
30
0
41
1
10
14.232860250395
20
-7.47787176673901
30
0
41
1
10
14.2846527300225
20
-7.47493931195615
30
0
0
SPLINE
5
F5
100
AcDbEntity
8
1
62
256
6
ByLayer
370
18
48
1
60
0
100
AcDbSpline
70
4
71
3
72
16
73
12
40
0
40
0
40
0
40
0
40
0.191836824669045
40
0.191836824669045
40
0.488625600663316
40
0.488625600663316
40
0.756617127620182
40
0.756617127620182
40
0.994885626449979
40
0.994885626449979
40
1
40
1
40
1
40
1
41
1
10
13.5295681283731
20
-7.8147029994347
30
0
41
1
10
13.5030027275395
20
-7.84146555729612
30
0
41
1
10
13.4728056370948
20
-7.86555178945974
30
0
41
1
10
13.3891024511948
20
-7.91704558350969
30
0
41
1
10
13.3302375601686
20
-7.93984546133055
30
0
41
1
10
13.2130856505552
20
-7.96000871675164
30
0
41
1
10
13.1534692409385
20
-7.95981951312467
30
0
41
1
10
13.0448627470954
20
-7.93904861020371
30
0
41
1
10
12.9938796455353
20
-7.92037720174841
30
0
41
1
10
12.9470150634089
20
-7.89372694932953
30
0
41
1
10
12.9460168391091
20
-7.89315456368738
30
0
41
1
10
12.9450206807897
20
-7.89257862271813
30
0
0
SPLINE
5
F6
100
AcDbEntity
8
1
62
256
6
ByLayer
370
18
48
1
60
0
100
AcDbSpline
70
4
71
3
72
18
73
14
40
0
40
0
40
0
40
0
40
0.0150229386922524
40
0.0150229386922524
40
0.23760444056223
40
0.23760444056223
40
0.460204731428102
40
0.460204731428102
40
0.694992075280033
40
0.694992075280033
40
0.951641525778768
40
0.951641525778768
40
1
40
1
40
1
40
1
41
1
10
15.7549793192102
20
-7.89257862271813
30
0
41
1
10
15.7520684199844
20
-7.89426159427893
30
0
41
1
10
15.7491397490837
20
-7.89591427740774
30
0
41
1
10
15.7030920682664
20
-7.92126927600066
30
0
41
1
10
15.6557039074632
20
-7.93849741410898
30
0
41
1
10
15.5602851564218
20
-7.95759608581949
30
0
41
1
10
15.5110399513397
20
-7.95974434006004
30
0
41
1
10
15.4142792924752
20
-7.94982177643703
30
0
41
1
10
15.3657874551504
20
-7.93689222325139
30
0
41
1
10
15.2733624353174
20
-7.89695027104472
30
0
41
1
10
15.2290914112967
20
-7.86829166347044
30
0
41
1
10
15.1841477224758
20
-7.82811616080784
30
0
41
1
10
15.1771780297028
20
-7.8214992246005
30
0
41
1
10
15.1704318716301
20
-7.81470299943175
30
0
0
SPLINE
5
F7
100
AcDbEntity
8
1
62
256
6
ByLayer
370
18
48
1
60
0
100
AcDbSpline
70
4
71
3
72
18
73
14
40
0
40
0
40
0
40
0
40
0.181612675763436
40
0.181612675763436
40
0.360704962161446
40
0.360704962161446
40
0.541858957768577
40
0.541858957768577
40
0.695330353238801
40
0.695330353238801
40
0.891708592214998
40
0.891708592214998
40
1
40
1
40
1
40
1
41
1
10
11.9018316724035
20
-5.92926677947546
30
0
41
1
10
12.0010678212246
20
-5.95566537333019
30
0
41
1
10
12.0993599974145
20
-5.99611577534702
30
0
41
1
10
12.283146016433
20
-6.10449477659589
30
0
41
1
10
12.3708390147032
20
-6.17358584381444
30
0
41
1
10
12.5246433194004
20
-6.33742921541554
30
0
41
1
10
12.5926240182454
20
-6.43532719766537
30
0
41
1
10
12.6861034266653
20
-6.62643345870598
30
0
41
1
10
12.7177334532225
20
-6.72032048911805
30
0
41
1
10
12.7612284804202
20
-6.93129952004526
30
0
41
1
10
12.7662285845804
20
-7.05103091949255
30
0
41
1
10
12.7481886242894
20
-7.2271112708124
30
0
41
1
10
12.7366492612541
20
-7.28874000139845
30
0
41
1
10
12.7205358593463
20
-7.34830115627054
30
0
0
SPLINE
5
F8
100
AcDbEntity
8
1
62
256
6
ByLayer
370
18
48
1
60
0
100
AcDbSpline
70
4
71
3
72
18
73
14
40
0
40
0
40
0
40
0
40
0.0173285944903302
40
0.0173285944903302
40
0.239841647765364
40
0.239841647765364
40
0.462510527753946
40
0.462510527753946
40
0.697478079776753
40
0.697478079776753
40
0.954392202348393
40
0.954392202348393
40
1
40
1
40
1
40
1
41
1
10
12.9450206807898
20
-3.03242137728191
30
0
41
1
10
12.9483773076035
20
-3.03048070293025
30
0
41
1
10
12.9517576061861
20
-3.02858028212231
30
0
41
1
10
12.9983242480798
20
-3.00313325923005
30
0
41
1
10
13.0457449432696
20
-2.98606284078053
30
0
41
1
10
13.1412016837082
20
-2.96726095312437
30
0
41
1
10
13.1904528627447
20
-2.96526485874793
30
0
41
1
10
13.2872012098167
20
-2.97548661187946
30
0
41
1
10
13.3356698281873
20
-2.98857309144026
30
0
41
1
10
13.4280129849237
20
-3.02882945361611
30
0
41
1
10
13.4722176447067
20
-3.05765162139514
30
0
41
1
10
13.5166419676245
20
-3.0976348030687
30
0
41
1
10
13.5232044293722
20
-3.10388607292208
30
0
41
1
10
13.5295681283698
20
-3.11029700056829
30
0
0
SPLINE
5
F9
100
AcDbEntity
8
1
62
256
6
ByLayer
370
18
48
1
60
0
100
AcDbSpline
70
4
71
3
72
14
73
10
40
0
40
0
40
0
40
0
40
0.219116464512375
40
0.219116464512375
40
0.512971212475574
40
0.512971212475574
40
0.778318620253416
40
0.778318620253416
40
1
40
1
40
1
40
1
41
1
10
15.979464140656
20
-7.34830115626977
30
0
41
1
10
15.9906856982875
20
-7.38978022666194
30
0
41
1
10
15.9965313764369
20
-7.43365699190184
30
0
41
1
10
15.9957856818418
20
-7.5370700582767
30
0
41
1
10
15.9840791649931
20
-7.59862818189933
30
0
41
1
10
15.9397280800638
20
-7.70793056745177
30
0
41
1
10
15.9084392425724
20
-7.75806908424059
30
0
41
1
10
15.8365423753279
20
-7.83652313228501
30
0
41
1
10
15.7974070376034
20
-7.8680485246602
30
0
41
1
10
15.7549793192102
20
-7.89257862271813
30
0
0
SPLINE
5
FA
100
AcDbEntity
8
1
62
256
6
ByLayer
370
18
48
1
60
0
100
AcDbSpline
70
4
71
3
72
16
73
12
40
0
40
0
40
0
40
0
40
0.21862073263722
40
0.21862073263722
40
0.44113209632629
40
0.44113209632629
40
0.674870839126936
40
0.674870839126936
40
0.929765351321908
40
0.929765351321908
40
1
40
1
40
1
40
1
41
1
10
15.7549793192102
20
-3.03242137728191
30
0
41
1
10
15.7967322838593
20
-3.05656135830941
30
0
41
1
10
15.835292894121
20
-3.08746526093708
30
0
41
1
10
15.9007677451595
20
-3.1582183219906
30
0
41
1
10
15.9283171189502
20
-3.19910827150366
30
0
41
1
10
15.9702916326037
20
-3.28668959593014
30
0
41
1
10
15.9845563198091
20
-3.33464751972343
30
0
41
1
10
15.9987611977979
20
-3.43389826365953
30
0
41
1
10
15.9975238514805
20
-3.48633563884854
30
0
41
1
10
15.9861524490117
20
-3.54968264596752
30
0
41
1
10
15.9830886103785
20
-3.56330144920051
30
0
41
1
10
15.9794641406544
20
-3.57669884372979
30
0
0
SPLINE
5
FB
100
AcDbEntity
8
1
62
256
6
ByLayer
370
18
48
1
60
0
100
AcDbSpline
70
4
71
3
72
14
73
10
40
0
40
0
40
0
40
0
40
0.220170037959105
40
0.220170037959105
40
0.513894544314523
40
0.513894544314523
40
0.779127126142478
40
0.779127126142478
40
1
40
1
40
1
40
1
41
1
10
11.9018316724031
20
-5.92926677947708
30
0
41
1
10
11.8601068141321
20
-5.91816721948584
30
0
41
1
10
11.8190010815936
20
-5.90115595144491
30
0
41
1
10
11.7297424597143
20
-5.84852806441651
30
0
41
1
10
11.6823754340564
20
-5.80753274460889
30
0
41
1
10
11.6100836522094
20
-5.71436678937283
30
0
41
1
10
11.5824089980939
20
-5.66216774306224
30
0
41
1
10
11.5506463360883
20
-5.56080545752707
30
0
41
1
10
11.543
20
-5.51133057495889
30
0
41
1
10
11.543
20
-5.46250000000001
30
0
0
SPLINE
5
FC
100
AcDbEntity
8
1
62
256
6
ByLayer
370
18
48
1
60
0
100
AcDbSpline
70
4
71
3
72
18
73
14
40
0
40
0
40
0
40
0
40
0.0162289153285348
40
0.0162289153285348
40
0.239234459040964
40
0.239234459040964
40
0.462328698874896
40
0.462328698874896
40
0.697692042263402
40
0.697692042263402
40
0.955005672045979
40
0.955005672045979
40
1
40
1
40
1
40
1
41
1
10
17.157
20
-5.46250000000003
30
0
41
1
10
17.157
20
-5.46612427668961
30
0
41
1
10
17.1569591993613
20
-5.46974883530308
30
0
41
1
10
17.1557702435972
20
-5.52255613662632
30
0
41
1
10
17.1468881961843
20
-5.57217841093055
30
0
41
1
10
17.1155222788133
20
-5.66428505035802
30
0
41
1
10
17.0926649850556
20
-5.70795684093085
30
0
41
1
10
17.0355148789301
20
-5.78667654838645
30
0
41
1
10
16.999986827069
20
-5.82213523175591
30
0
41
1
10
16.9190294001722
20
-5.88204151022927
30
0
41
1
10
16.8720050535463
20
-5.90595266341228
30
0
41
1
10
16.8153304916667
20
-5.92444669661606
30
0
41
1
10
16.8067684906714
20
-5.9269789819864
30
0
41
1
10
16.7981683275965
20
-5.92926677947548
30
0
0
SPLINE
5
FD
100
AcDbEntity
8
1
62
256
6
ByLayer
370
18
48
1
60
0
100
AcDbSpline
70
4
71
3
72
16
73
12
40
0
40
0
40
0
40
0
40
0.218557773056343
40
0.218557773056343
40
0.441067473679256
40
0.441067473679256
40
0.674801337484713
40
0.674801337484713
40
0.929688497508506
40
0.929688497508506
40
1
40
1
40
1
40
1
41
1
10
12.9450206807897
20
-7.89257862271813
30
0
41
1
10
12.9032797321598
20
-7.86844558889729
30
0
41
1
10
12.8647293704485
20
-7.83755271493348
30
0
41
1
10
12.7992576027249
20
-7.76681526405307
30
0
41
1
10
12.771704634642
20
-7.72592765533793
30
0
41
1
10
12.7297227484991
20
-7.63835034464753
30
0
41
1
10
12.7154539696446
20
-7.59039412670265
30
0
41
1
10
12.7012404187867
20
-7.49114597406597
30
0
41
1
10
12.7024729202592
20
-7.43870939041056
30
0
41
1
10
12.7138408712732
20
-7.3753470541123
30
0
41
1
10
12.7169074392227
20
-7.36171315294968
30
0
41
1
10
12.7205358593456
20
-7.34830115627025
30
0
0
SPLINE
5
FE
100
AcDbEntity
8
1
62
256
6
ByLayer
370
18
48
1
60
0
100
AcDbSpline
70
4
71
3
72
18
73
14
40
0
40
0
40
0
40
0
40
0.0157923844670988
40
0.0157923844670988
40
0.238811095461875
40
0.238811095461875
40
0.461892552251078
40
0.461892552251078
40
0.697221985203078
40
0.697221985203078
40
0.954485725072583
40
0.954485725072583
40
1
40
1
40
1
40
1
41
1
10
11.543
20
-5.46250000000001
30
0
41
1
10
11.543
20
-5.45897300960434
30
0
41
1
10
11.5430386392405
20
-5.45544575937865
30
0
41
1
10
11.5441936182627
20
-5.40273206171861
30
0
41
1
10
11.5530467858234
20
-5.3531001967537
30
0
41
1
10
11.584360559074
20
-5.26097171024259
30
0
41
1
10
11.6071923964691
20
-5.21728651046843
30
0
41
1
10
11.6642947244229
20
-5.13853650319035
30
0
41
1
10
11.6997993013223
20
-5.10305918657738
30
0
41
1
10
11.7807130359747
20
-5.04310979658001
30
0
41
1
10
11.8277169007501
20
-5.01917232751788
30
0
41
1
10
11.8844720689918
20
-5.00061173398529
30
0
41
1
10
11.8931323638085
20
-4.99804739249862
30
0
41
1
10
11.9018316724035
20
-4.99573322052456
30
0
0
SPLINE
5
FF
100
AcDbEntity
8
1
62
256
6
ByLayer
370
18
48
1
60
0
100
AcDbSpline
70
4
71
3
72
14
73
10
40
0
40
0
40
0
40
0
40
0.220792708734978
40
0.220792708734978
40
0.514440208322323
40
0.514440208322323
40
0.779604980836355
40
0.779604980836355
40
1
40
1
40
1
40
1
41
1
10
16.7981683275969
20
-4.99573322052299
30
0
41
1
10
16.8400107170795
20
-5.00686404592267
30
0
41
1
10
16.881231568975
20
-5.02394075432372
30
0
41
1
10
16.9705520592615
20
-5.07669962464166
30
0
41
1
10
17.0178802128891
20
-5.11772399125144
30
0
41
1
10
17.0900923702314
20
-5.2109261881925
30
0
41
1
10
17.1177254137801
20
-5.26313462289014
30
0
41
1
10
17.1493875756904
20
-5.36440887790391
30
0
41
1
10
17.157
20
-5.41377461012436
30
0
41
1
10
17.157
20
-5.46250000000003
30
0
0
SPLINE
5
100
100
AcDbEntity
8
1
62
256
6
ByLayer
370
18
48
1
60
0
100
AcDbSpline
70
4
71
3
72
18
73
14
40
0
40
0
40
0
40
0
40
0.181666908878583
40
0.181666908878583
40
0.360750617017816
40
0.360750617017816
40
0.541895453074693
40
0.541895453074693
40
0.695365105948638
40
0.695365105948638
40
0.891753383060554
40
0.891753383060554
40
1
40
1
40
1
40
1
41
1
10
15.9794641406544
20
-7.34830115627025
30
0
41
1
10
15.9526398265003
20
-7.24914846717249
30
0
41
1
10
15.9384602459352
20
-7.1437756755243
30
0
41
1
10
15.9403139531035
20
-6.93039333467692
30
0
41
1
10
15.9562426230037
20
-6.81989939684902
30
0
41
1
10
16.0211140051548
20
-6.60475418313479
30
0
41
1
10
16.0718441395717
20
-6.49691060048747
30
0
41
1
10
16.190504121791
20
-6.32034362558286
30
0
41
1
10
16.2559542246232
20
-6.24597335760728
30
0
41
1
10
16.4168403373044
20
-6.1027247488768
30
0
41
1
10
16.5179980746868
20
-6.03847049930852
30
0
41
1
10
16.6794511603026
20
-5.96597175513926
30
0
41
1
10
16.7385601350611
20
-5.94512362684188
30
0
41
1
10
16.7981683275964
20
-5.9292667794748
30
0
0
SPLINE
5
101
100
AcDbEntity
8
1
62
256
6
ByLayer
370
18
48
1
60
0
100
AcDbSpline
70
4
71
3
72
18
73
14
40
0
40
0
40
0
40
0
40
0.181752771450183
40
0.181752771450183
40
0.360818406833416
40
0.360818406833416
40
0.541944163041263
40
0.541944163041263
40
0.695407615755982
40
0.695407615755982
40
0.891808268956466
40
0.891808268956466
40
1
40
1
40
1
40
1
41
1
10
16.7981683275965
20
-4.99573322052458
30
0
41
1
10
16.6988559553603
20
-4.96931434987556
30
0
41
1
10
16.6004880467831
20
-4.92882153935204
30
0
41
1
10
16.4166603201379
20
-4.82036440626024
30
0
41
1
10
16.3289907291675
20
-4.75126294022692
30
0
41
1
10
16.1752354772816
20
-4.58741125308464
30
0
41
1
10
16.1072814826209
20
-4.48951650490704
30
0
41
1
10
16.0138398120849
20
-4.29841898447523
30
0
41
1
10
15.9822248539708
20
-4.20453508403807
30
0
41
1
10
15.938755204354
20
-3.9935474443439
30
0
41
1
10
15.9337711326442
20
-3.87380553418649
30
0
41
1
10
15.9518323112013
20
-3.69777686274455
30
0
41
1
10
15.9633653362174
20
-3.63620604089203
30
0
41
1
10
15.9794641406537
20
-3.5766988437295
30
0
0
LINE
5
72
100
AcDbEntity
8
80
62
256
6
ByLayer
370
18
48
1
60
0
100
AcDbLine
10
0
20
0
30
0
11
-5
21
0
31
0
39
0
210
0
220
0
230
1
0
LINE
5
73
100
AcDbEntity
8
81
62
256
6
ByLayer
370
18
48
1
60
0
100
AcDbLine
10
48
20
-13.4375
30
0
11
53
21
-13.4375
31
0
39
0
210
0
220
0
230
1
0
LINE
5
74
100
AcDbEntity
8
1
62
256
6
ByLayer
370
18
48
1
60
0
100
AcDbLine
10
23.1
20
-8.771505
30
0
11
23.1
21
-9.405901
31
0
39
0
210
0
220
0
230
1
0
LINE
5
76
100
AcDbEntity
8
1
62
256
6
ByLayer
370
18
48
1
60
0
100
AcDbLine
10
0
20
-12.3125
30
0
11
0.5
21
-12.3125
31
0
39
0
210
0
220
0
230
1
0
LINE
5
77
100
AcDbEntity
8
1
62
256
6
ByLayer
370
18
48
1
60
0
100
AcDbLine
10
40.960643
20
-13.239811
30
0
11
40.960042
21
-13.037499
31
0
39
0
210
0
220
0
230
1
0
LINE
5
78
100
AcDbEntity
8
1
62
256
6
ByLayer
370
18
48
1
60
0
100
AcDbLine
10
11
20
-12.3125
30
0
11
2.837857
21
-12.3125
31
0
39
0
210
0
220
0
230
1
0
LINE
5
79
100
AcDbEntity
8
1
62
256
6
ByLayer
370
18
48
1
60
0
100
AcDbLine
10
21.5
20
-7.790218
30
0
11
21.5
21
0.6875
31
0
39
0
210
0
220
0
230
1
0
LINE
5
7A
100
AcDbEntity
8
1
62
256
6
ByLayer
370
18
48
1
60
0
100
AcDbLine
10
2.837857
20
-12.3125
30
0
11
0.5
21
-12.3125
31
0
39
0
210
0
220
0
230
1
0
LINE
5
7B
100
AcDbEntity
8
1
62
256
6
ByLayer
370
18
48
1
60
0
100
AcDbLine
10
38.038698
20
-13.245303
30
0
11
38.038205
21
-13.162381
31
0
39
0
210
0
220
0
230
1
0
LINE
5
7C
100
AcDbEntity
8
1
62
256
6
ByLayer
370
18
48
1
60
0
100
AcDbLine
10
9.584748
20
12.602752
30
0
11
21.5
21
0.6875
31
0
39
0
210
0
220
0
230
1
0
LINE
5
7D
100
AcDbEntity
8
1
62
256
6
ByLayer
370
18
48
1
60
0
100
AcDbLine
10
29.21329
20
-9.405901
30
0
11
23.1
21
-9.405901
31
0
39
0
210
0
220
0
230
1
0
LINE
5
7E
100
AcDbEntity
8
1
62
256
6
ByLayer
370
18
48
1
60
0
100
AcDbLine
10
0.5
20
-12.3125
30
0
11
0.5
21
12.564682
31
0
39
0
210
0
220
0
230
1
0
LINE
5
7F
100
AcDbEntity
8
1
62
256
6
ByLayer
370
18
48
1
60
0
100
AcDbLine
10
0.5
20
12.564682
30
0
11
0
21
12.5625
31
0
39
0
210
0
220
0
230
1
0
LINE
5
80
100
AcDbEntity
8
1
62
256
6
ByLayer
370
18
48
1
60
0
100
AcDbLine
10
2.837857
20
12.602752
30
0
11
9.584748
21
12.602752
31
0
39
0
210
0
220
0
230
1
0
LINE
5
81
100
AcDbEntity
8
1
62
256
6
ByLayer
370
18
48
1
60
0
100
AcDbLine
10
11
20
-12.3125
30
0
11
11.5
21
-12.8125
31
0
39
0
210
0
220
0
230
1
0
LINE
5
82
100
AcDbEntity
8
1
62
256
6
ByLayer
370
18
48
1
60
0
100
AcDbLine
10
37.95
20
-13.164514
30
0
11
37.95
21
-13.245387
31
0
39
0
210
0
220
0
230
1
0
LINE
5
83
100
AcDbEntity
8
1
62
256
6
ByLayer
370
18
48
1
60
0
100
AcDbLine
10
11.710476
20
-13.598008
30
0
11
12.581304
21
-16.84798
31
0
39
0
210
0
220
0
230
1
0
LINE
5
84
100
AcDbEntity
8
1
62
256
6
ByLayer
370
18
48
1
60
0
100
AcDbLine
10
40.960643
20
-13.239811
30
0
11
43.474808
21
-13.239811
31
0
39
0
210
0
220
0
230
1
0
LINE
5
85
100
AcDbEntity
8
1
62
256
6
ByLayer
370
18
48
1
60
0
100
AcDbLine
10
29.21329
20
-13.598005
30
0
11
11.710476
21
-13.598005
31
0
39
0
210
0
220
0
230
1
0
LINE
5
86
100
AcDbEntity
8
1
62
256
6
ByLayer
370
18
48
1
60
0
100
AcDbLine
10
0
20
12.5625
30
0
11
0
21
-12.3125
31
0
39
0
210
0
220
0
230
1
0
LINE
5
87
100
AcDbEntity
8
1
62
256
6
ByLayer
370
18
48
1
60
0
100
AcDbLine
10
47
20
-13.407222
30
0
11
47
21
-13.591054
31
0
39
0
210
0
220
0
230
1
0
LINE
5
88
100
AcDbEntity
8
1
62
256
6
ByLayer
370
18
48
1
60
0
100
AcDbLine
10
0.5
20
12.564682
30
0
11
2.837857
21
12.602752
31
0
39
0
210
0
220
0
230
1
0
LINE
5
89
100
AcDbEntity
8
1
62
256
6
ByLayer
370
18
48
1
60
0
100
AcDbLine
10
40.309223
20
-10.6625
30
0
11
40.309223
21
-11.2125
31
0
39
0
210
0
220
0
230
1
0
LINE
5
8A
100
AcDbEntity
8
1
62
256
6
ByLayer
370
18
48
1
60
0
100
AcDbLine
10
35.403225
20
-13.245387
30
0
11
37.95
21
-13.245387
31
0
39
0
210
0
220
0
230
1
0
LINE
5
8B
100
AcDbEntity
8
1
62
256
6
ByLayer
370
18
48
1
60
0
100
AcDbLine
10
37.782487
20
-16.84798
30
0
11
12.581304
21
-16.84798
31
0
39
0
210
0
220
0
230
1
0
LINE
5
8C
100
AcDbEntity
8
1
62
256
6
ByLayer
370
18
48
1
60
0
100
AcDbLine
10
23.25
20
-8.771631
30
0
11
24.957398
21
-8.771631
31
0
39
0
210
0
220
0
230
1
0
LINE
5
8D
100
AcDbEntity
8
1
62
256
6
ByLayer
370
18
48
1
60
0
100
AcDbLine
10
2.837857
20
-12.3125
30
0
11
2.837857
21
12.602752
31
0
39
0
210
0
220
0
230
1
0
LINE
5
8E
100
AcDbEntity
8
1
62
256
6
ByLayer
370
18
48
1
60
0
100
AcDbLine
10
11.710476
20
-13.598005
30
0
11
11.5
21
-12.8125
31
0
39
0
210
0
220
0
230
1
0
LINE
5
8F
100
AcDbEntity
8
1
62
256
6
ByLayer
370
18
48
1
60
0
100
AcDbLine
10
29.21329
20
-9.405901
30
0
11
29.21329
21
-13.598005
31
0
39
0
210
0
220
0
230
1
0
LINE
5
90
100
AcDbEntity
8
SK1
62
256
6
ByLayer
370
18
48
1
60
0
100
AcDbLine
10
0
20
-12.3125
30
0
11
0
21
12.5625
31
0
39
0
210
0
220
0
230
1
0
LINE
5
92
100
AcDbEntity
8
1
62
256
6
ByLayer
370
18
48
1
60
0
100
AcDbLine
10
40.246355
20
-9.078751
30
0
11
40.246355
21
-8.8375
31
0
39
0
210
0
220
0
230
1
0
LINE
5
93
100
AcDbEntity
8
1
62
256
6
ByLayer
370
18
48
1
60
0
100
AcDbLine
10
40.309198
20
-11.148236
30
0
11
40.928946
21
-11.148236
31
0
39
0
210
0
220
0
230
1
0
LINE
5
94
100
AcDbEntity
8
1
62
256
6
ByLayer
370
18
48
1
60
0
100
AcDbLine
10
40.03018
20
-11.587434
30
0
11
40.457959
21
-11.587434
31
0
39
0
210
0
220
0
230
1
0
LINE
5
95
100
AcDbEntity
8
1
62
256
6
ByLayer
370
18
48
1
60
0
100
AcDbLine
10
23
20
-8.764863
30
0
11
23
21
-8.7375
31
0
39
0
210
0
220
0
230
1
0
LINE
5
96
100
AcDbEntity
8
1
62
256
6
ByLayer
370
18
48
1
60
0
100
AcDbLine
10
43.5
20
-8.62059
30
0
11
43.124301
21
-8.8375
31
0
39
0
210
0
220
0
230
1
0
LINE
5
97
100
AcDbEntity
8
1
62
256
6
ByLayer
370
18
48
1
60
0
100
AcDbLine
10
39.857658
20
-9.096116
30
0
11
40.247874
21
-9.096116
31
0
39
0
210
0
220
0
230
1
0
LINE
5
98
100
AcDbEntity
8
1
62
256
6
ByLayer
370
18
48
1
60
0
100
AcDbLine
10
39.820221
20
-8.8375
30
0
11
40.246355
21
-8.8375
31
0
39
0
210
0
220
0
230
1
0
LINE
5
99
100
AcDbEntity
8
1
62
256
6
ByLayer
370
18
48
1
60
0
100
AcDbLine
10
40.036543
20
-11.543165
30
0
11
40.477691
21
-11.543165
31
0
39
0
210
0
220
0
230
1
0
LINE
5
9A
100
AcDbEntity
8
1
62
256
6
ByLayer
370
18
48
1
60
0
100
AcDbLine
10
40.246355
20
-12.796249
30
0
11
40.246355
21
-13.0375
31
0
39
0
210
0
220
0
230
1
0
LINE
5
9B
100
AcDbEntity
8
1
62
256
6
ByLayer
370
18
48
1
60
0
100
AcDbLine
10
40.590119
20
-11.420585
30
0
11
40.092241
21
-11.420585
31
0
39
0
210
0
220
0
230
1
0
LINE
5
9C
100
AcDbEntity
8
1
62
256
6
ByLayer
370
18
48
1
60
0
100
AcDbLine
10
23.313086
20
-8.437786
30
0
11
27.5
21
-8.62059
31
0
39
0
210
0
220
0
230
1
0
LINE
5
9D
100
AcDbEntity
8
1
62
256
6
ByLayer
370
18
48
1
60
0
100
AcDbLine
10
40.549523
20
-11.451388
30
0
11
40.477691
21
-11.543165
31
0
39
0
210
0
220
0
230
1
0
LINE
5
9E
100
AcDbEntity
8
1
62
256
6
ByLayer
370
18
48
1
60
0
100
AcDbLine
10
40.309193
20
-10.9175
30
0
11
40.937861
21
-10.9175
31
0
39
0
210
0
220
0
230
1
0
LINE
5
9F
100
AcDbEntity
8
1
62
256
6
ByLayer
370
18
48
1
60
0
100
AcDbLine
10
40.03018
20
-10.287566
30
0
11
40.457959
21
-10.287566
31
0
39
0
210
0
220
0
230
1
0
LINE
5
A0
100
AcDbEntity
8
1
62
256
6
ByLayer
370
18
48
1
60
0
100
AcDbLine
10
27.5
20
-8.62059
30
0
11
27.779315
21
-8.781852
31
0
39
0
210
0
220
0
230
1
0
LINE
5
A1
100
AcDbEntity
8
1
62
256
6
ByLayer
370
18
48
1
60
0
100
AcDbLine
10
47.686914
20
-13.437214
30
0
11
43.5
21
-13.25441
31
0
39
0
210
0
220
0
230
1
0
LINE
5
A2
100
AcDbEntity
8
1
62
256
6
ByLayer
370
18
48
1
60
0
100
AcDbLine
10
40.246355
20
-8.8375
30
0
11
41.63
21
-8.8375
31
0
39
0
210
0
220
0
230
1
0
LINE
5
A3
100
AcDbEntity
8
1
62
256
6
ByLayer
370
18
48
1
60
0
100
AcDbLine
10
48
20
-13.1375
30
0
11
48
21
-8.7375
31
0
39
0
210
0
220
0
230
1
0
LINE
5
A4
100
AcDbEntity
8
1
62
256
6
ByLayer
370
18
48
1
60
0
100
AcDbLine
10
40.065952
20
-11.451388
30
0
11
40.549523
21
-11.451388
31
0
39
0
210
0
220
0
230
1
0
LINE
5
A5
100
AcDbEntity
8
1
62
256
6
ByLayer
370
18
48
1
60
0
100
AcDbLine
10
40.246355
20
-13.0375
30
0
11
41.63
21
-13.0375
31
0
39
0
210
0
220
0
230
1
0
LINE
5
A6
100
AcDbEntity
8
1
62
256
6
ByLayer
370
18
48
1
60
0
100
AcDbLine
10
40.201743
20
-10.509767
30
0
11
40.748945
21
-10.509767
31
0
39
0
210
0
220
0
230
1
0
LINE
5
A7
100
AcDbEntity
8
1
62
256
6
ByLayer
370
18
48
1
60
0
100
AcDbLine
10
40.590119
20
-10.454415
30
0
11
40.092957
21
-10.454415
31
0
39
0
210
0
220
0
230
1
0
LINE
5
A8
100
AcDbEntity
8
1
62
256
6
ByLayer
370
18
48
1
60
0
100
AcDbLine
10
40.457959
20
-11.587434
30
0
11
40.247874
21
-12.778884
31
0
39
0
210
0
220
0
230
1
0
LINE
5
A9
100
AcDbEntity
8
1
62
256
6
ByLayer
370
18
48
1
60
0
100
AcDbLine
10
40.549523
20
-10.423612
30
0
11
40.477691
21
-10.331835
31
0
39
0
210
0
220
0
230
1
0
LINE
5
AA
100
AcDbEntity
8
1
62
256
6
ByLayer
370
18
48
1
60
0
100
AcDbLine
10
40.309193
20
-10.9575
30
0
11
40.937861
21
-10.9575
31
0
39
0
210
0
220
0
230
1
0
LINE
5
AB
100
AcDbEntity
8
1
62
256
6
ByLayer
370
18
48
1
60
0
100
AcDbLine
10
40.201743
20
-11.365233
30
0
11
40.748945
21
-11.365233
31
0
39
0
210
0
220
0
230
1
0
LINE
5
AC
100
AcDbEntity
8
1
62
256
6
ByLayer
370
18
48
1
60
0
100
AcDbLine
10
40.457959
20
-10.287566
30
0
11
40.247874
21
-9.096116
31
0
39
0
210
0
220
0
230
1
0
LINE
5
AD
100
AcDbEntity
8
1
62
256
6
ByLayer
370
18
48
1
60
0
100
AcDbLine
10
40.937861
20
-10.9575
30
0
11
40.937861
21
-10.9175
31
0
39
0
210
0
220
0
230
1
0
LINE
5
AE
100
AcDbEntity
8
1
62
256
6
ByLayer
370
18
48
1
60
0
100
AcDbLine
10
41.63
20
-13.0375
30
0
11
43.124301
21
-13.0375
31
0
39
0
210
0
220
0
230
1
0
LINE
5
AF
100
AcDbEntity
8
1
62
256
6
ByLayer
370
18
48
1
60
0
100
AcDbLine
10
39.855225
20
-12.796249
30
0
11
40.246355
21
-12.796249
31
0
39
0
210
0
220
0
230
1
0
LINE
5
B0
100
AcDbEntity
8
1
62
256
6
ByLayer
370
18
48
1
60
0
100
AcDbLine
10
43.5
20
-13.25441
30
0
11
43.124301
21
-13.0375
31
0
39
0
210
0
220
0
230
1
0
LINE
5
B1
100
AcDbEntity
8
1
62
256
6
ByLayer
370
18
48
1
60
0
100
AcDbLine
10
40.309198
20
-10.726764
30
0
11
40.928946
21
-10.726764
31
0
39
0
210
0
220
0
230
1
0
LINE
5
B2
100
AcDbEntity
8
1
62
256
6
ByLayer
370
18
48
1
60
0
100
AcDbLine
10
39.857658
20
-12.778884
30
0
11
40.247874
21
-12.778884
31
0
39
0
210
0
220
0
230
1
0
LINE
5
B3
100
AcDbEntity
8
1
62
256
6
ByLayer
370
18
48
1
60
0
100
AcDbLine
10
47.686914
20
-8.437786
30
0
11
43.5
21
-8.62059
31
0
39
0
210
0
220
0
230
1
0
LINE
5
B4
100
AcDbEntity
8
1
62
256
6
ByLayer
370
18
48
1
60
0
100
AcDbLine
10
39.855225
20
-9.078751
30
0
11
40.246355
21
-9.078751
31
0
39
0
210
0
220
0
230
1
0
LINE
5
B5
100
AcDbEntity
8
1
62
256
6
ByLayer
370
18
48
1
60
0
100
AcDbLine
10
39.820221
20
-13.0375
30
0
11
40.246355
21
-13.0375
31
0
39
0
210
0
220
0
230
1
0
LINE
5
B6
100
AcDbEntity
8
1
62
256
6
ByLayer
370
18
48
1
60
0
100
AcDbLine
10
40.066189
20
-10.423612
30
0
11
40.549523
21
-10.423612
31
0
39
0
210
0
220
0
230
1
0
LINE
5
B7
100
AcDbEntity
8
1
62
256
6
ByLayer
370
18
48
1
60
0
100
AcDbLine
10
41.63
20
-8.8375
30
0
11
43.124301
21
-8.8375
31
0
39
0
210
0
220
0
230
1
0
LINE
5
B8
100
AcDbEntity
8
1
62
256
6
ByLayer
370
18
48
1
60
0
100
AcDbLine
10
41.63
20
-13.0375
30
0
11
41.63
21
-8.8375
31
0
39
0
210
0
220
0
230
1
0
LINE
5
B9
100
AcDbEntity
8
1
62
256
6
ByLayer
370
18
48
1
60
0
100
AcDbLine
10
40.036543
20
-10.331835
30
0
11
40.477691
21
-10.331835
31
0
39
0
210
0
220
0
230
1
0
LINE
5
BA
100
AcDbEntity
8
SK1
62
256
6
ByLayer
370
18
48
1
60
0
100
AcDbLine
10
-103.35
20
12.5625
30
0
11
0
21
12.5625
31
0
39
0
210
0
220
0
230
1
0
LINE
5
BB
100
AcDbEntity
8
SK1
62
256
6
ByLayer
370
18
48
1
60
0
100
AcDbLine
10
-103.35
20
-12.3125
30
0
11
-103.35
21
12.5625
31
0
39
0
210
0
220
0
230
1
0
LINE
5
BC
100
AcDbEntity
8
SK1
62
256
6
ByLayer
370
18
48
1
60
0
100
AcDbLine
10
0
20
-12.3125
30
0
11
-103.35
21
-12.3125
31
0
39
0
210
0
220
0
230
1
0
MTEXT
5
102
100
AcDbEntity
8
SK6
62
256
6
ByLayer
370
18
48
1
60
0
100
AcDbMText
10
-56.799987
20
-25.997614
30
0
210
0
220
0
230
1
1
\W0.7494;LF123J25-2525B-120BM
40
3.5
41
0
44
1.084337
50
0
71
7
72
5
7
iso_b_vert
0
DIMENSION
5
113
100
AcDbEntity
8
2
62
256
6
ByLayer
370
13
48
1
60
0
100
AcDbDimension
2
DimnDraft3D1
10
62.25
20
-8.4375
30
0
11
62.25
21
-3.9375
31
0
70
32
71
5
72
1
41
1
210
0
220
0
230
1
3
Standard
100
AcDbAlignedDimension
13
49.5
23
-13.4375
33
0
14
49.5
24
-8.4375
34
0
50
90
100
AcDbRotatedDimension
1001
ACAD
1000
DSTYLE
1002
{
1070
    74
1070
     0
1070
   279
1070
     0
1070
   172
1070
     1
1070
   173
1070
     1
1070
   340
1005
103
1070
   271
1070
     3
1070
   272
1070
     3
1070
    77
1070
     1
1070
    73
1070
     0
1070
   171
1070
     4
1070
   274
1070
     4
1070
   177
1070
     2
1070
   176
1070
     2
1070
   178
1070
     7
1070
    78
1070
     8
1070
    41
1041
3.0
1070
   147
1041
2.25
1070
    42
1041
1.5
1070
    44
1041
3.0
1070
   140
1041
4.5
1070
   343
1005
114
1070
   344
1005
114
1002
}
0
DIMENSION
5
128
100
AcDbEntity
8
2
62
256
6
ByLayer
370
13
48
1
60
0
100
AcDbDimension
2
DimnDraft3D2
10
72.25
20
12.4375
30
0
11
72.25
21
-3.188158
31
0
70
32
71
5
72
1
41
1
210
0
220
0
230
1
3
Standard
100
AcDbAlignedDimension
13
49.5
23
-13.4375
33
0
14
1.5
24
12.4375
34
0
50
90
100
AcDbRotatedDimension
1001
ACAD
1000
DSTYLE
1002
{
1070
    74
1070
     0
1070
   279
1070
     0
1070
   172
1070
     1
1070
   173
1070
     1
1070
   340
1005
103
1070
   271
1070
     3
1070
   272
1070
     3
1070
    77
1070
     1
1070
    73
1070
     0
1070
   171
1070
     4
1070
   274
1070
     4
1070
   177
1070
     2
1070
   176
1070
     2
1070
   178
1070
     7
1070
    78
1070
     8
1070
    41
1041
3.0
1070
   147
1041
2.25
1070
    42
1041
1.5
1070
    44
1041
3.0
1070
   140
1041
4.5
1070
   343
1005
114
1070
   344
1005
114
1002
}
0
DIMENSION
5
137
100
AcDbEntity
8
SK2
62
256
6
ByLayer
370
13
48
1
60
0
100
AcDbDimension
2
DimnDraft3D3
10
-113.1
20
-12.4375
30
0
11
-113.1
21
-2.688158
31
0
70
32
71
5
72
1
41
1
210
0
220
0
230
1
3
Standard
100
AcDbAlignedDimension
13
-104.85
23
12.4375
33
0
14
-104.85
24
-12.4375
34
0
50
90
100
AcDbRotatedDimension
1001
ACAD
1000
DSTYLE
1002
{
1070
    74
1070
     0
1070
   279
1070
     0
1070
   172
1070
     1
1070
   173
1070
     1
1070
   340
1005
103
1070
   271
1070
     3
1070
   272
1070
     3
1070
    77
1070
     1
1070
    73
1070
     0
1070
   171
1070
     4
1070
   274
1070
     4
1070
   177
1070
     2
1070
   176
1070
     2
1070
   178
1070
     7
1070
    78
1070
     8
1070
    41
1041
3.0
1070
   147
1041
2.25
1070
    42
1041
1.5
1070
    44
1041
3.0
1070
   140
1041
4.5
1070
   343
1005
114
1070
   344
1005
114
1002
}
0
DIMENSION
5
145
100
AcDbEntity
8
2
62
256
6
ByLayer
370
13
48
1
60
0
100
AcDbDimension
2
DimnDraft3D4
10
23
20
22.1875
30
0
11
32.811842
21
22.1875
31
0
70
32
71
5
72
1
41
1
210
0
220
0
230
1
3
Standard
100
AcDbAlignedDimension
13
48
23
-6.9375
33
0
14
23
24
13.9375
34
0
50
0
100
AcDbRotatedDimension
1001
ACAD
1000
DSTYLE
1002
{
1070
   279
1070
     0
1070
   172
1070
     1
1070
   173
1070
     1
1070
   340
1005
103
1070
   271
1070
     3
1070
   272
1070
     3
1070
    77
1070
     1
1070
    73
1070
     0
1070
   171
1070
     4
1070
   274
1070
     4
1070
   177
1070
     2
1070
   176
1070
     2
1070
   178
1070
     7
1070
    78
1070
     8
1070
    41
1041
3.0
1070
   147
1041
2.25
1070
    42
1041
1.5
1070
    44
1041
3.0
1070
   140
1041
4.5
1070
   343
1005
114
1070
   344
1005
114
1002
}
0
DIMENSION
5
153
100
AcDbEntity
8
2
62
256
6
ByLayer
370
13
48
1
60
0
100
AcDbDimension
2
DimnDraft3D5
10
0
20
32.1875
30
0
11
21.075
21
32.1875
31
0
70
32
71
5
72
1
41
1
210
0
220
0
230
1
3
Standard
100
AcDbAlignedDimension
13
48
23
-6.9375
33
0
14
0
24
13.9375
34
0
50
0
100
AcDbRotatedDimension
1001
ACAD
1000
DSTYLE
1002
{
1070
   279
1070
     0
1070
   172
1070
     1
1070
   173
1070
     1
1070
   340
1005
103
1070
   271
1070
     3
1070
   272
1070
     3
1070
    77
1070
     1
1070
    73
1070
     0
1070
   171
1070
     4
1070
   274
1070
     4
1070
   177
1070
     2
1070
   176
1070
     2
1070
   178
1070
     7
1070
    78
1070
     8
1070
    41
1041
3.0
1070
   147
1041
2.25
1070
    42
1041
1.5
1070
    44
1041
3.0
1070
   140
1041
4.5
1070
   343
1005
114
1070
   344
1005
114
1002
}
0
DIMENSION
5
161
100
AcDbEntity
8
SK2
62
256
6
ByLayer
370
13
48
1
60
0
100
AcDbDimension
2
DimnDraft3D6
10
-103.35
20
42.1875
30
0
11
-31.482237
21
42.1875
31
0
70
32
71
5
72
1
41
1
210
0
220
0
230
1
3
Standard
100
AcDbAlignedDimension
13
48
23
-6.9375
33
0
14
-103.35
24
13.9375
34
0
50
0
100
AcDbRotatedDimension
1001
ACAD
1000
DSTYLE
1002
{
1070
   279
1070
     0
1070
   172
1070
     1
1070
   173
1070
     1
1070
   340
1005
103
1070
   271
1070
     3
1070
   272
1070
     3
1070
    77
1070
     1
1070
    73
1070
     0
1070
   171
1070
     4
1070
   274
1070
     4
1070
   177
1070
     2
1070
   176
1070
     2
1070
   178
1070
     7
1070
    78
1070
     8
1070
    41
1041
3.0
1070
   147
1041
2.25
1070
    42
1041
1.5
1070
    44
1041
3.0
1070
   140
1041
4.5
1070
   343
1005
114
1070
   344
1005
114
1002
}
0
ENDSEC
0
SECTION
2
OBJECTS
0
DICTIONARY
5
1cb
330
0
100
AcDbDictionary
280
0
281
1
3
ACAD_GROUP
350
1cc
3
ACAD_MLINESTYLE
350
1cd
0
DICTIONARY
5
1cc
330
0
100
AcDbDictionary
280
0
281
1
0
DICTIONARY
5
1cd
330
0
100
AcDbDictionary
280
0
281
1
3
Standard
350
18
0
MLINESTYLE
5
18
330
1cd
100
AcDbMlineStyle
2
Standard
70
0
3

62
256
51
90
52
90
71
2
49
-0.5
62
256
6
ByLayer
49
0.5
62
256
6
ByLayer
0
RASTERVARIABLES
5
1ba
330

100
AcDbRasterVariables
90
0
70
1
71
1
72
1
0
ENDSEC
0
EOF
