0
SECTION
2
HEADER
9
$ACADVER
1
AC1015
9
$DWGCODEPAGE
3
ANSI_1252
9
$HANDSEED
5
21e
9
$ANGBASE
50
0
9
$ANGDIR
70
0
9
$ATTMODE
70
1
9
$AUNITS
70
0
9
$AUPREC
70
0
9
$CECOLOR
62
256
9
$CELTSCALE
40
1
9
$CELTYPE
6
ByLayer
9
$CELWEIGHT
370
18
9
$CLAYER
8
0
9
$CMLJUST
70
0
9
$CMLSCALE
40
1
9
$CMLSTYLE
2
Standard
9
$DIMSTYLE
2
Standard
9
$TEXTSIZE
40
0.2
9
$TEXTSTYLE
7
Standard
9
$LUNITS
70
2
9
$LUPREC
70
4
9
$EXTNAMES
290
1
9
$INSUNITS
70
4
9
$LTSCALE
40
1
9
$LWDISPLAY
290
1
9
$PDMODE
70
0
9
$PDSIZE
40
0
9
$PLINEGEN
70
0
0
ENDSEC
0
SECTION
2
CLASSES
0
CLASS
1
RASTERVARIABLES
2
AcDbRasterVariables
3
ISM
90
0
280
0
281
0
0
ENDSEC
0
SECTION
2
TABLES
0
TABLE
2
VPORT
5
214
100
AcDbSymbolTable
0
VPORT
5
1
100
AcDbSymbolTableRecord
100
AcDbViewportTableRecord
2
*Active
70
0
10
0
20
0
11
1
21
1
12
-1
22
1
13
0
23
0
14
0.5
24
0.5
15
10
25
10
16
0
26
0
36
1
17
0
27
0
37
0
0
ENDTAB
0
TABLE
2
LTYPE
5
215
100
AcDbSymbolTable
0
LTYPE
5
14
100
AcDbSymbolTableRecord
100
AcDbLinetypeTableRecord
70
0
2
ByBlock
3

72
65
73
0
40
0
0
LTYPE
5
15
100
AcDbSymbolTableRecord
100
AcDbLinetypeTableRecord
70
0
2
ByLayer
3

72
65
73
0
40
0
0
LTYPE
5
16
100
AcDbSymbolTableRecord
100
AcDbLinetypeTableRecord
70
0
2
CONTINUOUS
3
Solid line
72
65
73
0
40
0
0
LTYPE
5
6A
100
AcDbSymbolTableRecord
100
AcDbLinetypeTableRecord
70
0
2
CENTER
3
____ _ ____ _ ____ _ ____
72
65
73
4
40
47.5
49
22
74
0
49
-8.5
74
0
49
8.5
74
0
49
-8.5
74
0
0
LTYPE
5
6B
100
AcDbSymbolTableRecord
100
AcDbLinetypeTableRecord
70
0
2
DASHED
3
__ __ __ __ __ __ __ __ __
72
65
73
2
40
25.72
49
12.86
74
0
49
-12.86
74
0
0
ENDTAB
0
TABLE
2
LAYER
5
216
100
AcDbSymbolTable
0
LAYER
5
10
100
AcDbSymbolTableRecord
100
AcDbLayerTableRecord
2
0
70
0
62
7
6
CONTINUOUS
290
1
370
-3
390
0
0
LAYER
5
6D
100
AcDbSymbolTableRecord
100
AcDbLayerTableRecord
2
1
70
0
62
4
6
CONTINUOUS
290
1
370
-3
390
0
0
LAYER
5
70
100
AcDbSymbolTableRecord
100
AcDbLayerTableRecord
2
80
70
0
62
-6
6
CONTINUOUS
290
1
370
-3
390
0
0
LAYER
5
72
100
AcDbSymbolTableRecord
100
AcDbLayerTableRecord
2
81
70
0
62
-3
6
CONTINUOUS
290
1
370
-3
390
0
0
LAYER
5
76
100
AcDbSymbolTableRecord
100
AcDbLayerTableRecord
2
2
70
0
62
7
6
CONTINUOUS
290
1
370
-3
390
0
0
LAYER
5
DD
100
AcDbSymbolTableRecord
100
AcDbLayerTableRecord
2
4
70
0
62
-2
6
CENTER
290
1
370
-3
390
0
0
LAYER
5
200
100
AcDbSymbolTableRecord
100
AcDbLayerTableRecord
2
SK1
70
0
62
4
6
CONTINUOUS
290
1
370
-3
390
0
0
LAYER
5
201
100
AcDbSymbolTableRecord
100
AcDbLayerTableRecord
2
SK4
70
0
62
2
6
CENTER
290
1
370
-3
390
0
0
LAYER
5
202
100
AcDbSymbolTableRecord
100
AcDbLayerTableRecord
2
SK6
70
0
62
5
6
CONTINUOUS
290
1
370
-3
390
0
0
LAYER
5
203
100
AcDbSymbolTableRecord
100
AcDbLayerTableRecord
2
SK2
70
0
62
7
6
CONTINUOUS
290
1
370
-3
390
0
0
ENDTAB
0
TABLE
2
STYLE
5
217
100
AcDbSymbolTable
0
STYLE
5
11
100
AcDbSymbolTableRecord
100
AcDbTextStyleTableRecord
2
Standard
3
txt
70
0
71
0
40
0
41
1
42
0
50
0
0
STYLE
5
17A
100
AcDbSymbolTableRecord
100
AcDbTextStyleTableRecord
2
iso_b_vert
3
simplex.shx
70
0
71
0
40
0
41
1
42
0
50
0
0
STYLE
5
17B
100
AcDbSymbolTableRecord
100
AcDbTextStyleTableRecord
2
DWGDirectTextStyle
3
simplex
70
0
71
0
40
0
41
1
42
0
50
0
0
ENDTAB
0
TABLE
2
DIMSTYLE
5
218
100
AcDbSymbolTable
100
AcDbDimStyleTable
0
DIMSTYLE
105
27
100
AcDbSymbolTableRecord
100
AcDbDimStyleTableRecord
2
Standard
70
0
3
<>
41
0.18
42
0.0625
44
0.18
140
0.18
147
0.09
73
0
74
0
77
1
271
2
275
0
278
52
280
0
340
11
0
ENDTAB
0
TABLE
2
VIEW
5
219
100
AcDbSymbolTable
0
ENDTAB
0
TABLE
2
UCS
5
21a
100
AcDbSymbolTable
0
ENDTAB
0
TABLE
2
APPID
5
21b
100
AcDbSymbolTable
0
APPID
5
12
100
AcDbSymbolTableRecord
100
AcDbRegAppTableRecord
2
ACAD
70
0
0
ENDTAB
0
TABLE
2
BLOCK_RECORD
5
21c
100
AcDbSymbolTable
0
BLOCK_RECORD
5
1F
100
AcDbSymbolTableRecord
100
AcDbBlockTableRecord
2
*Model_Space
340
0
70
0
0
BLOCK_RECORD
5
1B
100
AcDbSymbolTableRecord
100
AcDbBlockTableRecord
2
*Paper_Space
340
0
70
0
0
BLOCK_RECORD
5
23
100
AcDbSymbolTableRecord
100
AcDbBlockTableRecord
2
*Paper_Space0
340
0
70
0
0
BLOCK_RECORD
5
17D
100
AcDbSymbolTableRecord
100
AcDbBlockTableRecord
2
DimnDraft3D1
340
0
70
0
0
BLOCK_RECORD
5
188
100
AcDbSymbolTableRecord
100
AcDbBlockTableRecord
2
DimnDraft3D2
340
0
70
0
0
BLOCK_RECORD
5
192
100
AcDbSymbolTableRecord
100
AcDbBlockTableRecord
2
DimnDraft3D3
340
0
70
0
0
BLOCK_RECORD
5
19C
100
AcDbSymbolTableRecord
100
AcDbBlockTableRecord
2
DimnDraft3D4
340
0
70
0
0
ENDTAB
0
ENDSEC
0
SECTION
2
BLOCKS
0
BLOCK
5
20
100
AcDbEntity
8
0
100
AcDbBlockBegin
2
*Model_Space
70
0
10
0
20
0
30
0
3
*Model_Space
0
ENDBLK
5
21
100
AcDbEntity
8
0
100
AcDbBlockEnd
0
BLOCK
5
1C
100
AcDbEntity
8
0
100
AcDbBlockBegin
2
*Paper_Space
70
0
10
0
20
0
30
0
3
*Paper_Space
0
ENDBLK
5
1D
100
AcDbEntity
8
0
100
AcDbBlockEnd
0
BLOCK
5
24
100
AcDbEntity
8
0
100
AcDbBlockBegin
2
*Paper_Space0
70
0
10
0
20
0
30
0
3
*Paper_Space0
0
ENDBLK
5
25
100
AcDbEntity
8
0
100
AcDbBlockEnd
0
BLOCK
5
185
100
AcDbEntity
8
0
100
AcDbBlockBegin
2
DimnDraft3D1
70
0
10
0
20
0
30
0
3
DimnDraft3D1
0
MTEXT
5
17E
100
AcDbEntity
8
SK2
62
256
6
ByLayer
370
18
48
1
60
0
100
AcDbMText
10
-2.523685
20
-23.096346
30
0
210
0
220
0
230
1
1
\W0.7138;200
40
3.5
41
0
44
1.084337
50
0
71
7
72
5
7
iso_b_vert
0
LINE
5
180
100
AcDbEntity
8
SK2
62
256
6
ByLayer
370
13
48
1
60
0
100
AcDbLine
10
-100.000002
20
-12.5
30
0
11
-100.000002
21
-26.971346
31
0
39
0
210
0
220
0
230
1
0
LINE
5
181
100
AcDbEntity
8
SK2
62
256
6
ByLayer
370
13
48
1
60
0
100
AcDbLine
10
100
20
-15.76445
30
0
11
100
21
-26.971346
31
0
39
0
210
0
220
0
230
1
0
LINE
5
182
100
AcDbEntity
8
SK2
62
256
6
ByLayer
370
13
48
1
60
0
100
AcDbLine
10
-100.000002
20
-23.971346
30
0
11
100
21
-23.971346
31
0
39
0
210
0
220
0
230
1
0
SOLID
5
183
100
AcDbEntity
8
SK2
62
256
6
ByLayer
370
13
48
1
60
0
100
AcDbTrace
10
-100.000002
20
-23.971346
30
0
11
-96.500004
21
-23.510562
31
0
12
-96.500001
22
-24.43213
32
0
13
-100.000002
23
-23.971346
33
0
39
0
210
0
220
0
230
1
0
SOLID
5
184
100
AcDbEntity
8
SK2
62
256
6
ByLayer
370
13
48
1
60
0
100
AcDbTrace
10
100
20
-23.971346
30
0
11
96.500002
21
-24.43213
31
0
12
96.499998
22
-23.510562
32
0
13
100
23
-23.971346
33
0
39
0
210
0
220
0
230
1
0
ENDBLK
5
186
100
AcDbEntity
8
0
100
AcDbBlockEnd
0
BLOCK
5
18F
100
AcDbEntity
8
0
100
AcDbBlockBegin
2
DimnDraft3D2
70
0
10
0
20
0
30
0
3
DimnDraft3D2
0
MTEXT
5
189
100
AcDbEntity
8
2
62
256
6
ByLayer
370
18
48
1
60
0
100
AcDbMText
10
123.880999
20
-10.160404
30
0
210
0
220
0
230
1
1
\W0.6864;12.75
40
3.5
41
0
44
1.084337
50
90
71
7
72
5
7
iso_b_vert
0
LINE
5
18A
100
AcDbEntity
8
2
62
256
6
ByLayer
370
13
48
1
60
0
100
AcDbLine
10
104.350139
20
0
30
0
11
127.755999
21
0
31
0
39
0
210
0
220
0
230
1
0
LINE
5
18B
100
AcDbEntity
8
2
62
256
6
ByLayer
370
13
48
1
60
0
100
AcDbLine
10
106.845201
20
-12.76445
30
0
11
127.755999
21
-12.76445
31
0
39
0
210
0
220
0
230
1
0
LINE
5
18C
100
AcDbEntity
8
2
62
256
6
ByLayer
370
13
48
1
60
0
100
AcDbLine
10
124.755999
20
0
30
0
11
124.755999
21
-12.76445
31
0
39
0
210
0
220
0
230
1
0
SOLID
5
18D
100
AcDbEntity
8
2
62
256
6
ByLayer
370
13
48
1
60
0
100
AcDbTrace
10
124.755999
20
0
30
0
11
125.216783
21
-3.499998
31
0
12
124.295215
22
-3.500002
32
0
13
124.755999
23
0
33
0
39
0
210
0
220
0
230
1
0
SOLID
5
18E
100
AcDbEntity
8
2
62
256
6
ByLayer
370
13
48
1
60
0
100
AcDbTrace
10
124.755999
20
-12.76445
30
0
11
124.295215
21
-9.264452
31
0
12
125.216783
22
-9.264449
32
0
13
124.755999
23
-12.76445
33
0
39
0
210
0
220
0
230
1
0
ENDBLK
5
190
100
AcDbEntity
8
0
100
AcDbBlockEnd
0
BLOCK
5
199
100
AcDbEntity
8
0
100
AcDbBlockBegin
2
DimnDraft3D3
70
0
10
0
20
0
30
0
3
DimnDraft3D3
0
MTEXT
5
193
100
AcDbEntity
8
2
62
256
6
ByLayer
370
18
48
1
60
0
100
AcDbMText
10
92.971709
20
7.033677
30
0
210
0
220
0
230
1
1
\W0.5321;12
40
3.5
41
0
44
1.084337
50
0
71
7
72
5
7
iso_b_vert
0
LINE
5
194
100
AcDbEntity
8
2
62
256
6
ByLayer
370
13
48
1
60
0
100
AcDbLine
10
100
20
-7.631184
30
0
11
100
21
9.158677
31
0
39
0
210
0
220
0
230
1
0
LINE
5
195
100
AcDbEntity
8
2
62
256
6
ByLayer
370
13
48
1
60
0
100
AcDbLine
10
87.499998
20
3.50833
30
0
11
87.499998
21
9.158677
31
0
39
0
210
0
220
0
230
1
0
LINE
5
196
100
AcDbEntity
8
2
62
256
6
ByLayer
370
13
48
1
60
0
100
AcDbLine
10
100
20
6.158677
30
0
11
87.499998
21
6.158677
31
0
39
0
210
0
220
0
230
1
0
SOLID
5
197
100
AcDbEntity
8
2
62
256
6
ByLayer
370
13
48
1
60
0
100
AcDbTrace
10
100
20
6.158677
30
0
11
96.500002
21
5.697893
31
0
12
96.499998
22
6.61946
32
0
13
100
23
6.158677
33
0
39
0
210
0
220
0
230
1
0
SOLID
5
198
100
AcDbEntity
8
2
62
256
6
ByLayer
370
13
48
1
60
0
100
AcDbTrace
10
87.499998
20
6.158677
30
0
11
90.999996
21
6.61946
31
0
12
90.999999
22
5.697893
32
0
13
87.499998
23
6.158677
33
0
39
0
210
0
220
0
230
1
0
ENDBLK
5
19A
100
AcDbEntity
8
0
100
AcDbBlockEnd
0
BLOCK
5
1A4
100
AcDbEntity
8
0
100
AcDbBlockBegin
2
DimnDraft3D4
70
0
10
0
20
0
30
0
3
DimnDraft3D4
0
MTEXT
5
19D
100
AcDbEntity
8
SK2
62
256
6
ByLayer
370
18
48
1
60
0
100
AcDbMText
10
-116.34072
20
3.159211
30
0
210
0
220
0
230
1
1
\W0.6740;25
40
3.5
41
0
44
1.084337
50
90
71
7
72
5
7
iso_b_vert
0
MTEXT
5
19E
100
AcDbEntity
8
SK2
62
256
6
ByLayer
370
18
48
1
60
0
100
AcDbMText
10
-116.34072
20
-3.813446
30
0
210
0
220
0
230
1
1
%%c
40
3.5
41
0
44
1.084337
50
90
71
7
72
5
7
iso_b_vert
0
LINE
5
19F
100
AcDbEntity
8
SK2
62
256
6
ByLayer
370
13
48
1
60
0
100
AcDbLine
10
-100.000002
20
12.5
30
0
11
-117.59072
21
12.5
31
0
39
0
210
0
220
0
230
1
0
LINE
5
1A0
100
AcDbEntity
8
SK2
62
256
6
ByLayer
370
13
48
1
60
0
100
AcDbLine
10
-101.500002
20
-12.5
30
0
11
-117.59072
21
-12.5
31
0
39
0
210
0
220
0
230
1
0
LINE
5
1A1
100
AcDbEntity
8
SK2
62
256
6
ByLayer
370
13
48
1
60
0
100
AcDbLine
10
-114.59072
20
12.5
30
0
11
-114.59072
21
-12.5
31
0
39
0
210
0
220
0
230
1
0
SOLID
5
1A2
100
AcDbEntity
8
SK2
62
256
6
ByLayer
370
13
48
1
60
0
100
AcDbTrace
10
-114.59072
20
12.5
30
0
11
-114.129936
21
9.000002
31
0
12
-115.051504
22
8.999998
32
0
13
-114.59072
23
12.5
33
0
39
0
210
0
220
0
230
1
0
SOLID
5
1A3
100
AcDbEntity
8
SK2
62
256
6
ByLayer
370
13
48
1
60
0
100
AcDbTrace
10
-114.59072
20
-12.5
30
0
11
-115.051504
21
-9.000002
31
0
12
-114.129936
22
-8.999998
32
0
13
-114.59072
23
-12.5
33
0
39
0
210
0
220
0
230
1
0
ENDBLK
5
1A5
100
AcDbEntity
8
0
100
AcDbBlockEnd
0
ENDSEC
0
SECTION
2
ENTITIES
0
ARC
5
DE
100
AcDbEntity
8
1
62
256
6
ByLayer
370
18
48
1
60
0
100
AcDbCircle
39
0
10
68.765683
20
9.4
30
0
40
0.4
210
0
220
0
230
1
100
AcDbArc
50
225
51
270
0
ELLIPSE
5
DF
100
AcDbEntity
8
1
62
256
6
ByLayer
370
18
48
1
60
0
100
AcDbEllipse
10
82.6336
20
-6.325778
30
0
11
-1.68699769148526
21
-1.0144116713265
31
0
210
0
220
0
230
-1
40
0.994829
41
2.10989324764653
42
-3.13275157992944
0
ELLIPSE
5
E0
100
AcDbEntity
8
1
62
256
6
ByLayer
370
18
48
1
60
0
100
AcDbEllipse
10
82.6336
20
-6.325778
30
0
11
2.57098962380278
21
1.54596647903454
31
0
210
0
220
0
230
-1
40
0.994829
41
0
42
6.28318530717959
0
ELLIPSE
5
E1
100
AcDbEntity
8
1
62
256
6
ByLayer
370
18
48
1
60
0
100
AcDbEllipse
10
82.6336
20
-6.325778
30
0
11
-1.68699769148526
21
-1.0144116713265
31
0
210
0
220
0
230
-1
40
0.994829
41
-3.13275157992944
42
-2.0722398855469
0
ELLIPSE
5
E2
100
AcDbEntity
8
1
62
256
6
ByLayer
370
18
48
1
60
0
100
AcDbEllipse
10
82.6336
20
-6.325778
30
0
11
-1.68699769148526
21
-1.0144116713265
31
0
210
0
220
0
230
-1
40
0.994829
41
-2.0722398855469
42
-1.03169940594327
0
ELLIPSE
5
E3
100
AcDbEntity
8
1
62
256
6
ByLayer
370
18
48
1
60
0
100
AcDbEllipse
10
82.6336
20
-6.325778
30
0
11
-1.68699769148526
21
-1.0144116713265
31
0
210
0
220
0
230
-1
40
0.994829
41
-1.03169940594327
42
0.00884107366035611
0
ELLIPSE
5
E4
100
AcDbEntity
8
1
62
256
6
ByLayer
370
18
48
1
60
0
100
AcDbEllipse
10
82.6336
20
-6.325778
30
0
11
-1.68699769148526
21
-1.0144116713265
31
0
210
0
220
0
230
-1
40
0.994829
41
0.00884107366035747
42
1.0693527680429
0
ELLIPSE
5
E5
100
AcDbEntity
8
1
62
256
6
ByLayer
370
18
48
1
60
0
100
AcDbEllipse
10
82.6336
20
-6.325778
30
0
11
-1.68699769148526
21
-1.0144116713265
31
0
210
0
220
0
230
-1
40
0.994829
41
1.0693527680429
42
2.10989324764653
0
ELLIPSE
5
E6
100
AcDbEntity
8
1
62
256
6
ByLayer
370
18
48
1
60
0
100
AcDbEllipse
10
82.616905
20
-6.298015
30
0
11
-1.21350710243491
21
-0.729696178104303
31
0
210
0
220
0
230
-1
40
0.994829
41
0.431018488919548
42
0.647175352783701
0
ELLIPSE
5
E7
100
AcDbEntity
8
1
62
256
6
ByLayer
370
18
48
1
60
0
100
AcDbEllipse
10
83.641931
20
-4.208675
30
0
11
0.707879143087031
21
0.425656103894178
31
0
210
0
220
0
230
-1
40
0.994829
41
3.1415888485584
42
-2.87115675242437
0
ELLIPSE
5
E8
100
AcDbEntity
8
1
62
256
6
ByLayer
370
18
48
1
60
0
100
AcDbEllipse
10
80.312477
20
-6.161829
30
0
11
0.707879143087031
21
0.425656103894178
31
0
210
0
220
0
230
-1
40
0.994829
41
-0.260176258700559
42
9.66084645358739E-07
0
ELLIPSE
5
E9
100
AcDbEntity
8
1
62
256
6
ByLayer
370
18
48
1
60
0
100
AcDbEllipse
10
81.117367
20
-6.983677
30
0
11
0.282808858618305
21
0.1700563126938
31
0
210
0
220
0
230
-1
40
0.994829
41
1.84829842014146
42
2.82559160746801
0
ELLIPSE
5
EA
100
AcDbEntity
8
1
62
256
6
ByLayer
370
18
48
1
60
0
100
AcDbEllipse
10
83.940488
20
-5.319733
30
0
11
0.282808858618305
21
0.1700563126938
31
0
210
0
220
0
230
-1
40
0.994829
41
0.292981064064908
42
1.33837010040383
0
ELLIPSE
5
EB
100
AcDbEntity
8
1
62
256
6
ByLayer
370
18
48
1
60
0
100
AcDbEllipse
10
82.616905
20
-6.298015
30
0
11
-1.21350710243491
21
-0.729696178104303
31
0
210
0
220
0
230
-1
40
0.994829
41
-2.71057416467025
42
-2.49441730080609
0
ELLIPSE
5
EC
100
AcDbEntity
8
1
62
256
6
ByLayer
370
18
48
1
60
0
100
AcDbEllipse
10
81.415924
20
-8.094736
30
0
11
0.707879143087031
21
0.425656103894178
31
0
210
0
220
0
230
-1
40
0.994829
41
-0.51142916614145
42
-4.0904618865687E-06
0
ELLIPSE
5
ED
100
AcDbEntity
8
1
62
256
6
ByLayer
370
18
48
1
60
0
100
AcDbEllipse
10
81.415924
20
-8.094736
30
0
11
0.707879143087031
21
0.425656103894178
31
0
210
0
220
0
230
-1
40
0.994829
41
-1.29329423344832
42
-0.51142916614145
0
ELLIPSE
5
EE
100
AcDbEntity
8
1
62
256
6
ByLayer
370
18
48
1
60
0
100
AcDbEllipse
10
84.745379
20
-6.141581
30
0
11
0.707879143087031
21
0.425656103894178
31
0
210
0
220
0
230
-1
40
0.994829
41
-2.41650851069286
42
-1.80322255318596
0
ELLIPSE
5
EF
100
AcDbEntity
8
1
62
256
6
ByLayer
370
18
48
1
60
0
100
AcDbEllipse
10
82.607432
20
-6.28226
30
0
11
2.99948789443657
21
1.80362755887363
31
0
210
0
220
0
230
-1
40
0.994829
41
0
42
6.28318530717959
0
ELLIPSE
5
F0
100
AcDbEntity
8
1
62
256
6
ByLayer
370
18
48
1
60
0
100
AcDbEllipse
10
82.528928
20
-7.78397
30
0
11
0.282808858618305
21
0.1700563126938
31
0
210
0
220
0
230
-1
40
0.994829
41
0.807757940537822
42
2.77377819956106
0
ELLIPSE
5
F1
100
AcDbEntity
8
1
62
256
6
ByLayer
370
18
48
1
60
0
100
AcDbEllipse
10
83.940488
20
-6.970782
30
0
11
0.282808858618305
21
0.1700563126938
31
0
210
0
220
0
230
-1
40
0.994829
41
0.311469998613295
42
2.37148807515162
0
ELLIPSE
5
F2
100
AcDbEntity
8
1
62
256
6
ByLayer
370
18
48
1
60
0
100
AcDbEllipse
10
84.745379
20
-6.141581
30
0
11
0.707879143087031
21
0.425656103894178
31
0
210
0
220
0
230
-1
40
0.994829
41
-3.14159167328412
42
-2.78848295478347
0
ELLIPSE
5
F3
100
AcDbEntity
8
1
62
256
6
ByLayer
370
18
48
1
60
0
100
AcDbEllipse
10
83.641931
20
-8.084568
30
0
11
0.707879143087031
21
0.425656103894178
31
0
210
0
220
0
230
-1
40
0.994829
41
-1.55196964574507
42
-0.7701045784382
0
ELLIPSE
5
F4
100
AcDbEntity
8
1
62
256
6
ByLayer
370
18
48
1
60
0
100
AcDbEllipse
10
83.641931
20
-8.084568
30
0
11
0.707879143087031
21
0.425656103894178
31
0
210
0
220
0
230
-1
40
0.994829
41
-2.33383471305196
42
-1.55196964574507
0
ELLIPSE
5
F5
100
AcDbEntity
8
1
62
256
6
ByLayer
370
18
48
1
60
0
100
AcDbEllipse
10
82.528928
20
-6.151705
30
0
11
-1.21350710243491
21
-0.729696178104303
31
0
210
0
220
0
230
-1
40
0.994829
41
-2.71057416467025
42
-2.49441730080609
0
ELLIPSE
5
F6
100
AcDbEntity
8
1
62
256
6
ByLayer
370
18
48
1
60
0
100
AcDbEllipse
10
82.608886
20
-6.284678
30
0
11
3.42798616507037
21
2.06128863871273
31
0
210
0
220
0
230
-1
40
0.994829
41
0
42
6.28318530717959
0
ELLIPSE
5
F7
100
AcDbEntity
8
1
62
256
6
ByLayer
370
18
48
1
60
0
100
AcDbEllipse
10
82.528928
20
-6.151705
30
0
11
-1.21350710243491
21
-0.729696178104303
31
0
210
0
220
0
230
-1
40
0.994829
41
0.6937085735222
42
1.3007923284679
0
ELLIPSE
5
F8
100
AcDbEntity
8
1
62
256
6
ByLayer
370
18
48
1
60
0
100
AcDbEllipse
10
82.528928
20
-6.151705
30
0
11
-1.21350710243491
21
-0.729696178104303
31
0
210
0
220
0
230
-1
40
0.994829
41
1.88627457731681
42
2.50993199770292
0
ELLIPSE
5
F9
100
AcDbEntity
8
1
62
256
6
ByLayer
370
18
48
1
60
0
100
AcDbEllipse
10
82.528928
20
-6.151705
30
0
11
-1.21350710243491
21
-0.729696178104303
31
0
210
0
220
0
230
-1
40
0.994829
41
2.8821795506089
42
-2.71057416467025
0
ELLIPSE
5
FA
100
AcDbEntity
8
1
62
256
6
ByLayer
370
18
48
1
60
0
100
AcDbEllipse
10
82.528928
20
-6.151705
30
0
11
-1.21350710243491
21
-0.729696178104303
31
0
210
0
220
0
230
-1
40
0.994829
41
-0.511429166141454
42
0.26360169759015
0
ELLIPSE
5
FB
100
AcDbEntity
8
1
62
256
6
ByLayer
370
18
48
1
60
0
100
AcDbEllipse
10
82.528928
20
-6.151705
30
0
11
-1.21350710243491
21
-0.729696178104303
31
0
210
0
220
0
230
-1
40
0.994829
41
-1.55196964574509
42
-0.511429166141454
0
ELLIPSE
5
FC
100
AcDbEntity
8
1
62
256
6
ByLayer
370
18
48
1
60
0
100
AcDbEllipse
10
82.528928
20
-6.151705
30
0
11
-1.21350710243491
21
-0.729696178104303
31
0
210
0
220
0
230
-1
40
0.994829
41
-2.49441730080609
42
-1.55196964574509
0
ELLIPSE
5
FD
100
AcDbEntity
8
1
62
256
6
ByLayer
370
18
48
1
60
0
100
AcDbEllipse
10
82.424256
20
-5.977633
30
0
11
2.99948789443657
21
1.80362755887363
31
0
210
0
220
0
230
-1
40
0.994829
41
-3.14147515667369
42
-2.6024956546881
0
ELLIPSE
5
FE
100
AcDbEntity
8
1
62
256
6
ByLayer
370
18
48
1
60
0
100
AcDbEllipse
10
82.424256
20
-5.977633
30
0
11
2.99948789443657
21
1.80362755887363
31
0
210
0
220
0
230
-1
40
0.994829
41
-2.6024956546881
42
-2.55084303705928E-16
0
ELLIPSE
5
FF
100
AcDbEntity
8
1
62
256
6
ByLayer
370
18
48
1
60
0
100
AcDbEllipse
10
82.424256
20
-5.977633
30
0
11
3.42798616507037
21
2.06128863871273
31
0
210
0
220
0
230
-1
40
0.994829
41
0.0449832454902348
42
3.09664770244934
0
ELLIPSE
5
100
100
AcDbEntity
8
1
62
256
6
ByLayer
370
18
48
1
60
0
100
AcDbEllipse
10
70.938964
20
0
30
0
11
0.937307491486337
21
12.4884570263233
31
0
210
0
220
0
230
1
40
0.572989
41
2.01649077071038
42
2.25564918679461
0
ELLIPSE
5
101
100
AcDbEntity
8
1
62
256
6
ByLayer
370
18
48
1
60
0
100
AcDbEllipse
10
90.949998
20
-10.019111
30
0
11
-4.08437232213511E-16
21
-2.22350216698153
31
0
210
0
220
0
230
1
40
0.449741
41
2.15954214556773
42
2.20761597271112
0
ELLIPSE
5
102
100
AcDbEntity
8
1
62
256
6
ByLayer
370
18
48
1
60
0
100
AcDbEllipse
10
70.938964
20
0
30
0
11
0.937307440565122
21
12.4884571416757
31
0
210
0
220
0
230
1
40
0.572989
41
1.14643359141481
42
1.21105908180814
0
ELLIPSE
5
103
100
AcDbEntity
8
1
62
256
6
ByLayer
370
18
48
1
60
0
100
AcDbEllipse
10
210.788749
20
-2.75
30
0
11
224.203351912516
21
1.02687879320641
31
0
210
0
220
0
230
1
40
0.052207
41
2.20515901996035
42
2.25127591956557
0
ELLIPSE
5
104
100
AcDbEntity
8
1
62
256
6
ByLayer
370
18
48
1
60
0
100
AcDbEllipse
10
214.114808
20
-0.75
30
0
11
224.20334964254
21
1.02687886431198
31
0
210
0
220
0
230
1
40
0.052207
41
-2.2709949638829
42
-2.16911183597355
0
ELLIPSE
5
105
100
AcDbEntity
8
1
62
256
6
ByLayer
370
18
48
1
60
0
100
AcDbEllipse
10
61.256227
20
-0.75
30
0
11
224.203349504867
21
1.02687886606748
31
0
210
0
220
0
230
1
40
0.052207
41
-1.50778234468197
42
-1.50550709667257
0
ELLIPSE
5
106
100
AcDbEntity
8
1
62
256
6
ByLayer
370
18
48
1
60
0
100
AcDbEllipse
10
99.470872
20
-0.75
30
0
11
224.203350645085
21
1.02687887795348
31
0
210
0
220
0
230
1
40
0.052207
41
-1.67458632235018
42
-1.65830116913007
0
ELLIPSE
5
107
100
AcDbEntity
8
1
62
256
6
ByLayer
370
18
48
1
60
0
100
AcDbEllipse
10
-142.129687
20
-0.775755
30
0
11
741.86970259894
21
-4.00811377845838
31
0
210
0
220
0
230
1
40
0.014851
41
-1.24804427753146
42
-1.24601821199012
0
ELLIPSE
5
108
100
AcDbEntity
8
1
62
256
6
ByLayer
370
18
48
1
60
0
100
AcDbEllipse
10
108.144202
20
-0.751111
30
0
11
40.2548059704892
21
4.5651672994802
31
0
210
0
220
0
230
1
40
0.268929
41
-1.94576859978465
42
-1.94323786092901
0
ELLIPSE
5
109
100
AcDbEntity
8
1
62
256
6
ByLayer
370
18
48
1
60
0
100
AcDbEllipse
10
99.946336
20
-0.75
30
0
11
6.1711162028305
21
11.5769738094662
31
0
210
0
220
0
230
1
40
0.325553
41
-2.94314035249032
42
-2.90717788623121
0
ELLIPSE
5
10A
100
AcDbEntity
8
1
62
256
6
ByLayer
370
18
48
1
60
0
100
AcDbEllipse
10
97.324713
20
-0.75
30
0
11
16.7249273990024
21
1.97455163263338
31
0
210
0
220
0
230
1
40
0.692553
41
-2.25045436332415
42
-1.80223414000604
0
ELLIPSE
5
10B
100
AcDbEntity
8
1
62
256
6
ByLayer
370
18
48
1
60
0
100
AcDbEllipse
10
99.254019
20
14.75
30
0
11
33.8057043173554
21
3.99111500234237
31
0
210
0
220
0
230
1
40
0.692553
41
-1.98122396718354
42
-1.78594413181559
0
ELLIPSE
5
10C
100
AcDbEntity
8
1
62
256
6
ByLayer
370
18
48
1
60
0
100
AcDbEllipse
10
94.932472
20
-11.420478
30
0
11
0.0438318621842718
21
0.502306772149864
31
0
210
0
220
0
230
1
40
0.48389
41
-1.82871347427588
42
-1.74144701239311
0
ELLIPSE
5
10D
100
AcDbEntity
8
1
62
256
6
ByLayer
370
18
48
1
60
0
100
AcDbEllipse
10
94.932472
20
-10.307776
30
0
11
0.0438318646140708
21
0.50230677087935
31
0
210
0
220
0
230
1
40
0.48389
41
-1.04331530467355
42
-0.956048842514451
0
POINT
5
6C
100
AcDbEntity
8
1
62
256
6
ByLayer
370
13
48
1
60
1
100
AcDbPoint
10
694.499999
20
431.11634
30
0
39
0
210
0
220
0
230
1
50
360
0
POINT
5
6E
100
AcDbEntity
8
1
62
256
6
ByLayer
370
13
48
1
60
1
100
AcDbPoint
10
694.499999
20
431.11634
30
0
39
0
210
0
220
0
230
1
50
360
0
POINT
5
6F
100
AcDbEntity
8
80
62
256
6
ByLayer
370
18
48
1
60
0
100
AcDbPoint
10
0
20
0
30
0
39
0
210
0
220
0
230
1
50
360
0
POINT
5
71
100
AcDbEntity
8
81
62
256
6
ByLayer
370
18
48
1
60
0
100
AcDbPoint
10
100
20
-12.76445
30
0
39
0
210
0
220
0
230
1
50
360
0
POINT
5
73
100
AcDbEntity
8
81
62
256
6
ByLayer
370
18
48
1
60
1
100
AcDbPoint
10
-98.500002
20
12.5
30
0
39
0
210
0
220
0
230
1
50
360
0
POINT
5
74
100
AcDbEntity
8
1
62
256
6
ByLayer
370
18
48
1
60
1
100
AcDbPoint
10
-98.500002
20
-12.5
30
0
39
0
210
0
220
0
230
1
50
360
0
POINT
5
75
100
AcDbEntity
8
2
62
256
6
ByLayer
370
18
48
1
60
1
100
AcDbPoint
10
-98.500002
20
-12.5
30
0
39
0
210
0
220
0
230
1
50
360
0
SPLINE
5
10E
100
AcDbEntity
8
1
62
256
6
ByLayer
370
18
48
1
60
0
100
AcDbSpline
70
4
71
3
72
24
73
20
40
0
40
0
40
0
40
0
40
0.0624999999999934
40
0.0624999999999934
40
0.124999999999987
40
0.124999999999987
40
0.249999999999993
40
0.249999999999993
40
0.312500000000003
40
0.312500000000003
40
0.375000000000012
40
0.375000000000012
40
0.500000000000014
40
0.500000000000014
40
0.625000000000016
40
0.625000000000016
40
0.750000000000017
40
0.750000000000017
40
1
40
1
40
1
40
1
41
1
10
80.9377458732166
20
-5.34173554401985
30
0
41
1
10
80.942489084407
20
-5.33364298801718
30
0
41
1
10
80.9476134278406
20
-5.32566177399434
30
0
41
1
10
80.9584920836187
20
-5.31015951211009
30
0
41
1
10
80.9642082540714
20
-5.30268626949834
30
0
41
1
10
80.9821568036784
20
-5.28106990094943
30
0
41
1
10
80.9951838391083
20
-5.26772466678392
30
0
41
1
10
81.0163005136567
20
-5.24929169939338
30
0
41
1
10
81.0236186157279
20
-5.24340679051306
30
0
41
1
10
81.03848996088
20
-5.23239023948241
30
0
41
1
10
81.0460768115181
20
-5.22722704609748
30
0
41
1
10
81.0692711619021
20
-5.21273261566211
30
0
41
1
10
81.0853098291922
20
-5.20439027310977
30
0
41
1
10
81.1185047460935
20
-5.19030028460907
30
0
41
1
10
81.1352266226501
20
-5.18473615059008
30
0
41
1
10
81.1688629527135
20
-5.17630524291303
30
0
41
1
10
81.1858357604769
20
-5.17343482147328
30
0
41
1
10
81.2366560990347
20
-5.16882107506268
30
0
41
1
10
81.2693280847192
20
-5.17104393118387
30
0
41
1
10
81.3008215575117
20
-5.17803171565618
30
0
0
SPLINE
5
10F
100
AcDbEntity
8
1
62
256
6
ByLayer
370
18
48
1
60
0
100
AcDbSpline
70
4
71
3
72
34
73
30
40
0
40
0
40
0
40
0
40
0.124999999999993
40
0.124999999999993
40
0.187499999999988
40
0.187499999999988
40
0.218749999999985
40
0.218749999999985
40
0.249999999999982
40
0.249999999999982
40
0.374999999999979
40
0.374999999999979
40
0.406249999999978
40
0.406249999999978
40
0.437499999999977
40
0.49999999999998
40
0.562499999999983
40
0.562499999999983
40
0.624999999999986
40
0.624999999999986
40
0.68749999999999
40
0.68749999999999
40
0.749999999999993
40
0.749999999999993
40
0.875
40
0.875
40
0.9375
40
0.9375
40
1
40
1
40
1
40
1
41
1
10
82.3094277692452
20
-4.59698227676427
30
0
41
1
10
82.2946045012635
20
-4.64346169591744
30
0
41
1
10
82.275430117556
20
-4.68878337278801
30
0
41
1
10
82.2397412865585
20
-4.7552121981027
30
0
41
1
10
82.2266817875358
20
-4.77709533097334
30
0
41
1
10
82.2051955039742
20
-4.8095448772205
30
0
41
1
10
82.1976984971737
20
-4.82032300414591
30
0
41
1
10
82.1821177025457
20
-4.84164071917934
30
0
41
1
10
82.1740605474511
20
-4.85214632423367
30
0
41
1
10
82.1324222422168
20
-4.90391505358207
30
0
41
1
10
82.0948423584972
20
-4.94293259305414
30
0
41
1
10
82.0416882245519
20
-4.98852377143953
30
0
41
1
10
82.0307275756987
20
-4.99749012960888
30
0
41
1
10
82.0085157665774
20
-5.0148091261114
30
0
41
1
10
81.974639016902
20
-5.03997569926349
30
0
41
1
10
81.9154162514799
20
-5.07791686286436
30
0
41
1
10
81.865073602864
20
-5.10397855085938
30
0
41
1
10
81.8131891472322
20
-5.12780539966138
30
0
41
1
10
81.7871005179293
20
-5.13831440260589
30
0
41
1
10
81.7346799823582
20
-5.1566989546522
30
0
41
1
10
81.7083387253763
20
-5.16457793306205
30
0
41
1
10
81.6553698845083
20
-5.17780362979715
30
0
41
1
10
81.6286514046988
20
-5.18314960805389
30
0
41
1
10
81.5499033980045
20
-5.19518982170882
30
0
41
1
10
81.4986464567457
20
-5.19812515163488
30
0
41
1
10
81.4230846281832
20
-5.19568439620292
30
0
41
1
10
81.3980439429184
20
-5.19370607328329
30
0
41
1
10
81.3487992675649
20
-5.18751323169676
30
0
41
1
10
81.3246110174201
20
-5.18331013063596
30
0
41
1
10
81.3008215575117
20
-5.17803171565618
30
0
0
SPLINE
5
110
100
AcDbEntity
8
1
62
256
6
ByLayer
370
18
48
1
60
0
100
AcDbSpline
70
4
71
5
72
12
73
6
40
0
40
0
40
0
40
0
40
0
40
0
40
1
40
1
40
1
40
1
40
1
40
1
41
1
10
95.1973075648672
20
-10.7335138586262
30
0
41
1
10
95.203427952711
20
-10.7344373629439
30
0
41
1
10
95.2090851324456
20
-10.7353841862534
30
0
41
1
10
95.2142635719803
20
-10.7363519669924
30
0
41
1
10
95.2189502175755
20
-10.7373382115207
30
0
41
1
10
95.223134875053
20
-10.7383403173853
30
0
0
SPLINE
5
111
100
AcDbEntity
8
1
62
256
6
ByLayer
370
18
48
1
60
0
100
AcDbSpline
70
4
71
3
72
24
73
20
40
0
40
0
40
0
40
0
40
0.25000000000003
40
0.25000000000003
40
0.312500000000029
40
0.312500000000029
40
0.375000000000028
40
0.375000000000028
40
0.500000000000023
40
0.500000000000023
40
0.625000000000018
40
0.625000000000018
40
0.750000000000013
40
0.750000000000013
40
0.812500000000011
40
0.812500000000011
40
0.875000000000009
40
0.875000000000009
40
1
40
1
40
1
40
1
41
1
10
80.9855762334745
20
-5.7322793302086
30
0
41
1
10
80.9619240379361
20
-5.71009805394436
30
0
41
1
10
80.9420588801953
20
-5.68424661730569
30
0
41
1
10
80.9224834971678
20
-5.64702777401277
30
0
41
1
10
80.9188280306
20
-5.63930498030783
30
0
41
1
10
80.9122049948439
20
-5.62361182291295
30
0
41
1
10
80.9092212834749
20
-5.61561593750946
30
0
41
1
10
80.9012609667826
20
-5.59118219174803
30
0
41
1
10
80.8972678873125
20
-5.57430145128967
30
0
41
1
10
80.8921075868443
20
-5.53929534855661
30
0
41
1
10
80.89096557698
20
-5.52099531069553
30
0
41
1
10
80.8918475817568
20
-5.48457147598145
30
0
41
1
10
80.8938239349426
20
-5.46631409734869
30
0
41
1
10
80.899189907362
20
-5.43886642912724
30
0
41
1
10
80.9013808442165
20
-5.42970685734008
30
0
41
1
10
80.9066126775717
20
-5.41136706817338
30
0
41
1
10
80.9096315184601
20
-5.40227629885482
30
0
41
1
10
80.9197737052854
20
-5.37555692943795
30
0
41
1
10
80.9280120327281
20
-5.35834278458134
30
0
41
1
10
80.9377458732166
20
-5.34173554401985
30
0
0
SPLINE
5
112
100
AcDbEntity
8
1
62
256
6
ByLayer
370
18
48
1
60
0
100
AcDbSpline
70
4
71
3
72
17
73
13
40
0
40
0
40
0
40
0
40
0.250000000000004
40
0.250000000000004
40
0.500000000000008
40
0.500000000000008
40
0.562500000000007
40
0.562500000000007
40
0.625000000000006
40
0.750000000000001
40
0.750000000000001
40
1
40
1
40
1
40
1
41
1
10
80.9855762334745
20
-5.7322793302086
30
0
41
1
10
81.0133829111677
20
-5.75835672327349
30
0
41
1
10
81.0391354569541
20
-5.78657265083353
30
0
41
1
10
81.0865344767145
20
-5.8475418229819
30
0
41
1
10
81.1081849431845
20
-5.88028803029641
30
0
41
1
10
81.1324798738186
20
-5.92452445958673
30
0
41
1
10
81.1372097919008
20
-5.93356003999594
30
0
41
1
10
81.1463185317025
20
-5.95185579705435
30
0
41
1
10
81.1594565322106
20
-5.97963261140666
30
0
41
1
10
81.1710191976609
20
-6.00842837276826
30
0
41
1
10
81.1919982883767
20
-6.06746174182382
30
0
41
1
10
81.2031462335242
20
-6.10872422925752
30
0
41
1
10
81.2110965144722
20
-6.15227571225392
30
0
0
SPLINE
5
113
100
AcDbEntity
8
1
62
256
6
ByLayer
370
18
48
1
60
0
100
AcDbSpline
70
4
71
3
72
24
73
20
40
0
40
0
40
0
40
0
40
0.125000000000002
40
0.125000000000002
40
0.187500000000003
40
0.187500000000003
40
0.250000000000003
40
0.250000000000003
40
0.375000000000005
40
0.375000000000005
40
0.500000000000007
40
0.500000000000007
40
0.625000000000008
40
0.625000000000008
40
0.687500000000009
40
0.687500000000009
40
0.75000000000001
40
0.75000000000001
40
1
40
1
40
1
40
1
41
1
10
80.9377458732166
20
-7.32531238193462
30
0
41
1
10
80.9280120327281
20
-7.30879406271055
30
0
41
1
10
80.9197737052854
20
-7.29151477935068
30
0
41
1
10
80.9096315184601
20
-7.2644681409688
30
0
41
1
10
80.9066126775718
20
-7.25522907262712
30
0
41
1
10
80.9013808442165
20
-7.23651607002108
30
0
41
1
10
80.899189907362
20
-7.22713369755132
30
0
41
1
10
80.8938239349426
20
-7.19891377979763
30
0
41
1
10
80.8918475817568
20
-7.1800038801195
30
0
41
1
10
80.89096557698
20
-7.14200343910477
30
0
41
1
10
80.8921075868443
20
-7.12276889201365
30
0
41
1
10
80.8972678873125
20
-7.08569795235098
30
0
41
1
10
80.9012609667826
20
-7.06768125807582
30
0
41
1
10
80.9092212834749
20
-7.04139195112737
30
0
41
1
10
80.9122049948439
20
-7.03275214019902
30
0
41
1
10
80.9188280306
20
-7.01571941905723
30
0
41
1
10
80.9224834971678
20
-7.00729827251098
30
0
41
1
10
80.9420588801953
20
-6.96651681044011
30
0
41
1
10
80.9619240379361
20
-6.93755937973498
30
0
41
1
10
80.9855762334745
20
-6.91200836528384
30
0
0
SPLINE
5
114
100
AcDbEntity
8
1
62
256
6
ByLayer
370
18
48
1
60
0
100
AcDbSpline
70
4
71
3
72
18
73
14
40
0
40
0
40
0
40
0
40
0.249999999999999
40
0.249999999999999
40
0.375
40
0.375
40
0.437500000000001
40
0.437500000000001
40
0.500000000000002
40
0.500000000000002
40
0.75
40
0.75
40
1
40
1
40
1
40
1
41
1
10
81.2110965144722
20
-6.45659584553653
30
0
41
1
10
81.2031447862662
20
-6.5015483124572
30
0
41
1
10
81.1920012746134
20
-6.54471653692571
30
0
41
1
10
81.1710551666667
20
-6.60721195875249
30
0
41
1
10
81.1633620260897
20
-6.62766445716574
30
0
41
1
10
81.1507806022954
20
-6.65780269013271
30
0
41
1
10
81.1464129109374
20
-6.66775853789193
30
0
41
1
10
81.1373309080159
20
-6.68749287346128
30
0
41
1
10
81.1326053708873
20
-6.69729299826355
30
0
41
1
10
81.1082737466664
20
-6.74553543706719
30
0
41
1
10
81.086595035287
20
-6.78172375861158
30
0
41
1
10
81.0391532380129
20
-6.84994219331509
30
0
41
1
10
81.0133859907264
20
-6.88196601643409
30
0
41
1
10
80.9855762334745
20
-6.91200836528384
30
0
0
SPLINE
5
115
100
AcDbEntity
8
1
62
256
6
ByLayer
370
18
48
1
60
0
100
AcDbSpline
70
4
71
3
72
26
73
22
40
0
40
0
40
0
40
0
40
0.25
40
0.25
40
0.312500000000004
40
0.312500000000004
40
0.375000000000009
40
0.375000000000009
40
0.500000000000031
40
0.500000000000031
40
0.562500000000034
40
0.562500000000034
40
0.625000000000037
40
0.625000000000037
40
0.750000000000024
40
0.750000000000024
40
0.812500000000018
40
0.812500000000018
40
0.875000000000012
40
0.875000000000012
40
1
40
1
40
1
40
1
41
1
10
82.3094277692452
20
-4.59698227676427
30
0
41
1
10
82.3192744801067
20
-4.5661072091354
30
0
41
1
10
82.3338349355249
20
-4.53668516162168
30
0
41
1
10
82.3584327787543
20
-4.50200709678074
30
0
41
1
10
82.3637038194214
20
-4.49515187515055
30
0
41
1
10
82.3747554844224
20
-4.48188900513327
30
0
41
1
10
82.3805455664312
20
-4.47546305987163
30
0
41
1
10
82.3987099729511
20
-4.45680754910217
30
0
41
1
10
82.4118729656349
20
-4.44519595283077
30
0
41
1
10
82.4332943226517
20
-4.42911146823803
30
0
41
1
10
82.4407155294053
20
-4.42397313106352
30
0
41
1
10
82.4561544088549
20
-4.41417359468466
30
0
41
1
10
82.4641176071788
20
-4.40955095270317
30
0
41
1
10
82.4884242758731
20
-4.39669897926683
30
0
41
1
10
82.5053042442973
20
-4.3893994547692
30
0
41
1
10
82.5316668554354
20
-4.38041998585692
30
0
41
1
10
82.5406290326835
20
-4.37775672392655
30
0
41
1
10
82.558919491073
20
-4.37312329931581
30
0
41
1
10
82.5682437016699
20
-4.37116019531004
30
0
41
1
10
82.5961296132365
20
-4.36646325550385
30
0
41
1
10
82.6148164571622
20
-4.36485444689743
30
0
41
1
10
82.6335996334354
20
-4.36476865213024
30
0
0
SPLINE
5
116
100
AcDbEntity
8
1
62
256
6
ByLayer
370
18
48
1
60
0
100
AcDbSpline
70
4
71
3
72
26
73
22
40
0
40
0
40
0
40
0
40
0.124999999999975
40
0.124999999999975
40
0.249999999999951
40
0.249999999999951
40
0.312499999999947
40
0.312499999999947
40
0.374999999999944
40
0.374999999999944
40
0.499999999999955
40
0.499999999999955
40
0.562499999999958
40
0.562499999999958
40
0.62499999999996
40
0.62499999999996
40
0.749999999999973
40
0.749999999999973
40
0.874999999999987
40
0.874999999999987
40
1
40
1
40
1
40
1
41
1
10
82.6335996334354
20
-4.36476865213024
30
0
41
1
10
82.6523160319406
20
-4.36468316237983
30
0
41
1
10
82.6712967308209
20
-4.36615884014702
30
0
41
1
10
82.7079659816225
20
-4.37207656586861
30
0
41
1
10
82.7257987462891
20
-4.37649140625956
30
0
41
1
10
82.7518071382361
20
-4.38525106959543
30
0
41
1
10
82.7603927695839
20
-4.38854824756601
30
0
41
1
10
82.7770441750798
20
-4.39575233421897
30
0
41
1
10
82.7851222380443
20
-4.3996587105031
30
0
41
1
10
82.8086443470063
20
-4.41224871634131
30
0
41
1
10
82.8233808390683
20
-4.4217978547677
30
0
41
1
10
82.8440990672929
20
-4.43779783054788
30
0
41
1
10
82.8507521086685
20
-4.4434002305174
30
0
41
1
10
82.8633829622786
20
-4.45495933641354
30
0
41
1
10
82.8693896419361
20
-4.46093775255815
30
0
41
1
10
82.8865191125776
20
-4.47944135786628
30
0
41
1
10
82.8967563969084
20
-4.49253170688257
30
0
41
1
10
82.9149195284247
20
-4.52015913776802
30
0
41
1
10
82.9226783852098
20
-4.53445136465456
30
0
41
1
10
82.9356509754285
20
-4.56371793195137
30
0
41
1
10
82.9408827223405
20
-4.57872221782276
30
0
41
1
10
82.9448796484955
20
-4.594079762023
30
0
0
SPLINE
5
117
100
AcDbEntity
8
1
62
256
6
ByLayer
370
18
48
1
60
0
100
AcDbSpline
70
4
71
3
72
24
73
20
40
0
40
0
40
0
40
0
40
0.0624999999999983
40
0.0624999999999983
40
0.124999999999997
40
0.124999999999997
40
0.249999999999997
40
0.249999999999997
40
0.312499999999998
40
0.312499999999998
40
0.374999999999998
40
0.374999999999998
40
0.499999999999998
40
0.499999999999998
40
0.624999999999999
40
0.624999999999999
40
0.749999999999999
40
0.749999999999999
40
1
40
1
40
1
40
1
41
1
10
84.3294533936544
20
-5.32624344871312
30
0
41
1
10
84.3247101824639
20
-5.31819422326265
30
0
41
1
10
84.3195655208535
20
-5.310259914347
30
0
41
1
10
84.3086052124457
20
-5.29485740496574
30
0
41
1
10
84.3028281679439
20
-5.28743665921002
30
0
41
1
10
84.2846387685807
20
-5.26598535576363
30
0
41
1
10
84.2713739833472
20
-5.2527602131417
30
0
41
1
10
84.2497838014868
20
-5.23452231525107
30
0
41
1
10
84.2422877298915
20
-5.22870507216709
30
0
41
1
10
84.2270282208402
20
-5.21782614799906
30
0
41
1
10
84.2192304838088
20
-5.21273322585569
30
0
41
1
10
84.1953542174322
20
-5.19845379700183
30
0
41
1
10
84.1787956084961
20
-5.19026034703739
30
0
41
1
10
84.144427433287
20
-5.17647896234638
30
0
41
1
10
84.1270675714894
20
-5.17107050140226
30
0
41
1
10
84.0920573141498
20
-5.16295314655019
30
0
41
1
10
84.0743458427218
20
-5.16024115037436
30
0
41
1
10
84.0211736657559
20
-5.15610240422592
30
0
41
1
10
83.9868065853913
20
-5.15863147059503
30
0
41
1
10
83.9534858602291
20
-5.16591530292106
30
0
0
SPLINE
5
118
100
AcDbEntity
8
1
62
256
6
ByLayer
370
18
48
1
60
0
100
AcDbSpline
70
4
71
3
72
28
73
24
40
0
40
0
40
0
40
0
40
0.125000000000001
40
0.125000000000001
40
0.187500000000001
40
0.187500000000001
40
0.250000000000002
40
0.250000000000002
40
0.375000000000003
40
0.375000000000003
40
0.437500000000007
40
0.437500000000007
40
0.500000000000012
40
0.500000000000012
40
0.625000000000012
40
0.625000000000012
40
0.68750000000001
40
0.68750000000001
40
0.750000000000008
40
0.750000000000008
40
0.875000000000004
40
0.875000000000004
40
1
40
1
40
1
40
1
41
1
10
83.9534858602291
20
-5.16591530292106
30
0
41
1
10
83.9031819126521
20
-5.1769116278121
30
0
41
1
10
83.851840290897
20
-5.18356993377762
30
0
41
1
10
83.7729774909245
20
-5.18679733897568
30
0
41
1
10
83.7463784339501
20
-5.18673854416454
30
0
41
1
10
83.692458720216
20
-5.18418654629636
30
0
41
1
10
83.6650665478772
20
-5.18166950507845
30
0
41
1
10
83.5835222793891
20
-5.17039743363034
30
0
41
1
10
83.5294293292785
20
-5.15797874273358
30
0
41
1
10
83.4485445096772
20
-5.13100805698508
30
0
41
1
10
83.4218464530934
20
-5.12066345301196
30
0
41
1
10
83.3701813466956
20
-5.09772877720366
30
0
41
1
10
83.3450332090018
20
-5.08508080541924
30
0
41
1
10
83.2716579483033
20
-5.04357348841114
30
0
41
1
10
83.2250497715078
20
-5.01064522725488
30
0
41
1
10
83.1632890893071
20
-4.95699611027908
30
0
41
1
10
83.1438881991679
20
-4.93832824116453
30
0
41
1
10
83.1073416816364
20
-4.89945050750725
30
0
41
1
10
83.090155253466
20
-4.87916194290938
30
0
41
1
10
83.0429748654627
20
-4.81746478779257
30
0
41
1
10
83.0168453609874
20
-4.7747998705151
30
0
41
1
10
82.9737927004677
20
-4.68632771101517
30
0
41
1
10
82.9569528483048
20
-4.64046908534675
30
0
41
1
10
82.9448796484955
20
-4.594079762023
30
0
0
SPLINE
5
119
100
AcDbEntity
8
1
62
256
6
ByLayer
370
18
48
1
60
0
100
AcDbSpline
70
4
71
3
72
24
73
20
40
0
40
0
40
0
40
0
40
0.062500000000007
40
0.062500000000007
40
0.125000000000014
40
0.125000000000014
40
0.250000000000014
40
0.250000000000014
40
0.312500000000022
40
0.312500000000022
40
0.375000000000029
40
0.375000000000029
40
0.500000000000027
40
0.500000000000027
40
0.625000000000026
40
0.625000000000026
40
0.750000000000024
40
0.750000000000024
40
1
40
1
40
1
40
1
41
1
10
80.9377458732166
20
-7.32531238193462
30
0
41
1
10
80.942489084407
20
-7.33336160738509
30
0
41
1
10
80.9476134278406
20
-7.34126212654996
30
0
41
1
10
80.9584920836187
20
-7.35652884510614
30
0
41
1
10
80.9642082540714
20
-7.36384835545306
30
0
41
1
10
80.9821568036784
20
-7.38489911837524
30
0
41
1
10
80.9951838391083
20
-7.39772887578903
30
0
41
1
10
81.0163005136567
20
-7.41517931651134
30
0
41
1
10
81.0236186157279
20
-7.42070059082346
30
0
41
1
10
81.03848996088
20
-7.43093398653383
30
0
41
1
10
81.0460768115181
20
-7.43567619814331
30
0
41
1
10
81.0692711619021
20
-7.44882157980703
30
0
41
1
10
81.0853098291922
20
-7.45615035088304
30
0
41
1
10
81.1185047460935
20
-7.467980571059
30
0
41
1
10
81.1352266226501
20
-7.47232804299921
30
0
41
1
10
81.1688629527135
20
-7.47816051469312
30
0
41
1
10
81.1858357604769
20
-7.47964409056164
30
0
41
1
10
81.2366560990347
20
-7.4798716573759
30
0
41
1
10
81.2693280847192
20
-7.47452359661514
30
0
41
1
10
81.3008215575117
20
-7.46420098761047
30
0
0
SPLINE
5
11A
100
AcDbEntity
8
1
62
256
6
ByLayer
370
18
48
1
60
0
100
AcDbSpline
70
4
71
3
72
24
73
20
40
0
40
0
40
0
40
0
40
0.125000000000017
40
0.125000000000017
40
0.187500000000023
40
0.187500000000023
40
0.250000000000028
40
0.250000000000028
40
0.375000000000031
40
0.375000000000031
40
0.500000000000033
40
0.500000000000033
40
0.625000000000036
40
0.625000000000036
40
0.687500000000033
40
0.687500000000033
40
0.750000000000031
40
0.750000000000031
40
1
40
1
40
1
40
1
41
1
10
84.3294533936544
20
-5.32624344871312
30
0
41
1
10
84.3391872341429
20
-5.34276176793713
30
0
41
1
10
84.3473413698979
20
-5.35990103794069
30
0
41
1
10
84.3572317450819
20
-5.38652890584746
30
0
41
1
10
84.360145118739
20
-5.39559257895195
30
0
41
1
10
84.3651244885987
20
-5.41388572702931
30
0
41
1
10
84.3671698175435
20
-5.42302594908392
30
0
41
1
10
84.3720433037381
20
-5.4504268471556
30
0
41
1
10
84.3736175363478
20
-5.46866800799444
30
0
41
1
10
84.3735492740975
20
-5.50508812582649
30
0
41
1
10
84.3718531279858
20
-5.52340112735925
30
0
41
1
10
84.3654828861451
20
-5.55845989744626
30
0
41
1
10
84.3608304896561
20
-5.5753801273172
30
0
41
1
10
84.3518010656708
20
-5.59989147607951
30
0
41
1
10
84.3484475599095
20
-5.60791630760269
30
0
41
1
10
84.3410575166008
20
-5.62367347168305
30
0
41
1
10
84.3370032974397
20
-5.63143148044861
30
0
41
1
10
84.3153987733075
20
-5.66883841868855
30
0
41
1
10
84.2937798836477
20
-5.69487933947715
30
0
41
1
10
84.2682365439125
20
-5.71728532318343
30
0
0
SPLINE
5
11B
100
AcDbEntity
8
1
62
256
6
ByLayer
370
18
48
1
60
0
100
AcDbSpline
70
4
71
3
72
24
73
20
40
0
40
0
40
0
40
0
40
0.24999999999998
40
0.24999999999998
40
0.312499999999979
40
0.312499999999979
40
0.374999999999978
40
0.374999999999978
40
0.499999999999982
40
0.499999999999982
40
0.624999999999986
40
0.624999999999986
40
0.74999999999999
40
0.74999999999999
40
0.812499999999993
40
0.812499999999993
40
0.874999999999995
40
0.874999999999995
40
1
40
1
40
1
40
1
41
1
10
84.2682365439125
20
-6.89701435825862
30
0
41
1
10
84.2937798836477
20
-6.92234066526771
30
0
41
1
10
84.3153987733075
20
-6.95110861182297
30
0
41
1
10
84.3370032974397
20
-6.99170197894688
30
0
41
1
10
84.3410575166008
20
-7.0000879104324
30
0
41
1
10
84.3484475599095
20
-7.01705662488877
30
0
41
1
10
84.3518010656708
20
-7.02566748969741
30
0
41
1
10
84.3608304896561
20
-7.05187919364494
30
0
41
1
10
84.3654828861452
20
-7.06985639850762
30
0
41
1
10
84.3718531279858
20
-7.1068746708163
30
0
41
1
10
84.3735492740975
20
-7.12609625423568
30
0
41
1
10
84.3736175363478
20
-7.16410041213254
30
0
41
1
10
84.3720433037381
20
-7.18302652960455
30
0
41
1
10
84.3671698175435
20
-7.211293217508
30
0
41
1
10
84.3651244885987
20
-7.22069493971037
30
0
41
1
10
84.360145118739
20
-7.23945458340569
30
0
41
1
10
84.3572317450819
20
-7.24872074796144
30
0
41
1
10
84.3473413698979
20
-7.27585888785342
30
0
41
1
10
84.3391872341429
20
-7.29321304606634
30
0
41
1
10
84.3294533936544
20
-7.30982028662788
30
0
0
SPLINE
5
11C
100
AcDbEntity
8
1
62
256
6
ByLayer
370
18
48
1
60
0
100
AcDbSpline
70
4
71
3
72
18
73
14
40
0
40
0
40
0
40
0
40
0.249999999999999
40
0.249999999999999
40
0.374999999999995
40
0.374999999999995
40
0.437499999999992
40
0.437499999999992
40
0.499999999999989
40
0.499999999999989
40
0.749999999999994
40
0.749999999999994
40
1
40
1
40
1
40
1
41
1
10
84.0227138752391
20
-6.13943325934292
30
0
41
1
10
84.0314574096269
20
-6.09579759036467
30
0
41
1
10
84.0436996055477
20
-6.05445651149813
30
0
41
1
10
84.0666520051032
20
-5.99529761409025
30
0
41
1
10
84.0750741141201
20
-5.97605741252823
30
0
41
1
10
84.0888303939159
20
-5.94787300108999
30
0
41
1
10
84.093603294903
20
-5.9385910293596
30
0
41
1
10
84.1035216859824
20
-5.92024763292369
30
0
41
1
10
84.10867941587
20
-5.91116625792228
30
0
41
1
10
84.1352194361507
20
-5.86659644943273
30
0
41
1
10
84.1588128843517
20
-5.83359239389137
30
0
41
1
10
84.2103023830942
20
-5.77210541075357
30
0
41
1
10
84.2382032188333
20
-5.74362981060534
30
0
41
1
10
84.2682365439125
20
-5.71728532318343
30
0
0
SPLINE
5
11D
100
AcDbEntity
8
1
62
256
6
ByLayer
370
18
48
1
60
0
100
AcDbSpline
70
4
71
3
72
17
73
13
40
0
40
0
40
0
40
0
40
0.250000000000004
40
0.250000000000004
40
0.500000000000008
40
0.500000000000008
40
0.562500000000002
40
0.562500000000002
40
0.624999999999996
40
0.749999999999996
40
0.749999999999996
40
1
40
1
40
1
40
1
41
1
10
84.2682365439125
20
-6.89701435825862
30
0
41
1
10
84.2382065446226
20
-6.86723951325462
30
0
41
1
10
84.2103216101355
20
-6.83547735794804
30
0
41
1
10
84.1588786807081
20
-6.76778304011606
30
0
41
1
10
84.1353160874997
20
-6.73185690744714
30
0
41
1
10
84.1088163555844
20
-6.68395382607014
30
0
41
1
10
84.1036539082636
20
-6.67419893628397
30
0
41
1
10
84.093706412451
20
-6.65450830227962
30
0
41
1
10
84.0793496516288
20
-6.62470465218172
30
0
41
1
10
84.0666914004055
20
-6.59408689811028
30
0
41
1
10
84.043702915598
20
-6.53171184511137
30
0
41
1
10
84.0314558182561
20
-6.48862143389982
30
0
41
1
10
84.0227138752391
20
-6.44375339262552
30
0
0
SPLINE
5
11E
100
AcDbEntity
8
1
62
256
6
ByLayer
370
18
48
1
60
0
100
AcDbSpline
70
4
71
3
72
26
73
22
40
0
40
0
40
0
40
0
40
0.125000000000021
40
0.125000000000021
40
0.250000000000042
40
0.250000000000042
40
0.312500000000053
40
0.312500000000053
40
0.375000000000064
40
0.375000000000064
40
0.500000000000067
40
0.500000000000067
40
0.562500000000058
40
0.562500000000058
40
0.62500000000005
40
0.62500000000005
40
0.750000000000033
40
0.750000000000033
40
0.875000000000017
40
0.875000000000017
40
1
40
1
40
1
40
1
41
1
10
82.6335996334356
20
-8.28678717851744
30
0
41
1
10
82.6148832349304
20
-8.2868726682679
30
0
41
1
10
82.5958202624083
20
-8.28526016691353
30
0
41
1
10
82.5588295566897
20
-8.27880785181537
30
0
41
1
10
82.5407590098721
20
-8.27399757242159
30
0
41
1
10
82.5142786483869
20
-8.26445300928259
30
0
41
1
10
82.5055153284942
20
-8.26086032981698
30
0
41
1
10
82.4884750964681
20
-8.25300961273052
30
0
41
1
10
82.4801859251412
20
-8.24875215677133
30
0
41
1
10
82.4559818183772
20
-8.23502796769151
30
0
41
1
10
82.4407260999191
20
-8.22461533985899
30
0
41
1
10
82.4191311914398
20
-8.20715741795328
30
0
41
1
10
82.4121701577155
20
-8.20104281727112
30
0
41
1
10
82.3989012129271
20
-8.18842254619386
30
0
41
1
10
82.3925632471883
20
-8.18189319114521
30
0
41
1
10
82.3744037476465
20
-8.16167661621552
30
0
41
1
10
82.3634317608961
20
-8.14736443456377
30
0
41
1
10
82.3437006764378
20
-8.11712944989284
30
0
41
1
10
82.3351223977086
20
-8.10147449920584
30
0
41
1
10
82.3204512027266
20
-8.06938310014169
30
0
41
1
10
82.3143385903617
20
-8.05291390803166
30
0
41
1
10
82.3094277692452
20
-8.03603652850848
30
0
0
SPLINE
5
11F
100
AcDbEntity
8
1
62
256
6
ByLayer
370
18
48
1
60
0
100
AcDbSpline
70
4
71
3
72
28
73
24
40
0
40
0
40
0
40
0
40
0.125000000000005
40
0.125000000000005
40
0.187500000000008
40
0.187500000000008
40
0.25000000000001
40
0.25000000000001
40
0.375000000000016
40
0.375000000000016
40
0.437500000000018
40
0.437500000000018
40
0.500000000000021
40
0.500000000000021
40
0.62500000000002
40
0.62500000000002
40
0.687500000000017
40
0.687500000000017
40
0.750000000000013
40
0.750000000000013
40
0.875000000000007
40
0.875000000000007
40
1
40
1
40
1
40
1
41
1
10
81.3008215575117
20
-7.46420098761047
30
0
41
1
10
81.3483669214453
20
-7.44861705359625
30
0
41
1
10
81.3970992417898
20
-7.43761939943465
30
0
41
1
10
81.4723395071755
20
-7.4283676082224
30
0
41
1
10
81.4977801889873
20
-7.42649998964504
30
0
41
1
10
81.5495020171511
20
-7.42539683646561
30
0
41
1
10
81.5758531106707
20
-7.42618253170798
30
0
41
1
10
81.6545585688283
20
-7.43273357459361
30
0
41
1
10
81.7071090562118
20
-7.44258710271379
30
0
41
1
10
81.7863771049439
20
-7.46686904896791
30
0
41
1
10
81.8126599574977
20
-7.47652315591728
30
0
41
1
10
81.8637727320012
20
-7.4985392868615
30
0
41
1
10
81.8887799349307
20
-7.51095287981479
30
0
41
1
10
81.9621470528479
20
-7.55244665512794
30
0
41
1
10
82.0093281310043
20
-7.58632766880118
30
0
41
1
10
82.0726842105968
20
-7.6426299805234
30
0
41
1
10
82.0927367253498
20
-7.66238152133701
30
0
41
1
10
82.1308024420113
20
-7.70378572969622
30
0
41
1
10
82.1488607540023
20
-7.72552426380287
30
0
41
1
10
82.1988793423261
20
-7.79194143301652
30
0
41
1
10
82.2272087124301
20
-7.83826479423948
30
0
41
1
10
82.2751048236551
20
-7.93479176066774
30
0
41
1
10
82.294594038957
20
-7.98505635841428
30
0
41
1
10
82.3094277692452
20
-8.03603652850848
30
0
0
SPLINE
5
120
100
AcDbEntity
8
1
62
256
6
ByLayer
370
18
48
1
60
0
100
AcDbSpline
70
4
71
3
72
34
73
30
40
0
40
0
40
0
40
0
40
0.124999999999996
40
0.124999999999996
40
0.187499999999995
40
0.187499999999995
40
0.218749999999995
40
0.218749999999995
40
0.249999999999995
40
0.249999999999995
40
0.374999999999984
40
0.374999999999984
40
0.406249999999985
40
0.406249999999985
40
0.437499999999986
40
0.499999999999986
40
0.562499999999987
40
0.562499999999987
40
0.624999999999988
40
0.624999999999988
40
0.687499999999988
40
0.687499999999988
40
0.749999999999989
40
0.749999999999989
40
0.874999999999998
40
0.874999999999998
40
0.937499999999999
40
0.937499999999999
40
1
40
1
40
1
40
1
41
1
10
82.9448796484955
20
-8.03313401376721
30
0
41
1
10
82.9569443330147
20
-7.98206698579156
30
0
41
1
10
82.9735094153746
20
-7.9324059608295
30
0
41
1
10
83.0055757117412
20
-7.85995274942741
30
0
41
1
10
83.0174768355636
20
-7.83614320310539
30
0
41
1
10
83.0373147048635
20
-7.80095229343317
30
0
41
1
10
83.0442759928565
20
-7.78928324971605
30
0
41
1
10
83.0588241495285
20
-7.76624822612121
30
0
41
1
10
83.066385976139
20
-7.75491887462084
30
0
41
1
10
83.1056586061699
20
-7.6992159549236
30
0
41
1
10
83.1416960270997
20
-7.65763325257018
30
0
41
1
10
83.1935028518942
20
-7.60980145778484
30
0
41
1
10
83.2042234377506
20
-7.60043586749623
30
0
41
1
10
83.2260244585169
20
-7.58243371737257
30
0
41
1
10
83.2593855292284
20
-7.55640955430289
30
0
41
1
10
83.3182561298647
20
-7.51788271011588
30
0
41
1
10
83.3688696099849
20
-7.49227144296788
30
0
41
1
10
83.4213084639005
20
-7.46936657549878
30
0
41
1
10
83.4478091836482
20
-7.45954289159073
30
0
41
1
10
83.5012933174461
20
-7.44292713598458
30
0
41
1
10
83.5282861990338
20
-7.43613182926026
30
0
41
1
10
83.5827742390567
20
-7.42543260726887
30
0
41
1
10
83.6103646026766
20
-7.42153659850356
30
0
41
1
10
83.6919508096006
20
-7.41421639879468
30
0
41
1
10
83.7454076164728
20
-7.41493951278886
30
0
41
1
10
83.8246020331559
20
-7.42342137356957
30
0
41
1
10
83.8509143171502
20
-7.42751440413878
30
0
41
1
10
83.9027799118936
20
-7.43806591497696
30
0
41
1
10
83.9283161350422
20
-7.44451073644558
30
0
41
1
10
83.9534858602291
20
-7.45208457487536
30
0
0
SPLINE
5
121
100
AcDbEntity
8
1
62
256
6
ByLayer
370
18
48
1
60
0
100
AcDbSpline
70
4
71
3
72
26
73
22
40
0
40
0
40
0
40
0
40
0.249999999999964
40
0.249999999999964
40
0.312499999999958
40
0.312499999999958
40
0.374999999999951
40
0.374999999999951
40
0.499999999999929
40
0.499999999999929
40
0.562499999999925
40
0.562499999999925
40
0.624999999999921
40
0.624999999999921
40
0.749999999999934
40
0.749999999999934
40
0.812499999999951
40
0.812499999999951
40
0.874999999999967
40
0.874999999999967
40
1
40
1
40
1
40
1
41
1
10
82.9448796484955
20
-8.03313401376721
30
0
41
1
10
82.9368653927833
20
-8.06705651045678
30
0
41
1
10
82.924000288982
20
-8.09929797965577
30
0
41
1
10
82.9013583746436
20
-8.13722881417283
30
0
41
1
10
82.8964716911111
20
-8.14472323349486
30
0
41
1
10
82.8861596792749
20
-8.15921616938857
30
0
41
1
10
82.8807259440341
20
-8.16623473024418
30
0
41
1
10
82.8635910020299
20
-8.18660227204646
30
0
41
1
10
82.851061814809
20
-8.19926790622259
30
0
41
1
10
82.8305113132402
20
-8.21680065010889
30
0
41
1
10
82.8233670203813
20
-8.22239950357516
30
0
41
1
10
82.8084541585911
20
-8.23307382343893
30
0
41
1
10
82.8007379889676
20
-8.23810728171833
30
0
41
1
10
82.777115637115
20
-8.25209729503007
30
0
41
1
10
82.7606208608596
20
-8.26003740590704
30
0
41
1
10
82.7347292044601
20
-8.26980008698001
30
0
41
1
10
82.7259061086227
20
-8.27269464555769
30
0
41
1
10
82.7078566372629
20
-8.2777288389828
30
0
41
1
10
82.6986339590219
20
-8.2798607944074
30
0
41
1
10
82.670989433367
20
-8.2849591663811
30
0
41
1
10
82.6523828097088
20
-8.28670138375031
30
0
41
1
10
82.6335996334356
20
-8.28678717851744
30
0
0
SPLINE
5
122
100
AcDbEntity
8
1
62
256
6
ByLayer
370
18
48
1
60
0
100
AcDbSpline
70
4
71
3
72
24
73
20
40
0
40
0
40
0
40
0
40
0.0624999999999904
40
0.0624999999999904
40
0.124999999999981
40
0.124999999999981
40
0.249999999999965
40
0.249999999999965
40
0.312499999999966
40
0.312499999999966
40
0.374999999999967
40
0.374999999999967
40
0.499999999999969
40
0.499999999999969
40
0.624999999999971
40
0.624999999999971
40
0.749999999999972
40
0.749999999999972
40
1
40
1
40
1
40
1
41
1
10
84.3294533936544
20
-7.30982028662788
30
0
41
1
10
84.3247101824639
20
-7.31791284263051
30
0
41
1
10
84.3195655208535
20
-7.32586026690262
30
0
41
1
10
84.3086052124457
20
-7.34122673796179
30
0
41
1
10
84.3028281679439
20
-7.34859874516474
30
0
41
1
10
84.2846387685807
20
-7.36981457318944
30
0
41
1
10
84.2713739833472
20
-7.38276442214686
30
0
41
1
10
84.2497838014868
20
-7.40040993236897
30
0
41
1
10
84.2422877298915
20
-7.40599887247748
30
0
41
1
10
84.2270282208402
20
-7.41636989505048
30
0
41
1
10
84.2192304838088
20
-7.42118237790152
30
0
41
1
10
84.1953542174322
20
-7.43454276114676
30
0
41
1
10
84.1787956084961
20
-7.44202042481066
30
0
41
1
10
84.144427433287
20
-7.45415924879632
30
0
41
1
10
84.1270675714895
20
-7.45866239381144
30
0
41
1
10
84.0920573141498
20
-7.46480841833028
30
0
41
1
10
84.0743458427218
20
-7.46645041946266
30
0
41
1
10
84.0211736657559
20
-7.46715298653919
30
0
41
1
10
83.9868065853913
20
-7.46211113602629
30
0
41
1
10
83.9534858602291
20
-7.45208457487536
30
0
0
SPLINE
5
123
100
AcDbEntity
8
1
62
256
6
ByLayer
370
13
48
1
60
0
100
AcDbSpline
70
4
71
3
72
8
73
4
40
0
40
0
40
0
40
0
40
1
40
1
40
1
40
1
41
1
10
95.5920321638905
20
-10.0226354980769
30
0
41
1
10
95.7494515805922
20
-10.0226391586504
30
0
41
1
10
95.9068709972938
20
-10.022642819366
30
0
41
1
10
96.0642904139955
20
-10.0226464802237
30
0
0
SPLINE
5
124
100
AcDbEntity
8
1
62
256
6
ByLayer
370
13
48
1
60
0
100
AcDbSpline
70
4
71
5
72
12
73
6
40
0
40
0
40
0
40
0
40
0
40
0
40
1
40
1
40
1
40
1
40
1
40
1
41
1
10
95.5920328334111
20
-10.1814867114834
30
0
41
1
10
95.592032949624
20
-10.1467132281609
30
0
41
1
10
95.5920325576971
20
-10.1112744892935
30
0
41
1
10
95.592032374206
20
-10.0773830916086
30
0
41
1
10
95.592032297615
20
-10.0473165843491
30
0
41
1
10
95.592032220432
20
-10.0226341700356
30
0
0
SPLINE
5
125
100
AcDbEntity
8
1
62
256
6
ByLayer
370
18
48
1
60
0
100
AcDbSpline
70
4
71
3
72
21
73
17
40
0
40
0
40
0
40
0
40
0.0376941646452458
40
0.0758948468005065
40
0.114950928485297
40
0.155189123158874
40
0.196908423846764
40
0.240377290903041
40
0.285833200910198
40
0.333483927517224
40
0.383509898205975
40
0.436067078512508
40
0.491289989645723
40
0.639689025987204
40
0.808982932423468
40
1
40
1
40
1
40
1
41
1
10
95.9110807179609
20
-11.4049332946612
30
0
41
1
10
95.9111739839622
20
-11.4079516640302
30
0
41
1
10
95.911361769232
20
-11.4140289622804
30
0
41
1
10
95.9127913921396
20
-11.4230765305934
30
0
41
1
10
95.9150573883589
20
-11.4320792817408
30
0
41
1
10
95.9182431676244
20
-11.4410127746156
30
0
41
1
10
95.9223230409248
20
-11.4498578825971
30
0
41
1
10
95.9273019954701
20
-11.4585946874684
30
0
41
1
10
95.9331768775568
20
-11.4672039100843
30
0
41
1
10
95.9399473375556
20
-11.4756662850101
30
0
41
1
10
95.9476128452508
20
-11.4839624533947
30
0
41
1
10
95.9561726930019
20
-11.492073372965
30
0
41
1
10
95.9707848956112
20
-11.5042885593801
30
0
41
1
10
95.9936463663148
20
-11.5196919306679
30
0
41
1
10
96.0266905466021
20
-11.5370373815964
30
0
41
1
10
96.0512632948646
20
-11.5462910211401
30
0
41
1
10
96.064290414919
20
-11.5511967920367
30
0
0
SPLINE
5
126
100
AcDbEntity
8
1
62
256
6
ByLayer
370
18
48
1
60
0
100
AcDbSpline
70
4
71
5
72
15
73
9
40
0
40
0
40
0
40
0
40
0
40
0
40
0.590893213830289
40
0.590893213830289
40
0.590893213830289
40
1
40
1
40
1
40
1
40
1
40
1
41
1
10
96.7429963854601
20
-11.7880885842882
30
0
41
1
10
96.77930285252
20
-11.8007883734755
30
0
41
1
10
96.81618675896
20
-11.8163123359058
30
0
41
1
10
96.85104600165
20
-11.8348696736325
30
0
41
1
10
96.90750938492
20
-11.8721274372127
30
0
41
1
10
96.95079686462
20
-11.9258460829332
30
0
41
1
10
96.96456222251
20
-11.9504114673646
30
0
41
1
10
96.97261264913
20
-11.9777472123463
30
0
41
1
10
96.9726124490401
20
-12.0077995420618
30
0
0
SPLINE
5
127
100
AcDbEntity
8
1
62
256
6
ByLayer
370
18
48
1
60
0
100
AcDbSpline
70
4
71
5
72
15
73
9
40
0
40
0
40
0
40
0
40
0
40
0
40
0.590893213830289
40
0.590893213830289
40
0.590893213830289
40
1
40
1
40
1
40
1
40
1
40
1
41
1
10
96.7429963854601
20
-9.73057526929477
30
0
41
1
10
96.77930285252
20
-9.71492438951179
30
0
41
1
10
96.81618675896
20
-9.69640159709451
30
0
41
1
10
96.85104600165
20
-9.67501273684792
30
0
41
1
10
96.90750938492
20
-9.63316305509773
30
0
41
1
10
96.95079686462
20
-9.57592793615402
30
0
41
1
10
96.96456222251
20
-9.5502424187469
30
0
41
1
10
96.97261264913
20
-9.52225279285733
30
0
41
1
10
96.9726124490401
20
-9.49220047940537
30
0
0
SPLINE
5
128
100
AcDbEntity
8
1
62
256
6
ByLayer
370
18
48
1
60
0
100
AcDbSpline
70
4
71
2
72
8
73
5
40
0
40
0
40
0
40
0.5
40
0.5
40
1
40
1
40
1
41
1
10
95.9110807179612
20
-10.1813509773922
30
0
41
1
10
95.9114426318718
20
-10.1293395919084
30
0
41
1
10
95.9655341069384
20
-10.0821050724688
30
0
41
1
10
96.0036786069145
20
-10.0487959951436
30
0
41
1
10
96.0642904149191
20
-10.0226341700356
30
0
0
SPLINE
5
129
100
AcDbEntity
8
1
62
256
6
ByLayer
370
18
48
1
60
0
100
AcDbSpline
70
4
71
9
72
20
73
10
40
0
40
0
40
0
40
0
40
0
40
0
40
0
40
0
40
0
40
0
40
1
40
1
40
1
40
1
40
1
40
1
40
1
40
1
40
1
40
1
41
1
10
95.4040926416958
20
-10.1700170773437
30
0
41
1
10
95.4133780640969
20
-10.1722406566993
30
0
41
1
10
95.4265597428206
20
-10.1743406445728
30
0
41
1
10
95.4433901784244
20
-10.1762577720739
30
0
41
1
10
95.4634833968893
20
-10.1779371629545
30
0
41
1
10
95.4863272758342
20
-10.1793312816291
30
0
41
1
10
95.5113061649699
20
-10.1804025564704
30
0
41
1
10
95.5377324038914
20
-10.1811253017722
30
0
41
1
10
95.5648823108201
20
-10.1814866743936
30
0
41
1
10
95.592032219395
20
-10.1814866743977
30
0
0
SPLINE
5
12A
100
AcDbEntity
8
1
62
256
6
ByLayer
370
18
48
1
60
0
100
AcDbSpline
70
4
71
5
72
12
73
6
40
0
40
0
40
0
40
0
40
0
40
0
40
1
40
1
40
1
40
1
40
1
40
1
41
1
10
95.4040928284219
20
-10.1700167551118
30
0
41
1
10
95.4155194407075
20
-10.1305425308231
30
0
41
1
10
95.4440231523317
20
-10.0904996413539
30
0
41
1
10
95.4880425886805
20
-10.0559793467042
30
0
41
1
10
95.5400552702366
20
-10.0328808388328
30
0
41
1
10
95.592032069967
20
-10.0226337392054
30
0
0
SPLINE
5
12B
100
AcDbEntity
8
1
62
256
6
ByLayer
370
13
48
1
60
0
100
AcDbSpline
70
4
71
5
72
12
73
6
40
0
40
0
40
0
40
0
40
0
40
0
40
1
40
1
40
1
40
1
40
1
40
1
41
1
10
95.5066737447105
20
-9.80616395441484
30
0
41
1
10
95.5237444095704
20
-9.84945810856817
30
0
41
1
10
95.5408150744305
20
-9.89275226272048
30
0
41
1
10
95.5578857392904
20
-9.93604641687375
30
0
41
1
10
95.5749564041505
20
-9.97934057102702
30
0
41
1
10
95.5920270690104
20
-10.0226347251794
30
0
0
SPLINE
5
12C
100
AcDbEntity
8
1
62
256
6
ByLayer
370
13
48
1
60
0
100
AcDbSpline
70
4
71
5
72
12
73
6
40
0
40
0
40
0
40
0
40
0
40
0
40
1
40
1
40
1
40
1
40
1
40
1
41
1
10
95.3187424854002
20
-9.95353568685772
30
0
41
1
10
95.3301720651733
20
-9.91406340349596
30
0
41
1
10
95.3586767179963
20
-9.87402346758603
30
0
41
1
10
95.4026946917112
20
-9.83950616573173
30
0
41
1
10
95.4547046577277
20
-9.81640953344316
30
0
41
1
10
95.506678745667
20
-9.80616296844084
30
0
0
SPLINE
5
12D
100
AcDbEntity
8
1
62
256
6
ByLayer
370
13
48
1
60
0
100
AcDbSpline
70
4
71
1
72
4
73
2
40
0
40
0
40
1
40
1
41
1
10
96.7429963854601
20
-9.73057526929477
30
0
41
1
10
95.4622653126997
20
-9.73057526929477
30
0
0
SPLINE
5
12E
100
AcDbEntity
8
1
62
256
6
ByLayer
370
13
48
1
60
0
100
AcDbSpline
70
4
71
5
72
12
73
6
40
0
40
0
40
0
40
0
40
0
40
0
40
1
40
1
40
1
40
1
40
1
40
1
41
1
10
95.4641927321125
20
-9.73051316047787
30
0
41
1
10
95.4750095458085
20
-9.74500233058734
30
0
41
1
10
95.484662026458
20
-9.75988888552632
30
0
41
1
10
95.4931400349831
20
-9.77509479432678
30
0
41
1
10
95.5004660184419
20
-9.79053998993322
30
0
41
1
10
95.5067054534165
20
-9.80614778758678
30
0
0
SPLINE
5
12F
100
AcDbEntity
8
1
62
256
6
ByLayer
370
13
48
1
60
0
100
AcDbSpline
70
4
71
5
72
12
73
6
40
0
40
0
40
0
40
0
40
0
40
0
40
1
40
1
40
1
40
1
40
1
40
1
41
1
10
95.5920328334111
20
-11.4047975691381
30
0
41
1
10
95.592032949624
20
-11.4395709613435
30
0
41
1
10
95.5920325576971
20
-11.4736827629046
30
0
41
1
10
95.592032374206
20
-11.5049172592227
30
0
41
1
10
95.592032297615
20
-11.5311754152996
30
0
41
1
10
95.592032220432
20
-11.5511967920367
30
0
0
SPLINE
5
130
100
AcDbEntity
8
1
62
256
6
ByLayer
370
13
48
1
60
0
100
AcDbSpline
70
4
71
1
72
4
73
2
40
0
40
0
40
1
40
1
41
1
10
95.5920321638905
20
-11.5511938813439
30
0
41
1
10
96.0642904139955
20
-11.5511698151091
30
0
0
SPLINE
5
131
100
AcDbEntity
8
1
62
256
6
ByLayer
370
18
48
1
60
0
100
AcDbSpline
70
4
71
9
72
20
73
10
40
0
40
0
40
0
40
0
40
0
40
0
40
0
40
0
40
0
40
0
40
1
40
1
40
1
40
1
40
1
40
1
40
1
40
1
40
1
40
1
41
1
10
95.4040926416958
20
-11.3933279349985
30
0
41
1
10
95.4133780640969
20
-11.3955515143541
30
0
41
1
10
95.4265597428206
20
-11.3976515022276
30
0
41
1
10
95.4433901784244
20
-11.3995686297287
30
0
41
1
10
95.4634833968893
20
-11.4012480206092
30
0
41
1
10
95.4863272758342
20
-11.4026421392839
30
0
41
1
10
95.5113061649699
20
-11.4037134141251
30
0
41
1
10
95.5377324038914
20
-11.4044361594269
30
0
41
1
10
95.5648823108201
20
-11.4047975320484
30
0
41
1
10
95.592032219395
20
-11.4047975320524
30
0
0
SPLINE
5
132
100
AcDbEntity
8
1
62
256
6
ByLayer
370
18
48
1
60
0
100
AcDbSpline
70
4
71
5
72
12
73
6
40
0
40
0
40
0
40
0
40
0
40
0
40
1
40
1
40
1
40
1
40
1
40
1
41
1
10
95.4040928284219
20
-11.3933283616101
30
0
41
1
10
95.4155194407075
20
-11.4382751236265
30
0
41
1
10
95.4440231523317
20
-11.4827114494709
30
0
41
1
10
95.4880425886805
20
-11.5196877282598
30
0
41
1
10
95.5400552702366
20
-11.5428851065723
30
0
41
1
10
95.592032069967
20
-11.5511971460187
30
0
0
SPLINE
5
133
100
AcDbEntity
8
1
62
256
6
ByLayer
370
18
48
1
60
0
100
AcDbSpline
70
4
71
5
72
12
73
6
40
0
40
0
40
0
40
0
40
0
40
0
40
1
40
1
40
1
40
1
40
1
40
1
41
1
10
95.2231361934751
20
-10.7383382426613
30
0
41
1
10
95.22313470959
20
-10.7278904214105
30
0
41
1
10
95.2234699989191
20
-10.7175053698595
30
0
41
1
10
95.224136086563
20
-10.707378225853
30
0
41
1
10
95.225116655904
20
-10.6975745758451
30
0
41
1
10
95.2264359680561
20
-10.6879594515758
30
0
0
SPLINE
5
134
100
AcDbEntity
8
1
62
256
6
ByLayer
370
13
48
1
60
0
100
AcDbSpline
70
4
71
5
72
12
73
6
40
0
40
0
40
0
40
0
40
0
40
0
40
1
40
1
40
1
40
1
40
1
40
1
41
1
10
95.318756775914
20
-11.5689316386581
30
0
41
1
10
95.3301861722291
20
-11.6138752109672
30
0
41
1
10
95.3586893214964
20
-11.6583082888405
30
0
41
1
10
95.4027053563477
20
-11.6952830210249
30
0
41
1
10
95.4547141245852
20
-11.7184822000849
30
0
41
1
10
95.5066886162272
20
-11.7267991004531
30
0
0
SPLINE
5
135
100
AcDbEntity
8
1
62
256
6
ByLayer
370
13
48
1
60
0
100
AcDbSpline
70
4
71
1
72
4
73
2
40
0
40
0
40
1
40
1
41
1
10
95.5066735955871
20
-11.7267701234208
30
0
41
1
10
95.5920318044175
20
-11.5511947576056
30
0
0
SPLINE
5
136
100
AcDbEntity
8
1
62
256
6
ByLayer
370
13
48
1
60
0
100
AcDbSpline
70
4
71
2
72
6
73
3
40
0
40
0
40
0
40
1
40
1
40
1
41
1
10
95.4641927309452
20
-11.7881291481698
30
0
41
1
10
95.4905786688568
20
-11.7593881844401
30
0
41
1
10
95.5067054525144
20
-11.7267829361918
30
0
0
SPLINE
5
137
100
AcDbEntity
8
1
62
256
6
ByLayer
370
13
48
1
60
0
100
AcDbSpline
70
4
71
1
72
4
73
2
40
0
40
0
40
1
40
1
41
1
10
96.742996384656
20
-11.7880717756619
30
0
41
1
10
95.4622653138625
20
-11.7881128919099
30
0
0
SPLINE
5
138
100
AcDbEntity
8
1
62
256
6
ByLayer
370
13
48
1
60
0
100
AcDbSpline
70
4
71
3
72
8
73
4
40
0
40
0
40
0
40
0
40
1
40
1
40
1
40
1
41
1
10
95.2945101402996
20
-9.89565941043611
30
0
41
1
10
95.3047493381323
20
-9.91419927492547
30
0
41
1
10
95.3129101795943
20
-9.93347133022451
30
0
41
1
10
95.3187535994288
20
-9.95346660170219
30
0
0
SPLINE
5
139
100
AcDbEntity
8
1
62
256
6
ByLayer
370
18
48
1
60
0
100
AcDbSpline
70
4
71
5
72
12
73
6
40
0
40
0
40
0
40
0
40
0
40
0
40
1
40
1
40
1
40
1
40
1
40
1
41
1
10
95.2231361934751
20
-10.7383403173853
30
0
41
1
10
95.22313470959
20
-10.7487874196293
30
0
41
1
10
95.2234699989191
20
-10.7593330455842
30
0
41
1
10
95.224136086563
20
-10.7697791959574
30
0
41
1
10
95.225116655904
20
-10.7800524697041
30
0
41
1
10
95.2264359680561
20
-10.7902994545373
30
0
0
SPLINE
5
13A
100
AcDbEntity
8
1
62
256
6
ByLayer
370
13
48
1
60
0
100
AcDbSpline
70
4
71
3
72
21
73
17
40
0
40
0
40
0
40
0
40
0.0390566536954257
40
0.08256336912167
40
0.130521481477599
40
0.182937420217609
40
0.239825280184118
40
0.367158114226203
40
0.449691972765473
40
0.487358396550611
40
0.583888044455916
40
0.675912994344508
40
0.763493141901204
40
0.846674851503384
40
0.925497394149339
40
1
40
1
40
1
40
1
41
1
10
95.1715410569994
20
-9.72979601169078
30
0
41
1
10
95.1735626936776
20
-9.73175775042085
30
0
41
1
10
95.1778363095532
20
-9.73590474571017
30
0
41
1
10
95.1843965880479
20
-9.74264288666012
30
0
41
1
10
95.1914730682574
20
-9.75019944187676
30
0
41
1
10
95.1990136578291
20
-9.75860943234665
30
0
41
1
10
95.2100424899878
20
-9.7714922764286
30
0
41
1
10
95.2219733256255
20
-9.78631544820951
30
0
41
1
10
95.2324928110297
20
-9.80031589019831
30
0
41
1
10
95.2414008052696
20
-9.81270025846965
30
0
41
1
10
95.2505265807586
20
-9.82556271531126
30
0
41
1
10
95.2611549464434
20
-9.8412856378564
30
0
41
1
10
95.2708163953768
20
-9.85617679495817
30
0
41
1
10
95.2795323403363
20
-9.87019985844347
30
0
41
1
10
95.2873973363139
20
-9.88334333626614
30
0
41
1
10
95.2921477759941
20
-9.89165231732193
30
0
41
1
10
95.2944560740037
20
-9.89568975505927
30
0
0
SPLINE
5
13B
100
AcDbEntity
8
1
62
256
6
ByLayer
370
18
48
1
60
0
100
AcDbSpline
70
4
71
5
72
12
73
6
40
0
40
0
40
0
40
0
40
0
40
0
40
1
40
1
40
1
40
1
40
1
40
1
41
1
10
95.294512283925
20
-9.89565911080661
30
0
41
1
10
95.3072027305511
20
-9.85624084291896
30
0
41
1
10
95.3337197308031
20
-9.8148697202742
30
0
41
1
10
95.3724488955463
20
-9.77696883339382
30
0
41
1
10
95.4175113078937
20
-9.74828597384044
30
0
41
1
10
95.4626759414025
20
-9.73108561314547
30
0
0
SPLINE
5
13C
100
AcDbEntity
8
1
62
256
6
ByLayer
370
18
48
1
60
0
100
AcDbSpline
70
4
71
5
72
12
73
6
40
0
40
0
40
0
40
0
40
0
40
0
40
1
40
1
40
1
40
1
40
1
40
1
41
1
10
95.171495234694
20
-9.72985780219875
30
0
41
1
10
95.1440000781211
20
-9.72195738400757
30
0
41
1
10
95.1150540613851
20
-9.7152390934674
30
0
41
1
10
95.085206705501
20
-9.70979721945889
30
0
41
1
10
95.054982779429
20
-9.70565660778414
30
0
41
1
10
95.0247107325171
20
-9.70277477224255
30
0
0
SPLINE
5
13D
100
AcDbEntity
8
1
62
256
6
ByLayer
370
18
48
1
60
0
100
AcDbSpline
70
4
71
3
72
21
73
17
40
0
40
0
40
0
40
0
40
0.221373756727595
40
0.221373756727595
40
0.286259277000296
40
0.286259277000296
40
0.351144797272998
40
0.351144797272998
40
0.4809158378184
40
0.610686878363803
40
0.610686878363803
40
0.675572398636504
40
0.675572398636504
40
0.740457918909205
40
0.740457918909205
40
1
40
1
40
1
40
1
41
1
10
89.4908649022375
20
-12.4999998033413
30
0
41
1
10
89.5422436575162
20
-12.4999849668303
30
0
41
1
10
89.5981119052504
20
-12.4995910033424
30
0
41
1
10
89.6761417530691
20
-12.4988412881967
30
0
41
1
10
89.6942170114958
20
-12.4986550768902
30
0
41
1
10
89.7311603698547
20
-12.4982588412896
30
0
41
1
10
89.7500530306595
20
-12.4980485167754
30
0
41
1
10
89.8072539048073
20
-12.4974026730874
30
0
41
1
10
89.885332831046
20
-12.4964984676089
30
0
41
1
10
89.9669467629418
20
-12.49563656819
30
0
41
1
10
90.0294947046267
20
-12.4950459402683
30
0
41
1
10
90.050567387827
20
-12.4948582874368
30
0
41
1
10
90.09316715047
20
-12.4945072656635
30
0
41
1
10
90.1147386503183
20
-12.4943436006563
30
0
41
1
10
90.2232316402805
20
-12.4936029052483
30
0
41
1
10
90.3110826815308
20
-12.4932718067628
30
0
41
1
10
90.399997596165
20
-12.4932718067628
30
0
0
SPLINE
5
13E
100
AcDbEntity
8
1
62
256
6
ByLayer
370
13
48
1
60
0
100
AcDbSpline
70
4
71
5
72
12
73
6
40
0
40
0
40
0
40
0
40
0
40
0
40
1
40
1
40
1
40
1
40
1
40
1
41
1
10
95.254508167448
20
-9.60548093336371
30
0
41
1
10
95.3030889298072
20
-9.62600034549263
30
0
41
1
10
95.3484232890519
20
-9.65018844412697
30
0
41
1
10
95.3905703850342
20
-9.6762888644198
30
0
41
1
10
95.4301795395701
20
-9.70307054038619
30
0
41
1
10
95.4632768537676
20
-9.72995018594662
30
0
0
SPLINE
5
13F
100
AcDbEntity
8
1
62
256
6
ByLayer
370
18
48
1
60
0
100
AcDbSpline
70
4
71
5
72
12
73
6
40
0
40
0
40
0
40
0
40
0
40
0
40
1
40
1
40
1
40
1
40
1
40
1
41
1
10
95.1998720460706
20
-10.6597090273201
30
0
41
1
10
95.2062803670889
20
-10.6652561225739
30
0
41
1
10
95.2121577403112
20
-10.6708711627041
30
0
41
1
10
95.2174855104267
20
-10.6765378540521
30
0
41
1
10
95.2222482809818
20
-10.6822394407936
30
0
41
1
10
95.226434438302
20
-10.6879589302441
30
0
0
SPLINE
5
140
100
AcDbEntity
8
1
62
256
6
ByLayer
370
18
48
1
60
0
100
AcDbSpline
70
4
71
5
72
12
73
6
40
0
40
0
40
0
40
0
40
0
40
0
40
1
40
1
40
1
40
1
40
1
40
1
41
1
10
95.171540889973
20
-9.72978349084713
30
0
41
1
10
95.1846688851142
20
-9.70644362343688
30
0
41
1
10
95.2002796744854
20
-9.68111409160366
30
0
41
1
10
95.2177186349154
20
-9.65495995615339
30
0
41
1
10
95.2360749674139
20
-9.62934870611053
30
0
41
1
10
95.2544312687043
20
-9.60547400171487
30
0
0
SPLINE
5
141
100
AcDbEntity
8
1
62
256
6
ByLayer
370
18
48
1
60
0
100
AcDbSpline
70
4
71
9
72
20
73
10
40
0
40
0
40
0
40
0
40
0
40
0
40
0
40
0
40
0
40
0
40
1
40
1
40
1
40
1
40
1
40
1
40
1
40
1
40
1
40
1
41
1
10
95.4696558416197
20
-9.49220047714329
30
0
41
1
10
95.4685234955189
20
-9.49222350205281
30
0
41
1
10
95.4673910905185
20
-9.49224365237512
30
0
41
1
10
95.4662586350225
20
-9.49226092793941
30
0
41
1
10
95.4651261374351
20
-9.49227532860317
30
0
41
1
10
95.4639936061609
20
-9.49228685425254
30
0
41
1
10
95.4628610496053
20
-9.49229550480203
30
0
41
1
10
95.4617284761734
20
-9.49230128019457
30
0
41
1
10
95.4605958942709
20
-9.49230418040167
30
0
41
1
10
95.4594633123032
20
-9.49230420542312
30
0
0
SPLINE
5
142
100
AcDbEntity
8
1
62
256
6
ByLayer
370
13
48
1
60
0
100
AcDbSpline
70
4
71
3
72
16
73
12
40
0
40
0
40
0
40
0
40
0.144231943171962
40
0.278135107852998
40
0.401773807117399
40
0.51522971312644
40
0.651430079284665
40
0.757178510549323
40
0.841169305538404
40
0.921120691410333
40
1
40
1
40
1
40
1
41
1
10
95.2545033549818
20
-9.6055070921451
30
0
41
1
10
95.2482960085616
20
-9.60113475758425
30
0
41
1
10
95.2363258379594
20
-9.59270320131526
30
0
41
1
10
95.2193491240289
20
-9.5799301895197
30
0
41
1
10
95.2039514431466
20
-9.56769545887227
30
0
41
1
10
95.1887937263651
20
-9.55489557205465
30
0
41
1
10
95.1749116312631
20
-9.54202952990244
30
0
41
1
10
95.1631719506962
20
-9.52913348366008
30
0
41
1
10
95.1553940012101
20
-9.51695878991035
30
0
41
1
10
95.150406431794
20
-9.50485883849007
30
0
41
1
10
95.1492306100234
20
-9.49645907074893
30
0
41
1
10
95.1486466674261
20
-9.49228753530372
30
0
0
SPLINE
5
143
100
AcDbEntity
8
1
62
256
6
ByLayer
370
18
48
1
60
0
100
AcDbSpline
70
4
71
1
72
4
73
2
40
0
40
0
40
1
40
1
41
1
10
95.459463309994
20
-9.49230420619529
30
0
41
1
10
95.1486466403651
20
-9.4923042062203
30
0
0
SPLINE
5
144
100
AcDbEntity
8
1
62
256
6
ByLayer
370
18
48
1
60
0
100
AcDbSpline
70
4
71
5
72
12
73
6
40
0
40
0
40
0
40
0
40
0
40
0
40
1
40
1
40
1
40
1
40
1
40
1
41
1
10
95.4696559596274
20
-12.0077995420434
30
0
41
1
10
95.519964428228
20
-12.0088225909016
30
0
41
1
10
95.5701438264081
20
-12.016149779384
30
0
41
1
10
95.6191322102251
20
-12.0297614538247
30
0
41
1
10
95.665874595653
20
-12.0493644808153
30
0
41
1
10
95.709452128166
20
-12.0744281400116
30
0
0
SPLINE
5
145
100
AcDbEntity
8
1
62
256
6
ByLayer
370
18
48
1
60
0
100
AcDbSpline
70
4
71
11
72
24
73
12
40
0
40
0
40
0
40
0
40
0
40
0
40
0
40
0
40
0
40
0
40
0
40
0
40
1
40
1
40
1
40
1
40
1
40
1
40
1
40
1
40
1
40
1
40
1
40
1
41
1
10
96.74863305393
20
-12.6461220307014
30
0
41
1
10
96.7399147135101
20
-12.6457428282332
30
0
41
1
10
96.7312146430201
20
-12.6449467677947
30
0
41
1
10
96.7225551582101
20
-12.6437348200084
30
0
41
1
10
96.71395851638
20
-12.6421092892418
30
0
41
1
10
96.70544682455
20
-12.6400738096333
30
0
41
1
10
96.69704194804
20
-12.6376333337546
30
0
41
1
10
96.6887654199501
20
-12.6347941140726
30
0
41
1
10
96.6806383524801
20
-12.631563677107
30
0
41
1
10
96.6726813506
20
-12.6279507907659
30
0
41
1
10
96.66491442878
20
-12.623965424906
30
0
41
1
10
96.6573569314301
20
-12.619618705518
30
0
0
SPLINE
5
146
100
AcDbEntity
8
1
62
256
6
ByLayer
370
18
48
1
60
0
100
AcDbSpline
70
4
71
11
72
24
73
12
40
0
40
0
40
0
40
0
40
0
40
0
40
0
40
0
40
0
40
0
40
0
40
0
40
1
40
1
40
1
40
1
40
1
40
1
40
1
40
1
40
1
40
1
40
1
40
1
41
1
10
99.59999514435
20
-12.7672942743558
30
0
41
1
10
99.5880961630361
20
-12.7672942743558
30
0
41
1
10
99.5761971817221
20
-12.7672425571337
30
0
41
1
10
99.5642984520753
20
-12.7671391226795
30
0
41
1
10
99.5524002257727
20
-12.7669839723775
30
0
41
1
10
99.5405027544615
20
-12.7667771089364
30
0
41
1
10
99.5286062897889
20
-12.766518536489
30
0
41
1
10
99.5167110833818
20
-12.7662082604827
30
0
41
1
10
99.5048173868175
20
-12.7658462877492
30
0
41
1
10
99.4929254516333
20
-12.7654326265142
30
0
41
1
10
99.4810355293262
20
-12.7649672863281
30
0
41
1
10
99.4691478713136
20
-12.7644502781355
30
0
0
SPLINE
5
147
100
AcDbEntity
8
1
62
256
6
ByLayer
370
18
48
1
60
0
100
AcDbSpline
70
4
71
11
72
24
73
12
40
0
40
0
40
0
40
0
40
0
40
0
40
0
40
0
40
0
40
0
40
0
40
0
40
1
40
1
40
1
40
1
40
1
40
1
40
1
40
1
40
1
40
1
40
1
40
1
41
1
10
99.99999514435
20
-12.3688163951291
30
0
41
1
10
99.99999514435
20
-12.4257189036109
30
0
41
1
10
99.9910227761201
20
-12.4826214080481
30
0
41
1
10
99.9730780419001
20
-12.5379639089754
30
0
41
1
10
99.9464684161301
20
-12.5901863681651
30
0
41
1
10
99.91180885906
20
-12.6377975244628
30
0
41
1
10
99.87000373869
20
-12.679443564127
30
0
41
1
10
99.82221071576
20
-12.7139712323038
30
0
41
1
10
99.76978877005
20
-12.7404795993481
30
0
41
1
10
99.7142348772001
20
-12.7583560493632
30
0
41
1
10
99.65711501078
20
-12.7672942743658
30
0
41
1
10
99.59999514435
20
-12.7672942743658
30
0
0
SPLINE
5
148
100
AcDbEntity
8
1
62
256
6
ByLayer
370
18
48
1
60
0
100
AcDbSpline
70
4
71
5
72
12
73
6
40
0
40
0
40
0
40
0
40
0
40
0
40
1
40
1
40
1
40
1
40
1
40
1
41
1
10
95.4696559596274
20
-9.49220047068019
30
0
41
1
10
95.519964428228
20
-9.49117742189901
30
0
41
1
10
95.5701438264081
20
-9.48385023356019
30
0
41
1
10
95.6191322102251
20
-9.47023855933014
30
0
41
1
10
95.665874595653
20
-9.45063553261662
30
0
41
1
10
95.709452128166
20
-9.42557187376428
30
0
0
SPLINE
5
149
100
AcDbEntity
8
1
62
256
6
ByLayer
370
18
48
1
60
0
100
AcDbSpline
70
4
71
11
72
24
73
12
40
0
40
0
40
0
40
0
40
0
40
0
40
0
40
0
40
0
40
0
40
0
40
0
40
1
40
1
40
1
40
1
40
1
40
1
40
1
40
1
40
1
40
1
40
1
40
1
41
1
10
99.99999514435
20
-9.13118362633094
30
0
41
1
10
99.99999514435
20
-9.07428111784913
30
0
41
1
10
99.9910227761201
20
-9.01737861341189
30
0
41
1
10
99.9730780419001
20
-8.96203611248467
30
0
41
1
10
99.9464684161301
20
-8.90981365329492
30
0
41
1
10
99.91180885906
20
-8.86220249699721
30
0
41
1
10
99.87000373869
20
-8.82055645733305
30
0
41
1
10
99.82221071576
20
-8.78602878915626
30
0
41
1
10
99.76978877005
20
-8.7595204221119
30
0
41
1
10
99.7142348772001
20
-8.74164397209682
30
0
41
1
10
99.65711501078
20
-8.73270574709426
30
0
41
1
10
99.59999514435
20
-8.73270574709426
30
0
0
SPLINE
5
14A
100
AcDbEntity
8
1
62
256
6
ByLayer
370
18
48
1
60
0
100
AcDbSpline
70
4
71
11
72
24
73
12
40
0
40
0
40
0
40
0
40
0
40
0
40
0
40
0
40
0
40
0
40
0
40
0
40
1
40
1
40
1
40
1
40
1
40
1
40
1
40
1
40
1
40
1
40
1
40
1
41
1
10
96.74863305393
20
-8.85387799075869
30
0
41
1
10
96.7399147135101
20
-8.85425719322683
30
0
41
1
10
96.7312146430201
20
-8.85505325366529
30
0
41
1
10
96.7225551582101
20
-8.85626520145166
30
0
41
1
10
96.71395851638
20
-8.85789073221821
30
0
41
1
10
96.70544682455
20
-8.85992621182675
30
0
41
1
10
96.69704194804
20
-8.86236668770539
30
0
41
1
10
96.6887654199501
20
-8.86520590738746
30
0
41
1
10
96.6806383524801
20
-8.86843634435303
30
0
41
1
10
96.6726813506
20
-8.87204923069413
30
0
41
1
10
96.66491442878
20
-8.87603459655401
30
0
41
1
10
96.6573569314301
20
-8.88038131594209
30
0
0
SPLINE
5
14B
100
AcDbEntity
8
1
62
256
6
ByLayer
370
18
48
1
60
0
100
AcDbSpline
70
4
71
11
72
24
73
12
40
0
40
0
40
0
40
0
40
0
40
0
40
0
40
0
40
0
40
0
40
0
40
0
40
1
40
1
40
1
40
1
40
1
40
1
40
1
40
1
40
1
40
1
40
1
40
1
41
1
10
99.59999514435
20
-8.73270574710421
30
0
41
1
10
99.5880961630361
20
-8.73270574710421
30
0
41
1
10
99.5761971817221
20
-8.73275746432631
30
0
41
1
10
99.5642984520753
20
-8.73286089878053
30
0
41
1
10
99.5524002257727
20
-8.73301604908255
30
0
41
1
10
99.5405027544615
20
-8.73322291252367
30
0
41
1
10
99.5286062897889
20
-8.73348148497109
30
0
41
1
10
99.5167110833818
20
-8.73379176097734
30
0
41
1
10
99.5048173868175
20
-8.73415373371085
30
0
41
1
10
99.4929254516333
20
-8.73456739494583
30
0
41
1
10
99.4810355293262
20
-8.73503273513194
30
0
41
1
10
99.4691478713136
20
-8.73554974332455
30
0
0
SPLINE
5
14C
100
AcDbEntity
8
1
62
256
6
ByLayer
370
18
48
1
60
0
100
AcDbSpline
70
4
71
5
72
12
73
6
40
0
40
0
40
0
40
0
40
0
40
0
40
1
40
1
40
1
40
1
40
1
40
1
41
1
10
95.254524837099
20
-9.60556873147112
30
0
41
1
10
95.2368918795071
20
-9.61922391580362
30
0
41
1
10
95.219237198336
20
-9.63378496527929
30
0
41
1
10
95.202155730528
20
-9.6490343612208
30
0
41
1
10
95.1858753924271
20
-9.66426593267101
30
0
41
1
10
95.171016063143
20
-9.67933673189566
30
0
0
SPLINE
5
14D
100
AcDbEntity
8
1
62
256
6
ByLayer
370
18
48
1
60
0
100
AcDbSpline
70
4
71
5
72
12
73
6
40
0
40
0
40
0
40
0
40
0
40
0
40
1
40
1
40
1
40
1
40
1
40
1
41
1
10
95.171017162118
20
-9.67933855017549
30
0
41
1
10
95.1705475998502
20
-9.68965890364046
30
0
41
1
10
95.1703593635176
20
-9.69992583542762
30
0
41
1
10
95.1704551013934
20
-9.71008130755826
30
0
41
1
10
95.1708342737426
20
-9.7200678923989
30
0
41
1
10
95.1714931705014
20
-9.72983069138354
30
0
0
SPLINE
5
14E
100
AcDbEntity
8
1
62
256
6
ByLayer
370
18
48
1
60
0
100
AcDbSpline
70
4
71
5
72
12
73
6
40
0
40
0
40
0
40
0
40
0
40
0
40
1
40
1
40
1
40
1
40
1
40
1
41
1
10
95.1710155027962
20
-9.67933582181962
30
0
41
1
10
95.1531129674754
20
-9.64632732660766
30
0
41
1
10
95.1356634359441
20
-9.61218556280483
30
0
41
1
10
95.1195034756607
20
-9.57813151815429
30
0
41
1
10
95.1035432749669
20
-9.53662635895273
30
0
41
1
10
95.1039119705822
20
-9.49185394337417
30
0
0
SPLINE
5
14F
100
AcDbEntity
8
1
62
256
6
ByLayer
370
18
48
1
60
0
100
AcDbSpline
70
4
71
5
72
12
73
6
40
0
40
0
40
0
40
0
40
0
40
0
40
1
40
1
40
1
40
1
40
1
40
1
41
1
10
95.1486466403943
20
-9.49230423612397
30
0
41
1
10
95.1396236220824
20
-9.49230437244194
30
0
41
1
10
95.1306005154714
20
-9.49226016116938
30
0
41
1
10
95.1216155630915
20
-9.49217160155371
30
0
41
1
10
95.1127070071793
20
-9.49203907059911
30
0
41
1
10
95.10391212563
20
-9.49186331351723
30
0
0
SPLINE
5
150
100
AcDbEntity
8
1
62
256
6
ByLayer
370
13
48
1
60
0
100
AcDbSpline
70
4
71
3
72
8
73
4
40
0
40
0
40
0
40
0
40
1
40
1
40
1
40
1
41
1
10
95.294512283925
20
-11.6188777695087
30
0
41
1
10
95.304970164407
20
-11.603240704691
30
0
41
1
10
95.3130044901601
20
-11.5864355709815
30
0
41
1
10
95.3187652709274
20
-11.5690050194457
30
0
0
SPLINE
5
151
100
AcDbEntity
8
1
62
256
6
ByLayer
370
18
48
1
60
0
100
AcDbSpline
70
4
71
5
72
12
73
6
40
0
40
0
40
0
40
0
40
0
40
0
40
1
40
1
40
1
40
1
40
1
40
1
41
1
10
95.2944557106196
20
-11.6188667741724
30
0
41
1
10
95.307164538307
20
-11.6628744166137
30
0
41
1
10
95.3336990124373
20
-11.7073463242972
30
0
41
1
10
95.372442837667
20
-11.7462100532177
30
0
41
1
10
95.4175131215547
20
-11.7735714115367
30
0
41
1
10
95.4626766268226
20
-11.7876199625456
30
0
0
SPLINE
5
152
100
AcDbEntity
8
1
62
256
6
ByLayer
370
18
48
1
60
0
100
AcDbSpline
70
4
71
3
72
10
73
6
40
0
40
0
40
0
40
0
40
0.5
40
0.5
40
1
40
1
40
1
40
1
41
1
10
95.1710185434891
20
-9.67930559582146
30
0
41
1
10
95.1481965232794
20
-9.6827660181907
30
0
41
1
10
95.1242287676567
20
-9.68644499540068
30
0
41
1
10
95.0751537890196
20
-9.69426423798893
30
0
41
1
10
95.0500494481098
20
-9.69840455279211
30
0
41
1
10
95.024941872908
20
-9.70277479103322
30
0
0
SPLINE
5
153
100
AcDbEntity
8
1
62
256
6
ByLayer
370
18
48
1
60
0
100
AcDbSpline
70
4
71
5
72
12
73
6
40
0
40
0
40
0
40
0
40
0
40
0
40
1
40
1
40
1
40
1
40
1
40
1
41
1
10
95.024710732123
20
-9.49108340877353
30
0
41
1
10
95.0406867923233
20
-9.49108407948677
30
0
41
1
10
95.0566612451261
20
-9.4911619449673
30
0
41
1
10
95.0725694303101
20
-9.49131789986978
30
0
41
1
10
95.0883431618629
20
-9.49155197853725
30
0
41
1
10
95.1039136275684
20
-9.49186340472579
30
0
0
SPLINE
5
154
100
AcDbEntity
8
1
62
256
6
ByLayer
370
18
48
1
60
0
100
AcDbSpline
70
4
71
3
72
71
73
67
40
0
40
0
40
0
40
0
40
0.0260776609446827
40
0.0260776609446827
40
0.0521553218893654
40
0.0782329828340481
40
0.0782329828340481
40
0.0912718133063894
40
0.0912718133063894
40
0.104310643778731
40
0.104310643778731
40
0.156465965668097
40
0.156465965668097
40
0.182543626612779
40
0.182543626612779
40
0.208621287557462
40
0.208621287557462
40
0.260776609446829
40
0.260776609446829
40
0.286854270391512
40
0.286854270391512
40
0.299893100863853
40
0.299893100863853
40
0.312931931336194
40
0.312931931336194
40
0.365087253225558
40
0.365087253225558
40
0.39116491417024
40
0.39116491417024
40
0.404203744642582
40
0.404203744642582
40
0.417242575114923
40
0.417242575114923
40
0.469397897004286
40
0.469397897004286
40
0.482436727476626
40
0.482436727476626
40
0.495475557948967
40
0.495475557948967
40
0.521553218893649
40
0.521553218893649
40
0.573708540783013
40
0.573708540783013
40
0.599786201727694
40
0.599786201727694
40
0.625863862672376
40
0.625863862672376
40
0.678019184561737
40
0.678019184561737
40
0.691058015034078
40
0.691058015034078
40
0.704096845506419
40
0.704096845506419
40
0.7301745064511
40
0.7301745064511
40
0.782329828340463
40
0.782329828340463
40
0.834485150229826
40
0.834485150229826
40
0.886640472119189
40
0.886640472119189
40
0.938795794008552
40
0.938795794008552
40
0.990951115897915
40
0.990951115897915
40
1
40
1
40
1
40
1
41
1
10
76.2958862004286
20
-12.4984420887728
30
0
41
1
10
76.3004815282945
20
-12.4970065783054
30
0
41
1
10
76.3011976719084
20
-12.49457564554
30
0
41
1
10
76.2951261172281
20
-12.4878056594737
30
0
41
1
10
76.2815721052826
20
-12.4791213042535
30
0
41
1
10
76.2533389662584
20
-12.4667238185469
30
0
41
1
10
76.2266401762329
20
-12.4560746846557
30
0
41
1
10
76.2168186240652
20
-12.4522997893258
30
0
41
1
10
76.1953123132926
20
-12.4443064741423
30
0
41
1
10
76.1835960589987
20
-12.4400771592157
30
0
41
1
10
76.1207446191551
20
-12.4180004302494
30
0
41
1
10
76.0569965890487
20
-12.3973889215076
30
0
41
1
10
75.942046829647
20
-12.3631357051948
30
0
41
1
10
75.900488764884
20
-12.3511610721252
30
0
41
1
10
75.8107973516038
20
-12.3262795974944
30
0
41
1
10
75.7624174427435
20
-12.3133103977523
30
0
41
1
10
75.609255456913
20
-12.27385700322
30
0
41
1
10
75.4966162681776
20
-12.2468308062794
30
0
41
1
10
75.3120266696994
20
-12.2066562098545
30
0
41
1
10
75.2478758769912
20
-12.1933255964226
30
0
41
1
10
75.1475922170483
20
-12.1736143004466
30
0
41
1
10
75.1134870351431
20
-12.1670914457348
30
0
41
1
10
75.0438874625411
20
-12.1541753164087
30
0
41
1
10
75.008411905503
20
-12.1477868468964
30
0
41
1
10
74.8292888505705
20
-12.1165647418536
30
0
41
1
10
74.6790984038043
20
-12.0936320621364
30
0
41
1
10
74.4433786501825
20
-12.0636762678336
30
0
41
1
10
74.3630566835002
20
-12.0544322338899
30
0
41
1
10
74.2398465729228
20
-12.0418644524998
30
0
41
1
10
74.1983213412872
20
-12.0378917146916
30
0
41
1
10
74.114334411278
20
-12.0304125265399
30
0
41
1
10
74.0718532204672
20
-12.0269063612265
30
0
41
1
10
73.859221747689
20
-12.0107779226842
30
0
41
1
10
73.6867250900143
20
-12.0022036602364
30
0
41
1
10
73.4680897735473
20
-11.9973853621983
30
0
41
1
10
73.4242110058769
20
-11.9967167210092
30
0
41
1
10
73.3361454226879
20
-11.9959820367822
30
0
41
1
10
73.2918506589264
20
-11.9959173468672
30
0
41
1
10
73.1596443449266
20
-11.9966356043448
30
0
41
1
10
73.0722334555149
20
-11.9983226015954
30
0
41
1
10
72.8121065242361
20
-12.0068330728369
30
0
41
1
10
72.641482100952
20
-12.0171058035483
30
0
41
1
10
72.3897087461105
20
-12.0387425040802
30
0
41
1
10
72.3061897813287
20
-12.047033886464
30
0
41
1
10
72.1437200875455
20
-12.0651965008109
30
0
41
1
10
72.0644177394122
20
-12.0750900519761
30
0
41
1
10
71.8320856267062
20
-12.1068210269044
30
0
41
1
10
71.6845889081391
20
-12.1307058992556
30
0
41
1
10
71.5093778733926
20
-12.1627894813818
30
0
41
1
10
71.4747990265697
20
-12.1693185769446
30
0
41
1
10
71.4071898554404
20
-12.1824471104465
30
0
41
1
10
71.3740771063465
20
-12.1890613506781
30
0
41
1
10
71.2767698968628
20
-12.2090038707039
30
0
41
1
10
71.2146023341833
20
-12.2224314900335
30
0
41
1
10
71.03601427921
20
-12.2627338317341
30
0
41
1
10
70.9274416592272
20
-12.2896293017938
30
0
41
1
10
70.7318019576753
20
-12.3415452075021
30
0
41
1
10
70.6474469360157
20
-12.3658323025813
30
0
41
1
10
70.5046062668536
20
-12.409631013989
30
0
41
1
10
70.4461186146625
20
-12.4291510776769
30
0
41
1
10
70.356511960538
20
-12.4620030625123
30
0
41
1
10
70.3267077842409
20
-12.4748494131571
30
0
41
1
10
70.296451038049
20
-12.4929837306396
30
0
41
1
10
70.2959551721955
20
-12.4982876963459
30
0
41
1
10
70.3136426936866
20
-12.4998850533156
30
0
41
1
10
70.3167134059353
20
-12.5000012038988
30
0
41
1
10
70.320236823177
20
-12.500000025804
30
0
0
SPLINE
5
155
100
AcDbEntity
8
1
62
256
6
ByLayer
370
18
48
1
60
0
100
AcDbSpline
70
4
71
3
72
48
73
44
40
0
40
0
40
0
40
0
40
0.0349428347010777
40
0.0349428347010777
40
0.0751535499218662
40
0.0751535499218662
40
0.0952589075322607
40
0.0952589075322607
40
0.115364265142655
40
0.115364265142655
40
0.195785695584232
40
0.195785695584232
40
0.235996410805021
40
0.235996410805021
40
0.27620712602581
40
0.27620712602581
40
0.356628556467389
40
0.356628556467389
40
0.396839271688178
40
0.396839271688178
40
0.437049986908967
40
0.437049986908967
40
0.517471417350544
40
0.517471417350544
40
0.557682132571333
40
0.557682132571333
40
0.577787490181728
40
0.577787490181728
40
0.597892847792122
40
0.597892847792122
40
0.678314278233698
40
0.678314278233698
40
0.718524993454486
40
0.718524993454486
40
0.758735708675274
40
0.758735708675274
40
0.83915713911685
40
0.83915713911685
40
0.879367854337638
40
0.879367854337638
40
0.919578569558426
40
0.919578569558426
40
1
40
1
40
1
40
1
41
1
10
70.3510183673467
20
-12.4982261556502
30
0
41
1
10
70.3649274519338
20
-12.496929784125
30
0
41
1
10
70.381633889659
20
-12.4949356303795
30
0
41
1
10
70.4234820606849
20
-12.4892366583129
30
0
41
1
10
70.4495395983839
20
-12.4853183434836
30
0
41
1
10
70.4942139024254
20
-12.4782290685943
30
0
41
1
10
70.5100379660887
20
-12.4756640025721
30
0
41
1
10
70.543582364748
20
-12.4701453666369
30
0
41
1
10
70.5613517222563
20
-12.467183514345
30
0
41
1
10
70.6543502266871
20
-12.4515596927783
30
0
41
1
10
70.7417275495226
20
-12.4365013930965
30
0
41
1
10
70.8916032344666
20
-12.4115024193403
30
0
41
1
10
70.9447153866375
20
-12.4027658500762
30
0
41
1
10
71.0573591015585
20
-12.3847168829881
30
0
41
1
10
71.1171984352802
20
-12.3753592395019
30
0
41
1
10
71.3035310846107
20
-12.3472572276633
30
0
41
1
10
71.4371050900389
20
-12.3284256344462
30
0
41
1
10
71.6512203496787
20
-12.3015048861538
30
0
41
1
10
71.7248978568881
20
-12.2927512036042
30
0
41
1
10
71.876982213521
20
-12.275927532689
30
0
41
1
10
71.9555482445263
20
-12.2678496584111
30
0
41
1
10
72.1938288493883
20
-12.2454370503449
30
0
41
1
10
72.3575313826924
20
-12.2327556129809
30
0
41
1
10
72.610298110092
20
-12.2180608926896
30
0
41
1
10
72.6957625104219
20
-12.213883023833
30
0
41
1
10
72.8258273051647
20
-12.2088115136447
30
0
41
1
10
72.8695841188434
20
-12.2073183792942
30
0
41
1
10
72.9569102590223
20
-12.2047710913929
30
0
41
1
10
73.0005556390089
20
-12.2037130967372
30
0
41
1
10
73.2186955024044
20
-12.1995011484739
30
0
41
1
10
73.3929307804639
20
-12.1995850451598
30
0
41
1
10
73.6538723094817
20
-12.2048413929225
30
0
41
1
10
73.7407838845352
20
-12.2074478570229
30
0
41
1
10
73.914465082868
20
-12.2143515996296
30
0
41
1
10
74.000421232963
20
-12.2186207216508
30
0
41
1
10
74.2535735594668
20
-12.2335418526591
30
0
41
1
10
74.4170114867929
20
-12.2463458802575
30
0
41
1
10
74.6542315235317
20
-12.2688311510671
30
0
41
1
10
74.7321296250317
20
-12.276889836254
30
0
41
1
10
74.8845219306678
20
-12.2938459291032
30
0
41
1
10
74.9582207472463
20
-12.3026509197685
30
0
41
1
10
75.1720689987604
20
-12.3296716718908
30
0
41
1
10
75.3050248436753
20
-12.3484964579731
30
0
41
1
10
75.4283292077293
20
-12.3671463025271
30
0
0
SPLINE
5
156
100
AcDbEntity
8
1
62
256
6
ByLayer
370
18
48
1
60
0
100
AcDbSpline
70
4
71
5
72
12
73
6
40
0
40
0
40
0
40
0
40
0
40
0
40
1
40
1
40
1
40
1
40
1
40
1
41
1
10
95.1998725985699
20
-10.8089535334192
30
0
41
1
10
95.2062807724676
20
-10.8052297437509
30
0
41
1
10
95.2121580159146
20
-10.8014915107631
30
0
41
1
10
95.2174856746776
20
-10.7977497624955
30
0
41
1
10
95.2222483531648
20
-10.7940155427751
30
0
41
1
10
95.226434438302
20
-10.7902998463146
30
0
0
SPLINE
5
157
100
AcDbEntity
8
1
62
256
6
ByLayer
370
13
48
1
60
0
100
AcDbSpline
70
4
71
5
72
12
73
6
40
0
40
0
40
0
40
0
40
0
40
0
40
1
40
1
40
1
40
1
40
1
40
1
41
1
10
95.1715480949158
20
-11.7720572507061
30
0
41
1
10
95.2009719495516
20
-11.7449399443475
30
0
41
1
10
95.2277349300206
20
-11.7132456935323
30
0
41
1
10
95.2522158003283
20
-11.6801807990421
30
0
41
1
10
95.2752807723649
20
-11.6482092767385
30
0
41
1
10
95.294445333061
20
-11.6188308265059
30
0
0
SPLINE
5
158
100
AcDbEntity
8
1
62
256
6
ByLayer
370
18
48
1
60
0
100
AcDbSpline
70
4
71
3
72
17
73
13
40
0
40
0
40
0
40
0
40
0.106342500275913
40
0.212737004139976
40
0.319186400278286
40
0.425691859410284
40
0.532252911010443
40
0.63886751762115
40
0.745532146386841
40
0.852241837524988
40
0.958990269524
40
1
40
1
40
1
40
1
41
1
10
95.1714965055177
20
-11.7719840261164
30
0
41
1
10
95.1686338506557
20
-11.7726261708491
30
0
41
1
10
95.1629071410371
20
-11.7739107743361
30
0
41
1
10
95.1541758438983
20
-11.7757382601448
30
0
41
1
10
95.1453488278798
20
-11.7774974214761
30
0
41
1
10
95.1364234773339
20
-11.7791838006875
30
0
41
1
10
95.1274106238777
20
-11.7808022243018
30
0
41
1
10
95.1183174999517
20
-11.7823548932981
30
0
41
1
10
95.1091523047779
20
-11.7838445718471
30
0
41
1
10
95.0999229749762
20
-11.7852737268163
30
0
41
1
10
95.0925445410008
20
-11.7863631766573
30
0
41
1
10
95.0882456908279
20
-11.7869778125133
30
0
41
1
10
95.0870515103891
20
-11.7871470407837
30
0
0
SPLINE
5
159
100
AcDbEntity
8
1
62
256
6
ByLayer
370
13
48
1
60
0
100
AcDbSpline
70
4
71
3
72
27
73
23
40
0
40
0
40
0
40
0
40
0.0552428583555761
40
0.109810501244958
40
0.163720607315679
40
0.216991508188353
40
0.269642201331218
40
0.321692361368877
40
0.373162349563035
40
0.424073221186102
40
0.474446730490857
40
0.524305332963288
40
0.573672184528649
40
0.622571137365318
40
0.671026731964238
40
0.719064185055597
40
0.766709373007079
40
0.813988810279119
40
0.86092962250215
40
0.907559513717011
40
0.953906727292239
40
1
40
1
40
1
40
1
41
1
10
95.2545081697808
20
-11.8982759854883
30
0
41
1
10
95.2588271410474
20
-11.896555801356
30
0
41
1
10
95.2674122942013
20
-11.8931364583419
30
0
41
1
10
95.2800814580393
20
-11.8878533459304
30
0
41
1
10
95.2924948896691
20
-11.8825054494732
30
0
41
1
10
95.3046438255153
20
-11.8770863911245
30
0
41
1
10
95.3165305813891
20
-11.8716070821957
30
0
41
1
10
95.3281545573989
20
-11.8660744521596
30
0
41
1
10
95.3395159210689
20
-11.8604970628003
30
0
41
1
10
95.3506146376673
20
-11.8548836453846
30
0
41
1
10
95.3614507256027
20
-11.8492434998223
30
0
41
1
10
95.3720241888639
20
-11.8435864022104
30
0
41
1
10
95.3823350357208
20
-11.837922639844
30
0
41
1
10
95.3923832704313
20
-11.8322630127783
30
0
41
1
10
95.402168907787
20
-11.8266188352753
30
0
41
1
10
95.4116919238251
20
-11.8210019607812
30
0
41
1
10
95.4209524364313
20
-11.8154247036435
30
0
41
1
10
95.4299500399061
20
-11.809900134264
30
0
41
1
10
95.4386862605459
20
-11.8044409855967
30
0
41
1
10
95.4471554889443
20
-11.7990636756235
30
0
41
1
10
95.4553784933647
20
-11.7937734126683
30
0
41
1
10
95.4606585271084
20
-11.7903285654112
30
0
41
1
10
95.4632912916583
20
-11.788610873408
30
0
0
SPLINE
5
15A
100
AcDbEntity
8
1
62
256
6
ByLayer
370
13
48
1
60
0
100
AcDbSpline
70
4
71
5
72
12
73
6
40
0
40
0
40
0
40
0
40
0
40
0
40
1
40
1
40
1
40
1
40
1
40
1
41
1
10
95.2544744149038
20
-11.8982309308571
30
0
41
1
10
95.2261544529631
20
-11.9169412964444
30
0
41
1
10
95.198603317531
20
-11.9365720799667
30
0
41
1
10
95.1731547241037
20
-11.9563672346926
30
0
41
1
10
95.1480578572427
20
-11.9808256089989
30
0
41
1
10
95.1486466674261
20
-12.0077125171648
30
0
0
SPLINE
5
15B
100
AcDbEntity
8
1
62
256
6
ByLayer
370
18
48
1
60
0
100
AcDbSpline
70
4
71
3
72
12
73
8
40
0
40
0
40
0
40
0
40
0.500000000000006
40
0.500000000000006
40
0.750000000000003
40
0.750000000000003
40
1
40
1
40
1
40
1
41
1
10
95.1715337870146
20
-11.7720607773256
30
0
41
1
10
95.1825242598711
20
-11.793525580199
30
0
41
1
10
95.1955920724477
20
-11.8158640703353
30
0
41
1
10
95.216847769454
20
-11.8482173398842
30
0
41
1
10
95.2242048922545
20
-11.8588092714908
30
0
41
1
10
95.2391877660241
20
-11.8792164654609
30
0
41
1
10
95.2468132142405
20
-11.8890162317543
30
0
41
1
10
95.2544310608654
20
-11.898277613473
30
0
0
SPLINE
5
15C
100
AcDbEntity
8
1
62
256
6
ByLayer
370
18
48
1
60
0
100
AcDbSpline
70
4
71
1
72
4
73
2
40
0
40
0
40
1
40
1
41
1
10
95.459463309994
20
-12.0077995420618
30
0
41
1
10
95.148646640365
20
-12.0077995420618
30
0
0
SPLINE
5
15D
100
AcDbEntity
8
1
62
256
6
ByLayer
370
18
48
1
60
0
100
AcDbSpline
70
4
71
1
72
4
73
2
40
0
40
0
40
1
40
1
41
1
10
95.4696558416661
20
-12.0077995420618
30
0
41
1
10
95.459463309994
20
-12.0077995420618
30
0
0
SPLINE
5
15E
100
AcDbEntity
8
1
62
256
6
ByLayer
370
18
48
1
60
0
100
AcDbSpline
70
4
71
5
72
12
73
6
40
0
40
0
40
0
40
0
40
0
40
0
40
1
40
1
40
1
40
1
40
1
40
1
41
1
10
95.171017162118
20
-11.8237539363349
30
0
41
1
10
95.1705475998502
20
-11.8133961910255
30
0
41
1
10
95.1703593635176
20
-11.8029849365309
30
0
41
1
10
95.1704551013934
20
-11.7925784193088
30
0
41
1
10
95.1708342737426
20
-11.7822354870575
30
0
41
1
10
95.1714931705014
20
-11.7720136220181
30
0
0
SPLINE
5
15F
100
AcDbEntity
8
1
62
256
6
ByLayer
370
18
48
1
60
0
100
AcDbSpline
70
4
71
5
72
12
73
6
40
0
40
0
40
0
40
0
40
0
40
0
40
1
40
1
40
1
40
1
40
1
40
1
41
1
10
95.254524837099
20
-11.8981976198503
30
0
41
1
10
95.2368918795071
20
-11.8854691172607
30
0
41
1
10
95.219237198336
20
-11.8713128011077
30
0
41
1
10
95.202155730528
20
-11.8559312121553
30
0
41
1
10
95.1858753924271
20
-11.8400145317075
30
0
41
1
10
95.171016063143
20
-11.8237556667795
30
0
0
SPLINE
5
160
100
AcDbEntity
8
1
62
256
6
ByLayer
370
18
48
1
60
0
100
AcDbSpline
70
4
71
5
72
12
73
6
40
0
40
0
40
0
40
0
40
0
40
0
40
1
40
1
40
1
40
1
40
1
40
1
41
1
10
95.1486466403943
20
-12.0076958451596
30
0
41
1
10
95.1396236220824
20
-12.0076959814775
30
0
41
1
10
95.1306005154714
20
-12.007651770205
30
0
41
1
10
95.1216155630915
20
-12.0075632105693
30
0
41
1
10
95.1127070071793
20
-12.0074306796148
30
0
41
1
10
95.10391212563
20
-12.0072549225329
30
0
0
SPLINE
5
161
100
AcDbEntity
8
1
62
256
6
ByLayer
370
18
48
1
60
0
100
AcDbSpline
70
4
71
5
72
12
73
6
40
0
40
0
40
0
40
0
40
0
40
0
40
1
40
1
40
1
40
1
40
1
40
1
41
1
10
95.1710155027962
20
-11.8237565320785
30
0
41
1
10
95.1531129674754
20
-11.8553345178562
30
0
41
1
10
95.1356634359441
20
-11.8883489416265
30
0
41
1
10
95.1195034756607
20
-11.9215730743981
30
0
41
1
10
95.1035432749669
20
-11.9624834781145
30
0
41
1
10
95.1039119705822
20
-12.0072642891293
30
0
0
SPLINE
5
162
100
AcDbEntity
8
1
62
256
6
ByLayer
370
18
48
1
60
0
100
AcDbSpline
70
4
71
5
72
12
73
6
40
0
40
0
40
0
40
0
40
0
40
0
40
1
40
1
40
1
40
1
40
1
40
1
41
1
10
95.024710732123
20
-12.0064750177892
30
0
41
1
10
95.0406867923233
20
-12.0064756885024
30
0
41
1
10
95.0566612451261
20
-12.0065535539837
30
0
41
1
10
95.0725694303101
20
-12.0067095088875
30
0
41
1
10
95.0883431618629
20
-12.0069435875567
30
0
41
1
10
95.1039136275684
20
-12.0072550137473
30
0
0
SPLINE
5
163
100
AcDbEntity
8
1
62
256
6
ByLayer
370
18
48
1
60
0
100
AcDbSpline
70
4
71
3
72
10
73
6
40
0
40
0
40
0
40
0
40
0.792514675418677
40
0.792514675418677
40
1
40
1
40
1
40
1
41
1
10
95.1710168981807
20
-11.8237537776741
30
0
41
1
10
95.148145678624
20
-11.8183509166466
30
0
41
1
10
95.1241377125446
20
-11.8131161873533
30
0
41
1
10
95.0931369854966
20
-11.8070381350234
30
0
41
1
10
95.0866665315137
20
-11.8058052581231
30
0
41
1
10
95.0801671802338
20
-11.8045952217293
30
0
0
SPLINE
5
164
100
AcDbEntity
8
SK1
62
256
6
ByLayer
370
18
48
1
60
0
100
AcDbSpline
70
4
71
3
72
32
73
28
40
0
40
0
40
0
40
0
40
0.0312499999999977
40
0.0312499999999977
40
0.0624999999999954
40
0.0624999999999954
40
0.124999999999994
40
0.124999999999994
40
0.249999999999993
40
0.249999999999993
40
0.374999999999992
40
0.374999999999992
40
0.437499999999991
40
0.437499999999991
40
0.468749999999991
40
0.468749999999991
40
0.499999999999991
40
0.499999999999991
40
0.624999999999993
40
0.624999999999993
40
0.749999999999994
40
0.749999999999994
40
0.812499999999996
40
0.812499999999996
40
0.874999999999997
40
0.874999999999997
40
1
40
1
40
1
40
1
41
1
10
-98.5000024038351
20
-4.89897948556643
30
0
41
1
10
-98.5382617070721
20
-4.80135889093634
30
0
41
1
10
-98.575734464612
20
-4.70327626175578
30
0
41
1
10
-98.6490159798601
20
-4.50613353264248
30
0
41
1
10
-98.6848581078313
20
-4.40697506444877
30
0
41
1
10
-98.7893728082405
20
-4.10902371250495
30
0
41
1
10
-98.8551049731349
20
-3.90958731725163
30
0
41
1
10
-99.0395651935547
20
-3.30868792983029
30
0
41
1
10
-99.1455549151113
20
-2.90463431711407
30
0
41
1
10
-99.3186764116233
20
-2.08862447308445
30
0
41
1
10
-99.3857918371872
20
-1.67666491676243
30
0
41
1
10
-99.4538315483861
20
-1.05208885669754
30
0
41
1
10
-99.4710761830257
20
-0.842791455090548
30
0
41
1
10
-99.4884080281354
20
-0.52710955086809
30
0
41
1
10
-99.4927662026622
20
-0.421440140609661
30
0
41
1
10
-99.4985616893262
20
-0.21039323158459
30
0
41
1
10
-99.5000038414063
20
-0.10503569985741
30
0
41
1
10
-99.4999966481723
20
0.420929184548243
30
0
41
1
10
-99.4768385327604
20
0.839061955439377
30
0
41
1
10
-99.3866789238841
20
1.67032979240764
30
0
41
1
10
-99.3196931962809
20
2.0834666556346
30
0
41
1
10
-99.1890639580839
20
2.69973507951954
30
0
41
1
10
-99.1404751945823
20
2.90469298582116
30
0
41
1
10
-99.0338979195977
20
3.3130819854872
30
0
41
1
10
-98.9762266560024
20
3.51533507498198
30
0
41
1
10
-98.7912935995297
20
4.11681436176519
30
0
41
1
10
-98.6521466069652
20
4.51077566786694
30
0
41
1
10
-98.500002403835
20
4.89897948556637
30
0
0
SPLINE
5
165
100
AcDbEntity
8
1
62
256
6
ByLayer
370
18
48
1
60
0
100
AcDbSpline
70
4
71
3
72
24
73
20
40
0
40
0
40
0
40
0
40
0.249999999999994
40
0.249999999999994
40
0.374999999999992
40
0.374999999999992
40
0.437499999999992
40
0.437499999999992
40
0.499999999999991
40
0.499999999999991
40
0.62499999999999
40
0.62499999999999
40
0.687499999999991
40
0.687499999999991
40
0.749999999999992
40
0.749999999999992
40
0.874999999999996
40
0.874999999999996
40
1
40
1
40
1
40
1
41
1
10
64.8038451734583
20
-7.48372157112328
30
0
41
1
10
64.9496149717816
20
-7.86774536140717
30
0
41
1
10
65.1278549160962
20
-8.22151849907641
30
0
41
1
10
65.4624509420363
20
-8.70638425767009
30
0
41
1
10
65.5852486895034
20
-8.86036099798548
30
0
41
1
10
65.7896033417771
20
-9.07962650508136
30
0
41
1
10
65.8606330336169
20
-9.15025144808709
30
0
41
1
10
66.0080794497134
20
-9.28602964072667
30
0
41
1
10
66.0845986718771
20
-9.35129417188426
30
0
41
1
10
66.3229045243098
20
-9.5394148821735
30
0
41
1
10
66.4934107388806
20
-9.65461459399938
30
0
41
1
10
66.7684632534706
20
-9.81264937610456
30
0
41
1
10
66.8633691528935
20
-9.86286315595447
30
0
41
1
10
67.0600350721866
20
-9.95839695397547
30
0
41
1
10
67.160689361122
20
-10.003172981998
30
0
41
1
10
67.4688029573633
20
-10.1287079908659
30
0
41
1
10
67.6827320617464
20
-10.2008848760798
30
0
41
1
10
68.1280006833109
20
-10.3241811963433
30
0
41
1
10
68.3593272626221
20
-10.3753113839244
30
0
41
1
10
68.5999975961651
20
-10.4161413039193
30
0
0
SPLINE
5
166
100
AcDbEntity
8
1
62
256
6
ByLayer
370
18
48
1
60
0
100
AcDbSpline
70
4
71
3
72
20
73
16
40
0
40
0
40
0
40
0
40
0.249999999999987
40
0.249999999999987
40
0.499999999999975
40
0.499999999999975
40
0.62499999999995
40
0.62499999999995
40
0.687499999999958
40
0.687499999999958
40
0.749999999999967
40
0.749999999999967
40
0.874999999999983
40
0.874999999999983
40
1
40
1
40
1
40
1
41
1
10
66.1171548836904
20
-11.1171572875253
30
0
41
1
10
66.1033028600533
20
-11.1033052638882
30
0
41
1
10
66.0878410781352
20
-11.0898378308811
30
0
41
1
10
66.0525460472962
20
-11.0640662965299
30
0
41
1
10
66.0327704551981
20
-11.0517439509737
30
0
41
1
10
65.9979205690493
20
-11.0347613332357
30
0
41
1
10
65.9855610027934
20
-11.0294332619129
30
0
41
1
10
65.9658567234156
20
-11.0221838940746
30
0
41
1
10
65.9590835651671
20
-11.0198870334793
30
0
41
1
10
65.9450681993081
20
-11.0155694206922
30
0
41
1
10
65.9377883641129
20
-11.0135406093498
30
0
41
1
10
65.9155748350432
20
-11.0080445026023
30
0
41
1
10
65.9001972064028
20
-11.0051318662455
30
0
41
1
10
65.8680961677045
20
-11.0011011124387
30
0
41
1
10
65.8512106788315
20
-10.9999999999999
30
0
41
1
10
65.8343121712157
20
-10.9999999999999
30
0
0
SPLINE
5
167
100
AcDbEntity
8
SK1
62
256
6
ByLayer
370
18
48
1
60
0
100
AcDbSpline
70
4
71
3
72
22
73
18
40
0
40
0
40
0
40
0
40
0.125000000000001
40
0.125000000000001
40
0.187500000000002
40
0.187500000000002
40
0.250000000000002
40
0.250000000000002
40
0.499999999999999
40
0.499999999999999
40
0.749999999999997
40
0.749999999999997
40
0.812499999999998
40
0.812499999999998
40
0.874999999999998
40
0.874999999999998
40
1
40
1
40
1
40
1
41
1
10
-100.000007404335
20
-10.9999999999999
30
0
41
1
10
-99.9999974033351
20
-10.9999999999999
30
0
41
1
10
-99.9910757892323
20
-10.9999999999999
30
0
41
1
10
-99.9642520065173
20
-10.9999999999999
30
0
41
1
10
-99.9530738146182
20
-10.9999999999999
30
0
41
1
10
-99.9262607076752
20
-10.9999999999999
30
0
41
1
10
-99.9105902270215
20
-10.9999999999999
30
0
41
1
10
-99.8217322164245
20
-10.9999999999999
30
0
41
1
10
-99.7171118363624
20
-10.9999999999999
30
0
41
1
10
-99.4521745169803
20
-10.9999999999999
30
0
41
1
10
-99.2918947018044
20
-10.9999999999999
30
0
41
1
10
-99.0633803779978
20
-10.9999999999999
30
0
41
1
10
-99.0162659831985
20
-10.9999999999999
30
0
41
1
10
-98.9193648447632
20
-10.9999999999999
30
0
41
1
10
-98.8695357645639
20
-10.9999999999999
30
0
41
1
10
-98.7165564750248
20
-10.9999999999999
30
0
41
1
10
-98.6101759945218
20
-10.9999999999999
30
0
41
1
10
-98.500002403835
20
-10.9999999999999
30
0
0
SPLINE
5
168
100
AcDbEntity
8
1
62
256
6
ByLayer
370
18
48
1
60
0
100
AcDbSpline
70
4
71
3
72
14
73
10
40
0
40
0
40
0
40
0
40
0.125000000000001
40
0.125000000000001
40
0.250000000000003
40
0.250000000000003
40
0.500000000000003
40
0.500000000000003
40
1
40
1
40
1
40
1
41
1
10
65.9959704135402
20
7.67738115627839
30
0
41
1
10
65.927658037364
20
7.60640988999018
30
0
41
1
10
65.8617729635318
20
7.53326702835591
30
0
41
1
10
65.734649297817
20
7.38261194727755
30
0
41
1
10
65.6733313179797
20
7.30499128569977
30
0
41
1
10
65.4965853001912
20
7.0662220518584
30
0
41
1
10
65.3895061975462
20
6.90081725333482
30
0
41
1
10
65.0957165866635
20
6.38675693235041
30
0
41
1
10
64.9362793552419
20
6.0203045689322
30
0
41
1
10
64.8038451734583
20
5.63142879883247
30
0
0
SPLINE
5
169
100
AcDbEntity
8
1
62
256
6
ByLayer
370
18
48
1
60
0
100
AcDbSpline
70
4
71
3
72
36
73
32
40
0
40
0
40
0
40
0
40
0.0699185618112843
40
0.0699185618112843
40
0.105690924818543
40
0.105690924818543
40
0.123577106322172
40
0.123577106322172
40
0.141463287825801
40
0.213008013840317
40
0.284552739854833
40
0.356097465869349
40
0.427642191883865
40
0.427642191883865
40
0.463414554891123
40
0.463414554891123
40
0.481300736394752
40
0.481300736394752
40
0.499186917898382
40
0.570731643912899
40
0.642276369927416
40
0.713821095941933
40
0.78536582195645
40
0.78536582195645
40
0.821138184963708
40
0.821138184963708
40
0.839024366467337
40
0.839024366467337
40
0.856910547970966
40
0.928455273985483
40
1
40
1
40
1
40
1
41
1
10
65.0999976593798
20
12.4999996629875
30
0
41
1
10
65.1000058592368
20
12.4999541165619
30
0
41
1
10
65.1015343076785
20
12.4914769403757
30
0
41
1
10
65.1061905799069
20
12.465663611861
30
0
41
1
10
65.1081731518902
20
12.4546739363859
30
0
41
1
10
65.1117668872623
20
12.4347588550457
30
0
41
1
10
65.1130658509793
20
12.4275612825074
30
0
41
1
10
65.115861317985
20
12.4120738524548
30
0
41
1
10
65.1233467386936
20
12.3706087680287
30
0
41
1
10
65.1412526896181
20
12.2714827109256
30
0
41
1
10
65.1744242481842
20
12.0881918690409
30
0
41
1
10
65.2168732015169
20
11.8542215361415
30
0
41
1
10
65.2514334144174
20
11.6643242937143
30
0
41
1
10
65.2797645558442
20
11.5089699465179
30
0
41
1
10
65.2896104836325
20
11.4550281451938
30
0
41
1
10
65.3049941350597
20
11.3708368817235
30
0
41
1
10
65.310227214841
20
11.3422117917192
30
0
41
1
10
65.3208608400587
20
11.2840769755002
30
0
41
1
10
65.3478853809085
20
11.1364091155474
30
0
41
1
10
65.4004674399836
20
10.8498395280357
30
0
41
1
10
65.4788989094083
20
10.4245103046223
30
0
41
1
10
65.5656920466397
20
9.95644258366525
30
0
41
1
10
65.6292316822945
20
9.61588082157067
30
0
41
1
10
65.679084342666
20
9.34962173611086
30
0
41
1
10
65.6960685399289
20
9.25906099336322
30
0
41
1
10
65.7221064706525
20
9.12047699080375
30
0
41
1
10
65.7308855935537
20
9.07379222841024
30
0
41
1
10
65.7486043565044
20
8.97965564555761
30
0
41
1
10
65.7932525881546
20
8.74266187831745
30
0
41
1
10
65.876768423096
20
8.30136001275491
30
0
41
1
10
65.9554810798249
20
7.88872115509866
30
0
41
1
10
65.9959704135402
20
7.67738115627844
30
0
0
SPLINE
5
16A
100
AcDbEntity
8
1
62
256
6
ByLayer
370
18
48
1
60
0
100
AcDbSpline
70
4
71
3
72
19
73
15
40
0
40
0
40
0
40
0
40
0.249999999999977
40
0.249999999999977
40
0.374999999999981
40
0.374999999999981
40
0.499999999999985
40
0.624999999999988
40
0.624999999999988
40
0.749999999999992
40
0.749999999999992
40
0.874999999999996
40
0.874999999999996
40
1
40
1
40
1
40
1
41
1
10
68.8982643227063
20
-10.2913396888002
30
0
41
1
10
68.870264136297
20
-10.2873129738809
30
0
41
1
10
68.8423351871356
20
-10.2870060607341
30
0
41
1
10
68.8005502579581
20
-10.2923617735362
30
0
41
1
10
68.7865567960113
20
-10.2951588920453
30
0
41
1
10
68.7594152012812
20
-10.3025912362946
30
0
41
1
10
68.7329522910788
20
-10.3118590689706
30
0
41
1
10
68.7078012120596
20
-10.324684730716
30
0
41
1
10
68.6833054662396
20
-10.3392939455599
30
0
41
1
10
68.6716247233226
20
-10.3473483769385
30
0
41
1
10
68.6493600181497
20
-10.3647913225999
30
0
41
1
10
68.6387656905936
20
-10.3741868735258
30
0
41
1
10
68.6185934388224
20
-10.3942540961329
30
0
41
1
10
68.6089958118224
20
-10.4049566415469
30
0
41
1
10
68.5999975961651
20
-10.4161413039193
30
0
0
SPLINE
5
16B
100
AcDbEntity
8
1
62
256
6
ByLayer
370
18
48
1
60
0
100
AcDbSpline
70
4
71
3
72
10
73
6
40
0
40
0
40
0
40
0
40
0.5
40
0.5
40
1
40
1
40
1
40
1
41
1
10
69.6859818587074
20
-10.3627018092544
30
0
41
1
10
69.5518877862289
20
-10.3574180687737
30
0
41
1
10
69.4192297180886
20
-10.348792759223
30
0
41
1
10
69.1566816772655
20
-10.324995793283
30
0
41
1
10
69.0267920372688
20
-10.3098232966561
30
0
41
1
10
68.8982643227105
20
-10.2913396887903
30
0
0
SPLINE
5
16C
100
AcDbEntity
8
1
62
256
6
ByLayer
370
18
48
1
60
0
100
AcDbSpline
70
4
71
3
72
10
73
6
40
0
40
0
40
0
40
0
40
0.5
40
0.5
40
1
40
1
40
1
40
1
41
1
10
69.6859818587074
20
5.70191373565803
30
0
41
1
10
69.5288384527928
20
5.69455178517626
30
0
41
1
10
69.3736210564676
20
5.68173937353288
30
0
41
1
10
69.0668871771192
20
5.64548911060115
30
0
41
1
10
68.9153713157897
20
5.62204945847105
30
0
41
1
10
68.7656830211142
20
5.59322658339801
30
0
0
SPLINE
5
16D
100
AcDbEntity
8
1
62
256
6
ByLayer
370
18
48
1
60
0
100
AcDbSpline
70
4
71
3
72
19
73
15
40
0
40
0
40
0
40
0
40
0.250000000000042
40
0.250000000000042
40
0.31250000000004
40
0.31250000000004
40
0.375000000000038
40
0.375000000000038
40
0.500000000000017
40
0.624999999999996
40
0.624999999999996
40
0.749999999999975
40
0.749999999999975
40
1
40
1
40
1
40
1
41
1
10
68.4828403086395
20
5.68399549983423
30
0
41
1
10
68.5007708780569
20
5.66506213840609
30
0
41
1
10
68.5204754904897
20
5.64853485814069
30
0
41
1
10
68.547513205724
20
5.63111321954136
30
0
41
1
10
68.5530421984732
20
5.62779224392756
30
0
41
1
10
68.5643527469942
20
5.62148934338654
30
0
41
1
10
68.5701489983796
20
5.61850188475086
30
0
41
1
10
68.5876835129543
20
5.61018224993393
30
0
41
1
10
68.6115843142952
20
5.60071650473986
30
0
41
1
10
68.6365156245097
20
5.59444921888803
30
0
41
1
10
68.6619711283657
20
5.58980183239294
30
0
41
1
10
68.6750298950742
20
5.58829388481882
30
0
41
1
10
68.7139477581204
20
5.58630632992748
30
0
41
1
10
68.7398393123256
20
5.58825030925811
30
0
41
1
10
68.7656830211142
20
5.59322658339801
30
0
0
SPLINE
5
16E
100
AcDbEntity
8
1
62
256
6
ByLayer
370
18
48
1
60
0
100
AcDbSpline
70
4
71
3
72
16
73
12
40
0
40
0
40
0
40
0
40
0.25
40
0.25
40
0.499999999999999
40
0.499999999999999
40
0.625
40
0.625
40
0.75
40
0.75
40
1
40
1
40
1
40
1
41
1
10
68.4828403086397
20
5.68399549983434
30
0
41
1
10
68.2833328259352
20
5.89466071574287
30
0
41
1
10
68.0811475452124
20
6.09662690271665
30
0
41
1
10
67.671864477623
20
6.4815550180939
30
0
41
1
10
67.4647768267417
20
6.66455851114745
30
0
41
1
10
67.1502064345161
20
6.92211318597305
30
0
41
1
10
67.0446433329766
20
7.00515304319583
30
0
41
1
10
66.8322042269471
20
7.16460897322537
30
0
41
1
10
66.7264484026304
20
7.24018379371978
30
0
41
1
10
66.4106906367736
20
7.45320782699201
30
0
41
1
10
66.2022059361078
20
7.5772591478302
30
0
41
1
10
65.9959704135402
20
7.67738115627844
30
0
0
SPLINE
5
16F
100
AcDbEntity
8
1
62
256
6
ByLayer
370
13
48
1
60
0
100
AcDbSpline
70
4
71
3
72
25
73
21
40
0
40
0
40
0
40
0
40
0.125
40
0.125
40
0.25
40
0.25
40
0.3125
40
0.3125
40
0.375
40
0.375
40
0.5
40
0.5
40
0.5625
40
0.5625
40
0.625
40
0.625
40
0.75
40
0.875
40
0.875
40
1
40
1
40
1
40
1
41
1
10
68.8982643227063
20
-10.2913396888002
30
0
41
1
10
68.8885893176443
20
-10.469572205325
30
0
41
1
10
68.8784024071877
20
-10.6379654083512
30
0
41
1
10
68.8570760465523
20
-10.9550180389945
30
0
41
1
10
68.8459705574503
20
-11.1031443276864
30
0
41
1
10
68.8287428190621
20
-11.3092774494665
30
0
41
1
10
68.8229030542309
20
-11.3753406859351
30
0
41
1
10
68.8110362241537
20
-11.5021579685709
30
0
41
1
10
68.8050033794204
20
-11.5629639539294
30
0
41
1
10
68.7866901114434
20
-11.7368340373387
30
0
41
1
10
68.7741902414266
20
-11.8414505227754
30
0
41
1
10
68.7550468930725
20
-11.9815352852833
30
0
41
1
10
68.7486000650991
20
-12.0254203365671
30
0
41
1
10
68.7355808659478
20
-12.1075497778367
30
0
41
1
10
68.7290008115602
20
-12.145833118559
30
0
41
1
10
68.7091456646677
20
-12.2518140133181
30
0
41
1
10
68.6823776566019
20
-12.3695117194233
30
0
41
1
10
68.6551206092282
20
-12.4405244287225
30
0
41
1
10
68.6276627807334
20
-12.4880361069051
30
0
41
1
10
68.6138186243579
20
-12.4999999999999
30
0
41
1
10
68.5999975961651
20
-12.4999999999999
30
0
0
SPLINE
5
170
100
AcDbEntity
8
1
62
256
6
ByLayer
370
18
48
1
60
0
100
AcDbSpline
70
4
71
3
72
25
73
21
40
0
40
0
40
0
40
0
40
0.125000000000004
40
0.125000000000004
40
0.187500000000006
40
0.187500000000006
40
0.250000000000008
40
0.250000000000008
40
0.500000000000014
40
0.500000000000014
40
0.562500000000014
40
0.562500000000014
40
0.625000000000013
40
0.625000000000013
40
0.750000000000009
40
0.875000000000004
40
0.875000000000004
40
0.937500000000002
40
0.937500000000002
40
1
40
1
40
1
40
1
41
1
10
87.499997596165
20
-7.37972863269988
30
0
41
1
10
87.499997596165
20
-7.41505854409928
30
0
41
1
10
87.5020622422804
20
-7.45030396269021
30
0
41
1
10
87.5082733676754
20
-7.50304464800757
30
0
41
1
10
87.5108642517791
20
-7.52060357533145
30
0
41
1
10
87.5171085539577
20
-7.55567794723481
30
0
41
1
10
87.5207712346017
20
-7.5732163605482
30
0
41
1
10
87.5415186753942
20
-7.65966130608575
30
0
41
1
10
87.565920938475
20
-7.72576368976195
30
0
41
1
10
87.6062816463964
20
-7.80453460201659
30
0
41
1
10
87.6148538790764
20
-7.8200931150929
30
0
41
1
10
87.6330316661657
20
-7.85080583607339
30
0
41
1
10
87.6425959570536
20
-7.86588413939057
30
0
41
1
10
87.672461444365
20
-7.9099133998173
30
0
41
1
10
87.715584286269
20
-7.96572949229829
30
0
41
1
10
87.7652960815293
20
-8.01577991148241
30
0
41
1
10
87.8051673417519
20
-8.05105360565028
30
0
41
1
10
87.8189314975619
20
-8.06246432773992
30
0
41
1
10
87.8471724691001
20
-8.0843496682221
30
0
41
1
10
87.8615746521126
20
-8.09477103676562
30
0
41
1
10
87.8762544090722
20
-8.10467873407845
30
0
0
SPLINE
5
171
100
AcDbEntity
8
1
62
256
6
ByLayer
370
18
48
1
60
0
100
AcDbSpline
70
4
71
3
72
9
73
5
40
0
40
0
40
0
40
0
40
0.5
40
1
40
1
40
1
40
1
41
1
10
90.859997596165
20
-12.4932718067628
30
0
41
1
10
90.8600866244775
20
-12.4932718067628
30
0
41
1
10
90.8602646778309
20
-12.4932718074112
30
0
41
1
10
90.8604427246421
20
-12.4932718093563
30
0
41
1
10
90.8605317464124
20
-12.4932718106529
30
0
0
SPLINE
5
172
100
AcDbEntity
8
1
62
256
6
ByLayer
370
18
48
1
60
0
100
AcDbSpline
70
4
71
3
72
14
73
10
40
0
40
0
40
0
40
0
40
0.125
40
0.125
40
0.25
40
0.25
40
0.5
40
0.5
40
1
40
1
40
1
40
1
41
1
10
90.8605317464126
20
-12.4932718106529
30
0
41
1
10
90.8837417918209
20
-12.4930367643686
30
0
41
1
10
90.9071327505599
20
-12.4928093115949
30
0
41
1
10
90.9542819574935
20
-12.4923741130724
30
0
41
1
10
90.9780118455967
20
-12.492166684336
30
0
41
1
10
91.0492472038408
20
-12.4915840013835
30
0
41
1
10
91.0969552083205
20
-12.4912471057702
30
0
41
1
10
91.2407232723831
20
-12.490423474242
30
0
41
1
10
91.3374238494736
20
-12.4901271660993
30
0
41
1
10
91.434997596165
20
-12.4901271660993
30
0
0
SPLINE
5
173
100
AcDbEntity
8
1
62
256
6
ByLayer
370
18
48
1
60
0
100
AcDbSpline
70
4
71
3
72
14
73
10
40
0
40
0
40
0
40
0
40
0.249999999999999
40
0.499999999999999
40
0.749999999999998
40
0.749999999999998
40
0.874999999999999
40
0.874999999999999
40
1
40
1
40
1
40
1
41
1
10
92.299997596165
20
-12.4901271660993
30
0
41
1
10
92.3708301988077
20
-12.4901271660993
30
0
41
1
10
92.5112079603446
20
-12.4904370452675
30
0
41
1
10
92.7180508077187
20
-12.4917363134764
30
0
41
1
10
92.853469492685
20
-12.4930375243922
30
0
41
1
10
92.9540744264792
20
-12.4941065559888
30
0
41
1
10
92.9875003123375
20
-12.4944787637416
30
0
41
1
10
93.0535028944387
20
-12.495232227372
30
0
41
1
10
93.0861333659827
20
-12.4956140096747
30
0
41
1
10
93.1183926099121
20
-12.4959918405208
30
0
0
SPLINE
5
174
100
AcDbEntity
8
1
62
256
6
ByLayer
370
18
48
1
60
0
100
AcDbSpline
70
4
71
3
72
26
73
22
40
0
40
0
40
0
40
0
40
0.0624999999999997
40
0.0624999999999997
40
0.124999999999999
40
0.124999999999999
40
0.187499999999999
40
0.187499999999999
40
0.249999999999999
40
0.249999999999999
40
0.374999999999998
40
0.374999999999998
40
0.499999999999997
40
0.499999999999997
40
0.624999999999997
40
0.624999999999997
40
0.687499999999996
40
0.687499999999996
40
0.749999999999996
40
0.749999999999996
40
1
40
1
40
1
40
1
41
1
10
88.299997596165
20
-6.74193548387086
30
0
41
1
10
88.2636034650756
20
-6.74193548387086
30
0
41
1
10
88.227987797644
20
-6.73815171346916
30
0
41
1
10
88.1581643585946
20
-6.72372753984007
30
0
41
1
10
88.1237139988228
20
-6.7129169138251
30
0
41
1
10
88.0589885741372
20
-6.68615495890907
30
0
41
1
10
88.0283269479861
20
-6.67017193252116
30
0
41
1
10
87.9698143359313
20
-6.63386367252537
30
0
41
1
10
87.9420558235687
20
-6.61353985097418
30
0
41
1
10
87.8646191950704
20
-6.54894040390491
30
0
41
1
10
87.8196692682726
20
-6.50051702384235
30
0
41
1
10
87.7392421874821
20
-6.39577506160225
30
0
41
1
10
87.7048570186948
20
-6.34079152085508
30
0
41
1
10
87.6447977044065
20
-6.22699388967055
30
0
41
1
10
87.6191442604872
20
-6.16811665670724
30
0
41
1
10
87.586273404902
20
-6.07714725292402
30
0
41
1
10
87.5762408635494
20
-6.04629912085198
30
0
41
1
10
87.5581558722407
20
-5.98430423698915
30
0
41
1
10
87.5500846480762
20
-5.95312104579699
30
0
41
1
10
87.514316302771
20
-5.7963022271723
30
0
41
1
10
87.499997596165
20
-5.66800640032687
30
0
41
1
10
87.499997596165
20
-5.53677419354824
30
0
0
SPLINE
5
175
100
AcDbEntity
8
1
62
256
6
ByLayer
370
18
48
1
60
0
100
AcDbSpline
70
4
71
3
72
72
73
68
40
0
40
0
40
0
40
0
40
0.0312500000000021
40
0.0312500000000021
40
0.0468750000000036
40
0.0468750000000036
40
0.0625000000000052
40
0.0625000000000052
40
0.125000000000009
40
0.125000000000009
40
0.14062500000001
40
0.14062500000001
40
0.156250000000011
40
0.156250000000011
40
0.187500000000012
40
0.218750000000013
40
0.218750000000013
40
0.234375000000012
40
0.234375000000012
40
0.250000000000012
40
0.250000000000012
40
0.312500000000012
40
0.312500000000012
40
0.328125000000011
40
0.328125000000011
40
0.343750000000011
40
0.343750000000011
40
0.37500000000001
40
0.37500000000001
40
0.406250000000009
40
0.406250000000009
40
0.421875000000009
40
0.421875000000009
40
0.437500000000008
40
0.437500000000008
40
0.500000000000007
40
0.500000000000007
40
0.531250000000006
40
0.531250000000006
40
0.562500000000005
40
0.593750000000004
40
0.593750000000004
40
0.609375000000003
40
0.609375000000003
40
0.625000000000003
40
0.625000000000003
40
0.687500000000001
40
0.687500000000001
40
0.703125000000001
40
0.703125000000001
40
0.718750000000001
40
0.718750000000001
40
0.75
40
0.75
40
0.781249999999999
40
0.781249999999999
40
0.796874999999999
40
0.796874999999999
40
0.812499999999999
40
0.812499999999999
40
0.874999999999999
40
0.874999999999999
40
0.906249999999999
40
0.906249999999999
40
0.9375
40
0.9375
40
1
40
1
40
1
40
1
41
1
10
74.6060398077366
20
7.9526602492657
30
0
41
1
10
74.510425210452
20
7.93243240625054
30
0
41
1
10
74.412180090144
20
7.91405923015139
30
0
41
1
10
74.2607077906516
20
7.88965351096044
30
0
41
1
10
74.209531435637
20
7.88204468965728
30
0
41
1
10
74.1057615019249
20
7.86795250715784
30
0
41
1
10
74.053217786165
20
7.86148111560709
30
0
41
1
10
73.7901461961218
20
7.83244501027121
30
0
41
1
10
73.5760883496512
20
7.81944371262546
30
0
41
1
10
73.3038917985975
20
7.81696579096854
30
0
41
1
10
73.2492031990665
20
7.8171674954267
30
0
41
1
10
73.1407138780464
20
7.81894612726632
30
0
41
1
10
73.0867420055934
20
7.82051992312677
30
0
41
1
10
72.9256277833739
20
7.82724065897639
30
0
41
1
10
72.7129417630583
20
7.84152875718041
30
0
41
1
10
72.5044460615927
20
7.86600969337343
30
0
41
1
10
72.3496682849762
20
7.88806987171461
30
0
41
1
10
72.2983281950071
20
7.89604780547268
30
0
41
1
10
72.1974575418767
20
7.91299022149553
30
0
41
1
10
72.1477617385734
20
7.92197675039307
30
0
41
1
10
71.9028794503602
20
7.96931124559097
30
0
41
1
10
71.7183578617863
20
8.01481322799185
30
0
41
1
10
71.5016258863969
20
8.07903119681282
30
0
41
1
10
71.4589902717778
20
8.09224694582542
30
0
41
1
10
71.3760821527534
20
8.1190556002951
30
0
41
1
10
71.3356825855433
20
8.13268511255433
30
0
41
1
10
71.2175728457885
20
8.17414948659734
30
0
41
1
10
71.1429422410914
20
8.20255805788634
30
0
41
1
10
71.0017415021704
20
8.26043837125013
30
0
41
1
10
70.9351712149257
20
8.28991103123462
30
0
41
1
10
70.8414711504834
20
8.33461107322881
30
0
41
1
10
70.8111968094838
20
8.34963117425218
30
0
41
1
10
70.7533445501899
20
8.37947456862361
30
0
41
1
10
70.7257063913544
20
8.39432366883892
30
0
41
1
10
70.593838220831
20
8.46809399188521
30
0
41
1
10
70.5083466804493
20
8.52557291139777
30
0
41
1
10
70.4106769203241
20
8.60760633171259
30
0
41
1
10
70.3831942889736
20
8.63438021161369
30
0
41
1
10
70.3400258938998
20
8.68508110475545
30
0
41
1
10
70.3082613202658
20
8.7331925715435
30
0
41
1
10
70.2990254321356
20
8.77598036468072
30
0
41
1
10
70.3007378125166
20
8.8060202693818
30
0
41
1
10
70.3027515723421
20
8.81569170761179
30
0
41
1
10
70.309736382613
20
8.83434128963773
30
0
41
1
10
70.3147293690784
20
8.84333561657138
30
0
41
1
10
70.346849944067
20
8.88602912987426
30
0
41
1
10
70.3952511666417
20
8.9133513113473
30
0
41
1
10
70.4837482586848
20
8.94016194894249
30
0
41
1
10
70.5028625906569
20
8.94515594315169
30
0
41
1
10
70.5439732471863
20
8.95443444847672
30
0
41
1
10
70.5660462554849
20
8.95873035088431
30
0
41
1
10
70.6359790312185
20
8.97047981064128
30
0
41
1
10
70.687549609042
20
8.97682010747423
30
0
41
1
10
70.8002901850797
20
8.98700288130027
30
0
41
1
10
70.8614609185909
20
8.99084430042552
30
0
41
1
10
70.9604545527729
20
8.99505501699196
30
0
41
1
10
70.9946613100225
20
8.99619968166468
30
0
41
1
10
71.0655314234691
20
8.99802210709089
30
0
41
1
10
71.1023102207525
20
8.99870091381496
30
0
41
1
10
71.2908883495619
20
9.00103586757285
30
0
41
1
10
71.4560344162156
20
8.99958651362851
30
0
41
1
10
71.7246972139519
20
8.99535600048154
30
0
41
1
10
71.817979071407
20
8.9935896587408
30
0
41
1
10
72.0110237796737
20
8.98977902017333
30
0
41
1
10
72.1094310133557
20
8.98776465115139
30
0
41
1
10
72.4101395638318
20
8.98195030937984
30
0
41
1
10
72.6178645106428
20
8.97840919545439
30
0
41
1
10
72.8331683548073
20
8.97622805985395
30
0
0
SPLINE
5
176
100
AcDbEntity
8
1
62
256
6
ByLayer
370
18
48
1
60
0
100
AcDbSpline
70
4
71
3
72
17
73
13
40
0
40
0
40
0
40
0
40
0.125000000000001
40
0.125000000000001
40
0.250000000000003
40
0.250000000000003
40
0.500000000000004
40
0.750000000000006
40
0.750000000000006
40
0.875000000000003
40
0.875000000000003
40
1
40
1
40
1
40
1
41
1
10
87.8762544090722
20
-8.10467873407845
30
0
41
1
10
87.8918497135998
20
-8.11792823299419
30
0
41
1
10
87.9077909443907
20
-8.13066653161411
30
0
41
1
10
87.9403732354956
20
-8.1551089400773
30
0
41
1
10
87.957065392521
20
-8.16684497069463
30
0
41
1
10
88.0077392082862
20
-8.20015631470187
30
0
41
1
10
88.0769263502633
20
-8.23960255675911
30
0
41
1
10
88.1493140345995
20
-8.26924448984187
30
0
41
1
10
88.2048582854798
20
-8.2876360967071
30
0
41
1
10
88.2235826802873
20
-8.29312442255303
30
0
41
1
10
88.2614697967255
20
-8.30275833569527
30
0
41
1
10
88.2806740127041
20
-8.30691069536249
30
0
41
1
10
88.299997596165
20
-8.310330963365
30
0
0
SPLINE
5
177
100
AcDbEntity
8
1
62
256
6
ByLayer
370
18
48
1
60
0
100
AcDbSpline
70
4
71
3
72
10
73
6
40
0
40
0
40
0
40
0
40
0.0961485698353464
40
0.0961485698353464
40
1
40
1
40
1
40
1
41
1
10
90.4838222837445
20
-8.63289275452763
30
0
41
1
10
90.4906024478297
20
-8.63262892640199
30
0
41
1
10
90.4974022565839
20
-8.63237717475295
30
0
41
1
10
90.5683282285303
20
-8.62988482026702
30
0
41
1
10
90.6346726391614
20
-8.62872339327919
30
0
41
1
10
90.6999975961651
20
-8.62872339327919
30
0
0
SPLINE
5
178
100
AcDbEntity
8
1
62
256
6
ByLayer
370
18
48
1
60
0
100
AcDbSpline
70
4
71
3
72
23
73
19
40
0
40
0
40
0
40
0
40
0.125000000000001
40
0.125000000000001
40
0.250000000000002
40
0.250000000000002
40
0.500000000000003
40
0.500000000000003
40
0.562500000000003
40
0.562500000000003
40
0.625000000000002
40
0.625000000000002
40
0.750000000000001
40
0.875
40
0.875
40
0.9375
40
0.9375
40
1
40
1
40
1
40
1
41
1
10
90.9499975961651
20
-8.62872339327919
30
0
41
1
10
90.9888376865553
20
-8.62872339327919
30
0
41
1
10
91.027533756466
20
-8.62912252225101
30
0
41
1
10
91.1046384401678
20
-8.6307136008304
30
0
41
1
10
91.143071539827
20
-8.63190650780626
30
0
41
1
10
91.2577740854761
20
-8.63669775806227
30
0
41
1
10
91.3306140538513
20
-8.64137395538228
30
0
41
1
10
91.4172945225988
20
-8.64889904481356
30
0
41
1
10
91.4344092975423
20
-8.65048897805002
30
0
41
1
10
91.4681889293076
20
-8.65383796189462
30
0
41
1
10
91.4849066129733
20
-8.65560310770155
30
0
41
1
10
91.5339335663748
20
-8.66110375324382
30
0
41
1
10
91.5961791813251
20
-8.66896198041206
30
0
41
1
10
91.65238558851
20
-8.67777102752251
30
0
41
1
10
91.6922597499434
20
-8.68471228285711
30
0
41
1
10
91.7051700808834
20
-8.68708191927169
30
0
41
1
10
91.7302140480999
20
-8.69193093373275
30
0
41
1
10
91.7423726486622
20
-8.69441643109934
30
0
41
1
10
91.7539885873517
20
-8.69692407980438
30
0
0
LINE
5
77
100
AcDbEntity
8
1
62
256
6
ByLayer
370
13
48
1
60
0
100
AcDbLine
10
83.85526
20
-7.288732
30
0
11
83.953486
21
-7.452085
31
0
39
0
210
0
220
0
230
1
0
LINE
5
78
100
AcDbEntity
8
1
62
256
6
ByLayer
370
18
48
1
60
0
100
AcDbLine
10
85.423744
20
-4.174005
30
0
11
85.60692
21
-4.478632
31
0
39
0
210
0
220
0
230
1
0
LINE
5
79
100
AcDbEntity
8
1
62
256
6
ByLayer
370
13
48
1
60
0
100
AcDbLine
10
90.949998
20
-8.696411
30
0
11
90.949998
21
-8.628723
31
0
39
0
210
0
220
0
230
1
0
LINE
5
7A
100
AcDbEntity
8
1
62
256
6
ByLayer
370
13
48
1
60
0
100
AcDbLine
10
95.592033
20
-11.404798
30
0
11
95.911081
21
-11.404798
31
0
39
0
210
0
220
0
230
1
0
LINE
5
7B
100
AcDbEntity
8
1
62
256
6
ByLayer
370
13
48
1
60
0
100
AcDbLine
10
95.592032
20
-10.793142
30
0
11
95.592032
21
-10.181485
31
0
39
0
210
0
220
0
230
1
0
LINE
5
7C
100
AcDbEntity
8
1
62
256
6
ByLayer
370
13
48
1
60
0
100
AcDbLine
10
95.592032
20
-10.793142
30
0
11
95.592032
21
-11.4048
31
0
39
0
210
0
220
0
230
1
0
LINE
5
7D
100
AcDbEntity
8
1
62
256
6
ByLayer
370
18
48
1
60
0
100
AcDbLine
10
96.972612
20
-12.007799
30
0
11
96.972612
21
-9.492201
31
0
39
0
210
0
220
0
230
1
0
LINE
5
7E
100
AcDbEntity
8
1
62
256
6
ByLayer
370
18
48
1
60
0
100
AcDbLine
10
96.743001
20
-11.788064
30
0
11
96.064296
21
-11.551172
31
0
39
0
210
0
220
0
230
1
0
LINE
5
7F
100
AcDbEntity
8
1
62
256
6
ByLayer
370
18
48
1
60
0
100
AcDbLine
10
95.911082
20
-10.181351
30
0
11
95.911082
21
-11.404933
31
0
39
0
210
0
220
0
230
1
0
LINE
5
80
100
AcDbEntity
8
1
62
256
6
ByLayer
370
13
48
1
60
0
100
AcDbLine
10
82.846654
20
-7.869781
30
0
11
82.94488
21
-8.033134
31
0
39
0
210
0
220
0
230
1
0
LINE
5
81
100
AcDbEntity
8
1
62
256
6
ByLayer
370
18
48
1
60
0
100
AcDbLine
10
99.099998
20
-8.751613
30
0
11
99.099998
21
-8.696924
31
0
39
0
210
0
220
0
230
1
0
LINE
5
82
100
AcDbEntity
8
1
62
256
6
ByLayer
370
13
48
1
60
0
100
AcDbLine
10
95.404092
20
-10.781673
30
0
11
95.404093
21
-10.170017
31
0
39
0
210
0
220
0
230
1
0
LINE
5
83
100
AcDbEntity
8
1
62
256
6
ByLayer
370
13
48
1
60
0
100
AcDbLine
10
96.972612
20
-12.0078
30
0
11
95.469656
21
-12.0078
31
0
39
0
210
0
220
0
230
1
0
LINE
5
84
100
AcDbEntity
8
1
62
256
6
ByLayer
370
18
48
1
60
0
100
AcDbLine
10
84.022714
20
-6.443753
30
0
11
83.934736
21
-6.297444
31
0
39
0
210
0
220
0
230
1
0
LINE
5
85
100
AcDbEntity
8
1
62
256
6
ByLayer
370
13
48
1
60
0
100
AcDbLine
10
96.972612
20
-9.4922
30
0
11
95.469656
21
-9.4922
31
0
39
0
210
0
220
0
230
1
0
LINE
5
86
100
AcDbEntity
8
1
62
256
6
ByLayer
370
13
48
1
60
0
100
AcDbLine
10
95.31874
20
-11.568922
30
0
11
95.404095
21
-11.393325
31
0
39
0
210
0
220
0
230
1
0
LINE
5
87
100
AcDbEntity
8
1
62
256
6
ByLayer
370
18
48
1
60
0
100
AcDbLine
10
99.099998
20
-6.741935
30
0
11
88.299998
21
-6.741935
31
0
39
0
210
0
220
0
230
1
0
LINE
5
88
100
AcDbEntity
8
1
62
256
6
ByLayer
370
13
48
1
60
0
100
AcDbLine
10
95.592033
20
-10.181487
30
0
11
95.911081
21
-10.181487
31
0
39
0
210
0
220
0
230
1
0
LINE
5
89
100
AcDbEntity
8
1
62
256
6
ByLayer
370
13
48
1
60
0
100
AcDbLine
10
95.226435
20
-10.7903
30
0
11
95.318745
21
-11.568933
31
0
39
0
210
0
220
0
230
1
0
LINE
5
8A
100
AcDbEntity
8
1
62
256
6
ByLayer
370
13
48
1
60
0
100
AcDbLine
10
95.226435
20
-10.687959
30
0
11
95.318745
21
-9.953535
31
0
39
0
210
0
220
0
230
1
0
LINE
5
8B
100
AcDbEntity
8
1
62
256
6
ByLayer
370
18
48
1
60
0
100
AcDbLine
10
84.130264
20
-6.721507
30
0
11
84.0375
21
-6.567237
31
0
39
0
210
0
220
0
230
1
0
LINE
5
8C
100
AcDbEntity
8
1
62
256
6
ByLayer
370
13
48
1
60
0
100
AcDbLine
10
95.31874
20
-9.953544
30
0
11
95.404095
21
-10.170021
31
0
39
0
210
0
220
0
230
1
0
LINE
5
8D
100
AcDbEntity
8
1
62
256
6
ByLayer
370
13
48
1
60
0
100
AcDbLine
10
95.404092
20
-10.781673
30
0
11
95.404093
21
-11.393328
31
0
39
0
210
0
220
0
230
1
0
LINE
5
8E
100
AcDbEntity
8
1
62
256
6
ByLayer
370
18
48
1
60
0
100
AcDbLine
10
96.743001
20
-9.7306
30
0
11
96.064296
21
-10.022659
31
0
39
0
210
0
220
0
230
1
0
LINE
5
8F
100
AcDbEntity
8
1
62
256
6
ByLayer
370
13
48
1
60
0
100
AcDbLine
10
80.912596
20
-5.610911
30
0
11
80.985576
21
-5.732279
31
0
39
0
210
0
220
0
230
1
0
LINE
5
90
100
AcDbEntity
8
1
62
256
6
ByLayer
370
13
48
1
60
0
100
AcDbLine
10
82.865782
20
-4.462537
30
0
11
82.94488
21
-4.59408
31
0
39
0
210
0
220
0
230
1
0
LINE
5
91
100
AcDbEntity
8
1
62
256
6
ByLayer
370
18
48
1
60
0
100
AcDbLine
10
83.027119
20
-4.789104
30
0
11
82.934052
21
-4.634331
31
0
39
0
210
0
220
0
230
1
0
LINE
5
92
100
AcDbEntity
8
1
62
256
6
ByLayer
370
18
48
1
60
0
100
AcDbLine
10
81.020356
20
-5.736173
30
0
11
81.11312
21
-5.890443
31
0
39
0
210
0
220
0
230
1
0
LINE
5
93
100
AcDbEntity
8
1
62
256
6
ByLayer
370
13
48
1
60
0
100
AcDbLine
10
81.202596
20
-7.300848
30
0
11
81.300822
21
-7.464201
31
0
39
0
210
0
220
0
230
1
0
LINE
5
94
100
AcDbEntity
8
1
62
256
6
ByLayer
370
13
48
1
60
0
100
AcDbLine
10
84.170258
20
-5.554344
30
0
11
84.268237
21
-5.717285
31
0
39
0
210
0
220
0
230
1
0
LINE
5
95
100
AcDbEntity
8
1
62
256
6
ByLayer
370
18
48
1
60
0
100
AcDbLine
10
82.123803
20
-7.66908
30
0
11
82.21687
21
-7.823853
31
0
39
0
210
0
220
0
230
1
0
LINE
5
96
100
AcDbEntity
8
1
62
256
6
ByLayer
370
18
48
1
60
0
100
AcDbLine
10
83.934736
20
-5.993124
30
0
11
84.022714
21
-6.139433
31
0
39
0
210
0
220
0
230
1
0
LINE
5
97
100
AcDbEntity
8
1
62
256
6
ByLayer
370
18
48
1
60
0
100
AcDbLine
10
95.709452
20
-12.074428
30
0
11
96.657357
21
-12.619619
31
0
39
0
210
0
220
0
230
1
0
LINE
5
98
100
AcDbEntity
8
1
62
256
6
ByLayer
370
18
48
1
60
0
100
AcDbLine
10
97.012426
20
-12.657596
30
0
11
96.748633
21
-12.646122
31
0
39
0
210
0
220
0
230
1
0
LINE
5
99
100
AcDbEntity
8
1
62
256
6
ByLayer
370
18
48
1
60
0
100
AcDbLine
10
97.800468
20
-12.691871
30
0
11
97.012426
21
-12.657596
31
0
39
0
210
0
220
0
230
1
0
LINE
5
9A
100
AcDbEntity
8
1
62
256
6
ByLayer
370
18
48
1
60
0
100
AcDbLine
10
99.469148
20
-12.76445
30
0
11
97.800468
21
-12.691871
31
0
39
0
210
0
220
0
230
1
0
LINE
5
9B
100
AcDbEntity
8
1
62
256
6
ByLayer
370
18
48
1
60
0
100
AcDbLine
10
100
20
-9.131184
30
0
11
100
21
-12.368816
31
0
39
0
210
0
220
0
230
1
0
LINE
5
9C
100
AcDbEntity
8
1
62
256
6
ByLayer
370
18
48
1
60
0
100
AcDbLine
10
99.469148
20
-8.73555
30
0
11
97.800468
21
-8.808129
31
0
39
0
210
0
220
0
230
1
0
LINE
5
9D
100
AcDbEntity
8
1
62
256
6
ByLayer
370
18
48
1
60
0
100
AcDbLine
10
97.800468
20
-8.808129
30
0
11
97.012426
21
-8.842404
31
0
39
0
210
0
220
0
230
1
0
LINE
5
9E
100
AcDbEntity
8
1
62
256
6
ByLayer
370
18
48
1
60
0
100
AcDbLine
10
97.012426
20
-8.842404
30
0
11
96.748633
21
-8.853878
31
0
39
0
210
0
220
0
230
1
0
LINE
5
9F
100
AcDbEntity
8
1
62
256
6
ByLayer
370
18
48
1
60
0
100
AcDbLine
10
95.709452
20
-9.425572
30
0
11
96.657357
21
-8.880381
31
0
39
0
210
0
220
0
230
1
0
LINE
5
A0
100
AcDbEntity
8
1
62
256
6
ByLayer
370
13
48
1
60
0
100
AcDbLine
10
95.024711
20
-9.681496
30
0
11
95.024711
21
-9.491083
31
0
39
0
210
0
220
0
230
1
0
LINE
5
A1
100
AcDbEntity
8
1
62
256
6
ByLayer
370
13
48
1
60
0
100
AcDbLine
10
95.459453
20
-9.492304
30
0
11
95.731195
21
-9.413068
31
0
39
0
210
0
220
0
230
1
0
LINE
5
A2
100
AcDbEntity
8
1
62
256
6
ByLayer
370
18
48
1
60
0
100
AcDbLine
10
94.819859
20
-9.178109
30
0
11
96.139635
21
-9.178109
31
0
39
0
210
0
220
0
230
1
0
LINE
5
A3
100
AcDbEntity
8
1
62
256
6
ByLayer
370
18
48
1
60
0
100
AcDbLine
10
94.947214
20
-9.491083
30
0
11
95.024711
21
-9.491083
31
0
39
0
210
0
220
0
230
1
0
LINE
5
A4
100
AcDbEntity
8
1
62
256
6
ByLayer
370
13
48
1
60
0
100
AcDbLine
10
95.024711
20
-11.947301
30
0
11
95.024711
21
-12.006475
31
0
39
0
210
0
220
0
230
1
0
LINE
5
A5
100
AcDbEntity
8
1
62
256
6
ByLayer
370
18
48
1
60
0
100
AcDbLine
10
95.001765
20
-12.006475
30
0
11
95.024711
21
-12.006475
31
0
39
0
210
0
220
0
230
1
0
LINE
5
A6
100
AcDbEntity
8
1
62
256
6
ByLayer
370
18
48
1
60
0
100
AcDbLine
10
64.078188
20
-4.898979
30
0
11
0
21
-4.898979
31
0
39
0
210
0
220
0
230
1
0
LINE
5
A7
100
AcDbEntity
8
1
62
256
6
ByLayer
370
18
48
1
60
0
100
AcDbLine
10
64.571215
20
4.898979
30
0
11
64.078188
21
-4.898979
31
0
39
0
210
0
220
0
230
1
0
LINE
5
A8
100
AcDbEntity
8
SK1
62
256
6
ByLayer
370
18
48
1
60
0
100
AcDbLine
10
-98.500002
20
4.898979
30
0
11
0
21
4.898979
31
0
39
0
210
0
220
0
230
1
0
LINE
5
AA
100
AcDbEntity
8
1
62
256
6
ByLayer
370
18
48
1
60
0
100
AcDbLine
10
68.599998
20
-12.5
30
0
11
67.499998
21
-12.5
31
0
39
0
210
0
220
0
230
1
0
LINE
5
AB
100
AcDbEntity
8
1
62
256
6
ByLayer
370
18
48
1
60
0
100
AcDbLine
10
65.834312
20
-11
30
0
11
0
21
-11
31
0
39
0
210
0
220
0
230
1
0
LINE
5
AC
100
AcDbEntity
8
SK1
62
256
6
ByLayer
370
18
48
1
60
0
100
AcDbLine
10
-100.000002
20
11
30
0
11
-98.500002
21
12.5
31
0
39
0
210
0
220
0
230
1
0
LINE
5
AD
100
AcDbEntity
8
1
62
256
6
ByLayer
370
18
48
1
60
0
100
AcDbLine
10
79.607944
20
-8.085887
30
0
11
79.424768
21
-7.78126
31
0
39
0
210
0
220
0
230
1
0
LINE
5
AE
100
AcDbEntity
8
SK1
62
256
6
ByLayer
370
18
48
1
60
0
100
AcDbLine
10
-98.500002
20
12.5
30
0
11
0
21
12.5
31
0
39
0
210
0
220
0
230
1
0
LINE
5
AF
100
AcDbEntity
8
1
62
256
6
ByLayer
370
13
48
1
60
0
100
AcDbLine
10
64.803845
20
-7.483722
30
0
11
64.803845
21
5.631429
31
0
39
0
210
0
220
0
230
1
0
LINE
5
B0
100
AcDbEntity
8
1
62
256
6
ByLayer
370
13
48
1
60
0
100
AcDbLine
10
69.685982
20
-10.362702
30
0
11
69.685982
21
5.701914
31
0
39
0
210
0
220
0
230
1
0
LINE
5
B1
100
AcDbEntity
8
1
62
256
6
ByLayer
370
18
48
1
60
0
100
AcDbLine
10
65.099998
20
12.5
30
0
11
68.48284
21
9.117157
31
0
39
0
210
0
220
0
230
1
0
LINE
5
B2
100
AcDbEntity
8
1
62
256
6
ByLayer
370
18
48
1
60
0
100
AcDbLine
10
68.765683
20
9
30
0
11
71.298541
21
9
31
0
39
0
210
0
220
0
230
1
0
LINE
5
B3
100
AcDbEntity
8
1
62
256
6
ByLayer
370
18
48
1
60
0
100
AcDbLine
10
87.499998
20
-7.379729
30
0
11
87.499998
21
0.50833
31
0
39
0
210
0
220
0
230
1
0
LINE
5
B4
100
AcDbEntity
8
1
62
256
6
ByLayer
370
18
48
1
60
0
100
AcDbLine
10
87.499998
20
0.50833
30
0
11
77.868242
21
6.069227
31
0
39
0
210
0
220
0
230
1
0
LINE
5
B5
100
AcDbEntity
8
1
62
256
6
ByLayer
370
18
48
1
60
0
100
AcDbLine
10
87.876254
20
-8.104679
30
0
11
87.876254
21
-11.000099
31
0
39
0
210
0
220
0
230
1
0
LINE
5
B6
100
AcDbEntity
8
1
62
256
6
ByLayer
370
18
48
1
60
0
100
AcDbLine
10
70.326075
20
-12.5
30
0
11
68.599998
21
-12.5
31
0
39
0
210
0
220
0
230
1
0
LINE
5
B7
100
AcDbEntity
8
1
62
256
6
ByLayer
370
18
48
1
60
0
100
AcDbLine
10
89.494456
20
-12.5
30
0
11
79.930262
21
-12.5
31
0
39
0
210
0
220
0
230
1
0
LINE
5
B8
100
AcDbEntity
8
1
62
256
6
ByLayer
370
18
48
1
60
0
100
AcDbLine
10
90.399998
20
-12.493272
30
0
11
90.859998
21
-12.493272
31
0
39
0
210
0
220
0
230
1
0
LINE
5
B9
100
AcDbEntity
8
1
62
256
6
ByLayer
370
18
48
1
60
0
100
AcDbLine
10
91.434998
20
-12.490127
30
0
11
92.299998
21
-12.490127
31
0
39
0
210
0
220
0
230
1
0
LINE
5
BA
100
AcDbEntity
8
1
62
256
6
ByLayer
370
18
48
1
60
0
100
AcDbLine
10
95.137195
20
-11.657076
30
0
11
94.819418
21
-12.476992
31
0
39
0
210
0
220
0
230
1
0
LINE
5
BB
100
AcDbEntity
8
1
62
256
6
ByLayer
370
18
48
1
60
0
100
AcDbLine
10
95.137195
20
-11.657076
30
0
11
95.137195
21
-9.957998
31
0
39
0
210
0
220
0
230
1
0
LINE
5
BC
100
AcDbEntity
8
1
62
256
6
ByLayer
370
18
48
1
60
0
100
AcDbLine
10
95.137195
20
-9.957998
30
0
11
94.737111
21
-8.974549
31
0
39
0
210
0
220
0
230
1
0
LINE
5
BD
100
AcDbEntity
8
1
62
256
6
ByLayer
370
18
48
1
60
0
100
AcDbLine
10
76.295886
20
-12.48201
30
0
11
76.295886
21
-12.498442
31
0
39
0
210
0
220
0
230
1
0
LINE
5
BE
100
AcDbEntity
8
1
62
256
6
ByLayer
370
18
48
1
60
0
100
AcDbLine
10
75.428329
20
-12.232391
30
0
11
75.428329
21
-12.367146
31
0
39
0
210
0
220
0
230
1
0
LINE
5
BF
100
AcDbEntity
8
1
62
256
6
ByLayer
370
18
48
1
60
0
100
AcDbLine
10
95.164559
20
-11.526683
30
0
11
95.187722
21
-11.391932
31
0
39
0
210
0
220
0
230
1
0
LINE
5
C0
100
AcDbEntity
8
1
62
256
6
ByLayer
370
18
48
1
60
0
100
AcDbLine
10
95.187722
20
-11.391932
30
0
11
95.187722
21
-10.195208
31
0
39
0
210
0
220
0
230
1
0
LINE
5
C1
100
AcDbEntity
8
1
62
256
6
ByLayer
370
18
48
1
60
0
100
AcDbLine
10
95.164559
20
-10.073263
30
0
11
95.187722
21
-10.195208
31
0
39
0
210
0
220
0
230
1
0
LINE
5
C2
100
AcDbEntity
8
1
62
256
6
ByLayer
370
18
48
1
60
0
100
AcDbLine
10
95.137195
20
-11.657076
30
0
11
95.156313
21
-11.569108
31
0
39
0
210
0
220
0
230
1
0
LINE
5
C3
100
AcDbEntity
8
1
62
256
6
ByLayer
370
18
48
1
60
0
100
AcDbLine
10
95.137195
20
-9.957998
30
0
11
95.156313
21
-10.035396
31
0
39
0
210
0
220
0
230
1
0
LINE
5
C4
100
AcDbEntity
8
1
62
256
6
ByLayer
370
18
48
1
60
0
100
AcDbLine
10
90.699998
20
-8.628723
30
0
11
90.949998
21
-8.628723
31
0
39
0
210
0
220
0
230
1
0
LINE
5
C5
100
AcDbEntity
8
1
62
256
6
ByLayer
370
18
48
1
60
0
100
AcDbLine
10
91.753989
20
-8.696924
30
0
11
99.099998
21
-8.696924
31
0
39
0
210
0
220
0
230
1
0
LINE
5
C6
100
AcDbEntity
8
1
62
256
6
ByLayer
370
13
48
1
60
0
100
AcDbLine
10
90.699998
20
-8.6669
30
0
11
90.699998
21
-8.628723
31
0
39
0
210
0
220
0
230
1
0
LINE
5
C7
100
AcDbEntity
8
1
62
256
6
ByLayer
370
18
48
1
60
0
100
AcDbLine
10
68.599998
20
-12.5
30
0
11
68.599998
21
-10.416141
31
0
39
0
210
0
220
0
230
1
0
LINE
5
C8
100
AcDbEntity
8
SK1
62
256
6
ByLayer
370
18
48
1
60
0
100
AcDbLine
10
-98.500002
20
-11
30
0
11
-98.500002
21
-4.898979
31
0
39
0
210
0
220
0
230
1
0
LINE
5
C9
100
AcDbEntity
8
1
62
256
6
ByLayer
370
18
48
1
60
0
100
AcDbLine
10
85.423744
20
-4.174005
30
0
11
85.423778
21
-4.174063
31
0
39
0
210
0
220
0
230
1
0
LINE
5
CA
100
AcDbEntity
8
1
62
256
6
ByLayer
370
13
48
1
60
0
100
AcDbLine
10
68.48284
20
9.117157
30
0
11
68.48284
21
5.683995
31
0
39
0
210
0
220
0
230
1
0
LINE
5
CB
100
AcDbEntity
8
1
62
256
6
ByLayer
370
13
48
1
60
0
100
AcDbLine
10
68.765683
20
9
30
0
11
68.765683
21
5.593227
31
0
39
0
210
0
220
0
230
1
0
LINE
5
CC
100
AcDbEntity
8
SK1
62
256
6
ByLayer
370
18
48
1
60
0
100
AcDbLine
10
-98.500002
20
12.5
30
0
11
-98.500002
21
4.898979
31
0
39
0
210
0
220
0
230
1
0
LINE
5
CD
100
AcDbEntity
8
SK1
62
256
6
ByLayer
370
18
48
1
60
0
100
AcDbLine
10
-100.000002
20
11
30
0
11
-100.000002
21
-11
31
0
39
0
210
0
220
0
230
1
0
LINE
5
CE
100
AcDbEntity
8
1
62
256
6
ByLayer
370
13
48
1
60
0
100
AcDbLine
10
88.299998
20
-8.3103
30
0
11
88.299998
21
-6.741935
31
0
39
0
210
0
220
0
230
1
0
LINE
5
CF
100
AcDbEntity
8
1
62
256
6
ByLayer
370
18
48
1
60
0
100
AcDbLine
10
99.099998
20
-8.696924
30
0
11
99.099998
21
-6.741935
31
0
39
0
210
0
220
0
230
1
0
LINE
5
D0
100
AcDbEntity
8
1
62
256
6
ByLayer
370
18
48
1
60
0
100
AcDbLine
10
67.499998
20
-12.5
30
0
11
66.117155
21
-11.117157
31
0
39
0
210
0
220
0
230
1
0
LINE
5
D1
100
AcDbEntity
8
1
62
256
6
ByLayer
370
18
48
1
60
0
100
AcDbLine
10
77.868242
20
6.069227
30
0
11
74.60604
21
7.95266
31
0
39
0
210
0
220
0
230
1
0
LINE
5
D2
100
AcDbEntity
8
1
62
256
6
ByLayer
370
18
48
1
60
0
100
AcDbLine
10
72.833168
20
8.976228
30
0
11
74.606016
21
7.952674
31
0
39
0
210
0
220
0
230
1
0
LINE
5
D3
100
AcDbEntity
8
1
62
256
6
ByLayer
370
13
48
1
60
0
100
AcDbLine
10
95.024937
20
-11.794822
30
0
11
95.024711
21
-11.794784
31
0
39
0
210
0
220
0
230
1
0
LINE
5
D4
100
AcDbEntity
8
SK1
62
256
6
ByLayer
370
18
48
1
60
0
100
AcDbLine
10
0
20
-11
30
0
11
-98.500002
21
-11
31
0
39
0
210
0
220
0
230
1
0
LINE
5
D5
100
AcDbEntity
8
SK1
62
256
6
ByLayer
370
18
48
1
60
0
100
AcDbLine
10
0
20
-4.898979
30
0
11
-98.500002
21
-4.898979
31
0
39
0
210
0
220
0
230
1
0
LINE
5
D6
100
AcDbEntity
8
1
62
256
6
ByLayer
370
18
48
1
60
0
100
AcDbLine
10
0
20
4.898979
30
0
11
64.571215
21
4.898979
31
0
39
0
210
0
220
0
230
1
0
LINE
5
D7
100
AcDbEntity
8
1
62
256
6
ByLayer
370
18
48
1
60
0
100
AcDbLine
10
0
20
12.5
30
0
11
65.101087
21
12.5
31
0
39
0
210
0
220
0
230
1
0
LINE
5
D8
100
AcDbEntity
8
80
62
256
6
ByLayer
370
18
48
1
60
0
100
AcDbLine
10
0
20
0
30
0
11
-16.038937
21
0
31
0
39
0
210
0
220
0
230
1
0
LINE
5
D9
100
AcDbEntity
8
81
62
256
6
ByLayer
370
18
48
1
60
0
100
AcDbLine
10
99.469148
20
-12.76445
30
0
11
103.845201
21
-12.76445
31
0
39
0
210
0
220
0
230
1
0
LINE
5
DA
100
AcDbEntity
8
SK4
62
256
6
ByLayer
370
18
48
0.05
60
0
100
AcDbLine
10
-103.500002
20
0
30
0
11
97.746871
21
0
31
0
39
0
210
0
220
0
230
1
0
LINE
5
DC
100
AcDbEntity
8
4
62
256
6
ByLayer
370
18
48
0.05
60
0
100
AcDbLine
10
0
20
0
30
0
11
102.850139
21
0
31
0
39
0
210
0
220
0
230
1
0
MTEXT
5
179
100
AcDbEntity
8
SK6
62
256
6
ByLayer
370
18
48
1
60
0
100
AcDbMText
10
-23.323067
20
-35.390987
30
0
210
0
220
0
230
1
1
\W0.7662;LAF151.37-25-025A30
40
3.5
41
0
44
1.084337
50
0
71
7
72
5
7
iso_b_vert
0
DIMENSION
5
187
100
AcDbEntity
8
SK2
62
256
6
ByLayer
370
13
48
1
60
0
100
AcDbDimension
2
DimnDraft3D1
10
100
20
-23.971346
30
0
11
-3.398685
21
-23.971346
31
0
70
32
71
5
72
1
41
1
210
0
220
0
230
1
3
Standard
100
AcDbAlignedDimension
13
-100.000002
23
-12.5
33
0
14
100
24
-15.76445
34
0
50
0
100
AcDbRotatedDimension
1001
ACAD
1000
DSTYLE
1002
{
1070
   279
1070
     0
1070
   172
1070
     1
1070
   173
1070
     1
1070
   340
1005
17A
1070
   271
1070
     2
1070
   272
1070
     2
1070
    77
1070
     1
1070
    73
1070
     0
1070
   171
1070
     3
1070
   274
1070
     4
1070
   177
1070
     2
1070
   176
1070
     2
1070
   178
1070
     2
1070
    78
1070
     8
1070
    48
1040
-0.005
1070
    41
1041
3.5
1070
   147
1041
1.75
1070
    42
1041
1.5
1070
    44
1041
3.0
1070
   140
1041
3.5
1070
   343
1005
0
1070
   344
1005
0
1002
}
0
DIMENSION
5
191
100
AcDbEntity
8
2
62
256
6
ByLayer
370
13
48
1
60
0
100
AcDbDimension
2
DimnDraft3D2
10
124.755999
20
-12.76445
30
0
11
124.755999
21
-11.035404
31
0
70
32
71
5
72
1
41
1
210
0
220
0
230
1
3
Standard
100
AcDbAlignedDimension
13
104.350139
23
0
33
0
14
106.845201
24
-12.76445
34
0
50
90
100
AcDbRotatedDimension
1001
ACAD
1000
DSTYLE
1002
{
1070
    74
1070
     0
1070
   279
1070
     0
1070
   172
1070
     1
1070
   173
1070
     1
1070
   340
1005
17A
1070
   271
1070
     2
1070
   272
1070
     2
1070
    77
1070
     1
1070
    73
1070
     0
1070
   171
1070
     3
1070
   274
1070
     4
1070
   177
1070
     2
1070
   176
1070
     2
1070
   178
1070
     2
1070
    78
1070
     8
1070
    48
1040
-0.005
1070
    41
1041
3.5
1070
   147
1041
1.75
1070
    42
1041
1.5
1070
    44
1041
3.0
1070
   140
1041
3.5
1070
   343
1005
0
1070
   344
1005
0
1002
}
0
DIMENSION
5
19B
100
AcDbEntity
8
2
62
256
6
ByLayer
370
13
48
1
60
0
100
AcDbDimension
2
DimnDraft3D3
10
87.499998
20
6.158677
30
0
11
92.096709
21
6.158677
31
0
70
32
71
5
72
1
41
1
210
0
220
0
230
1
3
Standard
100
AcDbAlignedDimension
13
100
23
-7.631184
33
0
14
87.499998
24
3.50833
34
0
50
0
100
AcDbRotatedDimension
1001
ACAD
1000
DSTYLE
1002
{
1070
   279
1070
     0
1070
   172
1070
     1
1070
   173
1070
     1
1070
   340
1005
17A
1070
   271
1070
     0
1070
   272
1070
     2
1070
    77
1070
     1
1070
    73
1070
     0
1070
   171
1070
     3
1070
   274
1070
     4
1070
   177
1070
     2
1070
   176
1070
     2
1070
   178
1070
     2
1070
    78
1070
     8
1070
    48
1040
-0.005
1070
    41
1041
3.5
1070
   147
1041
1.75
1070
    42
1041
1.5
1070
    44
1041
3.0
1070
   140
1041
3.5
1070
   343
1005
0
1070
   344
1005
0
1002
}
0
DIMENSION
5
1A6
100
AcDbEntity
8
SK2
62
256
6
ByLayer
370
13
48
1
60
0
100
AcDbDimension
2
DimnDraft3D4
10
-117.59072
20
-12.5
30
0
11
-117.21572
21
2.284211
31
0
70
33
71
5
72
1
41
1
210
0
220
0
230
1
3
Standard
100
AcDbAlignedDimension
13
-100.000002
23
12.5
33
0
14
-101.500002
24
-12.5
34
0
1001
ACAD
1000
DSTYLE
1002
{
1070
   279
1070
     0
1070
    74
1070
     0
1070
   173
1070
     1
1070
   340
1005
17A
1070
   271
1070
     2
1070
   272
1070
     2
1070
    77
1070
     1
1070
    73
1070
     0
1070
   171
1070
     3
1070
   274
1070
     4
1070
   177
1070
     2
1070
   176
1070
     2
1070
   178
1070
     2
1070
    78
1070
     8
1070
    48
1040
-0.005
1070
    41
1041
3.5
1070
   147
1041
1.75
1070
    42
1041
1.5
1070
    44
1041
3.0
1070
   140
1041
3.5
1070
   343
1005
0
1070
   344
1005
0
1002
}
0
ENDSEC
0
SECTION
2
OBJECTS
0
DICTIONARY
5
211
330
0
100
AcDbDictionary
280
0
281
1
3
ACAD_GROUP
350
212
3
ACAD_MLINESTYLE
350
213
0
DICTIONARY
5
212
330
0
100
AcDbDictionary
280
0
281
1
0
DICTIONARY
5
213
330
0
100
AcDbDictionary
280
0
281
1
3
Standard
350
18
0
MLINESTYLE
5
18
330
213
100
AcDbMlineStyle
2
Standard
70
0
3

62
256
51
90
52
90
71
2
49
-0.5
62
256
6
ByLayer
49
0.5
62
256
6
ByLayer
0
RASTERVARIABLES
5
1ff
330

100
AcDbRasterVariables
90
0
70
1
71
1
72
1
0
ENDSEC
0
EOF
