  0
SECTION
  2
HEADER
  9
$ACADVER
  1
AC1015
  9
$ACADMAINTVER
 70
     6
  9
$DWGCODEPAGE
  3
ANSI_1252
  9
$INSBASE
 10
0.0
 20
0.0
 30
0.0
  9
$EXTMIN
 10
1.000000000000000E+20
 20
1.000000000000000E+20
 30
1.000000000000000E+20
  9
$EXTMAX
 10
-1.000000000000000E+20
 20
-1.000000000000000E+20
 30
-1.000000000000000E+20
  9
$LIMMIN
 10
-170.0
 20
-170.0
  9
$LIMMAX
 10
519.0
 20
260.0
  9
$ORTHOMODE
 70
     0
  9
$REGENMODE
 70
     1
  9
$FILLMODE
 70
     1
  9
$QTEXTMODE
 70
     0
  9
$MIRRTEXT
 70
     0
  9
$LTSCALE
 40
1.0
  9
$ATTMODE
 70
     1
  9
$TEXTSIZE
 40
3.5
  9
$TRACEWID
 40
1.0
  9
$TEXTSTYLE
  7
SIMPLEX
  9
$CLAYER
  8
1
  9
$CELTYPE
  6
BYLAYER
  9
$CECOLOR
 62
   256
  9
$CELTSCALE
 40
1.0
  9
$DISPSILH
 70
     0
  9
$DIMSCALE
 40
1.0
  9
$DIMASZ
 40
2.5
  9
$DIMEXO
 40
0.0
  9
$DIMDLI
 40
3.75
  9
$DIMRND
 40
0.0
  9
$DIMDLE
 40
0.0
  9
$DIMEXE
 40
1.25
  9
$DIMTP
 40
0.0
  9
$DIMTM
 40
0.0
  9
$DIMTXT
 40
3.5
  9
$DIMCEN
 40
0.0
  9
$DIMTSZ
 40
0.0
  9
$DIMTOL
 70
     0
  9
$DIMLIM
 70
     0
  9
$DIMTIH
 70
     0
  9
$DIMTOH
 70
     0
  9
$DIMSE1
 70
     0
  9
$DIMSE2
 70
     0
  9
$DIMTAD
 70
     1
  9
$DIMZIN
 70
     8
  9
$DIMBLK
  1

  9
$DIMASO
 70
     1
  9
$DIMSHO
 70
     1
  9
$DIMPOST
  1

  9
$DIMAPOST
  1

  9
$DIMALT
 70
     0
  9
$DIMALTD
 70
     3
  9
$DIMALTF
 40
0.039370078
  9
$DIMLFAC
 40
1.0
  9
$DIMTOFL
 70
     0
  9
$DIMTVP
 40
0.0
  9
$DIMTIX
 70
     0
  9
$DIMSOXD
 70
     0
  9
$DIMSAH
 70
     0
  9
$DIMBLK1
  1

  9
$DIMBLK2
  1

  9
$DIMSTYLE
  2
STANDARD
  9
$DIMCLRD
 70
     0
  9
$DIMCLRE
 70
     0
  9
$DIMCLRT
 70
     0
  9
$DIMTFAC
 40
1.0
  9
$DIMGAP
 40
0.625
  9
$DIMJUST
 70
     0
  9
$DIMSD1
 70
     0
  9
$DIMSD2
 70
     0
  9
$DIMTOLJ
 70
     0
  9
$DIMTZIN
 70
     8
  9
$DIMALTZ
 70
     0
  9
$DIMALTTZ
 70
     0
  9
$DIMUPT
 70
     0
  9
$DIMDEC
 70
     2
  9
$DIMTDEC
 70
     2
  9
$DIMALTU
 70
     2
  9
$DIMALTTD
 70
     3
  9
$DIMTXSTY
  7
SIMPLEX
  9
$DIMAUNIT
 70
     0
  9
$DIMADEC
 70
     2
  9
$DIMALTRND
 40
0.0
  9
$DIMAZIN
 70
     2
  9
$DIMDSEP
 70
    46
  9
$DIMATFIT
 70
     3
  9
$DIMFRAC
 70
     0
  9
$DIMLDRBLK
  1

  9
$DIMLUNIT
 70
     2
  9
$DIMLWD
 70
    -2
  9
$DIMLWE
 70
    -2
  9
$DIMTMOVE
 70
     0
  9
$LUNITS
 70
     2
  9
$LUPREC
 70
     4
  9
$SKETCHINC
 40
1.0
  9
$FILLETRAD
 40
0.0
  9
$AUNITS
 70
     0
  9
$AUPREC
 70
     0
  9
$MENU
  1
c:\tdm21\cad\caduti13\tdm13
  9
$ELEVATION
 40
0.0
  9
$PELEVATION
 40
0.0
  9
$THICKNESS
 40
0.0
  9
$LIMCHECK
 70
     0
  9
$CHAMFERA
 40
0.0
  9
$CHAMFERB
 40
0.0
  9
$CHAMFERC
 40
0.0
  9
$CHAMFERD
 40
0.0
  9
$SKPOLY
 70
     0
  9
$TDCREATE
 40
2454957.593642639
  9
$TDUCREATE
 40
2454957.510309306
  9
$TDUPDATE
 40
2456861.36169684
  9
$TDUUPDATE
 40
2456861.278363507
  9
$TDINDWG
 40
0.0009643519
  9
$TDUSRTIMER
 40
0.0009475231
  9
$USRTIMER
 70
     1
  9
$ANGBASE
 50
0.0
  9
$ANGDIR
 70
     0
  9
$PDMODE
 70
     1
  9
$PDSIZE
 40
0.0
  9
$PLINEWID
 40
0.0
  9
$SPLFRAME
 70
     0
  9
$SPLINETYPE
 70
     6
  9
$SPLINESEGS
 70
     8
  9
$HANDSEED
  5
70A
  9
$SURFTAB1
 70
     6
  9
$SURFTAB2
 70
     6
  9
$SURFTYPE
 70
     6
  9
$SURFU
 70
     6
  9
$SURFV
 70
     6
  9
$UCSBASE
  2

  9
$UCSNAME
  2

  9
$UCSORG
 10
0.0
 20
0.0
 30
0.0
  9
$UCSXDIR
 10
1.0
 20
0.0
 30
0.0
  9
$UCSYDIR
 10
0.0
 20
1.0
 30
0.0
  9
$UCSORTHOREF
  2

  9
$UCSORTHOVIEW
 70
     0
  9
$UCSORGTOP
 10
0.0
 20
0.0
 30
0.0
  9
$UCSORGBOTTOM
 10
0.0
 20
0.0
 30
0.0
  9
$UCSORGLEFT
 10
0.0
 20
0.0
 30
0.0
  9
$UCSORGRIGHT
 10
0.0
 20
0.0
 30
0.0
  9
$UCSORGFRONT
 10
0.0
 20
0.0
 30
0.0
  9
$UCSORGBACK
 10
0.0
 20
0.0
 30
0.0
  9
$PUCSBASE
  2

  9
$PUCSNAME
  2

  9
$PUCSORG
 10
0.0
 20
0.0
 30
0.0
  9
$PUCSXDIR
 10
1.0
 20
0.0
 30
0.0
  9
$PUCSYDIR
 10
0.0
 20
1.0
 30
0.0
  9
$PUCSORTHOREF
  2

  9
$PUCSORTHOVIEW
 70
     0
  9
$PUCSORGTOP
 10
0.0
 20
0.0
 30
0.0
  9
$PUCSORGBOTTOM
 10
0.0
 20
0.0
 30
0.0
  9
$PUCSORGLEFT
 10
0.0
 20
0.0
 30
0.0
  9
$PUCSORGRIGHT
 10
0.0
 20
0.0
 30
0.0
  9
$PUCSORGFRONT
 10
0.0
 20
0.0
 30
0.0
  9
$PUCSORGBACK
 10
0.0
 20
0.0
 30
0.0
  9
$USERI1
 70
     0
  9
$USERI2
 70
     0
  9
$USERI3
 70
     0
  9
$USERI4
 70
     0
  9
$USERI5
 70
     0
  9
$USERR1
 40
0.0
  9
$USERR2
 40
0.0
  9
$USERR3
 40
0.0
  9
$USERR4
 40
0.0
  9
$USERR5
 40
0.0
  9
$WORLDVIEW
 70
     1
  9
$SHADEDGE
 70
     3
  9
$SHADEDIF
 70
    70
  9
$TILEMODE
 70
     1
  9
$MAXACTVP
 70
    64
  9
$PINSBASE
 10
0.0
 20
0.0
 30
0.0
  9
$PLIMCHECK
 70
     0
  9
$PEXTMIN
 10
0.0
 20
0.0
 30
0.0
  9
$PEXTMAX
 10
0.0
 20
0.0
 30
0.0
  9
$PLIMMIN
 10
0.0
 20
0.0
  9
$PLIMMAX
 10
12.0
 20
9.0
  9
$UNITMODE
 70
     0
  9
$VISRETAIN
 70
     0
  9
$PLINEGEN
 70
     0
  9
$PSLTSCALE
 70
     1
  9
$TREEDEPTH
 70
  3020
  9
$CMLSTYLE
  2
STANDARD
  9
$CMLJUST
 70
     0
  9
$CMLSCALE
 40
20.0
  9
$PROXYGRAPHICS
 70
     1
  9
$MEASUREMENT
 70
     1
  9
$CELWEIGHT
370
    -1
  9
$ENDCAPS
280
     0
  9
$JOINSTYLE
280
     0
  9
$LWDISPLAY
290
     0
  9
$INSUNITS
 70
     4
  9
$HYPERLINKBASE
  1

  9
$STYLESHEET
  1
MONOCHROME.CTB
  9
$XEDIT
290
     1
  9
$CEPSNTYPE
380
     0
  9
$PSTYLEMODE
290
     1
  9
$FINGERPRINTGUID
  2
{46B44192-1510-48B1-B61B-CBE2ADA013A7}
  9
$VERSIONGUID
  2
{6160D478-9A74-4C97-9D8A-D4A65CE74B12}
  9
$EXTNAMES
290
     1
  9
$PSVPSCALE
 40
0.0
  9
$OLESTARTUP
290
     0
  0
ENDSEC
  0
SECTION
  2
CLASSES
  0
CLASS
  1
ACDBDICTIONARYWDFLT
  2
AcDbDictionaryWithDefault
  3
ObjectDBX Classes
 90
        0
280
     0
281
     0
  0
CLASS
  1
ACDBPLACEHOLDER
  2
AcDbPlaceHolder
  3
ObjectDBX Classes
 90
        0
280
     0
281
     0
  0
CLASS
  1
LAYOUT
  2
AcDbLayout
  3
ObjectDBX Classes
 90
        0
280
     0
281
     0
  0
CLASS
  1
DICTIONARYVAR
  2
AcDbDictionaryVar
  3
ObjectDBX Classes
 90
        0
280
     0
281
     0
  0
CLASS
  1
TABLESTYLE
  2
AcDbTableStyle
  3
ObjectDBX Classes
 90
     4095
280
     0
281
     0
  0
CLASS
  1
SCALE
  2
AcDbScale
  3
ObjectDBX Classes
 90
     1153
280
     0
281
     0
  0
CLASS
  1
MATERIAL
  2
AcDbMaterial
  3
ObjectDBX Classes
 90
     1153
280
     0
281
     0
  0
CLASS
  1
VISUALSTYLE
  2
AcDbVisualStyle
  3
ObjectDBX Classes
 90
     4095
280
     0
281
     0
  0
ENDSEC
  0
SECTION
  2
TABLES
  0
TABLE
  2
VPORT
  5
8
330
0
100
AcDbSymbolTable
 70
     1
  0
VPORT
  5
39A
330
8
100
AcDbSymbolTableRecord
100
AcDbViewportTableRecord
  2
*Active
 70
     0
 10
0.0
 20
0.0
 11
1.0
 21
1.0
 12
218.9201881351169
 22
109.7549380673833
 13
0.0
 23
0.0
 14
5.0
 24
5.0
 15
5.0
 25
5.0
 16
0.0
 26
0.0
 36
1.0
 17
0.0
 27
0.0
 37
0.0
 40
564.6711112651689
 41
1.066073697585768
 42
50.0
 43
0.0
 44
0.0
 50
0.0
 51
0.0
 71
     0
 72
  2000
 73
     1
 74
     1
 75
     0
 76
     0
 77
     0
 78
     0
281
     0
 65
     1
110
0.0
120
0.0
130
0.0
111
1.0
121
0.0
131
0.0
112
0.0
122
1.0
132
0.0
 79
     0
146
0.0
  0
ENDTAB
  0
TABLE
  2
LTYPE
  5
5
330
0
100
AcDbSymbolTable
 70
     3
  0
LTYPE
  5
12
330
5
100
AcDbSymbolTableRecord
100
AcDbLinetypeTableRecord
  2
BYBLOCK
 70
     0
  3

 72
    65
 73
     0
 40
0.0
  0
LTYPE
  5
13
330
5
100
AcDbSymbolTableRecord
100
AcDbLinetypeTableRecord
  2
BYLAYER
 70
     0
  3

 72
    65
 73
     0
 40
0.0
  0
LTYPE
  5
14
330
5
100
AcDbSymbolTableRecord
100
AcDbLinetypeTableRecord
  2
CONTINUOUS
 70
     0
  3
Solid line
 72
    65
 73
     0
 40
0.0
  0
LTYPE
  5
20
330
5
100
AcDbSymbolTableRecord
100
AcDbLinetypeTableRecord
  2
HIDDEN
 70
     0
  3
Hidden __ __ __ __ __ __ __ __ __ __ __ __ __ _
 72
    65
 73
     2
 40
9.524999999999997
 49
6.349999999999998
 74
     0
 49
-3.174999999999998
 74
     0
  0
LTYPE
  5
351
330
5
100
AcDbSymbolTableRecord
100
AcDbLinetypeTableRecord
  2
CENTER
 70
     0
  3
Dash dot __ . __ . __ . __ . __ . __ . __ . __
 72
    65
 73
     4
 40
25.4
 49
12.7
 74
     0
 49
-6.349999999999998
 74
     0
 49
0.0
 74
     0
 49
-6.349999999999998
 74
     0
  0
ENDTAB
  0
TABLE
  2
LAYER
  5
2
330
0
100
AcDbSymbolTable
 70
    16
  0
LAYER
  5
F
330
2
100
AcDbSymbolTableRecord
100
AcDbLayerTableRecord
  2
0
 70
     0
 62
     7
  6
CONTINUOUS
370
    -3
390
300
  0
LAYER
  5
23
330
2
100
AcDbSymbolTableRecord
100
AcDbLayerTableRecord
  2
1
 70
     0
 62
     4
  6
CONTINUOUS
370
    -3
390
300
  0
LAYER
  5
24
330
2
100
AcDbSymbolTableRecord
100
AcDbLayerTableRecord
  2
SK1
 70
     0
 62
     4
  6
CONTINUOUS
370
    -3
390
300
  0
LAYER
  5
25
330
2
100
AcDbSymbolTableRecord
100
AcDbLayerTableRecord
  2
2
 70
     0
 62
     7
  6
CONTINUOUS
370
    -3
390
300
  0
LAYER
  5
26
330
2
100
AcDbSymbolTableRecord
100
AcDbLayerTableRecord
  2
2L
 70
     0
 62
     7
  6
CONTINUOUS
370
    -3
390
300
  0
LAYER
  5
27
330
2
100
AcDbSymbolTableRecord
100
AcDbLayerTableRecord
  2
SK2
 70
     0
 62
     7
  6
CONTINUOUS
370
    -3
390
300
  0
LAYER
  5
28
330
2
100
AcDbSymbolTableRecord
100
AcDbLayerTableRecord
  2
3
 70
     0
 62
     1
  6
HIDDEN
370
    -3
390
300
  0
LAYER
  5
29
330
2
100
AcDbSymbolTableRecord
100
AcDbLayerTableRecord
  2
SK3
 70
     0
 62
     1
  6
HIDDEN
370
    -3
390
300
  0
LAYER
  5
2A
330
2
100
AcDbSymbolTableRecord
100
AcDbLayerTableRecord
  2
4
 70
     0
 62
     2
  6
CENTER
370
    -3
390
300
  0
LAYER
  5
2B
330
2
100
AcDbSymbolTableRecord
100
AcDbLayerTableRecord
  2
SK4
 70
     0
 62
     2
  6
CENTER
370
    -3
390
300
  0
LAYER
  5
2C
330
2
100
AcDbSymbolTableRecord
100
AcDbLayerTableRecord
  2
5
 70
     0
 62
    -7
  6
CONTINUOUS
370
    -3
390
300
  0
LAYER
  5
2D
330
2
100
AcDbSymbolTableRecord
100
AcDbLayerTableRecord
  2
6
 70
     0
 62
     5
  6
CONTINUOUS
370
    -3
390
300
  0
LAYER
  5
2E
330
2
100
AcDbSymbolTableRecord
100
AcDbLayerTableRecord
  2
SK6
 70
     0
 62
     5
  6
CONTINUOUS
370
    -3
390
300
  0
LAYER
  5
2F
330
2
100
AcDbSymbolTableRecord
100
AcDbLayerTableRecord
  2
DEFPOINTS
 70
     0
 62
     7
  6
CONTINUOUS
290
     0
370
    -3
390
300
  0
LAYER
  5
375
330
2
100
AcDbSymbolTableRecord
100
AcDbLayerTableRecord
  2
CUT
 70
     0
 62
     1
  6
CONTINUOUS
370
    -3
390
300
  0
LAYER
  5
376
330
2
100
AcDbSymbolTableRecord
100
AcDbLayerTableRecord
  2
NOCUT
 70
     0
 62
     7
  6
CONTINUOUS
370
    -3
390
300
  0
ENDTAB
  0
TABLE
  2
STYLE
  5
3
330
0
100
AcDbSymbolTable
 70
     4
  0
STYLE
  5
10
330
3
100
AcDbSymbolTableRecord
100
AcDbTextStyleTableRecord
  2
STANDARD
 70
     0
 40
0.0
 41
1.0
 50
0.0
 71
     0
 42
5.0
  3
txt
  4

  0
STYLE
  5
1D
330
3
100
AcDbSymbolTableRecord
100
AcDbTextStyleTableRecord
  2
TXT
 70
     0
 40
8.0
 41
1.0
 50
0.0
 71
     0
 42
8.0
  3
txt
  4

  0
STYLE
  5
1E
330
3
100
AcDbSymbolTableRecord
100
AcDbTextStyleTableRecord
  2
SIMPLEX
 70
     0
 40
0.0
 41
1.0
 50
0.0
 71
     0
 42
3.5
  3
simplex
  4

  0
STYLE
  5
34C
330
3
100
AcDbSymbolTableRecord
100
AcDbTextStyleTableRecord
  2

 70
     1
 40
0.0
 41
1.0
 50
0.0
 71
     0
 42
2.5
  3
ltypeshp.shx
  4

  0
ENDTAB
  0
TABLE
  2
VIEW
  5
6
330
0
100
AcDbSymbolTable
 70
     0
  0
ENDTAB
  0
TABLE
  2
UCS
  5
7
330
0
100
AcDbSymbolTable
 70
     0
  0
ENDTAB
  0
TABLE
  2
APPID
  5
9
330
0
100
AcDbSymbolTable
 70
     1
  0
APPID
  5
11
330
9
100
AcDbSymbolTableRecord
100
AcDbRegAppTableRecord
  2
ACAD
 70
     0
  0
ENDTAB
  0
TABLE
  2
DIMSTYLE
  5
A
330
0
100
AcDbSymbolTable
 70
     1
100
AcDbDimStyleTable
  0
DIMSTYLE
105
3F
102
{ACAD_REACTORS
330
69B
330
6A9
330
6B6
330
6C4
330
6D2
102
}
330
A
100
AcDbSymbolTableRecord
100
AcDbDimStyleTableRecord
  2
STANDARD
 70
     0
 41
2.5
 42
0.0
 43
3.75
 44
1.25
 73
     0
 74
     0
 77
     1
 78
     8
 79
     2
140
3.5
141
0.0
143
0.039370078
147
0.625
171
     3
178
     0
179
     2
271
     2
272
     2
274
     3
283
     0
284
     8
340
1E
  0
ENDTAB
  0
TABLE
  2
BLOCK_RECORD
  5
1
330
0
100
AcDbSymbolTable
 70
     5
  0
BLOCK_RECORD
  5
18
330
1
100
AcDbSymbolTableRecord
100
AcDbBlockTableRecord
  2
*MODEL_SPACE
340
303
  0
BLOCK_RECORD
  5
338
330
1
100
AcDbSymbolTableRecord
100
AcDbBlockTableRecord
  2
*Paper_Space
340
33B
  0
BLOCK_RECORD
  5
69C
330
1
100
AcDbSymbolTableRecord
100
AcDbBlockTableRecord
  2
*D0
340
0
  0
BLOCK_RECORD
  5
6AA
330
1
100
AcDbSymbolTableRecord
100
AcDbBlockTableRecord
  2
*D1
340
0
  0
BLOCK_RECORD
  5
6B7
330
1
100
AcDbSymbolTableRecord
100
AcDbBlockTableRecord
  2
*D2
340
0
  0
BLOCK_RECORD
  5
6C5
330
1
100
AcDbSymbolTableRecord
100
AcDbBlockTableRecord
  2
*D3
340
0
  0
BLOCK_RECORD
  5
6D3
330
1
100
AcDbSymbolTableRecord
100
AcDbBlockTableRecord
  2
*D4
340
0
  0
ENDTAB
  0
ENDSEC
  0
SECTION
  2
BLOCKS
  0
BLOCK
  5
32
330
18
100
AcDbEntity
  8
0
100
AcDbBlockBegin
  2
*MODEL_SPACE
 70
     0
 10
0.0
 20
0.0
 30
0.0
  3
*MODEL_SPACE
  1

  0
ENDBLK
  5
33
330
18
100
AcDbEntity
  8
0
100
AcDbBlockEnd
  0
BLOCK
  5
339
330
338
100
AcDbEntity
 67
     1
  8
0
100
AcDbBlockBegin
  2
*Paper_Space
 70
     0
 10
0.0
 20
0.0
 30
0.0
  3
*Paper_Space
  1

  0
ENDBLK
  5
33A
330
338
100
AcDbEntity
 67
     1
  8
0
100
AcDbBlockEnd
  0
BLOCK
  5
69D
330
69C
100
AcDbEntity
  8
0
100
AcDbBlockBegin
  2
*D0
 70
     1
 10
0.0
 20
0.0
 30
0.0
  3
*D0
  1

  0
LINE
  5
69F
330
69C
100
AcDbEntity
  8
2
 62
     0
370
    -2
100
AcDbLine
 10
48.7
 20
2.413
 30
0.0
 11
64.95000000000002
 21
2.413000000000057
 31
0.0
  0
LINE
  5
6A0
330
69C
100
AcDbEntity
  8
2
 62
     0
370
    -2
100
AcDbLine
 10
48.7
 20
-2.413
 30
0.0
 11
64.95000000000002
 21
-2.412999999999943
 31
0.0
  0
LINE
  5
6A1
330
69C
100
AcDbEntity
  8
2
 62
     0
370
    -2
100
AcDbLine
 10
63.70000000000003
 20
-4.912999999999947
 30
0.0
 11
63.70000000000013
 21
-37.57299999999994
 31
0.0
  0
LINE
  5
6A2
330
69C
100
AcDbEntity
  8
2
 62
     0
370
    -2
100
AcDbLine
 10
63.7
 20
4.913000000000052
 30
0.0
 11
63.7
 21
7.413000000000052
 31
0.0
  0
SOLID
  5
6A3
330
69C
100
AcDbEntity
  8
2
 62
     0
100
AcDbTrace
 10
63.28333333333334
 20
4.913000000000051
 30
0.0
 11
64.11666666666667
 21
4.913000000000053
 31
0.0
 12
63.70000000000001
 22
2.413000000000052
 32
0.0
 13
63.70000000000001
 23
2.413000000000052
 33
0.0
  0
SOLID
  5
6A4
330
69C
100
AcDbEntity
  8
2
 62
     0
100
AcDbTrace
 10
64.1166666666667
 20
-4.912999999999946
 30
0.0
 11
63.28333333333337
 21
-4.912999999999948
 31
0.0
 12
63.70000000000002
 22
-2.412999999999947
 32
0.0
 13
63.70000000000002
 23
-2.412999999999947
 33
0.0
  0
MTEXT
  5
6A5
330
69C
100
AcDbEntity
  8
2
 62
     0
100
AcDbMText
 10
60.74750000000008
 20
-22.49299999999995
 30
0.0
 40
3.5
 41
0.0
 71
     5
 72
     1
  1
UNF#10-32
  7
SIMPLEX
 11
-2.944644574223374E-15
 21
1.0
 31
0.0
 73
     1
 44
1.0
  0
POINT
  5
6A6
330
69C
100
AcDbEntity
  8
DEFPOINTS
 62
     0
100
AcDbPoint
 10
48.7
 20
2.413
 30
0.0
  0
POINT
  5
6A7
330
69C
100
AcDbEntity
  8
DEFPOINTS
 62
     0
100
AcDbPoint
 10
48.7
 20
-2.413
 30
0.0
  0
POINT
  5
6A8
330
69C
100
AcDbEntity
  8
DEFPOINTS
 62
     0
100
AcDbPoint
 10
63.70000000000002
 20
-2.412999999999947
 30
0.0
  0
ENDBLK
  5
69E
330
69C
100
AcDbEntity
  8
0
100
AcDbBlockEnd
  0
BLOCK
  5
6AB
330
6AA
100
AcDbEntity
  8
0
100
AcDbBlockBegin
  2
*D1
 70
     1
 10
0.0
 20
0.0
 30
0.0
  3
*D1
  1

  0
LINE
  5
6AD
330
6AA
100
AcDbEntity
  8
2
 62
     0
370
    -2
100
AcDbLine
 10
0.0
 20
0.0
 30
0.0
 11
0.0
 21
76.25
 31
0.0
  0
LINE
  5
6AE
330
6AA
100
AcDbEntity
  8
2
 62
     0
370
    -2
100
AcDbLine
 10
48.7
 20
0.0
 30
0.0
 11
48.7
 21
76.25
 31
0.0
  0
LINE
  5
6AF
330
6AA
100
AcDbEntity
  8
2
 62
     0
370
    -2
100
AcDbLine
 10
2.5
 20
75.0
 30
0.0
 11
46.2
 21
75.0
 31
0.0
  0
SOLID
  5
6B0
330
6AA
100
AcDbEntity
  8
2
 62
     0
100
AcDbTrace
 10
2.5
 20
75.41666666666667
 30
0.0
 11
2.5
 21
74.58333333333333
 31
0.0
 12
0.0
 22
75.0
 32
0.0
 13
0.0
 23
75.0
 33
0.0
  0
SOLID
  5
6B1
330
6AA
100
AcDbEntity
  8
2
 62
     0
100
AcDbTrace
 10
46.2
 20
74.58333333333333
 30
0.0
 11
46.2
 21
75.41666666666667
 31
0.0
 12
48.7
 22
75.0
 32
0.0
 13
48.7
 23
75.0
 33
0.0
  0
MTEXT
  5
6B2
330
6AA
100
AcDbEntity
  8
2
 62
     0
100
AcDbMText
 10
24.35
 20
77.438
 30
0.0
 40
3.5
 41
0.0
 71
     5
 72
     1
  1
48.7
  7
SIMPLEX
 73
     1
 44
1.0
  0
POINT
  5
6B3
330
6AA
100
AcDbEntity
  8
DEFPOINTS
 62
     0
100
AcDbPoint
 10
0.0
 20
0.0
 30
0.0
  0
POINT
  5
6B4
330
6AA
100
AcDbEntity
  8
DEFPOINTS
 62
     0
100
AcDbPoint
 10
48.7
 20
0.0
 30
0.0
  0
POINT
  5
6B5
330
6AA
100
AcDbEntity
  8
DEFPOINTS
 62
     0
100
AcDbPoint
 10
48.7
 20
75.0
 30
0.0
  0
ENDBLK
  5
6AC
330
6AA
100
AcDbEntity
  8
0
100
AcDbBlockEnd
  0
BLOCK
  5
6B8
330
6B7
100
AcDbEntity
  8
0
100
AcDbBlockBegin
  2
*D2
 70
     1
 10
0.0
 20
0.0
 30
0.0
  3
*D2
  1

  0
LINE
  5
6BA
330
6B7
100
AcDbEntity
  8
SK2
 62
     0
370
    -2
100
AcDbLine
 10
-14.95
 20
2.4638
 30
0.0
 11
-37.55000000001257
 21
2.463799999884662
 31
0.0
  0
LINE
  5
6BB
330
6B7
100
AcDbEntity
  8
SK2
 62
     0
370
    -2
100
AcDbLine
 10
-14.95
 20
-2.4638
 30
0.0
 11
-37.54999999998742
 21
-2.463800000115338
 31
0.0
  0
LINE
  5
6BC
330
6B7
100
AcDbEntity
  8
SK2
 62
     0
370
    -2
100
AcDbLine
 10
-36.29999999997467
 20
-4.963800000108958
 30
0.0
 11
-36.29999999988318
 21
-22.89230000010896
 31
0.0
  0
LINE
  5
6BD
330
6B7
100
AcDbEntity
  8
SK2
 62
     0
370
    -2
100
AcDbLine
 10
-36.30000000002532
 20
4.963799999891042
 30
0.0
 11
-36.30000000003808
 21
7.463799999891042
 31
0.0
  0
SOLID
  5
6BE
330
6B7
100
AcDbEntity
  8
SK2
 62
     0
100
AcDbTrace
 10
-36.71666666669199
 20
4.963799999888916
 30
0.0
 11
-35.88333333335866
 21
4.963799999893168
 31
0.0
 12
-36.30000000001257
 22
2.463799999891042
 32
0.0
 13
-36.30000000001257
 23
2.463799999891042
 33
0.0
  0
SOLID
  5
6BF
330
6B7
100
AcDbEntity
  8
SK2
 62
     0
100
AcDbTrace
 10
-35.883333333308
 20
-4.963800000106832
 30
0.0
 11
-36.71666666664133
 21
-4.963800000111084
 31
0.0
 12
-36.29999999998742
 22
-2.463800000108958
 32
0.0
 13
-36.29999999998742
 23
-2.463800000108958
 33
0.0
  0
MTEXT
  5
6C0
330
6B7
100
AcDbEntity
  8
SK2
 62
     0
100
AcDbMText
 10
-38.73799999992254
 20
-15.1780500001214
 30
0.0
 40
3.5
 41
0.0
 71
     5
 72
     1
  1
%%c4.93
  7
SIMPLEX
 11
-5.103114582869946E-12
 21
1.0
 31
0.0
 73
     1
 44
1.0
  0
POINT
  5
6C1
330
6B7
100
AcDbEntity
  8
DEFPOINTS
 62
     0
100
AcDbPoint
 10
-14.95
 20
2.4638
 30
0.0
  0
POINT
  5
6C2
330
6B7
100
AcDbEntity
  8
DEFPOINTS
 62
     0
100
AcDbPoint
 10
-14.95
 20
-2.4638
 30
0.0
  0
POINT
  5
6C3
330
6B7
100
AcDbEntity
  8
DEFPOINTS
 62
     0
100
AcDbPoint
 10
-36.29999999998742
 20
-2.463800000108958
 30
0.0
  0
ENDBLK
  5
6B9
330
6B7
100
AcDbEntity
  8
0
100
AcDbBlockEnd
  0
BLOCK
  5
6C6
330
6C5
100
AcDbEntity
  8
0
100
AcDbBlockBegin
  2
*D3
 70
     1
 10
0.0
 20
0.0
 30
0.0
  3
*D3
  1

  0
LINE
  5
6C8
330
6C5
100
AcDbEntity
  8
2
 62
     0
370
    -2
100
AcDbLine
 10
39.77581692
 20
1.88
 30
0.0
 11
39.77581692
 21
61.25
 31
0.0
  0
LINE
  5
6C9
330
6C5
100
AcDbEntity
  8
2
 62
     0
370
    -2
100
AcDbLine
 10
48.7
 20
2.413
 30
0.0
 11
48.7
 21
61.25
 31
0.0
  0
LINE
  5
6CA
330
6C5
100
AcDbEntity
  8
2
 62
     0
370
    -2
100
AcDbLine
 10
48.7
 20
60.0
 30
0.0
 11
62.985
 21
60.0
 31
0.0
  0
LINE
  5
6CB
330
6C5
100
AcDbEntity
  8
2
 62
     0
370
    -2
100
AcDbLine
 10
42.27581692
 20
60.0
 30
0.0
 11
46.2
 21
60.0
 31
0.0
  0
SOLID
  5
6CC
330
6C5
100
AcDbEntity
  8
2
 62
     0
100
AcDbTrace
 10
42.27581692
 20
60.41666666666666
 30
0.0
 11
42.27581692
 21
59.58333333333334
 31
0.0
 12
39.77581692
 22
60.0
 32
0.0
 13
39.77581692
 23
60.0
 33
0.0
  0
SOLID
  5
6CD
330
6C5
100
AcDbEntity
  8
2
 62
     0
100
AcDbTrace
 10
46.2
 20
59.58333333333334
 30
0.0
 11
46.2
 21
60.41666666666666
 31
0.0
 12
48.7
 22
60.0
 32
0.0
 13
48.7
 23
60.0
 33
0.0
  0
MTEXT
  5
6CE
330
6C5
100
AcDbEntity
  8
2
 62
     0
100
AcDbMText
 10
57.0925
 20
62.39775
 30
0.0
 40
3.5
 41
0.0
 71
     5
 72
     1
  1
8.92
  7
SIMPLEX
 73
     1
 44
1.0
  0
POINT
  5
6CF
330
6C5
100
AcDbEntity
  8
DEFPOINTS
 62
     0
100
AcDbPoint
 10
39.77581692
 20
1.88
 30
0.0
  0
POINT
  5
6D0
330
6C5
100
AcDbEntity
  8
DEFPOINTS
 62
     0
100
AcDbPoint
 10
48.7
 20
2.413
 30
0.0
  0
POINT
  5
6D1
330
6C5
100
AcDbEntity
  8
DEFPOINTS
 62
     0
100
AcDbPoint
 10
48.7
 20
60.0
 30
0.0
  0
ENDBLK
  5
6C7
330
6C5
100
AcDbEntity
  8
0
100
AcDbBlockEnd
  0
BLOCK
  5
6D4
330
6D3
100
AcDbEntity
  8
0
100
AcDbBlockBegin
  2
*D4
 70
     1
 10
0.0
 20
0.0
 30
0.0
  3
*D4
  1

  0
LINE
  5
6D6
330
6D3
100
AcDbEntity
  8
SK2
 62
     0
370
    -2
100
AcDbLine
 10
-21.3
 20
2.413
 30
0.0
 11
-21.3
 21
91.25
 31
0.0
  0
LINE
  5
6D7
330
6D3
100
AcDbEntity
  8
SK2
 62
     0
370
    -2
100
AcDbLine
 10
48.7
 20
2.413
 30
0.0
 11
48.7
 21
91.25
 31
0.0
  0
LINE
  5
6D8
330
6D3
100
AcDbEntity
  8
SK2
 62
     0
370
    -2
100
AcDbLine
 10
-18.8
 20
90.0
 30
0.0
 11
46.2
 21
90.0
 31
0.0
  0
SOLID
  5
6D9
330
6D3
100
AcDbEntity
  8
SK2
 62
     0
100
AcDbTrace
 10
-18.8
 20
90.41666666666667
 30
0.0
 11
-18.8
 21
89.58333333333333
 31
0.0
 12
-21.3
 22
90.0
 32
0.0
 13
-21.3
 23
90.0
 33
0.0
  0
SOLID
  5
6DA
330
6D3
100
AcDbEntity
  8
SK2
 62
     0
100
AcDbTrace
 10
46.2
 20
89.58333333333333
 30
0.0
 11
46.2
 21
90.41666666666667
 31
0.0
 12
48.7
 22
90.0
 32
0.0
 13
48.7
 23
90.0
 33
0.0
  0
MTEXT
  5
6DB
330
6D3
100
AcDbEntity
  8
SK2
 62
     0
100
AcDbMText
 10
13.7
 20
92.39075
 30
0.0
 40
3.5
 41
0.0
 71
     5
 72
     1
  1
70
  7
SIMPLEX
 73
     1
 44
1.0
  0
POINT
  5
6DC
330
6D3
100
AcDbEntity
  8
DEFPOINTS
 62
     0
100
AcDbPoint
 10
-21.3
 20
2.413
 30
0.0
  0
POINT
  5
6DD
330
6D3
100
AcDbEntity
  8
DEFPOINTS
 62
     0
100
AcDbPoint
 10
48.7
 20
2.413
 30
0.0
  0
POINT
  5
6DE
330
6D3
100
AcDbEntity
  8
DEFPOINTS
 62
     0
100
AcDbPoint
 10
48.7
 20
90.0
 30
0.0
  0
ENDBLK
  5
6D5
330
6D3
100
AcDbEntity
  8
0
100
AcDbBlockEnd
  0
ENDSEC
  0
SECTION
  2
ENTITIES
  0
LINE
  5
3D6
330
18
100
AcDbEntity
  8
SK4
100
AcDbLine
 10
-23.3
 20
0.0
 30
0.0
 11
17.9
 21
0.0
 31
0.0
  0
LINE
  5
3D7
330
18
100
AcDbEntity
  8
4
100
AcDbLine
 10
15.9
 20
0.0
 30
0.0
 11
50.7
 21
0.0
 31
0.0
  0
LINE
  5
3D8
330
18
100
AcDbEntity
  8
SK4
100
AcDbLine
 10
15.9
 20
0.0
 30
0.0
 11
50.7
 21
0.0
 31
0.0
  0
LINE
  5
3D9
330
18
100
AcDbEntity
  8
1
100
AcDbLine
 10
17.9
 20
2.4638
 30
0.0
 11
-0.0000000000000018
 21
2.4638
 31
0.0
  0
LINE
  5
3DA
330
18
100
AcDbEntity
  8
1
100
AcDbLine
 10
17.9
 20
2.4638
 30
0.0
 11
17.9
 21
2.461350506561429
 31
0.0
  0
LINE
  5
3DB
330
18
100
AcDbEntity
  8
1
100
AcDbLine
 10
17.9
 20
2.461350506561429
 30
0.0
 11
17.9
 21
2.242731572755089
 31
0.0
  0
LINE
  5
3DC
330
18
100
AcDbEntity
  8
1
100
AcDbLine
 10
17.9
 20
2.242731572755089
 30
0.0
 11
17.9
 21
-2.4638
 31
0.0
  0
LINE
  5
3DD
330
18
100
AcDbEntity
  8
1
100
AcDbLine
 10
17.9
 20
2.4638
 30
0.0
 11
21.21089433
 21
1.88
 31
0.0
  0
LINE
  5
3DE
330
18
100
AcDbEntity
  8
1
100
AcDbLine
 10
21.21089433
 20
1.88
 30
0.0
 11
21.21089433000001
 21
1.878130916606659
 31
0.0
  0
LINE
  5
3DF
330
18
100
AcDbEntity
  8
1
100
AcDbLine
 10
21.21089433000001
 20
1.878130916606659
 30
0.0
 11
21.21089433
 21
1.711313968982696
 31
0.0
  0
LINE
  5
3E0
330
18
100
AcDbEntity
  8
1
100
AcDbLine
 10
21.21089433
 20
1.711313968982696
 30
0.0
 11
21.21089433
 21
-1.88
 31
0.0
  0
LINE
  5
3E1
330
18
100
AcDbEntity
  8
1
100
AcDbLine
 10
27.7
 20
1.722646567000088
 30
0.0
 11
27.82295372613451
 21
1.677778325296071
 31
0.0
  0
LINE
  5
3E2
330
18
100
AcDbEntity
  8
1
100
AcDbLine
 10
27.82295372613451
 20
1.677778325296071
 30
0.0
 11
27.94590141001381
 21
1.627647314987513
 31
0.0
  0
LINE
  5
3E3
330
18
100
AcDbEntity
  8
1
100
AcDbLine
 10
27.94590141001381
 20
1.627647314987513
 30
0.0
 11
28.19180475787592
 21
1.512230033129158
 31
0.0
  0
LINE
  5
3E4
330
18
100
AcDbEntity
  8
1
100
AcDbLine
 10
28.19180475787592
 20
1.512230033129158
 30
0.0
 11
28.43770921779564
 21
1.37784218793253
 31
0.0
  0
LINE
  5
3E5
330
18
100
AcDbEntity
  8
1
100
AcDbLine
 10
28.43770921779564
 20
1.37784218793253
 30
0.0
 11
28.68361470439578
 21
1.22616982987189
 31
0.0
  0
LINE
  5
3E6
330
18
100
AcDbEntity
  8
1
100
AcDbLine
 10
28.68361470439578
 20
1.22616982987189
 30
0.0
 11
28.92952064881636
 21
1.059115617829548
 31
0.0
  0
LINE
  5
3E7
330
18
100
AcDbEntity
  8
1
100
AcDbLine
 10
28.92952064881636
 20
1.059115617829548
 30
0.0
 11
29.17542667622526
 21
0.8787754318820741
 31
0.0
  0
LINE
  5
3E8
330
18
100
AcDbEntity
  8
1
100
AcDbLine
 10
29.17542667622526
 20
0.8787754318820741
 30
0.0
 11
29.66723712235857
 21
0.4874257647254656
 31
0.0
  0
LINE
  5
3E9
330
18
100
AcDbEntity
  8
1
100
AcDbLine
 10
21.21089433
 20
1.88
 30
0.0
 11
27.7
 21
1.88
 31
0.0
  0
LINE
  5
3EA
330
18
100
AcDbEntity
  8
1
100
AcDbLine
 10
28.28188962258528
 20
1.46511554531058
 30
0.0
 11
28.46764942791204
 21
1.559475245505994
 31
0.0
  0
LINE
  5
3EB
330
18
100
AcDbEntity
  8
1
100
AcDbLine
 10
28.46764942791204
 20
1.559475245505994
 30
0.0
 11
28.65341044349505
 21
1.642667349530787
 31
0.0
  0
LINE
  5
3EC
330
18
100
AcDbEntity
  8
1
100
AcDbLine
 10
28.65341044349505
 20
1.642667349530787
 30
0.0
 11
28.8391750569021
 21
1.714096526551366
 31
0.0
  0
LINE
  5
3ED
330
18
100
AcDbEntity
  8
1
100
AcDbLine
 10
28.8391750569021
 20
1.714096526551366
 30
0.0
 11
29.02494356164823
 21
1.773250008729757
 31
0.0
  0
LINE
  5
3EE
330
18
100
AcDbEntity
  8
1
100
AcDbLine
 10
29.02494356164823
 20
1.773250008729757
 30
0.0
 11
29.21070766612881
 21
1.819701554023671
 31
0.0
  0
LINE
  5
3EF
330
18
100
AcDbEntity
  8
1
100
AcDbLine
 10
29.21070766612881
 20
1.819701554023671
 30
0.0
 11
29.39646836830772
 21
1.853120077947021
 31
0.0
  0
LINE
  5
3F0
330
18
100
AcDbEntity
  8
1
100
AcDbLine
 10
29.39646836830772
 20
1.853120077947021
 30
0.0
 11
29.4893492961395
 21
1.864864956715201
 31
0.0
  0
LINE
  5
3F1
330
18
100
AcDbEntity
  8
1
100
AcDbLine
 10
29.4893492961395
 20
1.864864956715201
 30
0.0
 11
29.58222810959616
 21
1.873267434892237
 31
0.0
  0
LINE
  5
3F2
330
18
100
AcDbEntity
  8
1
100
AcDbLine
 10
29.58222810959616
 20
1.873267434892237
 30
0.0
 11
29.67511556607913
 21
1.878316304467965
 31
0.0
  0
LINE
  5
3F3
330
18
100
AcDbEntity
  8
1
100
AcDbLine
 10
29.67511556607913
 20
1.878316304467965
 30
0.0
 11
29.76798437011215
 21
1.88
 31
0.0
  0
LINE
  5
3F4
330
18
100
AcDbEntity
  8
1
100
AcDbLine
 10
39.77174998710726
 20
-1.465116215463067
 30
0.0
 11
39.5859807858923
 21
-1.559480183529427
 31
0.0
  0
LINE
  5
3F5
330
18
100
AcDbEntity
  8
1
100
AcDbLine
 10
39.5859807858923
 20
-1.559480183529427
 30
0.0
 11
39.40021663238066
 21
-1.64267231125536
 31
0.0
  0
LINE
  5
3F6
330
18
100
AcDbEntity
  8
1
100
AcDbLine
 10
39.40021663238066
 20
-1.64267231125536
 30
0.0
 11
39.21445505475658
 21
-1.71409898144056
 31
0.0
  0
LINE
  5
3F7
330
18
100
AcDbEntity
  8
1
100
AcDbLine
 10
39.21445505475658
 20
-1.71409898144056
 30
0.0
 11
39.02869354609068
 21
-1.773250042005126
 31
0.0
  0
LINE
  5
3F8
330
18
100
AcDbEntity
  8
1
100
AcDbLine
 10
39.02869354609068
 20
-1.773250042005126
 30
0.0
 11
38.84292965075608
 21
-1.819702292909254
 31
0.0
  0
LINE
  5
3F9
330
18
100
AcDbEntity
  8
1
100
AcDbLine
 10
38.84292965075608
 20
-1.819702292909254
 30
0.0
 11
38.65716098143179
 21
-1.853122450263664
 31
0.0
  0
LINE
  5
3FA
330
18
100
AcDbEntity
  8
1
100
AcDbLine
 10
38.65716098143179
 20
-1.853122450263664
 30
0.0
 11
38.56428082018922
 21
-1.86486506487327
 31
0.0
  0
LINE
  5
3FB
330
18
100
AcDbEntity
  8
1
100
AcDbLine
 10
38.56428082018922
 20
-1.86486506487327
 30
0.0
 11
38.4713928495335
 21
-1.873269328411628
 31
0.0
  0
LINE
  5
3FC
330
18
100
AcDbEntity
  8
1
100
AcDbLine
 10
38.4713928495335
 20
-1.873269328411628
 30
0.0
 11
38.37852227151019
 21
-1.878316686742593
 31
0.0
  0
LINE
  5
3FD
330
18
100
AcDbEntity
  8
1
100
AcDbLine
 10
38.37852227151019
 20
-1.878316686742593
 30
0.0
 11
38.28565505485864
 21
-1.879999999974221
 31
0.0
  0
LINE
  5
3FE
330
18
100
AcDbEntity
  8
1
100
AcDbLine
 10
29.76798437011215
 20
1.88
 30
0.0
 11
31.39173886763862
 21
1.88
 31
0.0
  0
LINE
  5
3FF
330
18
100
AcDbEntity
  8
1
100
AcDbLine
 10
27.7
 20
1.88
 30
0.0
 11
27.7
 21
1.879965955452868
 31
0.0
  0
LINE
  5
400
330
18
100
AcDbEntity
  8
1
100
AcDbLine
 10
27.7
 20
1.879965955452868
 30
0.0
 11
27.69999999999999
 21
1.869784384622292
 31
0.0
  0
LINE
  5
401
330
18
100
AcDbEntity
  8
1
100
AcDbLine
 10
27.69999999999999
 20
1.869784384622292
 30
0.0
 11
27.7
 21
1.722646567000088
 31
0.0
  0
ARC
  5
402
330
18
100
AcDbEntity
  8
1
100
AcDbCircle
 10
-76.6888501631503
 20
-136.2732561794753
 30
0.0
 40
179.0393987228657
100
AcDbArc
 50
49.42092581355698
 51
49.80580790808449
  0
LINE
  5
403
330
18
100
AcDbEntity
  8
1
100
AcDbLine
 10
34.36392854754353
 20
1.88
 30
0.0
 11
35.98768299678043
 21
1.88
 31
0.0
  0
LINE
  5
404
330
18
100
AcDbEntity
  8
1
100
AcDbLine
 10
39.77581691999999
 20
-1.467297033471729
 30
0.0
 11
39.52935842720614
 21
-1.326323752856555
 31
0.0
  0
LINE
  5
405
330
18
100
AcDbEntity
  8
1
100
AcDbLine
 10
39.52935842720614
 20
-1.326323752856555
 30
0.0
 11
39.28289808025646
 21
-1.168636393682224
 31
0.0
  0
LINE
  5
406
330
18
100
AcDbEntity
  8
1
100
AcDbLine
 10
39.28289808025646
 20
-1.168636393682224
 30
0.0
 11
39.03643632284751
 21
-0.9962220496783467
 31
0.0
  0
LINE
  5
407
330
18
100
AcDbEntity
  8
1
100
AcDbLine
 10
39.03643632284751
 20
-0.9962220496783467
 30
0.0
 11
38.54351043572105
 21
-0.6160618716281863
 31
0.0
  0
LINE
  5
408
330
18
100
AcDbEntity
  8
1
100
AcDbLine
 10
38.54351043572105
 20
-0.6160618716281863
 30
0.0
 11
37.8041475075628
 21
0.0057736200310271
 31
0.0
  0
LINE
  5
409
330
18
100
AcDbEntity
  8
1
100
AcDbLine
 10
38.95987273701275
 20
1.88
 30
0.0
 11
39.77581692
 21
1.88
 31
0.0
  0
LINE
  5
40A
330
18
100
AcDbEntity
  8
1
100
AcDbLine
 10
27.7
 20
0.7645157840988293
 30
0.0
 11
27.7
 21
-1.513371290860013
 31
0.0
  0
LINE
  5
40B
330
18
100
AcDbEntity
  8
1
100
AcDbLine
 10
27.7
 20
-1.513371290860014
 30
0.0
 11
27.87422636512803
 21
-1.597067855341317
 31
0.0
  0
LINE
  5
40C
330
18
100
AcDbEntity
  8
1
100
AcDbLine
 10
27.87422636512803
 20
-1.597067855341317
 30
0.0
 11
28.04844490488589
 21
-1.6707001550477
 31
0.0
  0
LINE
  5
40D
330
18
100
AcDbEntity
  8
1
100
AcDbLine
 10
28.04844490488589
 20
-1.6707001550477
 30
0.0
 11
28.22266308497694
 21
-1.733806847612993
 31
0.0
  0
LINE
  5
40E
330
18
100
AcDbEntity
  8
1
100
AcDbLine
 10
28.22266308497694
 20
-1.733806847612993
 30
0.0
 11
28.39688491298954
 21
-1.785992709078121
 31
0.0
  0
LINE
  5
40F
330
18
100
AcDbEntity
  8
1
100
AcDbLine
 10
28.39688491298954
 20
-1.785992709078121
 30
0.0
 11
28.57111310134297
 21
-1.826927371266299
 31
0.0
  0
LINE
  5
410
330
18
100
AcDbEntity
  8
1
100
AcDbLine
 10
28.57111310134297
 20
-1.826927371266299
 30
0.0
 11
28.74533489080083
 21
-1.856349923623027
 31
0.0
  0
LINE
  5
411
330
18
100
AcDbEntity
  8
1
100
AcDbLine
 10
28.74533489080083
 20
-1.856349923623027
 30
0.0
 11
28.9195526440058
 21
-1.874077518177683
 31
0.0
  0
LINE
  5
412
330
18
100
AcDbEntity
  8
1
100
AcDbLine
 10
28.9195526440058
 20
-1.874077518177683
 30
0.0
 11
29.09376678232487
 21
-1.87999999995821
 31
0.0
  0
LINE
  5
413
330
18
100
AcDbEntity
  8
1
100
AcDbLine
 10
39.77581692
 20
-0.1083448473227233
 30
0.0
 11
39.77581692
 21
1.751528451538487
 31
0.0
  0
ARC
  5
414
330
18
100
AcDbEntity
  8
1
100
AcDbCircle
 10
38.94316897851112
 20
-0.8727440328972169
 30
0.0
 40
2.75312633149764
100
AcDbArc
 50
72.39643591233374
 51
89.65233123517201
  0
ARC
  5
415
330
18
100
AcDbEntity
  8
1
100
AcDbCircle
 10
12.46807383364988
 20
-18.44545366602588
 30
0.0
 40
24.51616126744133
100
AcDbArc
 50
48.81519617184104
 51
51.58847588525762
  0
LINE
  5
416
330
18
100
AcDbEntity
  8
1
100
AcDbLine
 10
39.77581692
 20
-0.2911178466616802
 30
0.0
 11
39.77581692
 21
-0.1083448473227232
 31
0.0
  0
LINE
  5
417
330
18
100
AcDbEntity
  8
1
100
AcDbLine
 10
39.77581692
 20
-0.2911178466616639
 30
0.0
 11
39.77581691999999
 21
-1.467297033471728
 31
0.0
  0
LINE
  5
418
330
18
100
AcDbEntity
  8
1
100
AcDbLine
 10
39.77581692
 20
1.88
 30
0.0
 11
39.77581692
 21
1.87999825213877
 31
0.0
  0
LINE
  5
419
330
18
100
AcDbEntity
  8
1
100
AcDbLine
 10
39.77581692
 20
1.87999825213877
 30
0.0
 11
39.77581692
 21
1.87949034085324
 31
0.0
  0
LINE
  5
41A
330
18
100
AcDbEntity
  8
1
100
AcDbLine
 10
39.77581692
 20
1.87949034085324
 30
0.0
 11
39.77581692
 21
1.872593656494232
 31
0.0
  0
LINE
  5
41B
330
18
100
AcDbEntity
  8
1
100
AcDbLine
 10
39.77581692
 20
1.872593656494232
 30
0.0
 11
39.77581691999999
 21
1.751528451538487
 31
0.0
  0
LINE
  5
41C
330
18
100
AcDbEntity
  8
1
100
AcDbLine
 10
-0.0000000000000018
 20
-2.4638
 30
0.0
 11
17.9
 21
-2.4638
 31
0.0
  0
LINE
  5
41D
330
18
100
AcDbEntity
  8
1
100
AcDbLine
 10
17.9
 20
-2.4638
 30
0.0
 11
21.21089433
 21
-1.88
 31
0.0
  0
LINE
  5
41E
330
18
100
AcDbEntity
  8
1
100
AcDbLine
 10
29.09376678232487
 20
-1.87999999995821
 30
0.0
 11
29.18664244930394
 21
-1.878315582649998
 31
0.0
  0
LINE
  5
41F
330
18
100
AcDbEntity
  8
1
100
AcDbLine
 10
29.18664244930394
 20
-1.878315582649998
 30
0.0
 11
29.27953039178272
 21
-1.873267267298045
 31
0.0
  0
LINE
  5
420
330
18
100
AcDbEntity
  8
1
100
AcDbLine
 10
29.27953039178272
 20
-1.873267267298045
 30
0.0
 11
29.37240353494931
 21
-1.864864445065157
 31
0.0
  0
LINE
  5
421
330
18
100
AcDbEntity
  8
1
100
AcDbLine
 10
29.37240353494931
 20
-1.864864445065157
 30
0.0
 11
29.4652902964543
 21
-1.853118987453256
 31
0.0
  0
LINE
  5
422
330
18
100
AcDbEntity
  8
1
100
AcDbLine
 10
29.4652902964543
 20
-1.853118987453256
 30
0.0
 11
29.65104884266033
 21
-1.819700054390451
 31
0.0
  0
LINE
  5
423
330
18
100
AcDbEntity
  8
1
100
AcDbLine
 10
29.65104884266033
 20
-1.819700054390451
 30
0.0
 11
29.83680873239763
 21
-1.773249292252221
 31
0.0
  0
LINE
  5
424
330
18
100
AcDbEntity
  8
1
100
AcDbLine
 10
29.83680873239763
 20
-1.773249292252221
 30
0.0
 11
30.02257259579595
 21
-1.71409778324533
 31
0.0
  0
LINE
  5
425
330
18
100
AcDbEntity
  8
1
100
AcDbLine
 10
30.02257259579595
 20
-1.71409778324533
 30
0.0
 11
30.20833991258871
 21
-1.642668013077039
 31
0.0
  0
LINE
  5
426
330
18
100
AcDbEntity
  8
1
100
AcDbLine
 10
30.20833991258871
 20
-1.642668013077039
 30
0.0
 11
30.39410230620842
 21
-1.559475143670103
 31
0.0
  0
LINE
  5
427
330
18
100
AcDbEntity
  8
1
100
AcDbLine
 10
30.39410230620842
 20
-1.559475143670103
 30
0.0
 11
30.57986146591644
 21
-1.465115535292512
 31
0.0
  0
LINE
  5
428
330
18
100
AcDbEntity
  8
1
100
AcDbLine
 10
21.21089433
 20
-1.88
 30
0.0
 11
29.09376678232485
 21
-1.88
 31
0.0
  0
LINE
  5
429
330
18
100
AcDbEntity
  8
1
100
AcDbLine
 10
33.6897109365956
 20
-1.879999999968703
 30
0.0
 11
33.78258374383104
 21
-1.878315832108947
 31
0.0
  0
LINE
  5
42A
330
18
100
AcDbEntity
  8
1
100
AcDbLine
 10
33.78258374383104
 20
-1.878315832108947
 30
0.0
 11
33.87547222594004
 21
-1.873267265206483
 31
0.0
  0
LINE
  5
42B
330
18
100
AcDbEntity
  8
1
100
AcDbLine
 10
33.87547222594004
 20
-1.873267265206483
 30
0.0
 11
33.96834666541142
 21
-1.864864724785664
 31
0.0
  0
LINE
  5
42C
330
18
100
AcDbEntity
  8
1
100
AcDbLine
 10
33.96834666541142
 20
-1.864864724785664
 30
0.0
 11
34.0612318561246
 21
-1.85311931143586
 31
0.0
  0
LINE
  5
42D
330
18
100
AcDbEntity
  8
1
100
AcDbLine
 10
34.0612318561246
 20
-1.85311931143586
 30
0.0
 11
34.24699103263493
 21
-1.819700586965537
 31
0.0
  0
LINE
  5
42E
330
18
100
AcDbEntity
  8
1
100
AcDbLine
 10
34.24699103263493
 20
-1.819700586965537
 30
0.0
 11
34.43275242878067
 21
-1.773249604497034
 31
0.0
  0
LINE
  5
42F
330
18
100
AcDbEntity
  8
1
100
AcDbLine
 10
34.43275242878067
 20
-1.773249604497034
 30
0.0
 11
34.61851865407434
 21
-1.714097163598578
 31
0.0
  0
LINE
  5
430
330
18
100
AcDbEntity
  8
1
100
AcDbLine
 10
34.61851865407434
 20
-1.714097163598578
 30
0.0
 11
34.80428514469649
 21
-1.642667415593456
 31
0.0
  0
LINE
  5
431
330
18
100
AcDbEntity
  8
1
100
AcDbLine
 10
34.80428514469649
 20
-1.642667415593456
 30
0.0
 11
34.99004663870885
 21
-1.559474938025589
 31
0.0
  0
LINE
  5
432
330
18
100
AcDbEntity
  8
1
100
AcDbLine
 10
34.99004663870885
 20
-1.559474938025589
 30
0.0
 11
35.17580577319687
 21
-1.465115458446566
 31
0.0
  0
LINE
  5
433
330
18
100
AcDbEntity
  8
1
100
AcDbLine
 10
32.06595645755721
 20
-1.88
 30
0.0
 11
33.6897109365956
 21
-1.88
 31
0.0
  0
LINE
  5
434
330
18
100
AcDbEntity
  8
1
100
AcDbLine
 10
36.66190064065948
 20
-1.879999999971947
 30
0.0
 11
36.55397964611441
 21
-1.877726042391305
 31
0.0
  0
LINE
  5
435
330
18
100
AcDbEntity
  8
1
100
AcDbLine
 10
36.55397964611441
 20
-1.877726042391305
 30
0.0
 11
36.44604437706164
 21
-1.870911569242434
 31
0.0
  0
LINE
  5
436
330
18
100
AcDbEntity
  8
1
100
AcDbLine
 10
36.44604437706164
 20
-1.870911569242434
 30
0.0
 11
36.33812290169104
 21
-1.859572401629061
 31
0.0
  0
LINE
  5
437
330
18
100
AcDbEntity
  8
1
100
AcDbLine
 10
36.33812290169104
 20
-1.859572401629061
 30
0.0
 11
36.23018689256064
 21
-1.843734710638944
 31
0.0
  0
LINE
  5
438
330
18
100
AcDbEntity
  8
1
100
AcDbLine
 10
36.23018689256064
 20
-1.843734710638944
 30
0.0
 11
36.12226603530562
 21
-1.82343989941636
 31
0.0
  0
LINE
  5
439
330
18
100
AcDbEntity
  8
1
100
AcDbLine
 10
36.12226603530562
 20
-1.82343989941636
 30
0.0
 11
36.01432971509923
 21
-1.798732086958291
 31
0.0
  0
LINE
  5
43A
330
18
100
AcDbEntity
  8
1
100
AcDbLine
 10
36.01432971509923
 20
-1.798732086958291
 30
0.0
 11
35.90640901761883
 21
-1.769677827235363
 31
0.0
  0
LINE
  5
43B
330
18
100
AcDbEntity
  8
1
100
AcDbLine
 10
35.90640901761883
 20
-1.769677827235363
 30
0.0
 11
35.79847279630019
 21
-1.736338865719734
 31
0.0
  0
LINE
  5
43C
330
18
100
AcDbEntity
  8
1
100
AcDbLine
 10
35.79847279630019
 20
-1.736338865719734
 30
0.0
 11
35.58261609181491
 21
-1.657158332282714
 31
0.0
  0
LINE
  5
43D
330
18
100
AcDbEntity
  8
1
100
AcDbLine
 10
35.58261609181491
 20
-1.657158332282714
 30
0.0
 11
35.36675956091349
 21
-1.561956058266177
 31
0.0
  0
LINE
  5
43E
330
18
100
AcDbEntity
  8
1
100
AcDbLine
 10
35.36675956091349
 20
-1.561956058266177
 30
0.0
 11
35.15090316615948
 21
-1.451652501364551
 31
0.0
  0
LINE
  5
43F
330
18
100
AcDbEntity
  8
1
100
AcDbLine
 10
35.15090316615948
 20
-1.451652501364551
 30
0.0
 11
34.93504687315163
 21
-1.327314108046218
 31
0.0
  0
LINE
  5
440
330
18
100
AcDbEntity
  8
1
100
AcDbLine
 10
34.93504687315163
 20
-1.327314108046218
 30
0.0
 11
34.71919065031957
 21
-1.190143005087342
 31
0.0
  0
LINE
  5
441
330
18
100
AcDbEntity
  8
1
100
AcDbLine
 10
34.71919065031957
 20
-1.190143005087342
 30
0.0
 11
34.28747830212911
 21
-0.8827186593447078
 31
0.0
  0
LINE
  5
442
330
18
100
AcDbEntity
  8
1
100
AcDbLine
 10
34.28747830212911
 20
-0.8827186593447078
 30
0.0
 11
33.85576592041316
 21
-0.5412395415862254
 31
0.0
  0
LINE
  5
443
330
18
100
AcDbEntity
  8
1
100
AcDbLine
 10
33.85576592041316
 20
-0.5412395415862254
 30
0.0
 11
33.20820364487797
 21
0.0057733401426826
 31
0.0
  0
LINE
  5
444
330
18
100
AcDbEntity
  8
1
100
AcDbLine
 10
38.28565505485864
 20
-1.879999999974221
 30
0.0
 11
38.15995831539458
 21
-1.876915663150608
 31
0.0
  0
LINE
  5
445
330
18
100
AcDbEntity
  8
1
100
AcDbLine
 10
38.15995831539458
 20
-1.876915663150608
 30
0.0
 11
38.034253810843
 21
-1.867675899844478
 31
0.0
  0
LINE
  5
446
330
18
100
AcDbEntity
  8
1
100
AcDbLine
 10
38.034253810843
 20
-1.867675899844478
 30
0.0
 11
37.9085500039975
 21
-1.852307230185731
 31
0.0
  0
LINE
  5
447
330
18
100
AcDbEntity
  8
1
100
AcDbLine
 10
37.9085500039975
 20
-1.852307230185731
 30
0.0
 11
37.78285132338731
 21
-1.830864782900407
 31
0.0
  0
LINE
  5
448
330
18
100
AcDbEntity
  8
1
100
AcDbLine
 10
37.78285132338731
 20
-1.830864782900407
 30
0.0
 11
37.65714211017762
 21
-1.80341258532168
 31
0.0
  0
LINE
  5
449
330
18
100
AcDbEntity
  8
1
100
AcDbLine
 10
37.65714211017762
 20
-1.80341258532168
 30
0.0
 11
37.53144628165902
 21
-1.770048514312977
 31
0.0
  0
LINE
  5
44A
330
18
100
AcDbEntity
  8
1
100
AcDbLine
 10
37.53144628165902
 20
-1.770048514312977
 30
0.0
 11
37.40573542740394
 21
-1.730873117276321
 31
0.0
  0
LINE
  5
44B
330
18
100
AcDbEntity
  8
1
100
AcDbLine
 10
37.40573542740394
 20
-1.730873117276321
 30
0.0
 11
37.28003944146379
 21
-1.686024230907766
 31
0.0
  0
LINE
  5
44C
330
18
100
AcDbEntity
  8
1
100
AcDbLine
 10
37.28003944146379
 20
-1.686024230907766
 30
0.0
 11
37.15433077301407
 21
-1.635640458525543
 31
0.0
  0
LINE
  5
44D
330
18
100
AcDbEntity
  8
1
100
AcDbLine
 10
37.15433077301407
 20
-1.635640458525543
 30
0.0
 11
37.02863158962322
 21
-1.579893596819164
 31
0.0
  0
LINE
  5
44E
330
18
100
AcDbEntity
  8
1
100
AcDbLine
 10
37.02863158962322
 20
-1.579893596819164
 30
0.0
 11
36.77722353605019
 21
-1.4530483505879
 31
0.0
  0
LINE
  5
44F
330
18
100
AcDbEntity
  8
1
100
AcDbLine
 10
36.77722353605019
 20
-1.4530483505879
 30
0.0
 11
36.52581611415328
 21
-1.307152043328792
 31
0.0
  0
LINE
  5
450
330
18
100
AcDbEntity
  8
1
100
AcDbLine
 10
36.52581611415328
 20
-1.307152043328792
 30
0.0
 11
36.27441018223961
 21
-1.144118206562698
 31
0.0
  0
LINE
  5
451
330
18
100
AcDbEntity
  8
1
100
AcDbLine
 10
36.27441018223961
 20
-1.144118206562698
 30
0.0
 11
36.02300662603953
 21
-0.966085235899603
 31
0.0
  0
LINE
  5
452
330
18
100
AcDbEntity
  8
1
100
AcDbLine
 10
36.02300662603953
 20
-0.966085235899603
 30
0.0
 11
35.52020169787504
 21
-0.5745218762339548
 31
0.0
  0
LINE
  5
453
330
18
100
AcDbEntity
  8
1
100
AcDbLine
 10
35.52020169787504
 20
-0.5745218762339548
 30
0.0
 11
34.26318130970307
 21
0.4874257565452789
 31
0.0
  0
LINE
  5
454
330
18
100
AcDbEntity
  8
1
100
AcDbLine
 10
36.66190064065949
 20
-1.88
 30
0.0
 11
38.28565505485864
 21
-1.88
 31
0.0
  0
LINE
  5
455
330
18
100
AcDbEntity
  8
1
100
AcDbLine
 10
29.66723712235857
 20
0.4874257647254656
 30
0.0
 11
30.67218484874243
 21
-0.3655616179334059
 31
0.0
  0
LINE
  5
456
330
18
100
AcDbEntity
  8
1
100
AcDbLine
 10
30.67218484874243
 20
-0.3655616179334059
 30
0.0
 11
31.17466026505907
 21
-0.7746062428232222
 31
0.0
  0
LINE
  5
457
330
18
100
AcDbEntity
  8
1
100
AcDbLine
 10
31.17466026505907
 20
-0.7746062428232222
 30
0.0
 11
31.67714159087452
 21
-1.143217409876151
 31
0.0
  0
LINE
  5
458
330
18
100
AcDbEntity
  8
1
100
AcDbLine
 10
31.67714159087452
 20
-1.143217409876151
 30
0.0
 11
31.92838435580683
 21
-1.306235618774318
 31
0.0
  0
LINE
  5
459
330
18
100
AcDbEntity
  8
1
100
AcDbLine
 10
31.92838435580683
 20
-1.306235618774318
 30
0.0
 11
32.17962744037196
 21
-1.45214996452169
 31
0.0
  0
LINE
  5
45A
330
18
100
AcDbEntity
  8
1
100
AcDbLine
 10
32.17962744037196
 20
-1.45214996452169
 30
0.0
 11
32.43087000513035
 21
-1.579049378748202
 31
0.0
  0
LINE
  5
45B
330
18
100
AcDbEntity
  8
1
100
AcDbLine
 10
32.43087000513035
 20
-1.579049378748202
 30
0.0
 11
32.55648313759585
 21
-1.634835503763496
 31
0.0
  0
LINE
  5
45C
330
18
100
AcDbEntity
  8
1
100
AcDbLine
 10
32.55648313759585
 20
-1.634835503763496
 30
0.0
 11
32.68211118591424
 21
-1.68527196640117
 31
0.0
  0
LINE
  5
45D
330
18
100
AcDbEntity
  8
1
100
AcDbLine
 10
32.68211118591424
 20
-1.68527196640117
 30
0.0
 11
32.80772499973599
 21
-1.73018104799962
 31
0.0
  0
LINE
  5
45E
330
18
100
AcDbEntity
  8
1
100
AcDbLine
 10
32.80772499973599
 20
-1.73018104799962
 30
0.0
 11
32.93335009185536
 21
-1.769426798930887
 31
0.0
  0
LINE
  5
45F
330
18
100
AcDbEntity
  8
1
100
AcDbLine
 10
32.93335009185536
 20
-1.769426798930887
 30
0.0
 11
33.05896777022302
 21
-1.8028717023905
 31
0.0
  0
LINE
  5
460
330
18
100
AcDbEntity
  8
1
100
AcDbLine
 10
33.05896777022302
 20
-1.8028717023905
 30
0.0
 11
33.18458643185208
 21
-1.830412286122868
 31
0.0
  0
LINE
  5
461
330
18
100
AcDbEntity
  8
1
100
AcDbLine
 10
33.18458643185208
 20
-1.830412286122868
 30
0.0
 11
33.31021056791089
 21
-1.851955324280173
 31
0.0
  0
LINE
  5
462
330
18
100
AcDbEntity
  8
1
100
AcDbLine
 10
33.31021056791089
 20
-1.851955324280173
 30
0.0
 11
33.43582475107009
 21
-1.867431024124478
 31
0.0
  0
LINE
  5
463
330
18
100
AcDbEntity
  8
1
100
AcDbLine
 10
33.43582475107009
 20
-1.867431024124478
 30
0.0
 11
33.56145248340139
 21
-1.876789130622654
 31
0.0
  0
LINE
  5
464
330
18
100
AcDbEntity
  8
1
100
AcDbLine
 10
33.56145248340139
 20
-1.876789130622654
 30
0.0
 11
33.68705787559707
 21
-1.879998625996163
 31
0.0
  0
LINE
  5
465
330
18
100
AcDbEntity
  8
1
100
AcDbLine
 10
33.68705787559707
 20
-1.879998625996163
 30
0.0
 11
33.6897109365956
 21
-1.879999999968703
 31
0.0
  0
LINE
  5
466
330
18
100
AcDbEntity
  8
1
100
AcDbLine
 10
33.20820364487797
 20
0.0057733401426826
 30
0.0
 11
32.34814165144483
 21
0.7234488837189696
 31
0.0
  0
LINE
  5
467
330
18
100
AcDbEntity
  8
1
100
AcDbLine
 10
32.34814165144483
 20
0.7234488837189696
 30
0.0
 11
31.91811290018722
 21
1.047476046524328
 31
0.0
  0
LINE
  5
468
330
18
100
AcDbEntity
  8
1
100
AcDbLine
 10
31.91811290018722
 20
1.047476046524328
 30
0.0
 11
31.70309889610002
 21
1.195173306063638
 31
0.0
  0
LINE
  5
469
330
18
100
AcDbEntity
  8
1
100
AcDbLine
 10
31.70309889610002
 20
1.195173306063638
 30
0.0
 11
31.48808507578804
 21
1.331405172481337
 31
0.0
  0
LINE
  5
46A
330
18
100
AcDbEntity
  8
1
100
AcDbLine
 10
31.48808507578804
 20
1.331405172481337
 30
0.0
 11
31.27307139584537
 21
1.45486484139242
 31
0.0
  0
LINE
  5
46B
330
18
100
AcDbEntity
  8
1
100
AcDbLine
 10
31.27307139584537
 20
1.45486484139242
 30
0.0
 11
31.0580578160616
 21
1.564368022770633
 31
0.0
  0
LINE
  5
46C
330
18
100
AcDbEntity
  8
1
100
AcDbLine
 10
31.0580578160616
 20
1.564368022770633
 30
0.0
 11
30.84304429921757
 21
1.658864299685228
 31
0.0
  0
LINE
  5
46D
330
18
100
AcDbEntity
  8
1
100
AcDbLine
 10
30.84304429921757
 20
1.658864299685228
 30
0.0
 11
30.62803081096166
 21
1.737447203529193
 31
0.0
  0
LINE
  5
46E
330
18
100
AcDbEntity
  8
1
100
AcDbLine
 10
30.62803081096166
 20
1.737447203529193
 30
0.0
 11
30.52052076003553
 21
1.770531204617236
 31
0.0
  0
LINE
  5
46F
330
18
100
AcDbEntity
  8
1
100
AcDbLine
 10
30.52052076003553
 20
1.770531204617236
 30
0.0
 11
30.41301731971308
 21
1.799362909050097
 31
0.0
  0
LINE
  5
470
330
18
100
AcDbEntity
  8
1
100
AcDbLine
 10
30.41301731971308
 20
1.799362909050097
 30
0.0
 11
30.30550561056939
 21
1.823880323808792
 31
0.0
  0
LINE
  5
471
330
18
100
AcDbEntity
  8
1
100
AcDbLine
 10
30.30550561056939
 20
1.823880323808792
 30
0.0
 11
30.19800379662716
 21
1.844017465775358
 31
0.0
  0
LINE
  5
472
330
18
100
AcDbEntity
  8
1
100
AcDbLine
 10
30.19800379662716
 20
1.844017465775358
 30
0.0
 11
30.09049082115865
 21
1.859732730890968
 31
0.0
  0
LINE
  5
473
330
18
100
AcDbEntity
  8
1
100
AcDbLine
 10
30.09049082115865
 20
1.859732730890968
 30
0.0
 11
29.98299021556408
 21
1.870982496405893
 31
0.0
  0
LINE
  5
474
330
18
100
AcDbEntity
  8
1
100
AcDbLine
 10
29.98299021556408
 20
1.870982496405893
 30
0.0
 11
29.87547635060017
 21
1.877744592750842
 31
0.0
  0
LINE
  5
475
330
18
100
AcDbEntity
  8
1
100
AcDbLine
 10
29.87547635060017
 20
1.877744592750842
 30
0.0
 11
29.76798437011215
 21
1.88
 31
0.0
  0
LINE
  5
476
330
18
100
AcDbEntity
  8
1
100
AcDbLine
 10
34.26318130970307
 20
0.4874257565452789
 30
0.0
 11
33.90425214402383
 21
0.776586470826897
 31
0.0
  0
LINE
  5
477
330
18
100
AcDbEntity
  8
1
100
AcDbLine
 10
33.90425214402383
 20
0.776586470826897
 30
0.0
 11
33.54531380901604
 21
1.045022869500897
 31
0.0
  0
LINE
  5
478
330
18
100
AcDbEntity
  8
1
100
AcDbLine
 10
33.54531380901604
 20
1.045022869500897
 30
0.0
 11
33.18638889926763
 21
1.285553606387844
 31
0.0
  0
LINE
  5
479
330
18
100
AcDbEntity
  8
1
100
AcDbLine
 10
33.18638889926763
 20
1.285553606387844
 30
0.0
 11
33.00692222480689
 21
1.393320697706264
 31
0.0
  0
LINE
  5
47A
330
18
100
AcDbEntity
  8
1
100
AcDbLine
 10
33.00692222480689
 20
1.393320697706264
 30
0.0
 11
32.82745040092643
 21
1.49177585155946
 31
0.0
  0
LINE
  5
47B
330
18
100
AcDbEntity
  8
1
100
AcDbLine
 10
32.82745040092643
 20
1.49177585155946
 30
0.0
 11
32.64798433608875
 21
1.580254982289124
 31
0.0
  0
LINE
  5
47C
330
18
100
AcDbEntity
  8
1
100
AcDbLine
 10
32.64798433608875
 20
1.580254982289124
 30
0.0
 11
32.46852207488961
 21
1.658169072203202
 31
0.0
  0
LINE
  5
47D
330
18
100
AcDbEntity
  8
1
100
AcDbLine
 10
32.46852207488961
 20
1.658169072203202
 30
0.0
 11
32.28905966155502
 21
1.724999616943296
 31
0.0
  0
LINE
  5
47E
330
18
100
AcDbEntity
  8
1
100
AcDbLine
 10
32.28905966155502
 20
1.724999616943296
 30
0.0
 11
32.10959319091569
 21
1.780300663642502
 31
0.0
  0
LINE
  5
47F
330
18
100
AcDbEntity
  8
1
100
AcDbLine
 10
32.10959319091569
 20
1.780300663642502
 30
0.0
 11
31.93012154954102
 21
1.823701173835792
 31
0.0
  0
LINE
  5
480
330
18
100
AcDbEntity
  8
1
100
AcDbLine
 10
31.93012154954102
 20
1.823701173835792
 30
0.0
 11
31.75065548447709
 21
1.854908512356958
 31
0.0
  0
LINE
  5
481
330
18
100
AcDbEntity
  8
1
100
AcDbLine
 10
31.75065548447709
 20
1.854908512356958
 30
0.0
 11
31.57119326118
 21
1.873716104269813
 31
0.0
  0
LINE
  5
482
330
18
100
AcDbEntity
  8
1
100
AcDbLine
 10
31.57119326118
 20
1.873716104269813
 30
0.0
 11
31.48145746833231
 21
1.878428785275984
 31
0.0
  0
LINE
  5
483
330
18
100
AcDbEntity
  8
1
100
AcDbLine
 10
31.48145746833231
 20
1.878428785275984
 30
0.0
 11
31.39173886763862
 21
1.88
 31
0.0
  0
LINE
  5
484
330
18
100
AcDbEntity
  8
1
100
AcDbLine
 10
37.8041475075628
 20
0.0057736200310271
 30
0.0
 11
36.9440864609073
 21
0.7234483524813041
 31
0.0
  0
LINE
  5
485
330
18
100
AcDbEntity
  8
1
100
AcDbLine
 10
36.9440864609073
 20
0.7234483524813041
 30
0.0
 11
36.51405795272404
 21
1.047475384317222
 31
0.0
  0
LINE
  5
486
330
18
100
AcDbEntity
  8
1
100
AcDbLine
 10
36.51405795272404
 20
1.047475384317222
 30
0.0
 11
36.2990440370803
 21
1.195172631221022
 31
0.0
  0
LINE
  5
487
330
18
100
AcDbEntity
  8
1
100
AcDbLine
 10
36.2990440370803
 20
1.195172631221022
 30
0.0
 11
36.08403028415188
 21
1.331404517073272
 31
0.0
  0
LINE
  5
488
330
18
100
AcDbEntity
  8
1
100
AcDbLine
 10
36.08403028415188
 20
1.331404517073272
 30
0.0
 11
35.86901665109951
 21
1.454864233557802
 31
0.0
  0
LINE
  5
489
330
18
100
AcDbEntity
  8
1
100
AcDbLine
 10
35.86901665109951
 20
1.454864233557802
 30
0.0
 11
35.65400309831666
 21
1.56436748589501
 31
0.0
  0
LINE
  5
48A
330
18
100
AcDbEntity
  8
1
100
AcDbLine
 10
35.65400309831666
 20
1.56436748589501
 30
0.0
 11
35.43898958927687
 21
1.658863851799796
 31
0.0
  0
LINE
  5
48B
330
18
100
AcDbEntity
  8
1
100
AcDbLine
 10
35.43898958927687
 20
1.658863851799796
 30
0.0
 11
35.22397609041774
 21
1.737446856883283
 31
0.0
  0
LINE
  5
48C
330
18
100
AcDbEntity
  8
1
100
AcDbLine
 10
35.22397609041774
 20
1.737446856883283
 30
0.0
 11
35.11646505321948
 21
1.770531134172282
 31
0.0
  0
LINE
  5
48D
330
18
100
AcDbEntity
  8
1
100
AcDbLine
 10
35.11646505321948
 20
1.770531134172282
 30
0.0
 11
35.00896257109552
 21
1.799362669862798
 31
0.0
  0
LINE
  5
48E
330
18
100
AcDbEntity
  8
1
100
AcDbLine
 10
35.00896257109552
 20
1.799362669862798
 30
0.0
 11
34.90145008901619
 21
1.823880210569291
 31
0.0
  0
LINE
  5
48F
330
18
100
AcDbEntity
  8
1
100
AcDbLine
 10
34.90145008901619
 20
1.823880210569291
 30
0.0
 11
34.79394900350255
 21
1.844017334104611
 31
0.0
  0
LINE
  5
490
330
18
100
AcDbEntity
  8
1
100
AcDbLine
 10
34.79394900350255
 20
1.844017334104611
 30
0.0
 11
34.68643546509289
 21
1.859732612184619
 31
0.0
  0
LINE
  5
491
330
18
100
AcDbEntity
  8
1
100
AcDbLine
 10
34.68643546509289
 20
1.859732612184619
 30
0.0
 11
34.57893536243226
 21
1.8709824661567
 31
0.0
  0
LINE
  5
492
330
18
100
AcDbEntity
  8
1
100
AcDbLine
 10
34.57893536243226
 20
1.8709824661567
 30
0.0
 11
34.47142114076017
 21
1.877744501349251
 31
0.0
  0
LINE
  5
493
330
18
100
AcDbEntity
  8
1
100
AcDbLine
 10
34.47142114076017
 20
1.877744501349251
 30
0.0
 11
34.36392854754354
 21
1.88
 31
0.0
  0
LINE
  5
494
330
18
100
AcDbEntity
  8
1
100
AcDbLine
 10
32.87783369692044
 20
1.465115638809876
 30
0.0
 11
33.06359429122864
 21
1.559475519770511
 31
0.0
  0
LINE
  5
495
330
18
100
AcDbEntity
  8
1
100
AcDbLine
 10
33.06359429122864
 20
1.559475519770511
 30
0.0
 11
33.24935493259771
 21
1.642667304519068
 31
0.0
  0
LINE
  5
496
330
18
100
AcDbEntity
  8
1
100
AcDbLine
 10
33.24935493259771
 20
1.642667304519068
 30
0.0
 11
33.43511810439036
 21
1.714095960276547
 31
0.0
  0
LINE
  5
497
330
18
100
AcDbEntity
  8
1
100
AcDbLine
 10
33.43511810439036
 20
1.714095960276547
 30
0.0
 11
33.62088616706058
 21
1.773249654441817
 31
0.0
  0
LINE
  5
498
330
18
100
AcDbEntity
  8
1
100
AcDbLine
 10
33.62088616706058
 20
1.773249654441817
 30
0.0
 11
33.80665302991083
 21
1.819702020305531
 31
0.0
  0
LINE
  5
499
330
18
100
AcDbEntity
  8
1
100
AcDbLine
 10
33.80665302991083
 20
1.819702020305531
 30
0.0
 11
33.99241539798046
 21
1.853120601968621
 31
0.0
  0
LINE
  5
49A
330
18
100
AcDbEntity
  8
1
100
AcDbLine
 10
33.99241539798046
 20
1.853120601968621
 30
0.0
 11
34.08529254335293
 21
1.864864813075764
 31
0.0
  0
LINE
  5
49B
330
18
100
AcDbEntity
  8
1
100
AcDbLine
 10
34.08529254335293
 20
1.864864813075764
 30
0.0
 11
34.17817572608212
 21
1.873267608289796
 31
0.0
  0
LINE
  5
49C
330
18
100
AcDbEntity
  8
1
100
AcDbLine
 10
34.17817572608212
 20
1.873267608289796
 30
0.0
 11
34.27106122266774
 21
1.878316564480389
 31
0.0
  0
LINE
  5
49D
330
18
100
AcDbEntity
  8
1
100
AcDbLine
 10
34.27106122266774
 20
1.878316564480389
 30
0.0
 11
34.36392854754353
 21
1.88
 31
0.0
  0
LINE
  5
49E
330
18
100
AcDbEntity
  8
1
100
AcDbLine
 10
38.85912545836194
 20
0.4874257396210245
 30
0.0
 11
38.5001963108943
 21
0.7765864268507492
 31
0.0
  0
LINE
  5
49F
330
18
100
AcDbEntity
  8
1
100
AcDbLine
 10
38.5001963108943
 20
0.7765864268507492
 30
0.0
 11
38.14125796812749
 21
1.045022878078474
 31
0.0
  0
LINE
  5
4A0
330
18
100
AcDbEntity
  8
1
100
AcDbLine
 10
38.14125796812749
 20
1.045022878078474
 30
0.0
 11
37.78233302831164
 21
1.285553594228015
 31
0.0
  0
LINE
  5
4A1
330
18
100
AcDbEntity
  8
1
100
AcDbLine
 10
37.78233302831164
 20
1.285553594228015
 30
0.0
 11
37.60286637971637
 21
1.393320679475857
 31
0.0
  0
LINE
  5
4A2
330
18
100
AcDbEntity
  8
1
100
AcDbLine
 10
37.60286637971637
 20
1.393320679475857
 30
0.0
 11
37.42339459101786
 21
1.491775870856412
 31
0.0
  0
LINE
  5
4A3
330
18
100
AcDbEntity
  8
1
100
AcDbLine
 10
37.42339459101786
 20
1.491775870856412
 30
0.0
 11
37.24392850481392
 21
1.580255014136609
 31
0.0
  0
LINE
  5
4A4
330
18
100
AcDbEntity
  8
1
100
AcDbLine
 10
37.24392850481392
 20
1.580255014136609
 30
0.0
 11
37.06446621386364
 21
1.658169091484074
 31
0.0
  0
LINE
  5
4A5
330
18
100
AcDbEntity
  8
1
100
AcDbLine
 10
37.06446621386364
 20
1.658169091484074
 30
0.0
 11
36.88500379563521
 21
1.724999625882482
 31
0.0
  0
LINE
  5
4A6
330
18
100
AcDbEntity
  8
1
100
AcDbLine
 10
36.88500379563521
 20
1.724999625882482
 30
0.0
 11
36.70553735830126
 21
1.780300671193984
 31
0.0
  0
LINE
  5
4A7
330
18
100
AcDbEntity
  8
1
100
AcDbLine
 10
36.70553735830126
 20
1.780300671193984
 30
0.0
 11
36.52606573658866
 21
1.823701190791598
 31
0.0
  0
LINE
  5
4A8
330
18
100
AcDbEntity
  8
1
100
AcDbLine
 10
36.52606573658866
 20
1.823701190791598
 30
0.0
 11
36.34659964353654
 21
1.854908527214692
 31
0.0
  0
LINE
  5
4A9
330
18
100
AcDbEntity
  8
1
100
AcDbLine
 10
36.34659964353654
 20
1.854908527214692
 30
0.0
 11
36.16713740108565
 21
1.873716110222526
 31
0.0
  0
LINE
  5
4AA
330
18
100
AcDbEntity
  8
1
100
AcDbLine
 10
36.16713740108565
 20
1.873716110222526
 30
0.0
 11
36.07740164756303
 21
1.878428789862822
 31
0.0
  0
LINE
  5
4AB
330
18
100
AcDbEntity
  8
1
100
AcDbLine
 10
36.07740164756303
 20
1.878428789862822
 30
0.0
 11
35.98768299678043
 21
1.88
 31
0.0
  0
LINE
  5
4AC
330
18
100
AcDbEntity
  8
1
100
AcDbLine
 10
37.47377794726818
 20
1.465115622700142
 30
0.0
 11
37.65953824744337
 21
1.559475410117707
 31
0.0
  0
LINE
  5
4AD
330
18
100
AcDbEntity
  8
1
100
AcDbLine
 10
37.65953824744337
 20
1.559475410117707
 30
0.0
 11
37.84529895721821
 21
1.642667289238112
 31
0.0
  0
LINE
  5
4AE
330
18
100
AcDbEntity
  8
1
100
AcDbLine
 10
37.84529895721821
 20
1.642667289238112
 30
0.0
 11
38.03106255736189
 21
1.714096112393897
 31
0.0
  0
LINE
  5
4AF
330
18
100
AcDbEntity
  8
1
100
AcDbLine
 10
38.03106255736189
 20
1.714096112393897
 30
0.0
 11
38.21683103689382
 21
1.773249823751528
 31
0.0
  0
LINE
  5
4B0
330
18
100
AcDbEntity
  8
1
100
AcDbLine
 10
38.21683103689382
 20
1.773249823751528
 30
0.0
 11
38.40259695099108
 21
1.819701887465184
 31
0.0
  0
LINE
  5
4B1
330
18
100
AcDbEntity
  8
1
100
AcDbLine
 10
38.40259695099108
 20
1.819701887465184
 30
0.0
 11
38.5883587258175
 21
1.853120429623065
 31
0.0
  0
LINE
  5
4B2
330
18
100
AcDbEntity
  8
1
100
AcDbLine
 10
38.5883587258175
 20
1.853120429623065
 30
0.0
 11
38.68123695860911
 21
1.864864865736667
 31
0.0
  0
LINE
  5
4B3
330
18
100
AcDbEntity
  8
1
100
AcDbLine
 10
38.68123695860911
 20
1.864864865736667
 30
0.0
 11
38.77411881422628
 21
1.873267542818115
 31
0.0
  0
LINE
  5
4B4
330
18
100
AcDbEntity
  8
1
100
AcDbLine
 10
38.77411881422628
 20
1.873267542818115
 30
0.0
 11
38.86700508788262
 21
1.878316489287194
 31
0.0
  0
LINE
  5
4B5
330
18
100
AcDbEntity
  8
1
100
AcDbLine
 10
38.86700508788262
 20
1.878316489287194
 30
0.0
 11
38.95987273701275
 21
1.88
 31
0.0
  0
LINE
  5
4B6
330
18
100
AcDbEntity
  8
1
100
AcDbLine
 10
28.61225970756103
 20
0.0057731306045982
 30
0.0
 11
28.61485439880601
 21
0.0035502015900605
 31
0.0
  0
LINE
  5
4B7
330
18
100
AcDbEntity
  8
1
100
AcDbLine
 10
28.61485439880601
 20
0.0035502015900605
 30
0.0
 11
29.47763493496034
 21
-0.7169879330307911
 31
0.0
  0
LINE
  5
4B8
330
18
100
AcDbEntity
  8
1
100
AcDbLine
 10
29.47763493496034
 20
-0.7169879330307911
 30
0.0
 11
29.9090239499318
 21
-1.042630430070363
 31
0.0
  0
LINE
  5
4B9
330
18
100
AcDbEntity
  8
1
100
AcDbLine
 10
29.9090239499318
 20
-1.042630430070363
 30
0.0
 11
30.12471819116189
 21
-1.191118864949202
 31
0.0
  0
LINE
  5
4BA
330
18
100
AcDbEntity
  8
1
100
AcDbLine
 10
30.12471819116189
 20
-1.191118864949202
 30
0.0
 11
30.34041230522763
 21
-1.32810848583738
 31
0.0
  0
LINE
  5
4BB
330
18
100
AcDbEntity
  8
1
100
AcDbLine
 10
30.34041230522763
 20
-1.32810848583738
 30
0.0
 11
30.55610632625269
 21
-1.452276880482831
 31
0.0
  0
LINE
  5
4BC
330
18
100
AcDbEntity
  8
1
100
AcDbLine
 10
30.55610632625269
 20
-1.452276880482831
 30
0.0
 11
30.77180028562166
 21
-1.562425401144294
 31
0.0
  0
LINE
  5
4BD
330
18
100
AcDbEntity
  8
1
100
AcDbLine
 10
30.77180028562166
 20
-1.562425401144294
 30
0.0
 11
30.98749421217927
 21
-1.657490734573656
 31
0.0
  0
LINE
  5
4BE
330
18
100
AcDbEntity
  8
1
100
AcDbLine
 10
30.98749421217927
 20
-1.657490734573656
 30
0.0
 11
31.2031881323105
 21
-1.736555166152666
 31
0.0
  0
LINE
  5
4BF
330
18
100
AcDbEntity
  8
1
100
AcDbLine
 10
31.2031881323105
 20
-1.736555166152666
 30
0.0
 11
31.31103961235264
 21
-1.769844355604876
 31
0.0
  0
LINE
  5
4C0
330
18
100
AcDbEntity
  8
1
100
AcDbLine
 10
31.31103961235264
 20
-1.769844355604876
 30
0.0
 11
31.41888207000169
 21
-1.798855439000673
 31
0.0
  0
LINE
  5
4C1
330
18
100
AcDbEntity
  8
1
100
AcDbLine
 10
31.41888207000169
 20
-1.798855439000673
 30
0.0
 11
31.52673484905885
 21
-1.823526436955381
 31
0.0
  0
LINE
  5
4C2
330
18
100
AcDbEntity
  8
1
100
AcDbLine
 10
31.52673484905885
 20
-1.823526436955381
 30
0.0
 11
31.63457604685933
 21
-1.843790122524866
 31
0.0
  0
LINE
  5
4C3
330
18
100
AcDbEntity
  8
1
100
AcDbLine
 10
31.63457604685933
 20
-1.843790122524866
 30
0.0
 11
31.74242978935678
 21
-1.859604470760091
 31
0.0
  0
LINE
  5
4C4
330
18
100
AcDbEntity
  8
1
100
AcDbLine
 10
31.74242978935678
 20
-1.859604470760091
 30
0.0
 11
31.85027008209518
 21
-1.870925419235691
 31
0.0
  0
LINE
  5
4C5
330
18
100
AcDbEntity
  8
1
100
AcDbLine
 10
31.85027008209518
 20
-1.870925419235691
 30
0.0
 11
31.95812446635859
 21
-1.877730249989059
 31
0.0
  0
LINE
  5
4C6
330
18
100
AcDbEntity
  8
1
100
AcDbLine
 10
31.95812446635859
 20
-1.877730249989059
 30
0.0
 11
32.06595645755721
 21
-1.879999999999862
 31
0.0
  0
LINE
  5
4C7
330
18
100
AcDbEntity
  8
1
100
AcDbLine
 10
28.61485490063933
 20
0.0035507878851285
 30
0.0
 11
28.61225970756045
 21
0.0057731306039188
 31
0.0
  0
LINE
  5
4C8
330
18
100
AcDbEntity
  8
1
 62
     1
100
AcDbLine
 10
43.52907798923242
 20
2.413
 30
0.0
 11
43.55217201076763
 21
2.412999999999999
 31
0.0
  0
LINE
  5
4C9
330
18
100
AcDbEntity
  8
1
 62
     1
100
AcDbLine
 10
44.32282798923243
 20
2.413
 30
0.0
 11
44.34592201076761
 21
2.413
 31
0.0
  0
LINE
  5
4CA
330
18
100
AcDbEntity
  8
1
 62
     1
100
AcDbLine
 10
39.77581692
 20
1.88
 30
0.0
 11
39.86231660570004
 21
1.929940616847234
 31
0.0
  0
LINE
  5
4CB
330
18
100
AcDbEntity
  8
1
 62
     1
100
AcDbLine
 10
41.94157798923242
 20
-2.413000000000002
 30
0.0
 11
41.55625000000001
 21
-1.74559265625
 31
0.0
  0
LINE
  5
4CC
330
18
100
AcDbEntity
  8
1
 62
     1
100
AcDbLine
 10
45.91032798923243
 20
-2.413000000000002
 30
0.0
 11
45.80898642040948
 21
-2.237471335720222
 31
0.0
  0
ARC
  5
4CD
330
18
100
AcDbEntity
  8
1
 62
     1
100
AcDbCircle
 10
55.69633001893458
 20
8.422221983463523
 30
0.0
 40
11.01817986030391
100
AcDbArc
 50
226.6018069618043
 51
229.5559231162514
  0
LINE
  5
4CE
330
18
100
AcDbEntity
  8
1
 62
     1
100
AcDbLine
 10
48.12605679035216
 20
0.4163767568666218
 30
0.0
 11
48.12605679035217
 21
-1.060445933534583
 31
0.0
  0
ARC
  5
4CF
330
18
100
AcDbEntity
  8
1
 62
     1
100
AcDbCircle
 10
50.27014440053612
 20
2.158675788807288
 30
0.0
 40
3.867649220940311
100
AcDbArc
 50
236.334504051609
 51
243.5722894958359
  0
LINE
  5
4D0
330
18
100
AcDbEntity
  8
1
 62
     1
100
AcDbLine
 10
47.60129126554113
 20
0.9292072191540124
 30
0.0
 11
47.44312400592501
 21
1.088686284397095
 31
0.0
  0
LINE
  5
4D1
330
18
100
AcDbEntity
  8
1
 62
     1
100
AcDbLine
 10
47.44312400592502
 20
1.088686284397095
 30
0.0
 11
47.443124005925
 21
-0.5292659578203096
 31
0.0
  0
LINE
  5
4D2
330
18
100
AcDbEntity
  8
1
 62
     1
100
AcDbLine
 10
47.60129126554113
 20
-0.6657316111118254
 30
0.0
 11
47.44312400592501
 21
-0.5292659578203118
 31
0.0
  0
LINE
  5
4D3
330
18
100
AcDbEntity
  8
1
 62
     1
100
AcDbLine
 10
47.60129126554115
 20
0.9292072191540064
 30
0.0
 11
47.60129126554114
 21
-0.6657316111118302
 31
0.0
  0
ARC
  5
4D4
330
18
100
AcDbEntity
  8
1
 62
     1
100
AcDbCircle
 10
36.57168049260306
 20
4.602726880369817
 30
0.0
 40
12.28891295764392
100
AcDbArc
 50
325.730502378773
 51
329.062751686371
  0
LINE
  5
4D5
330
18
100
AcDbEntity
  8
1
 62
     1
100
AcDbLine
 10
46.7271720107676
 20
-2.316960360089178
 30
0.0
 11
46.72717201076762
 21
-2.413
 31
0.0
  0
LINE
  5
4D6
330
18
100
AcDbEntity
  8
1
 62
     1
100
AcDbLine
 10
47.1125
 20
-1.74559265625
 30
0.0
 11
46.72717201076762
 21
-2.412999999999953
 31
0.0
  0
LINE
  5
4D7
330
18
100
AcDbEntity
  8
1
 62
     1
100
AcDbLine
 10
47.1125
 20
-1.74559265625
 30
0.0
 11
47.1125
 21
-1.7455856972596
 31
0.0
  0
LINE
  5
4D8
330
18
100
AcDbEntity
  8
1
 62
     1
100
AcDbLine
 10
47.1125
 20
-1.7455856972596
 30
0.0
 11
47.1125
 21
-1.743544535106594
 31
0.0
  0
LINE
  5
4D9
330
18
100
AcDbEntity
  8
1
 62
     1
100
AcDbLine
 10
47.1125
 20
-1.743544535106594
 30
0.0
 11
47.1125
 21
-1.71513425682068
 31
0.0
  0
ARC
  5
4DA
330
18
100
AcDbEntity
  8
1
 62
     1
100
AcDbCircle
 10
58.09643902913866
 20
3.913872134962181
 30
0.0
 40
12.34228846636685
100
AcDbArc
 50
207.1340557393483
 51
209.8100326370098
  0
LINE
  5
4DB
330
18
100
AcDbEntity
  8
1
 62
     1
100
AcDbLine
 10
47.38740417218224
 20
-2.22174042767825
 30
0.0
 11
47.1125
 21
-1.74559265625
 31
0.0
  0
ARC
  5
4DC
330
18
100
AcDbEntity
  8
1
 62
     1
100
AcDbCircle
 10
123.1097825131739
 20
-44.31013613473657
 30
0.0
 40
86.42678271434227
100
AcDbArc
 50
150.4751994810575
 51
150.8879436770337
  0
ARC
  5
4DD
330
18
100
AcDbEntity
  8
1
 62
     1
100
AcDbCircle
 10
51.02736295001048
 20
0.3755787286615329
 30
0.0
 40
3.758801029437584
100
AcDbArc
 50
213.8660957991637
 51
219.4753164821477
  0
LINE
  5
4DE
330
18
100
AcDbEntity
  8
1
 62
     1
100
AcDbLine
 10
45.1396720107676
 20
2.411003340966791
 30
0.0
 11
45.1396720107676
 21
2.232313217014791
 31
0.0
  0
LINE
  5
4DF
330
18
100
AcDbEntity
  8
1
 62
     1
100
AcDbLine
 10
45.1396720107676
 20
2.232313217014791
 30
0.0
 11
45.1396720107676
 21
1.742132982369425
 31
0.0
  0
ARC
  5
4E0
330
18
100
AcDbEntity
  8
1
 62
     1
100
AcDbCircle
 10
-7.772627425572189
 20
32.69884880673067
 30
0.0
 40
63.44928195804975
100
AcDbArc
 50
326.5045644043414
 51
327.1409715707566
  0
LINE
  5
4E1
330
18
100
AcDbEntity
  8
1
 62
     1
100
AcDbLine
 10
45.52500000000001
 20
-1.726894381756972
 30
0.0
 11
45.52500000000001
 21
-1.070642658318673
 31
0.0
  0
LINE
  5
4E2
330
18
100
AcDbEntity
  8
1
 62
     1
100
AcDbLine
 10
45.13967201076759
 20
-1.290495301922707
 30
0.0
 11
45.1866356017329
 21
-1.274843110101561
 31
0.0
  0
LINE
  5
4E3
330
18
100
AcDbEntity
  8
1
 62
     1
100
AcDbLine
 10
45.1866356017329
 20
-1.274843110101561
 30
0.0
 11
45.23396831261616
 21
-1.255844926774839
 31
0.0
  0
LINE
  5
4E4
330
18
100
AcDbEntity
  8
1
 62
     1
100
AcDbLine
 10
45.23396831261616
 20
-1.255844926774839
 30
0.0
 11
45.281663520076
 21
-1.233474005613976
 31
0.0
  0
LINE
  5
4E5
330
18
100
AcDbEntity
  8
1
 62
     1
100
AcDbLine
 10
45.281663520076
 20
-1.233474005613976
 30
0.0
 11
45.32970558452116
 21
-1.207715792048574
 31
0.0
  0
LINE
  5
4E6
330
18
100
AcDbEntity
  8
1
 62
     1
100
AcDbLine
 10
45.32970558452116
 20
-1.207715792048574
 30
0.0
 11
45.37808471857302
 21
-1.178553036249371
 31
0.0
  0
LINE
  5
4E7
330
18
100
AcDbEntity
  8
1
 62
     1
100
AcDbLine
 10
45.37808471857302
 20
-1.178553036249371
 30
0.0
 11
45.42677626798967
 21
-1.145985212466935
 31
0.0
  0
LINE
  5
4E8
330
18
100
AcDbEntity
  8
1
 62
     1
100
AcDbLine
 10
45.42677626798967
 20
-1.145985212466935
 30
0.0
 11
45.47575771189896
 21
-1.110011866656968
 31
0.0
  0
LINE
  5
4E9
330
18
100
AcDbEntity
  8
1
 62
     1
100
AcDbLine
 10
45.47575771189896
 20
-1.110011866656968
 30
0.0
 11
45.52500000000001
 21
-1.070642658318673
 31
0.0
  0
LINE
  5
4EA
330
18
100
AcDbEntity
  8
1
 62
     1
100
AcDbLine
 10
45.1396720107676
 20
-1.290495301485677
 30
0.0
 11
45.1396720107676
 21
-2.316976672950693
 31
0.0
  0
ARC
  5
4EB
330
18
100
AcDbEntity
  8
1
 62
     1
100
AcDbCircle
 10
84.1271887740577
 20
19.37385906090906
 30
0.0
 40
43.99278099711758
100
AcDbArc
 50
208.6619270555567
 51
209.4228443067531
  0
ARC
  5
4EC
330
18
100
AcDbEntity
  8
1
 62
     1
100
AcDbCircle
 10
18.94213718615199
 20
-13.72906192343491
 30
0.0
 40
29.44293747705641
100
AcDbArc
 50
23.66026969171049
 51
25.46319249292452
  0
ARC
  5
4ED
330
18
100
AcDbEntity
  8
1
 62
     1
100
AcDbCircle
 10
43.63107188471366
 20
0.4737717300003061
 30
0.0
 40
3.327558842719446
100
AcDbArc
 50
313.7830323787497
 51
323.8563233253761
  0
LINE
  5
4EE
330
18
100
AcDbEntity
  8
1
 62
     1
100
AcDbLine
 10
45.93342201076761
 20
-1.928520461081386
 30
0.0
 11
45.9334220107676
 21
-2.413
 31
0.0
  0
LINE
  5
4EF
330
18
100
AcDbEntity
  8
1
 62
     1
100
AcDbLine
 10
46.31875000000001
 20
-1.74559265625
 30
0.0
 11
45.9334220107676
 21
-2.41299999999999
 31
0.0
  0
LINE
  5
4F0
330
18
100
AcDbEntity
  8
1
 62
     1
100
AcDbLine
 10
46.31875000000001
 20
-1.74559265625
 30
0.0
 11
46.31875000000001
 21
-1.745538308227101
 31
0.0
  0
LINE
  5
4F1
330
18
100
AcDbEntity
  8
1
 62
     1
100
AcDbLine
 10
46.31875000000001
 20
-1.745538308227101
 30
0.0
 11
46.31875000000002
 21
-1.729109215776359
 31
0.0
  0
LINE
  5
4F2
330
18
100
AcDbEntity
  8
1
 62
     1
100
AcDbLine
 10
46.31875000000002
 20
-1.729109215776359
 30
0.0
 11
46.31875000000002
 21
-1.489256892010953
 31
0.0
  0
ARC
  5
4F3
330
18
100
AcDbEntity
  8
1
 62
     1
100
AcDbCircle
 10
113.5362959963402
 20
29.55762468176544
 30
0.0
 40
74.04121919794349
100
AcDbArc
 50
204.7915808406441
 51
205.4930370629683
  0
LINE
  5
4F4
330
18
100
AcDbEntity
  8
1
 62
     1
100
AcDbLine
 10
46.70407798923241
 20
-2.41299999999999
 30
0.0
 11
46.31875000000001
 21
-1.74559265625
 31
0.0
  0
ARC
  5
4F5
330
18
100
AcDbEntity
  8
1
 62
     1
100
AcDbCircle
 10
33.76022264830492
 20
-7.383146792708418
 30
0.0
 40
12.4372801936197
100
AcDbArc
 50
24.0724475260591
 51
28.10076413622216
  0
ARC
  5
4F6
330
18
100
AcDbEntity
  8
1
 62
     1
100
AcDbCircle
 10
36.11071429747268
 20
-5.37963993812515
 30
0.0
 40
9.899235742218236
100
AcDbArc
 50
24.5340477173145
 51
29.44411997693132
  0
LINE
  5
4F7
330
18
100
AcDbEntity
  8
1
 62
     1
100
AcDbLine
 10
43.9375
 20
-1.125697638614723
 30
0.0
 11
44.04209503620776
 21
-1.307225919497153
 31
0.0
  0
LINE
  5
4F8
330
18
100
AcDbEntity
  8
1
 62
     1
100
AcDbLine
 10
44.04209503620776
 20
-1.307225919497153
 30
0.0
 11
44.14113254775567
 21
-1.503042484139661
 31
0.0
  0
LINE
  5
4F9
330
18
100
AcDbEntity
  8
1
 62
     1
100
AcDbLine
 10
44.14113254775567
 20
-1.503042484139661
 30
0.0
 11
44.32282798923242
 21
-1.913186361521541
 31
0.0
  0
LINE
  5
4FA
330
18
100
AcDbEntity
  8
1
 62
     1
100
AcDbLine
 10
44.32282798923242
 20
-0.4605548402567987
 30
0.0
 11
44.32282798923242
 21
-1.913186361521541
 31
0.0
  0
LINE
  5
4FB
330
18
100
AcDbEntity
  8
1
 62
     1
100
AcDbLine
 10
43.93750000000001
 20
0.1101585812141727
 30
0.0
 11
44.03510909683308
 21
-0.0132445302105898
 31
0.0
  0
LINE
  5
4FC
330
18
100
AcDbEntity
  8
1
 62
     1
100
AcDbLine
 10
44.03510909683308
 20
-0.0132445302105898
 30
0.0
 11
44.1319650744842
 21
-0.1502308981777255
 31
0.0
  0
LINE
  5
4FD
330
18
100
AcDbEntity
  8
1
 62
     1
100
AcDbLine
 10
44.1319650744842
 20
-0.1502308981777255
 30
0.0
 11
44.22791071991451
 21
-0.2997079158914784
 31
0.0
  0
LINE
  5
4FE
330
18
100
AcDbEntity
  8
1
 62
     1
100
AcDbLine
 10
44.22791071991451
 20
-0.2997079158914784
 30
0.0
 11
44.32282798923242
 21
-0.4605548402567836
 31
0.0
  0
LINE
  5
4FF
330
18
100
AcDbEntity
  8
1
 62
     1
100
AcDbLine
 10
43.93750000000001
 20
-1.125697638614723
 30
0.0
 11
43.93750000000001
 21
0.1101585812141794
 31
0.0
  0
ARC
  5
500
330
18
100
AcDbEntity
  8
1
 62
     1
100
AcDbCircle
 10
45.27471828621599
 20
-4.798305214652683
 30
0.0
 40
3.907984295714814
100
AcDbArc
 50
110.0068662443668
 51
116.1541419229889
  0
LINE
  5
501
330
18
100
AcDbEntity
  8
1
 62
     1
100
AcDbLine
 10
43.5521720107676
 20
0.3824087286684534
 30
0.0
 11
43.59913561228683
 21
0.3367890659600553
 31
0.0
  0
LINE
  5
502
330
18
100
AcDbEntity
  8
1
 62
     1
100
AcDbLine
 10
43.59913561228683
 20
0.3367890659600553
 30
0.0
 11
43.64646831565499
 21
0.2942574225519787
 31
0.0
  0
LINE
  5
503
330
18
100
AcDbEntity
  8
1
 62
     1
100
AcDbLine
 10
43.64646831565499
 20
0.2942574225519787
 30
0.0
 11
43.69416352227207
 21
0.2549260970220125
 31
0.0
  0
LINE
  5
504
330
18
100
AcDbEntity
  8
1
 62
     1
100
AcDbLine
 10
43.69416352227207
 20
0.2549260970220125
 30
0.0
 11
43.7422055668796
 21
0.2189085472442001
 31
0.0
  0
LINE
  5
505
330
18
100
AcDbEntity
  8
1
 62
     1
100
AcDbLine
 10
43.7422055668796
 20
0.2189085472442001
 30
0.0
 11
43.79058472568482
 21
0.1863140381278363
 31
0.0
  0
LINE
  5
506
330
18
100
AcDbEntity
  8
1
 62
     1
100
AcDbLine
 10
43.79058472568482
 20
0.1863140381278363
 30
0.0
 11
43.83927626264952
 21
0.1572535219171931
 31
0.0
  0
LINE
  5
507
330
18
100
AcDbEntity
  8
1
 62
     1
100
AcDbLine
 10
43.83927626264952
 20
0.1572535219171931
 30
0.0
 11
43.88825771076575
 21
0.1318342422234375
 31
0.0
  0
LINE
  5
508
330
18
100
AcDbEntity
  8
1
 62
     1
100
AcDbLine
 10
43.88825771076575
 20
0.1318342422234375
 30
0.0
 11
43.93750000000001
 21
0.1101585812141727
 31
0.0
  0
LINE
  5
509
330
18
100
AcDbEntity
  8
1
 62
     1
100
AcDbLine
 10
43.55217201076762
 20
0.3824087286684
 30
0.0
 11
43.55217201076763
 21
-1.29054462130791
 31
0.0
  0
LINE
  5
50A
330
18
100
AcDbEntity
  8
1
 62
     1
100
AcDbLine
 10
43.14375
 20
-0.5807340333117146
 30
0.0
 11
43.1967265895919
 21
-0.6476451636773484
 31
0.0
  0
LINE
  5
50B
330
18
100
AcDbEntity
  8
1
 62
     1
100
AcDbLine
 10
43.1967265895919
 20
-0.6476451636773484
 30
0.0
 11
43.2483450633809
 21
-0.7217312676693187
 31
0.0
  0
LINE
  5
50C
330
18
100
AcDbEntity
  8
1
 62
     1
100
AcDbLine
 10
43.2483450633809
 20
-0.7217312676693187
 30
0.0
 11
43.29856555474333
 21
-0.8020234753822925
 31
0.0
  0
LINE
  5
50D
330
18
100
AcDbEntity
  8
1
 62
     1
100
AcDbLine
 10
43.29856555474333
 20
-0.8020234753822925
 30
0.0
 11
43.34738256290671
 21
-0.8876534152511485
 31
0.0
  0
LINE
  5
50E
330
18
100
AcDbEntity
  8
1
 62
     1
100
AcDbLine
 10
43.34738256290671
 20
-0.8876534152511485
 30
0.0
 11
43.4408812932516
 21
-1.071881357560028
 31
0.0
  0
LINE
  5
50F
330
18
100
AcDbEntity
  8
1
 62
     1
100
AcDbLine
 10
43.4408812932516
 20
-1.071881357560028
 30
0.0
 11
43.52907798923242
 21
-1.26901616119656
 31
0.0
  0
LINE
  5
510
330
18
100
AcDbEntity
  8
1
 62
     1
100
AcDbLine
 10
43.14375
 20
0.7195287176100331
 30
0.0
 11
43.18310789076674
 21
0.6996515546967244
 31
0.0
  0
LINE
  5
511
330
18
100
AcDbEntity
  8
1
 62
     1
100
AcDbLine
 10
43.18310789076674
 20
0.6996515546967244
 30
0.0
 11
43.22236375874947
 21
0.6770674500413122
 31
0.0
  0
LINE
  5
512
330
18
100
AcDbEntity
  8
1
 62
     1
100
AcDbLine
 10
43.22236375874947
 20
0.6770674500413122
 30
0.0
 11
43.26150046954552
 21
0.6518230043933337
 31
0.0
  0
LINE
  5
513
330
18
100
AcDbEntity
  8
1
 62
     1
100
AcDbLine
 10
43.26150046954552
 20
0.6518230043933337
 30
0.0
 11
43.30051114393084
 21
0.6239644312261843
 31
0.0
  0
LINE
  5
514
330
18
100
AcDbEntity
  8
1
 62
     1
100
AcDbLine
 10
43.30051114393084
 20
0.6239644312261843
 30
0.0
 11
43.33937921154195
 21
0.5935449089461624
 31
0.0
  0
LINE
  5
515
330
18
100
AcDbEntity
  8
1
 62
     1
100
AcDbLine
 10
43.33937921154195
 20
0.5935449089461624
 30
0.0
 11
43.37810268322289
 21
0.5606113333842275
 31
0.0
  0
LINE
  5
516
330
18
100
AcDbEntity
  8
1
 62
     1
100
AcDbLine
 10
43.37810268322289
 20
0.5606113333842275
 30
0.0
 11
43.41666577915743
 21
0.5252225626410837
 31
0.0
  0
LINE
  5
517
330
18
100
AcDbEntity
  8
1
 62
     1
100
AcDbLine
 10
43.41666577915743
 20
0.5252225626410837
 30
0.0
 11
43.45506971198469
 21
0.4874258915777662
 31
0.0
  0
LINE
  5
518
330
18
100
AcDbEntity
  8
1
 62
     1
100
AcDbLine
 10
44.73125
 20
-1.524975705563683
 30
0.0
 11
44.73125000000001
 21
-0.5134681516973205
 31
0.0
  0
ARC
  5
519
330
18
100
AcDbEntity
  8
1
 62
     1
100
AcDbCircle
 10
44.58390432039477
 20
0.1234018392726922
 30
0.0
 40
0.6536903895314219
100
AcDbArc
 50
248.6511401220473
 51
283.0267018185972
  0
LINE
  5
51A
330
18
100
AcDbEntity
  8
1
 62
     1
100
AcDbLine
 10
44.3459220107676
 20
-0.4854565628602279
 30
0.0
 11
44.34592201076759
 21
-1.928555435450511
 31
0.0
  0
LINE
  5
51B
330
18
100
AcDbEntity
  8
1
 62
     1
100
AcDbLine
 10
40.18161686311195
 20
2.114288706503015
 30
0.0
 11
40.18161686311195
 21
2.114218910880529
 31
0.0
  0
LINE
  5
51C
330
18
100
AcDbEntity
  8
1
 62
     1
100
AcDbLine
 10
40.18161686311195
 20
2.114218910880529
 30
0.0
 11
40.18161686311195
 21
2.093092475427448
 31
0.0
  0
LINE
  5
51D
330
18
100
AcDbEntity
  8
1
 62
     1
100
AcDbLine
 10
40.18161686311195
 20
2.093092475427448
 30
0.0
 11
40.18161686311194
 21
1.784472861318669
 31
0.0
  0
LINE
  5
51E
330
18
100
AcDbEntity
  8
1
 62
     1
100
AcDbLine
 10
39.96875000000001
 20
1.561746074998287
 30
0.0
 11
39.96875000000001
 21
1.74559265625
 31
0.0
  0
LINE
  5
51F
330
18
100
AcDbEntity
  8
1
 62
     1
100
AcDbLine
 10
43.14375
 20
-0.5807340333120413
 30
0.0
 11
43.14375
 21
0.7195287176100369
 31
0.0
  0
LINE
  5
520
330
18
100
AcDbEntity
  8
1
 62
     1
100
AcDbLine
 10
42.75842201076759
 20
1.200783720978773
 30
0.0
 11
42.85271827880465
 21
1.06449044672693
 31
0.0
  0
LINE
  5
521
330
18
100
AcDbEntity
  8
1
 62
     1
100
AcDbLine
 10
42.85271827880465
 20
1.06449044672693
 30
0.0
 11
42.94845557671619
 21
0.9380959280924529
 31
0.0
  0
LINE
  5
522
330
18
100
AcDbEntity
  8
1
 62
     1
100
AcDbLine
 10
42.94845557671619
 20
0.9380959280924529
 30
0.0
 11
43.04552626147216
 21
0.8227245627100559
 31
0.0
  0
LINE
  5
523
330
18
100
AcDbEntity
  8
1
 62
     1
100
AcDbLine
 10
43.04552626147216
 20
0.8227245627100559
 30
0.0
 11
43.14375
 21
0.7195287176100331
 31
0.0
  0
ARC
  5
524
330
18
100
AcDbEntity
  8
1
 62
     1
100
AcDbCircle
 10
42.0896970747877
 20
-0.3938550054565441
 30
0.0
 40
0.5054349135263372
100
AcDbArc
 50
49.19902090928471
 51
59.0014778243016
  0
ARC
  5
525
330
18
100
AcDbEntity
  8
1
 62
     1
100
AcDbCircle
 10
42.52373229685443
 20
0.6877324947621165
 30
0.0
 40
0.5749554551960859
100
AcDbArc
 50
68.42132115682048
 51
107.5887676795802
  0
LINE
  5
526
330
18
100
AcDbEntity
  8
1
 62
     1
100
AcDbLine
 10
42.35000000000002
 20
0.0393871237463755
 30
0.0
 11
42.35000000000002
 21
1.235778837344786
 31
0.0
  0
ARC
  5
527
330
18
100
AcDbEntity
  8
1
 62
     1
100
AcDbCircle
 10
39.91535802601341
 20
-2.271282468676122
 30
0.0
 40
3.352853154215806
100
AcDbArc
 50
47.23426555571785
 51
52.32227140063424
  0
LINE
  5
528
330
18
100
AcDbEntity
  8
1
 62
     1
100
AcDbLine
 10
42.1920326938652
 20
0.1902538227985796
 30
0.0
 11
42.19358793522166
 21
0.1888315825187498
 31
0.0
  0
ARC
  5
529
330
18
100
AcDbEntity
  8
1
 62
     1
100
AcDbCircle
 10
48.48951968875055
 20
5.428655743101796
 30
0.0
 40
7.435110594356422
100
AcDbArc
 50
208.6503229897475
 51
214.3304347940074
  0
LINE
  5
52A
330
18
100
AcDbEntity
  8
1
 62
     1
100
AcDbLine
 10
41.96467201076761
 20
1.863755407100526
 30
0.0
 11
41.9646720107676
 21
0.3823511730855357
 31
0.0
  0
ARC
  5
52B
330
18
100
AcDbEntity
  8
1
 62
     1
100
AcDbCircle
 10
27.5075849064164
 20
-5.886094720390127
 30
0.0
 40
15.02299748064712
100
AcDbArc
 50
28.07769833260696
 51
30.45647406728161
  0
LINE
  5
52C
330
18
100
AcDbEntity
  8
1
 62
     1
100
AcDbLine
 10
40.45762903623891
 20
2.273644409032429
 30
0.0
 11
40.45762903623891
 21
2.273530229756104
 31
0.0
  0
LINE
  5
52D
330
18
100
AcDbEntity
  8
1
 62
     1
100
AcDbLine
 10
40.45762903623891
 20
2.273530229756104
 30
0.0
 11
40.4576290362389
 21
2.238611772461121
 31
0.0
  0
LINE
  5
52E
330
18
100
AcDbEntity
  8
1
 62
     1
100
AcDbLine
 10
40.4576290362389
 20
2.238611772461121
 30
0.0
 11
40.45762903623891
 21
1.72881893930912
 31
0.0
  0
LINE
  5
52F
330
18
100
AcDbEntity
  8
1
 62
     1
100
AcDbLine
 10
40.7625
 20
1.184741949471308
 30
0.0
 11
40.78915015968305
 21
1.202640830644665
 31
0.0
  0
LINE
  5
530
330
18
100
AcDbEntity
  8
1
 62
     1
100
AcDbLine
 10
40.78915015968305
 20
1.202640830644665
 30
0.0
 11
40.81547657389086
 21
1.218300493338219
 31
0.0
  0
LINE
  5
531
330
18
100
AcDbEntity
  8
1
 62
     1
100
AcDbLine
 10
40.81547657389086
 20
1.218300493338219
 30
0.0
 11
40.84145453654708
 21
1.231744539992445
 31
0.0
  0
LINE
  5
532
330
18
100
AcDbEntity
  8
1
 62
     1
100
AcDbLine
 10
40.84145453654708
 20
1.231744539992445
 30
0.0
 11
40.86709504367927
 21
1.243018146690941
 31
0.0
  0
LINE
  5
533
330
18
100
AcDbEntity
  8
1
 62
     1
100
AcDbLine
 10
40.86709504367927
 20
1.243018146690941
 30
0.0
 11
40.8923785919409
 21
1.252151317353051
 31
0.0
  0
LINE
  5
534
330
18
100
AcDbEntity
  8
1
 62
     1
100
AcDbLine
 10
40.8923785919409
 20
1.252151317353051
 30
0.0
 11
40.90489003357211
 21
1.255928146749253
 31
0.0
  0
LINE
  5
535
330
18
100
AcDbEntity
  8
1
 62
     1
100
AcDbLine
 10
40.90489003357211
 20
1.255928146749253
 30
0.0
 11
40.91731554345807
 21
1.259185475849515
 31
0.0
  0
LINE
  5
536
330
18
100
AcDbEntity
  8
1
 62
     1
100
AcDbLine
 10
40.91731554345807
 20
1.259185475849515
 30
0.0
 11
40.92965295938272
 21
1.261927597491017
 31
0.0
  0
LINE
  5
537
330
18
100
AcDbEntity
  8
1
 62
     1
100
AcDbLine
 10
40.92965295938272
 20
1.261927597491017
 30
0.0
 11
40.94190011913007
 21
1.264158804510943
 31
0.0
  0
LINE
  5
538
330
18
100
AcDbEntity
  8
1
 62
     1
100
AcDbLine
 10
40.94190011913007
 20
1.264158804510943
 30
0.0
 11
40.95405847354008
 21
1.265884042671231
 31
0.0
  0
LINE
  5
539
330
18
100
AcDbEntity
  8
1
 62
     1
100
AcDbLine
 10
40.95405847354008
 20
1.265884042671231
 30
0.0
 11
40.96613253496053
 21
1.267109061516308
 31
0.0
  0
LINE
  5
53A
330
18
100
AcDbEntity
  8
1
 62
     1
100
AcDbLine
 10
40.96613253496053
 20
1.267109061516308
 30
0.0
 11
40.97812087366496
 21
1.267838724774161
 31
0.0
  0
LINE
  5
53B
330
18
100
AcDbEntity
  8
1
 62
     1
100
AcDbLine
 10
40.97812087366496
 20
1.267838724774161
 30
0.0
 11
40.99002194598989
 21
1.268077877281024
 31
0.0
  0
LINE
  5
53C
330
18
100
AcDbEntity
  8
1
 62
     1
100
AcDbLine
 10
40.99002194598989
 20
1.268077877281024
 30
0.0
 11
41.00183428439112
 21
1.267831362167232
 31
0.0
  0
LINE
  5
53D
330
18
100
AcDbEntity
  8
1
 62
     1
100
AcDbLine
 10
41.00183428439112
 20
1.267831362167232
 30
0.0
 11
41.01356167768438
 21
1.267103979950872
 31
0.0
  0
LINE
  5
53E
330
18
100
AcDbEntity
  8
1
 62
     1
100
AcDbLine
 10
41.01356167768438
 20
1.267103979950872
 30
0.0
 11
41.02520613521039
 21
1.265900802936377
 31
0.0
  0
LINE
  5
53F
330
18
100
AcDbEntity
  8
1
 62
     1
100
AcDbLine
 10
41.02520613521039
 20
1.265900802936377
 30
0.0
 11
41.03676652131828
 21
1.264227017813158
 31
0.0
  0
LINE
  5
540
330
18
100
AcDbEntity
  8
1
 62
     1
100
AcDbLine
 10
41.03676652131828
 20
1.264227017813158
 30
0.0
 11
41.04824170035722
 21
1.262087811270629
 31
0.0
  0
LINE
  5
541
330
18
100
AcDbEntity
  8
1
 62
     1
100
AcDbLine
 10
41.04824170035722
 20
1.262087811270629
 30
0.0
 11
41.05963119784485
 21
1.259488227325258
 31
0.0
  0
LINE
  5
542
330
18
100
AcDbEntity
  8
1
 62
     1
100
AcDbLine
 10
41.05963119784485
 20
1.259488227325258
 30
0.0
 11
41.07093950065629
 21
1.256432326358023
 31
0.0
  0
LINE
  5
543
330
18
100
AcDbEntity
  8
1
 62
     1
100
AcDbLine
 10
41.07093950065629
 20
1.256432326358023
 30
0.0
 11
41.08216697235282
 21
1.252925215326407
 31
0.0
  0
LINE
  5
544
330
18
100
AcDbEntity
  8
1
 62
     1
100
AcDbLine
 10
41.08216697235282
 20
1.252925215326407
 30
0.0
 11
41.09331274824012
 21
1.248972280621895
 31
0.0
  0
LINE
  5
545
330
18
100
AcDbEntity
  8
1
 62
     1
100
AcDbLine
 10
41.09331274824012
 20
1.248972280621895
 30
0.0
 11
41.10437596362394
 21
1.244578908635973
 31
0.0
  0
LINE
  5
546
330
18
100
AcDbEntity
  8
1
 62
     1
100
AcDbLine
 10
41.10437596362394
 20
1.244578908635973
 30
0.0
 11
41.11535725930216
 21
1.239749897841907
 31
0.0
  0
LINE
  5
547
330
18
100
AcDbEntity
  8
1
 62
     1
100
AcDbLine
 10
41.11535725930216
 20
1.239749897841907
 30
0.0
 11
41.12626003785798
 21
1.234489051538953
 31
0.0
  0
LINE
  5
548
330
18
100
AcDbEntity
  8
1
 62
     1
100
AcDbLine
 10
41.12626003785798
 20
1.234489051538953
 30
0.0
 11
41.14782798923241
 21
1.222693524794445
 31
0.0
  0
LINE
  5
549
330
18
100
AcDbEntity
  8
1
 62
     1
100
AcDbLine
 10
41.14782798923242
 20
2.293541704999279
 30
0.0
 11
41.14782798923242
 21
1.22269352479449
 31
0.0
  0
ARC
  5
54A
330
18
100
AcDbEntity
  8
1
 62
     1
100
AcDbCircle
 10
44.78857752247902
 20
-0.6555206822258288
 30
0.0
 40
4.685939373235966
100
AcDbArc
 50
140.9920022843672
 51
149.2224150185577
  0
LINE
  5
54B
330
18
100
AcDbEntity
  8
1
 62
     1
100
AcDbLine
 10
40.7625
 20
1.184741949471308
 30
0.0
 11
40.7625
 21
1.742368921764691
 31
0.0
  0
LINE
  5
54C
330
18
100
AcDbEntity
  8
1
 62
     1
100
AcDbLine
 10
41.55624999999999
 20
0.6544107654109472
 30
0.0
 11
41.55625
 21
1.592096962394958
 31
0.0
  0
ARC
  5
54D
330
18
100
AcDbEntity
  8
1
 62
     1
100
AcDbCircle
 10
58.53350422540807
 20
11.47157197391525
 30
0.0
 40
19.64283447305984
100
AcDbArc
 50
207.8820435216672
 51
210.1961607389968
  0
LINE
  5
54E
330
18
100
AcDbEntity
  8
1
 62
     1
100
AcDbLine
 10
41.1709220107676
 20
2.285523634501081
 30
0.0
 11
41.1709220107676
 21
1.200733090241556
 31
0.0
  0
LINE
  5
54F
330
18
100
AcDbEntity
  8
1
 62
     1
100
AcDbLine
 10
41.55625000000001
 20
0.6544107654104978
 30
0.0
 11
41.57560047931473
 21
0.6549459432850866
 31
0.0
  0
LINE
  5
550
330
18
100
AcDbEntity
  8
1
 62
     1
100
AcDbLine
 10
41.57560047931473
 20
0.6549459432850866
 30
0.0
 11
41.59478610928529
 21
0.6541826297676948
 31
0.0
  0
LINE
  5
551
330
18
100
AcDbEntity
  8
1
 62
     1
100
AcDbLine
 10
41.59478610928529
 20
0.6541826297676948
 30
0.0
 11
41.61379294107399
 21
0.6521510267462468
 31
0.0
  0
LINE
  5
552
330
18
100
AcDbEntity
  8
1
 62
     1
100
AcDbLine
 10
41.61379294107399
 20
0.6521510267462468
 30
0.0
 11
41.63261544202638
 21
0.6488802262316762
 31
0.0
  0
LINE
  5
553
330
18
100
AcDbEntity
  8
1
 62
     1
100
AcDbLine
 10
41.63261544202638
 20
0.6488802262316762
 30
0.0
 11
41.65126280434684
 21
0.6443978504828656
 31
0.0
  0
LINE
  5
554
330
18
100
AcDbEntity
  8
1
 62
     1
100
AcDbLine
 10
41.65126280434684
 20
0.6443978504828656
 30
0.0
 11
41.66972648381214
 21
0.638734307982866
 31
0.0
  0
LINE
  5
555
330
18
100
AcDbEntity
  8
1
 62
     1
100
AcDbLine
 10
41.66972648381214
 20
0.638734307982866
 30
0.0
 11
41.68800002909483
 21
0.6319190723457014
 31
0.0
  0
LINE
  5
556
330
18
100
AcDbEntity
  8
1
 62
     1
100
AcDbLine
 10
41.68800002909483
 20
0.6319190723457014
 30
0.0
 11
41.70609371433677
 21
0.6239759343302281
 31
0.0
  0
LINE
  5
557
330
18
100
AcDbEntity
  8
1
 62
     1
100
AcDbLine
 10
41.70609371433677
 20
0.6239759343302281
 30
0.0
 11
41.72400403087735
 21
0.6149339063765008
 31
0.0
  0
LINE
  5
558
330
18
100
AcDbEntity
  8
1
 62
     1
100
AcDbLine
 10
41.72400403087735
 20
0.6149339063765008
 30
0.0
 11
41.74172499502517
 21
0.6048227681912361
 31
0.0
  0
LINE
  5
559
330
18
100
AcDbEntity
  8
1
 62
     1
100
AcDbLine
 10
41.74172499502517
 20
0.6048227681912361
 30
0.0
 11
41.75926477671287
 21
0.5936642664834035
 31
0.0
  0
LINE
  5
55A
330
18
100
AcDbEntity
  8
1
 62
     1
100
AcDbLine
 10
41.75926477671287
 20
0.5936642664834035
 30
0.0
 11
41.77662451139479
 21
0.5814843376413474
 31
0.0
  0
LINE
  5
55B
330
18
100
AcDbEntity
  8
1
 62
     1
100
AcDbLine
 10
41.77662451139479
 20
0.5814843376413474
 30
0.0
 11
41.79379948987771
 21
0.5683122866431128
 31
0.0
  0
LINE
  5
55C
330
18
100
AcDbEntity
  8
1
 62
     1
100
AcDbLine
 10
41.79379948987771
 20
0.5683122866431128
 30
0.0
 11
41.81079396656401
 21
0.5541703494615938
 31
0.0
  0
LINE
  5
55D
330
18
100
AcDbEntity
  8
1
 62
     1
100
AcDbLine
 10
41.81079396656401
 20
0.5541703494615938
 30
0.0
 11
41.82761336100241
 21
0.5390798323875139
 31
0.0
  0
LINE
  5
55E
330
18
100
AcDbEntity
  8
1
 62
     1
100
AcDbLine
 10
41.82761336100241
 20
0.5390798323875139
 30
0.0
 11
41.84425421172396
 21
0.523069040035944
 31
0.0
  0
LINE
  5
55F
330
18
100
AcDbEntity
  8
1
 62
     1
100
AcDbLine
 10
41.94157798923241
 20
1.879781480835866
 30
0.0
 11
41.94157798923241
 21
0.4074032224258162
 31
0.0
  0
LINE
  5
560
330
18
100
AcDbEntity
  8
1
 62
     1
100
AcDbLine
 10
41.55625
 20
1.592096962394963
 30
0.0
 11
41.6051382348663
 21
1.641471997877575
 31
0.0
  0
LINE
  5
561
330
18
100
AcDbEntity
  8
1
 62
     1
100
AcDbLine
 10
41.6051382348663
 20
1.641471997877575
 30
0.0
 11
41.65385961696087
 21
1.687046873434428
 31
0.0
  0
LINE
  5
562
330
18
100
AcDbEntity
  8
1
 62
     1
100
AcDbLine
 10
41.65385961696087
 20
1.687046873434428
 30
0.0
 11
41.70239546400885
 21
1.728800757403053
 31
0.0
  0
LINE
  5
563
330
18
100
AcDbEntity
  8
1
 62
     1
100
AcDbLine
 10
41.70239546400885
 20
1.728800757403053
 30
0.0
 11
41.75071609213052
 21
1.766707834998433
 31
0.0
  0
LINE
  5
564
330
18
100
AcDbEntity
  8
1
 62
     1
100
AcDbLine
 10
41.75071609213052
 20
1.766707834998433
 30
0.0
 11
41.79881184312848
 21
1.800763382579587
 31
0.0
  0
LINE
  5
565
330
18
100
AcDbEntity
  8
1
 62
     1
100
AcDbLine
 10
41.79881184312848
 20
1.800763382579587
 30
0.0
 11
41.84666169855083
 21
1.830957442259079
 31
0.0
  0
LINE
  5
566
330
18
100
AcDbEntity
  8
1
 62
     1
100
AcDbLine
 10
41.84666169855083
 20
1.830957442259079
 30
0.0
 11
41.89425452001844
 21
1.857294478161327
 31
0.0
  0
LINE
  5
567
330
18
100
AcDbEntity
  8
1
 62
     1
100
AcDbLine
 10
41.89425452001844
 20
1.857294478161327
 30
0.0
 11
41.94157798923243
 21
1.879781480835873
 31
0.0
  0
LINE
  5
568
330
18
100
AcDbEntity
  8
1
 62
     1
100
AcDbLine
 10
39.86231660570006
 20
1.768622252609131
 30
0.0
 11
39.96875000000001
 21
1.561746074998287
 31
0.0
  0
LINE
  5
569
330
18
100
AcDbEntity
  8
1
 62
     1
100
AcDbLine
 10
39.86231660570005
 20
1.929940616847234
 30
0.0
 11
39.86231660570005
 21
1.929905712678661
 31
0.0
  0
LINE
  5
56A
330
18
100
AcDbEntity
  8
1
 62
     1
100
AcDbLine
 10
39.86231660570005
 20
1.929905712678661
 30
0.0
 11
39.86231660570006
 21
1.919467294072338
 31
0.0
  0
LINE
  5
56B
330
18
100
AcDbEntity
  8
1
 62
     1
100
AcDbLine
 10
39.86231660570006
 20
1.919467294072338
 30
0.0
 11
39.86231660570006
 21
1.768622252609132
 31
0.0
  0
ARC
  5
56C
330
18
100
AcDbEntity
  8
1
 62
     1
100
AcDbCircle
 10
47.23960442968685
 20
-0.986302920806164
 30
0.0
 40
3.23652231358679
100
AcDbArc
 50
66.14019154814892
 51
74.04107815433744
  0
LINE
  5
56D
330
18
100
AcDbEntity
  8
1
 62
     1
100
AcDbLine
 10
48.12944466865562
 20
2.125356830892275
 30
0.0
 11
48.1260567893603
 21
2.126306705714433
 31
0.0
  0
LINE
  5
56E
330
18
100
AcDbEntity
  8
1
 62
     1
100
AcDbLine
 10
48.12944466865562
 20
2.125356830892271
 30
0.0
 11
48.54878846217329
 21
2.007498600342764
 31
0.0
  0
ARC
  5
56F
330
18
100
AcDbEntity
  8
1
 62
     1
100
AcDbCircle
 10
48.90815990053666
 20
0.7308217370348742
 30
0.0
 40
0.781384777603688
100
AcDbArc
 50
242.6187909753641
 51
254.5485999188308
  0
LINE
  5
570
330
18
100
AcDbEntity
  8
1
 62
     1
100
AcDbLine
 10
48.54878846217331
 20
0.0369670828664208
 30
0.0
 11
48.5487884621733
 21
-1.30476636543625
 31
0.0
  0
LINE
  5
571
330
18
100
AcDbEntity
  8
1
 62
     1
100
AcDbLine
 10
48.54878846217328
 20
-1.304766365436249
 30
0.0
 11
48.7
 21
-1.223620370938646
 31
0.0
  0
ARC
  5
572
330
18
100
AcDbEntity
  8
1
 62
     1
100
AcDbCircle
 10
47.31465272646895
 20
-0.3350874361544317
 30
0.0
 40
1.103880919596706
100
AcDbArc
 50
48.16326992156782
 51
57.59277978507751
  0
LINE
  5
573
330
18
100
AcDbEntity
  8
1
 62
     1
100
AcDbLine
 10
47.90625000000001
 20
-0.7038861481611753
 30
0.0
 11
47.90625000000001
 21
0.5968610932746314
 31
0.0
  0
ARC
  5
574
330
18
100
AcDbEntity
  8
1
 62
     1
100
AcDbCircle
 10
49.4644969105071
 20
2.32856099944553
 30
0.0
 40
2.330081445501364
100
AcDbArc
 50
216.9082469331035
 51
228.0179612000586
  0
ARC
  5
575
330
18
100
AcDbEntity
  8
1
 62
     1
100
AcDbCircle
 10
47.4388262970875
 20
-3.184765112154181
 30
0.0
 40
2.52431291104587
100
AcDbArc
 50
79.32995570810596
 51
86.30982180309111
  0
ARC
  5
576
330
18
100
AcDbEntity
  8
1
 62
     1
100
AcDbCircle
 10
52.16784600864582
 20
4.785037385982242
 30
0.0
 40
6.233676222525764
100
AcDbArc
 50
209.2174429857778
 51
215.8020164384067
  0
LINE
  5
577
330
18
100
AcDbEntity
  8
1
 62
     1
100
AcDbLine
 10
46.72717201076762
 20
1.742173393412342
 30
0.0
 11
46.72717201076762
 21
0.2005903335678495
 31
0.0
  0
ARC
  5
578
330
18
100
AcDbEntity
  8
1
 62
     1
100
AcDbCircle
 10
44.97745176651411
 20
-2.480172989190947
 30
0.0
 40
3.201314698338275
100
AcDbArc
 50
49.4935778551411
 51
56.86772484250579
  0
LINE
  5
579
330
18
100
AcDbEntity
  8
1
 62
     1
100
AcDbLine
 10
47.05699844132275
 20
-0.0458892283900165
 30
0.0
 11
47.05894330674423
 21
-0.0475170587702894
 31
0.0
  0
ARC
  5
57A
330
18
100
AcDbEntity
  8
1
 62
     1
100
AcDbCircle
 10
47.19364663291719
 20
0.5648023652838814
 30
0.0
 40
0.5797217244278502
100
AcDbArc
 50
64.53586683497812
 51
98.04751981080909
  0
LINE
  5
57B
330
18
100
AcDbEntity
  8
1
 62
     1
100
AcDbLine
 10
47.1125
 20
-0.0930565171009558
 30
0.0
 11
47.11250000000001
 21
1.138736386999501
 31
0.0
  0
LINE
  5
57C
330
18
100
AcDbEntity
  8
1
 62
     1
100
AcDbLine
 10
47.1125
 20
-0.0930565171008748
 30
0.0
 11
47.13645840699242
 21
-0.1114861269488656
 31
0.0
  0
LINE
  5
57D
330
18
100
AcDbEntity
  8
1
 62
     1
100
AcDbLine
 10
42.75842201076759
 20
-2.412990986322016
 30
0.0
 11
42.75242411265798
 21
-2.412999999731772
 31
0.0
  0
LINE
  5
57E
330
18
100
AcDbEntity
  8
1
 62
     1
100
AcDbLine
 10
41.94157798923242
 20
-2.250136113708477
 30
0.0
 11
41.94157798923242
 21
-2.413
 31
0.0
  0
ARC
  5
57F
330
18
100
AcDbEntity
  8
1
 62
     1
100
AcDbCircle
 10
87.46442324259598
 20
-22.18993652543726
 30
0.0
 40
50.35675682923128
100
AcDbArc
 50
150.851341371629
 51
151.6582289846964
  0
LINE
  5
580
330
18
100
AcDbEntity
  8
1
 62
     1
100
AcDbLine
 10
43.52907798923242
 20
2.413
 30
0.0
 11
43.52907798923242
 21
2.41190090070487
 31
0.0
  0
LINE
  5
581
330
18
100
AcDbEntity
  8
1
 62
     1
100
AcDbLine
 10
43.55217201076763
 20
2.413
 30
0.0
 11
43.55217201076763
 21
2.411000966283102
 31
0.0
  0
ARC
  5
582
330
18
100
AcDbEntity
  8
1
 62
     1
100
AcDbCircle
 10
17.23958091614278
 20
-12.6902903321016
 30
0.0
 40
30.33807616810412
100
AcDbArc
 50
28.35517360652476
 51
29.85232534365692
  0
LINE
  5
583
330
18
100
AcDbEntity
  8
1
 62
     1
100
AcDbLine
 10
43.93750000000001
 20
1.718237892727384
 30
0.0
 11
43.93750000000001
 21
1.745592654526454
 31
0.0
  0
LINE
  5
584
330
18
100
AcDbEntity
  8
1
 62
     1
100
AcDbLine
 10
43.9375
 20
1.718237892727384
 30
0.0
 11
44.04209503394299
 21
1.879444348982907
 31
0.0
  0
LINE
  5
585
330
18
100
AcDbEntity
  8
1
 62
     1
100
AcDbLine
 10
44.04209503394299
 20
1.879444348982907
 30
0.0
 11
44.1411325479676
 21
2.019502344900255
 31
0.0
  0
LINE
  5
586
330
18
100
AcDbEntity
  8
1
 62
     1
100
AcDbLine
 10
44.1411325479676
 20
2.019502344900255
 30
0.0
 11
44.23463121864439
 21
2.136657310664963
 31
0.0
  0
LINE
  5
587
330
18
100
AcDbEntity
  8
1
 62
     1
100
AcDbLine
 10
44.23463121864439
 20
2.136657310664963
 30
0.0
 11
44.27937598530786
 21
2.186356442440196
 31
0.0
  0
LINE
  5
588
330
18
100
AcDbEntity
  8
1
 62
     1
100
AcDbLine
 10
44.27937598530786
 20
2.186356442440196
 30
0.0
 11
44.32282798923242
 21
2.230059006594343
 31
0.0
  0
LINE
  5
589
330
18
100
AcDbEntity
  8
1
 62
     1
100
AcDbLine
 10
44.32282798923242
 20
2.413
 30
0.0
 11
44.32282798923242
 21
2.412960268846301
 31
0.0
  0
LINE
  5
58A
330
18
100
AcDbEntity
  8
1
 62
     1
100
AcDbLine
 10
44.32282798923242
 20
2.412960268846301
 30
0.0
 11
44.32282798923241
 21
2.401097552611191
 31
0.0
  0
LINE
  5
58B
330
18
100
AcDbEntity
  8
1
 62
     1
100
AcDbLine
 10
44.32282798923241
 20
2.401097552611191
 30
0.0
 11
44.32282798923242
 21
2.230059006594341
 31
0.0
  0
LINE
  5
58C
330
18
100
AcDbEntity
  8
1
 62
     1
100
AcDbLine
 10
44.73125
 20
1.498121670823025
 30
0.0
 11
44.73125
 21
1.74559265625
 31
0.0
  0
LINE
  5
58D
330
18
100
AcDbEntity
  8
1
 62
     1
100
AcDbLine
 10
44.73125
 20
1.498121670823053
 30
0.0
 11
44.78422658204303
 21
1.55664416434654
 31
0.0
  0
LINE
  5
58E
330
18
100
AcDbEntity
  8
1
 62
     1
100
AcDbLine
 10
44.78422658204303
 20
1.55664416434654
 30
0.0
 11
44.83584505790553
 21
1.607656175000418
 31
0.0
  0
LINE
  5
58F
330
18
100
AcDbEntity
  8
1
 62
     1
100
AcDbLine
 10
44.83584505790553
 20
1.607656175000418
 30
0.0
 11
44.86112860635916
 21
1.630345998463492
 31
0.0
  0
LINE
  5
590
330
18
100
AcDbEntity
  8
1
 62
     1
100
AcDbLine
 10
44.86112860635916
 20
1.630345998463492
 30
0.0
 11
44.88606555201035
 21
1.651170809121565
 31
0.0
  0
LINE
  5
591
330
18
100
AcDbEntity
  8
1
 62
     1
100
AcDbLine
 10
44.88606555201035
 20
1.651170809121565
 30
0.0
 11
44.91065013814266
 21
1.670136087709955
 31
0.0
  0
LINE
  5
592
330
18
100
AcDbEntity
  8
1
 62
     1
100
AcDbLine
 10
44.91065013814266
 20
1.670136087709955
 30
0.0
 11
44.93488254961236
 21
1.687251103850917
 31
0.0
  0
LINE
  5
593
330
18
100
AcDbEntity
  8
1
 62
     1
100
AcDbLine
 10
44.93488254961236
 20
1.687251103850917
 30
0.0
 11
44.95877197704026
 21
1.702535475366607
 31
0.0
  0
LINE
  5
594
330
18
100
AcDbEntity
  8
1
 62
     1
100
AcDbLine
 10
44.95877197704026
 20
1.702535475366607
 30
0.0
 11
44.98231171829845
 21
1.715997436741107
 31
0.0
  0
LINE
  5
595
330
18
100
AcDbEntity
  8
1
 62
     1
100
AcDbLine
 10
44.98231171829845
 20
1.715997436741107
 30
0.0
 11
45.0055165720435
 21
1.727660328632372
 31
0.0
  0
LINE
  5
596
330
18
100
AcDbEntity
  8
1
 62
     1
100
AcDbLine
 10
45.0055165720435
 20
1.727660328632372
 30
0.0
 11
45.02838126507561
 21
1.73753775425707
 31
0.0
  0
LINE
  5
597
330
18
100
AcDbEntity
  8
1
 62
     1
100
AcDbLine
 10
45.02838126507561
 20
1.73753775425707
 30
0.0
 11
45.05091701716322
 21
1.745650981622517
 31
0.0
  0
LINE
  5
598
330
18
100
AcDbEntity
  8
1
 62
     1
100
AcDbLine
 10
45.05091701716322
 20
1.745650981622517
 30
0.0
 11
45.07312601296852
 21
1.752020086067301
 31
0.0
  0
LINE
  5
599
330
18
100
AcDbEntity
  8
1
 62
     1
100
AcDbLine
 10
45.07312601296852
 20
1.752020086067301
 30
0.0
 11
45.08410729473381
 21
1.754556208999942
 31
0.0
  0
LINE
  5
59A
330
18
100
AcDbEntity
  8
1
 62
     1
100
AcDbLine
 10
45.08410729473381
 20
1.754556208999942
 30
0.0
 11
45.09501005440369
 21
1.756664386487323
 31
0.0
  0
LINE
  5
59B
330
18
100
AcDbEntity
  8
1
 62
     1
100
AcDbLine
 10
45.09501005440369
 20
1.756664386487323
 30
0.0
 11
45.10583385123708
 21
1.75834719123912
 31
0.0
  0
LINE
  5
59C
330
18
100
AcDbEntity
  8
1
 62
     1
100
AcDbLine
 10
45.10583385123708
 20
1.75834719123912
 30
0.0
 11
45.1165779892324
 21
1.759607127135495
 31
0.0
  0
LINE
  5
59D
330
18
100
AcDbEntity
  8
1
 62
     1
100
AcDbLine
 10
45.1165779892324
 20
2.411902662486012
 30
0.0
 11
45.11657798923241
 21
2.24215724744901
 31
0.0
  0
LINE
  5
59E
330
18
100
AcDbEntity
  8
1
 62
     1
100
AcDbLine
 10
45.11657798923241
 20
2.24215724744901
 30
0.0
 11
45.11657798923242
 21
1.759607127135477
 31
0.0
  0
LINE
  5
59F
330
18
100
AcDbEntity
  8
1
 62
     1
100
AcDbLine
 10
46.31875
 20
1.533238440466513
 30
0.0
 11
46.36763824273882
 21
1.57535599165673
 31
0.0
  0
LINE
  5
5A0
330
18
100
AcDbEntity
  8
1
 62
     1
100
AcDbLine
 10
46.36763824273882
 20
1.57535599165673
 30
0.0
 11
46.41635965876235
 21
1.613534154430078
 31
0.0
  0
LINE
  5
5A1
330
18
100
AcDbEntity
  8
1
 62
     1
100
AcDbLine
 10
46.41635965876235
 20
1.613534154430078
 30
0.0
 11
46.46489550071986
 21
1.647763462829471
 31
0.0
  0
LINE
  5
5A2
330
18
100
AcDbEntity
  8
1
 62
     1
100
AcDbLine
 10
46.46489550071986
 20
1.647763462829471
 30
0.0
 11
46.51321608521508
 21
1.678031909759673
 31
0.0
  0
LINE
  5
5A3
330
18
100
AcDbEntity
  8
1
 62
     1
100
AcDbLine
 10
46.51321608521508
 20
1.678031909759673
 30
0.0
 11
46.56131179204885
 21
1.704345922620528
 31
0.0
  0
LINE
  5
5A4
330
18
100
AcDbEntity
  8
1
 62
     1
100
AcDbLine
 10
46.56131179204885
 20
1.704345922620528
 30
0.0
 11
46.60916167354981
 21
1.726708705547785
 31
0.0
  0
LINE
  5
5A5
330
18
100
AcDbEntity
  8
1
 62
     1
100
AcDbLine
 10
46.60916167354981
 20
1.726708705547785
 30
0.0
 11
46.63299244046652
 21
1.736413971887955
 31
0.0
  0
LINE
  5
5A6
330
18
100
AcDbEntity
  8
1
 62
     1
100
AcDbLine
 10
46.63299244046652
 20
1.736413971887955
 30
0.0
 11
46.65675452217838
 21
1.745136214187329
 31
0.0
  0
LINE
  5
5A7
330
18
100
AcDbEntity
  8
1
 62
     1
100
AcDbLine
 10
46.65675452217838
 20
1.745136214187329
 30
0.0
 11
46.68045059668697
 21
1.752879656329006
 31
0.0
  0
LINE
  5
5A8
330
18
100
AcDbEntity
  8
1
 62
     1
100
AcDbLine
 10
46.68045059668697
 20
1.752879656329006
 30
0.0
 11
46.70407798923241
 21
1.759647085778301
 31
0.0
  0
LINE
  5
5A9
330
18
100
AcDbEntity
  8
1
 62
     1
100
AcDbLine
 10
46.31875000000001
 20
0.529816414860389
 30
0.0
 11
46.31875000000001
 21
1.533238440466513
 31
0.0
  0
LINE
  5
5AA
330
18
100
AcDbEntity
  8
1
 62
     1
100
AcDbLine
 10
46.31875000000001
 20
0.5298164148603883
 30
0.0
 11
46.33484838177581
 21
0.5280900742715984
 31
0.0
  0
LINE
  5
5AB
330
18
100
AcDbEntity
  8
1
 62
     1
100
AcDbLine
 10
46.33484838177581
 20
0.5280900742715984
 30
0.0
 11
46.35083445139786
 21
0.52545958049044
 31
0.0
  0
LINE
  5
5AC
330
18
100
AcDbEntity
  8
1
 62
     1
100
AcDbLine
 10
46.35083445139786
 20
0.52545958049044
 30
0.0
 11
46.36670019529055
 21
0.5219449272039685
 31
0.0
  0
LINE
  5
5AD
330
18
100
AcDbEntity
  8
1
 62
     1
100
AcDbLine
 10
46.36670019529055
 20
0.5219449272039685
 30
0.0
 11
46.38243767424935
 21
0.5175660870988705
 31
0.0
  0
LINE
  5
5AE
330
18
100
AcDbEntity
  8
1
 62
     1
100
AcDbLine
 10
46.38243767424935
 20
0.5175660870988705
 30
0.0
 11
46.39805107471189
 21
0.5123396974906598
 31
0.0
  0
LINE
  5
5AF
330
18
100
AcDbEntity
  8
1
 62
     1
100
AcDbLine
 10
46.39805107471189
 20
0.5123396974906598
 30
0.0
 11
46.41354304394426
 21
0.5062831297716619
 31
0.0
  0
LINE
  5
5B0
330
18
100
AcDbEntity
  8
1
 62
     1
100
AcDbLine
 10
46.41354304394426
 20
0.5062831297716619
 30
0.0
 11
46.42890813704899
 21
0.4994161031464079
 31
0.0
  0
LINE
  5
5B1
330
18
100
AcDbEntity
  8
1
 62
     1
100
AcDbLine
 10
46.42890813704899
 20
0.4994161031464079
 30
0.0
 11
46.44414116287651
 21
0.4917582090441715
 31
0.0
  0
LINE
  5
5B2
330
18
100
AcDbEntity
  8
1
 62
     1
100
AcDbLine
 10
46.44414116287651
 20
0.4917582090441715
 30
0.0
 11
46.45924797438271
 21
0.4833235313244099
 31
0.0
  0
LINE
  5
5B3
330
18
100
AcDbEntity
  8
1
 62
     1
100
AcDbLine
 10
46.45924797438271
 20
0.4833235313244099
 30
0.0
 11
46.4742304034214
 21
0.4741283325261196
 31
0.0
  0
LINE
  5
5B4
330
18
100
AcDbEntity
  8
1
 62
     1
100
AcDbLine
 10
46.4742304034214
 20
0.4741283325261196
 30
0.0
 11
46.48908466280228
 21
0.464191731380951
 31
0.0
  0
LINE
  5
5B5
330
18
100
AcDbEntity
  8
1
 62
     1
100
AcDbLine
 10
46.48908466280228
 20
0.464191731380951
 30
0.0
 11
46.50380745967562
 21
0.4535324896033823
 31
0.0
  0
LINE
  5
5B6
330
18
100
AcDbEntity
  8
1
 62
     1
100
AcDbLine
 10
46.50380745967562
 20
0.4535324896033823
 30
0.0
 11
46.53287933129424
 21
0.4300967251011564
 31
0.0
  0
LINE
  5
5B7
330
18
100
AcDbEntity
  8
1
 62
     1
100
AcDbLine
 10
46.53287933129424
 20
0.4300967251011564
 30
0.0
 11
46.56144588490908
 21
0.4039521649715381
 31
0.0
  0
LINE
  5
5B8
330
18
100
AcDbEntity
  8
1
 62
     1
100
AcDbLine
 10
46.70407798923241
 20
1.7596470857783
 30
0.0
 11
46.70407798923242
 21
0.2258855065063559
 31
0.0
  0
ARC
  5
5B9
330
18
100
AcDbEntity
  8
1
 62
     1
100
AcDbCircle
 10
59.51228781516007
 20
9.377225781331388
 30
0.0
 40
15.34946850601562
100
AcDbArc
 50
207.7922168219191
 51
210.7328601775696
  0
LINE
  5
5BA
330
18
100
AcDbEntity
  8
1
 62
     1
100
AcDbLine
 10
45.9334220107676
 20
2.220259185014219
 30
0.0
 11
45.9334220107676
 21
1.038566381867894
 31
0.0
  0
ARC
  5
5BB
330
18
100
AcDbEntity
  8
1
 62
     1
100
AcDbCircle
 10
40.3421831250033
 20
-3.593475858181954
 30
0.0
 40
7.260743979229379
100
AcDbArc
 50
34.60217563300876
 51
39.6399302794837
  0
ARC
  5
5BC
330
18
100
AcDbEntity
  8
1
 62
     1
100
AcDbCircle
 10
48.55648912304208
 20
-0.1981732522158586
 30
0.0
 40
3.592223506386977
100
AcDbArc
 50
137.4588970538275
 51
147.550932776723
  0
LINE
  5
5BD
330
18
100
AcDbEntity
  8
1
 62
     1
100
AcDbLine
 10
45.52500000000001
 20
1.084121468621954
 30
0.0
 11
45.52500000000001
 21
1.729311913212112
 31
0.0
  0
LINE
  5
5BE
330
18
100
AcDbEntity
  8
1
 62
     1
100
AcDbLine
 10
45.52500000000001
 20
1.084121468621954
 30
0.0
 11
45.55165016881217
 21
1.098466772844529
 31
0.0
  0
LINE
  5
5BF
330
18
100
AcDbEntity
  8
1
 62
     1
100
AcDbLine
 10
45.55165016881217
 20
1.098466772844529
 30
0.0
 11
45.57797658782881
 21
1.110503288103742
 31
0.0
  0
LINE
  5
5C0
330
18
100
AcDbEntity
  8
1
 62
     1
100
AcDbLine
 10
45.57797658782881
 20
1.110503288103742
 30
0.0
 11
45.59100750545154
 21
1.115665512750823
 31
0.0
  0
LINE
  5
5C1
330
18
100
AcDbEntity
  8
1
 62
     1
100
AcDbLine
 10
45.59100750545154
 20
1.115665512750823
 30
0.0
 11
45.60395454890526
 21
1.120266467086254
 31
0.0
  0
LINE
  5
5C2
330
18
100
AcDbEntity
  8
1
 62
     1
100
AcDbLine
 10
45.60395454890526
 20
1.120266467086254
 30
0.0
 11
45.61681809943509
 21
1.124312401816803
 31
0.0
  0
LINE
  5
5C3
330
18
100
AcDbEntity
  8
1
 62
     1
100
AcDbLine
 10
45.61681809943509
 20
1.124312401816803
 30
0.0
 11
45.62959504905847
 21
1.127808202766033
 31
0.0
  0
LINE
  5
5C4
330
18
100
AcDbEntity
  8
1
 62
     1
100
AcDbLine
 10
45.62959504905847
 20
1.127808202766033
 30
0.0
 11
45.64228228979272
 21
1.130758755757504
 31
0.0
  0
LINE
  5
5C5
330
18
100
AcDbEntity
  8
1
 62
     1
100
AcDbLine
 10
45.64228228979272
 20
1.130758755757504
 30
0.0
 11
45.65487859152294
 21
1.133169349115705
 31
0.0
  0
LINE
  5
5C6
330
18
100
AcDbEntity
  8
1
 62
     1
100
AcDbLine
 10
45.65487859152294
 20
1.133169349115705
 30
0.0
 11
45.66739003420736
 21
1.135047020901654
 31
0.0
  0
LINE
  5
5C7
330
18
100
AcDbEntity
  8
1
 62
     1
100
AcDbLine
 10
45.66739003420736
 20
1.135047020901654
 30
0.0
 11
45.67981554652827
 21
1.136397527829312
 31
0.0
  0
LINE
  5
5C8
330
18
100
AcDbEntity
  8
1
 62
     1
100
AcDbLine
 10
45.67981554652827
 20
1.136397527829312
 30
0.0
 11
45.69215296613205
 21
1.137226406963241
 31
0.0
  0
LINE
  5
5C9
330
18
100
AcDbEntity
  8
1
 62
     1
100
AcDbLine
 10
45.69215296613205
 20
1.137226406963241
 30
0.0
 11
45.70440013066501
 21
1.137539195367998
 31
0.0
  0
LINE
  5
5CA
330
18
100
AcDbEntity
  8
1
 62
     1
100
AcDbLine
 10
45.70440013066501
 20
1.137539195367998
 30
0.0
 11
45.71655849453454
 21
1.137341506630916
 31
0.0
  0
LINE
  5
5CB
330
18
100
AcDbEntity
  8
1
 62
     1
100
AcDbLine
 10
45.71655849453454
 20
1.137341506630916
 30
0.0
 11
45.7286325647827
 21
1.136639228126632
 31
0.0
  0
LINE
  5
5CC
330
18
100
AcDbEntity
  8
1
 62
     1
100
AcDbLine
 10
45.7286325647827
 20
1.136639228126632
 30
0.0
 11
45.74062090979636
 21
1.135438278364855
 31
0.0
  0
LINE
  5
5CD
330
18
100
AcDbEntity
  8
1
 62
     1
100
AcDbLine
 10
45.74062090979636
 20
1.135438278364855
 30
0.0
 11
45.75252198481493
 21
1.133744574868929
 31
0.0
  0
LINE
  5
5CE
330
18
100
AcDbEntity
  8
1
 62
     1
100
AcDbLine
 10
45.75252198481493
 20
1.133744574868929
 30
0.0
 11
45.76433432220191
 21
1.131564020789583
 31
0.0
  0
LINE
  5
5CF
330
18
100
AcDbEntity
  8
1
 62
     1
100
AcDbLine
 10
45.76433432220191
 20
1.131564020789583
 30
0.0
 11
45.77606171579436
 21
1.128901599386108
 31
0.0
  0
LINE
  5
5D0
330
18
100
AcDbEntity
  8
1
 62
     1
100
AcDbLine
 10
45.77606171579436
 20
1.128901599386108
 30
0.0
 11
45.78770616886612
 21
1.125762814272868
 31
0.0
  0
LINE
  5
5D1
330
18
100
AcDbEntity
  8
1
 62
     1
100
AcDbLine
 10
45.78770616886612
 20
1.125762814272868
 30
0.0
 11
45.79926654611726
 21
1.12215378923194
 31
0.0
  0
LINE
  5
5D2
330
18
100
AcDbEntity
  8
1
 62
     1
100
AcDbLine
 10
45.79926654611726
 20
1.12215378923194
 30
0.0
 11
45.81074171224785
 21
1.118080648045398
 31
0.0
  0
LINE
  5
5D3
330
18
100
AcDbEntity
  8
1
 62
     1
100
AcDbLine
 10
45.81074171224785
 20
1.118080648045398
 30
0.0
 11
45.82213119726663
 21
1.113549257343655
 31
0.0
  0
LINE
  5
5D4
330
18
100
AcDbEntity
  8
1
 62
     1
100
AcDbLine
 10
45.82213119726663
 20
1.113549257343655
 30
0.0
 11
45.83343949039305
 21
1.108563631018033
 31
0.0
  0
LINE
  5
5D5
330
18
100
AcDbEntity
  8
1
 62
     1
100
AcDbLine
 10
45.83343949039305
 20
1.108563631018033
 30
0.0
 11
45.84466695098791
 21
1.103129494444584
 31
0.0
  0
LINE
  5
5D6
330
18
100
AcDbEntity
  8
1
 62
     1
100
AcDbLine
 10
45.84466695098791
 20
1.103129494444584
 30
0.0
 11
45.86687592176374
 21
1.090940524348186
 31
0.0
  0
LINE
  5
5D7
330
18
100
AcDbEntity
  8
1
 62
     1
100
AcDbLine
 10
45.86687592176374
 20
1.090940524348186
 30
0.0
 11
45.88876000727031
 21
1.077027062631368
 31
0.0
  0
LINE
  5
5D8
330
18
100
AcDbEntity
  8
1
 62
     1
100
AcDbLine
 10
45.88876000727031
 20
1.077027062631368
 30
0.0
 11
45.91032798923241
 21
1.061430417719722
 31
0.0
  0
LINE
  5
5D9
330
18
100
AcDbEntity
  8
1
 62
     1
100
AcDbLine
 10
45.91032798923242
 20
2.230081230009869
 30
0.0
 11
45.91032798923241
 21
1.061430417719699
 31
0.0
  0
ARC
  5
5DA
330
18
100
AcDbEntity
  8
1
 62
     1
100
AcDbCircle
 10
-3230.613809240352
 20
-1848.400610910149
 30
0.0
 40
3762.454620924892
100
AcDbArc
 50
29.45466810702087
 51
29.4665927567391
  0
ARC
  5
5DB
330
18
100
AcDbEntity
  8
1
 62
     1
100
AcDbCircle
 10
33.8708412463412
 20
-5.298306708622919
 30
0.0
 40
13.28738435908273
100
AcDbArc
 50
28.70742324015314
 51
31.99595085291493
  0
LINE
  5
5DC
330
18
100
AcDbEntity
  8
1
 62
     1
100
AcDbLine
 10
44.3459220107676
 20
2.413
 30
0.0
 11
44.3459220107676
 21
2.412958219588491
 31
0.0
  0
LINE
  5
5DD
330
18
100
AcDbEntity
  8
1
 62
     1
100
AcDbLine
 10
44.3459220107676
 20
2.412958219588491
 30
0.0
 11
44.34592201076761
 21
2.400472901191298
 31
0.0
  0
LINE
  5
5DE
330
18
100
AcDbEntity
  8
1
 62
     1
100
AcDbLine
 10
44.34592201076761
 20
2.400472901191298
 30
0.0
 11
44.34592201076761
 21
2.220236395109069
 31
0.0
  0
ARC
  5
5DF
330
18
100
AcDbEntity
  8
1
 62
     1
100
AcDbCircle
 10
26.35704120436726
 20
-7.846658988688979
 30
0.0
 40
20.6141083781024
100
AcDbArc
 50
26.95704147995852
 51
29.23214695463624
  0
ARC
  5
5E0
330
18
100
AcDbEntity
  8
1
 62
     1
100
AcDbCircle
 10
55.2993222374199
 20
15.01733723119405
 30
0.0
 40
18.72464574845198
100
AcDbArc
 50
224.5900720790442
 51
226.2471426659374
  0
LINE
  5
5E1
330
18
100
AcDbEntity
  8
1
 62
     1
100
AcDbLine
 10
42.35000000000001
 20
1.491649146458612
 30
0.0
 11
42.55363253352474
 21
1.890749959412291
 31
0.0
  0
LINE
  5
5E2
330
18
100
AcDbEntity
  8
1
 62
     1
100
AcDbLine
 10
42.55363253352474
 20
1.890749959412291
 30
0.0
 11
42.73532798923242
 21
2.281599289437766
 31
0.0
  0
ARC
  5
5E3
330
18
100
AcDbEntity
  8
1
 62
     1
100
AcDbCircle
 10
-22.53504884310895
 20
-42.03368898650844
 30
0.0
 40
78.91636785635264
100
AcDbArc
 50
33.66820294936159
 51
34.16999403719535
  0
ARC
  5
5E4
330
18
100
AcDbEntity
  8
1
 62
     1
100
AcDbCircle
 10
25.11625803424843
 20
-12.92410632472087
 30
0.0
 40
19.36026644270757
100
AcDbArc
 50
37.58823639019268
 51
38.90752427512469
  0
ARC
  5
5E5
330
18
100
AcDbEntity
  8
1
 62
     1
100
AcDbCircle
 10
48.63811770682214
 20
6.521579609538994
 30
0.0
 40
11.91639401338088
100
AcDbArc
 50
224.7938208438573
 51
226.6469936748405
  0
LINE
  5
5E6
330
18
100
AcDbEntity
  8
1
 62
     1
100
AcDbLine
 10
39.86231660570006
 20
-0.3868885227078182
 30
0.0
 11
39.77581692
 21
-0.2911178466616758
 31
0.0
  0
LINE
  5
5E7
330
18
100
AcDbEntity
  8
1
 62
     1
100
AcDbLine
 10
39.86231660570005
 20
-1.55325401183319
 30
0.0
 11
39.77581692
 21
-1.467297033471736
 31
0.0
  0
LINE
  5
5E8
330
18
100
AcDbEntity
  8
1
 62
     1
100
AcDbLine
 10
39.86231660570004
 20
-0.3868885227078195
 30
0.0
 11
39.86231660570004
 21
-1.553254011833188
 31
0.0
  0
ARC
  5
5E9
330
18
100
AcDbEntity
  8
1
 62
     1
100
AcDbCircle
 10
16.9552806114242
 20
-17.58979625255808
 30
0.0
 40
36.48883263673336
100
AcDbArc
 50
31.97976302401748
 51
32.87329256681476
  0
LINE
  5
5EA
330
18
100
AcDbEntity
  8
1
 62
     1
100
AcDbLine
 10
48.54878846217329
 20
2.007498600342764
 30
0.0
 11
48.54878846217329
 21
2.007490857660215
 31
0.0
  0
LINE
  5
5EB
330
18
100
AcDbEntity
  8
1
 62
     1
100
AcDbLine
 10
48.54878846217329
 20
2.007490857660215
 30
0.0
 11
48.54878846217329
 21
2.005220490706749
 31
0.0
  0
LINE
  5
5EC
330
18
100
AcDbEntity
  8
1
 62
     1
100
AcDbLine
 10
48.54878846217329
 20
2.005220490706749
 30
0.0
 11
48.54878846217329
 21
1.97364262790795
 31
0.0
  0
LINE
  5
5ED
330
18
100
AcDbEntity
  8
1
 62
     1
100
AcDbLine
 10
48.54878846217328
 20
1.973642627907949
 30
0.0
 11
48.7
 21
1.689949871239876
 31
0.0
  0
ARC
  5
5EE
330
18
100
AcDbEntity
  8
1
 62
     1
100
AcDbCircle
 10
44.67817404694949
 20
4.123298565729592
 30
0.0
 40
7.039605490767345
100
AcDbArc
 50
299.3270109606812
 51
303.3554774718221
  0
ARC
  5
5EF
330
18
100
AcDbEntity
  8
1
 62
     1
100
AcDbCircle
 10
46.55088205206644
 20
0.5025710934185019
 30
0.0
 40
2.957244247006723
100
AcDbArc
 50
287.5606377768392
 51
290.8056072510583
  0
LINE
  5
5F0
330
18
100
AcDbEntity
  8
1
 62
     1
100
AcDbLine
 10
48.7
 20
1.689949871239876
 30
0.0
 11
48.69999999999999
 21
1.745592654344916
 31
0.0
  0
LINE
  5
5F1
330
18
100
AcDbEntity
  8
1
 62
     1
100
AcDbLine
 10
48.70000000000002
 20
-1.223620370938647
 30
0.0
 11
48.7
 21
-0.0222585648641614
 31
0.0
  0
ARC
  5
5F2
330
18
100
AcDbEntity
  8
1
 62
     1
100
AcDbCircle
 10
36.17368857983396
 20
7.411826818845886
 30
0.0
 40
12.40765017939285
100
AcDbArc
 50
331.8391449565268
 51
335.2614387028808
  0
LINE
  5
5F3
330
18
100
AcDbEntity
  8
1
 62
     1
100
AcDbLine
 10
46.70407798923241
 20
-2.309739047432668
 30
0.0
 11
46.70407798923241
 21
-2.413
 31
0.0
  0
LINE
  5
5F4
330
18
100
AcDbEntity
  8
1
 62
     1
100
AcDbLine
 10
45.91032798923243
 20
-1.913150902288746
 30
0.0
 11
45.91032798923242
 21
-2.413
 31
0.0
  0
LINE
  5
5F5
330
18
100
AcDbEntity
  8
1
 62
     1
100
AcDbLine
 10
45.11657798923243
 20
-1.268966488305926
 30
0.0
 11
45.11657798923242
 21
-2.309755946901008
 31
0.0
  0
LINE
  5
5F6
330
18
100
AcDbEntity
  8
1
 62
     1
100
AcDbLine
 10
43.52907798923242
 20
0.4074607366407543
 30
0.0
 11
43.52907798923242
 21
-1.269016161196555
 31
0.0
  0
LINE
  5
5F7
330
18
100
AcDbEntity
  8
1
 62
     1
100
AcDbLine
 10
42.75842201076758
 20
1.200783720978748
 30
0.0
 11
42.75842201076759
 21
-0.4855136558574333
 31
0.0
  0
LINE
  5
5F8
330
18
100
AcDbEntity
  8
1
 62
     1
100
AcDbLine
 10
42.73532798923242
 20
1.222743794221037
 30
0.0
 11
42.73532798923242
 21
-0.4606119780945329
 31
0.0
  0
ARC
  5
5F9
330
18
100
AcDbEntity
  8
1
 62
     1
100
AcDbCircle
 10
46.64100829529245
 20
0.4124438520062836
 30
0.0
 40
4.10490129091306
100
AcDbArc
 50
211.5763115320593
 51
220.6915613604336
  0
ARC
  5
5FA
330
18
100
AcDbEntity
  8
1
 62
     1
100
AcDbCircle
 10
58.82397938017169
 20
-10.31345784015881
 30
0.0
 40
17.26768628431645
100
AcDbArc
 50
149.5547280988672
 51
152.1793586141886
  0
LINE
  5
5FB
330
18
100
AcDbEntity
  8
1
 62
     1
100
AcDbLine
 10
43.93750000000001
 20
-1.563793679218834
 30
0.0
 11
43.98039982286964
 21
-1.604165296077482
 31
0.0
  0
LINE
  5
5FC
330
18
100
AcDbEntity
  8
1
 62
     1
100
AcDbLine
 10
43.98039982286964
 20
-1.604165296077482
 30
0.0
 11
44.02317515410461
 21
-1.641559659455714
 31
0.0
  0
LINE
  5
5FD
330
18
100
AcDbEntity
  8
1
 62
     1
100
AcDbLine
 10
44.02317515410461
 20
-1.641559659455714
 30
0.0
 11
44.0658096733952
 21
-1.675962359998833
 31
0.0
  0
LINE
  5
5FE
330
18
100
AcDbEntity
  8
1
 62
     1
100
AcDbLine
 10
44.0658096733952
 20
-1.675962359998833
 30
0.0
 11
44.1082862873623
 21
-1.707362977699628
 31
0.0
  0
LINE
  5
5FF
330
18
100
AcDbEntity
  8
1
 62
     1
100
AcDbLine
 10
44.1082862873623
 20
-1.707362977699628
 30
0.0
 11
44.15059513722384
 21
-1.735756831291546
 31
0.0
  0
LINE
  5
600
330
18
100
AcDbEntity
  8
1
 62
     1
100
AcDbLine
 10
44.15059513722384
 20
-1.735756831291546
 30
0.0
 11
44.19272111121926
 21
-1.761140890134151
 31
0.0
  0
LINE
  5
601
330
18
100
AcDbEntity
  8
1
 62
     1
100
AcDbLine
 10
44.19272111121926
 20
-1.761140890134151
 30
0.0
 11
44.23465920655715
 21
-1.783519311464675
 31
0.0
  0
LINE
  5
602
330
18
100
AcDbEntity
  8
1
 62
     1
100
AcDbLine
 10
44.23465920655715
 20
-1.783519311464675
 30
0.0
 11
44.27639561163898
 21
-1.802896486021293
 31
0.0
  0
LINE
  5
603
330
18
100
AcDbEntity
  8
1
 62
     1
100
AcDbLine
 10
46.59821599056181
 20
1.721931044943493
 30
0.0
 11
46.70407798923242
 21
1.967600097414136
 31
0.0
  0
ARC
  5
604
330
18
100
AcDbEntity
  8
1
 62
     1
100
AcDbCircle
 10
346.2668591944312
 20
138.739455323344
 30
0.0
 40
335.3983631992366
100
AcDbArc
 50
204.7006447109908
 51
204.8576211653845
  0
ARC
  5
605
330
18
100
AcDbEntity
  8
1
 62
     1
100
AcDbCircle
 10
39.51511916706051
 20
0.173159651788874
 30
0.0
 40
2.585972820829305
100
AcDbArc
 50
309.8170378591792
 51
322.0982053374238
  0
LINE
  5
606
330
18
100
AcDbEntity
  8
1
 62
     1
100
AcDbLine
 10
41.1709220107676
 20
-1.81299538631638
 30
0.0
 11
41.1709220107676
 21
-2.413
 31
0.0
  0
LINE
  5
607
330
18
100
AcDbEntity
  8
1
 62
     1
100
AcDbLine
 10
41.55625000000001
 20
-1.74559265625
 30
0.0
 11
41.1709220107676
 21
-2.41299999999999
 31
0.0
  0
LINE
  5
608
330
18
100
AcDbEntity
  8
1
 62
     1
100
AcDbLine
 10
41.55625000000001
 20
-1.74559265625
 30
0.0
 11
41.55625000000001
 21
-1.745523257040092
 31
0.0
  0
LINE
  5
609
330
18
100
AcDbEntity
  8
1
 62
     1
100
AcDbLine
 10
41.55625000000001
 20
-1.745523257040092
 30
0.0
 11
41.55625000000001
 21
-1.724425020244469
 31
0.0
  0
LINE
  5
60A
330
18
100
AcDbEntity
  8
1
 62
     1
100
AcDbLine
 10
41.55625000000001
 20
-1.724425020244469
 30
0.0
 11
41.55625000000001
 21
-1.415920030726093
 31
0.0
  0
ARC
  5
60B
330
18
100
AcDbEntity
  8
1
 62
     1
100
AcDbCircle
 10
20.68589037705524
 20
-10.74672027796396
 30
0.0
 40
22.33367762553771
100
AcDbArc
 50
23.62581798753846
 51
25.98083087839516
  0
LINE
  5
60C
330
18
100
AcDbEntity
  8
1
 62
     1
100
AcDbLine
 10
40.7625
 20
-1.702600759977293
 30
0.0
 11
41.14782798923243
 21
-2.412927223636552
 31
0.0
  0
LINE
  5
60D
330
18
100
AcDbEntity
  8
1
 62
     1
100
AcDbLine
 10
41.14782798923241
 20
-1.796137147876715
 30
0.0
 11
41.14782798923242
 21
-2.412927223636549
 31
0.0
  0
ARC
  5
60E
330
18
100
AcDbEntity
  8
1
 62
     1
100
AcDbCircle
 10
40.19036358614966
 20
-0.1996379246543455
 30
0.0
 40
0.9533797009881047
100
AcDbArc
 50
286.2820728674189
 51
306.8507835610325
  0
LINE
  5
60F
330
18
100
AcDbEntity
  8
1
 62
     1
100
AcDbLine
 10
40.45762903623891
 20
-1.114677194015003
 30
0.0
 11
40.45762903623891
 21
-2.143269501228547
 31
0.0
  0
ARC
  5
610
330
18
100
AcDbEntity
  8
1
 62
     1
100
AcDbCircle
 10
0.6669394768356369
 20
25.73545214524177
 30
0.0
 40
48.58516944966276
100
AcDbArc
 50
324.9835962565595
 51
325.6155204699115
  0
LINE
  5
611
330
18
100
AcDbEntity
  8
1
 62
     1
100
AcDbLine
 10
40.7625
 20
-1.702600759977208
 30
0.0
 11
40.7625
 21
-0.9630168980538337
 31
0.0
  0
ARC
  5
612
330
18
100
AcDbEntity
  8
1
 62
     1
100
AcDbCircle
 10
34.63979005088382
 20
3.071445540547534
 30
0.0
 40
9.059283906530586
100
AcDbArc
 50
323.9550242770463
 51
328.3263630111623
  0
LINE
  5
613
330
18
100
AcDbEntity
  8
1
 62
     1
100
AcDbLine
 10
41.96467201076759
 20
-2.259182712535627
 30
0.0
 11
41.9646720107676
 21
-2.413
 31
0.0
  0
LINE
  5
614
330
18
100
AcDbEntity
  8
1
 62
     1
100
AcDbLine
 10
42.35000000000001
 20
-1.74559265625
 30
0.0
 11
41.9646720107676
 21
-2.41299999999999
 31
0.0
  0
LINE
  5
615
330
18
100
AcDbEntity
  8
1
 62
     1
100
AcDbLine
 10
42.35000000000001
 20
-1.74559265625
 30
0.0
 11
42.35
 21
-1.745579234514885
 31
0.0
  0
LINE
  5
616
330
18
100
AcDbEntity
  8
1
 62
     1
100
AcDbLine
 10
42.35
 20
-1.745579234514885
 30
0.0
 11
42.35000000000001
 21
-1.741615486850068
 31
0.0
  0
LINE
  5
617
330
18
100
AcDbEntity
  8
1
 62
     1
100
AcDbLine
 10
42.35000000000001
 20
-1.741615486850068
 30
0.0
 11
42.35000000000002
 21
-1.685577711220138
 31
0.0
  0
ARC
  5
618
330
18
100
AcDbEntity
  8
1
 62
     1
100
AcDbCircle
 10
55.52853260577244
 20
4.823058208103508
 30
0.0
 40
14.69810913459495
100
AcDbArc
 50
206.2839226177571
 51
209.4930041129757
  0
LINE
  5
619
330
18
100
AcDbEntity
  8
1
 62
     1
100
AcDbLine
 10
42.73532798923242
 20
-2.413000000000014
 30
0.0
 11
42.35000000000001
 21
-1.74559265625
 31
0.0
  0
LINE
  5
61A
330
18
100
AcDbEntity
  8
1
 62
     1
100
AcDbLine
 10
42.73532798923242
 20
-2.412926770064514
 30
0.0
 11
42.73532798923242
 21
-2.412999999995645
 31
0.0
  0
ARC
  5
61B
330
18
100
AcDbEntity
  8
1
 62
     1
100
AcDbCircle
 10
-70.41387769867114
 20
62.50935314581581
 30
0.0
 40
130.4717967042063
100
AcDbArc
 50
330.1588604846607
 51
330.5005237059417
  0
ARC
  5
61C
330
18
100
AcDbEntity
  8
1
 62
     1
100
AcDbCircle
 10
34.07808357863873
 20
-3.940000349864869
 30
0.0
 40
6.880029205413126
100
AcDbArc
 50
27.48577847964673
 51
31.10742625742852
  0
LINE
  5
61D
330
18
100
AcDbEntity
  8
1
 62
     1
100
AcDbLine
 10
39.96875000000001
 20
-1.456174591685147
 30
0.0
 11
39.96875000000001
 21
-0.3854817574371744
 31
0.0
  0
LINE
  5
61E
330
18
100
AcDbEntity
  8
1
 62
     1
100
AcDbLine
 10
40.18161686311194
 20
-0.7646272961093943
 30
0.0
 11
40.18161686311195
 21
-1.874277675336644
 31
0.0
  0
ARC
  5
61F
330
18
100
AcDbEntity
  8
1
 62
     1
100
AcDbCircle
 10
40.09141632827452
 20
0.6247974279095352
 30
0.0
 40
1.163173581870625
100
AcDbArc
 50
71.64890705390931
 51
85.55244048245936
  0
LINE
  5
620
330
18
100
AcDbEntity
  8
1
 62
     1
100
AcDbLine
 10
40.18161686311195
 20
2.114288706503015
 30
0.0
 11
40.45762903623891
 21
2.273644409032429
 31
0.0
  0
ARC
  5
621
330
18
100
AcDbEntity
  8
1
 62
     1
100
AcDbCircle
 10
40.12667915930111
 20
0.2039117451498749
 30
0.0
 40
1.586886547376825
100
AcDbArc
 50
99.58973222915984
 51
102.7736764208202
  0
ARC
  5
622
330
18
100
AcDbEntity
  8
1
 62
     1
100
AcDbCircle
 10
39.90723114341605
 20
0.2408616467578467
 30
0.0
 40
0.6293551494884889
100
AcDbArc
 50
265.9075508696416
 51
275.6095450338162
  0
LINE
  5
623
330
18
100
AcDbEntity
  8
1
 62
     1
100
AcDbLine
 10
39.86231660570006
 20
-1.553254011833202
 30
0.0
 11
39.96875000000001
 21
-1.456174591685147
 31
0.0
  0
LINE
  5
624
330
18
100
AcDbEntity
  8
1
 62
     1
100
AcDbLine
 10
39.77581692
 20
-0.1083448473227233
 30
0.0
 11
39.77581692
 21
1.751528451538487
 31
0.0
  0
LINE
  5
625
330
18
100
AcDbEntity
  8
1
 62
     1
100
AcDbLine
 10
45.13967201076758
 20
-2.316976671326184
 30
0.0
 11
45.11657798923243
 21
-2.309755946901013
 31
0.0
  0
ARC
  5
626
330
18
100
AcDbEntity
  8
1
 62
     1
100
AcDbCircle
 10
62.0160245464059
 20
-18.4453517099943
 30
0.0
 40
24.18762641737433
100
AcDbArc
 50
135.6103673972155
 51
136.9321591857363
  0
LINE
  5
627
330
18
100
AcDbEntity
  8
1
 62
     1
100
AcDbLine
 10
44.34592201076759
 20
-1.928555435450517
 30
0.0
 11
44.32282798923242
 21
-1.91318636152153
 31
0.0
  0
LINE
  5
628
330
18
100
AcDbEntity
  8
1
 62
     1
100
AcDbLine
 10
43.55217201076759
 20
-1.290544621307912
 30
0.0
 11
43.52907798923241
 21
-1.269016161196543
 31
0.0
  0
ARC
  5
629
330
18
100
AcDbEntity
  8
1
 62
     1
100
AcDbCircle
 10
42.42039710927957
 20
-2.667121827095673
 30
0.0
 40
2.207745743541434
100
AcDbArc
 50
70.87851374907824
 51
81.19245662288782
  0
LINE
  5
62A
330
18
100
AcDbEntity
  8
1
 62
     1
100
AcDbLine
 10
42.75842201076758
 20
-0.4855136558574248
 30
0.0
 11
42.73532798923243
 21
-0.4606119780945439
 31
0.0
  0
LINE
  5
62B
330
18
100
AcDbEntity
  8
1
 62
     1
100
AcDbLine
 10
41.9646720107676
 20
0.3823511730855303
 30
0.0
 11
41.94157798923244
 21
0.4074032224257919
 31
0.0
  0
ARC
  5
62C
330
18
100
AcDbEntity
  8
1
 62
     1
100
AcDbCircle
 10
34.52411849371968
 20
-3.893797980068866
 30
0.0
 40
8.374654738179123
100
AcDbArc
 50
32.89378964979705
 51
37.46884085887363
  0
LINE
  5
62D
330
18
100
AcDbEntity
  8
1
 62
     1
100
AcDbLine
 10
41.17092201076758
 20
1.200733090241548
 30
0.0
 11
41.14782798923243
 21
1.222693524794443
 31
0.0
  0
ARC
  5
62E
330
18
100
AcDbEntity
  8
1
 62
     1
100
AcDbCircle
 10
41.1220065480777
 20
0.6765246957595695
 30
0.0
 40
1.453730486105406
100
AcDbArc
 50
130.3234934645417
 51
142.4907293682594
  0
LINE
  5
62F
330
18
100
AcDbEntity
  8
1
 62
     1
100
AcDbLine
 10
41.17092201076759
 20
-1.812995386316378
 30
0.0
 11
41.14782798923243
 21
-1.796137147876715
 31
0.0
  0
LINE
  5
630
330
18
100
AcDbEntity
  8
1
 62
     1
100
AcDbLine
 10
41.96467201076759
 20
-2.259182712535625
 30
0.0
 11
41.94157798923243
 21
-2.250136113662254
 31
0.0
  0
LINE
  5
631
330
18
100
AcDbEntity
  8
1
 62
     1
100
AcDbLine
 10
43.55217201076759
 20
-2.254514671384194
 30
0.0
 11
43.52907798923241
 21
-2.263441163813802
 31
0.0
  0
LINE
  5
632
330
18
100
AcDbEntity
  8
1
 62
     1
100
AcDbLine
 10
48.7
 20
0.0683723774886498
 30
0.0
 11
48.69999999999999
 21
1.689949871239879
 31
0.0
  0
ARC
  5
633
330
18
100
AcDbEntity
  8
1
 62
     1
100
AcDbCircle
 10
83.20243102345023
 20
-17.83066704524994
 30
0.0
 40
40.35648285960365
100
AcDbArc
 50
150.3619539989503
 51
150.9987666337639
  0
ARC
  5
634
330
18
100
AcDbEntity
  8
1
 62
     1
100
AcDbCircle
 10
47.47203459522955
 20
-0.0266146409445764
 30
0.0
 40
2.246076191779498
100
AcDbArc
 50
86.70093366398707
 51
90.7375091792233
  0
ARC
  5
635
330
18
100
AcDbEntity
  8
1
 62
     1
100
AcDbCircle
 10
70.84319095706857
 20
23.44310664059602
 30
0.0
 40
32.28248301640632
100
AcDbArc
 50
221.6659784044404
 51
222.6855859451245
  0
LINE
  5
636
330
18
100
AcDbEntity
  8
1
 62
     1
100
AcDbLine
 10
46.72717201076762
 20
1.982191180964709
 30
0.0
 11
46.70407798923243
 21
1.967600097414112
 31
0.0
  0
ARC
  5
637
330
18
100
AcDbEntity
  8
1
 62
     1
100
AcDbCircle
 10
33.83482264798427
 20
-4.838515638746928
 30
0.0
 40
7.004700900876619
100
AcDbArc
 50
25.0346872661268
 51
28.87301181801641
  0
LINE
  5
638
330
18
100
AcDbEntity
  8
1
 62
     1
100
AcDbLine
 10
45.1396720107676
 20
2.411003340963075
 30
0.0
 11
45.1165779892324
 21
2.411902662486012
 31
0.0
  0
LINE
  5
639
330
18
100
AcDbEntity
  8
1
 62
     1
100
AcDbLine
 10
45.93342201076761
 20
2.220259184809026
 30
0.0
 11
45.91032798923241
 21
2.230081230009875
 31
0.0
  0
LINE
  5
63A
330
18
100
AcDbEntity
  8
1
 62
     1
100
AcDbLine
 10
46.72717201076762
 20
1.742173393412313
 30
0.0
 11
46.70407798923242
 21
1.7596470857783
 31
0.0
  0
LINE
  5
63B
330
18
100
AcDbEntity
  8
1
 62
     1
100
AcDbLine
 10
48.70000000000002
 20
0.0683723774886355
 30
0.0
 11
48.70000000000002
 21
-0.0222585648641615
 31
0.0
  0
LINE
  5
63C
330
18
100
AcDbEntity
  8
1
 62
     1
100
AcDbLine
 10
48.70000000000001
 20
-1.288181930959994
 30
0.0
 11
48.7
 21
-1.22362037093865
 31
0.0
  0
ARC
  5
63D
330
18
100
AcDbEntity
  8
1
 62
     1
100
AcDbCircle
 10
46.18375085096088
 20
-2.007440641246999
 30
0.0
 40
2.160270024957955
100
AcDbArc
 50
25.99210704752501
 51
37.11774103663089
  0
LINE
  5
63E
330
18
100
AcDbEntity
  8
1
 62
     1
100
AcDbLine
 10
46.72717201076763
 20
0.2005903335678093
 30
0.0
 11
46.70407798923241
 21
0.2258855065063557
 31
0.0
  0
LINE
  5
63F
330
18
100
AcDbEntity
  8
1
 62
     1
100
AcDbLine
 10
45.93342201076758
 20
1.038566378893288
 30
0.0
 11
45.9103279892324
 21
1.061430417719733
 31
0.0
  0
LINE
  5
640
330
18
100
AcDbEntity
  8
1
 62
     1
100
AcDbLine
 10
45.1396720107676
 20
1.742132982369431
 30
0.0
 11
45.1165779892324
 21
1.75960712713548
 31
0.0
  0
LINE
  5
641
330
18
100
AcDbEntity
  8
1
 62
     1
100
AcDbLine
 10
44.34592201076757
 20
2.220236395109079
 30
0.0
 11
44.32282798923243
 21
2.230059006594342
 31
0.0
  0
LINE
  5
642
330
18
100
AcDbEntity
  8
1
 62
     1
100
AcDbLine
 10
43.5521720107676
 20
2.411000966283102
 30
0.0
 11
43.52907798923241
 21
2.411900900704872
 31
0.0
  0
LINE
  5
643
330
18
100
AcDbEntity
  8
1
 62
     1
100
AcDbLine
 10
42.7584220107676
 20
2.289738537051196
 30
0.0
 11
42.73532798923242
 21
2.281599289437748
 31
0.0
  0
LINE
  5
644
330
18
100
AcDbEntity
  8
1
 62
     1
100
AcDbLine
 10
41.96467201076758
 20
1.872142720294553
 30
0.0
 11
41.95864746344043
 21
1.8679561054297
 31
0.0
  0
LINE
  5
645
330
18
100
AcDbEntity
  8
1
 62
     1
100
AcDbLine
 10
41.17092201076758
 20
2.285523634501083
 30
0.0
 11
41.14782798923243
 21
2.293541704999282
 31
0.0
  0
LINE
  5
646
330
18
100
AcDbEntity
  8
1
 62
     1
100
AcDbLine
 10
41.96467201076759
 20
1.863755407100535
 30
0.0
 11
41.94157798923241
 21
1.879781480835875
 31
0.0
  0
LINE
  5
647
330
18
100
AcDbEntity
  8
1
 62
     1
100
AcDbLine
 10
42.75842201076759
 20
1.200783720978747
 30
0.0
 11
42.73532798923242
 21
1.222743794221044
 31
0.0
  0
LINE
  5
648
330
18
100
AcDbEntity
  8
1
 62
     1
100
AcDbLine
 10
43.55217201076761
 20
0.3824087286684379
 30
0.0
 11
43.52907798923241
 21
0.4074607366407906
 31
0.0
  0
LINE
  5
649
330
18
100
AcDbEntity
  8
1
 62
     1
100
AcDbLine
 10
44.34592201076758
 20
-0.4854565612985886
 30
0.0
 11
44.32282798923242
 21
-0.4605548402567967
 31
0.0
  0
LINE
  5
64A
330
18
100
AcDbEntity
  8
1
 62
     1
100
AcDbLine
 10
45.13967201076757
 20
-1.290495296974018
 30
0.0
 11
45.11657798923242
 21
-1.26896648830592
 31
0.0
  0
LINE
  5
64B
330
18
100
AcDbEntity
  8
1
 62
     1
100
AcDbLine
 10
45.93342201076759
 20
-1.928520457853489
 30
0.0
 11
45.91032798923243
 21
-1.91315090228875
 31
0.0
  0
LINE
  5
64C
330
18
100
AcDbEntity
  8
1
 62
     1
100
AcDbLine
 10
46.72717201076762
 20
-2.316960360089184
 30
0.0
 11
46.70407798923241
 21
-2.309739047432664
 31
0.0
  0
LINE
  5
64D
330
18
100
AcDbEntity
  8
1
 62
     1
100
AcDbLine
 10
47.38740417218224
 20
-2.221740427678249
 30
0.0
 11
47.44312400592501
 21
-2.316850916023105
 31
0.0
  0
ARC
  5
64E
330
18
100
AcDbEntity
  8
1
 62
     1
100
AcDbCircle
 10
57.72185668867724
 20
-6.99582680309012
 30
0.0
 40
10.56376831202737
100
AcDbArc
 50
148.653764396463
 51
150.2676451444438
  0
LINE
  5
64F
330
18
100
AcDbEntity
  8
1
 62
     1
100
AcDbLine
 10
48.7
 20
-1.288181930959998
 30
0.0
 11
48.70000000000001
 21
-1.500475397496872
 31
0.0
  0
LINE
  5
650
330
18
100
AcDbEntity
  8
1
 62
     1
100
AcDbLine
 10
39.77581692
 20
-0.2911178466616639
 30
0.0
 11
39.77581691999999
 21
-1.467297033471728
 31
0.0
  0
LINE
  5
651
330
18
100
AcDbEntity
  8
1
 62
     1
100
AcDbLine
 10
39.77581692
 20
-0.2911178466616802
 30
0.0
 11
39.77581692
 21
-0.1083448473227232
 31
0.0
  0
LINE
  5
652
330
18
100
AcDbEntity
  8
1
 62
     1
100
AcDbLine
 10
39.77581692
 20
1.88
 30
0.0
 11
39.77581692
 21
1.87999825213877
 31
0.0
  0
LINE
  5
653
330
18
100
AcDbEntity
  8
1
 62
     1
100
AcDbLine
 10
39.77581692
 20
1.87999825213877
 30
0.0
 11
39.77581692
 21
1.87949034085324
 31
0.0
  0
LINE
  5
654
330
18
100
AcDbEntity
  8
1
 62
     1
100
AcDbLine
 10
39.77581692
 20
1.87949034085324
 30
0.0
 11
39.77581692
 21
1.872593656494232
 31
0.0
  0
LINE
  5
655
330
18
100
AcDbEntity
  8
1
 62
     1
100
AcDbLine
 10
39.77581692
 20
1.872593656494232
 30
0.0
 11
39.77581691999999
 21
1.751528451538487
 31
0.0
  0
LINE
  5
656
330
18
100
AcDbEntity
  8
1
 62
     1
100
AcDbLine
 10
40.18161686311195
 20
2.114288706503036
 30
0.0
 11
39.96875000000001
 21
1.74559265625
 31
0.0
  0
ARC
  5
657
330
18
100
AcDbEntity
  8
1
 62
     1
100
AcDbCircle
 10
-68.15770300658993
 20
-60.37798066500588
 30
0.0
 40
125.3895269780969
100
AcDbArc
 50
29.6973655424107
 51
29.94107949982161
  0
LINE
  5
658
330
18
100
AcDbEntity
  8
1
 62
     1
100
AcDbLine
 10
40.49721805508995
 20
2.20507424893145
 30
0.0
 11
40.4576290362389
 21
2.273644409032426
 31
0.0
  0
LINE
  5
659
330
18
100
AcDbEntity
  8
1
 62
     1
100
AcDbLine
 10
39.96875000000001
 20
1.74559265625
 30
0.0
 11
39.86231660570006
 21
1.929940616847237
 31
0.0
  0
LINE
  5
65A
330
18
100
AcDbEntity
  8
1
 62
     1
100
AcDbLine
 10
42.75242411265798
 20
-2.412999999731772
 30
0.0
 11
42.75237451103743
 21
-2.412999999115339
 31
0.0
  0
LINE
  5
65B
330
18
100
AcDbEntity
  8
1
 62
     1
100
AcDbLine
 10
42.75237451103744
 20
-2.412999999115339
 30
0.0
 11
42.75235496156392
 21
-2.412999998533677
 31
0.0
  0
LINE
  5
65C
330
18
100
AcDbEntity
  8
1
 62
     1
100
AcDbLine
 10
42.75235496156392
 20
-2.412999998533676
 30
0.0
 11
42.73532798923245
 21
-2.41292676452962
 31
0.0
  0
LINE
  5
65D
330
18
100
AcDbEntity
  8
1
 62
     1
100
AcDbLine
 10
42.73532798923243
 20
-2.413
 30
0.0
 11
42.75242411265799
 21
-2.412999999999999
 31
0.0
  0
LINE
  5
65E
330
18
100
AcDbEntity
  8
1
 62
     1
100
AcDbLine
 10
41.94157798923241
 20
-2.413
 30
0.0
 11
41.96467201076759
 21
-2.413
 31
0.0
  0
LINE
  5
65F
330
18
100
AcDbEntity
  8
1
 62
     1
100
AcDbLine
 10
41.16487104190123
 20
-2.412999999694262
 30
0.0
 11
41.14782798923242
 21
-2.412927223636548
 31
0.0
  0
LINE
  5
660
330
18
100
AcDbEntity
  8
1
 62
     1
100
AcDbLine
 10
41.16487104190123
 20
-2.413
 30
0.0
 11
41.1709220107676
 21
-2.413
 31
0.0
  0
LINE
  5
661
330
18
100
AcDbEntity
  8
1
 62
     1
100
AcDbLine
 10
43.48543030357829
 20
2.337400025896193
 30
0.0
 11
43.48655606781398
 21
2.339349225241512
 31
0.0
  0
LINE
  5
662
330
18
100
AcDbEntity
  8
1
 62
     1
100
AcDbLine
 10
43.48655606781398
 20
2.339349225241512
 30
0.0
 11
43.52907798923243
 21
2.411900900704874
 31
0.0
  0
LINE
  5
663
330
18
100
AcDbEntity
  8
1
 62
     1
100
AcDbLine
 10
43.52907798923242
 20
2.413000000000003
 30
0.0
 11
43.48543030350616
 21
2.33740002593784
 31
0.0
  0
LINE
  5
664
330
18
100
AcDbEntity
  8
1
 62
     1
100
AcDbLine
 10
43.93750000000001
 20
1.74559265625
 30
0.0
 11
43.55217201076761
 21
2.412999999999988
 31
0.0
  0
LINE
  5
665
330
18
100
AcDbEntity
  8
1
 62
     1
100
AcDbLine
 10
44.32282798923242
 20
2.413000000000002
 30
0.0
 11
43.93750000000001
 21
1.74559265625
 31
0.0
  0
LINE
  5
666
330
18
100
AcDbEntity
  8
1
 62
     1
100
AcDbLine
 10
45.06708186688729
 20
2.327270241014845
 30
0.0
 11
45.11657798923243
 21
2.411902662486032
 31
0.0
  0
LINE
  5
667
330
18
100
AcDbEntity
  8
1
 62
     1
100
AcDbLine
 10
45.06708186676722
 20
2.327270241084163
 30
0.0
 11
44.73125
 21
1.74559265625
 31
0.0
  0
LINE
  5
668
330
18
100
AcDbEntity
  8
1
 62
     1
100
AcDbLine
 10
44.73125000000001
 20
1.74559265625
 30
0.0
 11
44.34592201076759
 21
2.412999999999997
 31
0.0
  0
LINE
  5
669
330
18
100
AcDbEntity
  8
1
 62
     1
100
AcDbLine
 10
48.70000000000001
 20
1.74559265625
 30
0.0
 11
48.54878846217328
 21
2.007498600342763
 31
0.0
  0
LINE
  5
66A
330
18
100
AcDbEntity
  8
1
 62
     1
100
AcDbLine
 10
46.70407798923241
 20
-2.413
 30
0.0
 11
46.72717201076762
 21
-2.413
 31
0.0
  0
LINE
  5
66B
330
18
100
AcDbEntity
  8
1
 62
     1
100
AcDbLine
 10
45.91032798923241
 20
-2.413
 30
0.0
 11
45.9334220107676
 21
-2.412999999999999
 31
0.0
  0
LINE
  5
66C
330
18
100
AcDbEntity
  8
1
 62
     1
100
AcDbLine
 10
42.41999310016011
 20
-0.0112165964442613
 30
0.0
 11
42.44150098010029
 21
-0.0303557415546097
 31
0.0
  0
LINE
  5
66D
330
18
100
AcDbEntity
  8
1
 62
     1
100
AcDbLine
 10
42.44150098010029
 20
-0.0303557415546097
 30
0.0
 11
42.46277157321335
 21
-0.0509382232389883
 31
0.0
  0
LINE
  5
66E
330
18
100
AcDbEntity
  8
1
 62
     1
100
AcDbLine
 10
42.46277157321335
 20
-0.0509382232389883
 30
0.0
 11
42.48379181366762
 21
-0.072894374233027
 31
0.0
  0
LINE
  5
66F
330
18
100
AcDbEntity
  8
1
 62
     1
100
AcDbLine
 10
42.48379181366762
 20
-0.072894374233027
 30
0.0
 11
42.52510723261925
 21
-0.1207323986501364
 31
0.0
  0
LINE
  5
670
330
18
100
AcDbEntity
  8
1
 62
     1
100
AcDbLine
 10
42.52510723261925
 20
-0.1207323986501364
 30
0.0
 11
42.5654436461118
 21
-0.1734300467479077
 31
0.0
  0
LINE
  5
671
330
18
100
AcDbEntity
  8
1
 62
     1
100
AcDbLine
 10
42.5654436461118
 20
-0.1734300467479077
 30
0.0
 11
42.60481861093169
 21
-0.2305920907124227
 31
0.0
  0
LINE
  5
672
330
18
100
AcDbEntity
  8
1
 62
     1
100
AcDbLine
 10
42.60481861093169
 20
-0.2305920907124227
 30
0.0
 11
42.64325210626497
 21
-0.2918488035525825
 31
0.0
  0
LINE
  5
673
330
18
100
AcDbEntity
  8
1
 62
     1
100
AcDbLine
 10
42.64325210626497
 20
-0.2918488035525825
 30
0.0
 11
42.68075811285351
 21
-0.3568392835683254
 31
0.0
  0
LINE
  5
674
330
18
100
AcDbEntity
  8
1
 62
     1
100
AcDbLine
 10
42.68075811285351
 20
-0.3568392835683254
 30
0.0
 11
42.73532798923243
 21
-0.4606119780945502
 31
0.0
  0
ARC
  5
675
330
18
100
AcDbEntity
  8
1
 62
     1
100
AcDbCircle
 10
38.72994427062355
 20
-3.592550227285004
 30
0.0
 40
5.127932770514869
100
AcDbArc
 50
45.09387297504502
 51
47.51115702030152
  0
LINE
  5
676
330
18
100
AcDbEntity
  8
1
 62
     1
100
AcDbLine
 10
41.84425421172396
 20
0.523069040035944
 30
0.0
 11
41.84425663692074
 21
0.5230666278588697
 31
0.0
  0
ARC
  5
677
330
18
100
AcDbEntity
  8
1
 62
     1
100
AcDbCircle
 10
41.19881870191526
 20
-0.1178431003768777
 30
0.0
 40
0.9096099337597158
100
AcDbArc
 50
35.26625095244594
 51
44.79830797504084
  0
LINE
  5
678
330
18
100
AcDbEntity
  8
1
 62
     1
100
AcDbLine
 10
42.19358783649547
 20
0.1888314746083203
 30
0.0
 11
42.19203307182018
 21
0.1902542362873576
 31
0.0
  0
ARC
  5
679
330
18
100
AcDbEntity
  8
1
 62
     1
100
AcDbCircle
 10
47.05404339916316
 20
-0.6404542853771413
 30
0.0
 40
1.505347205516707
100
AcDbArc
 50
44.59138875695327
 51
48.52547405541163
  0
LINE
  5
67A
330
18
100
AcDbEntity
  8
1
 62
     1
100
AcDbLine
 10
47.13645840699242
 20
-0.1114861269488656
 30
0.0
 11
47.1572352383929
 21
-0.1291560154423541
 31
0.0
  0
LINE
  5
67B
330
18
100
AcDbEntity
  8
1
 62
     1
100
AcDbLine
 10
47.1572352383929
 20
-0.1291560154423541
 30
0.0
 11
47.17779632211264
 21
-0.148178886225335
 31
0.0
  0
LINE
  5
67C
330
18
100
AcDbEntity
  8
1
 62
     1
100
AcDbLine
 10
47.17779632211264
 20
-0.148178886225335
 30
0.0
 11
47.19814663310736
 21
-0.1685075370017183
 31
0.0
  0
LINE
  5
67D
330
18
100
AcDbEntity
  8
1
 62
     1
100
AcDbLine
 10
47.19814663310736
 20
-0.1685075370017183
 30
0.0
 11
47.23820279262659
 21
-0.212863521760031
 31
0.0
  0
LINE
  5
67E
330
18
100
AcDbEntity
  8
1
 62
     1
100
AcDbLine
 10
47.23820279262659
 20
-0.212863521760031
 30
0.0
 11
47.27739021982509
 21
-0.2618137014114087
 31
0.0
  0
LINE
  5
67F
330
18
100
AcDbEntity
  8
1
 62
     1
100
AcDbLine
 10
47.27739021982509
 20
-0.2618137014114087
 30
0.0
 11
47.31570383601266
 21
-0.3149684710210951
 31
0.0
  0
LINE
  5
680
330
18
100
AcDbEntity
  8
1
 62
     1
100
AcDbLine
 10
47.31570383601266
 20
-0.3149684710210951
 30
0.0
 11
47.35316005626807
 21
-0.3719840644223054
 31
0.0
  0
LINE
  5
681
330
18
100
AcDbEntity
  8
1
 62
     1
100
AcDbLine
 10
47.35316005626807
 20
-0.3719840644223054
 30
0.0
 11
47.38976999725324
 21
-0.4325275154384052
 31
0.0
  0
LINE
  5
682
330
18
100
AcDbEntity
  8
1
 62
     1
100
AcDbLine
 10
47.38976999725324
 20
-0.4325275154384052
 30
0.0
 11
47.44312400592501
 21
-0.5292659578203252
 31
0.0
  0
LINE
  5
683
330
18
100
AcDbEntity
  8
1
 62
     1
100
AcDbLine
 10
47.05894330674424
 20
-0.0475170587702894
 30
0.0
 11
47.1125
 21
-0.0930565171008748
 31
0.0
  0
ARC
  5
684
330
18
100
AcDbEntity
  8
1
 62
     1
100
AcDbCircle
 10
45.8561122861144
 20
-0.3051570890155763
 30
0.0
 40
1.000222897670897
100
AcDbArc
 50
32.05705382555722
 51
45.15294261849063
  0
LINE
  5
685
330
18
100
AcDbEntity
  8
1
 62
     1
100
AcDbLine
 10
47.05894255773973
 20
-0.0475179531288085
 30
0.0
 11
47.05699844132003
 21
-0.0458892283877303
 31
0.0
  0
ARC
  5
686
330
18
100
AcDbEntity
  8
1
 62
     1
100
AcDbCircle
 10
42.13321666462853
 20
-0.8099116363940877
 30
0.0
 40
1.852130439620481
100
AcDbArc
 50
41.09265524316886
 51
44.46372944788041
  0
LINE
  5
687
330
18
100
AcDbEntity
  8
SK1
100
AcDbLine
 10
0.0000000000000018
 20
2.4638
 30
0.0
 11
-14.95
 21
2.4638
 31
0.0
  0
LINE
  5
688
330
18
100
AcDbEntity
  8
SK1
100
AcDbLine
 10
-14.95
 20
-1.9304
 30
0.0
 11
-14.95
 21
-2.4638
 31
0.0
  0
LINE
  5
689
330
18
100
AcDbEntity
  8
SK1
100
AcDbLine
 10
-21.05362
 20
1.530969065657437
 30
0.0
 11
-14.95
 21
1.530969065657437
 31
0.0
  0
ARC
  5
68A
330
18
100
AcDbEntity
  8
SK1
100
AcDbCircle
 10
-16.80510796477294
 20
-1.140050247656891
 30
0.0
 40
5.018211731602577
100
AcDbArc
 50
147.8426201109218
 51
153.6013277657065
  0
LINE
  5
68B
330
18
100
AcDbEntity
  8
SK1
100
AcDbLine
 10
-21.05362
 20
1.9304
 30
0.0
 11
-21.05362
 21
1.530969065657436
 31
0.0
  0
LINE
  5
68C
330
18
100
AcDbEntity
  8
SK1
100
AcDbLine
 10
-21.3
 20
1.9304
 30
0.0
 11
-21.05362
 21
1.9304
 31
0.0
  0
LINE
  5
68D
330
18
100
AcDbEntity
  8
SK1
100
AcDbLine
 10
-14.95
 20
2.4638
 30
0.0
 11
-14.95
 21
2.463688040471342
 31
0.0
  0
LINE
  5
68E
330
18
100
AcDbEntity
  8
SK1
100
AcDbLine
 10
-14.95
 20
2.463688040471342
 30
0.0
 11
-14.95
 21
2.429537364742413
 31
0.0
  0
LINE
  5
68F
330
18
100
AcDbEntity
  8
SK1
100
AcDbLine
 10
-14.95
 20
2.429537364742413
 30
0.0
 11
-14.95
 21
1.9304
 31
0.0
  0
LINE
  5
690
330
18
100
AcDbEntity
  8
SK1
100
AcDbLine
 10
-21.05362
 20
1.9304
 30
0.0
 11
-14.95
 21
1.9304
 31
0.0
  0
LINE
  5
691
330
18
100
AcDbEntity
  8
SK1
100
AcDbLine
 10
-21.05362
 20
-1.530969065657435
 30
0.0
 11
-14.95
 21
-1.530969065657435
 31
0.0
  0
LINE
  5
692
330
18
100
AcDbEntity
  8
SK1
100
AcDbLine
 10
-21.05362
 20
-1.530969065657434
 30
0.0
 11
-21.05362
 21
-1.9304
 31
0.0
  0
LINE
  5
693
330
18
100
AcDbEntity
  8
SK1
100
AcDbLine
 10
-21.05362
 20
-1.9304
 30
0.0
 11
-14.95
 21
-1.9304
 31
0.0
  0
LINE
  5
694
330
18
100
AcDbEntity
  8
SK1
100
AcDbLine
 10
-21.3
 20
1.091103705611892
 30
0.0
 11
-21.3
 21
-1.091103705611891
 31
0.0
  0
LINE
  5
695
330
18
100
AcDbEntity
  8
SK1
100
AcDbLine
 10
-21.3
 20
1.9304
 30
0.0
 11
-21.3
 21
1.091103705611892
 31
0.0
  0
LINE
  5
696
330
18
100
AcDbEntity
  8
SK1
100
AcDbLine
 10
-21.3
 20
-1.091103705611891
 30
0.0
 11
-21.3
 21
-1.9304
 31
0.0
  0
ARC
  5
697
330
18
100
AcDbEntity
  8
SK1
100
AcDbCircle
 10
-16.80510796477264
 20
1.140050247657069
 30
0.0
 40
5.018211731602924
100
AcDbArc
 50
206.3986722342937
 51
212.1573798890781
  0
LINE
  5
698
330
18
100
AcDbEntity
  8
SK1
100
AcDbLine
 10
-21.3
 20
-1.9304
 30
0.0
 11
-21.05362
 21
-1.9304
 31
0.0
  0
LINE
  5
699
330
18
100
AcDbEntity
  8
SK1
100
AcDbLine
 10
-14.95
 20
1.530969065657429
 30
0.0
 11
-14.95
 21
-1.530969065657427
 31
0.0
  0
LINE
  5
69A
330
18
100
AcDbEntity
  8
SK1
100
AcDbLine
 10
-14.95
 20
-2.4638
 30
0.0
 11
0.0000000000000036
 21
-2.4638
 31
0.0
  0
DIMENSION
  5
69B
330
18
100
AcDbEntity
  8
2
100
AcDbDimension
  2
*D0
 10
63.70000000000002
 20
-2.412999999999947
 30
0.0
 11
60.74750000000008
 21
-22.49299999999995
 31
0.0
 70
    32
  1
UNF#10-32
 71
     5
 42
4.826
  3
STANDARD
100
AcDbAlignedDimension
 13
48.7
 23
2.413
 33
0.0
 14
48.7
 24
-2.413
 34
0.0
 50
90.0000000000002
100
AcDbRotatedDimension
  0
DIMENSION
  5
6A9
330
18
100
AcDbEntity
  8
2
100
AcDbDimension
  2
*D1
 10
48.7
 20
75.0
 30
0.0
 11
24.35
 21
77.438
 31
0.0
 70
    32
  1
<>
 71
     5
 42
48.7
  3
STANDARD
100
AcDbAlignedDimension
 13
0.0
 23
0.0
 33
0.0
 14
48.7
 24
0.0
 34
0.0
100
AcDbRotatedDimension
  0
DIMENSION
  5
6B6
330
18
100
AcDbEntity
  8
SK2
100
AcDbDimension
  2
*D2
 10
-36.29999999998742
 20
-2.463800000108958
 30
0.0
 11
-38.73799999992254
 21
-15.1780500001214
 31
0.0
 70
    32
  1
%%c<>
 71
     5
 42
4.9276
  3
STANDARD
100
AcDbAlignedDimension
 13
-14.95
 23
2.4638
 33
0.0
 14
-14.95
 24
-2.4638
 34
0.0
 50
90.0000000002924
100
AcDbRotatedDimension
  0
DIMENSION
  5
6C4
330
18
100
AcDbEntity
  8
2
100
AcDbDimension
  2
*D3
 10
48.7
 20
60.0
 30
0.0
 11
57.0925
 21
62.39775
 31
0.0
 70
    32
  1
<>
 71
     5
 42
8.924183079999999
  3
STANDARD
100
AcDbAlignedDimension
 13
39.77581692
 23
1.88
 33
0.0
 14
48.7
 24
2.413
 34
0.0
100
AcDbRotatedDimension
  0
DIMENSION
  5
6D2
330
18
100
AcDbEntity
  8
SK2
100
AcDbDimension
  2
*D4
 10
48.7
 20
90.0
 30
0.0
 11
13.7
 21
92.39075
 31
0.0
 70
    32
  1
<>
 71
     5
 42
70.0
  3
STANDARD
100
AcDbAlignedDimension
 13
-21.3
 23
2.413
 33
0.0
 14
48.7
 24
2.413
 34
0.0
100
AcDbRotatedDimension
  0
ENDSEC
  0
SECTION
  2
OBJECTS
  0
DICTIONARY
  5
C
330
0
100
AcDbDictionary
281
     1
  3
ACAD_COLOR
350
387
  3
ACAD_GROUP
350
D
  3
ACAD_LAYOUT
350
301
  3
ACAD_MATERIAL
350
386
  3
ACAD_MLEADERSTYLE
350
6DF
  3
ACAD_MLINESTYLE
350
E
  3
ACAD_PLOTSETTINGS
350
302
  3
ACAD_PLOTSTYLENAME
350
2FF
  3
ACAD_SCALELIST
350
3A0
  3
ACAD_TABLESTYLE
350
388
  3
ACAD_VISUALSTYLE
350
3C5
  3
ACDBHEADERROUNDTRIPXREC
350
6E0
  3
AcDbVariableDictionary
350
357
  0
DICTIONARY
  5
387
102
{ACAD_REACTORS
330
C
102
}
330
C
100
AcDbDictionary
281
     1
  0
DICTIONARY
  5
D
102
{ACAD_REACTORS
330
C
102
}
330
C
100
AcDbDictionary
281
     1
  0
DICTIONARY
  5
301
102
{ACAD_REACTORS
330
C
102
}
330
C
100
AcDbDictionary
281
     1
  3
Layout1
350
33B
  3
Model
350
303
  0
DICTIONARY
  5
386
102
{ACAD_REACTORS
330
C
102
}
330
C
100
AcDbDictionary
281
     1
  3
ByBlock
350
3C3
  3
ByLayer
350
3C2
  3
Global
350
3C4
  0
DICTIONARY
  5
6DF
102
{ACAD_REACTORS
330
C
102
}
330
C
100
AcDbDictionary
281
     1
  0
DICTIONARY
  5
E
102
{ACAD_REACTORS
330
C
102
}
330
C
100
AcDbDictionary
281
     1
  3
STANDARD
350
1B
  0
DICTIONARY
  5
302
102
{ACAD_REACTORS
330
C
102
}
330
C
100
AcDbDictionary
281
     1
  0
ACDBDICTIONARYWDFLT
  5
2FF
102
{ACAD_REACTORS
330
C
102
}
330
C
100
AcDbDictionary
281
     1
  3
Normal
350
300
100
AcDbDictionaryWithDefault
340
300
  0
DICTIONARY
  5
3A0
102
{ACAD_REACTORS
330
C
102
}
330
C
100
AcDbDictionary
281
     1
  3
A0
350
3A1
  3
A1
350
3A2
  3
A2
350
3A3
  3
A3
350
3A4
  3
A4
350
3A5
  3
A5
350
3A6
  3
A6
350
3A7
  3
A7
350
3A8
  3
A8
350
3A9
  3
A9
350
3AA
  3
B0
350
3AB
  3
B1
350
3AC
  3
B2
350
3AD
  3
B3
350
3AE
  3
B4
350
3AF
  3
B5
350
3B0
  3
B6
350
3B1
  3
B7
350
3B2
  3
B8
350
3B3
  3
B9
350
3B4
  3
C0
350
3B5
  3
C1
350
3B6
  3
C2
350
3B7
  3
C3
350
3B8
  3
C4
350
3B9
  3
C5
350
3BA
  3
C6
350
3BB
  3
C7
350
3BC
  3
C8
350
3BD
  3
C9
350
3BE
  3
D0
350
3BF
  3
D1
350
3C0
  3
D2
350
3C1
  0
DICTIONARY
  5
388
102
{ACAD_REACTORS
330
C
102
}
330
C
100
AcDbDictionary
281
     1
  3
Standard
350
389
  0
DICTIONARY
  5
3C5
102
{ACAD_REACTORS
330
C
102
}
330
C
100
AcDbDictionary
281
     1
  3
2dWireframe
350
3CA
  3
3D Hidden
350
3CC
  3
3dWireframe
350
3CB
  3
Basic
350
3CD
  3
Brighten
350
3D1
  3
ColorChange
350
3D5
  3
Conceptual
350
3CF
  3
Dim
350
3D0
  3
Facepattern
350
3D4
  3
Flat
350
3C6
  3
FlatWithEdges
350
3C7
  3
Gouraud
350
3C8
  3
GouraudWithEdges
350
3C9
  3
Linepattern
350
3D3
  3
Realistic
350
3CE
  3
Thicken
350
3D2
  0
DICTIONARY
  5
6E0
102
{ACAD_REACTORS
330
C
102
}
330
C
100
AcDbDictionary
281
     1
  3
COLORDICT
350
6E1
  3
MATERIALDICT
350
6E2
  0
DICTIONARY
  5
357
102
{ACAD_REACTORS
330
C
102
}
330
C
100
AcDbDictionary
281
     1
  3
CANNOSCALE
350
6E3
  3
CTABLESTYLE
350
38D
  3
DIMASSOC
350
359
  3
HIDETEXT
350
358
  3
PROJECTNAME
350
38E
  0
LAYOUT
  5
33B
102
{ACAD_REACTORS
330
301
102
}
330
301
100
AcDbPlotSettings
  1

  2
Lexmark Optra PS2
  4

  6

 40
0.0
 41
0.0
 42
0.0
 43
0.0
 44
0.0
 45
0.0
 46
0.0
 47
0.0
 48
0.0
 49
0.0
140
0.0
141
0.0
142
1.0
143
1.0
 70
   688
 72
     0
 73
     0
 74
     5
  7
monochrome.ctb
 75
    16
147
1.0
148
0.0
149
0.0
100
AcDbLayout
  1
Layout1
 70
     1
 71
     1
 10
0.0
 20
0.0
 11
12.0
 21
9.0
 12
0.0
 22
0.0
 32
0.0
 14
0.0
 24
0.0
 34
0.0
 15
0.0
 25
0.0
 35
0.0
146
0.0
 13
0.0
 23
0.0
 33
0.0
 16
1.0
 26
0.0
 36
0.0
 17
0.0
 27
1.0
 37
0.0
 76
     0
330
338
  0
LAYOUT
  5
303
102
{ACAD_REACTORS
330
301
102
}
330
301
100
AcDbPlotSettings
  1

  2
Lexmark Optra Rx
  4
A4
  6

 40
6.805083274841307
 41
5.535083293914794
 42
6.974411010742187
 43
7.14373779296875
 44
209.9733276367186
 45
296.9259948730469
 46
0.0
 47
0.0
 48
0.0
 49
0.0
140
0.0
141
0.0
142
1.0
143
2.976565420630886
 70
 11952
 72
     1
 73
     1
 74
     0
  7
monochrome.ctb
 75
     0
147
0.335957675604539
148
204.1199660668592
149
172.3933209647495
100
AcDbLayout
  1
Model
 70
     1
 71
     0
 10
0.0
 20
0.0
 11
12.0
 21
9.0
 12
0.0
 22
0.0
 32
0.0
 14
0.0
 24
0.0
 34
0.0
 15
0.0
 25
0.0
 35
0.0
146
0.0
 13
0.0
 23
0.0
 33
0.0
 16
1.0
 26
0.0
 36
0.0
 17
0.0
 27
1.0
 37
0.0
 76
     0
330
18
331
39A
  0
MATERIAL
  5
3C3
102
{ACAD_REACTORS
330
386
102
}
102
{ACAD_XDICTIONARY
360
6E6
102
}
330
386
100
AcDbMaterial
  1
ByBlock
  0
MATERIAL
  5
3C2
102
{ACAD_REACTORS
330
386
102
}
102
{ACAD_XDICTIONARY
360
6E4
102
}
330
386
100
AcDbMaterial
  1
ByLayer
  0
MATERIAL
  5
3C4
102
{ACAD_REACTORS
330
386
102
}
102
{ACAD_XDICTIONARY
360
6E8
102
}
330
386
100
AcDbMaterial
  1
Global
  0
MLINESTYLE
  5
1B
102
{ACAD_REACTORS
330
E
102
}
330
E
100
AcDbMlineStyle
  2
STANDARD
 70
     0
  3

 62
     0
 51
90.0
 52
90.0
 71
     2
 49
0.5
 62
   256
  6
BYLAYER
 49
-0.5
 62
   256
  6
BYLAYER
  0
ACDBPLACEHOLDER
  5
300
102
{ACAD_REACTORS
330
2FF
102
}
330
2FF
  0
SCALE
  5
3A1
102
{ACAD_REACTORS
330
3A0
102
}
330
3A0
100
AcDbScale
 70
     0
300
1:1
140
1.0
141
1.0
290
     1
  0
SCALE
  5
3A2
102
{ACAD_REACTORS
330
3A0
102
}
330
3A0
100
AcDbScale
 70
     0
300
1:2
140
1.0
141
2.0
290
     0
  0
SCALE
  5
3A3
102
{ACAD_REACTORS
330
3A0
102
}
330
3A0
100
AcDbScale
 70
     0
300
1:4
140
1.0
141
4.0
290
     0
  0
SCALE
  5
3A4
102
{ACAD_REACTORS
330
3A0
102
}
330
3A0
100
AcDbScale
 70
     0
300
1:5
140
1.0
141
5.0
290
     0
  0
SCALE
  5
3A5
102
{ACAD_REACTORS
330
3A0
102
}
330
3A0
100
AcDbScale
 70
     0
300
1:8
140
1.0
141
8.0
290
     0
  0
SCALE
  5
3A6
102
{ACAD_REACTORS
330
3A0
102
}
330
3A0
100
AcDbScale
 70
     0
300
1:10
140
1.0
141
10.0
290
     0
  0
SCALE
  5
3A7
102
{ACAD_REACTORS
330
3A0
102
}
330
3A0
100
AcDbScale
 70
     0
300
1:16
140
1.0
141
16.0
290
     0
  0
SCALE
  5
3A8
102
{ACAD_REACTORS
330
3A0
102
}
330
3A0
100
AcDbScale
 70
     0
300
1:20
140
1.0
141
20.0
290
     0
  0
SCALE
  5
3A9
102
{ACAD_REACTORS
330
3A0
102
}
330
3A0
100
AcDbScale
 70
     0
300
1:30
140
1.0
141
30.0
290
     0
  0
SCALE
  5
3AA
102
{ACAD_REACTORS
330
3A0
102
}
330
3A0
100
AcDbScale
 70
     0
300
1:40
140
1.0
141
40.0
290
     0
  0
SCALE
  5
3AB
102
{ACAD_REACTORS
330
3A0
102
}
330
3A0
100
AcDbScale
 70
     0
300
1:50
140
1.0
141
50.0
290
     0
  0
SCALE
  5
3AC
102
{ACAD_REACTORS
330
3A0
102
}
330
3A0
100
AcDbScale
 70
     0
300
1:100
140
1.0
141
100.0
290
     0
  0
SCALE
  5
3AD
102
{ACAD_REACTORS
330
3A0
102
}
330
3A0
100
AcDbScale
 70
     0
300
2:1
140
2.0
141
1.0
290
     0
  0
SCALE
  5
3AE
102
{ACAD_REACTORS
330
3A0
102
}
330
3A0
100
AcDbScale
 70
     0
300
4:1
140
4.0
141
1.0
290
     0
  0
SCALE
  5
3AF
102
{ACAD_REACTORS
330
3A0
102
}
330
3A0
100
AcDbScale
 70
     0
300
8:1
140
8.0
141
1.0
290
     0
  0
SCALE
  5
3B0
102
{ACAD_REACTORS
330
3A0
102
}
330
3A0
100
AcDbScale
 70
     0
300
10:1
140
10.0
141
1.0
290
     0
  0
SCALE
  5
3B1
102
{ACAD_REACTORS
330
3A0
102
}
330
3A0
100
AcDbScale
 70
     0
300
100:1
140
100.0
141
1.0
290
     0
  0
SCALE
  5
3B2
102
{ACAD_REACTORS
330
3A0
102
}
330
3A0
100
AcDbScale
 70
     0
300
1/128" = 1'-0"
140
0.0078125
141
12.0
290
     0
  0
SCALE
  5
3B3
102
{ACAD_REACTORS
330
3A0
102
}
330
3A0
100
AcDbScale
 70
     0
300
1/64" = 1'-0"
140
0.015625
141
12.0
290
     0
  0
SCALE
  5
3B4
102
{ACAD_REACTORS
330
3A0
102
}
330
3A0
100
AcDbScale
 70
     0
300
1/32" = 1'-0"
140
0.03125
141
12.0
290
     0
  0
SCALE
  5
3B5
102
{ACAD_REACTORS
330
3A0
102
}
330
3A0
100
AcDbScale
 70
     0
300
1/16" = 1'-0"
140
0.0625
141
12.0
290
     0
  0
SCALE
  5
3B6
102
{ACAD_REACTORS
330
3A0
102
}
330
3A0
100
AcDbScale
 70
     0
300
3/32" = 1'-0"
140
0.09375
141
12.0
290
     0
  0
SCALE
  5
3B7
102
{ACAD_REACTORS
330
3A0
102
}
330
3A0
100
AcDbScale
 70
     0
300
1/8" = 1'-0"
140
0.125
141
12.0
290
     0
  0
SCALE
  5
3B8
102
{ACAD_REACTORS
330
3A0
102
}
330
3A0
100
AcDbScale
 70
     0
300
3/16" = 1'-0"
140
0.1875
141
12.0
290
     0
  0
SCALE
  5
3B9
102
{ACAD_REACTORS
330
3A0
102
}
330
3A0
100
AcDbScale
 70
     0
300
1/4" = 1'-0"
140
0.25
141
12.0
290
     0
  0
SCALE
  5
3BA
102
{ACAD_REACTORS
330
3A0
102
}
330
3A0
100
AcDbScale
 70
     0
300
3/8" = 1'-0"
140
0.375
141
12.0
290
     0
  0
SCALE
  5
3BB
102
{ACAD_REACTORS
330
3A0
102
}
330
3A0
100
AcDbScale
 70
     0
300
1/2" = 1'-0"
140
0.5
141
12.0
290
     0
  0
SCALE
  5
3BC
102
{ACAD_REACTORS
330
3A0
102
}
330
3A0
100
AcDbScale
 70
     0
300
3/4" = 1'-0"
140
0.75
141
12.0
290
     0
  0
SCALE
  5
3BD
102
{ACAD_REACTORS
330
3A0
102
}
330
3A0
100
AcDbScale
 70
     0
300
1" = 1'-0"
140
1.0
141
12.0
290
     0
  0
SCALE
  5
3BE
102
{ACAD_REACTORS
330
3A0
102
}
330
3A0
100
AcDbScale
 70
     0
300
1-1/2" = 1'-0"
140
1.5
141
12.0
290
     0
  0
SCALE
  5
3BF
102
{ACAD_REACTORS
330
3A0
102
}
330
3A0
100
AcDbScale
 70
     0
300
3" = 1'-0"
140
3.0
141
12.0
290
     0
  0
SCALE
  5
3C0
102
{ACAD_REACTORS
330
3A0
102
}
330
3A0
100
AcDbScale
 70
     0
300
6" = 1'-0"
140
6.0
141
12.0
290
     0
  0
SCALE
  5
3C1
102
{ACAD_REACTORS
330
3A0
102
}
330
3A0
100
AcDbScale
 70
     0
300
1'-0" = 1'-0"
140
12.0
141
12.0
290
     0
  0
TABLESTYLE
  5
389
102
{ACAD_REACTORS
330
388
102
}
330
388
100
AcDbTableStyle
  3
Standard
 70
     0
 71
     0
 40
1.5
 41
1.5
280
     0
281
     0
  7
STANDARD
140
4.5
170
     2
 62
     0
 63
   257
283
     0
274
    -2
284
     1
 64
     0
275
    -2
285
     1
 65
     0
276
    -2
286
     1
 66
     0
277
    -2
287
     1
 67
     0
278
    -2
288
     1
 68
     0
279
    -2
289
     1
 69
     0
  7
STANDARD
140
6.0
170
     5
 62
     0
 63
   257
283
     0
274
    -2
284
     1
 64
     0
275
    -2
285
     1
 65
     0
276
    -2
286
     1
 66
     0
277
    -2
287
     1
 67
     0
278
    -2
288
     1
 68
     0
279
    -2
289
     1
 69
     0
  7
STANDARD
140
4.5
170
     5
 62
     0
 63
   257
283
     0
274
    -2
284
     1
 64
     0
275
    -2
285
     1
 65
     0
276
    -2
286
     1
 66
     0
277
    -2
287
     1
 67
     0
278
    -2
288
     1
 68
     0
279
    -2
289
     1
 69
     0
  0
VISUALSTYLE
  5
3CA
102
{ACAD_REACTORS
330
3C5
102
}
102
{ACAD_XDICTIONARY
360
6F2
102
}
330
3C5
100
AcDbVisualStyle
  2
2dWireframe
 70
     4
 71
     0
 72
     2
 73
     0
 90
        0
 40
-0.6
 41
-30.0
 62
     5
 63
     7
 74
     1
 91
        4
 64
     7
 65
   257
 75
     1
175
     1
 42
1.0
 92
        0
 66
   257
 43
1.0
 76
     1
 77
     6
 78
     2
 67
     7
 79
     5
170
     0
171
     0
290
     0
174
     0
 93
        1
 44
0.0
173
     0
291
     0
 45
0.0
1001
ACAD
1000
AcDbSavedByObjectVersion
1070
     0
  0
VISUALSTYLE
  5
3CC
102
{ACAD_REACTORS
330
3C5
102
}
102
{ACAD_XDICTIONARY
360
6F6
102
}
330
3C5
100
AcDbVisualStyle
  2
3D Hidden
 70
     6
 71
     1
 72
     2
 73
     2
 90
        0
 40
-0.6
 41
-30.0
 62
     5
 63
     7
 74
     2
 91
        2
 64
     7
 65
   257
 75
     2
175
     1
 42
40.0
 92
        0
 66
   257
 43
1.0
 76
     1
 77
     6
 78
     2
 67
     7
 79
     3
170
     0
171
     0
290
     0
174
     0
 93
        1
 44
0.0
173
     0
291
     0
 45
0.0
1001
ACAD
1000
AcDbSavedByObjectVersion
1070
     0
  0
VISUALSTYLE
  5
3CB
102
{ACAD_REACTORS
330
3C5
102
}
102
{ACAD_XDICTIONARY
360
6F4
102
}
330
3C5
100
AcDbVisualStyle
  2
3dWireframe
 70
     5
 71
     0
 72
     2
 73
     0
 90
        0
 40
-0.6
 41
-30.0
 62
     5
 63
     7
 74
     1
 91
        4
 64
     7
 65
   257
 75
     1
175
     1
 42
1.0
 92
        0
 66
   257
 43
1.0
 76
     1
 77
     6
 78
     2
 67
     7
 79
     5
170
     0
171
     0
290
     0
174
     0
 93
        1
 44
0.0
173
     0
291
     0
 45
0.0
1001
ACAD
1000
AcDbSavedByObjectVersion
1070
     0
  0
VISUALSTYLE
  5
3CD
102
{ACAD_REACTORS
330
3C5
102
}
102
{ACAD_XDICTIONARY
360
6F8
102
}
330
3C5
100
AcDbVisualStyle
  2
Basic
 70
     7
 71
     1
 72
     0
 73
     1
 90
        0
 40
-0.6
 41
-30.0
 62
     5
 63
     7
 74
     0
 91
        4
 64
     7
 65
   257
 75
     1
175
     1
 42
1.0
 92
        8
 66
     7
 43
1.0
 76
     1
 77
     6
 78
     2
 67
     7
 79
     5
170
     0
171
     0
290
     0
174
     0
 93
        1
 44
0.0
173
     0
291
     1
 45
0.0
1001
ACAD
1000
AcDbSavedByObjectVersion
1070
     0
  0
VISUALSTYLE
  5
3D1
102
{ACAD_REACTORS
330
3C5
102
}
102
{ACAD_XDICTIONARY
360
700
102
}
330
3C5
100
AcDbVisualStyle
  2
Brighten
 70
    12
 71
     2
 72
     2
 73
     0
 90
        0
 40
-0.6
 41
-30.0
 62
     5
 63
     7
 74
     1
 91
        4
 64
     7
 65
   257
 75
     1
175
     1
 42
1.0
 92
        8
 66
     7
 43
1.0
 76
     1
 77
     6
 78
     2
 67
     7
 79
     5
170
     0
171
     0
290
     0
174
     0
 93
        1
 44
50.0
173
     0
291
     1
 45
0.0
1001
ACAD
1000
AcDbSavedByObjectVersion
1070
     0
  0
VISUALSTYLE
  5
3D5
102
{ACAD_REACTORS
330
3C5
102
}
102
{ACAD_XDICTIONARY
360
708
102
}
330
3C5
100
AcDbVisualStyle
  2
ColorChange
 70
    16
 71
     2
 72
     2
 73
     3
 90
        0
 40
-0.6
 41
-30.0
 62
     5
 63
     8
 74
     1
 91
        4
 64
     7
 65
   257
 75
     1
175
     1
 42
1.0
 92
        8
 66
     8
 43
1.0
 76
     1
 77
     6
 78
     2
 67
     7
 79
     5
170
     0
171
     0
290
     0
174
     0
 93
        1
 44
0.0
173
     0
291
     1
 45
0.0
1001
ACAD
1000
AcDbSavedByObjectVersion
1070
     0
  0
VISUALSTYLE
  5
3CF
102
{ACAD_REACTORS
330
3C5
102
}
102
{ACAD_XDICTIONARY
360
6FC
102
}
330
3C5
100
AcDbVisualStyle
  2
Conceptual
 70
     9
 71
     3
 72
     2
 73
     0
 90
        0
 40
-0.6
 41
-30.0
 62
     5
 63
     7
 74
     2
 91
        2
 64
     7
 65
   257
 75
     1
175
     1
 42
40.0
 92
        8
 66
     7
 43
1.0
 76
     1
 77
     6
 78
     2
 67
     7
 79
     3
170
     0
171
     0
290
     0
174
     0
 93
        1
 44
0.0
173
     0
291
     0
 45
0.0
1001
ACAD
1000
AcDbSavedByObjectVersion
1070
     0
  0
VISUALSTYLE
  5
3D0
102
{ACAD_REACTORS
330
3C5
102
}
102
{ACAD_XDICTIONARY
360
6FE
102
}
330
3C5
100
AcDbVisualStyle
  2
Dim
 70
    11
 71
     2
 72
     2
 73
     0
 90
        0
 40
-0.6
 41
-30.0
 62
     5
 63
     7
 74
     1
 91
        4
 64
     7
 65
   257
 75
     1
175
     1
 42
1.0
 92
        8
 66
     7
 43
1.0
 76
     1
 77
     6
 78
     2
 67
     7
 79
     5
170
     0
171
     0
290
     0
174
     0
 93
        1
 44
-50.0
173
     0
291
     1
 45
0.0
1001
ACAD
1000
AcDbSavedByObjectVersion
1070
     0
  0
VISUALSTYLE
  5
3D4
102
{ACAD_REACTORS
330
3C5
102
}
102
{ACAD_XDICTIONARY
360
706
102
}
330
3C5
100
AcDbVisualStyle
  2
Facepattern
 70
    15
 71
     2
 72
     2
 73
     0
 90
        0
 40
-0.6
 41
-30.0
 62
     5
 63
     7
 74
     1
 91
        4
 64
     7
 65
   257
 75
     1
175
     1
 42
1.0
 92
        8
 66
     7
 43
1.0
 76
     1
 77
     6
 78
     2
 67
     7
 79
     5
170
     0
171
     0
290
     0
174
     0
 93
        1
 44
0.0
173
     0
291
     1
 45
0.0
1001
ACAD
1000
AcDbSavedByObjectVersion
1070
     0
  0
VISUALSTYLE
  5
3C6
102
{ACAD_REACTORS
330
3C5
102
}
102
{ACAD_XDICTIONARY
360
6EA
102
}
330
3C5
100
AcDbVisualStyle
  2
Flat
 70
     0
 71
     2
 72
     1
 73
     1
 90
        2
 40
-0.6
 41
30.0
 62
     5
 63
     7
 74
     0
 91
        4
 64
     7
 65
   257
 75
     1
175
     1
 42
1.0
 92
        8
 66
     7
 43
1.0
 76
     1
 77
     6
 78
     2
 67
     7
 79
     5
170
     0
171
     0
290
     0
174
     0
 93
       13
 44
0.0
173
     0
291
     1
 45
0.0
1001
ACAD
1000
AcDbSavedByObjectVersion
1070
     0
  0
VISUALSTYLE
  5
3C7
102
{ACAD_REACTORS
330
3C5
102
}
102
{ACAD_XDICTIONARY
360
6EC
102
}
330
3C5
100
AcDbVisualStyle
  2
FlatWithEdges
 70
     1
 71
     2
 72
     1
 73
     1
 90
        2
 40
-0.6
 41
30.0
 62
     5
 63
     7
 74
     1
 91
        4
 64
     7
 65
   257
 75
     1
175
     1
 42
1.0
 92
        0
 66
   257
 43
1.0
 76
     1
 77
     6
 78
     2
 67
     7
 79
     5
170
     0
171
     0
290
     0
174
     0
 93
       13
 44
0.0
173
     0
291
     1
 45
0.0
1001
ACAD
1000
AcDbSavedByObjectVersion
1070
     0
  0
VISUALSTYLE
  5
3C8
102
{ACAD_REACTORS
330
3C5
102
}
102
{ACAD_XDICTIONARY
360
6EE
102
}
330
3C5
100
AcDbVisualStyle
  2
Gouraud
 70
     2
 71
     2
 72
     2
 73
     1
 90
        2
 40
-0.6
 41
30.0
 62
     5
 63
     7
 74
     0
 91
        4
 64
     7
 65
   257
 75
     1
175
     1
 42
1.0
 92
        0
 66
     7
 43
1.0
 76
     1
 77
     6
 78
     2
 67
     7
 79
     5
170
     0
171
     0
290
     0
174
     0
 93
       13
 44
0.0
173
     0
291
     1
 45
0.0
1001
ACAD
1000
AcDbSavedByObjectVersion
1070
     0
  0
VISUALSTYLE
  5
3C9
102
{ACAD_REACTORS
330
3C5
102
}
102
{ACAD_XDICTIONARY
360
6F0
102
}
330
3C5
100
AcDbVisualStyle
  2
GouraudWithEdges
 70
     3
 71
     2
 72
     2
 73
     1
 90
        2
 40
-0.6
 41
30.0
 62
     5
 63
     7
 74
     1
 91
        4
 64
     7
 65
   257
 75
     1
175
     1
 42
1.0
 92
        0
 66
   257
 43
1.0
 76
     1
 77
     6
 78
     2
 67
     7
 79
     5
170
     0
171
     0
290
     0
174
     0
 93
       13
 44
0.0
173
     0
291
     1
 45
0.0
1001
ACAD
1000
AcDbSavedByObjectVersion
1070
     0
  0
VISUALSTYLE
  5
3D3
102
{ACAD_REACTORS
330
3C5
102
}
102
{ACAD_XDICTIONARY
360
704
102
}
330
3C5
100
AcDbVisualStyle
  2
Linepattern
 70
    14
 71
     2
 72
     2
 73
     0
 90
        0
 40
-0.6
 41
-30.0
 62
     5
 63
     7
 74
     1
 91
        4
 64
     7
 65
   257
 75
     7
175
     7
 42
1.0
 92
        8
 66
     7
 43
1.0
 76
     1
 77
     6
 78
     2
 67
     7
 79
     5
170
     0
171
     0
290
     0
174
     0
 93
        1
 44
0.0
173
     0
291
     1
 45
0.0
1001
ACAD
1000
AcDbSavedByObjectVersion
1070
     0
  0
VISUALSTYLE
  5
3CE
102
{ACAD_REACTORS
330
3C5
102
}
102
{ACAD_XDICTIONARY
360
6FA
102
}
330
3C5
100
AcDbVisualStyle
  2
Realistic
 70
     8
 71
     2
 72
     2
 73
     0
 90
        0
 40
-0.6
 41
-30.0
 62
     5
 63
     7
 74
     1
 91
        0
 64
     7
 65
   257
 75
     1
175
     1
 42
1.0
 92
        8
 66
     8
 43
1.0
 76
     1
 77
     6
 78
     2
 67
     7
 79
     5
170
     0
171
     0
290
     0
174
     0
 93
       13
 44
0.0
173
     0
291
     0
 45
0.0
1001
ACAD
1000
AcDbSavedByObjectVersion
1070
     0
  0
VISUALSTYLE
  5
3D2
102
{ACAD_REACTORS
330
3C5
102
}
102
{ACAD_XDICTIONARY
360
702
102
}
330
3C5
100
AcDbVisualStyle
  2
Thicken
 70
    13
 71
     2
 72
     2
 73
     0
 90
        0
 40
-0.6
 41
-30.0
 62
     5
 63
     7
 74
     1
 91
        4
 64
     7
 65
   257
 75
     1
175
     1
 42
1.0
 92
       12
 66
     7
 43
1.0
 76
     1
 77
     6
 78
     2
 67
     7
 79
     5
170
     0
171
     0
290
     0
174
     0
 93
        1
 44
0.0
173
     0
291
     1
 45
0.0
1001
ACAD
1000
AcDbSavedByObjectVersion
1070
     0
  0
XRECORD
  5
6E1
102
{ACAD_REACTORS
330
6E0
102
}
330
6E0
100
AcDbXrecord
280
     1
340
387
  0
XRECORD
  5
6E2
102
{ACAD_REACTORS
330
6E0
102
}
330
6E0
100
AcDbXrecord
280
     1
340
386
  0
DICTIONARYVAR
  5
6E3
102
{ACAD_REACTORS
330
357
102
}
330
357
100
DictionaryVariables
280
     0
  1
1:1
  0
DICTIONARYVAR
  5
38D
102
{ACAD_REACTORS
330
357
102
}
330
357
100
DictionaryVariables
280
     0
  1
Standard
  0
DICTIONARYVAR
  5
359
102
{ACAD_REACTORS
330
357
102
}
330
357
100
DictionaryVariables
280
     0
  1
2
  0
DICTIONARYVAR
  5
358
102
{ACAD_REACTORS
330
357
102
}
330
357
100
DictionaryVariables
280
     0
  1
1
  0
DICTIONARYVAR
  5
38E
102
{ACAD_REACTORS
330
357
102
}
330
357
100
DictionaryVariables
280
     0
  1

  0
DICTIONARY
  5
6E6
330
3C3
100
AcDbDictionary
280
     1
281
     1
  3
ACAD_XREC_ROUNDTRIP
360
6E7
  0
DICTIONARY
  5
6E4
330
3C2
100
AcDbDictionary
280
     1
281
     1
  3
ACAD_XREC_ROUNDTRIP
360
6E5
  0
DICTIONARY
  5
6E8
330
3C4
100
AcDbDictionary
280
     1
281
     1
  3
ACAD_XREC_ROUNDTRIP
360
6E9
  0
DICTIONARY
  5
6F2
330
3CA
100
AcDbDictionary
280
     1
281
     1
  3
ACAD_XREC_ROUNDTRIP
360
6F3
  0
DICTIONARY
  5
6F6
330
3CC
100
AcDbDictionary
280
     1
281
     1
  3
ACAD_XREC_ROUNDTRIP
360
6F7
  0
DICTIONARY
  5
6F4
330
3CB
100
AcDbDictionary
280
     1
281
     1
  3
ACAD_XREC_ROUNDTRIP
360
6F5
  0
DICTIONARY
  5
6F8
330
3CD
100
AcDbDictionary
280
     1
281
     1
  3
ACAD_XREC_ROUNDTRIP
360
6F9
  0
DICTIONARY
  5
700
330
3D1
100
AcDbDictionary
280
     1
281
     1
  3
ACAD_XREC_ROUNDTRIP
360
701
  0
DICTIONARY
  5
708
330
3D5
100
AcDbDictionary
280
     1
281
     1
  3
ACAD_XREC_ROUNDTRIP
360
709
  0
DICTIONARY
  5
6FC
330
3CF
100
AcDbDictionary
280
     1
281
     1
  3
ACAD_XREC_ROUNDTRIP
360
6FD
  0
DICTIONARY
  5
6FE
330
3D0
100
AcDbDictionary
280
     1
281
     1
  3
ACAD_XREC_ROUNDTRIP
360
6FF
  0
DICTIONARY
  5
706
330
3D4
100
AcDbDictionary
280
     1
281
     1
  3
ACAD_XREC_ROUNDTRIP
360
707
  0
DICTIONARY
  5
6EA
330
3C6
100
AcDbDictionary
280
     1
281
     1
  3
ACAD_XREC_ROUNDTRIP
360
6EB
  0
DICTIONARY
  5
6EC
330
3C7
100
AcDbDictionary
280
     1
281
     1
  3
ACAD_XREC_ROUNDTRIP
360
6ED
  0
DICTIONARY
  5
6EE
330
3C8
100
AcDbDictionary
280
     1
281
     1
  3
ACAD_XREC_ROUNDTRIP
360
6EF
  0
DICTIONARY
  5
6F0
330
3C9
100
AcDbDictionary
280
     1
281
     1
  3
ACAD_XREC_ROUNDTRIP
360
6F1
  0
DICTIONARY
  5
704
330
3D3
100
AcDbDictionary
280
     1
281
     1
  3
ACAD_XREC_ROUNDTRIP
360
705
  0
DICTIONARY
  5
6FA
330
3CE
100
AcDbDictionary
280
     1
281
     1
  3
ACAD_XREC_ROUNDTRIP
360
6FB
  0
DICTIONARY
  5
702
330
3D2
100
AcDbDictionary
280
     1
281
     1
  3
ACAD_XREC_ROUNDTRIP
360
703
  0
XRECORD
  5
6E7
102
{ACAD_REACTORS
330
6E6
102
}
330
6E6
100
AcDbXrecord
280
     1
102
MATERIAL
148
0.0
149
0.0
149
0.0
 93
        0
 94
      127
282
     0
 72
     1
 77
     1
171
     1
175
     1
179
     1
273
     0
  0
XRECORD
  5
6E5
102
{ACAD_REACTORS
330
6E4
102
}
330
6E4
100
AcDbXrecord
280
     1
102
MATERIAL
148
0.0
149
0.0
149
0.0
 93
        0
 94
      127
282
     0
 72
     1
 77
     1
171
     1
175
     1
179
     1
273
     0
  0
XRECORD
  5
6E9
102
{ACAD_REACTORS
330
6E8
102
}
330
6E8
100
AcDbXrecord
280
     1
102
MATERIAL
148
0.0
149
0.0
149
0.0
 93
        0
 94
      127
282
     0
 72
     1
 77
     1
171
     1
175
     1
179
     1
273
     0
  0
XRECORD
  5
6F3
102
{ACAD_REACTORS
330
6F2
102
}
330
6F2
100
AcDbXrecord
280
     1
102
RTVSPropertyOp0
 70
     1
102
RTVSPropertyOp1
 70
     1
102
RTVSPropertyOp2
 70
     1
102
RTVSPropertyOp3
 70
     1
102
RTVSPropertyOp4
 70
     1
102
RTVSPropertyOp5
 70
     1
102
RTVSPropertyOp6
 70
     1
102
RTVSPropertyOp7
 70
     1
102
RTVSPropertyOp8
 70
     1
102
RTVSPropertyOp9
 70
     1
102
RTVSPropertyOp10
 70
     1
102
RTVSPropertyOp11
 70
     1
102
RTVSPropertyOp12
 70
     1
102
RTVSPropertyOp13
 70
     1
102
RTVSPropertyOp14
 70
     1
102
RTVSPropertyOp15
 70
     1
102
RTVSPropertyOp16
 70
     1
102
RTVSPropertyOp17
 70
     1
102
RTVSPropertyOp18
 70
     1
102
RTVSPropertyOp19
 70
     1
102
RTVSPropertyOp20
 70
     1
102
RTVSPropertyOp21
 70
     1
102
RTVSPropertyOp22
 70
     1
102
RTVSPropertyOp23
 70
     1
102
RTVSPropertyOp24
 70
     1
102
RTVSPropertyOp25
 70
     1
102
RTVSPropertyOp26
 70
     1
102
RTVSPropertyOp27
 70
     1
102
RTVSPropertyOp28
 70
     1
102
RTVSPropertyOp29
 70
     1
102
RTVSPropertyOp30
 70
     1
102
RTVSPropertyOp31
 70
     1
102
RTVSPropertyOp32
 70
     1
  0
XRECORD
  5
6F7
102
{ACAD_REACTORS
330
6F6
102
}
330
6F6
100
AcDbXrecord
280
     1
102
RTVSPropertyOp0
 70
     1
102
RTVSPropertyOp1
 70
     1
102
RTVSPropertyOp2
 70
     1
102
RTVSPropertyOp3
 70
     1
102
RTVSPropertyOp4
 70
     1
102
RTVSPropertyOp5
 70
     1
102
RTVSPropertyOp6
 70
     1
102
RTVSPropertyOp7
 70
     1
102
RTVSPropertyOp8
 70
     1
102
RTVSPropertyOp9
 70
     1
102
RTVSPropertyOp10
 70
     1
102
RTVSPropertyOp11
 70
     1
102
RTVSPropertyOp12
 70
     1
102
RTVSPropertyOp13
 70
     1
102
RTVSPropertyOp14
 70
     1
102
RTVSPropertyOp15
 70
     1
102
RTVSPropertyOp16
 70
     1
102
RTVSPropertyOp17
 70
     1
102
RTVSPropertyOp18
 70
     1
102
RTVSPropertyOp19
 70
     1
102
RTVSPropertyOp20
 70
     1
102
RTVSPropertyOp21
 70
     1
102
RTVSPropertyOp22
 70
     1
102
RTVSPropertyOp23
 70
     1
102
RTVSPropertyOp24
 70
     1
102
RTVSPropertyOp25
 70
     1
102
RTVSPropertyOp26
 70
     1
102
RTVSPropertyOp27
 70
     1
102
RTVSPropertyOp28
 70
     1
102
RTVSPropertyOp29
 70
     1
102
RTVSPropertyOp30
 70
     1
102
RTVSPropertyOp31
 70
     1
102
RTVSPropertyOp32
 70
     1
  0
XRECORD
  5
6F5
102
{ACAD_REACTORS
330
6F4
102
}
330
6F4
100
AcDbXrecord
280
     1
102
RTVSPropertyOp0
 70
     1
102
RTVSPropertyOp1
 70
     1
102
RTVSPropertyOp2
 70
     1
102
RTVSPropertyOp3
 70
     1
102
RTVSPropertyOp4
 70
     1
102
RTVSPropertyOp5
 70
     1
102
RTVSPropertyOp6
 70
     1
102
RTVSPropertyOp7
 70
     1
102
RTVSPropertyOp8
 70
     1
102
RTVSPropertyOp9
 70
     1
102
RTVSPropertyOp10
 70
     1
102
RTVSPropertyOp11
 70
     1
102
RTVSPropertyOp12
 70
     1
102
RTVSPropertyOp13
 70
     1
102
RTVSPropertyOp14
 70
     1
102
RTVSPropertyOp15
 70
     1
102
RTVSPropertyOp16
 70
     1
102
RTVSPropertyOp17
 70
     1
102
RTVSPropertyOp18
 70
     1
102
RTVSPropertyOp19
 70
     1
102
RTVSPropertyOp20
 70
     1
102
RTVSPropertyOp21
 70
     1
102
RTVSPropertyOp22
 70
     1
102
RTVSPropertyOp23
 70
     1
102
RTVSPropertyOp24
 70
     1
102
RTVSPropertyOp25
 70
     1
102
RTVSPropertyOp26
 70
     1
102
RTVSPropertyOp27
 70
     1
102
RTVSPropertyOp28
 70
     1
102
RTVSPropertyOp29
 70
     1
102
RTVSPropertyOp30
 70
     1
102
RTVSPropertyOp31
 70
     1
102
RTVSPropertyOp32
 70
     1
  0
XRECORD
  5
6F9
102
{ACAD_REACTORS
330
6F8
102
}
330
6F8
100
AcDbXrecord
280
     1
102
RTVSPropertyOp0
 70
     1
102
RTVSPropertyOp1
 70
     1
102
RTVSPropertyOp2
 70
     1
102
RTVSPropertyOp3
 70
     1
102
RTVSPropertyOp4
 70
     1
102
RTVSPropertyOp5
 70
     1
102
RTVSPropertyOp6
 70
     1
102
RTVSPropertyOp7
 70
     1
102
RTVSPropertyOp8
 70
     1
102
RTVSPropertyOp9
 70
     1
102
RTVSPropertyOp10
 70
     1
102
RTVSPropertyOp11
 70
     1
102
RTVSPropertyOp12
 70
     1
102
RTVSPropertyOp13
 70
     1
102
RTVSPropertyOp14
 70
     1
102
RTVSPropertyOp15
 70
     1
102
RTVSPropertyOp16
 70
     1
102
RTVSPropertyOp17
 70
     1
102
RTVSPropertyOp18
 70
     1
102
RTVSPropertyOp19
 70
     1
102
RTVSPropertyOp20
 70
     1
102
RTVSPropertyOp21
 70
     1
102
RTVSPropertyOp22
 70
     1
102
RTVSPropertyOp23
 70
     1
102
RTVSPropertyOp24
 70
     1
102
RTVSPropertyOp25
 70
     1
102
RTVSPropertyOp26
 70
     1
102
RTVSPropertyOp27
 70
     1
102
RTVSPropertyOp28
 70
     1
102
RTVSPropertyOp29
 70
     1
102
RTVSPropertyOp30
 70
     1
102
RTVSPropertyOp31
 70
     1
102
RTVSPropertyOp32
 70
     1
  0
XRECORD
  5
701
102
{ACAD_REACTORS
330
700
102
}
330
700
100
AcDbXrecord
280
     1
102
RTVSPropertyOp0
 70
     1
102
RTVSPropertyOp1
 70
     1
102
RTVSPropertyOp2
 70
     1
102
RTVSPropertyOp3
 70
     1
102
RTVSPropertyOp4
 70
     1
102
RTVSPropertyOp5
 70
     1
102
RTVSPropertyOp6
 70
     1
102
RTVSPropertyOp7
 70
     1
102
RTVSPropertyOp8
 70
     1
102
RTVSPropertyOp9
 70
     1
102
RTVSPropertyOp10
 70
     1
102
RTVSPropertyOp11
 70
     1
102
RTVSPropertyOp12
 70
     1
102
RTVSPropertyOp13
 70
     1
102
RTVSPropertyOp14
 70
     1
102
RTVSPropertyOp15
 70
     1
102
RTVSPropertyOp16
 70
     1
102
RTVSPropertyOp17
 70
     1
102
RTVSPropertyOp18
 70
     1
102
RTVSPropertyOp19
 70
     1
102
RTVSPropertyOp20
 70
     1
102
RTVSPropertyOp21
 70
     1
102
RTVSPropertyOp22
 70
     1
102
RTVSPropertyOp23
 70
     1
102
RTVSPropertyOp24
 70
     1
102
RTVSPropertyOp25
 70
     1
102
RTVSPropertyOp26
 70
     1
102
RTVSPropertyOp27
 70
     1
102
RTVSPropertyOp28
 70
     1
102
RTVSPropertyOp29
 70
     1
102
RTVSPropertyOp30
 70
     1
102
RTVSPropertyOp31
 70
     1
102
RTVSPropertyOp32
 70
     1
  0
XRECORD
  5
709
102
{ACAD_REACTORS
330
708
102
}
330
708
100
AcDbXrecord
280
     1
102
RTVSPropertyOp0
 70
     1
102
RTVSPropertyOp1
 70
     1
102
RTVSPropertyOp2
 70
     1
102
RTVSPropertyOp3
 70
     1
102
RTVSPropertyOp4
 70
     1
102
RTVSPropertyOp5
 70
     1
102
RTVSPropertyOp6
 70
     1
102
RTVSPropertyOp7
 70
     1
102
RTVSPropertyOp8
 70
     1
102
RTVSPropertyOp9
 70
     1
102
RTVSPropertyOp10
 70
     1
102
RTVSPropertyOp11
 70
     1
102
RTVSPropertyOp12
 70
     1
102
RTVSPropertyOp13
 70
     1
102
RTVSPropertyOp14
 70
     1
102
RTVSPropertyOp15
 70
     1
102
RTVSPropertyOp16
 70
     1
102
RTVSPropertyOp17
 70
     1
102
RTVSPropertyOp18
 70
     1
102
RTVSPropertyOp19
 70
     1
102
RTVSPropertyOp20
 70
     1
102
RTVSPropertyOp21
 70
     1
102
RTVSPropertyOp22
 70
     1
102
RTVSPropertyOp23
 70
     1
102
RTVSPropertyOp24
 70
     1
102
RTVSPropertyOp25
 70
     1
102
RTVSPropertyOp26
 70
     1
102
RTVSPropertyOp27
 70
     1
102
RTVSPropertyOp28
 70
     1
102
RTVSPropertyOp29
 70
     1
102
RTVSPropertyOp30
 70
     1
102
RTVSPropertyOp31
 70
     1
102
RTVSPropertyOp32
 70
     1
  0
XRECORD
  5
6FD
102
{ACAD_REACTORS
330
6FC
102
}
330
6FC
100
AcDbXrecord
280
     1
102
RTVSPropertyOp0
 70
     1
102
RTVSPropertyOp1
 70
     1
102
RTVSPropertyOp2
 70
     1
102
RTVSPropertyOp3
 70
     1
102
RTVSPropertyOp4
 70
     1
102
RTVSPropertyOp5
 70
     1
102
RTVSPropertyOp6
 70
     1
102
RTVSPropertyOp7
 70
     1
102
RTVSPropertyOp8
 70
     1
102
RTVSPropertyOp9
 70
     1
102
RTVSPropertyOp10
 70
     1
102
RTVSPropertyOp11
 70
     1
102
RTVSPropertyOp12
 70
     1
102
RTVSPropertyOp13
 70
     1
102
RTVSPropertyOp14
 70
     1
102
RTVSPropertyOp15
 70
     1
102
RTVSPropertyOp16
 70
     1
102
RTVSPropertyOp17
 70
     1
102
RTVSPropertyOp18
 70
     1
102
RTVSPropertyOp19
 70
     1
102
RTVSPropertyOp20
 70
     1
102
RTVSPropertyOp21
 70
     1
102
RTVSPropertyOp22
 70
     1
102
RTVSPropertyOp23
 70
     1
102
RTVSPropertyOp24
 70
     1
102
RTVSPropertyOp25
 70
     1
102
RTVSPropertyOp26
 70
     1
102
RTVSPropertyOp27
 70
     1
102
RTVSPropertyOp28
 70
     1
102
RTVSPropertyOp29
 70
     1
102
RTVSPropertyOp30
 70
     1
102
RTVSPropertyOp31
 70
     1
102
RTVSPropertyOp32
 70
     1
  0
XRECORD
  5
6FF
102
{ACAD_REACTORS
330
6FE
102
}
330
6FE
100
AcDbXrecord
280
     1
102
RTVSPropertyOp0
 70
     1
102
RTVSPropertyOp1
 70
     1
102
RTVSPropertyOp2
 70
     1
102
RTVSPropertyOp3
 70
     1
102
RTVSPropertyOp4
 70
     1
102
RTVSPropertyOp5
 70
     1
102
RTVSPropertyOp6
 70
     1
102
RTVSPropertyOp7
 70
     1
102
RTVSPropertyOp8
 70
     1
102
RTVSPropertyOp9
 70
     1
102
RTVSPropertyOp10
 70
     1
102
RTVSPropertyOp11
 70
     1
102
RTVSPropertyOp12
 70
     1
102
RTVSPropertyOp13
 70
     1
102
RTVSPropertyOp14
 70
     1
102
RTVSPropertyOp15
 70
     1
102
RTVSPropertyOp16
 70
     1
102
RTVSPropertyOp17
 70
     1
102
RTVSPropertyOp18
 70
     1
102
RTVSPropertyOp19
 70
     1
102
RTVSPropertyOp20
 70
     1
102
RTVSPropertyOp21
 70
     1
102
RTVSPropertyOp22
 70
     1
102
RTVSPropertyOp23
 70
     1
102
RTVSPropertyOp24
 70
     1
102
RTVSPropertyOp25
 70
     1
102
RTVSPropertyOp26
 70
     1
102
RTVSPropertyOp27
 70
     1
102
RTVSPropertyOp28
 70
     1
102
RTVSPropertyOp29
 70
     1
102
RTVSPropertyOp30
 70
     1
102
RTVSPropertyOp31
 70
     1
102
RTVSPropertyOp32
 70
     1
  0
XRECORD
  5
707
102
{ACAD_REACTORS
330
706
102
}
330
706
100
AcDbXrecord
280
     1
102
RTVSPropertyOp0
 70
     1
102
RTVSPropertyOp1
 70
     1
102
RTVSPropertyOp2
 70
     1
102
RTVSPropertyOp3
 70
     1
102
RTVSPropertyOp4
 70
     1
102
RTVSPropertyOp5
 70
     1
102
RTVSPropertyOp6
 70
     1
102
RTVSPropertyOp7
 70
     1
102
RTVSPropertyOp8
 70
     1
102
RTVSPropertyOp9
 70
     1
102
RTVSPropertyOp10
 70
     1
102
RTVSPropertyOp11
 70
     1
102
RTVSPropertyOp12
 70
     1
102
RTVSPropertyOp13
 70
     1
102
RTVSPropertyOp14
 70
     1
102
RTVSPropertyOp15
 70
     1
102
RTVSPropertyOp16
 70
     1
102
RTVSPropertyOp17
 70
     1
102
RTVSPropertyOp18
 70
     1
102
RTVSPropertyOp19
 70
     1
102
RTVSPropertyOp20
 70
     1
102
RTVSPropertyOp21
 70
     1
102
RTVSPropertyOp22
 70
     1
102
RTVSPropertyOp23
 70
     1
102
RTVSPropertyOp24
 70
     1
102
RTVSPropertyOp25
 70
     1
102
RTVSPropertyOp26
 70
     1
102
RTVSPropertyOp27
 70
     1
102
RTVSPropertyOp28
 70
     1
102
RTVSPropertyOp29
 70
     1
102
RTVSPropertyOp30
 70
     1
102
RTVSPropertyOp31
 70
     1
102
RTVSPropertyOp32
 70
     1
  0
XRECORD
  5
6EB
102
{ACAD_REACTORS
330
6EA
102
}
330
6EA
100
AcDbXrecord
280
     1
102
RTVSPropertyOp0
 70
     1
102
RTVSPropertyOp1
 70
     1
102
RTVSPropertyOp2
 70
     1
102
RTVSPropertyOp3
 70
     1
102
RTVSPropertyOp4
 70
     1
102
RTVSPropertyOp5
 70
     1
102
RTVSPropertyOp6
 70
     1
102
RTVSPropertyOp7
 70
     1
102
RTVSPropertyOp8
 70
     1
102
RTVSPropertyOp9
 70
     1
102
RTVSPropertyOp10
 70
     1
102
RTVSPropertyOp11
 70
     1
102
RTVSPropertyOp12
 70
     1
102
RTVSPropertyOp13
 70
     1
102
RTVSPropertyOp14
 70
     1
102
RTVSPropertyOp15
 70
     1
102
RTVSPropertyOp16
 70
     1
102
RTVSPropertyOp17
 70
     1
102
RTVSPropertyOp18
 70
     1
102
RTVSPropertyOp19
 70
     1
102
RTVSPropertyOp20
 70
     1
102
RTVSPropertyOp21
 70
     1
102
RTVSPropertyOp22
 70
     1
102
RTVSPropertyOp23
 70
     1
102
RTVSPropertyOp24
 70
     1
102
RTVSPropertyOp25
 70
     1
102
RTVSPropertyOp26
 70
     1
102
RTVSPropertyOp27
 70
     1
102
RTVSPropertyOp28
 70
     1
102
RTVSPropertyOp29
 70
     1
102
RTVSPropertyOp30
 70
     1
102
RTVSPropertyOp31
 70
     1
102
RTVSPropertyOp32
 70
     1
  0
XRECORD
  5
6ED
102
{ACAD_REACTORS
330
6EC
102
}
330
6EC
100
AcDbXrecord
280
     1
102
RTVSPropertyOp0
 70
     1
102
RTVSPropertyOp1
 70
     1
102
RTVSPropertyOp2
 70
     1
102
RTVSPropertyOp3
 70
     1
102
RTVSPropertyOp4
 70
     1
102
RTVSPropertyOp5
 70
     1
102
RTVSPropertyOp6
 70
     1
102
RTVSPropertyOp7
 70
     1
102
RTVSPropertyOp8
 70
     1
102
RTVSPropertyOp9
 70
     1
102
RTVSPropertyOp10
 70
     1
102
RTVSPropertyOp11
 70
     1
102
RTVSPropertyOp12
 70
     1
102
RTVSPropertyOp13
 70
     1
102
RTVSPropertyOp14
 70
     1
102
RTVSPropertyOp15
 70
     1
102
RTVSPropertyOp16
 70
     1
102
RTVSPropertyOp17
 70
     1
102
RTVSPropertyOp18
 70
     1
102
RTVSPropertyOp19
 70
     1
102
RTVSPropertyOp20
 70
     1
102
RTVSPropertyOp21
 70
     1
102
RTVSPropertyOp22
 70
     1
102
RTVSPropertyOp23
 70
     1
102
RTVSPropertyOp24
 70
     1
102
RTVSPropertyOp25
 70
     1
102
RTVSPropertyOp26
 70
     1
102
RTVSPropertyOp27
 70
     1
102
RTVSPropertyOp28
 70
     1
102
RTVSPropertyOp29
 70
     1
102
RTVSPropertyOp30
 70
     1
102
RTVSPropertyOp31
 70
     1
102
RTVSPropertyOp32
 70
     1
  0
XRECORD
  5
6EF
102
{ACAD_REACTORS
330
6EE
102
}
330
6EE
100
AcDbXrecord
280
     1
102
RTVSPropertyOp0
 70
     1
102
RTVSPropertyOp1
 70
     1
102
RTVSPropertyOp2
 70
     1
102
RTVSPropertyOp3
 70
     1
102
RTVSPropertyOp4
 70
     1
102
RTVSPropertyOp5
 70
     1
102
RTVSPropertyOp6
 70
     1
102
RTVSPropertyOp7
 70
     1
102
RTVSPropertyOp8
 70
     1
102
RTVSPropertyOp9
 70
     1
102
RTVSPropertyOp10
 70
     1
102
RTVSPropertyOp11
 70
     1
102
RTVSPropertyOp12
 70
     1
102
RTVSPropertyOp13
 70
     1
102
RTVSPropertyOp14
 70
     1
102
RTVSPropertyOp15
 70
     1
102
RTVSPropertyOp16
 70
     1
102
RTVSPropertyOp17
 70
     1
102
RTVSPropertyOp18
 70
     1
102
RTVSPropertyOp19
 70
     1
102
RTVSPropertyOp20
 70
     1
102
RTVSPropertyOp21
 70
     1
102
RTVSPropertyOp22
 70
     1
102
RTVSPropertyOp23
 70
     1
102
RTVSPropertyOp24
 70
     1
102
RTVSPropertyOp25
 70
     1
102
RTVSPropertyOp26
 70
     1
102
RTVSPropertyOp27
 70
     1
102
RTVSPropertyOp28
 70
     1
102
RTVSPropertyOp29
 70
     1
102
RTVSPropertyOp30
 70
     1
102
RTVSPropertyOp31
 70
     1
102
RTVSPropertyOp32
 70
     1
  0
XRECORD
  5
6F1
102
{ACAD_REACTORS
330
6F0
102
}
330
6F0
100
AcDbXrecord
280
     1
102
RTVSPropertyOp0
 70
     1
102
RTVSPropertyOp1
 70
     1
102
RTVSPropertyOp2
 70
     1
102
RTVSPropertyOp3
 70
     1
102
RTVSPropertyOp4
 70
     1
102
RTVSPropertyOp5
 70
     1
102
RTVSPropertyOp6
 70
     1
102
RTVSPropertyOp7
 70
     1
102
RTVSPropertyOp8
 70
     1
102
RTVSPropertyOp9
 70
     1
102
RTVSPropertyOp10
 70
     1
102
RTVSPropertyOp11
 70
     1
102
RTVSPropertyOp12
 70
     1
102
RTVSPropertyOp13
 70
     1
102
RTVSPropertyOp14
 70
     1
102
RTVSPropertyOp15
 70
     1
102
RTVSPropertyOp16
 70
     1
102
RTVSPropertyOp17
 70
     1
102
RTVSPropertyOp18
 70
     1
102
RTVSPropertyOp19
 70
     1
102
RTVSPropertyOp20
 70
     1
102
RTVSPropertyOp21
 70
     1
102
RTVSPropertyOp22
 70
     1
102
RTVSPropertyOp23
 70
     1
102
RTVSPropertyOp24
 70
     1
102
RTVSPropertyOp25
 70
     1
102
RTVSPropertyOp26
 70
     1
102
RTVSPropertyOp27
 70
     1
102
RTVSPropertyOp28
 70
     1
102
RTVSPropertyOp29
 70
     1
102
RTVSPropertyOp30
 70
     1
102
RTVSPropertyOp31
 70
     1
102
RTVSPropertyOp32
 70
     1
  0
XRECORD
  5
705
102
{ACAD_REACTORS
330
704
102
}
330
704
100
AcDbXrecord
280
     1
102
RTVSPropertyOp0
 70
     1
102
RTVSPropertyOp1
 70
     1
102
RTVSPropertyOp2
 70
     1
102
RTVSPropertyOp3
 70
     1
102
RTVSPropertyOp4
 70
     1
102
RTVSPropertyOp5
 70
     1
102
RTVSPropertyOp6
 70
     1
102
RTVSPropertyOp7
 70
     1
102
RTVSPropertyOp8
 70
     1
102
RTVSPropertyOp9
 70
     1
102
RTVSPropertyOp10
 70
     1
102
RTVSPropertyOp11
 70
     1
102
RTVSPropertyOp12
 70
     1
102
RTVSPropertyOp13
 70
     1
102
RTVSPropertyOp14
 70
     1
102
RTVSPropertyOp15
 70
     1
102
RTVSPropertyOp16
 70
     1
102
RTVSPropertyOp17
 70
     1
102
RTVSPropertyOp18
 70
     1
102
RTVSPropertyOp19
 70
     1
102
RTVSPropertyOp20
 70
     1
102
RTVSPropertyOp21
 70
     1
102
RTVSPropertyOp22
 70
     1
102
RTVSPropertyOp23
 70
     1
102
RTVSPropertyOp24
 70
     1
102
RTVSPropertyOp25
 70
     1
102
RTVSPropertyOp26
 70
     1
102
RTVSPropertyOp27
 70
     1
102
RTVSPropertyOp28
 70
     1
102
RTVSPropertyOp29
 70
     1
102
RTVSPropertyOp30
 70
     1
102
RTVSPropertyOp31
 70
     1
102
RTVSPropertyOp32
 70
     1
  0
XRECORD
  5
6FB
102
{ACAD_REACTORS
330
6FA
102
}
330
6FA
100
AcDbXrecord
280
     1
102
RTVSPropertyOp0
 70
     1
102
RTVSPropertyOp1
 70
     1
102
RTVSPropertyOp2
 70
     1
102
RTVSPropertyOp3
 70
     1
102
RTVSPropertyOp4
 70
     1
102
RTVSPropertyOp5
 70
     1
102
RTVSPropertyOp6
 70
     1
102
RTVSPropertyOp7
 70
     1
102
RTVSPropertyOp8
 70
     1
102
RTVSPropertyOp9
 70
     1
102
RTVSPropertyOp10
 70
     1
102
RTVSPropertyOp11
 70
     1
102
RTVSPropertyOp12
 70
     1
102
RTVSPropertyOp13
 70
     1
102
RTVSPropertyOp14
 70
     1
102
RTVSPropertyOp15
 70
     1
102
RTVSPropertyOp16
 70
     1
102
RTVSPropertyOp17
 70
     1
102
RTVSPropertyOp18
 70
     1
102
RTVSPropertyOp19
 70
     1
102
RTVSPropertyOp20
 70
     1
102
RTVSPropertyOp21
 70
     1
102
RTVSPropertyOp22
 70
     1
102
RTVSPropertyOp23
 70
     1
102
RTVSPropertyOp24
 70
     1
102
RTVSPropertyOp25
 70
     1
102
RTVSPropertyOp26
 70
     1
102
RTVSPropertyOp27
 70
     1
102
RTVSPropertyOp28
 70
     1
102
RTVSPropertyOp29
 70
     1
102
RTVSPropertyOp30
 70
     1
102
RTVSPropertyOp31
 70
     1
102
RTVSPropertyOp32
 70
     1
  0
XRECORD
  5
703
102
{ACAD_REACTORS
330
702
102
}
330
702
100
AcDbXrecord
280
     1
102
RTVSPropertyOp0
 70
     1
102
RTVSPropertyOp1
 70
     1
102
RTVSPropertyOp2
 70
     1
102
RTVSPropertyOp3
 70
     1
102
RTVSPropertyOp4
 70
     1
102
RTVSPropertyOp5
 70
     1
102
RTVSPropertyOp6
 70
     1
102
RTVSPropertyOp7
 70
     1
102
RTVSPropertyOp8
 70
     1
102
RTVSPropertyOp9
 70
     1
102
RTVSPropertyOp10
 70
     1
102
RTVSPropertyOp11
 70
     1
102
RTVSPropertyOp12
 70
     1
102
RTVSPropertyOp13
 70
     1
102
RTVSPropertyOp14
 70
     1
102
RTVSPropertyOp15
 70
     1
102
RTVSPropertyOp16
 70
     1
102
RTVSPropertyOp17
 70
     1
102
RTVSPropertyOp18
 70
     1
102
RTVSPropertyOp19
 70
     1
102
RTVSPropertyOp20
 70
     1
102
RTVSPropertyOp21
 70
     1
102
RTVSPropertyOp22
 70
     1
102
RTVSPropertyOp23
 70
     1
102
RTVSPropertyOp24
 70
     1
102
RTVSPropertyOp25
 70
     1
102
RTVSPropertyOp26
 70
     1
102
RTVSPropertyOp27
 70
     1
102
RTVSPropertyOp28
 70
     1
102
RTVSPropertyOp29
 70
     1
102
RTVSPropertyOp30
 70
     1
102
RTVSPropertyOp31
 70
     1
102
RTVSPropertyOp32
 70
     1
  0
ENDSEC
  0
EOF
