  0
SECTION
  2
HEADER
  9
$ACADVER
  1
AC1015
  9
$ACADMAINTVER
 70
     6
  9
$DWGCODEPAGE
  3
ANSI_1252
  9
$INSBASE
 10
0.0
 20
0.0
 30
0.0
  9
$EXTMIN
 10
1.000000000000000E+20
 20
1.000000000000000E+20
 30
1.000000000000000E+20
  9
$EXTMAX
 10
-1.000000000000000E+20
 20
-1.000000000000000E+20
 30
-1.000000000000000E+20
  9
$LIMMIN
 10
-170.0
 20
-170.0
  9
$LIMMAX
 10
519.0
 20
260.0
  9
$ORTHOMODE
 70
     0
  9
$REGENMODE
 70
     1
  9
$FILLMODE
 70
     1
  9
$QTEXTMODE
 70
     0
  9
$MIRRTEXT
 70
     0
  9
$LTSCALE
 40
1.0
  9
$ATTMODE
 70
     1
  9
$TEXTSIZE
 40
3.5
  9
$TRACEWID
 40
1.0
  9
$TEXTSTYLE
  7
SIMPLEX
  9
$CLAYER
  8
1
  9
$CELTYPE
  6
BYLAYER
  9
$CECOLOR
 62
   256
  9
$CELTSCALE
 40
1.0
  9
$DISPSILH
 70
     0
  9
$DIMSCALE
 40
1.0
  9
$DIMASZ
 40
2.5
  9
$DIMEXO
 40
0.0
  9
$DIMDLI
 40
3.75
  9
$DIMRND
 40
0.0
  9
$DIMDLE
 40
0.0
  9
$DIMEXE
 40
1.25
  9
$DIMTP
 40
0.0
  9
$DIMTM
 40
0.0
  9
$DIMTXT
 40
3.5
  9
$DIMCEN
 40
0.0
  9
$DIMTSZ
 40
0.0
  9
$DIMTOL
 70
     0
  9
$DIMLIM
 70
     0
  9
$DIMTIH
 70
     0
  9
$DIMTOH
 70
     0
  9
$DIMSE1
 70
     0
  9
$DIMSE2
 70
     0
  9
$DIMTAD
 70
     1
  9
$DIMZIN
 70
     8
  9
$DIMBLK
  1

  9
$DIMASO
 70
     1
  9
$DIMSHO
 70
     1
  9
$DIMPOST
  1

  9
$DIMAPOST
  1

  9
$DIMALT
 70
     0
  9
$DIMALTD
 70
     3
  9
$DIMALTF
 40
0.039370078
  9
$DIMLFAC
 40
1.0
  9
$DIMTOFL
 70
     0
  9
$DIMTVP
 40
0.0
  9
$DIMTIX
 70
     0
  9
$DIMSOXD
 70
     0
  9
$DIMSAH
 70
     0
  9
$DIMBLK1
  1

  9
$DIMBLK2
  1

  9
$DIMSTYLE
  2
STANDARD
  9
$DIMCLRD
 70
     0
  9
$DIMCLRE
 70
     0
  9
$DIMCLRT
 70
     0
  9
$DIMTFAC
 40
1.0
  9
$DIMGAP
 40
0.625
  9
$DIMJUST
 70
     0
  9
$DIMSD1
 70
     0
  9
$DIMSD2
 70
     0
  9
$DIMTOLJ
 70
     0
  9
$DIMTZIN
 70
     8
  9
$DIMALTZ
 70
     0
  9
$DIMALTTZ
 70
     0
  9
$DIMUPT
 70
     0
  9
$DIMDEC
 70
     2
  9
$DIMTDEC
 70
     2
  9
$DIMALTU
 70
     2
  9
$DIMALTTD
 70
     3
  9
$DIMTXSTY
  7
SIMPLEX
  9
$DIMAUNIT
 70
     0
  9
$DIMADEC
 70
     2
  9
$DIMALTRND
 40
0.0
  9
$DIMAZIN
 70
     2
  9
$DIMDSEP
 70
    46
  9
$DIMATFIT
 70
     3
  9
$DIMFRAC
 70
     0
  9
$DIMLDRBLK
  1

  9
$DIMLUNIT
 70
     2
  9
$DIMLWD
 70
    -2
  9
$DIMLWE
 70
    -2
  9
$DIMTMOVE
 70
     0
  9
$LUNITS
 70
     2
  9
$LUPREC
 70
     4
  9
$SKETCHINC
 40
1.0
  9
$FILLETRAD
 40
0.0
  9
$AUNITS
 70
     0
  9
$AUPREC
 70
     0
  9
$MENU
  1
c:\tdm21\cad\caduti13\tdm13
  9
$ELEVATION
 40
0.0
  9
$PELEVATION
 40
0.0
  9
$THICKNESS
 40
0.0
  9
$LIMCHECK
 70
     0
  9
$CHAMFERA
 40
0.0
  9
$CHAMFERB
 40
0.0
  9
$CHAMFERC
 40
0.0
  9
$CHAMFERD
 40
0.0
  9
$SKPOLY
 70
     0
  9
$TDCREATE
 40
2454957.593642639
  9
$TDUCREATE
 40
2454957.510309306
  9
$TDUPDATE
 40
2456861.400994757
  9
$TDUUPDATE
 40
2456861.317661424
  9
$TDINDWG
 40
0.0009643519
  9
$TDUSRTIMER
 40
0.0009475231
  9
$USRTIMER
 70
     1
  9
$ANGBASE
 50
0.0
  9
$ANGDIR
 70
     0
  9
$PDMODE
 70
     1
  9
$PDSIZE
 40
0.0
  9
$PLINEWID
 40
0.0
  9
$SPLFRAME
 70
     0
  9
$SPLINETYPE
 70
     6
  9
$SPLINESEGS
 70
     8
  9
$HANDSEED
  5
6B4
  9
$SURFTAB1
 70
     6
  9
$SURFTAB2
 70
     6
  9
$SURFTYPE
 70
     6
  9
$SURFU
 70
     6
  9
$SURFV
 70
     6
  9
$UCSBASE
  2

  9
$UCSNAME
  2

  9
$UCSORG
 10
0.0
 20
0.0
 30
0.0
  9
$UCSXDIR
 10
1.0
 20
0.0
 30
0.0
  9
$UCSYDIR
 10
0.0
 20
1.0
 30
0.0
  9
$UCSORTHOREF
  2

  9
$UCSORTHOVIEW
 70
     0
  9
$UCSORGTOP
 10
0.0
 20
0.0
 30
0.0
  9
$UCSORGBOTTOM
 10
0.0
 20
0.0
 30
0.0
  9
$UCSORGLEFT
 10
0.0
 20
0.0
 30
0.0
  9
$UCSORGRIGHT
 10
0.0
 20
0.0
 30
0.0
  9
$UCSORGFRONT
 10
0.0
 20
0.0
 30
0.0
  9
$UCSORGBACK
 10
0.0
 20
0.0
 30
0.0
  9
$PUCSBASE
  2

  9
$PUCSNAME
  2

  9
$PUCSORG
 10
0.0
 20
0.0
 30
0.0
  9
$PUCSXDIR
 10
1.0
 20
0.0
 30
0.0
  9
$PUCSYDIR
 10
0.0
 20
1.0
 30
0.0
  9
$PUCSORTHOREF
  2

  9
$PUCSORTHOVIEW
 70
     0
  9
$PUCSORGTOP
 10
0.0
 20
0.0
 30
0.0
  9
$PUCSORGBOTTOM
 10
0.0
 20
0.0
 30
0.0
  9
$PUCSORGLEFT
 10
0.0
 20
0.0
 30
0.0
  9
$PUCSORGRIGHT
 10
0.0
 20
0.0
 30
0.0
  9
$PUCSORGFRONT
 10
0.0
 20
0.0
 30
0.0
  9
$PUCSORGBACK
 10
0.0
 20
0.0
 30
0.0
  9
$USERI1
 70
     0
  9
$USERI2
 70
     0
  9
$USERI3
 70
     0
  9
$USERI4
 70
     0
  9
$USERI5
 70
     0
  9
$USERR1
 40
0.0
  9
$USERR2
 40
0.0
  9
$USERR3
 40
0.0
  9
$USERR4
 40
0.0
  9
$USERR5
 40
0.0
  9
$WORLDVIEW
 70
     1
  9
$SHADEDGE
 70
     3
  9
$SHADEDIF
 70
    70
  9
$TILEMODE
 70
     1
  9
$MAXACTVP
 70
    64
  9
$PINSBASE
 10
0.0
 20
0.0
 30
0.0
  9
$PLIMCHECK
 70
     0
  9
$PEXTMIN
 10
0.0
 20
0.0
 30
0.0
  9
$PEXTMAX
 10
0.0
 20
0.0
 30
0.0
  9
$PLIMMIN
 10
0.0
 20
0.0
  9
$PLIMMAX
 10
12.0
 20
9.0
  9
$UNITMODE
 70
     0
  9
$VISRETAIN
 70
     0
  9
$PLINEGEN
 70
     0
  9
$PSLTSCALE
 70
     1
  9
$TREEDEPTH
 70
  3020
  9
$CMLSTYLE
  2
STANDARD
  9
$CMLJUST
 70
     0
  9
$CMLSCALE
 40
20.0
  9
$PROXYGRAPHICS
 70
     1
  9
$MEASUREMENT
 70
     1
  9
$CELWEIGHT
370
    -1
  9
$ENDCAPS
280
     0
  9
$JOINSTYLE
280
     0
  9
$LWDISPLAY
290
     0
  9
$INSUNITS
 70
     4
  9
$HYPERLINKBASE
  1

  9
$STYLESHEET
  1
MONOCHROME.CTB
  9
$XEDIT
290
     1
  9
$CEPSNTYPE
380
     0
  9
$PSTYLEMODE
290
     1
  9
$FINGERPRINTGUID
  2
{46B44192-1510-48B1-B61B-CBE2ADA013A7}
  9
$VERSIONGUID
  2
{6160D478-9A74-4C97-9D8A-D4A65CE74B12}
  9
$EXTNAMES
290
     1
  9
$PSVPSCALE
 40
0.0
  9
$OLESTARTUP
290
     0
  0
ENDSEC
  0
SECTION
  2
CLASSES
  0
CLASS
  1
ACDBDICTIONARYWDFLT
  2
AcDbDictionaryWithDefault
  3
ObjectDBX Classes
 90
        0
280
     0
281
     0
  0
CLASS
  1
ACDBPLACEHOLDER
  2
AcDbPlaceHolder
  3
ObjectDBX Classes
 90
        0
280
     0
281
     0
  0
CLASS
  1
LAYOUT
  2
AcDbLayout
  3
ObjectDBX Classes
 90
        0
280
     0
281
     0
  0
CLASS
  1
DICTIONARYVAR
  2
AcDbDictionaryVar
  3
ObjectDBX Classes
 90
        0
280
     0
281
     0
  0
CLASS
  1
TABLESTYLE
  2
AcDbTableStyle
  3
ObjectDBX Classes
 90
     4095
280
     0
281
     0
  0
CLASS
  1
SCALE
  2
AcDbScale
  3
ObjectDBX Classes
 90
     1153
280
     0
281
     0
  0
CLASS
  1
MATERIAL
  2
AcDbMaterial
  3
ObjectDBX Classes
 90
     1153
280
     0
281
     0
  0
CLASS
  1
VISUALSTYLE
  2
AcDbVisualStyle
  3
ObjectDBX Classes
 90
     4095
280
     0
281
     0
  0
ENDSEC
  0
SECTION
  2
TABLES
  0
TABLE
  2
VPORT
  5
8
330
0
100
AcDbSymbolTable
 70
     1
  0
VPORT
  5
39A
330
8
100
AcDbSymbolTableRecord
100
AcDbViewportTableRecord
  2
*Active
 70
     0
 10
0.0
 20
0.0
 11
1.0
 21
1.0
 12
218.9201881351169
 22
109.7549380673833
 13
0.0
 23
0.0
 14
5.0
 24
5.0
 15
5.0
 25
5.0
 16
0.0
 26
0.0
 36
1.0
 17
0.0
 27
0.0
 37
0.0
 40
564.6711112651689
 41
1.066073697585768
 42
50.0
 43
0.0
 44
0.0
 50
0.0
 51
0.0
 71
     0
 72
  2000
 73
     1
 74
     1
 75
     0
 76
     0
 77
     0
 78
     0
281
     0
 65
     1
110
0.0
120
0.0
130
0.0
111
1.0
121
0.0
131
0.0
112
0.0
122
1.0
132
0.0
 79
     0
146
0.0
  0
ENDTAB
  0
TABLE
  2
LTYPE
  5
5
330
0
100
AcDbSymbolTable
 70
     3
  0
LTYPE
  5
12
330
5
100
AcDbSymbolTableRecord
100
AcDbLinetypeTableRecord
  2
BYBLOCK
 70
     0
  3

 72
    65
 73
     0
 40
0.0
  0
LTYPE
  5
13
330
5
100
AcDbSymbolTableRecord
100
AcDbLinetypeTableRecord
  2
BYLAYER
 70
     0
  3

 72
    65
 73
     0
 40
0.0
  0
LTYPE
  5
14
330
5
100
AcDbSymbolTableRecord
100
AcDbLinetypeTableRecord
  2
CONTINUOUS
 70
     0
  3
Solid line
 72
    65
 73
     0
 40
0.0
  0
LTYPE
  5
20
330
5
100
AcDbSymbolTableRecord
100
AcDbLinetypeTableRecord
  2
HIDDEN
 70
     0
  3
Hidden __ __ __ __ __ __ __ __ __ __ __ __ __ _
 72
    65
 73
     2
 40
9.524999999999997
 49
6.349999999999998
 74
     0
 49
-3.174999999999998
 74
     0
  0
LTYPE
  5
351
330
5
100
AcDbSymbolTableRecord
100
AcDbLinetypeTableRecord
  2
CENTER
 70
     0
  3
Dash dot __ . __ . __ . __ . __ . __ . __ . __
 72
    65
 73
     4
 40
25.4
 49
12.7
 74
     0
 49
-6.349999999999998
 74
     0
 49
0.0
 74
     0
 49
-6.349999999999998
 74
     0
  0
ENDTAB
  0
TABLE
  2
LAYER
  5
2
330
0
100
AcDbSymbolTable
 70
    16
  0
LAYER
  5
F
330
2
100
AcDbSymbolTableRecord
100
AcDbLayerTableRecord
  2
0
 70
     0
 62
     7
  6
CONTINUOUS
370
    -3
390
300
  0
LAYER
  5
23
330
2
100
AcDbSymbolTableRecord
100
AcDbLayerTableRecord
  2
1
 70
     0
 62
     4
  6
CONTINUOUS
370
    -3
390
300
  0
LAYER
  5
24
330
2
100
AcDbSymbolTableRecord
100
AcDbLayerTableRecord
  2
SK1
 70
     0
 62
     4
  6
CONTINUOUS
370
    -3
390
300
  0
LAYER
  5
25
330
2
100
AcDbSymbolTableRecord
100
AcDbLayerTableRecord
  2
2
 70
     0
 62
     7
  6
CONTINUOUS
370
    -3
390
300
  0
LAYER
  5
26
330
2
100
AcDbSymbolTableRecord
100
AcDbLayerTableRecord
  2
2L
 70
     0
 62
     7
  6
CONTINUOUS
370
    -3
390
300
  0
LAYER
  5
27
330
2
100
AcDbSymbolTableRecord
100
AcDbLayerTableRecord
  2
SK2
 70
     0
 62
     7
  6
CONTINUOUS
370
    -3
390
300
  0
LAYER
  5
28
330
2
100
AcDbSymbolTableRecord
100
AcDbLayerTableRecord
  2
3
 70
     0
 62
     1
  6
HIDDEN
370
    -3
390
300
  0
LAYER
  5
29
330
2
100
AcDbSymbolTableRecord
100
AcDbLayerTableRecord
  2
SK3
 70
     0
 62
     1
  6
HIDDEN
370
    -3
390
300
  0
LAYER
  5
2A
330
2
100
AcDbSymbolTableRecord
100
AcDbLayerTableRecord
  2
4
 70
     0
 62
     2
  6
CENTER
370
    -3
390
300
  0
LAYER
  5
2B
330
2
100
AcDbSymbolTableRecord
100
AcDbLayerTableRecord
  2
SK4
 70
     0
 62
     2
  6
CENTER
370
    -3
390
300
  0
LAYER
  5
2C
330
2
100
AcDbSymbolTableRecord
100
AcDbLayerTableRecord
  2
5
 70
     0
 62
    -7
  6
CONTINUOUS
370
    -3
390
300
  0
LAYER
  5
2D
330
2
100
AcDbSymbolTableRecord
100
AcDbLayerTableRecord
  2
6
 70
     0
 62
     5
  6
CONTINUOUS
370
    -3
390
300
  0
LAYER
  5
2E
330
2
100
AcDbSymbolTableRecord
100
AcDbLayerTableRecord
  2
SK6
 70
     0
 62
     5
  6
CONTINUOUS
370
    -3
390
300
  0
LAYER
  5
2F
330
2
100
AcDbSymbolTableRecord
100
AcDbLayerTableRecord
  2
DEFPOINTS
 70
     0
 62
     7
  6
CONTINUOUS
290
     0
370
    -3
390
300
  0
LAYER
  5
375
330
2
100
AcDbSymbolTableRecord
100
AcDbLayerTableRecord
  2
CUT
 70
     0
 62
     1
  6
CONTINUOUS
370
    -3
390
300
  0
LAYER
  5
376
330
2
100
AcDbSymbolTableRecord
100
AcDbLayerTableRecord
  2
NOCUT
 70
     0
 62
     7
  6
CONTINUOUS
370
    -3
390
300
  0
ENDTAB
  0
TABLE
  2
STYLE
  5
3
330
0
100
AcDbSymbolTable
 70
     4
  0
STYLE
  5
10
330
3
100
AcDbSymbolTableRecord
100
AcDbTextStyleTableRecord
  2
STANDARD
 70
     0
 40
0.0
 41
1.0
 50
0.0
 71
     0
 42
5.0
  3
txt
  4

  0
STYLE
  5
1D
330
3
100
AcDbSymbolTableRecord
100
AcDbTextStyleTableRecord
  2
TXT
 70
     0
 40
8.0
 41
1.0
 50
0.0
 71
     0
 42
8.0
  3
txt
  4

  0
STYLE
  5
1E
330
3
100
AcDbSymbolTableRecord
100
AcDbTextStyleTableRecord
  2
SIMPLEX
 70
     0
 40
0.0
 41
1.0
 50
0.0
 71
     0
 42
3.5
  3
simplex
  4

  0
STYLE
  5
34C
330
3
100
AcDbSymbolTableRecord
100
AcDbTextStyleTableRecord
  2

 70
     1
 40
0.0
 41
1.0
 50
0.0
 71
     0
 42
2.5
  3
ltypeshp.shx
  4

  0
ENDTAB
  0
TABLE
  2
VIEW
  5
6
330
0
100
AcDbSymbolTable
 70
     0
  0
ENDTAB
  0
TABLE
  2
UCS
  5
7
330
0
100
AcDbSymbolTable
 70
     0
  0
ENDTAB
  0
TABLE
  2
APPID
  5
9
330
0
100
AcDbSymbolTable
 70
     1
  0
APPID
  5
11
330
9
100
AcDbSymbolTableRecord
100
AcDbRegAppTableRecord
  2
ACAD
 70
     0
  0
ENDTAB
  0
TABLE
  2
DIMSTYLE
  5
A
330
0
100
AcDbSymbolTable
 70
     1
100
AcDbDimStyleTable
  0
DIMSTYLE
105
3F
102
{ACAD_REACTORS
330
646
330
654
330
661
330
66F
330
67C
102
}
330
A
100
AcDbSymbolTableRecord
100
AcDbDimStyleTableRecord
  2
STANDARD
 70
     0
 41
2.5
 42
0.0
 43
3.75
 44
1.25
 73
     0
 74
     0
 77
     1
 78
     8
 79
     2
140
3.5
141
0.0
143
0.039370078
147
0.625
171
     3
178
     0
179
     2
271
     2
272
     2
274
     3
283
     0
284
     8
340
1E
  0
ENDTAB
  0
TABLE
  2
BLOCK_RECORD
  5
1
330
0
100
AcDbSymbolTable
 70
     5
  0
BLOCK_RECORD
  5
18
330
1
100
AcDbSymbolTableRecord
100
AcDbBlockTableRecord
  2
*MODEL_SPACE
340
303
  0
BLOCK_RECORD
  5
338
330
1
100
AcDbSymbolTableRecord
100
AcDbBlockTableRecord
  2
*Paper_Space
340
33B
  0
BLOCK_RECORD
  5
647
330
1
100
AcDbSymbolTableRecord
100
AcDbBlockTableRecord
  2
*D0
340
0
  0
BLOCK_RECORD
  5
655
330
1
100
AcDbSymbolTableRecord
100
AcDbBlockTableRecord
  2
*D1
340
0
  0
BLOCK_RECORD
  5
662
330
1
100
AcDbSymbolTableRecord
100
AcDbBlockTableRecord
  2
*D2
340
0
  0
BLOCK_RECORD
  5
670
330
1
100
AcDbSymbolTableRecord
100
AcDbBlockTableRecord
  2
*D3
340
0
  0
BLOCK_RECORD
  5
67D
330
1
100
AcDbSymbolTableRecord
100
AcDbBlockTableRecord
  2
*D4
340
0
  0
ENDTAB
  0
ENDSEC
  0
SECTION
  2
BLOCKS
  0
BLOCK
  5
32
330
18
100
AcDbEntity
  8
0
100
AcDbBlockBegin
  2
*MODEL_SPACE
 70
     0
 10
0.0
 20
0.0
 30
0.0
  3
*MODEL_SPACE
  1

  0
ENDBLK
  5
33
330
18
100
AcDbEntity
  8
0
100
AcDbBlockEnd
  0
BLOCK
  5
339
330
338
100
AcDbEntity
 67
     1
  8
0
100
AcDbBlockBegin
  2
*Paper_Space
 70
     0
 10
0.0
 20
0.0
 30
0.0
  3
*Paper_Space
  1

  0
ENDBLK
  5
33A
330
338
100
AcDbEntity
 67
     1
  8
0
100
AcDbBlockEnd
  0
BLOCK
  5
648
330
647
100
AcDbEntity
  8
0
100
AcDbBlockBegin
  2
*D0
 70
     1
 10
0.0
 20
0.0
 30
0.0
  3
*D0
  1

  0
LINE
  5
64A
330
647
100
AcDbEntity
  8
2
 62
     0
370
    -2
100
AcDbLine
 10
72.7
 20
5.55625
 30
0.0
 11
88.95
 21
5.556250000000056
 31
0.0
  0
LINE
  5
64B
330
647
100
AcDbEntity
  8
2
 62
     0
370
    -2
100
AcDbLine
 10
72.7
 20
-5.55625
 30
0.0
 11
88.95000000000005
 21
-5.556249999999944
 31
0.0
  0
LINE
  5
64C
330
647
100
AcDbEntity
  8
2
 62
     0
370
    -2
100
AcDbLine
 10
87.70000000000005
 20
-5.556249999999948
 30
0.0
 11
87.70000000000019
 21
-42.64724999999996
 31
0.0
  0
LINE
  5
64D
330
647
100
AcDbEntity
  8
2
 62
     0
370
    -2
100
AcDbLine
 10
87.70000000000002
 20
3.056250000000052
 30
0.0
 11
87.70000000000003
 21
-3.056249999999948
 31
0.0
  0
SOLID
  5
64E
330
647
100
AcDbEntity
  8
2
 62
     0
100
AcDbTrace
 10
88.11666666666669
 20
3.056250000000054
 30
0.0
 11
87.28333333333335
 21
3.05625000000005
 31
0.0
 12
87.7
 22
5.556250000000052
 32
0.0
 13
87.7
 23
5.556250000000052
 33
0.0
  0
SOLID
  5
64F
330
647
100
AcDbEntity
  8
2
 62
     0
100
AcDbTrace
 10
87.28333333333336
 20
-3.05624999999995
 30
0.0
 11
88.1166666666667
 21
-3.056249999999946
 31
0.0
 12
87.70000000000005
 22
-5.556249999999948
 32
0.0
 13
87.70000000000005
 23
-5.556249999999948
 33
0.0
  0
MTEXT
  5
650
330
647
100
AcDbEntity
  8
2
 62
     0
100
AcDbMText
 10
84.50075000000011
 20
-25.35174999999996
 30
0.0
 40
3.5
 41
0.0
 71
     5
 72
     1
  1
UNC7/16-14
  7
SIMPLEX
 11
-3.836451216702453E-15
 21
1.0
 31
0.0
 73
     1
 44
1.0
  0
POINT
  5
651
330
647
100
AcDbEntity
  8
DEFPOINTS
 62
     0
100
AcDbPoint
 10
72.7
 20
5.55625
 30
0.0
  0
POINT
  5
652
330
647
100
AcDbEntity
  8
DEFPOINTS
 62
     0
100
AcDbPoint
 10
72.7
 20
-5.55625
 30
0.0
  0
POINT
  5
653
330
647
100
AcDbEntity
  8
DEFPOINTS
 62
     0
100
AcDbPoint
 10
87.70000000000005
 20
-5.556249999999948
 30
0.0
  0
ENDBLK
  5
649
330
647
100
AcDbEntity
  8
0
100
AcDbBlockEnd
  0
BLOCK
  5
656
330
655
100
AcDbEntity
  8
0
100
AcDbBlockBegin
  2
*D1
 70
     1
 10
0.0
 20
0.0
 30
0.0
  3
*D1
  1

  0
LINE
  5
658
330
655
100
AcDbEntity
  8
2
 62
     0
370
    -2
100
AcDbLine
 10
0.0
 20
0.0
 30
0.0
 11
0.0
 21
76.25
 31
0.0
  0
LINE
  5
659
330
655
100
AcDbEntity
  8
2
 62
     0
370
    -2
100
AcDbLine
 10
72.7
 20
0.0
 30
0.0
 11
72.7
 21
76.25
 31
0.0
  0
LINE
  5
65A
330
655
100
AcDbEntity
  8
2
 62
     0
370
    -2
100
AcDbLine
 10
2.5
 20
75.0
 30
0.0
 11
70.2
 21
75.0
 31
0.0
  0
SOLID
  5
65B
330
655
100
AcDbEntity
  8
2
 62
     0
100
AcDbTrace
 10
2.5
 20
75.41666666666667
 30
0.0
 11
2.5
 21
74.58333333333333
 31
0.0
 12
0.0
 22
75.0
 32
0.0
 13
0.0
 23
75.0
 33
0.0
  0
SOLID
  5
65C
330
655
100
AcDbEntity
  8
2
 62
     0
100
AcDbTrace
 10
70.2
 20
74.58333333333333
 30
0.0
 11
70.2
 21
75.41666666666667
 31
0.0
 12
72.7
 22
75.0
 32
0.0
 13
72.7
 23
75.0
 33
0.0
  0
MTEXT
  5
65D
330
655
100
AcDbEntity
  8
2
 62
     0
100
AcDbMText
 10
36.35
 20
77.39775
 30
0.0
 40
3.5
 41
0.0
 71
     5
 72
     1
  1
72.7
  7
SIMPLEX
 73
     1
 44
1.0
  0
POINT
  5
65E
330
655
100
AcDbEntity
  8
DEFPOINTS
 62
     0
100
AcDbPoint
 10
0.0
 20
0.0
 30
0.0
  0
POINT
  5
65F
330
655
100
AcDbEntity
  8
DEFPOINTS
 62
     0
100
AcDbPoint
 10
72.7
 20
0.0
 30
0.0
  0
POINT
  5
660
330
655
100
AcDbEntity
  8
DEFPOINTS
 62
     0
100
AcDbPoint
 10
72.7
 20
75.0
 30
0.0
  0
ENDBLK
  5
657
330
655
100
AcDbEntity
  8
0
100
AcDbBlockEnd
  0
BLOCK
  5
663
330
662
100
AcDbEntity
  8
0
100
AcDbBlockBegin
  2
*D2
 70
     1
 10
0.0
 20
0.0
 30
0.0
  3
*D2
  1

  0
LINE
  5
665
330
662
100
AcDbEntity
  8
SK2
 62
     0
370
    -2
100
AcDbLine
 10
-16.886
 20
4.1021
 30
0.0
 11
-43.55000000002094
 21
4.102099999863923
 31
0.0
  0
LINE
  5
666
330
662
100
AcDbEntity
  8
SK2
 62
     0
370
    -2
100
AcDbLine
 10
-16.886
 20
-4.1021
 30
0.0
 11
-43.54999999997906
 21
-4.102100000136077
 31
0.0
  0
LINE
  5
667
330
662
100
AcDbEntity
  8
SK2
 62
     0
370
    -2
100
AcDbLine
 10
-42.29999999997906
 20
-4.102100000129698
 30
0.0
 11
-42.29999999990448
 21
-18.7161000001297
 31
0.0
  0
LINE
  5
668
330
662
100
AcDbEntity
  8
SK2
 62
     0
370
    -2
100
AcDbLine
 10
-42.30000000000818
 20
1.602099999870302
 30
0.0
 11
-42.29999999999183
 21
-1.602100000129698
 31
0.0
  0
SOLID
  5
669
330
662
100
AcDbEntity
  8
SK2
 62
     0
100
AcDbTrace
 10
-41.88333333334151
 20
1.602099999872429
 30
0.0
 11
-42.71666666667484
 21
1.602099999868176
 31
0.0
 12
-42.30000000002094
 22
4.102099999870302
 32
0.0
 13
-42.30000000002094
 23
4.102099999870302
 33
0.0
  0
SOLID
  5
66A
330
662
100
AcDbEntity
  8
SK2
 62
     0
100
AcDbTrace
 10
-42.71666666665849
 20
-1.602100000131825
 30
0.0
 11
-41.88333333332516
 21
-1.602100000127572
 31
0.0
 12
-42.29999999997906
 22
-4.102100000129698
 32
0.0
 13
-42.29999999997906
 23
-4.102100000129698
 33
0.0
  0
MTEXT
  5
66B
330
662
100
AcDbEntity
  8
SK2
 62
     0
100
AcDbMText
 10
-44.6977499999354
 20
-12.65910000014194
 30
0.0
 40
3.5
 41
0.0
 71
     5
 72
     1
  1
%%c8.2
  7
SIMPLEX
 11
-5.103761904675983E-12
 21
1.0
 31
0.0
 73
     1
 44
1.0
  0
POINT
  5
66C
330
662
100
AcDbEntity
  8
DEFPOINTS
 62
     0
100
AcDbPoint
 10
-16.886
 20
4.1021
 30
0.0
  0
POINT
  5
66D
330
662
100
AcDbEntity
  8
DEFPOINTS
 62
     0
100
AcDbPoint
 10
-16.886
 20
-4.1021
 30
0.0
  0
POINT
  5
66E
330
662
100
AcDbEntity
  8
DEFPOINTS
 62
     0
100
AcDbPoint
 10
-42.29999999997906
 20
-4.102100000129698
 30
0.0
  0
ENDBLK
  5
664
330
662
100
AcDbEntity
  8
0
100
AcDbBlockEnd
  0
BLOCK
  5
671
330
670
100
AcDbEntity
  8
0
100
AcDbBlockBegin
  2
*D3
 70
     1
 10
0.0
 20
0.0
 30
0.0
  3
*D3
  1

  0
LINE
  5
673
330
670
100
AcDbEntity
  8
2
 62
     0
370
    -2
100
AcDbLine
 10
56.73236362
 20
3.9
 30
0.0
 11
56.73236362
 21
61.25
 31
0.0
  0
LINE
  5
674
330
670
100
AcDbEntity
  8
2
 62
     0
370
    -2
100
AcDbLine
 10
72.7
 20
5.55625
 30
0.0
 11
72.7
 21
61.25
 31
0.0
  0
LINE
  5
675
330
670
100
AcDbEntity
  8
2
 62
     0
370
    -2
100
AcDbLine
 10
59.23236362
 20
60.0
 30
0.0
 11
70.2
 21
60.0
 31
0.0
  0
SOLID
  5
676
330
670
100
AcDbEntity
  8
2
 62
     0
100
AcDbTrace
 10
59.23236362
 20
60.41666666666666
 30
0.0
 11
59.23236362
 21
59.58333333333334
 31
0.0
 12
56.73236362
 22
60.0
 32
0.0
 13
56.73236362
 23
60.0
 33
0.0
  0
SOLID
  5
677
330
670
100
AcDbEntity
  8
2
 62
     0
100
AcDbTrace
 10
70.2
 20
59.58333333333334
 30
0.0
 11
70.2
 21
60.41666666666666
 31
0.0
 12
72.7
 22
60.0
 32
0.0
 13
72.7
 23
60.0
 33
0.0
  0
MTEXT
  5
678
330
670
100
AcDbEntity
  8
2
 62
     0
100
AcDbMText
 10
64.71618181
 20
62.39775
 30
0.0
 40
3.5
 41
0.0
 71
     5
 72
     1
  1
15.97
  7
SIMPLEX
 73
     1
 44
1.0
  0
POINT
  5
679
330
670
100
AcDbEntity
  8
DEFPOINTS
 62
     0
100
AcDbPoint
 10
56.73236362
 20
3.9
 30
0.0
  0
POINT
  5
67A
330
670
100
AcDbEntity
  8
DEFPOINTS
 62
     0
100
AcDbPoint
 10
72.7
 20
5.55625
 30
0.0
  0
POINT
  5
67B
330
670
100
AcDbEntity
  8
DEFPOINTS
 62
     0
100
AcDbPoint
 10
72.7
 20
60.0
 30
0.0
  0
ENDBLK
  5
672
330
670
100
AcDbEntity
  8
0
100
AcDbBlockEnd
  0
BLOCK
  5
67E
330
67D
100
AcDbEntity
  8
0
100
AcDbBlockBegin
  2
*D4
 70
     1
 10
0.0
 20
0.0
 30
0.0
  3
*D4
  1

  0
LINE
  5
680
330
67D
100
AcDbEntity
  8
SK2
 62
     0
370
    -2
100
AcDbLine
 10
-27.3
 20
5.55625
 30
0.0
 11
-27.3
 21
91.25
 31
0.0
  0
LINE
  5
681
330
67D
100
AcDbEntity
  8
SK2
 62
     0
370
    -2
100
AcDbLine
 10
72.7
 20
5.55625
 30
0.0
 11
72.7
 21
91.25
 31
0.0
  0
LINE
  5
682
330
67D
100
AcDbEntity
  8
SK2
 62
     0
370
    -2
100
AcDbLine
 10
-24.8
 20
90.0
 30
0.0
 11
70.2
 21
90.0
 31
0.0
  0
SOLID
  5
683
330
67D
100
AcDbEntity
  8
SK2
 62
     0
100
AcDbTrace
 10
-24.8
 20
90.41666666666667
 30
0.0
 11
-24.8
 21
89.58333333333333
 31
0.0
 12
-27.3
 22
90.0
 32
0.0
 13
-27.3
 23
90.0
 33
0.0
  0
SOLID
  5
684
330
67D
100
AcDbEntity
  8
SK2
 62
     0
100
AcDbTrace
 10
70.2
 20
89.58333333333333
 30
0.0
 11
70.2
 21
90.41666666666667
 31
0.0
 12
72.7
 22
90.0
 32
0.0
 13
72.7
 23
90.0
 33
0.0
  0
MTEXT
  5
685
330
67D
100
AcDbEntity
  8
SK2
 62
     0
100
AcDbMText
 10
22.7
 20
92.39075
 30
0.0
 40
3.5
 41
0.0
 71
     5
 72
     1
  1
100
  7
SIMPLEX
 73
     1
 44
1.0
  0
POINT
  5
686
330
67D
100
AcDbEntity
  8
DEFPOINTS
 62
     0
100
AcDbPoint
 10
-27.3
 20
5.55625
 30
0.0
  0
POINT
  5
687
330
67D
100
AcDbEntity
  8
DEFPOINTS
 62
     0
100
AcDbPoint
 10
72.7
 20
5.55625
 30
0.0
  0
POINT
  5
688
330
67D
100
AcDbEntity
  8
DEFPOINTS
 62
     0
100
AcDbPoint
 10
72.7
 20
90.0
 30
0.0
  0
ENDBLK
  5
67F
330
67D
100
AcDbEntity
  8
0
100
AcDbBlockEnd
  0
ENDSEC
  0
SECTION
  2
ENTITIES
  0
LINE
  5
3D6
330
18
100
AcDbEntity
  8
SK4
100
AcDbLine
 10
-29.3
 20
0.0
 30
0.0
 11
24.7
 21
0.0
 31
0.0
  0
LINE
  5
3D7
330
18
100
AcDbEntity
  8
4
100
AcDbLine
 10
22.7
 20
0.0
 30
0.0
 11
74.7
 21
0.0
 31
0.0
  0
LINE
  5
3D8
330
18
100
AcDbEntity
  8
SK4
100
AcDbLine
 10
22.7
 20
0.0
 30
0.0
 11
74.7
 21
0.0
 31
0.0
  0
LINE
  5
3D9
330
18
100
AcDbEntity
  8
1
100
AcDbLine
 10
24.7
 20
4.1021
 30
0.0
 11
24.70000000000001
 21
4.098021719687329
 31
0.0
  0
LINE
  5
3DA
330
18
100
AcDbEntity
  8
1
100
AcDbLine
 10
24.70000000000001
 20
4.098021719687329
 30
0.0
 11
24.7
 21
3.734032463916978
 31
0.0
  0
LINE
  5
3DB
330
18
100
AcDbEntity
  8
1
100
AcDbLine
 10
24.7
 20
3.734032463916978
 30
0.0
 11
24.7
 21
-4.1021
 31
0.0
  0
LINE
  5
3DC
330
18
100
AcDbEntity
  8
1
100
AcDbLine
 10
24.7
 20
4.1021
 30
0.0
 11
0.0000000000000018
 21
4.1021
 31
0.0
  0
LINE
  5
3DD
330
18
100
AcDbEntity
  8
1
100
AcDbLine
 10
30.70000000000001
 20
-0.768127976291161
 30
0.0
 11
32.43382933104979
 21
-2.009769400839944
 31
0.0
  0
LINE
  5
3DE
330
18
100
AcDbEntity
  8
1
100
AcDbLine
 10
32.43382933104979
 20
-2.009769400839944
 30
0.0
 11
33.30076026860964
 21
-2.550890947396884
 31
0.0
  0
LINE
  5
3DF
330
18
100
AcDbEntity
  8
1
100
AcDbLine
 10
33.30076026860964
 20
-2.550890947396884
 30
0.0
 11
33.73422272295471
 21
-2.794271767881876
 31
0.0
  0
LINE
  5
3E0
330
18
100
AcDbEntity
  8
1
100
AcDbLine
 10
33.73422272295471
 20
-2.794271767881876
 30
0.0
 11
34.16767668808972
 21
-3.017097778646519
 31
0.0
  0
LINE
  5
3E1
330
18
100
AcDbEntity
  8
1
100
AcDbLine
 10
34.16767668808972
 20
-3.017097778646519
 30
0.0
 11
34.60112804308768
 21
-3.217734798859376
 31
0.0
  0
LINE
  5
3E2
330
18
100
AcDbEntity
  8
1
100
AcDbLine
 10
34.60112804308768
 20
-3.217734798859376
 30
0.0
 11
35.03458259117197
 21
-3.394710060827716
 31
0.0
  0
LINE
  5
3E3
330
18
100
AcDbEntity
  8
1
100
AcDbLine
 10
35.03458259117197
 20
-3.394710060827716
 30
0.0
 11
35.46804601282646
 21
-3.546722718817605
 31
0.0
  0
LINE
  5
3E4
330
18
100
AcDbEntity
  8
1
100
AcDbLine
 10
35.46804601282646
 20
-3.546722718817605
 30
0.0
 11
35.90151570371954
 21
-3.672651271693107
 31
0.0
  0
LINE
  5
3E5
330
18
100
AcDbEntity
  8
1
100
AcDbLine
 10
35.90151570371954
 20
-3.672651271693107
 30
0.0
 11
36.33497452531819
 21
-3.771565337764017
 31
0.0
  0
LINE
  5
3E6
330
18
100
AcDbEntity
  8
1
100
AcDbLine
 10
36.33497452531819
 20
-3.771565337764017
 30
0.0
 11
36.76842686021344
 21
-3.842741279751436
 31
0.0
  0
LINE
  5
3E7
330
18
100
AcDbEntity
  8
1
100
AcDbLine
 10
36.76842686021344
 20
-3.842741279751436
 30
0.0
 11
37.20187833239144
 21
-3.885657823327645
 31
0.0
  0
LINE
  5
3E8
330
18
100
AcDbEntity
  8
1
100
AcDbLine
 10
37.20187833239144
 20
-3.885657823327645
 30
0.0
 11
37.63532730209091
 21
-3.899999999874446
 31
0.0
  0
LINE
  5
3E9
330
18
100
AcDbEntity
  8
1
100
AcDbLine
 10
24.7
 20
3.9
 30
0.0
 11
32.34394407692072
 21
3.9
 31
0.0
  0
LINE
  5
3EA
330
18
100
AcDbEntity
  8
1
100
AcDbLine
 10
30.7
 20
3.510049623189335
 30
0.0
 11
30.7
 21
-0.7681279762911617
 31
0.0
  0
LINE
  5
3EB
330
18
100
AcDbEntity
  8
1
100
AcDbLine
 10
30.7
 20
3.510049623189334
 30
0.0
 11
31.09541695889201
 21
3.366417510427176
 31
0.0
  0
LINE
  5
3EC
330
18
100
AcDbEntity
  8
1
100
AcDbLine
 10
31.09541695889201
 20
3.366417510427176
 30
0.0
 11
31.49081872089456
 21
3.20218887140408
 31
0.0
  0
LINE
  5
3ED
330
18
100
AcDbEntity
  8
1
100
AcDbLine
 10
31.49081872089456
 20
3.20218887140408
 30
0.0
 11
31.88621936781859
 21
3.018362715279712
 31
0.0
  0
LINE
  5
3EE
330
18
100
AcDbEntity
  8
1
100
AcDbLine
 10
31.88621936781859
 20
3.018362715279712
 30
0.0
 11
32.28163672880256
 21
2.816054679171776
 31
0.0
  0
LINE
  5
3EF
330
18
100
AcDbEntity
  8
1
100
AcDbLine
 10
32.28163672880256
 20
2.816054679171776
 30
0.0
 11
33.07245513105109
 21
2.361079797510736
 31
0.0
  0
LINE
  5
3F0
330
18
100
AcDbEntity
  8
1
100
AcDbLine
 10
33.07245513105109
 20
2.361079797510736
 30
0.0
 11
33.86327225022154
 21
1.848392237025922
 31
0.0
  0
LINE
  5
3F1
330
18
100
AcDbEntity
  8
1
100
AcDbLine
 10
33.86327225022154
 20
1.848392237025922
 30
0.0
 11
35.44490661909668
 21
0.701101484581787
 31
0.0
  0
LINE
  5
3F2
330
18
100
AcDbEntity
  8
1
100
AcDbLine
 10
35.44490661909668
 20
0.701101484581787
 30
0.0
 11
37.02648777197741
 21
-0.5142822822575306
 31
0.0
  0
LINE
  5
3F3
330
18
100
AcDbEntity
  8
1
100
AcDbLine
 10
56.73236362
 20
-3.577752642962898
 30
0.0
 11
56.27338115231559
 21
-3.422190662013968
 31
0.0
  0
LINE
  5
3F4
330
18
100
AcDbEntity
  8
1
100
AcDbLine
 10
56.27338115231559
 20
-3.422190662013968
 30
0.0
 11
55.81440542642805
 21
-3.23841393930342
 31
0.0
  0
LINE
  5
3F5
330
18
100
AcDbEntity
  8
1
100
AcDbLine
 10
55.81440542642805
 20
-3.23841393930342
 30
0.0
 11
55.35543406087713
 21
-3.027938277726383
 31
0.0
  0
LINE
  5
3F6
330
18
100
AcDbEntity
  8
1
100
AcDbLine
 10
55.35543406087713
 20
-3.027938277726383
 30
0.0
 11
54.89646472767323
 21
-2.79249872384463
 31
0.0
  0
LINE
  5
3F7
330
18
100
AcDbEntity
  8
1
100
AcDbLine
 10
54.89646472767323
 20
-2.79249872384463
 30
0.0
 11
54.43749514945819
 21
-2.534035401535011
 31
0.0
  0
LINE
  5
3F8
330
18
100
AcDbEntity
  8
1
100
AcDbLine
 10
54.43749514945819
 20
-2.534035401535011
 30
0.0
 11
53.51954639182375
 21
-1.956726877680139
 31
0.0
  0
LINE
  5
3F9
330
18
100
AcDbEntity
  8
1
100
AcDbLine
 10
53.51954639182375
 20
-1.956726877680139
 30
0.0
 11
52.60158302851745
 21
-1.315005964168866
 31
0.0
  0
LINE
  5
3FA
330
18
100
AcDbEntity
  8
1
100
AcDbLine
 10
52.60158302851745
 20
-1.315005964168866
 30
0.0
 11
49.38877594758539
 21
1.122362260062565
 31
0.0
  0
LINE
  5
3FB
330
18
100
AcDbEntity
  8
1
100
AcDbLine
 10
39.00392110160246
 20
3.899999999999999
 30
0.0
 11
42.92671042185717
 21
3.899999999999999
 31
0.0
  0
LINE
  5
3FC
330
18
100
AcDbEntity
  8
1
100
AcDbLine
 10
56.73236362
 20
0.6083339489658346
 30
0.0
 11
54.94593934387026
 21
1.904458949166744
 31
0.0
  0
LINE
  5
3FD
330
18
100
AcDbEntity
  8
1
100
AcDbLine
 10
54.94593934387026
 20
1.904458949166744
 30
0.0
 11
54.05272583653078
 21
2.473277912345103
 31
0.0
  0
LINE
  5
3FE
330
18
100
AcDbEntity
  8
1
100
AcDbLine
 10
54.05272583653078
 20
2.473277912345103
 30
0.0
 11
53.60610829657242
 21
2.729806219921091
 31
0.0
  0
LINE
  5
3FF
330
18
100
AcDbEntity
  8
1
100
AcDbLine
 10
53.60610829657242
 20
2.729806219921091
 30
0.0
 11
53.15949795518367
 21
2.965017471512081
 31
0.0
  0
LINE
  5
400
330
18
100
AcDbEntity
  8
1
100
AcDbLine
 10
53.15949795518367
 20
2.965017471512081
 30
0.0
 11
52.7128944209
 21
3.177077171242187
 31
0.0
  0
LINE
  5
401
330
18
100
AcDbEntity
  8
1
100
AcDbLine
 10
52.7128944209
 20
3.177077171242187
 30
0.0
 11
52.26629395950545
 21
3.364332851800384
 31
0.0
  0
LINE
  5
402
330
18
100
AcDbEntity
  8
1
100
AcDbLine
 10
52.26629395950545
 20
3.364332851800384
 30
0.0
 11
51.81969291252484
 21
3.525324606107268
 31
0.0
  0
LINE
  5
403
330
18
100
AcDbEntity
  8
1
100
AcDbLine
 10
51.81969291252484
 20
3.525324606107268
 30
0.0
 11
51.37308769625481
 21
3.658796278895596
 31
0.0
  0
LINE
  5
404
330
18
100
AcDbEntity
  8
1
100
AcDbLine
 10
51.37308769625481
 20
3.658796278895596
 30
0.0
 11
50.92647480163437
 21
3.763705151708208
 31
0.0
  0
LINE
  5
405
330
18
100
AcDbEntity
  8
1
100
AcDbLine
 10
50.92647480163437
 20
3.763705151708208
 30
0.0
 11
50.47985911303798
 21
3.839229175538073
 31
0.0
  0
LINE
  5
406
330
18
100
AcDbEntity
  8
1
100
AcDbLine
 10
50.47985911303798
 20
3.839229175538073
 30
0.0
 11
50.03325201325595
 21
3.884777823610245
 31
0.0
  0
LINE
  5
407
330
18
100
AcDbEntity
  8
1
100
AcDbLine
 10
50.03325201325595
 20
3.884777823610245
 30
0.0
 11
49.58668737599575
 21
3.9
 31
0.0
  0
LINE
  5
408
330
18
100
AcDbEntity
  8
1
100
AcDbLine
 10
56.73236362
 20
3.133221708399923
 30
0.0
 11
56.32949266169845
 21
3.308226915451319
 31
0.0
  0
LINE
  5
409
330
18
100
AcDbEntity
  8
1
100
AcDbLine
 10
56.32949266169845
 20
3.308226915451319
 30
0.0
 11
55.92663722861194
 21
3.462207365142749
 31
0.0
  0
LINE
  5
40A
330
18
100
AcDbEntity
  8
1
100
AcDbLine
 10
55.92663722861194
 20
3.462207365142749
 30
0.0
 11
55.52378368557591
 21
3.594192832339398
 31
0.0
  0
LINE
  5
40B
330
18
100
AcDbEntity
  8
1
100
AcDbLine
 10
55.52378368557591
 20
3.594192832339398
 30
0.0
 11
55.1209185392965
 21
3.703347719740711
 31
0.0
  0
LINE
  5
40C
330
18
100
AcDbEntity
  8
1
100
AcDbLine
 10
55.1209185392965
 20
3.703347719740711
 30
0.0
 11
54.71804336132101
 21
3.788973738448004
 31
0.0
  0
LINE
  5
40D
330
18
100
AcDbEntity
  8
1
100
AcDbLine
 10
54.71804336132101
 20
3.788973738448004
 30
0.0
 11
54.3151850841132
 21
3.850522769823254
 31
0.0
  0
LINE
  5
40E
330
18
100
AcDbEntity
  8
1
100
AcDbLine
 10
54.3151850841132
 20
3.850522769823254
 30
0.0
 11
53.91233254134434
 21
3.887609610259631
 31
0.0
  0
LINE
  5
40F
330
18
100
AcDbEntity
  8
1
100
AcDbLine
 10
53.91233254134434
 20
3.887609610259631
 30
0.0
 11
53.50947659661006
 21
3.899999999999999
 31
0.0
  0
LINE
  5
410
330
18
100
AcDbEntity
  8
1
100
AcDbLine
 10
49.58668737599575
 20
3.9
 30
0.0
 11
53.50947659661006
 21
3.9
 31
0.0
  0
LINE
  5
411
330
18
100
AcDbEntity
  8
1
100
AcDbLine
 10
30.7
 20
-3.227153791019131
 30
0.0
 11
30.7
 21
-3.9
 31
0.0
  0
LINE
  5
412
330
18
100
AcDbEntity
  8
1
100
AcDbLine
 10
56.73236362
 20
-2.990364127694346
 30
0.0
 11
56.73236361999999
 21
0.608333948965837
 31
0.0
  0
LINE
  5
413
330
18
100
AcDbEntity
  8
1
100
AcDbLine
 10
30.7
 20
-3.22715379101913
 30
0.0
 11
31.0765791805177
 21
-3.381248583558151
 31
0.0
  0
LINE
  5
414
330
18
100
AcDbEntity
  8
1
100
AcDbLine
 10
31.0765791805177
 20
-3.381248583558151
 30
0.0
 11
31.45314164985133
 21
-3.516564542515564
 31
0.0
  0
LINE
  5
415
330
18
100
AcDbEntity
  8
1
100
AcDbLine
 10
31.45314164985133
 20
-3.516564542515564
 30
0.0
 11
31.82970863479691
 21
-3.632363601263314
 31
0.0
  0
LINE
  5
416
330
18
100
AcDbEntity
  8
1
100
AcDbLine
 10
31.82970863479691
 20
-3.632363601263314
 30
0.0
 11
32.20629608314005
 21
-3.728001158171484
 31
0.0
  0
LINE
  5
417
330
18
100
AcDbEntity
  8
1
100
AcDbLine
 10
32.20629608314005
 20
-3.728001158171484
 30
0.0
 11
32.58286412264868
 21
-3.802935981052108
 31
0.0
  0
LINE
  5
418
330
18
100
AcDbEntity
  8
1
100
AcDbLine
 10
32.58286412264868
 20
-3.802935981052108
 30
0.0
 11
32.95942518414654
 21
-3.856760196244617
 31
0.0
  0
LINE
  5
419
330
18
100
AcDbEntity
  8
1
100
AcDbLine
 10
32.95942518414654
 20
-3.856760196244617
 30
0.0
 11
33.33600302784163
 21
-3.889176620862306
 31
0.0
  0
LINE
  5
41A
330
18
100
AcDbEntity
  8
1
100
AcDbLine
 10
33.33600302784163
 20
-3.889176620862306
 30
0.0
 11
33.71253795441576
 21
-3.899999999993224
 31
0.0
  0
LINE
  5
41B
330
18
100
AcDbEntity
  8
1
100
AcDbLine
 10
56.73236362
 20
-3.577752642962876
 30
0.0
 11
56.73236362
 21
-2.990364127694345
 31
0.0
  0
LINE
  5
41C
330
18
100
AcDbEntity
  8
1
100
AcDbLine
 10
56.73236361999999
 20
-3.577752642962866
 30
0.0
 11
56.73236362
 21
-3.9
 31
0.0
  0
LINE
  5
41D
330
18
100
AcDbEntity
  8
1
100
AcDbLine
 10
56.73236361999999
 20
3.133221708399922
 30
0.0
 11
56.73236361999999
 21
0.6083339489658339
 31
0.0
  0
LINE
  5
41E
330
18
100
AcDbEntity
  8
1
100
AcDbLine
 10
-0.0000000000000062
 20
-4.1021
 30
0.0
 11
24.7
 21
-4.1021
 31
0.0
  0
LINE
  5
41F
330
18
100
AcDbEntity
  8
1
100
AcDbLine
 10
24.70000000000001
 20
-3.9
 30
0.0
 11
30.7
 21
-3.9
 31
0.0
  0
LINE
  5
420
330
18
100
AcDbEntity
  8
1
100
AcDbLine
 10
37.63532730209091
 20
-3.899999999874446
 30
0.0
 11
38.0515822807748
 21
-3.886772844508863
 31
0.0
  0
LINE
  5
421
330
18
100
AcDbEntity
  8
1
100
AcDbLine
 10
38.0515822807748
 20
-3.886772844508863
 30
0.0
 11
38.46782562165293
 21
-3.847185333311486
 31
0.0
  0
LINE
  5
422
330
18
100
AcDbEntity
  8
1
100
AcDbLine
 10
38.46782562165293
 20
-3.847185333311486
 30
0.0
 11
38.88406729643109
 21
-3.781507265021047
 31
0.0
  0
LINE
  5
423
330
18
100
AcDbEntity
  8
1
100
AcDbLine
 10
38.88406729643109
 20
-3.781507265021047
 30
0.0
 11
39.30031752067614
 21
-3.690181230018956
 31
0.0
  0
LINE
  5
424
330
18
100
AcDbEntity
  8
1
100
AcDbLine
 10
39.30031752067614
 20
-3.690181230018956
 30
0.0
 11
39.71658091490246
 21
-3.573821737953411
 31
0.0
  0
LINE
  5
425
330
18
100
AcDbEntity
  8
1
100
AcDbLine
 10
39.71658091490246
 20
-3.573821737953411
 30
0.0
 11
40.13283166722367
 21
-3.433225131311067
 31
0.0
  0
LINE
  5
426
330
18
100
AcDbEntity
  8
1
100
AcDbLine
 10
40.13283166722367
 20
-3.433225131311067
 30
0.0
 11
40.54907338656222
 21
-3.269347531015132
 31
0.0
  0
LINE
  5
427
330
18
100
AcDbEntity
  8
1
100
AcDbLine
 10
40.54907338656222
 20
-3.269347531015132
 30
0.0
 11
40.96531610809776
 21
-3.083297519479853
 31
0.0
  0
LINE
  5
428
330
18
100
AcDbEntity
  8
1
100
AcDbLine
 10
33.71253795441577
 20
-3.899999999999999
 30
0.0
 11
37.63532730209091
 21
-3.899999999999999
 31
0.0
  0
LINE
  5
429
330
18
100
AcDbEntity
  8
1
100
AcDbLine
 10
48.21809351929096
 20
-3.899999999976235
 30
0.0
 11
47.92396709022504
 21
-3.89339248978173
 31
0.0
  0
LINE
  5
42A
330
18
100
AcDbEntity
  8
1
100
AcDbLine
 10
47.92396709022504
 20
-3.89339248978173
 30
0.0
 11
47.62984589230087
 21
-3.873601072782459
 31
0.0
  0
LINE
  5
42B
330
18
100
AcDbEntity
  8
1
100
AcDbLine
 10
47.62984589230087
 20
-3.873601072782459
 30
0.0
 11
47.33570655442986
 21
-3.84068278731403
 31
0.0
  0
LINE
  5
42C
330
18
100
AcDbEntity
  8
1
100
AcDbLine
 10
47.33570655442986
 20
-3.84068278731403
 30
0.0
 11
47.04159292222328
 21
-3.794760662577384
 31
0.0
  0
LINE
  5
42D
330
18
100
AcDbEntity
  8
1
100
AcDbLine
 10
47.04159292222328
 20
-3.794760662577384
 30
0.0
 11
46.74744807183225
 21
-3.735977096099493
 31
0.0
  0
LINE
  5
42E
330
18
100
AcDbEntity
  8
1
100
AcDbLine
 10
46.74744807183225
 20
-3.735977096099493
 30
0.0
 11
46.45333584461284
 21
-3.664545431408661
 31
0.0
  0
LINE
  5
42F
330
18
100
AcDbEntity
  8
1
100
AcDbLine
 10
46.45333584461284
 20
-3.664545431408661
 30
0.0
 11
46.15919326822491
 21
-3.58069374312373
 31
0.0
  0
LINE
  5
430
330
18
100
AcDbEntity
  8
1
100
AcDbLine
 10
46.15919326822491
 20
-3.58069374312373
 30
0.0
 11
45.86507621271913
 21
-3.484718034484736
 31
0.0
  0
LINE
  5
431
330
18
100
AcDbEntity
  8
1
100
AcDbLine
 10
45.86507621271913
 20
-3.484718034484736
 30
0.0
 11
45.27681563000396
 21
-3.257713213313925
 31
0.0
  0
LINE
  5
432
330
18
100
AcDbEntity
  8
1
100
AcDbLine
 10
45.27681563000396
 20
-3.257713213313925
 30
0.0
 11
44.68855574890328
 21
-2.986604813874711
 31
0.0
  0
LINE
  5
433
330
18
100
AcDbEntity
  8
1
100
AcDbLine
 10
44.68855574890328
 20
-2.986604813874711
 30
0.0
 11
44.10029827052584
 21
-2.675064142890764
 31
0.0
  0
LINE
  5
434
330
18
100
AcDbEntity
  8
1
100
AcDbLine
 10
44.10029827052584
 20
-2.675064142890764
 30
0.0
 11
43.51204494556184
 21
-2.327310226099975
 31
0.0
  0
LINE
  5
435
330
18
100
AcDbEntity
  8
1
100
AcDbLine
 10
43.51204494556184
 20
-2.327310226099975
 30
0.0
 11
42.33554900082629
 21
-1.542421500462154
 31
0.0
  0
LINE
  5
436
330
18
100
AcDbEntity
  8
1
100
AcDbLine
 10
42.33554900082629
 20
-1.542421500462154
 30
0.0
 11
38.80600974131595
 21
1.122362199310873
 31
0.0
  0
LINE
  5
437
330
18
100
AcDbEntity
  8
1
100
AcDbLine
 10
44.2953042404784
 20
-3.9
 30
0.0
 11
48.21809351929093
 21
-3.9
 31
0.0
  0
LINE
  5
438
330
18
100
AcDbEntity
  8
1
100
AcDbLine
 10
37.02648777197741
 20
-0.5142822822575306
 30
0.0
 11
38.8437197283283
 21
-1.8419540132089
 31
0.0
  0
LINE
  5
439
330
18
100
AcDbEntity
  8
1
100
AcDbLine
 10
38.8437197283283
 20
-1.8419540132089
 30
0.0
 11
39.75231707475652
 21
-2.427071083224813
 31
0.0
  0
LINE
  5
43A
330
18
100
AcDbEntity
  8
1
100
AcDbLine
 10
39.75231707475652
 20
-2.427071083224813
 30
0.0
 11
40.20661894368641
 21
-2.691369433219454
 31
0.0
  0
LINE
  5
43B
330
18
100
AcDbEntity
  8
1
100
AcDbLine
 10
40.20661894368641
 20
-2.691369433219454
 30
0.0
 11
40.66092659641882
 21
-2.933929330955138
 31
0.0
  0
LINE
  5
43C
330
18
100
AcDbEntity
  8
1
100
AcDbLine
 10
40.66092659641882
 20
-2.933929330955138
 30
0.0
 11
41.11524049627233
 21
-3.152790030619029
 31
0.0
  0
LINE
  5
43D
330
18
100
AcDbEntity
  8
1
100
AcDbLine
 10
41.11524049627233
 20
-3.152790030619029
 30
0.0
 11
41.56954841929074
 21
-3.346177480739633
 31
0.0
  0
LINE
  5
43E
330
18
100
AcDbEntity
  8
1
100
AcDbLine
 10
41.56954841929074
 20
-3.346177480739633
 30
0.0
 11
42.02385035197801
 21
-3.512530952577167
 31
0.0
  0
LINE
  5
43F
330
18
100
AcDbEntity
  8
1
100
AcDbLine
 10
42.02385035197801
 20
-3.512530952577167
 30
0.0
 11
42.47814902834077
 21
-3.650508866975157
 31
0.0
  0
LINE
  5
440
330
18
100
AcDbEntity
  8
1
100
AcDbLine
 10
42.47814902834077
 20
-3.650508866975157
 30
0.0
 11
42.9324471227086
 21
-3.758998019141865
 31
0.0
  0
LINE
  5
441
330
18
100
AcDbEntity
  8
1
100
AcDbLine
 10
42.9324471227086
 20
-3.758998019141865
 30
0.0
 11
43.38674724912511
 21
-3.83712246307699
 31
0.0
  0
LINE
  5
442
330
18
100
AcDbEntity
  8
1
100
AcDbLine
 10
43.38674724912511
 20
-3.83712246307699
 30
0.0
 11
43.84105061563726
 21
-3.884250684558755
 31
0.0
  0
LINE
  5
443
330
18
100
AcDbEntity
  8
1
100
AcDbLine
 10
43.84105061563726
 20
-3.884250684558755
 30
0.0
 11
44.2953042404784
 21
-3.899999999976428
 31
0.0
  0
LINE
  5
444
330
18
100
AcDbEntity
  8
1
100
AcDbLine
 10
54.87807050714444
 20
-3.899999999999641
 30
0.0
 11
54.42377169457535
 21
-3.884247422781375
 31
0.0
  0
LINE
  5
445
330
18
100
AcDbEntity
  8
1
100
AcDbLine
 10
54.42377169457535
 20
-3.884247422781375
 30
0.0
 11
53.96946724851777
 21
-3.837116885426173
 31
0.0
  0
LINE
  5
446
330
18
100
AcDbEntity
  8
1
100
AcDbLine
 10
53.96946724851777
 20
-3.837116885426173
 30
0.0
 11
53.51516498416848
 21
-3.758989832065346
 31
0.0
  0
LINE
  5
447
330
18
100
AcDbEntity
  8
1
100
AcDbLine
 10
53.51516498416848
 20
-3.758989832065346
 30
0.0
 11
53.060868597678
 21
-3.650498017218892
 31
0.0
  0
LINE
  5
448
330
18
100
AcDbEntity
  8
1
100
AcDbLine
 10
53.060868597678
 20
-3.650498017218892
 30
0.0
 11
52.60656569932069
 21
-3.512515019661652
 31
0.0
  0
LINE
  5
449
330
18
100
AcDbEntity
  8
1
100
AcDbLine
 10
52.60656569932069
 20
-3.512515019661652
 30
0.0
 11
52.15226168048547
 21
-3.346156999194143
 31
0.0
  0
LINE
  5
44A
330
18
100
AcDbEntity
  8
1
100
AcDbLine
 10
52.15226168048547
 20
-3.346156999194143
 30
0.0
 11
51.69796418031888
 21
-3.152770766641188
 31
0.0
  0
LINE
  5
44B
330
18
100
AcDbEntity
  8
1
100
AcDbLine
 10
51.69796418031888
 20
-3.152770766641188
 30
0.0
 11
51.24366406768625
 21
-2.933914564927264
 31
0.0
  0
LINE
  5
44C
330
18
100
AcDbEntity
  8
1
100
AcDbLine
 10
51.24366406768625
 20
-2.933914564927264
 30
0.0
 11
50.78935958207229
 21
-2.691355511987811
 31
0.0
  0
LINE
  5
44D
330
18
100
AcDbEntity
  8
1
100
AcDbLine
 10
50.78935958207229
 20
-2.691355511987811
 30
0.0
 11
49.8807618886941
 21
-2.143155116069117
 31
0.0
  0
LINE
  5
44E
330
18
100
AcDbEntity
  8
1
100
AcDbLine
 10
49.8807618886941
 20
-2.143155116069117
 30
0.0
 11
48.9721551432369
 21
-1.52583744117138
 31
0.0
  0
LINE
  5
44F
330
18
100
AcDbEntity
  8
1
100
AcDbLine
 10
48.9721551432369
 20
-1.52583744117138
 30
0.0
 11
47.60925288092606
 21
-0.514281454215711
 31
0.0
  0
LINE
  5
450
330
18
100
AcDbEntity
  8
1
100
AcDbLine
 10
54.87807050714442
 20
-3.9
 30
0.0
 11
56.73236362
 21
-3.9
 31
0.0
  0
LINE
  5
451
330
18
100
AcDbEntity
  8
1
100
AcDbLine
 10
38.80600974131595
 20
1.122362199310873
 30
0.0
 11
37.99826571499815
 21
1.702581636094702
 31
0.0
  0
LINE
  5
452
330
18
100
AcDbEntity
  8
1
100
AcDbLine
 10
37.99826571499815
 20
1.702581636094702
 30
0.0
 11
37.19048916608658
 21
2.239406159963822
 31
0.0
  0
LINE
  5
453
330
18
100
AcDbEntity
  8
1
100
AcDbLine
 10
37.19048916608658
 20
2.239406159963822
 30
0.0
 11
36.3827440188542
 21
2.719102767851288
 31
0.0
  0
LINE
  5
454
330
18
100
AcDbEntity
  8
1
100
AcDbLine
 10
36.3827440188542
 20
2.719102767851288
 30
0.0
 11
35.97886476045173
 21
2.933653056060264
 31
0.0
  0
LINE
  5
455
330
18
100
AcDbEntity
  8
1
100
AcDbLine
 10
35.97886476045173
 20
2.933653056060264
 30
0.0
 11
35.57497093404561
 21
3.129476366718298
 31
0.0
  0
LINE
  5
456
330
18
100
AcDbEntity
  8
1
100
AcDbLine
 10
35.57497093404561
 20
3.129476366718298
 30
0.0
 11
35.17109236457075
 21
3.3053078083759
 31
0.0
  0
LINE
  5
457
330
18
100
AcDbEntity
  8
1
100
AcDbLine
 10
35.17109236457075
 20
3.3053078083759
 30
0.0
 11
34.76722227475129
 21
3.460031362618164
 31
0.0
  0
LINE
  5
458
330
18
100
AcDbEntity
  8
1
100
AcDbLine
 10
34.76722227475129
 20
3.460031362618164
 30
0.0
 11
34.36334736654565
 21
3.592664863647653
 31
0.0
  0
LINE
  5
459
330
18
100
AcDbEntity
  8
1
100
AcDbLine
 10
34.36334736654565
 20
3.592664863647653
 30
0.0
 11
33.9594557045957
 21
3.702361718771197
 31
0.0
  0
LINE
  5
45A
330
18
100
AcDbEntity
  8
1
100
AcDbLine
 10
33.9594557045957
 20
3.702361718771197
 30
0.0
 11
33.55557192602236
 21
3.788412634673441
 31
0.0
  0
LINE
  5
45B
330
18
100
AcDbEntity
  8
1
100
AcDbLine
 10
33.55557192602236
 20
3.788412634673441
 30
0.0
 11
33.15170075012564
 21
3.850271301090599
 31
0.0
  0
LINE
  5
45C
330
18
100
AcDbEntity
  8
1
100
AcDbLine
 10
33.15170075012564
 20
3.850271301090599
 30
0.0
 11
32.74782976683215
 21
3.887546740290154
 31
0.0
  0
LINE
  5
45D
330
18
100
AcDbEntity
  8
1
100
AcDbLine
 10
32.74782976683215
 20
3.887546740290154
 30
0.0
 11
32.34394407692072
 21
3.899999999999998
 31
0.0
  0
LINE
  5
45E
330
18
100
AcDbEntity
  8
1
100
AcDbLine
 10
51.54808106376139
 20
-3.083297962810178
 30
0.0
 11
51.131839245521
 21
-3.26934766862846
 31
0.0
  0
LINE
  5
45F
330
18
100
AcDbEntity
  8
1
100
AcDbLine
 10
51.131839245521
 20
-3.26934766862846
 30
0.0
 11
50.71559655735282
 21
-3.433225769008633
 31
0.0
  0
LINE
  5
460
330
18
100
AcDbEntity
  8
1
100
AcDbLine
 10
50.71559655735282
 20
-3.433225769008633
 30
0.0
 11
50.2993434548879
 21
-3.57382298891524
 31
0.0
  0
LINE
  5
461
330
18
100
AcDbEntity
  8
1
100
AcDbLine
 10
50.2993434548879
 20
-3.57382298891524
 30
0.0
 11
49.88308147071739
 21
-3.690181658449744
 31
0.0
  0
LINE
  5
462
330
18
100
AcDbEntity
  8
1
100
AcDbLine
 10
49.88308147071739
 20
-3.690181658449744
 30
0.0
 11
49.46683363095788
 21
-3.781507150181191
 31
0.0
  0
LINE
  5
463
330
18
100
AcDbEntity
  8
1
100
AcDbLine
 10
49.46683363095788
 20
-3.781507150181191
 30
0.0
 11
49.05059257007713
 21
-3.847185318189013
 31
0.0
  0
LINE
  5
464
330
18
100
AcDbEntity
  8
1
100
AcDbLine
 10
49.05059257007713
 20
-3.847185318189013
 30
0.0
 11
48.63434889468744
 21
-3.88677296640702
 31
0.0
  0
LINE
  5
465
330
18
100
AcDbEntity
  8
1
100
AcDbLine
 10
48.63434889468744
 20
-3.88677296640702
 30
0.0
 11
48.21809351929097
 21
-3.899999999976236
 31
0.0
  0
LINE
  5
466
330
18
100
AcDbEntity
  8
1
100
AcDbLine
 10
47.60925288092606
 20
-0.514281454215711
 30
0.0
 11
45.45793245886203
 21
1.128314478324864
 31
0.0
  0
LINE
  5
467
330
18
100
AcDbEntity
  8
1
100
AcDbLine
 10
45.45793245886203
 20
1.128314478324864
 30
0.0
 11
44.38226244879042
 21
1.891588626739525
 31
0.0
  0
LINE
  5
468
330
18
100
AcDbEntity
  8
1
100
AcDbLine
 10
44.38226244879042
 20
1.891588626739525
 30
0.0
 11
43.30659221858794
 21
2.569461888706362
 31
0.0
  0
LINE
  5
469
330
18
100
AcDbEntity
  8
1
100
AcDbLine
 10
43.30659221858794
 20
2.569461888706362
 30
0.0
 11
42.76875247947569
 21
2.866621928320956
 31
0.0
  0
LINE
  5
46A
330
18
100
AcDbEntity
  8
1
100
AcDbLine
 10
42.76875247947569
 20
2.866621928320956
 30
0.0
 11
42.23092181420283
 21
3.131329722568688
 31
0.0
  0
LINE
  5
46B
330
18
100
AcDbEntity
  8
1
100
AcDbLine
 10
42.23092181420283
 20
3.131329722568688
 30
0.0
 11
41.69308307097434
 21
3.360598247208149
 31
0.0
  0
LINE
  5
46C
330
18
100
AcDbEntity
  8
1
100
AcDbLine
 10
41.69308307097434
 20
3.360598247208149
 30
0.0
 11
41.15525129971823
 21
3.551824970263079
 31
0.0
  0
LINE
  5
46D
330
18
100
AcDbEntity
  8
1
100
AcDbLine
 10
41.15525129971823
 20
3.551824970263079
 30
0.0
 11
40.88633533657789
 21
3.632480549814506
 31
0.0
  0
LINE
  5
46E
330
18
100
AcDbEntity
  8
1
100
AcDbLine
 10
40.88633533657789
 20
3.632480549814506
 30
0.0
 11
40.61741434200767
 21
3.702851090306114
 31
0.0
  0
LINE
  5
46F
330
18
100
AcDbEntity
  8
1
100
AcDbLine
 10
40.61741434200767
 20
3.702851090306114
 30
0.0
 11
40.34849565776067
 21
3.762734974465959
 31
0.0
  0
LINE
  5
470
330
18
100
AcDbEntity
  8
1
100
AcDbLine
 10
40.34849565776067
 20
3.762734974465959
 30
0.0
 11
40.07958075756844
 21
3.811963152751557
 31
0.0
  0
LINE
  5
471
330
18
100
AcDbEntity
  8
1
100
AcDbLine
 10
40.07958075756844
 20
3.811963152751557
 30
0.0
 11
39.81066563973972
 21
3.850397358697422
 31
0.0
  0
LINE
  5
472
330
18
100
AcDbEntity
  8
1
100
AcDbLine
 10
39.81066563973972
 20
3.850397358697422
 30
0.0
 11
39.54174636971726
 21
3.877928804505291
 31
0.0
  0
LINE
  5
473
330
18
100
AcDbEntity
  8
1
100
AcDbLine
 10
39.54174636971726
 20
3.877928804505291
 30
0.0
 11
39.27282588286764
 21
3.894478433775319
 31
0.0
  0
LINE
  5
474
330
18
100
AcDbEntity
  8
1
100
AcDbLine
 10
39.27282588286764
 20
3.894478433775319
 30
0.0
 11
39.00392110160247
 21
3.9
 31
0.0
  0
LINE
  5
475
330
18
100
AcDbEntity
  8
1
100
AcDbLine
 10
35.67393256145753
 20
3.083297544017207
 30
0.0
 11
36.0901873314697
 21
3.26935273272615
 31
0.0
  0
LINE
  5
476
330
18
100
AcDbEntity
  8
1
100
AcDbLine
 10
36.0901873314697
 20
3.26935273272615
 30
0.0
 11
36.50644207371057
 21
3.433234532391913
 31
0.0
  0
LINE
  5
477
330
18
100
AcDbEntity
  8
1
100
AcDbLine
 10
36.50644207371057
 20
3.433234532391913
 30
0.0
 11
36.92270639970724
 21
3.573833838679382
 31
0.0
  0
LINE
  5
478
330
18
100
AcDbEntity
  8
1
100
AcDbLine
 10
36.92270639970724
 20
3.573833838679382
 30
0.0
 11
37.33898156627138
 21
3.690193826965147
 31
0.0
  0
LINE
  5
479
330
18
100
AcDbEntity
  8
1
100
AcDbLine
 10
37.33898156627138
 20
3.690193826965147
 30
0.0
 11
37.75524312844722
 21
3.781518962776307
 31
0.0
  0
LINE
  5
47A
330
18
100
AcDbEntity
  8
1
100
AcDbLine
 10
37.75524312844722
 20
3.781518962776307
 30
0.0
 11
38.17147826912002
 21
3.847194136900552
 31
0.0
  0
LINE
  5
47B
330
18
100
AcDbEntity
  8
1
100
AcDbLine
 10
38.17147826912002
 20
3.847194136900552
 30
0.0
 11
38.587701576314
 21
3.88677624238894
 31
0.0
  0
LINE
  5
47C
330
18
100
AcDbEntity
  8
1
100
AcDbLine
 10
38.587701576314
 20
3.88677624238894
 30
0.0
 11
39.00392110160246
 21
3.899999999999999
 31
0.0
  0
LINE
  5
47D
330
18
100
AcDbEntity
  8
1
100
AcDbLine
 10
49.38877594758539
 20
1.122362260062565
 30
0.0
 11
48.58103164406192
 21
1.702581733678337
 31
0.0
  0
LINE
  5
47E
330
18
100
AcDbEntity
  8
1
100
AcDbLine
 10
48.58103164406192
 20
1.702581733678337
 30
0.0
 11
47.77325535366923
 21
2.239406262135813
 31
0.0
  0
LINE
  5
47F
330
18
100
AcDbEntity
  8
1
100
AcDbLine
 10
47.77325535366923
 20
2.239406262135813
 30
0.0
 11
46.96550958489898
 21
2.719103051623311
 31
0.0
  0
LINE
  5
480
330
18
100
AcDbEntity
  8
1
100
AcDbLine
 10
46.96550958489898
 20
2.719103051623311
 30
0.0
 11
46.56163098135209
 21
2.933652970677343
 31
0.0
  0
LINE
  5
481
330
18
100
AcDbEntity
  8
1
100
AcDbLine
 10
46.56163098135209
 20
2.933652970677343
 30
0.0
 11
46.15773716213899
 21
3.129476443329883
 31
0.0
  0
LINE
  5
482
330
18
100
AcDbEntity
  8
1
100
AcDbLine
 10
46.15773716213899
 20
3.129476443329883
 30
0.0
 11
45.7538578116384
 21
3.305308193187111
 31
0.0
  0
LINE
  5
483
330
18
100
AcDbEntity
  8
1
100
AcDbLine
 10
45.7538578116384
 20
3.305308193187111
 30
0.0
 11
45.34998753102581
 21
3.460031669630613
 31
0.0
  0
LINE
  5
484
330
18
100
AcDbEntity
  8
1
100
AcDbLine
 10
45.34998753102581
 20
3.460031669630613
 30
0.0
 11
44.94611306973344
 21
3.592664936039222
 31
0.0
  0
LINE
  5
485
330
18
100
AcDbEntity
  8
1
100
AcDbLine
 10
44.94611306973344
 20
3.592664936039222
 30
0.0
 11
44.54222203921703
 21
3.702361731087974
 31
0.0
  0
LINE
  5
486
330
18
100
AcDbEntity
  8
1
100
AcDbLine
 10
44.54222203921703
 20
3.702361731087974
 30
0.0
 11
44.13833731665146
 21
3.788412868750348
 31
0.0
  0
LINE
  5
487
330
18
100
AcDbEntity
  8
1
100
AcDbLine
 10
44.13833731665146
 20
3.788412868750348
 30
0.0
 11
43.73446573771699
 21
3.850271446030684
 31
0.0
  0
LINE
  5
488
330
18
100
AcDbEntity
  8
1
100
AcDbLine
 10
43.73446573771699
 20
3.850271446030684
 30
0.0
 11
43.33059536530792
 21
3.887546686519012
 31
0.0
  0
LINE
  5
489
330
18
100
AcDbEntity
  8
1
100
AcDbLine
 10
43.33059536530792
 20
3.887546686519012
 30
0.0
 11
42.92671042185717
 21
3.899999999999996
 31
0.0
  0
LINE
  5
48A
330
18
100
AcDbEntity
  8
1
100
AcDbLine
 10
46.25669770333031
 20
3.083298136445632
 30
0.0
 11
46.67294551446165
 21
3.269350991950203
 31
0.0
  0
LINE
  5
48B
330
18
100
AcDbEntity
  8
1
100
AcDbLine
 10
46.67294551446165
 20
3.269350991950203
 30
0.0
 11
47.08919664322674
 21
3.433231192084298
 31
0.0
  0
LINE
  5
48C
330
18
100
AcDbEntity
  8
1
100
AcDbLine
 10
47.08919664322674
 20
3.433231192084298
 30
0.0
 11
47.5054489409488
 21
3.573826336929812
 31
0.0
  0
LINE
  5
48D
330
18
100
AcDbEntity
  8
1
100
AcDbLine
 10
47.5054489409488
 20
3.573826336929812
 30
0.0
 11
47.92170036558295
 21
3.690182152999771
 31
0.0
  0
LINE
  5
48E
330
18
100
AcDbEntity
  8
1
100
AcDbLine
 10
47.92170036558295
 20
3.690182152999771
 30
0.0
 11
48.33794876737854
 21
3.781509092817359
 31
0.0
  0
LINE
  5
48F
330
18
100
AcDbEntity
  8
1
100
AcDbLine
 10
48.33794876737854
 20
3.781509092817359
 30
0.0
 11
48.75419525191307
 21
3.847188114193711
 31
0.0
  0
LINE
  5
490
330
18
100
AcDbEntity
  8
1
100
AcDbLine
 10
48.75419525191307
 20
3.847188114193711
 30
0.0
 11
49.17044546695085
 21
3.88677457114638
 31
0.0
  0
LINE
  5
491
330
18
100
AcDbEntity
  8
1
100
AcDbLine
 10
49.17044546695085
 20
3.88677457114638
 30
0.0
 11
49.58668737599574
 21
3.9
 31
0.0
  0
LINE
  5
492
330
18
100
AcDbEntity
  8
1
 62
     1
100
AcDbLine
 10
60.8782753302239
 20
5.55625
 30
0.0
 11
60.93601038406182
 21
5.556249999999999
 31
0.0
  0
LINE
  5
493
330
18
100
AcDbEntity
  8
1
 62
     1
100
AcDbLine
 10
66.32113247308104
 20
-5.556250000000019
 30
0.0
 11
65.4870413542231
 21
-4.111562477582103
 31
0.0
  0
LINE
  5
494
330
18
100
AcDbEntity
  8
1
 62
     1
100
AcDbLine
 10
71.39118026147098
 20
0.3188553004739439
 30
0.0
 11
71.39118026147098
 21
-2.987564607805894
 31
0.0
  0
LINE
  5
495
330
18
100
AcDbEntity
  8
1
 62
     1
100
AcDbLine
 10
69.82584017509427
 20
1.861028041536114
 30
0.0
 11
69.82584017509426
 21
-1.898640105536237
 31
0.0
  0
ARC
  5
496
330
18
100
AcDbEntity
  8
1
 62
     1
100
AcDbCircle
 10
127.5256755132481
 20
-36.19287822559465
 30
0.0
 40
65.22604832229476
100
AcDbArc
 50
150.2694601897781
 51
151.5272574917796
  0
ARC
  5
497
330
18
100
AcDbEntity
  8
1
 62
     1
100
AcDbCircle
 10
75.15848344469676
 20
-0.482084689684787
 30
0.0
 40
5.437970470154408
100
AcDbArc
 50
218.2129795299168
 51
226.1453066398687
  0
ARC
  5
498
330
18
100
AcDbEntity
  8
1
 62
     1
100
AcDbCircle
 10
87.54833386173337
 20
-12.75118452685774
 30
0.0
 40
17.67030578116857
100
AcDbArc
 50
147.1892176888904
 51
149.3509351836029
  0
LINE
  5
499
330
18
100
AcDbEntity
  8
1
 62
     1
100
AcDbLine
 10
68.13541818736677
 20
3.502852054640174
 30
0.0
 11
68.13541818736675
 21
-0.2296470316729776
 31
0.0
  0
LINE
  5
49A
330
18
100
AcDbEntity
  8
1
 62
     1
100
AcDbLine
 10
62.6925610445096
 20
5.55625
 30
0.0
 11
62.75029609834754
 21
5.55625
 31
0.0
  0
ARC
  5
49B
330
18
100
AcDbEntity
  8
1
 62
     1
100
AcDbCircle
 10
-15.99504259296853
 20
43.82118555500102
 30
0.0
 40
94.45878036800278
100
AcDbArc
 50
328.5234245863265
 51
329.55983109293
  0
LINE
  5
49C
330
18
100
AcDbEntity
  8
1
 62
     1
100
AcDbLine
 10
65.44285714285714
 20
-4.034925126627877
 30
0.0
 11
65.44285714285714
 21
-4.016882548398121
 31
0.0
  0
LINE
  5
49D
330
18
100
AcDbEntity
  8
1
 62
     1
100
AcDbLine
 10
65.44285714285714
 20
-4.016882548398121
 30
0.0
 11
65.44285714285715
 21
-2.897183003310551
 31
0.0
  0
LINE
  5
49E
330
18
100
AcDbEntity
  8
1
 62
     1
100
AcDbLine
 10
64.56458181263326
 20
-3.603140369743266
 30
0.0
 11
64.67165401025237
 21
-3.540024115164801
 31
0.0
  0
LINE
  5
49F
330
18
100
AcDbEntity
  8
1
 62
     1
100
AcDbLine
 10
64.67165401025237
 20
-3.540024115164801
 30
0.0
 11
64.77955899067895
 21
-3.469708763582263
 31
0.0
  0
LINE
  5
4A0
330
18
100
AcDbEntity
  8
1
 62
     1
100
AcDbLine
 10
64.77955899067895
 20
-3.469708763582263
 30
0.0
 11
64.88827106189585
 21
-3.392188074682057
 31
0.0
  0
LINE
  5
4A1
330
18
100
AcDbEntity
  8
1
 62
     1
100
AcDbLine
 10
64.88827106189585
 20
-3.392188074682057
 30
0.0
 11
64.9977692150196
 21
-3.307465735613262
 31
0.0
  0
LINE
  5
4A2
330
18
100
AcDbEntity
  8
1
 62
     1
100
AcDbLine
 10
64.9977692150196
 20
-3.307465735613262
 30
0.0
 11
65.10802191008895
 21
-3.215561269461952
 31
0.0
  0
LINE
  5
4A3
330
18
100
AcDbEntity
  8
1
 62
     1
100
AcDbLine
 10
65.10802191008895
 20
-3.215561269461952
 30
0.0
 11
65.2189903701092
 21
-3.116508416455573
 31
0.0
  0
LINE
  5
4A4
330
18
100
AcDbEntity
  8
1
 62
     1
100
AcDbLine
 10
65.2189903701092
 20
-3.116508416455573
 30
0.0
 11
65.44285714285715
 21
-2.89718300331055
 31
0.0
  0
LINE
  5
4A5
330
18
100
AcDbEntity
  8
1
 62
     1
100
AcDbLine
 10
62.75029609834755
 20
-4.873916149898887
 30
0.0
 11
63.62857142857143
 21
-3.767232302679457
 31
0.0
  0
LINE
  5
4A6
330
18
100
AcDbEntity
  8
1
 62
     1
100
AcDbLine
 10
62.75029609834753
 20
-1.887119371130986
 30
0.0
 11
62.80372296519816
 21
-1.89202095504626
 31
0.0
  0
LINE
  5
4A7
330
18
100
AcDbEntity
  8
1
 62
     1
100
AcDbLine
 10
62.80372296519816
 20
-1.89202095504626
 30
0.0
 11
62.85736824403634
 21
-1.894988184394363
 31
0.0
  0
LINE
  5
4A8
330
18
100
AcDbEntity
  8
1
 62
     1
100
AcDbLine
 10
62.85736824403634
 20
-1.894988184394363
 30
0.0
 11
62.91122168496864
 21
-1.89600497942174
 31
0.0
  0
LINE
  5
4A9
330
18
100
AcDbEntity
  8
1
 62
     1
100
AcDbLine
 10
62.91122168496864
 20
-1.89600497942174
 30
0.0
 11
62.96527324357199
 21
-1.895055263388987
 31
0.0
  0
LINE
  5
4AA
330
18
100
AcDbEntity
  8
1
 62
     1
100
AcDbLine
 10
62.96527324357199
 20
-1.895055263388987
 30
0.0
 11
63.01952834771866
 21
-1.892123805569054
 31
0.0
  0
LINE
  5
4AB
330
18
100
AcDbEntity
  8
1
 62
     1
100
AcDbLine
 10
63.01952834771866
 20
-1.892123805569054
 30
0.0
 11
63.07398537496988
 21
-1.887197212990263
 31
0.0
  0
LINE
  5
4AC
330
18
100
AcDbEntity
  8
1
 62
     1
100
AcDbLine
 10
63.07398537496988
 20
-1.887197212990263
 30
0.0
 11
63.12863565797529
 21
-1.880261964231461
 31
0.0
  0
LINE
  5
4AD
330
18
100
AcDbEntity
  8
1
 62
     1
100
AcDbLine
 10
63.12863565797529
 20
-1.880261964231461
 30
0.0
 11
63.18348353674519
 21
-1.871304045873037
 31
0.0
  0
LINE
  5
4AE
330
18
100
AcDbEntity
  8
1
 62
     1
100
AcDbLine
 10
63.18348353674519
 20
-1.871304045873037
 30
0.0
 11
63.23851803033947
 21
-1.860312455910715
 31
0.0
  0
LINE
  5
4AF
330
18
100
AcDbEntity
  8
1
 62
     1
100
AcDbLine
 10
63.23851803033947
 20
-1.860312455910715
 30
0.0
 11
63.34913628194697
 21
-1.832179144610845
 31
0.0
  0
LINE
  5
4B0
330
18
100
AcDbEntity
  8
1
 62
     1
100
AcDbLine
 10
63.34913628194697
 20
-1.832179144610845
 30
0.0
 11
63.46044345118396
 21
-1.795778860457173
 31
0.0
  0
LINE
  5
4B1
330
18
100
AcDbEntity
  8
1
 62
     1
100
AcDbLine
 10
63.46044345118396
 20
-1.795778860457173
 30
0.0
 11
63.54434374521949
 21
-1.763010476732572
 31
0.0
  0
LINE
  5
4B2
330
18
100
AcDbEntity
  8
1
 62
     1
100
AcDbLine
 10
63.54434374521949
 20
-1.763010476732572
 30
0.0
 11
63.62857142857143
 21
-1.725527628650843
 31
0.0
  0
LINE
  5
4B3
330
18
100
AcDbEntity
  8
1
 62
     1
100
AcDbLine
 10
61.81428571428573
 20
-3.019052365521328
 30
0.0
 11
62.05251156661423
 21
-3.456369463619229
 31
0.0
  0
LINE
  5
4B4
330
18
100
AcDbEntity
  8
1
 62
     1
100
AcDbLine
 10
62.05251156661423
 20
-3.456369463619229
 30
0.0
 11
62.27817963272376
 21
-3.914724139615599
 31
0.0
  0
LINE
  5
4B5
330
18
100
AcDbEntity
  8
1
 62
     1
100
AcDbLine
 10
62.27817963272376
 20
-3.914724139615599
 30
0.0
 11
62.69256104450962
 21
-4.843116587549237
 31
0.0
  0
LINE
  5
4B6
330
18
100
AcDbEntity
  8
1
 62
     1
100
AcDbLine
 10
61.81428571428573
 20
-3.019052365521328
 30
0.0
 11
61.81428571428572
 21
-0.3337925230707117
 31
0.0
  0
LINE
  5
4B7
330
18
100
AcDbEntity
  8
1
 62
     1
100
AcDbLine
 10
60.93601038406184
 20
-3.625671086369525
 30
0.0
 11
61.81428571428573
 21
-3.019052365521328
 31
0.0
  0
LINE
  5
4B8
330
18
100
AcDbEntity
  8
1
 62
     1
100
AcDbLine
 10
60.93601038406183
 20
0.069592109553578
 30
0.0
 11
61.04306912380999
 21
-0.0082493624446199
 31
0.0
  0
LINE
  5
4B9
330
18
100
AcDbEntity
  8
1
 62
     1
100
AcDbLine
 10
61.04306912380999
 20
-0.0082493624446199
 30
0.0
 11
61.15096379414341
 21
-0.0786843196769743
 31
0.0
  0
LINE
  5
4BA
330
18
100
AcDbEntity
  8
1
 62
     1
100
AcDbLine
 10
61.15096379414341
 20
-0.0786843196769743
 30
0.0
 11
61.2596788720498
 21
-0.1414954538312055
 31
0.0
  0
LINE
  5
4BB
330
18
100
AcDbEntity
  8
1
 62
     1
100
AcDbLine
 10
61.2596788720498
 20
-0.1414954538312055
 30
0.0
 11
61.36918213921459
 21
-0.1964624729770258
 31
0.0
  0
LINE
  5
4BC
330
18
100
AcDbEntity
  8
1
 62
     1
100
AcDbLine
 10
61.36918213921459
 20
-0.1964624729770258
 30
0.0
 11
61.47943883904428
 21
-0.243374685992176
 31
0.0
  0
LINE
  5
4BD
330
18
100
AcDbEntity
  8
1
 62
     1
100
AcDbLine
 10
61.47943883904428
 20
-0.243374685992176
 30
0.0
 11
61.59040990835318
 21
-0.2820297969379758
 31
0.0
  0
LINE
  5
4BE
330
18
100
AcDbEntity
  8
1
 62
     1
100
AcDbLine
 10
61.59040990835318
 20
-0.2820297969379758
 30
0.0
 11
61.64615137544585
 21
-0.2982001211334211
 31
0.0
  0
LINE
  5
4BF
330
18
100
AcDbEntity
  8
1
 62
     1
100
AcDbLine
 10
61.64615137544585
 20
-0.2982001211334211
 30
0.0
 11
61.70204745861636
 21
-0.3122321202315831
 31
0.0
  0
LINE
  5
4C0
330
18
100
AcDbEntity
  8
1
 62
     1
100
AcDbLine
 10
61.70204745861636
 20
-0.3122321202315831
 30
0.0
 11
61.75809603548206
 21
-0.324103756856522
 31
0.0
  0
LINE
  5
4C1
330
18
100
AcDbEntity
  8
1
 62
     1
100
AcDbLine
 10
61.75809603548206
 20
-0.324103756856522
 30
0.0
 11
61.81428571428572
 21
-0.3337925230707122
 31
0.0
  0
LINE
  5
4C2
330
18
100
AcDbEntity
  8
1
 62
     1
100
AcDbLine
 10
60.0
 20
-1.885811135462168
 30
0.0
 11
60.12064576780082
 21
-2.062145144448688
 31
0.0
  0
LINE
  5
4C3
330
18
100
AcDbEntity
  8
1
 62
     1
100
AcDbLine
 10
60.12064576780082
 20
-2.062145144448688
 30
0.0
 11
60.23822584373131
 21
-2.252356617329262
 31
0.0
  0
LINE
  5
4C4
330
18
100
AcDbEntity
  8
1
 62
     1
100
AcDbLine
 10
60.23822584373131
 20
-2.252356617329262
 30
0.0
 11
60.46389398560128
 21
-2.665844437816559
 31
0.0
  0
LINE
  5
4C5
330
18
100
AcDbEntity
  8
1
 62
     1
100
AcDbLine
 10
60.46389398560128
 20
-2.665844437816559
 30
0.0
 11
60.67706759042245
 21
-3.111476988994303
 31
0.0
  0
LINE
  5
4C6
330
18
100
AcDbEntity
  8
1
 62
     1
100
AcDbLine
 10
60.67706759042245
 20
-3.111476988994303
 30
0.0
 11
60.87827533022389
 21
-3.577328475109039
 31
0.0
  0
LINE
  5
4C7
330
18
100
AcDbEntity
  8
1
 62
     1
100
AcDbLine
 10
60.00000000000001
 20
1.100516376536779
 30
0.0
 11
60.11142288321788
 21
1.009099649991066
 31
0.0
  0
LINE
  5
4C8
330
18
100
AcDbEntity
  8
1
 62
     1
100
AcDbLine
 10
60.11142288321788
 20
1.009099649991066
 30
0.0
 11
60.22246495411057
 21
0.9087481246179744
 31
0.0
  0
LINE
  5
4C9
330
18
100
AcDbEntity
  8
1
 62
     1
100
AcDbLine
 10
60.22246495411057
 20
0.9087481246179744
 30
0.0
 11
60.33308506114214
 21
0.7996914975088945
 31
0.0
  0
LINE
  5
4CA
330
18
100
AcDbEntity
  8
1
 62
     1
100
AcDbLine
 10
60.33308506114214
 20
0.7996914975088945
 30
0.0
 11
60.44321796283363
 21
0.6822009350975663
 31
0.0
  0
LINE
  5
4CB
330
18
100
AcDbEntity
  8
1
 62
     1
100
AcDbLine
 10
60.44321796283363
 20
0.6822009350975663
 30
0.0
 11
60.66190883344631
 21
0.4229220247305384
 31
0.0
  0
LINE
  5
4CC
330
18
100
AcDbEntity
  8
1
 62
     1
100
AcDbLine
 10
60.66190883344631
 20
0.4229220247305384
 30
0.0
 11
60.87827533022389
 21
0.1330674833206024
 31
0.0
  0
LINE
  5
4CD
330
18
100
AcDbEntity
  8
1
 62
     1
100
AcDbLine
 10
60.00000000000001
 20
-1.885811135462169
 30
0.0
 11
60.00000000000001
 21
1.100516376536779
 31
0.0
  0
ARC
  5
4CE
330
18
100
AcDbEntity
  8
1
 62
     1
100
AcDbCircle
 10
20.88262355927453
 20
23.80931980676322
 30
0.0
 40
55.65171409047207
100
AcDbArc
 50
328.2246728814627
 51
329.9847243783406
  0
LINE
  5
4CF
330
18
100
AcDbEntity
  8
1
 62
     1
100
AcDbLine
 10
68.19315324120471
 20
-5.496253874967703
 30
0.0
 11
68.1931532412047
 21
-5.55625
 31
0.0
  0
LINE
  5
4D0
330
18
100
AcDbEntity
  8
1
 62
     1
100
AcDbLine
 10
69.07142857142858
 20
-4.035033214285715
 30
0.0
 11
68.1931532412047
 21
-5.556249999999993
 31
0.0
  0
LINE
  5
4D1
330
18
100
AcDbEntity
  8
1
 62
     1
100
AcDbLine
 10
69.07142857142858
 20
-4.035033214285715
 30
0.0
 11
69.07142857142858
 21
-4.035031922284625
 31
0.0
  0
LINE
  5
4D2
330
18
100
AcDbEntity
  8
1
 62
     1
100
AcDbLine
 10
69.07142857142858
 20
-4.035031922284625
 30
0.0
 11
69.07142857142857
 21
-4.034657855179334
 31
0.0
  0
LINE
  5
4D3
330
18
100
AcDbEntity
  8
1
 62
     1
100
AcDbLine
 10
69.07142857142857
 20
-4.034657855179334
 30
0.0
 11
69.07142857142858
 21
-4.029632526086464
 31
0.0
  0
LINE
  5
4D4
330
18
100
AcDbEntity
  8
1
 62
     1
100
AcDbLine
 10
69.2363894175265
 20
-4.320753647769609
 30
0.0
 11
69.07142857142858
 21
-4.035033214285715
 31
0.0
  0
ARC
  5
4D5
330
18
100
AcDbEntity
  8
1
 62
     1
100
AcDbCircle
 10
82.7471907277674
 20
3.434659030889153
 30
0.0
 40
15.57838817587946
100
AcDbArc
 50
209.8565024795701
 51
213.9568137463631
  0
LINE
  5
4D6
330
18
100
AcDbEntity
  8
1
 62
     1
100
AcDbLine
 10
63.62857142857143
 20
-3.767232302679457
 30
0.0
 11
64.50684675879532
 21
-5.49119540186428
 31
0.0
  0
LINE
  5
4D7
330
18
100
AcDbEntity
  8
1
 62
     1
100
AcDbLine
 10
64.50684675879533
 20
-3.554578644791202
 30
0.0
 11
64.50684675879532
 21
-5.491195401864282
 31
0.0
  0
LINE
  5
4D8
330
18
100
AcDbEntity
  8
1
 62
     1
100
AcDbLine
 10
63.62857142857143
 20
-3.767232302679457
 30
0.0
 11
63.62857142857143
 21
-1.725527628650843
 31
0.0
  0
ARC
  5
4D9
330
18
100
AcDbEntity
  8
1
 62
     1
100
AcDbCircle
 10
125.9163309922882
 20
23.99505312678443
 30
0.0
 40
64.86807017743834
100
AcDbArc
 50
205.2730908807834
 51
207.0321084256859
  0
LINE
  5
4DA
330
18
100
AcDbEntity
  8
1
 62
     1
100
AcDbLine
 10
68.13541818736675
 20
-5.556249999999994
 30
0.0
 11
67.25714285714287
 21
-4.035033214285715
 31
0.0
  0
LINE
  5
4DB
330
18
100
AcDbEntity
  8
1
 62
     1
100
AcDbLine
 10
66.37886752691898
 20
-4.859603091172282
 30
0.0
 11
66.81205494346452
 21
-4.321780264648594
 31
0.0
  0
LINE
  5
4DC
330
18
100
AcDbEntity
  8
1
 62
     1
100
AcDbLine
 10
66.81205494346452
 20
-4.321780264648594
 30
0.0
 11
67.25714285714287
 21
-3.699320367992516
 31
0.0
  0
LINE
  5
4DD
330
18
100
AcDbEntity
  8
1
 62
     1
100
AcDbLine
 10
66.37886752691898
 20
-4.859603091169483
 30
0.0
 11
66.37886752691898
 21
-5.55625
 31
0.0
  0
LINE
  5
4DE
330
18
100
AcDbEntity
  8
1
 62
     1
100
AcDbLine
 10
67.25714285714287
 20
-4.035033214285715
 30
0.0
 11
66.37886752691898
 21
-5.556249999999993
 31
0.0
  0
LINE
  5
4DF
330
18
100
AcDbEntity
  8
1
 62
     1
100
AcDbLine
 10
67.25714285714287
 20
-4.035033214285715
 30
0.0
 11
67.25714285714287
 21
-4.034960563759697
 31
0.0
  0
LINE
  5
4E0
330
18
100
AcDbEntity
  8
1
 62
     1
100
AcDbLine
 10
67.25714285714287
 20
-4.034960563759697
 30
0.0
 11
67.25714285714288
 21
-4.01323545460603
 31
0.0
  0
LINE
  5
4E1
330
18
100
AcDbEntity
  8
1
 62
     1
100
AcDbLine
 10
67.25714285714288
 20
-4.01323545460603
 30
0.0
 11
67.25714285714287
 21
-3.699320367992487
 31
0.0
  0
LINE
  5
4E2
330
18
100
AcDbEntity
  8
1
 62
     1
100
AcDbLine
 10
59.12172466977612
 20
-1.914994884706764
 30
0.0
 11
59.34684681235984
 21
-1.892902371122551
 31
0.0
  0
LINE
  5
4E3
330
18
100
AcDbEntity
  8
1
 62
     1
100
AcDbLine
 10
59.34684681235984
 20
-1.892902371122551
 30
0.0
 11
59.56858480325106
 21
-1.882909470584962
 31
0.0
  0
LINE
  5
4E4
330
18
100
AcDbEntity
  8
1
 62
     1
100
AcDbLine
 10
59.56858480325106
 20
-1.882909470584962
 30
0.0
 11
60.0
 21
-1.885811135462168
 31
0.0
  0
LINE
  5
4E5
330
18
100
AcDbEntity
  8
1
 62
     1
100
AcDbLine
 10
59.12172466977613
 20
2.017427112395639
 30
0.0
 11
59.32985100807662
 21
1.755849508456993
 31
0.0
  0
LINE
  5
4E6
330
18
100
AcDbEntity
  8
1
 62
     1
100
AcDbLine
 10
59.32985100807662
 20
1.755849508456993
 30
0.0
 11
59.54101225504474
 21
1.518081604277168
 31
0.0
  0
LINE
  5
4E7
330
18
100
AcDbEntity
  8
1
 62
     1
100
AcDbLine
 10
59.54101225504474
 20
1.518081604277168
 30
0.0
 11
59.64767512271617
 21
1.40877903145616
 31
0.0
  0
LINE
  5
4E8
330
18
100
AcDbEntity
  8
1
 62
     1
100
AcDbLine
 10
59.64767512271617
 20
1.40877903145616
 30
0.0
 11
59.75501752980642
 21
1.306214237322901
 31
0.0
  0
LINE
  5
4E9
330
18
100
AcDbEntity
  8
1
 62
     1
100
AcDbLine
 10
59.75501752980642
 20
1.306214237322901
 30
0.0
 11
59.86299312673092
 21
1.210653747230093
 31
0.0
  0
LINE
  5
4EA
330
18
100
AcDbEntity
  8
1
 62
     1
100
AcDbLine
 10
59.86299312673092
 20
1.210653747230093
 30
0.0
 11
59.97154226801094
 21
1.12236248183953
 31
0.0
  0
LINE
  5
4EB
330
18
100
AcDbEntity
  8
1
 62
     1
100
AcDbLine
 10
59.12172466977614
 20
2.017427112395658
 30
0.0
 11
59.12172466977615
 21
-1.914994884706769
 31
0.0
  0
LINE
  5
4EC
330
18
100
AcDbEntity
  8
1
 62
     1
100
AcDbLine
 10
57.49801952250768
 20
4.557225774662037
 30
0.0
 11
57.17378274706309
 21
3.860946383793141
 31
0.0
  0
LINE
  5
4ED
330
18
100
AcDbEntity
  8
1
 62
     1
100
AcDbLine
 10
57.17378274706309
 20
3.860946383793141
 30
0.0
 11
56.82120077272594
 21
3.18555748839441
 31
0.0
  0
LINE
  5
4EE
330
18
100
AcDbEntity
  8
1
 62
     1
100
AcDbLine
 10
58.1857142857143
 20
-0.5120464477037282
 30
0.0
 11
58.24641280641065
 21
-0.5671584899722795
 31
0.0
  0
LINE
  5
4EF
330
18
100
AcDbEntity
  8
1
 62
     1
100
AcDbLine
 10
58.24641280641065
 20
-0.5671584899722795
 30
0.0
 11
58.30636006019853
 21
-0.6272089654755476
 31
0.0
  0
LINE
  5
4F0
330
18
100
AcDbEntity
  8
1
 62
     1
100
AcDbLine
 10
58.30636006019853
 20
-0.6272089654755476
 30
0.0
 11
58.36554292494237
 21
-0.6919348404314968
 31
0.0
  0
LINE
  5
4F1
330
18
100
AcDbEntity
  8
1
 62
     1
100
AcDbLine
 10
58.36554292494237
 20
-0.6919348404314968
 30
0.0
 11
58.42394017620892
 21
-0.7610696197552904
 31
0.0
  0
LINE
  5
4F2
330
18
100
AcDbEntity
  8
1
 62
     1
100
AcDbLine
 10
58.42394017620892
 20
-0.7610696197552904
 30
0.0
 11
58.53836071805111
 21
-0.9115989859054179
 31
0.0
  0
LINE
  5
4F3
330
18
100
AcDbEntity
  8
1
 62
     1
100
AcDbLine
 10
58.53836071805111
 20
-0.9115989859054179
 30
0.0
 11
58.64960827162392
 21
-1.076953081318935
 31
0.0
  0
LINE
  5
4F4
330
18
100
AcDbEntity
  8
1
 62
     1
100
AcDbLine
 10
58.64960827162392
 20
-1.076953081318935
 30
0.0
 11
58.75772609178218
 21
-1.255467020640654
 31
0.0
  0
LINE
  5
4F5
330
18
100
AcDbEntity
  8
1
 62
     1
100
AcDbLine
 10
58.75772609178218
 20
-1.255467020640654
 30
0.0
 11
58.86278205701441
 21
-1.445620002427729
 31
0.0
  0
LINE
  5
4F6
330
18
100
AcDbEntity
  8
1
 62
     1
100
AcDbLine
 10
58.86278205701441
 20
-1.445620002427729
 30
0.0
 11
59.06398961593818
 21
-1.855274551187879
 31
0.0
  0
LINE
  5
4F7
330
18
100
AcDbEntity
  8
1
 62
     1
100
AcDbLine
 10
58.18571428571428
 20
2.39446078498925
 30
0.0
 11
58.24146573230232
 21
2.392200442028014
 31
0.0
  0
LINE
  5
4F8
330
18
100
AcDbEntity
  8
1
 62
     1
100
AcDbLine
 10
58.24146573230232
 20
2.392200442028014
 30
0.0
 11
58.29713727803181
 21
2.387509317341226
 31
0.0
  0
LINE
  5
4F9
330
18
100
AcDbEntity
  8
1
 62
     1
100
AcDbLine
 10
58.29713727803181
 20
2.387509317341226
 30
0.0
 11
58.35271199914524
 21
2.380403405217245
 31
0.0
  0
LINE
  5
4FA
330
18
100
AcDbEntity
  8
1
 62
     1
100
AcDbLine
 10
58.35271199914524
 20
2.380403405217245
 30
0.0
 11
58.40817937294033
 21
2.370897881223739
 31
0.0
  0
LINE
  5
4FB
330
18
100
AcDbEntity
  8
1
 62
     1
100
AcDbLine
 10
58.40817937294033
 20
2.370897881223739
 30
0.0
 11
58.46354607425837
 21
2.359007651127928
 31
0.0
  0
LINE
  5
4FC
330
18
100
AcDbEntity
  8
1
 62
     1
100
AcDbLine
 10
58.46354607425837
 20
2.359007651127928
 30
0.0
 11
58.51879941100913
 21
2.344752364315617
 31
0.0
  0
LINE
  5
4FD
330
18
100
AcDbEntity
  8
1
 62
     1
100
AcDbLine
 10
58.51879941100913
 20
2.344752364315617
 30
0.0
 11
58.57392598092898
 21
2.328151654998351
 31
0.0
  0
LINE
  5
4FE
330
18
100
AcDbEntity
  8
1
 62
     1
100
AcDbLine
 10
58.57392598092898
 20
2.328151654998351
 30
0.0
 11
58.62893222976809
 21
2.309220476709935
 31
0.0
  0
LINE
  5
4FF
330
18
100
AcDbEntity
  8
1
 62
     1
100
AcDbLine
 10
58.62893222976809
 20
2.309220476709935
 30
0.0
 11
58.68381258050547
 21
2.28797981665206
 31
0.0
  0
LINE
  5
500
330
18
100
AcDbEntity
  8
1
 62
     1
100
AcDbLine
 10
58.68381258050547
 20
2.28797981665206
 30
0.0
 11
58.73855420519504
 21
2.264453107765887
 31
0.0
  0
LINE
  5
501
330
18
100
AcDbEntity
  8
1
 62
     1
100
AcDbLine
 10
58.73855420519504
 20
2.264453107765887
 30
0.0
 11
58.84762325360828
 21
2.210615746795272
 31
0.0
  0
LINE
  5
502
330
18
100
AcDbEntity
  8
1
 62
     1
100
AcDbLine
 10
58.84762325360828
 20
2.210615746795272
 30
0.0
 11
58.95610896237434
 21
2.147886965538322
 31
0.0
  0
LINE
  5
503
330
18
100
AcDbEntity
  8
1
 62
     1
100
AcDbLine
 10
58.95610896237434
 20
2.147886965538322
 30
0.0
 11
59.06398961593817
 21
2.076447880293931
 31
0.0
  0
ARC
  5
504
330
18
100
AcDbEntity
  8
1
 62
     1
100
AcDbCircle
 10
53.69580937820523
 20
-6.631769535112673
 30
0.0
 40
7.589784278505365
100
AcDbArc
 50
53.73333033924759
 51
59.93583946755987
  0
LINE
  5
505
330
18
100
AcDbEntity
  8
1
 62
     1
100
AcDbLine
 10
58.1857142857143
 20
-0.5120464477039306
 30
0.0
 11
58.1857142857143
 21
2.394460784989251
 31
0.0
  0
ARC
  5
506
330
18
100
AcDbEntity
  8
1
 62
     1
100
AcDbCircle
 10
66.8402636324107
 20
9.095718163103104
 30
0.0
 40
10.9463799503743
100
AcDbArc
 50
211.4116273676135
 51
217.750783502059
  0
LINE
  5
507
330
18
100
AcDbEntity
  8
1
 62
     1
100
AcDbLine
 10
57.49801952250767
 20
3.390585417713896
 30
0.0
 11
57.49801952250766
 21
-0.063146472623062
 31
0.0
  0
LINE
  5
508
330
18
100
AcDbEntity
  8
1
 62
     1
100
AcDbLine
 10
71.39118026147098
 20
4.91052555759508
 30
0.0
 11
72.34645764077027
 21
4.647386257589631
 31
0.0
  0
ARC
  5
509
330
18
100
AcDbEntity
  8
1
 62
     1
100
AcDbCircle
 10
69.18683155227473
 20
-0.2178337433182422
 30
0.0
 40
5.528198649855041
100
AcDbArc
 50
79.5547743515806
 51
83.36228756216323
  0
ARC
  5
50A
330
18
100
AcDbEntity
  8
1
 62
     1
100
AcDbCircle
 10
72.7763091765674
 20
0.934330487333102
 30
0.0
 40
1.510472307474444
100
AcDbArc
 50
253.466375159005
 51
267.104040167077
  0
LINE
  5
50B
330
18
100
AcDbEntity
  8
1
 62
     1
100
AcDbLine
 10
72.34645764077025
 20
-0.513702839796654
 30
0.0
 11
72.34645764077027
 21
-3.447724875714827
 31
0.0
  0
ARC
  5
50C
330
18
100
AcDbEntity
  8
1
 62
     1
100
AcDbCircle
 10
154.8831054492845
 20
-109.7436658572954
 30
0.0
 40
134.577594838901
100
AcDbArc
 50
127.6382659625263
 51
127.8286160357453
  0
ARC
  5
50D
330
18
100
AcDbEntity
  8
1
 62
     1
100
AcDbCircle
 10
67.9873004955194
 20
-2.313470335644884
 30
0.0
 40
4.302365365065351
100
AcDbArc
 50
37.71589155811128
 51
47.64697065455465
  0
LINE
  5
50E
330
18
100
AcDbEntity
  8
1
 62
     1
100
AcDbLine
 10
70.88571428571429
 20
-2.096169680350661
 30
0.0
 11
71.01769896163357
 21
-2.298993668997342
 31
0.0
  0
LINE
  5
50F
330
18
100
AcDbEntity
  8
1
 62
     1
100
AcDbLine
 10
71.01769896163357
 20
-2.298993668997342
 30
0.0
 11
71.145991556569
 21
-2.51700699077507
 31
0.0
  0
LINE
  5
510
330
18
100
AcDbEntity
  8
1
 62
     1
100
AcDbLine
 10
71.145991556569
 20
-2.51700699077507
 30
0.0
 11
71.39118026147096
 21
-2.987564611201275
 31
0.0
  0
ARC
  5
511
330
18
100
AcDbEntity
  8
1
 62
     1
100
AcDbCircle
 10
73.52705938322664
 20
4.444734730671076
 30
0.0
 40
4.45836591691871
100
AcDbArc
 50
221.5223834779217
 51
228.1788522692952
  0
LINE
  5
512
330
18
100
AcDbEntity
  8
1
 62
     1
100
AcDbLine
 10
70.18906922391399
 20
1.489204942241752
 30
0.0
 11
70.18906922391399
 21
-2.185518472202449
 31
0.0
  0
ARC
  5
513
330
18
100
AcDbEntity
  8
1
 62
     1
100
AcDbCircle
 10
71.39860411047037
 20
-8.903535030439679
 30
0.0
 40
6.826139986092988
100
AcDbArc
 50
94.3087162533177
 51
100.2063851447807
  0
LINE
  5
514
330
18
100
AcDbEntity
  8
1
 62
     1
100
AcDbLine
 10
70.88571428571429
 20
-2.096169680350704
 30
0.0
 11
70.88571428571427
 21
0.8659283089443109
 31
0.0
  0
LINE
  5
515
330
18
100
AcDbEntity
  8
1
 62
     1
100
AcDbLine
 10
65.44285714285715
 20
2.04303984174497
 30
0.0
 11
65.44285714285716
 21
3.88084719633214
 31
0.0
  0
LINE
  5
516
330
18
100
AcDbEntity
  8
1
 62
     1
100
AcDbLine
 10
65.44285714285716
 20
2.043039841744963
 30
0.0
 11
65.47239934317231
 21
2.051868262535665
 31
0.0
  0
LINE
  5
517
330
18
100
AcDbEntity
  8
1
 62
     1
100
AcDbLine
 10
65.47239934317231
 20
2.051868262535665
 30
0.0
 11
65.50177289501461
 21
2.059407129376488
 31
0.0
  0
LINE
  5
518
330
18
100
AcDbEntity
  8
1
 62
     1
100
AcDbLine
 10
65.50177289501461
 20
2.059407129376488
 30
0.0
 11
65.53096802090106
 21
2.065670225295058
 31
0.0
  0
LINE
  5
519
330
18
100
AcDbEntity
  8
1
 62
     1
100
AcDbLine
 10
65.53096802090106
 20
2.065670225295058
 30
0.0
 11
65.55998177983605
 21
2.070672696043158
 31
0.0
  0
LINE
  5
51A
330
18
100
AcDbEntity
  8
1
 62
     1
100
AcDbLine
 10
65.55998177983605
 20
2.070672696043158
 30
0.0
 11
65.58881899695282
 21
2.074431529756909
 31
0.0
  0
LINE
  5
51B
330
18
100
AcDbEntity
  8
1
 62
     1
100
AcDbLine
 10
65.58881899695282
 20
2.074431529756909
 30
0.0
 11
65.61747243551264
 21
2.076961548956154
 31
0.0
  0
LINE
  5
51C
330
18
100
AcDbEntity
  8
1
 62
     1
100
AcDbLine
 10
65.61747243551264
 20
2.076961548956154
 30
0.0
 11
65.64593812063063
 21
2.078277742358845
 31
0.0
  0
LINE
  5
51D
330
18
100
AcDbEntity
  8
1
 62
     1
100
AcDbLine
 10
65.64593812063063
 20
2.078277742358845
 30
0.0
 11
65.67422249119612
 21
2.07839599142326
 31
0.0
  0
LINE
  5
51E
330
18
100
AcDbEntity
  8
1
 62
     1
100
AcDbLine
 10
65.67422249119612
 20
2.07839599142326
 30
0.0
 11
65.70232081948909
 21
2.077331733607375
 31
0.0
  0
LINE
  5
51F
330
18
100
AcDbEntity
  8
1
 62
     1
100
AcDbLine
 10
65.70232081948909
 20
2.077331733607375
 30
0.0
 11
65.73022877869737
 21
2.075100225577503
 31
0.0
  0
LINE
  5
520
330
18
100
AcDbEntity
  8
1
 62
     1
100
AcDbLine
 10
65.73022877869737
 20
2.075100225577503
 30
0.0
 11
65.75795289410493
 21
2.071716096669104
 31
0.0
  0
LINE
  5
521
330
18
100
AcDbEntity
  8
1
 62
     1
100
AcDbLine
 10
65.75795289410493
 20
2.071716096669104
 30
0.0
 11
65.78549088366354
 21
2.067194878098231
 31
0.0
  0
LINE
  5
522
330
18
100
AcDbEntity
  8
1
 62
     1
100
AcDbLine
 10
65.78549088366354
 20
2.067194878098231
 30
0.0
 11
65.81283855633427
 21
2.061552194091605
 31
0.0
  0
LINE
  5
523
330
18
100
AcDbEntity
  8
1
 62
     1
100
AcDbLine
 10
65.81283855633427
 20
2.061552194091605
 30
0.0
 11
65.84000145780206
 21
2.054801741756964
 31
0.0
  0
LINE
  5
524
330
18
100
AcDbEntity
  8
1
 62
     1
100
AcDbLine
 10
65.84000145780206
 20
2.054801741756964
 30
0.0
 11
65.86697967524627
 21
2.046958592936942
 31
0.0
  0
LINE
  5
525
330
18
100
AcDbEntity
  8
1
 62
     1
100
AcDbLine
 10
65.86697967524627
 20
2.046958592936942
 30
0.0
 11
65.89376951509368
 21
2.038038631220946
 31
0.0
  0
LINE
  5
526
330
18
100
AcDbEntity
  8
1
 62
     1
100
AcDbLine
 10
65.89376951509368
 20
2.038038631220946
 30
0.0
 11
65.9203764214546
 21
2.028054325650003
 31
0.0
  0
LINE
  5
527
330
18
100
AcDbEntity
  8
1
 62
     1
100
AcDbLine
 10
65.9203764214546
 20
2.028054325650003
 30
0.0
 11
65.94680407027643
 21
2.017019055955512
 31
0.0
  0
LINE
  5
528
330
18
100
AcDbEntity
  8
1
 62
     1
100
AcDbLine
 10
65.94680407027643
 20
2.017019055955512
 30
0.0
 11
65.9730495839399
 21
2.004948750663583
 31
0.0
  0
LINE
  5
529
330
18
100
AcDbEntity
  8
1
 62
     1
100
AcDbLine
 10
65.9730495839399
 20
2.004948750663583
 30
0.0
 11
66.02498342207197
 21
1.977766354463001
 31
0.0
  0
LINE
  5
52A
330
18
100
AcDbEntity
  8
1
 62
     1
100
AcDbLine
 10
66.02498342207197
 20
1.977766354463001
 30
0.0
 11
66.0761987707915
 21
1.946611254867985
 31
0.0
  0
LINE
  5
52B
330
18
100
AcDbEntity
  8
1
 62
     1
100
AcDbLine
 10
66.0761987707915
 20
1.946611254867985
 30
0.0
 11
66.12670257180193
 21
1.911596288732683
 31
0.0
  0
LINE
  5
52C
330
18
100
AcDbEntity
  8
1
 62
     1
100
AcDbLine
 10
66.12670257180193
 20
1.911596288732683
 30
0.0
 11
66.17649478243041
 21
1.872834796766022
 31
0.0
  0
LINE
  5
52D
330
18
100
AcDbEntity
  8
1
 62
     1
100
AcDbLine
 10
66.17649478243041
 20
1.872834796766022
 30
0.0
 11
66.22560162841808
 21
1.830420863642475
 31
0.0
  0
LINE
  5
52E
330
18
100
AcDbEntity
  8
1
 62
     1
100
AcDbLine
 10
66.22560162841808
 20
1.830420863642475
 30
0.0
 11
66.29796704585937
 21
1.760205323919244
 31
0.0
  0
LINE
  5
52F
330
18
100
AcDbEntity
  8
1
 62
     1
100
AcDbLine
 10
66.32113247308105
 20
4.795024927448237
 30
0.0
 11
66.32113247308105
 21
1.735756657110547
 31
0.0
  0
ARC
  5
530
330
18
100
AcDbEntity
  8
1
 62
     1
100
AcDbCircle
 10
87.94446428622079
 20
16.21604606960706
 30
0.0
 40
24.41819699300126
100
AcDbArc
 50
207.9726034138987
 51
212.0876040946152
  0
LINE
  5
531
330
18
100
AcDbEntity
  8
1
 62
     1
100
AcDbLine
 10
66.37886752691898
 20
4.762638636785723
 30
0.0
 11
66.37886752691898
 21
1.675335529929763
 31
0.0
  0
LINE
  5
532
330
18
100
AcDbEntity
  8
1
 62
     1
100
AcDbLine
 10
66.37886752691898
 20
1.675335529929749
 30
0.0
 11
66.45968745129844
 21
1.593728903660498
 31
0.0
  0
LINE
  5
533
330
18
100
AcDbEntity
  8
1
 62
     1
100
AcDbLine
 10
66.45968745129844
 20
1.593728903660498
 30
0.0
 11
66.46154533616856
 21
1.59182715106098
 31
0.0
  0
LINE
  5
534
330
18
100
AcDbEntity
  8
1
 62
     1
100
AcDbLine
 10
67.25714285714287
 20
0.6900515010304378
 30
0.0
 11
67.25714285714287
 21
3.245149844118639
 31
0.0
  0
LINE
  5
535
330
18
100
AcDbEntity
  8
1
 62
     1
100
AcDbLine
 10
63.62857142857143
 20
3.135450950156248
 30
0.0
 11
63.68926996115416
 21
3.190455293111351
 31
0.0
  0
LINE
  5
536
330
18
100
AcDbEntity
  8
1
 62
     1
100
AcDbLine
 10
63.68926996115416
 20
3.190455293111351
 30
0.0
 11
63.74921721644876
 21
3.240768597961241
 31
0.0
  0
LINE
  5
537
330
18
100
AcDbEntity
  8
1
 62
     1
100
AcDbLine
 10
63.74921721644876
 20
3.240768597961241
 30
0.0
 11
63.80840006526059
 21
3.286429934669537
 31
0.0
  0
LINE
  5
538
330
18
100
AcDbEntity
  8
1
 62
     1
100
AcDbLine
 10
63.80840006526059
 20
3.286429934669537
 30
0.0
 11
63.86679730650248
 21
3.327472325694839
 31
0.0
  0
LINE
  5
539
330
18
100
AcDbEntity
  8
1
 62
     1
100
AcDbLine
 10
63.86679730650248
 20
3.327472325694839
 30
0.0
 11
63.9244025012969
 21
3.363942933511233
 31
0.0
  0
LINE
  5
53A
330
18
100
AcDbEntity
  8
1
 62
     1
100
AcDbLine
 10
63.9244025012969
 20
3.363942933511233
 30
0.0
 11
63.98121783860623
 21
3.395894455458293
 31
0.0
  0
LINE
  5
53B
330
18
100
AcDbEntity
  8
1
 62
     1
100
AcDbLine
 10
63.98121783860623
 20
3.395894455458293
 30
0.0
 11
64.03723664864933
 21
3.423376442118993
 31
0.0
  0
LINE
  5
53C
330
18
100
AcDbEntity
  8
1
 62
     1
100
AcDbLine
 10
64.03723664864933
 20
3.423376442118993
 30
0.0
 11
64.0924654290906
 21
3.446448382344482
 31
0.0
  0
LINE
  5
53D
330
18
100
AcDbEntity
  8
1
 62
     1
100
AcDbLine
 10
64.0924654290906
 20
3.446448382344482
 30
0.0
 11
64.14691291866029
 21
3.465170622058437
 31
0.0
  0
LINE
  5
53E
330
18
100
AcDbEntity
  8
1
 62
     1
100
AcDbLine
 10
64.14691291866029
 20
3.465170622058437
 30
0.0
 11
64.17384229442891
 21
3.472918700067898
 31
0.0
  0
LINE
  5
53F
330
18
100
AcDbEntity
  8
1
 62
     1
100
AcDbLine
 10
64.17384229442891
 20
3.472918700067898
 30
0.0
 11
64.2005832692687
 21
3.479603262416014
 31
0.0
  0
LINE
  5
540
330
18
100
AcDbEntity
  8
1
 62
     1
100
AcDbLine
 10
64.2005832692687
 20
3.479603262416014
 30
0.0
 11
64.22713547348336
 21
3.48523220672132
 31
0.0
  0
LINE
  5
541
330
18
100
AcDbEntity
  8
1
 62
     1
100
AcDbLine
 10
64.22713547348336
 20
3.48523220672132
 30
0.0
 11
64.25349632183382
 21
3.48981290493324
 31
0.0
  0
LINE
  5
542
330
18
100
AcDbEntity
  8
1
 62
     1
100
AcDbLine
 10
64.25349632183382
 20
3.48981290493324
 30
0.0
 11
64.27966322908112
 21
3.493352729001202
 31
0.0
  0
LINE
  5
543
330
18
100
AcDbEntity
  8
1
 62
     1
100
AcDbLine
 10
64.27966322908112
 20
3.493352729001202
 30
0.0
 11
64.3056390988592
 21
3.495859780822796
 31
0.0
  0
LINE
  5
544
330
18
100
AcDbEntity
  8
1
 62
     1
100
AcDbLine
 10
64.3056390988592
 20
3.495859780822796
 30
0.0
 11
64.33143255009709
 21
3.497343400051258
 31
0.0
  0
LINE
  5
545
330
18
100
AcDbEntity
  8
1
 62
     1
100
AcDbLine
 10
64.33143255009709
 20
3.497343400051258
 30
0.0
 11
64.35704190098701
 21
3.497811946646268
 31
0.0
  0
LINE
  5
546
330
18
100
AcDbEntity
  8
1
 62
     1
100
AcDbLine
 10
64.35704190098701
 20
3.497811946646268
 30
0.0
 11
64.38246517883212
 21
3.497273747029538
 31
0.0
  0
LINE
  5
547
330
18
100
AcDbEntity
  8
1
 62
     1
100
AcDbLine
 10
64.38246517883212
 20
3.497273747029538
 30
0.0
 11
64.40770060711503
 21
3.495737117849816
 31
0.0
  0
LINE
  5
548
330
18
100
AcDbEntity
  8
1
 62
     1
100
AcDbLine
 10
64.40770060711503
 20
3.495737117849816
 30
0.0
 11
64.4327551968422
 21
3.493210087302708
 31
0.0
  0
LINE
  5
549
330
18
100
AcDbEntity
  8
1
 62
     1
100
AcDbLine
 10
64.4327551968422
 20
3.493210087302708
 30
0.0
 11
64.45763213672117
 21
3.489701305606542
 31
0.0
  0
LINE
  5
54A
330
18
100
AcDbEntity
  8
1
 62
     1
100
AcDbLine
 10
64.45763213672117
 20
3.489701305606542
 30
0.0
 11
64.48232984971716
 21
3.485219736153621
 31
0.0
  0
LINE
  5
54B
330
18
100
AcDbEntity
  8
1
 62
     1
100
AcDbLine
 10
64.48232984971716
 20
3.485219736153621
 30
0.0
 11
64.50684675879532
 21
3.479774342336257
 31
0.0
  0
LINE
  5
54C
330
18
100
AcDbEntity
  8
1
 62
     1
100
AcDbLine
 10
64.50684675879532
 20
5.475621857521505
 30
0.0
 11
64.50684675879533
 21
3.479774342336258
 31
0.0
  0
LINE
  5
54D
330
18
100
AcDbEntity
  8
1
 62
     1
100
AcDbLine
 10
69.0714285714286
 20
2.195553804304362
 30
0.0
 11
69.1191864145926
 21
2.187569386335371
 31
0.0
  0
LINE
  5
54E
330
18
100
AcDbEntity
  8
1
 62
     1
100
AcDbLine
 10
69.1191864145926
 20
2.187569386335371
 30
0.0
 11
69.16688742302237
 21
2.177803456168274
 31
0.0
  0
LINE
  5
54F
330
18
100
AcDbEntity
  8
1
 62
     1
100
AcDbLine
 10
69.16688742302237
 20
2.177803456168274
 30
0.0
 11
69.2145209722289
 21
2.166268509503638
 31
0.0
  0
LINE
  5
550
330
18
100
AcDbEntity
  8
1
 62
     1
100
AcDbLine
 10
69.2145209722289
 20
2.166268509503638
 30
0.0
 11
69.30955655015158
 21
2.137938267227439
 31
0.0
  0
LINE
  5
551
330
18
100
AcDbEntity
  8
1
 62
     1
100
AcDbLine
 10
69.30955655015158
 20
2.137938267227439
 30
0.0
 11
69.40428101213666
 21
2.102669167696197
 31
0.0
  0
LINE
  5
552
330
18
100
AcDbEntity
  8
1
 62
     1
100
AcDbLine
 10
69.40428101213666
 20
2.102669167696197
 30
0.0
 11
69.4986447549545
 21
2.060570963277851
 31
0.0
  0
LINE
  5
553
330
18
100
AcDbEntity
  8
1
 62
     1
100
AcDbLine
 10
69.4986447549545
 20
2.060570963277851
 30
0.0
 11
69.59264255405238
 21
2.011744023555403
 31
0.0
  0
LINE
  5
554
330
18
100
AcDbEntity
  8
1
 62
     1
100
AcDbLine
 10
69.59264255405238
 20
2.011744023555403
 30
0.0
 11
69.68623253357369
 21
1.956312157048015
 31
0.0
  0
LINE
  5
555
330
18
100
AcDbEntity
  8
1
 62
     1
100
AcDbLine
 10
69.68623253357369
 20
1.956312157048015
 30
0.0
 11
69.75615970867779
 21
1.910467601719894
 31
0.0
  0
LINE
  5
556
330
18
100
AcDbEntity
  8
1
 62
     1
100
AcDbLine
 10
69.75615970867779
 20
1.910467601719894
 30
0.0
 11
69.82584017509427
 21
1.861028041536103
 31
0.0
  0
LINE
  5
557
330
18
100
AcDbEntity
  8
1
 62
     1
100
AcDbLine
 10
69.07142857142858
 20
-0.7509484118435648
 30
0.0
 11
69.07142857142857
 21
2.195553804304903
 31
0.0
  0
LINE
  5
558
330
18
100
AcDbEntity
  8
1
 62
     1
100
AcDbLine
 10
69.07142857142858
 20
-0.750948411843565
 30
0.0
 11
69.12273024016386
 21
-0.802074072030023
 31
0.0
  0
LINE
  5
559
330
18
100
AcDbEntity
  8
1
 62
     1
100
AcDbLine
 10
69.12273024016386
 20
-0.802074072030023
 30
0.0
 11
69.17350014699646
 21
-0.8566420024591009
 31
0.0
  0
LINE
  5
55A
330
18
100
AcDbEntity
  8
1
 62
     1
100
AcDbLine
 10
69.17350014699646
 20
-0.8566420024591009
 30
0.0
 11
69.2733986397531
 21
-0.9754401280295508
 31
0.0
  0
LINE
  5
55B
330
18
100
AcDbEntity
  8
1
 62
     1
100
AcDbLine
 10
69.2733986397531
 20
-0.9754401280295508
 30
0.0
 11
69.37105697886584
 21
-1.106066099608611
 31
0.0
  0
LINE
  5
55C
330
18
100
AcDbEntity
  8
1
 62
     1
100
AcDbLine
 10
69.37105697886584
 20
-1.106066099608611
 30
0.0
 11
69.46645288394146
 21
-1.24734589972335
 31
0.0
  0
LINE
  5
55D
330
18
100
AcDbEntity
  8
1
 62
     1
100
AcDbLine
 10
69.46645288394146
 20
-1.24734589972335
 30
0.0
 11
69.55959396840873
 21
-1.398198727414068
 31
0.0
  0
LINE
  5
55E
330
18
100
AcDbEntity
  8
1
 62
     1
100
AcDbLine
 10
69.55959396840873
 20
-1.398198727414068
 30
0.0
 11
69.65051164545412
 21
-1.557635308825278
 31
0.0
  0
LINE
  5
55F
330
18
100
AcDbEntity
  8
1
 62
     1
100
AcDbLine
 10
69.65051164545412
 20
-1.557635308825278
 30
0.0
 11
69.82584017509426
 21
-1.898640105536244
 31
0.0
  0
LINE
  5
560
330
18
100
AcDbEntity
  8
1
 62
     1
100
AcDbLine
 10
68.1931532412047
 20
3.453343608657959
 30
0.0
 11
68.62634065276163
 21
2.781734282717919
 31
0.0
  0
LINE
  5
561
330
18
100
AcDbEntity
  8
1
 62
     1
100
AcDbLine
 10
68.62634065276163
 20
2.781734282717919
 30
0.0
 11
68.84756176981479
 21
2.476626577662094
 31
0.0
  0
LINE
  5
562
330
18
100
AcDbEntity
  8
1
 62
     1
100
AcDbLine
 10
68.84756176981479
 20
2.476626577662094
 30
0.0
 11
69.07142857142858
 21
2.195553804304361
 31
0.0
  0
LINE
  5
563
330
18
100
AcDbEntity
  8
1
 62
     1
100
AcDbLine
 10
68.1931532412047
 20
3.45334360865796
 30
0.0
 11
68.1931532412047
 21
-0.2930628351363173
 31
0.0
  0
LINE
  5
564
330
18
100
AcDbEntity
  8
1
 62
     1
100
AcDbLine
 10
68.1931532412047
 20
-0.2930628351360232
 30
0.0
 11
68.41827538773802
 21
-0.3923947563850467
 31
0.0
  0
LINE
  5
565
330
18
100
AcDbEntity
  8
1
 62
     1
100
AcDbLine
 10
68.41827538773802
 20
-0.3923947563850467
 30
0.0
 11
68.64001336367707
 21
-0.5039741100143551
 31
0.0
  0
LINE
  5
566
330
18
100
AcDbEntity
  8
1
 62
     1
100
AcDbLine
 10
68.64001336367707
 20
-0.5039741100143551
 30
0.0
 11
69.07142857142858
 21
-0.750948411843565
 31
0.0
  0
ARC
  5
567
330
18
100
AcDbEntity
  8
1
 62
     1
100
AcDbCircle
 10
127.1857179512014
 20
-34.20905878817361
 30
0.0
 40
77.3066360151819
100
AcDbArc
 50
150.0496475691918
 51
150.3519993139824
  0
LINE
  5
568
330
18
100
AcDbEntity
  8
1
 62
     1
100
AcDbLine
 10
60.8782753302239
 20
5.55625
 30
0.0
 11
60.8782753302239
 21
5.556230343179145
 31
0.0
  0
LINE
  5
569
330
18
100
AcDbEntity
  8
1
 62
     1
100
AcDbLine
 10
60.8782753302239
 20
5.556230343179145
 30
0.0
 11
60.87827533022389
 21
5.550470689250015
 31
0.0
  0
LINE
  5
56A
330
18
100
AcDbEntity
  8
1
 62
     1
100
AcDbLine
 10
60.87827533022389
 20
5.550470689250015
 30
0.0
 11
60.87827533022389
 21
5.470508379116667
 31
0.0
  0
LINE
  5
56B
330
18
100
AcDbEntity
  8
1
 62
     1
100
AcDbLine
 10
60.93601038406183
 20
5.55625
 30
0.0
 11
60.93601038406184
 21
5.556227791931015
 31
0.0
  0
LINE
  5
56C
330
18
100
AcDbEntity
  8
1
 62
     1
100
AcDbLine
 10
60.93601038406184
 20
5.556227791931015
 30
0.0
 11
60.93601038406183
 21
5.549713727111655
 31
0.0
  0
LINE
  5
56D
330
18
100
AcDbEntity
  8
1
 62
     1
100
AcDbLine
 10
60.93601038406183
 20
5.549713727111655
 30
0.0
 11
60.93601038406183
 21
5.459041437943459
 31
0.0
  0
ARC
  5
56E
330
18
100
AcDbEntity
  8
1
 62
     1
100
AcDbCircle
 10
8.984584419867815
 20
-23.58469084724054
 30
0.0
 40
59.51874004330339
100
AcDbArc
 50
27.42421229883402
 51
29.20761471039362
  0
LINE
  5
56F
330
18
100
AcDbEntity
  8
1
 62
     1
100
AcDbLine
 10
61.81428571428572
 20
3.827954937536544
 30
0.0
 11
61.81428571428572
 21
4.035033214285715
 31
0.0
  0
ARC
  5
570
330
18
100
AcDbEntity
  8
1
 62
     1
100
AcDbCircle
 10
145.0386791314596
 20
49.02770627103142
 30
0.0
 40
91.50857080651845
100
AcDbArc
 50
208.4281089088048
 51
209.5619665860565
  0
LINE
  5
571
330
18
100
AcDbEntity
  8
1
 62
     1
100
AcDbLine
 10
64.56458181263326
 20
5.464488441374198
 30
0.0
 11
64.56458181263326
 21
3.430054557159101
 31
0.0
  0
ARC
  5
572
330
18
100
AcDbEntity
  8
1
 62
     1
100
AcDbCircle
 10
44.16220668748352
 20
-10.45686665586834
 30
0.0
 40
24.68007205872122
100
AcDbArc
 50
30.42928039105969
 51
34.24124653251722
  0
LINE
  5
573
330
18
100
AcDbEntity
  8
1
 62
     1
100
AcDbLine
 10
62.75029609834754
 20
5.55625
 30
0.0
 11
62.75029609834755
 21
5.556078438538806
 31
0.0
  0
LINE
  5
574
330
18
100
AcDbEntity
  8
1
 62
     1
100
AcDbLine
 10
62.75029609834755
 20
5.556078438538806
 30
0.0
 11
62.75029609834753
 21
5.504225890969652
 31
0.0
  0
LINE
  5
575
330
18
100
AcDbEntity
  8
1
 62
     1
100
AcDbLine
 10
62.75029609834753
 20
5.504225890969652
 30
0.0
 11
62.75029609834755
 21
4.747291723947198
 31
0.0
  0
ARC
  5
576
330
18
100
AcDbEntity
  8
1
 62
     1
100
AcDbCircle
 10
27.64525780960494
 20
-15.43059190064932
 30
0.0
 40
40.49085537166012
100
AcDbArc
 50
27.29204022591542
 51
29.88968517616358
  0
LINE
  5
577
330
18
100
AcDbEntity
  8
1
 62
     1
100
AcDbLine
 10
63.62857142857143
 20
3.135450950156246
 30
0.0
 11
63.62857142857143
 21
4.035033214285715
 31
0.0
  0
LINE
  5
578
330
18
100
AcDbEntity
  8
1
 62
     1
100
AcDbLine
 10
61.81428571428572
 20
3.827954937536562
 30
0.0
 11
62.05251157171043
 21
4.152301084760939
 31
0.0
  0
LINE
  5
579
330
18
100
AcDbEntity
  8
1
 62
     1
100
AcDbLine
 10
62.05251157171043
 20
4.152301084760939
 30
0.0
 11
62.16693212045572
 21
4.293401156014605
 31
0.0
  0
LINE
  5
57A
330
18
100
AcDbEntity
  8
1
 62
     1
100
AcDbLine
 10
62.16693212045572
 20
4.293401156014605
 30
0.0
 11
62.27817965349243
 21
4.420015659432485
 31
0.0
  0
LINE
  5
57B
330
18
100
AcDbEntity
  8
1
 62
     1
100
AcDbLine
 10
62.27817965349243
 20
4.420015659432485
 30
0.0
 11
62.38629743327954
 21
4.531998313114868
 31
0.0
  0
LINE
  5
57C
330
18
100
AcDbEntity
  8
1
 62
     1
100
AcDbLine
 10
62.38629743327954
 20
4.531998313114868
 30
0.0
 11
62.49135337018789
 21
4.629298741117646
 31
0.0
  0
LINE
  5
57D
330
18
100
AcDbEntity
  8
1
 62
     1
100
AcDbLine
 10
62.49135337018789
 20
4.629298741117646
 30
0.0
 11
62.54275622793427
 21
4.672445208932119
 31
0.0
  0
LINE
  5
57E
330
18
100
AcDbEntity
  8
1
 62
     1
100
AcDbLine
 10
62.54275622793427
 20
4.672445208932119
 30
0.0
 11
62.59341503271413
 21
4.711928456190916
 31
0.0
  0
LINE
  5
57F
330
18
100
AcDbEntity
  8
1
 62
     1
100
AcDbLine
 10
62.59341503271413
 20
4.711928456190916
 30
0.0
 11
62.64334649145651
 21
4.747764020195051
 31
0.0
  0
LINE
  5
580
330
18
100
AcDbEntity
  8
1
 62
     1
100
AcDbLine
 10
62.64334649145651
 20
4.747764020195051
 30
0.0
 11
62.6925610445096
 21
4.779969164770018
 31
0.0
  0
LINE
  5
581
330
18
100
AcDbEntity
  8
1
 62
     1
100
AcDbLine
 10
62.6925610445096
 20
5.55625
 30
0.0
 11
62.6925610445096
 21
5.556085147662346
 31
0.0
  0
LINE
  5
582
330
18
100
AcDbEntity
  8
1
 62
     1
100
AcDbLine
 10
62.6925610445096
 20
5.556085147662346
 30
0.0
 11
62.6925610445096
 21
5.506303755409981
 31
0.0
  0
LINE
  5
583
330
18
100
AcDbEntity
  8
1
 62
     1
100
AcDbLine
 10
62.6925610445096
 20
5.506303755409981
 30
0.0
 11
62.69256104450959
 21
4.779969164796997
 31
0.0
  0
LINE
  5
584
330
18
100
AcDbEntity
  8
1
 62
     1
100
AcDbLine
 10
67.25714285714287
 20
0.6900515010304378
 30
0.0
 11
67.3040630191848
 21
0.6723405404117402
 31
0.0
  0
LINE
  5
585
330
18
100
AcDbEntity
  8
1
 62
     1
100
AcDbLine
 10
67.3040630191848
 20
0.6723405404117402
 30
0.0
 11
67.35054171824504
 21
0.6513535150190456
 31
0.0
  0
LINE
  5
586
330
18
100
AcDbEntity
  8
1
 62
     1
100
AcDbLine
 10
67.35054171824504
 20
0.6513535150190456
 30
0.0
 11
67.3965662439195
 21
0.6271930685084828
 31
0.0
  0
LINE
  5
587
330
18
100
AcDbEntity
  8
1
 62
     1
100
AcDbLine
 10
67.3965662439195
 20
0.6271930685084828
 30
0.0
 11
67.44212997760377
 21
0.5999597414091649
 31
0.0
  0
LINE
  5
588
330
18
100
AcDbEntity
  8
1
 62
     1
100
AcDbLine
 10
67.44212997760377
 20
0.5999597414091649
 30
0.0
 11
67.48722584379733
 21
0.5697511772287668
 31
0.0
  0
LINE
  5
589
330
18
100
AcDbEntity
  8
1
 62
     1
100
AcDbLine
 10
67.48722584379733
 20
0.5697511772287668
 30
0.0
 11
67.53185150358216
 21
0.536662469895574
 31
0.0
  0
LINE
  5
58A
330
18
100
AcDbEntity
  8
1
 62
     1
100
AcDbLine
 10
67.53185150358216
 20
0.536662469895574
 30
0.0
 11
67.5760038491124
 21
0.5007863122539721
 31
0.0
  0
LINE
  5
58B
330
18
100
AcDbEntity
  8
1
 62
     1
100
AcDbLine
 10
67.5760038491124
 20
0.5007863122539721
 30
0.0
 11
67.61968348544255
 21
0.4622125549811046
 31
0.0
  0
ARC
  5
58C
330
18
100
AcDbEntity
  8
1
 62
     1
100
AcDbCircle
 10
-749.9850955657455
 20
-661.840009781541
 30
0.0
 40
1046.954667276078
100
AcDbArc
 50
39.47287350048957
 51
39.53207315215832
  0
LINE
  5
58D
330
18
100
AcDbEntity
  8
1
 62
     1
100
AcDbLine
 10
58.1857142857143
 20
3.72221365526748
 30
0.0
 11
59.06398961593817
 21
5.463318349221242
 31
0.0
  0
ARC
  5
58E
330
18
100
AcDbEntity
  8
1
 62
     1
100
AcDbCircle
 10
-26.94874311702245
 20
-47.98171046200966
 30
0.0
 40
101.3196380184609
100
AcDbArc
 50
30.88844570036798
 51
31.8433912443724
  0
ARC
  5
58F
330
18
100
AcDbEntity
  8
1
 62
     1
100
AcDbCircle
 10
111.2843510919296
 20
22.18404149905675
 30
0.0
 40
60.32869835391612
100
AcDbArc
 50
205.2786955747507
 51
206.9306299456861
  0
ARC
  5
590
330
18
100
AcDbEntity
  8
1
 62
     1
100
AcDbCircle
 10
2.338968744094572
 20
-35.54243380553721
 30
0.0
 40
79.15241673317857
100
AcDbArc
 50
30.1481755143224
 51
30.99549395668739
  0
LINE
  5
591
330
18
100
AcDbEntity
  8
1
 62
     1
100
AcDbLine
 10
70.88571428571429
 20
4.033997478494751
 30
0.0
 11
70.88571428571429
 21
4.035033214285715
 31
0.0
  0
ARC
  5
592
330
18
100
AcDbEntity
  8
1
 62
     1
100
AcDbCircle
 10
91.60668045385509
 20
-7.92642551592462
 30
0.0
 40
23.92500822756413
100
AcDbArc
 50
147.6685762777765
 51
150.0058742750939
  0
LINE
  5
593
330
18
100
AcDbEntity
  8
1
 62
     1
100
AcDbLine
 10
71.39118026147098
 20
4.91052555759508
 30
0.0
 11
71.39118026147098
 21
4.910525557591109
 31
0.0
  0
LINE
  5
594
330
18
100
AcDbEntity
  8
1
 62
     1
100
AcDbLine
 10
71.39118026147098
 20
4.910525557591109
 30
0.0
 11
71.39118026147098
 21
4.910525556447199
 31
0.0
  0
LINE
  5
595
330
18
100
AcDbEntity
  8
1
 62
     1
100
AcDbLine
 10
71.39118026147098
 20
4.910525556447199
 30
0.0
 11
71.39118026147098
 21
4.910525261532982
 31
0.0
  0
LINE
  5
596
330
18
100
AcDbEntity
  8
1
 62
     1
100
AcDbLine
 10
71.39118026147098
 20
4.910525261532982
 30
0.0
 11
71.39118026147096
 21
4.910449567672641
 31
0.0
  0
LINE
  5
597
330
18
100
AcDbEntity
  8
1
 62
     1
100
AcDbLine
 10
71.39118026147096
 20
4.910449567672641
 30
0.0
 11
71.39118026147096
 21
4.904942134606024
 31
0.0
  0
LINE
  5
598
330
18
100
AcDbEntity
  8
1
 62
     1
100
AcDbLine
 10
71.39118026147096
 20
4.904942134606024
 30
0.0
 11
71.39118026147095
 21
4.868806633223266
 31
0.0
  0
LINE
  5
599
330
18
100
AcDbEntity
  8
1
 62
     1
100
AcDbLine
 10
72.34645764077027
 20
4.647386257589631
 30
0.0
 11
72.34645764077027
 21
4.647336612376942
 31
0.0
  0
LINE
  5
59A
330
18
100
AcDbEntity
  8
1
 62
     1
100
AcDbLine
 10
72.34645764077027
 20
4.647336612376942
 30
0.0
 11
72.34645764077027
 21
4.632612412932017
 31
0.0
  0
LINE
  5
59B
330
18
100
AcDbEntity
  8
1
 62
     1
100
AcDbLine
 10
72.34645764077027
 20
4.632612412932017
 30
0.0
 11
72.34645764077025
 21
4.422666646476038
 31
0.0
  0
ARC
  5
59C
330
18
100
AcDbEntity
  8
1
 62
     1
100
AcDbCircle
 10
32.60219269666995
 20
-16.73465875409175
 30
0.0
 40
45.02486413205578
100
AcDbArc
 50
27.05490431705503
 51
28.02800516228378
  0
ARC
  5
59D
330
18
100
AcDbEntity
  8
1
 62
     1
100
AcDbCircle
 10
66.38980504865782
 20
2.556062261464902
 30
0.0
 40
8.544175436660518
100
AcDbArc
 50
293.7126831621357
 51
296.4016568764916
  0
LINE
  5
59E
330
18
100
AcDbEntity
  8
1
 62
     1
100
AcDbLine
 10
72.7
 20
3.744617899160707
 30
0.0
 11
72.7
 21
4.035033214285715
 31
0.0
  0
LINE
  5
59F
330
18
100
AcDbEntity
  8
1
 62
     1
100
AcDbLine
 10
72.70000000000002
 20
-3.174037558874807
 30
0.0
 11
72.70000000000002
 21
-0.5741399886516797
 31
0.0
  0
LINE
  5
5A0
330
18
100
AcDbEntity
  8
1
 62
     1
100
AcDbLine
 10
67.37752908655301
 20
3.314504398034614
 30
0.0
 11
67.77536655159402
 21
4.11408359656388
 31
0.0
  0
LINE
  5
5A1
330
18
100
AcDbEntity
  8
1
 62
     1
100
AcDbLine
 10
67.77536655159402
 20
4.11408359656388
 30
0.0
 11
68.13541818736677
 21
4.922565421087628
 31
0.0
  0
LINE
  5
5A2
330
18
100
AcDbEntity
  8
1
 62
     1
100
AcDbLine
 10
68.13541818736675
 20
-5.486590837519544
 30
0.0
 11
68.13541818736675
 21
-5.55625
 31
0.0
  0
LINE
  5
5A3
330
18
100
AcDbEntity
  8
1
 62
     1
100
AcDbLine
 10
66.32113247308105
 20
-4.828507631497497
 30
0.0
 11
66.32113247308105
 21
-5.55625
 31
0.0
  0
LINE
  5
5A4
330
18
100
AcDbEntity
  8
1
 62
     1
100
AcDbLine
 10
64.56458181263326
 20
-3.603140369743258
 30
0.0
 11
64.56458181263326
 21
-5.500523262999435
 31
0.0
  0
LINE
  5
5A5
330
18
100
AcDbEntity
  8
1
 62
     1
100
AcDbLine
 10
62.75029609834755
 20
-1.887119371130964
 30
0.0
 11
62.75029609834754
 21
-4.87391614989888
 31
0.0
  0
LINE
  5
5A6
330
18
100
AcDbEntity
  8
1
 62
     1
100
AcDbLine
 10
62.6925610445096
 20
-1.827284855980545
 30
0.0
 11
62.69256104450959
 21
-4.843116587549194
 31
0.0
  0
LINE
  5
5A7
330
18
100
AcDbEntity
  8
1
 62
     1
100
AcDbLine
 10
60.93601038406182
 20
0.0695921095535469
 30
0.0
 11
60.93601038406183
 21
-3.625671086369508
 31
0.0
  0
LINE
  5
5A8
330
18
100
AcDbEntity
  8
1
 62
     1
100
AcDbLine
 10
60.8782753302239
 20
0.1330674833205956
 30
0.0
 11
60.87827533022391
 21
-3.57732847510901
 31
0.0
  0
LINE
  5
5A9
330
18
100
AcDbEntity
  8
1
 62
     1
100
AcDbLine
 10
59.06398961593818
 20
2.076447880293938
 30
0.0
 11
59.06398961593817
 21
-1.855274551187863
 31
0.0
  0
ARC
  5
5AA
330
18
100
AcDbEntity
  8
1
 62
     1
100
AcDbCircle
 10
63.05237527322038
 20
-1.508909231312043
 30
0.0
 40
2.190165976957561
100
AcDbArc
 50
235.5774532460472
 51
242.8583717838324
  0
ARC
  5
5AB
330
18
100
AcDbEntity
  8
1
 62
     1
100
AcDbCircle
 10
84.21092016815119
 20
-17.1680647154577
 30
0.0
 40
26.33516047434467
100
AcDbArc
 50
148.2628788653651
 51
152.1031492998378
  0
LINE
  5
5AC
330
18
100
AcDbEntity
  8
1
 62
     1
100
AcDbLine
 10
60.0
 20
-3.912217075438555
 30
0.0
 11
60.22245845062589
 21
-4.20073465638388
 31
0.0
  0
LINE
  5
5AD
330
18
100
AcDbEntity
  8
1
 62
     1
100
AcDbLine
 10
60.22245845062589
 20
-4.20073465638388
 30
0.0
 11
60.44320078172921
 21
-4.458175453361277
 31
0.0
  0
LINE
  5
5AE
330
18
100
AcDbEntity
  8
1
 62
     1
100
AcDbLine
 10
60.44320078172921
 20
-4.458175453361277
 30
0.0
 11
60.6618956789989
 21
-4.683780180292718
 31
0.0
  0
LINE
  5
5AF
330
18
100
AcDbEntity
  8
1
 62
     1
100
AcDbLine
 10
60.6618956789989
 20
-4.683780180292718
 30
0.0
 11
60.77038765235685
 21
-4.784463376203036
 31
0.0
  0
LINE
  5
5B0
330
18
100
AcDbEntity
  8
1
 62
     1
100
AcDbLine
 10
60.77038765235685
 20
-4.784463376203036
 30
0.0
 11
60.8782753302239
 21
-4.877007245436927
 31
0.0
  0
LINE
  5
5B1
330
18
100
AcDbEntity
  8
1
 62
     1
100
AcDbLine
 10
68.19315324120467
 20
4.951687104730631
 30
0.0
 11
69.07142857142858
 21
3.808865698652246
 31
0.0
  0
LINE
  5
5B2
330
18
100
AcDbEntity
  8
1
 62
     1
100
AcDbLine
 10
69.07142857142858
 20
3.808865698652246
 30
0.0
 11
69.82584017509424
 21
5.273298346846099
 31
0.0
  0
LINE
  5
5B3
330
18
100
AcDbEntity
  8
1
 62
     1
100
AcDbLine
 10
57.49801952250768
 20
-0.0631464726230621
 30
0.0
 11
57.41061898630156
 21
0.0614667055010901
 31
0.0
  0
LINE
  5
5B4
330
18
100
AcDbEntity
  8
1
 62
     1
100
AcDbLine
 10
57.41061898630156
 20
0.0614667055010901
 30
0.0
 11
57.32106137258663
 21
0.1761355485656496
 31
0.0
  0
LINE
  5
5B5
330
18
100
AcDbEntity
  8
1
 62
     1
100
AcDbLine
 10
57.32106137258663
 20
0.1761355485656496
 30
0.0
 11
57.22932541985118
 21
0.280041250276018
 31
0.0
  0
LINE
  5
5B6
330
18
100
AcDbEntity
  8
1
 62
     1
100
AcDbLine
 10
57.22932541985118
 20
0.280041250276018
 30
0.0
 11
57.18263701622039
 21
0.3276927037926228
 31
0.0
  0
LINE
  5
5B7
330
18
100
AcDbEntity
  8
1
 62
     1
100
AcDbLine
 10
57.18263701622039
 20
0.3276927037926228
 30
0.0
 11
57.13538632987422
 21
0.372342189396196
 31
0.0
  0
LINE
  5
5B8
330
18
100
AcDbEntity
  8
1
 62
     1
100
AcDbLine
 10
57.13538632987422
 20
0.372342189396196
 30
0.0
 11
57.13538254191353
 21
0.3723456250393856
 31
0.0
  0
LINE
  5
5B9
330
18
100
AcDbEntity
  8
1
 62
     1
100
AcDbLine
 10
57.49801952250768
 20
3.390585417713898
 30
0.0
 11
57.45087339568533
 21
3.387528177599781
 31
0.0
  0
LINE
  5
5BA
330
18
100
AcDbEntity
  8
1
 62
     1
100
AcDbLine
 10
57.45087339568533
 20
3.387528177599781
 30
0.0
 11
57.40361461535374
 21
3.382759863037622
 31
0.0
  0
LINE
  5
5BB
330
18
100
AcDbEntity
  8
1
 62
     1
100
AcDbLine
 10
57.40361461535374
 20
3.382759863037622
 30
0.0
 11
57.35625082864782
 21
3.376274082433687
 31
0.0
  0
LINE
  5
5BC
330
18
100
AcDbEntity
  8
1
 62
     1
100
AcDbLine
 10
57.35625082864782
 20
3.376274082433687
 30
0.0
 11
57.30878932315487
 21
3.368064378543278
 31
0.0
  0
LINE
  5
5BD
330
18
100
AcDbEntity
  8
1
 62
     1
100
AcDbLine
 10
57.30878932315487
 20
3.368064378543278
 30
0.0
 11
57.21355807737935
 21
3.346443141230421
 31
0.0
  0
LINE
  5
5BE
330
18
100
AcDbEntity
  8
1
 62
     1
100
AcDbLine
 10
57.21355807737935
 20
3.346443141230421
 30
0.0
 11
57.11795343338989
 21
3.317856258386651
 31
0.0
  0
LINE
  5
5BF
330
18
100
AcDbEntity
  8
1
 62
     1
100
AcDbLine
 10
57.11795343338989
 20
3.317856258386651
 30
0.0
 11
57.0219905641451
 21
3.282261120503897
 31
0.0
  0
LINE
  5
5C0
330
18
100
AcDbEntity
  8
1
 62
     1
100
AcDbLine
 10
57.0219905641451
 20
3.282261120503897
 30
0.0
 11
56.92571583199999
 21
3.239637036775819
 31
0.0
  0
LINE
  5
5C1
330
18
100
AcDbEntity
  8
1
 62
     1
100
AcDbLine
 10
56.92571583199999
 20
3.239637036775819
 30
0.0
 11
56.82915933024539
 21
3.189960698414978
 31
0.0
  0
LINE
  5
5C2
330
18
100
AcDbEntity
  8
1
 62
     1
100
AcDbLine
 10
56.82915933024539
 20
3.189960698414978
 30
0.0
 11
56.73236361999999
 21
3.133221708399922
 31
0.0
  0
ARC
  5
5C3
330
18
100
AcDbEntity
  8
1
 62
     1
100
AcDbCircle
 10
18.93208559027482
 20
19.10185637280857
 30
0.0
 40
45.55192786091545
100
AcDbArc
 50
327.8478129757003
 51
329.5112828884114
  0
LINE
  5
5C4
330
18
100
AcDbEntity
  8
1
 62
     1
100
AcDbLine
 10
57.49801952250768
 20
-5.139486286390158
 30
0.0
 11
57.49801952250768
 21
-5.226154928897741
 31
0.0
  0
LINE
  5
5C5
330
18
100
AcDbEntity
  8
1
 62
     1
100
AcDbLine
 10
58.1857142857143
 20
-4.035033214285715
 30
0.0
 11
57.49801952250768
 21
-5.226154928897742
 31
0.0
  0
LINE
  5
5C6
330
18
100
AcDbEntity
  8
1
 62
     1
100
AcDbLine
 10
58.1857142857143
 20
-4.035033214285715
 30
0.0
 11
58.1857142857143
 21
-4.035027327376485
 31
0.0
  0
LINE
  5
5C7
330
18
100
AcDbEntity
  8
1
 62
     1
100
AcDbLine
 10
58.1857142857143
 20
-4.035027327376485
 30
0.0
 11
58.18571428571429
 21
-4.033312837939503
 31
0.0
  0
LINE
  5
5C8
330
18
100
AcDbEntity
  8
1
 62
     1
100
AcDbLine
 10
58.18571428571429
 20
-4.033312837939503
 30
0.0
 11
58.1857142857143
 21
-4.009887133398709
 31
0.0
  0
LINE
  5
5C9
330
18
100
AcDbEntity
  8
1
 62
     1
100
AcDbLine
 10
58.55226438592658
 20
-4.669916315358387
 30
0.0
 11
58.1857142857143
 21
-4.035033214285715
 31
0.0
  0
ARC
  5
5CA
330
18
100
AcDbEntity
  8
1
 62
     1
100
AcDbCircle
 10
72.81954901408783
 20
3.532044834826316
 30
0.0
 40
16.45679868214387
100
AcDbArc
 50
209.8936878608513
 51
213.2934852235019
  0
ARC
  5
5CB
330
18
100
AcDbEntity
  8
1
 62
     1
100
AcDbCircle
 10
160.7666448033834
 20
-60.92173444110232
 30
0.0
 40
115.7761044943968
100
AcDbArc
 50
150.5006491976192
 51
151.395242252713
  0
LINE
  5
5CC
330
18
100
AcDbEntity
  8
1
 62
     1
100
AcDbLine
 10
56.73236362
 20
-2.990364127694346
 30
0.0
 11
56.73236361999999
 21
0.608333948965837
 31
0.0
  0
LINE
  5
5CD
330
18
100
AcDbEntity
  8
1
 62
     1
100
AcDbLine
 10
65.44285714285715
 20
-4.034925126627877
 30
0.0
 11
65.4870413542231
 21
-4.111562477582095
 31
0.0
  0
LINE
  5
5CE
330
18
100
AcDbEntity
  8
1
 62
     1
100
AcDbLine
 10
64.56458181263328
 20
-5.500523262999435
 30
0.0
 11
64.50684675879532
 21
-5.491195401864282
 31
0.0
  0
LINE
  5
5CF
330
18
100
AcDbEntity
  8
1
 62
     1
100
AcDbLine
 10
62.75029609834755
 20
-4.873916149898887
 30
0.0
 11
62.6925610445096
 21
-4.843116587549195
 31
0.0
  0
LINE
  5
5D0
330
18
100
AcDbEntity
  8
1
 62
     1
100
AcDbLine
 10
60.93601038406183
 20
-3.625671086369512
 30
0.0
 11
60.87827533022391
 21
-3.577328475109031
 31
0.0
  0
LINE
  5
5D1
330
18
100
AcDbEntity
  8
1
 62
     1
100
AcDbLine
 10
59.12172466977611
 20
-1.914994884706765
 30
0.0
 11
59.06398961593817
 21
-1.855274551187863
 31
0.0
  0
ARC
  5
5D2
330
18
100
AcDbEntity
  8
1
 62
     1
100
AcDbCircle
 10
79.58183198544302
 20
7.438270463844292
 30
0.0
 40
24.26630684748137
100
AcDbArc
 50
208.1493515883991
 51
209.9320314114862
  0
LINE
  5
5D3
330
18
100
AcDbEntity
  8
1
 62
     1
100
AcDbLine
 10
59.12172466977614
 20
-5.492174990347027
 30
0.0
 11
59.06398961593818
 21
-5.50143004083201
 31
0.0
  0
LINE
  5
5D4
330
18
100
AcDbEntity
  8
1
 62
     1
100
AcDbLine
 10
60.93601038406184
 20
-4.846272257626682
 30
0.0
 11
60.8782753302239
 21
-4.877007245436931
 31
0.0
  0
LINE
  5
5D5
330
18
100
AcDbEntity
  8
1
 62
     1
100
AcDbLine
 10
72.69999999999999
 20
-0.2724552691700869
 30
0.0
 11
72.69999999999999
 21
3.744617899160731
 31
0.0
  0
ARC
  5
5D6
330
18
100
AcDbEntity
  8
1
 62
     1
100
AcDbCircle
 10
68.01378086479144
 20
-3.60127718962783
 30
0.0
 40
9.118919637402097
100
AcDbArc
 50
61.63235185608666
 51
68.26062980983882
  0
LINE
  5
5D7
330
18
100
AcDbEntity
  8
1
 62
     1
100
AcDbLine
 10
68.19315324120467
 20
4.951687104730642
 30
0.0
 11
68.13541818736677
 21
4.922565421087599
 31
0.0
  0
LINE
  5
5D8
330
18
100
AcDbEntity
  8
1
 62
     1
100
AcDbLine
 10
64.56458181263325
 20
5.464488441374199
 30
0.0
 11
64.5068467587953
 21
5.475621857521504
 31
0.0
  0
LINE
  5
5D9
330
18
100
AcDbEntity
  8
1
 62
     1
100
AcDbLine
 10
65.44285714285715
 20
3.880847196332139
 30
0.0
 11
65.66531567364365
 21
4.157605695632968
 31
0.0
  0
LINE
  5
5DA
330
18
100
AcDbEntity
  8
1
 62
     1
100
AcDbLine
 10
65.66531567364365
 20
4.157605695632968
 30
0.0
 11
65.88605790263122
 21
4.402635225484711
 31
0.0
  0
LINE
  5
5DB
330
18
100
AcDbEntity
  8
1
 62
     1
100
AcDbLine
 10
65.88605790263122
 20
4.402635225484711
 30
0.0
 11
65.99567555120981
 21
4.513028465696777
 31
0.0
  0
LINE
  5
5DC
330
18
100
AcDbEntity
  8
1
 62
     1
100
AcDbLine
 10
65.99567555120981
 20
4.513028465696777
 30
0.0
 11
66.10475279463436
 21
4.615260793397232
 31
0.0
  0
LINE
  5
5DD
330
18
100
AcDbEntity
  8
1
 62
     1
100
AcDbLine
 10
66.10475279463436
 20
4.615260793397232
 30
0.0
 11
66.21324482299458
 21
4.709267969521287
 31
0.0
  0
LINE
  5
5DE
330
18
100
AcDbEntity
  8
1
 62
     1
100
AcDbLine
 10
66.21324482299458
 20
4.709267969521287
 30
0.0
 11
66.32113247308104
 21
4.795024927448253
 31
0.0
  0
LINE
  5
5DF
330
18
100
AcDbEntity
  8
1
 62
     1
100
AcDbLine
 10
66.37886752692748
 20
4.76263862629205
 30
0.0
 11
66.32113247308106
 21
4.795024927448237
 31
0.0
  0
LINE
  5
5E0
330
18
100
AcDbEntity
  8
1
 62
     1
100
AcDbLine
 10
67.25714285714287
 20
3.245149844118639
 30
0.0
 11
67.36855970036667
 21
3.309704783981249
 31
0.0
  0
LINE
  5
5E1
330
18
100
AcDbEntity
  8
1
 62
     1
100
AcDbLine
 10
67.36855970036667
 20
3.309704783981249
 30
0.0
 11
67.4796002075835
 21
3.364939357340954
 31
0.0
  0
LINE
  5
5E2
330
18
100
AcDbEntity
  8
1
 62
     1
100
AcDbLine
 10
67.4796002075835
 20
3.364939357340954
 30
0.0
 11
67.53496032187961
 21
3.389067151686161
 31
0.0
  0
LINE
  5
5E3
330
18
100
AcDbEntity
  8
1
 62
     1
100
AcDbLine
 10
67.53496032187961
 20
3.389067151686161
 30
0.0
 11
67.59020953404759
 21
3.410875515005694
 31
0.0
  0
LINE
  5
5E4
330
18
100
AcDbEntity
  8
1
 62
     1
100
AcDbLine
 10
67.59020953404759
 20
3.410875515005694
 30
0.0
 11
67.64533677910164
 21
3.430367376970345
 31
0.0
  0
LINE
  5
5E5
330
18
100
AcDbEntity
  8
1
 62
     1
100
AcDbLine
 10
67.64533677910164
 20
3.430367376970345
 30
0.0
 11
67.70034513938636
 21
3.447550739913745
 31
0.0
  0
LINE
  5
5E6
330
18
100
AcDbEntity
  8
1
 62
     1
100
AcDbLine
 10
67.70034513938636
 20
3.447550739913745
 30
0.0
 11
67.75522749098553
 21
3.462432366537116
 31
0.0
  0
LINE
  5
5E7
330
18
100
AcDbEntity
  8
1
 62
     1
100
AcDbLine
 10
67.75522749098553
 20
3.462432366537116
 30
0.0
 11
67.80997099520889
 21
3.475017479902216
 31
0.0
  0
LINE
  5
5E8
330
18
100
AcDbEntity
  8
1
 62
     1
100
AcDbLine
 10
67.80997099520889
 20
3.475017479902216
 30
0.0
 11
67.86457532229512
 21
3.485314429166188
 31
0.0
  0
LINE
  5
5E9
330
18
100
AcDbEntity
  8
1
 62
     1
100
AcDbLine
 10
67.86457532229512
 20
3.485314429166188
 30
0.0
 11
67.91904408203006
 21
3.4933348141753
 31
0.0
  0
LINE
  5
5EA
330
18
100
AcDbEntity
  8
1
 62
     1
100
AcDbLine
 10
67.91904408203006
 20
3.4933348141753
 30
0.0
 11
67.97336593939829
 21
3.499087830280156
 31
0.0
  0
LINE
  5
5EB
330
18
100
AcDbEntity
  8
1
 62
     1
100
AcDbLine
 10
67.97336593939829
 20
3.499087830280156
 30
0.0
 11
68.02753360933187
 21
3.502583201002194
 31
0.0
  0
LINE
  5
5EC
330
18
100
AcDbEntity
  8
1
 62
     1
100
AcDbLine
 10
68.02753360933187
 20
3.502583201002194
 30
0.0
 11
68.0815537901588
 21
3.503833761109982
 31
0.0
  0
LINE
  5
5ED
330
18
100
AcDbEntity
  8
1
 62
     1
100
AcDbLine
 10
68.0815537901588
 20
3.503833761109982
 30
0.0
 11
68.13541818736675
 21
3.502852054640166
 31
0.0
  0
LINE
  5
5EE
330
18
100
AcDbEntity
  8
1
 62
     1
100
AcDbLine
 10
68.19315324120471
 20
3.453343608657946
 30
0.0
 11
68.13541818736675
 21
3.502852054640159
 31
0.0
  0
LINE
  5
5EF
330
18
100
AcDbEntity
  8
1
 62
     1
100
AcDbLine
 10
70.18906922391396
 20
1.489204942241766
 30
0.0
 11
69.82584017509424
 21
1.861028041536112
 31
0.0
  0
ARC
  5
5F0
330
18
100
AcDbEntity
  8
1
 62
     1
100
AcDbCircle
 10
85.19949435941697
 20
15.19116995490278
 30
0.0
 40
20.29397563266984
100
AcDbArc
 50
227.1245976733647
 51
230.7027369183423
  0
LINE
  5
5F1
330
18
100
AcDbEntity
  8
1
 62
     1
100
AcDbLine
 10
72.7
 20
-0.2724552691700964
 30
0.0
 11
72.70000000000002
 21
-0.5741399886516797
 31
0.0
  0
ARC
  5
5F2
330
18
100
AcDbEntity
  8
1
 62
     1
100
AcDbCircle
 10
75.11653380789626
 20
3.518481883905713
 30
0.0
 40
7.496814341864821
100
AcDbArc
 50
240.2046051542793
 51
248.3150131540167
  0
ARC
  5
5F3
330
18
100
AcDbEntity
  8
1
 62
     1
100
AcDbCircle
 10
78.70586048423849
 20
8.970412836592732
 30
0.0
 40
14.03533477778167
100
AcDbArc
 50
230.751164690644
 51
232.6407394599967
  0
LINE
  5
5F4
330
18
100
AcDbEntity
  8
1
 62
     1
100
AcDbLine
 10
68.1931532412047
 20
-0.2930628351360279
 30
0.0
 11
68.13541818736675
 21
-0.2296470316729401
 31
0.0
  0
LINE
  5
5F5
330
18
100
AcDbEntity
  8
1
 62
     1
100
AcDbLine
 10
66.37886752691898
 20
1.675335529929765
 30
0.0
 11
66.32113247308104
 21
1.73575665711057
 31
0.0
  0
LINE
  5
5F6
330
18
100
AcDbEntity
  8
1
 62
     1
100
AcDbLine
 10
64.56458181263326
 20
3.430054557159102
 30
0.0
 11
64.50684675879533
 21
3.479774342336243
 31
0.0
  0
LINE
  5
5F7
330
18
100
AcDbEntity
  8
1
 62
     1
100
AcDbLine
 10
62.75029609834753
 20
4.747291723947196
 30
0.0
 11
62.6925610445096
 21
4.779969161709038
 31
0.0
  0
LINE
  5
5F8
330
18
100
AcDbEntity
  8
1
 62
     1
100
AcDbLine
 10
60.93601038406183
 20
5.45904143794346
 30
0.0
 11
60.87827533022391
 21
5.470508379116666
 31
0.0
  0
LINE
  5
5F9
330
18
100
AcDbEntity
  8
1
 62
     1
100
AcDbLine
 10
59.12172466977611
 20
5.474524284263351
 30
0.0
 11
59.06398961593817
 21
5.463318349221245
 31
0.0
  0
LINE
  5
5FA
330
18
100
AcDbEntity
  8
1
 62
     1
100
AcDbLine
 10
59.12172466977614
 20
2.017427112395657
 30
0.0
 11
59.06398961593818
 21
2.076447880293937
 31
0.0
  0
LINE
  5
5FB
330
18
100
AcDbEntity
  8
1
 62
     1
100
AcDbLine
 10
60.93601038406184
 20
0.0695921095535511
 30
0.0
 11
60.8782753302239
 21
0.1330674833205831
 31
0.0
  0
LINE
  5
5FC
330
18
100
AcDbEntity
  8
1
 62
     1
100
AcDbLine
 10
61.81428571428572
 20
-0.3337925230707122
 30
0.0
 11
62.03674829805458
 21
-0.669302268774488
 31
0.0
  0
LINE
  5
5FD
330
18
100
AcDbEntity
  8
1
 62
     1
100
AcDbLine
 10
62.03674829805458
 20
-0.669302268774488
 30
0.0
 11
62.25749437695808
 21
-1.031813397839244
 31
0.0
  0
LINE
  5
5FE
330
18
100
AcDbEntity
  8
1
 62
     1
100
AcDbLine
 10
62.25749437695808
 20
-1.031813397839244
 30
0.0
 11
62.6925610445096
 21
-1.827284855980571
 31
0.0
  0
LINE
  5
5FF
330
18
100
AcDbEntity
  8
1
 62
     1
100
AcDbLine
 10
62.75029609834755
 20
-1.887119371130979
 30
0.0
 11
62.69256104450962
 21
-1.827284855980566
 31
0.0
  0
ARC
  5
600
330
18
100
AcDbEntity
  8
1
 62
     1
100
AcDbCircle
 10
33.98104016621621
 20
-17.07186160176685
 30
0.0
 40
33.38405425022717
100
AcDbArc
 50
23.88447791525936
 51
27.36726028366015
  0
LINE
  5
601
330
18
100
AcDbEntity
  8
1
 62
     1
100
AcDbLine
 10
64.56458181263326
 20
-3.603140369743258
 30
0.0
 11
64.50684675879533
 21
-3.554578644791213
 31
0.0
  0
ARC
  5
602
330
18
100
AcDbEntity
  8
1
 62
     1
100
AcDbCircle
 10
-66.11108210375656
 20
-63.85046094434423
 30
0.0
 40
144.9888394530598
100
AcDbArc
 50
24.02141952469174
 51
24.85984483019487
  0
LINE
  5
603
330
18
100
AcDbEntity
  8
1
 62
     1
100
AcDbLine
 10
66.378867526919
 20
-4.859603084348468
 30
0.0
 11
66.32113247308104
 21
-4.828507631497498
 31
0.0
  0
LINE
  5
604
330
18
100
AcDbEntity
  8
1
 62
     1
100
AcDbLine
 10
68.1931532412047
 20
-5.496253874967703
 30
0.0
 11
68.13541818736674
 21
-5.486590837519545
 31
0.0
  0
ARC
  5
605
330
18
100
AcDbEntity
  8
1
 62
     1
100
AcDbCircle
 10
87.73153885994876
 20
6.351154883688842
 30
0.0
 40
21.35322971179378
100
AcDbArc
 50
209.0875815924898
 51
209.9854278016665
  0
ARC
  5
606
330
18
100
AcDbEntity
  8
1
 62
     1
100
AcDbCircle
 10
58.94166428465702
 20
14.62995893230526
 30
0.0
 40
22.74336088199438
100
AcDbArc
 50
303.1886922824269
 51
306.113894905361
  0
LINE
  5
607
330
18
100
AcDbEntity
  8
1
 62
     1
100
AcDbLine
 10
56.73236361999999
 20
3.133221708399922
 30
0.0
 11
56.73236361999999
 21
0.6083339489658339
 31
0.0
  0
LINE
  5
608
330
18
100
AcDbEntity
  8
1
 62
     1
100
AcDbLine
 10
56.73236361999999
 20
-3.577752642962866
 30
0.0
 11
56.73236362
 21
-3.9
 31
0.0
  0
LINE
  5
609
330
18
100
AcDbEntity
  8
1
 62
     1
100
AcDbLine
 10
56.73236362
 20
-3.577752642962876
 30
0.0
 11
56.73236362
 21
-2.990364127694345
 31
0.0
  0
ARC
  5
60A
330
18
100
AcDbEntity
  8
1
 62
     1
100
AcDbCircle
 10
77.41868806044843
 20
-3.266489423306267
 30
0.0
 40
15.59333838915578
100
AcDbArc
 50
145.8995815988282
 51
150.1578175662029
  0
LINE
  5
60B
330
18
100
AcDbEntity
  8
1
 62
     1
100
AcDbLine
 10
63.89297313251156
 20
4.492990185595205
 30
0.0
 11
63.62857142857143
 21
4.035033214285714
 31
0.0
  0
LINE
  5
60C
330
18
100
AcDbEntity
  8
1
 62
     1
100
AcDbLine
 10
60.20275834148313
 20
4.386220795161098
 30
0.0
 11
60.55575521343685
 21
4.980167911089742
 31
0.0
  0
LINE
  5
60D
330
18
100
AcDbEntity
  8
1
 62
     1
100
AcDbLine
 10
60.55575521343685
 20
4.980167911089742
 30
0.0
 11
60.8782753302239
 21
5.470508379116675
 31
0.0
  0
LINE
  5
60E
330
18
100
AcDbEntity
  8
1
 62
     1
100
AcDbLine
 10
60.87827533022389
 20
5.556250000000006
 30
0.0
 11
60.2027583395387
 21
4.386220796283718
 31
0.0
  0
LINE
  5
60F
330
18
100
AcDbEntity
  8
1
 62
     1
100
AcDbLine
 10
61.81428571428572
 20
4.035033214285715
 30
0.0
 11
60.93601038406183
 21
5.556250000000007
 31
0.0
  0
LINE
  5
610
330
18
100
AcDbEntity
  8
1
 62
     1
100
AcDbLine
 10
63.62857142857143
 20
4.035033214285715
 30
0.0
 11
62.75029609834754
 21
5.556250000000006
 31
0.0
  0
LINE
  5
611
330
18
100
AcDbEntity
  8
1
 62
     1
100
AcDbLine
 10
62.6925610445096
 20
5.556249999999999
 30
0.0
 11
61.81428571428572
 21
4.035033214285715
 31
0.0
  0
LINE
  5
612
330
18
100
AcDbEntity
  8
1
 62
     1
100
AcDbLine
 10
56.73236362
 20
-3.9
 30
0.0
 11
57.49801952250768
 21
-5.226154928897744
 31
0.0
  0
LINE
  5
613
330
18
100
AcDbEntity
  8
1
 62
     1
100
AcDbLine
 10
70.78422412533446
 20
4.210819246708905
 30
0.0
 11
70.78684161204836
 21
4.206284983318261
 31
0.0
  0
LINE
  5
614
330
18
100
AcDbEntity
  8
1
 62
     1
100
AcDbLine
 10
70.78684161204836
 20
4.206284983318261
 30
0.0
 11
70.88571428571429
 21
4.03399747849475
 31
0.0
  0
LINE
  5
615
330
18
100
AcDbEntity
  8
1
 62
     1
100
AcDbLine
 10
70.8857142857143
 20
4.035033214285715
 30
0.0
 11
70.78422412527502
 21
4.210819246674586
 31
0.0
  0
LINE
  5
616
330
18
100
AcDbEntity
  8
1
 62
     1
100
AcDbLine
 10
71.39118026147098
 20
4.910525557595093
 30
0.0
 11
70.88571428571429
 21
4.035033214285715
 31
0.0
  0
LINE
  5
617
330
18
100
AcDbEntity
  8
1
 62
     1
100
AcDbLine
 10
72.7
 20
4.035033214285715
 30
0.0
 11
72.34645764077024
 21
4.647386257589628
 31
0.0
  0
LINE
  5
618
330
18
100
AcDbEntity
  8
1
 62
     1
100
AcDbLine
 10
68.13541818736675
 20
-5.55625
 30
0.0
 11
68.1931532412047
 21
-5.55625
 31
0.0
  0
LINE
  5
619
330
18
100
AcDbEntity
  8
1
 62
     1
100
AcDbLine
 10
66.32113247308105
 20
-5.55625
 30
0.0
 11
66.37886752691898
 21
-5.556250000000001
 31
0.0
  0
LINE
  5
61A
330
18
100
AcDbEntity
  8
1
 62
     1
100
AcDbLine
 10
57.13538254191351
 20
0.3723456250393855
 30
0.0
 11
57.08694269873401
 21
0.4143996405605776
 31
0.0
  0
LINE
  5
61B
330
18
100
AcDbEntity
  8
1
 62
     1
100
AcDbLine
 10
57.08694269873401
 20
0.4143996405605776
 30
0.0
 11
57.03794736538389
 21
0.4531165553832993
 31
0.0
  0
LINE
  5
61C
330
18
100
AcDbEntity
  8
1
 62
     1
100
AcDbLine
 10
57.03794736538389
 20
0.4531165553832993
 30
0.0
 11
56.98838128754478
 21
0.4883867776248777
 31
0.0
  0
LINE
  5
61D
330
18
100
AcDbEntity
  8
1
 62
     1
100
AcDbLine
 10
56.98838128754478
 20
0.4883867776248777
 30
0.0
 11
56.93825774442712
 21
0.5200755990034145
 31
0.0
  0
LINE
  5
61E
330
18
100
AcDbEntity
  8
1
 62
     1
100
AcDbLine
 10
56.93825774442712
 20
0.5200755990034145
 30
0.0
 11
56.88757634268196
 21
0.5480560019377332
 31
0.0
  0
LINE
  5
61F
330
18
100
AcDbEntity
  8
1
 62
     1
100
AcDbLine
 10
56.88757634268196
 20
0.5480560019377332
 30
0.0
 11
56.83635518256072
 21
0.57218652114622
 31
0.0
  0
LINE
  5
620
330
18
100
AcDbEntity
  8
1
 62
     1
100
AcDbLine
 10
56.83635518256072
 20
0.57218652114622
 30
0.0
 11
56.81054409829036
 21
0.5827659023429985
 31
0.0
  0
LINE
  5
621
330
18
100
AcDbEntity
  8
1
 62
     1
100
AcDbLine
 10
56.81054409829036
 20
0.5827659023429985
 30
0.0
 11
56.78460830214044
 21
0.5923283776652483
 31
0.0
  0
LINE
  5
622
330
18
100
AcDbEntity
  8
1
 62
     1
100
AcDbLine
 10
56.78460830214044
 20
0.5923283776652483
 30
0.0
 11
56.75854705023621
 21
0.6008571179735676
 31
0.0
  0
LINE
  5
623
330
18
100
AcDbEntity
  8
1
 62
     1
100
AcDbLine
 10
56.75854705023621
 20
0.6008571179735676
 30
0.0
 11
56.73236362
 21
0.6083339489658424
 31
0.0
  0
ARC
  5
624
330
18
100
AcDbEntity
  8
1
 62
     1
100
AcDbCircle
 10
72.58986956235795
 20
3.40847970952862
 30
0.0
 40
3.060989961152184
100
AcDbArc
 50
228.3180985499114
 51
236.1678712328993
  0
LINE
  5
625
330
18
100
AcDbEntity
  8
1
 62
     1
100
AcDbLine
 10
67.61968348544255
 20
0.4622125549811045
 30
0.0
 11
67.61992533828797
 21
0.4619904175726165
 31
0.0
  0
LINE
  5
626
330
18
100
AcDbEntity
  8
1
 62
     1
100
AcDbLine
 10
67.61992533828797
 20
0.4619904175726165
 30
0.0
 11
67.68840483556431
 21
0.3952903953333926
 31
0.0
  0
LINE
  5
627
330
18
100
AcDbEntity
  8
1
 62
     1
100
AcDbLine
 10
67.68840483556431
 20
0.3952903953333926
 30
0.0
 11
67.75570075010734
 21
0.3223271802037777
 31
0.0
  0
LINE
  5
628
330
18
100
AcDbEntity
  8
1
 62
     1
100
AcDbLine
 10
67.75570075010734
 20
0.3223271802037777
 30
0.0
 11
67.82183149494104
 21
0.2434182246240273
 31
0.0
  0
LINE
  5
629
330
18
100
AcDbEntity
  8
1
 62
     1
100
AcDbLine
 10
67.82183149494104
 20
0.2434182246240273
 30
0.0
 11
67.88679420979253
 21
0.1588946349069429
 31
0.0
  0
LINE
  5
62A
330
18
100
AcDbEntity
  8
1
 62
     1
100
AcDbLine
 10
67.88679420979253
 20
0.1588946349069429
 30
0.0
 11
67.95061916670173
 21
0.0690403109015059
 31
0.0
  0
LINE
  5
62B
330
18
100
AcDbEntity
  8
1
 62
     1
100
AcDbLine
 10
67.95061916670173
 20
0.0690403109015059
 30
0.0
 11
68.01330522351594
 21
-0.0258297446155501
 31
0.0
  0
LINE
  5
62C
330
18
100
AcDbEntity
  8
1
 62
     1
100
AcDbLine
 10
68.01330522351594
 20
-0.0258297446155501
 30
0.0
 11
68.13541818736678
 21
-0.2296470316729768
 31
0.0
  0
LINE
  5
62D
330
18
100
AcDbEntity
  8
1
 62
     1
100
AcDbLine
 10
67.61992537242939
 20
0.4619904547532301
 30
0.0
 11
67.6196834944487
 21
0.4622125647886712
 31
0.0
  0
ARC
  5
62E
330
18
100
AcDbEntity
  8
1
 62
     1
100
AcDbCircle
 10
56.99726323062297
 20
-7.553362588460805
 30
0.0
 40
13.16090561043781
100
AcDbArc
 50
38.78052254283355
 51
44.01765861249965
  0
LINE
  5
62F
330
18
100
AcDbEntity
  8
1
 62
     1
100
AcDbLine
 10
66.29796704585937
 20
1.760205323919244
 30
0.0
 11
66.32113247308104
 21
1.735756657110555
 31
0.0
  0
LINE
  5
630
330
18
100
AcDbEntity
  8
1
 62
     1
100
AcDbLine
 10
66.46154499993077
 20
1.591826822674311
 30
0.0
 11
66.45968745130527
 21
1.593728903653496
 31
0.0
  0
LINE
  5
631
330
18
100
AcDbEntity
  8
1
 62
     1
100
AcDbLine
 10
59.97154226801094
 20
1.12236248183953
 30
0.0
 11
60.00000000000001
 21
1.100516376536779
 31
0.0
  0
LINE
  5
632
330
18
100
AcDbEntity
  8
SK1
100
AcDbLine
 10
0.0000000000000018
 20
4.1021
 30
0.0
 11
-16.886
 21
4.1021
 31
0.0
  0
LINE
  5
633
330
18
100
AcDbEntity
  8
SK1
100
AcDbLine
 10
-26.88979
 20
-3.073399999999999
 30
0.0
 11
-16.886
 21
-3.073399999999999
 31
0.0
  0
LINE
  5
634
330
18
100
AcDbEntity
  8
SK1
100
AcDbLine
 10
-16.886
 20
-3.073399999999998
 30
0.0
 11
-16.886
 21
-4.1021
 31
0.0
  0
LINE
  5
635
330
18
100
AcDbEntity
  8
SK1
100
AcDbLine
 10
-26.88978999999999
 20
2.716879984467477
 30
0.0
 11
-16.886
 21
2.716879984467477
 31
0.0
  0
ARC
  5
636
330
18
100
AcDbEntity
  8
SK1
100
AcDbCircle
 10
-18.74945272642863
 20
-2.721807873057573
 30
0.0
 40
9.789808060190582
100
AcDbArc
 50
146.2524895917653
 51
150.8581598323422
  0
LINE
  5
637
330
18
100
AcDbEntity
  8
SK1
100
AcDbLine
 10
-26.88979
 20
3.073400000000001
 30
0.0
 11
-26.88979
 21
2.716879984467478
 31
0.0
  0
LINE
  5
638
330
18
100
AcDbEntity
  8
SK1
100
AcDbLine
 10
-27.3
 20
3.0734
 30
0.0
 11
-26.88978999999999
 21
3.0734
 31
0.0
  0
LINE
  5
639
330
18
100
AcDbEntity
  8
SK1
100
AcDbLine
 10
-16.886
 20
4.1021
 30
0.0
 11
-16.886
 21
4.101884523148595
 31
0.0
  0
LINE
  5
63A
330
18
100
AcDbEntity
  8
SK1
100
AcDbLine
 10
-16.886
 20
4.101884523148595
 30
0.0
 11
-16.886
 21
4.035907915706381
 31
0.0
  0
LINE
  5
63B
330
18
100
AcDbEntity
  8
SK1
100
AcDbLine
 10
-16.886
 20
4.035907915706381
 30
0.0
 11
-16.886
 21
3.073400000000001
 31
0.0
  0
LINE
  5
63C
330
18
100
AcDbEntity
  8
SK1
100
AcDbLine
 10
-26.88979
 20
3.0734
 30
0.0
 11
-16.886
 21
3.0734
 31
0.0
  0
LINE
  5
63D
330
18
100
AcDbEntity
  8
SK1
100
AcDbLine
 10
-26.88979
 20
-2.716879984467477
 30
0.0
 11
-16.886
 21
-2.716879984467477
 31
0.0
  0
LINE
  5
63E
330
18
100
AcDbEntity
  8
SK1
100
AcDbLine
 10
-27.3
 20
3.0734
 30
0.0
 11
-27.3
 21
2.045547411354722
 31
0.0
  0
LINE
  5
63F
330
18
100
AcDbEntity
  8
SK1
100
AcDbLine
 10
-27.3
 20
-2.045547411354721
 30
0.0
 11
-27.29999999999999
 21
-3.073399999999999
 31
0.0
  0
ARC
  5
640
330
18
100
AcDbEntity
  8
SK1
100
AcDbCircle
 10
-18.74945272643759
 20
2.721807873052261
 30
0.0
 40
9.789808060180167
100
AcDbArc
 50
209.1418401676562
 51
213.7475104082379
  0
LINE
  5
641
330
18
100
AcDbEntity
  8
SK1
100
AcDbLine
 10
-27.3
 20
-3.0734
 30
0.0
 11
-26.88979
 21
-3.073399999999999
 31
0.0
  0
LINE
  5
642
330
18
100
AcDbEntity
  8
SK1
100
AcDbLine
 10
-26.88979
 20
-2.716879984467477
 30
0.0
 11
-26.88979
 21
-3.0734
 31
0.0
  0
LINE
  5
643
330
18
100
AcDbEntity
  8
SK1
100
AcDbLine
 10
-16.886
 20
2.716879984467486
 30
0.0
 11
-16.886
 21
-2.716879984467484
 31
0.0
  0
LINE
  5
644
330
18
100
AcDbEntity
  8
SK1
100
AcDbLine
 10
-27.3
 20
2.045547411354722
 30
0.0
 11
-27.3
 21
-2.04554741135472
 31
0.0
  0
LINE
  5
645
330
18
100
AcDbEntity
  8
SK1
100
AcDbLine
 10
-16.886
 20
-4.1021
 30
0.0
 11
0.0000000000000027
 21
-4.1021
 31
0.0
  0
DIMENSION
  5
646
330
18
100
AcDbEntity
  8
2
100
AcDbDimension
  2
*D0
 10
87.70000000000005
 20
-5.556249999999948
 30
0.0
 11
84.50075000000011
 21
-25.35174999999996
 31
0.0
 70
    32
  1
UNC7/16-14
 71
     5
 42
11.1125
  3
STANDARD
100
AcDbAlignedDimension
 13
72.7
 23
5.55625
 33
0.0
 14
72.7
 24
-5.55625
 34
0.0
 50
90.0000000000002
100
AcDbRotatedDimension
  0
DIMENSION
  5
654
330
18
100
AcDbEntity
  8
2
100
AcDbDimension
  2
*D1
 10
72.7
 20
75.0
 30
0.0
 11
36.35
 21
77.39775
 31
0.0
 70
    32
  1
<>
 71
     5
 42
72.7
  3
STANDARD
100
AcDbAlignedDimension
 13
0.0
 23
0.0
 33
0.0
 14
72.7
 24
0.0
 34
0.0
100
AcDbRotatedDimension
  0
DIMENSION
  5
661
330
18
100
AcDbEntity
  8
SK2
100
AcDbDimension
  2
*D2
 10
-42.29999999997906
 20
-4.102100000129698
 30
0.0
 11
-44.6977499999354
 21
-12.65910000014194
 31
0.0
 70
    32
  1
%%c<>
 71
     5
 42
8.2042
  3
STANDARD
100
AcDbAlignedDimension
 13
-16.886
 23
4.1021
 33
0.0
 14
-16.886
 24
-4.1021
 34
0.0
 50
90.0000000002924
100
AcDbRotatedDimension
  0
DIMENSION
  5
66F
330
18
100
AcDbEntity
  8
2
100
AcDbDimension
  2
*D3
 10
72.7
 20
60.0
 30
0.0
 11
64.71618181
 21
62.39775
 31
0.0
 70
    32
  1
<>
 71
     5
 42
15.96763638
  3
STANDARD
100
AcDbAlignedDimension
 13
56.73236362
 23
3.9
 33
0.0
 14
72.7
 24
5.55625
 34
0.0
100
AcDbRotatedDimension
  0
DIMENSION
  5
67C
330
18
100
AcDbEntity
  8
SK2
100
AcDbDimension
  2
*D4
 10
72.7
 20
90.0
 30
0.0
 11
22.7
 21
92.39075
 31
0.0
 70
    32
  1
<>
 71
     5
 42
100.0
  3
STANDARD
100
AcDbAlignedDimension
 13
-27.3
 23
5.55625
 33
0.0
 14
72.7
 24
5.55625
 34
0.0
100
AcDbRotatedDimension
  0
ENDSEC
  0
SECTION
  2
OBJECTS
  0
DICTIONARY
  5
C
330
0
100
AcDbDictionary
281
     1
  3
ACAD_COLOR
350
387
  3
ACAD_GROUP
350
D
  3
ACAD_LAYOUT
350
301
  3
ACAD_MATERIAL
350
386
  3
ACAD_MLEADERSTYLE
350
689
  3
ACAD_MLINESTYLE
350
E
  3
ACAD_PLOTSETTINGS
350
302
  3
ACAD_PLOTSTYLENAME
350
2FF
  3
ACAD_SCALELIST
350
3A0
  3
ACAD_TABLESTYLE
350
388
  3
ACAD_VISUALSTYLE
350
3C5
  3
ACDBHEADERROUNDTRIPXREC
350
68A
  3
AcDbVariableDictionary
350
357
  0
DICTIONARY
  5
387
102
{ACAD_REACTORS
330
C
102
}
330
C
100
AcDbDictionary
281
     1
  0
DICTIONARY
  5
D
102
{ACAD_REACTORS
330
C
102
}
330
C
100
AcDbDictionary
281
     1
  0
DICTIONARY
  5
301
102
{ACAD_REACTORS
330
C
102
}
330
C
100
AcDbDictionary
281
     1
  3
Layout1
350
33B
  3
Model
350
303
  0
DICTIONARY
  5
386
102
{ACAD_REACTORS
330
C
102
}
330
C
100
AcDbDictionary
281
     1
  3
ByBlock
350
3C3
  3
ByLayer
350
3C2
  3
Global
350
3C4
  0
DICTIONARY
  5
689
102
{ACAD_REACTORS
330
C
102
}
330
C
100
AcDbDictionary
281
     1
  0
DICTIONARY
  5
E
102
{ACAD_REACTORS
330
C
102
}
330
C
100
AcDbDictionary
281
     1
  3
STANDARD
350
1B
  0
DICTIONARY
  5
302
102
{ACAD_REACTORS
330
C
102
}
330
C
100
AcDbDictionary
281
     1
  0
ACDBDICTIONARYWDFLT
  5
2FF
102
{ACAD_REACTORS
330
C
102
}
330
C
100
AcDbDictionary
281
     1
  3
Normal
350
300
100
AcDbDictionaryWithDefault
340
300
  0
DICTIONARY
  5
3A0
102
{ACAD_REACTORS
330
C
102
}
330
C
100
AcDbDictionary
281
     1
  3
A0
350
3A1
  3
A1
350
3A2
  3
A2
350
3A3
  3
A3
350
3A4
  3
A4
350
3A5
  3
A5
350
3A6
  3
A6
350
3A7
  3
A7
350
3A8
  3
A8
350
3A9
  3
A9
350
3AA
  3
B0
350
3AB
  3
B1
350
3AC
  3
B2
350
3AD
  3
B3
350
3AE
  3
B4
350
3AF
  3
B5
350
3B0
  3
B6
350
3B1
  3
B7
350
3B2
  3
B8
350
3B3
  3
B9
350
3B4
  3
C0
350
3B5
  3
C1
350
3B6
  3
C2
350
3B7
  3
C3
350
3B8
  3
C4
350
3B9
  3
C5
350
3BA
  3
C6
350
3BB
  3
C7
350
3BC
  3
C8
350
3BD
  3
C9
350
3BE
  3
D0
350
3BF
  3
D1
350
3C0
  3
D2
350
3C1
  0
DICTIONARY
  5
388
102
{ACAD_REACTORS
330
C
102
}
330
C
100
AcDbDictionary
281
     1
  3
Standard
350
389
  0
DICTIONARY
  5
3C5
102
{ACAD_REACTORS
330
C
102
}
330
C
100
AcDbDictionary
281
     1
  3
2dWireframe
350
3CA
  3
3D Hidden
350
3CC
  3
3dWireframe
350
3CB
  3
Basic
350
3CD
  3
Brighten
350
3D1
  3
ColorChange
350
3D5
  3
Conceptual
350
3CF
  3
Dim
350
3D0
  3
Facepattern
350
3D4
  3
Flat
350
3C6
  3
FlatWithEdges
350
3C7
  3
Gouraud
350
3C8
  3
GouraudWithEdges
350
3C9
  3
Linepattern
350
3D3
  3
Realistic
350
3CE
  3
Thicken
350
3D2
  0
DICTIONARY
  5
68A
102
{ACAD_REACTORS
330
C
102
}
330
C
100
AcDbDictionary
281
     1
  3
COLORDICT
350
68B
  3
MATERIALDICT
350
68C
  0
DICTIONARY
  5
357
102
{ACAD_REACTORS
330
C
102
}
330
C
100
AcDbDictionary
281
     1
  3
CANNOSCALE
350
68D
  3
CTABLESTYLE
350
38D
  3
DIMASSOC
350
359
  3
HIDETEXT
350
358
  3
PROJECTNAME
350
38E
  0
LAYOUT
  5
33B
102
{ACAD_REACTORS
330
301
102
}
330
301
100
AcDbPlotSettings
  1

  2
Lexmark Optra PS2
  4

  6

 40
0.0
 41
0.0
 42
0.0
 43
0.0
 44
0.0
 45
0.0
 46
0.0
 47
0.0
 48
0.0
 49
0.0
140
0.0
141
0.0
142
1.0
143
1.0
 70
   688
 72
     0
 73
     0
 74
     5
  7
monochrome.ctb
 75
    16
147
1.0
148
0.0
149
0.0
100
AcDbLayout
  1
Layout1
 70
     1
 71
     1
 10
0.0
 20
0.0
 11
12.0
 21
9.0
 12
0.0
 22
0.0
 32
0.0
 14
0.0
 24
0.0
 34
0.0
 15
0.0
 25
0.0
 35
0.0
146
0.0
 13
0.0
 23
0.0
 33
0.0
 16
1.0
 26
0.0
 36
0.0
 17
0.0
 27
1.0
 37
0.0
 76
     0
330
338
  0
LAYOUT
  5
303
102
{ACAD_REACTORS
330
301
102
}
330
301
100
AcDbPlotSettings
  1

  2
Lexmark Optra Rx
  4
A4
  6

 40
6.805083274841307
 41
5.535083293914794
 42
6.974411010742187
 43
7.14373779296875
 44
209.9733276367186
 45
296.9259948730469
 46
0.0
 47
0.0
 48
0.0
 49
0.0
140
0.0
141
0.0
142
1.0
143
2.976565420630886
 70
 11952
 72
     1
 73
     1
 74
     0
  7
monochrome.ctb
 75
     0
147
0.335957675604539
148
204.1199660668592
149
172.3933209647495
100
AcDbLayout
  1
Model
 70
     1
 71
     0
 10
0.0
 20
0.0
 11
12.0
 21
9.0
 12
0.0
 22
0.0
 32
0.0
 14
0.0
 24
0.0
 34
0.0
 15
0.0
 25
0.0
 35
0.0
146
0.0
 13
0.0
 23
0.0
 33
0.0
 16
1.0
 26
0.0
 36
0.0
 17
0.0
 27
1.0
 37
0.0
 76
     0
330
18
331
39A
  0
MATERIAL
  5
3C3
102
{ACAD_REACTORS
330
386
102
}
102
{ACAD_XDICTIONARY
360
690
102
}
330
386
100
AcDbMaterial
  1
ByBlock
  0
MATERIAL
  5
3C2
102
{ACAD_REACTORS
330
386
102
}
102
{ACAD_XDICTIONARY
360
68E
102
}
330
386
100
AcDbMaterial
  1
ByLayer
  0
MATERIAL
  5
3C4
102
{ACAD_REACTORS
330
386
102
}
102
{ACAD_XDICTIONARY
360
692
102
}
330
386
100
AcDbMaterial
  1
Global
  0
MLINESTYLE
  5
1B
102
{ACAD_REACTORS
330
E
102
}
330
E
100
AcDbMlineStyle
  2
STANDARD
 70
     0
  3

 62
     0
 51
90.0
 52
90.0
 71
     2
 49
0.5
 62
   256
  6
BYLAYER
 49
-0.5
 62
   256
  6
BYLAYER
  0
ACDBPLACEHOLDER
  5
300
102
{ACAD_REACTORS
330
2FF
102
}
330
2FF
  0
SCALE
  5
3A1
102
{ACAD_REACTORS
330
3A0
102
}
330
3A0
100
AcDbScale
 70
     0
300
1:1
140
1.0
141
1.0
290
     1
  0
SCALE
  5
3A2
102
{ACAD_REACTORS
330
3A0
102
}
330
3A0
100
AcDbScale
 70
     0
300
1:2
140
1.0
141
2.0
290
     0
  0
SCALE
  5
3A3
102
{ACAD_REACTORS
330
3A0
102
}
330
3A0
100
AcDbScale
 70
     0
300
1:4
140
1.0
141
4.0
290
     0
  0
SCALE
  5
3A4
102
{ACAD_REACTORS
330
3A0
102
}
330
3A0
100
AcDbScale
 70
     0
300
1:5
140
1.0
141
5.0
290
     0
  0
SCALE
  5
3A5
102
{ACAD_REACTORS
330
3A0
102
}
330
3A0
100
AcDbScale
 70
     0
300
1:8
140
1.0
141
8.0
290
     0
  0
SCALE
  5
3A6
102
{ACAD_REACTORS
330
3A0
102
}
330
3A0
100
AcDbScale
 70
     0
300
1:10
140
1.0
141
10.0
290
     0
  0
SCALE
  5
3A7
102
{ACAD_REACTORS
330
3A0
102
}
330
3A0
100
AcDbScale
 70
     0
300
1:16
140
1.0
141
16.0
290
     0
  0
SCALE
  5
3A8
102
{ACAD_REACTORS
330
3A0
102
}
330
3A0
100
AcDbScale
 70
     0
300
1:20
140
1.0
141
20.0
290
     0
  0
SCALE
  5
3A9
102
{ACAD_REACTORS
330
3A0
102
}
330
3A0
100
AcDbScale
 70
     0
300
1:30
140
1.0
141
30.0
290
     0
  0
SCALE
  5
3AA
102
{ACAD_REACTORS
330
3A0
102
}
330
3A0
100
AcDbScale
 70
     0
300
1:40
140
1.0
141
40.0
290
     0
  0
SCALE
  5
3AB
102
{ACAD_REACTORS
330
3A0
102
}
330
3A0
100
AcDbScale
 70
     0
300
1:50
140
1.0
141
50.0
290
     0
  0
SCALE
  5
3AC
102
{ACAD_REACTORS
330
3A0
102
}
330
3A0
100
AcDbScale
 70
     0
300
1:100
140
1.0
141
100.0
290
     0
  0
SCALE
  5
3AD
102
{ACAD_REACTORS
330
3A0
102
}
330
3A0
100
AcDbScale
 70
     0
300
2:1
140
2.0
141
1.0
290
     0
  0
SCALE
  5
3AE
102
{ACAD_REACTORS
330
3A0
102
}
330
3A0
100
AcDbScale
 70
     0
300
4:1
140
4.0
141
1.0
290
     0
  0
SCALE
  5
3AF
102
{ACAD_REACTORS
330
3A0
102
}
330
3A0
100
AcDbScale
 70
     0
300
8:1
140
8.0
141
1.0
290
     0
  0
SCALE
  5
3B0
102
{ACAD_REACTORS
330
3A0
102
}
330
3A0
100
AcDbScale
 70
     0
300
10:1
140
10.0
141
1.0
290
     0
  0
SCALE
  5
3B1
102
{ACAD_REACTORS
330
3A0
102
}
330
3A0
100
AcDbScale
 70
     0
300
100:1
140
100.0
141
1.0
290
     0
  0
SCALE
  5
3B2
102
{ACAD_REACTORS
330
3A0
102
}
330
3A0
100
AcDbScale
 70
     0
300
1/128" = 1'-0"
140
0.0078125
141
12.0
290
     0
  0
SCALE
  5
3B3
102
{ACAD_REACTORS
330
3A0
102
}
330
3A0
100
AcDbScale
 70
     0
300
1/64" = 1'-0"
140
0.015625
141
12.0
290
     0
  0
SCALE
  5
3B4
102
{ACAD_REACTORS
330
3A0
102
}
330
3A0
100
AcDbScale
 70
     0
300
1/32" = 1'-0"
140
0.03125
141
12.0
290
     0
  0
SCALE
  5
3B5
102
{ACAD_REACTORS
330
3A0
102
}
330
3A0
100
AcDbScale
 70
     0
300
1/16" = 1'-0"
140
0.0625
141
12.0
290
     0
  0
SCALE
  5
3B6
102
{ACAD_REACTORS
330
3A0
102
}
330
3A0
100
AcDbScale
 70
     0
300
3/32" = 1'-0"
140
0.09375
141
12.0
290
     0
  0
SCALE
  5
3B7
102
{ACAD_REACTORS
330
3A0
102
}
330
3A0
100
AcDbScale
 70
     0
300
1/8" = 1'-0"
140
0.125
141
12.0
290
     0
  0
SCALE
  5
3B8
102
{ACAD_REACTORS
330
3A0
102
}
330
3A0
100
AcDbScale
 70
     0
300
3/16" = 1'-0"
140
0.1875
141
12.0
290
     0
  0
SCALE
  5
3B9
102
{ACAD_REACTORS
330
3A0
102
}
330
3A0
100
AcDbScale
 70
     0
300
1/4" = 1'-0"
140
0.25
141
12.0
290
     0
  0
SCALE
  5
3BA
102
{ACAD_REACTORS
330
3A0
102
}
330
3A0
100
AcDbScale
 70
     0
300
3/8" = 1'-0"
140
0.375
141
12.0
290
     0
  0
SCALE
  5
3BB
102
{ACAD_REACTORS
330
3A0
102
}
330
3A0
100
AcDbScale
 70
     0
300
1/2" = 1'-0"
140
0.5
141
12.0
290
     0
  0
SCALE
  5
3BC
102
{ACAD_REACTORS
330
3A0
102
}
330
3A0
100
AcDbScale
 70
     0
300
3/4" = 1'-0"
140
0.75
141
12.0
290
     0
  0
SCALE
  5
3BD
102
{ACAD_REACTORS
330
3A0
102
}
330
3A0
100
AcDbScale
 70
     0
300
1" = 1'-0"
140
1.0
141
12.0
290
     0
  0
SCALE
  5
3BE
102
{ACAD_REACTORS
330
3A0
102
}
330
3A0
100
AcDbScale
 70
     0
300
1-1/2" = 1'-0"
140
1.5
141
12.0
290
     0
  0
SCALE
  5
3BF
102
{ACAD_REACTORS
330
3A0
102
}
330
3A0
100
AcDbScale
 70
     0
300
3" = 1'-0"
140
3.0
141
12.0
290
     0
  0
SCALE
  5
3C0
102
{ACAD_REACTORS
330
3A0
102
}
330
3A0
100
AcDbScale
 70
     0
300
6" = 1'-0"
140
6.0
141
12.0
290
     0
  0
SCALE
  5
3C1
102
{ACAD_REACTORS
330
3A0
102
}
330
3A0
100
AcDbScale
 70
     0
300
1'-0" = 1'-0"
140
12.0
141
12.0
290
     0
  0
TABLESTYLE
  5
389
102
{ACAD_REACTORS
330
388
102
}
330
388
100
AcDbTableStyle
  3
Standard
 70
     0
 71
     0
 40
1.5
 41
1.5
280
     0
281
     0
  7
STANDARD
140
4.5
170
     2
 62
     0
 63
   257
283
     0
274
    -2
284
     1
 64
     0
275
    -2
285
     1
 65
     0
276
    -2
286
     1
 66
     0
277
    -2
287
     1
 67
     0
278
    -2
288
     1
 68
     0
279
    -2
289
     1
 69
     0
  7
STANDARD
140
6.0
170
     5
 62
     0
 63
   257
283
     0
274
    -2
284
     1
 64
     0
275
    -2
285
     1
 65
     0
276
    -2
286
     1
 66
     0
277
    -2
287
     1
 67
     0
278
    -2
288
     1
 68
     0
279
    -2
289
     1
 69
     0
  7
STANDARD
140
4.5
170
     5
 62
     0
 63
   257
283
     0
274
    -2
284
     1
 64
     0
275
    -2
285
     1
 65
     0
276
    -2
286
     1
 66
     0
277
    -2
287
     1
 67
     0
278
    -2
288
     1
 68
     0
279
    -2
289
     1
 69
     0
  0
VISUALSTYLE
  5
3CA
102
{ACAD_REACTORS
330
3C5
102
}
102
{ACAD_XDICTIONARY
360
69C
102
}
330
3C5
100
AcDbVisualStyle
  2
2dWireframe
 70
     4
 71
     0
 72
     2
 73
     0
 90
        0
 40
-0.6
 41
-30.0
 62
     5
 63
     7
 74
     1
 91
        4
 64
     7
 65
   257
 75
     1
175
     1
 42
1.0
 92
        0
 66
   257
 43
1.0
 76
     1
 77
     6
 78
     2
 67
     7
 79
     5
170
     0
171
     0
290
     0
174
     0
 93
        1
 44
0.0
173
     0
291
     0
 45
0.0
1001
ACAD
1000
AcDbSavedByObjectVersion
1070
     0
  0
VISUALSTYLE
  5
3CC
102
{ACAD_REACTORS
330
3C5
102
}
102
{ACAD_XDICTIONARY
360
6A0
102
}
330
3C5
100
AcDbVisualStyle
  2
3D Hidden
 70
     6
 71
     1
 72
     2
 73
     2
 90
        0
 40
-0.6
 41
-30.0
 62
     5
 63
     7
 74
     2
 91
        2
 64
     7
 65
   257
 75
     2
175
     1
 42
40.0
 92
        0
 66
   257
 43
1.0
 76
     1
 77
     6
 78
     2
 67
     7
 79
     3
170
     0
171
     0
290
     0
174
     0
 93
        1
 44
0.0
173
     0
291
     0
 45
0.0
1001
ACAD
1000
AcDbSavedByObjectVersion
1070
     0
  0
VISUALSTYLE
  5
3CB
102
{ACAD_REACTORS
330
3C5
102
}
102
{ACAD_XDICTIONARY
360
69E
102
}
330
3C5
100
AcDbVisualStyle
  2
3dWireframe
 70
     5
 71
     0
 72
     2
 73
     0
 90
        0
 40
-0.6
 41
-30.0
 62
     5
 63
     7
 74
     1
 91
        4
 64
     7
 65
   257
 75
     1
175
     1
 42
1.0
 92
        0
 66
   257
 43
1.0
 76
     1
 77
     6
 78
     2
 67
     7
 79
     5
170
     0
171
     0
290
     0
174
     0
 93
        1
 44
0.0
173
     0
291
     0
 45
0.0
1001
ACAD
1000
AcDbSavedByObjectVersion
1070
     0
  0
VISUALSTYLE
  5
3CD
102
{ACAD_REACTORS
330
3C5
102
}
102
{ACAD_XDICTIONARY
360
6A2
102
}
330
3C5
100
AcDbVisualStyle
  2
Basic
 70
     7
 71
     1
 72
     0
 73
     1
 90
        0
 40
-0.6
 41
-30.0
 62
     5
 63
     7
 74
     0
 91
        4
 64
     7
 65
   257
 75
     1
175
     1
 42
1.0
 92
        8
 66
     7
 43
1.0
 76
     1
 77
     6
 78
     2
 67
     7
 79
     5
170
     0
171
     0
290
     0
174
     0
 93
        1
 44
0.0
173
     0
291
     1
 45
0.0
1001
ACAD
1000
AcDbSavedByObjectVersion
1070
     0
  0
VISUALSTYLE
  5
3D1
102
{ACAD_REACTORS
330
3C5
102
}
102
{ACAD_XDICTIONARY
360
6AA
102
}
330
3C5
100
AcDbVisualStyle
  2
Brighten
 70
    12
 71
     2
 72
     2
 73
     0
 90
        0
 40
-0.6
 41
-30.0
 62
     5
 63
     7
 74
     1
 91
        4
 64
     7
 65
   257
 75
     1
175
     1
 42
1.0
 92
        8
 66
     7
 43
1.0
 76
     1
 77
     6
 78
     2
 67
     7
 79
     5
170
     0
171
     0
290
     0
174
     0
 93
        1
 44
50.0
173
     0
291
     1
 45
0.0
1001
ACAD
1000
AcDbSavedByObjectVersion
1070
     0
  0
VISUALSTYLE
  5
3D5
102
{ACAD_REACTORS
330
3C5
102
}
102
{ACAD_XDICTIONARY
360
6B2
102
}
330
3C5
100
AcDbVisualStyle
  2
ColorChange
 70
    16
 71
     2
 72
     2
 73
     3
 90
        0
 40
-0.6
 41
-30.0
 62
     5
 63
     8
 74
     1
 91
        4
 64
     7
 65
   257
 75
     1
175
     1
 42
1.0
 92
        8
 66
     8
 43
1.0
 76
     1
 77
     6
 78
     2
 67
     7
 79
     5
170
     0
171
     0
290
     0
174
     0
 93
        1
 44
0.0
173
     0
291
     1
 45
0.0
1001
ACAD
1000
AcDbSavedByObjectVersion
1070
     0
  0
VISUALSTYLE
  5
3CF
102
{ACAD_REACTORS
330
3C5
102
}
102
{ACAD_XDICTIONARY
360
6A6
102
}
330
3C5
100
AcDbVisualStyle
  2
Conceptual
 70
     9
 71
     3
 72
     2
 73
     0
 90
        0
 40
-0.6
 41
-30.0
 62
     5
 63
     7
 74
     2
 91
        2
 64
     7
 65
   257
 75
     1
175
     1
 42
40.0
 92
        8
 66
     7
 43
1.0
 76
     1
 77
     6
 78
     2
 67
     7
 79
     3
170
     0
171
     0
290
     0
174
     0
 93
        1
 44
0.0
173
     0
291
     0
 45
0.0
1001
ACAD
1000
AcDbSavedByObjectVersion
1070
     0
  0
VISUALSTYLE
  5
3D0
102
{ACAD_REACTORS
330
3C5
102
}
102
{ACAD_XDICTIONARY
360
6A8
102
}
330
3C5
100
AcDbVisualStyle
  2
Dim
 70
    11
 71
     2
 72
     2
 73
     0
 90
        0
 40
-0.6
 41
-30.0
 62
     5
 63
     7
 74
     1
 91
        4
 64
     7
 65
   257
 75
     1
175
     1
 42
1.0
 92
        8
 66
     7
 43
1.0
 76
     1
 77
     6
 78
     2
 67
     7
 79
     5
170
     0
171
     0
290
     0
174
     0
 93
        1
 44
-50.0
173
     0
291
     1
 45
0.0
1001
ACAD
1000
AcDbSavedByObjectVersion
1070
     0
  0
VISUALSTYLE
  5
3D4
102
{ACAD_REACTORS
330
3C5
102
}
102
{ACAD_XDICTIONARY
360
6B0
102
}
330
3C5
100
AcDbVisualStyle
  2
Facepattern
 70
    15
 71
     2
 72
     2
 73
     0
 90
        0
 40
-0.6
 41
-30.0
 62
     5
 63
     7
 74
     1
 91
        4
 64
     7
 65
   257
 75
     1
175
     1
 42
1.0
 92
        8
 66
     7
 43
1.0
 76
     1
 77
     6
 78
     2
 67
     7
 79
     5
170
     0
171
     0
290
     0
174
     0
 93
        1
 44
0.0
173
     0
291
     1
 45
0.0
1001
ACAD
1000
AcDbSavedByObjectVersion
1070
     0
  0
VISUALSTYLE
  5
3C6
102
{ACAD_REACTORS
330
3C5
102
}
102
{ACAD_XDICTIONARY
360
694
102
}
330
3C5
100
AcDbVisualStyle
  2
Flat
 70
     0
 71
     2
 72
     1
 73
     1
 90
        2
 40
-0.6
 41
30.0
 62
     5
 63
     7
 74
     0
 91
        4
 64
     7
 65
   257
 75
     1
175
     1
 42
1.0
 92
        8
 66
     7
 43
1.0
 76
     1
 77
     6
 78
     2
 67
     7
 79
     5
170
     0
171
     0
290
     0
174
     0
 93
       13
 44
0.0
173
     0
291
     1
 45
0.0
1001
ACAD
1000
AcDbSavedByObjectVersion
1070
     0
  0
VISUALSTYLE
  5
3C7
102
{ACAD_REACTORS
330
3C5
102
}
102
{ACAD_XDICTIONARY
360
696
102
}
330
3C5
100
AcDbVisualStyle
  2
FlatWithEdges
 70
     1
 71
     2
 72
     1
 73
     1
 90
        2
 40
-0.6
 41
30.0
 62
     5
 63
     7
 74
     1
 91
        4
 64
     7
 65
   257
 75
     1
175
     1
 42
1.0
 92
        0
 66
   257
 43
1.0
 76
     1
 77
     6
 78
     2
 67
     7
 79
     5
170
     0
171
     0
290
     0
174
     0
 93
       13
 44
0.0
173
     0
291
     1
 45
0.0
1001
ACAD
1000
AcDbSavedByObjectVersion
1070
     0
  0
VISUALSTYLE
  5
3C8
102
{ACAD_REACTORS
330
3C5
102
}
102
{ACAD_XDICTIONARY
360
698
102
}
330
3C5
100
AcDbVisualStyle
  2
Gouraud
 70
     2
 71
     2
 72
     2
 73
     1
 90
        2
 40
-0.6
 41
30.0
 62
     5
 63
     7
 74
     0
 91
        4
 64
     7
 65
   257
 75
     1
175
     1
 42
1.0
 92
        0
 66
     7
 43
1.0
 76
     1
 77
     6
 78
     2
 67
     7
 79
     5
170
     0
171
     0
290
     0
174
     0
 93
       13
 44
0.0
173
     0
291
     1
 45
0.0
1001
ACAD
1000
AcDbSavedByObjectVersion
1070
     0
  0
VISUALSTYLE
  5
3C9
102
{ACAD_REACTORS
330
3C5
102
}
102
{ACAD_XDICTIONARY
360
69A
102
}
330
3C5
100
AcDbVisualStyle
  2
GouraudWithEdges
 70
     3
 71
     2
 72
     2
 73
     1
 90
        2
 40
-0.6
 41
30.0
 62
     5
 63
     7
 74
     1
 91
        4
 64
     7
 65
   257
 75
     1
175
     1
 42
1.0
 92
        0
 66
   257
 43
1.0
 76
     1
 77
     6
 78
     2
 67
     7
 79
     5
170
     0
171
     0
290
     0
174
     0
 93
       13
 44
0.0
173
     0
291
     1
 45
0.0
1001
ACAD
1000
AcDbSavedByObjectVersion
1070
     0
  0
VISUALSTYLE
  5
3D3
102
{ACAD_REACTORS
330
3C5
102
}
102
{ACAD_XDICTIONARY
360
6AE
102
}
330
3C5
100
AcDbVisualStyle
  2
Linepattern
 70
    14
 71
     2
 72
     2
 73
     0
 90
        0
 40
-0.6
 41
-30.0
 62
     5
 63
     7
 74
     1
 91
        4
 64
     7
 65
   257
 75
     7
175
     7
 42
1.0
 92
        8
 66
     7
 43
1.0
 76
     1
 77
     6
 78
     2
 67
     7
 79
     5
170
     0
171
     0
290
     0
174
     0
 93
        1
 44
0.0
173
     0
291
     1
 45
0.0
1001
ACAD
1000
AcDbSavedByObjectVersion
1070
     0
  0
VISUALSTYLE
  5
3CE
102
{ACAD_REACTORS
330
3C5
102
}
102
{ACAD_XDICTIONARY
360
6A4
102
}
330
3C5
100
AcDbVisualStyle
  2
Realistic
 70
     8
 71
     2
 72
     2
 73
     0
 90
        0
 40
-0.6
 41
-30.0
 62
     5
 63
     7
 74
     1
 91
        0
 64
     7
 65
   257
 75
     1
175
     1
 42
1.0
 92
        8
 66
     8
 43
1.0
 76
     1
 77
     6
 78
     2
 67
     7
 79
     5
170
     0
171
     0
290
     0
174
     0
 93
       13
 44
0.0
173
     0
291
     0
 45
0.0
1001
ACAD
1000
AcDbSavedByObjectVersion
1070
     0
  0
VISUALSTYLE
  5
3D2
102
{ACAD_REACTORS
330
3C5
102
}
102
{ACAD_XDICTIONARY
360
6AC
102
}
330
3C5
100
AcDbVisualStyle
  2
Thicken
 70
    13
 71
     2
 72
     2
 73
     0
 90
        0
 40
-0.6
 41
-30.0
 62
     5
 63
     7
 74
     1
 91
        4
 64
     7
 65
   257
 75
     1
175
     1
 42
1.0
 92
       12
 66
     7
 43
1.0
 76
     1
 77
     6
 78
     2
 67
     7
 79
     5
170
     0
171
     0
290
     0
174
     0
 93
        1
 44
0.0
173
     0
291
     1
 45
0.0
1001
ACAD
1000
AcDbSavedByObjectVersion
1070
     0
  0
XRECORD
  5
68B
102
{ACAD_REACTORS
330
68A
102
}
330
68A
100
AcDbXrecord
280
     1
340
387
  0
XRECORD
  5
68C
102
{ACAD_REACTORS
330
68A
102
}
330
68A
100
AcDbXrecord
280
     1
340
386
  0
DICTIONARYVAR
  5
68D
102
{ACAD_REACTORS
330
357
102
}
330
357
100
DictionaryVariables
280
     0
  1
1:1
  0
DICTIONARYVAR
  5
38D
102
{ACAD_REACTORS
330
357
102
}
330
357
100
DictionaryVariables
280
     0
  1
Standard
  0
DICTIONARYVAR
  5
359
102
{ACAD_REACTORS
330
357
102
}
330
357
100
DictionaryVariables
280
     0
  1
2
  0
DICTIONARYVAR
  5
358
102
{ACAD_REACTORS
330
357
102
}
330
357
100
DictionaryVariables
280
     0
  1
1
  0
DICTIONARYVAR
  5
38E
102
{ACAD_REACTORS
330
357
102
}
330
357
100
DictionaryVariables
280
     0
  1

  0
DICTIONARY
  5
690
330
3C3
100
AcDbDictionary
280
     1
281
     1
  3
ACAD_XREC_ROUNDTRIP
360
691
  0
DICTIONARY
  5
68E
330
3C2
100
AcDbDictionary
280
     1
281
     1
  3
ACAD_XREC_ROUNDTRIP
360
68F
  0
DICTIONARY
  5
692
330
3C4
100
AcDbDictionary
280
     1
281
     1
  3
ACAD_XREC_ROUNDTRIP
360
693
  0
DICTIONARY
  5
69C
330
3CA
100
AcDbDictionary
280
     1
281
     1
  3
ACAD_XREC_ROUNDTRIP
360
69D
  0
DICTIONARY
  5
6A0
330
3CC
100
AcDbDictionary
280
     1
281
     1
  3
ACAD_XREC_ROUNDTRIP
360
6A1
  0
DICTIONARY
  5
69E
330
3CB
100
AcDbDictionary
280
     1
281
     1
  3
ACAD_XREC_ROUNDTRIP
360
69F
  0
DICTIONARY
  5
6A2
330
3CD
100
AcDbDictionary
280
     1
281
     1
  3
ACAD_XREC_ROUNDTRIP
360
6A3
  0
DICTIONARY
  5
6AA
330
3D1
100
AcDbDictionary
280
     1
281
     1
  3
ACAD_XREC_ROUNDTRIP
360
6AB
  0
DICTIONARY
  5
6B2
330
3D5
100
AcDbDictionary
280
     1
281
     1
  3
ACAD_XREC_ROUNDTRIP
360
6B3
  0
DICTIONARY
  5
6A6
330
3CF
100
AcDbDictionary
280
     1
281
     1
  3
ACAD_XREC_ROUNDTRIP
360
6A7
  0
DICTIONARY
  5
6A8
330
3D0
100
AcDbDictionary
280
     1
281
     1
  3
ACAD_XREC_ROUNDTRIP
360
6A9
  0
DICTIONARY
  5
6B0
330
3D4
100
AcDbDictionary
280
     1
281
     1
  3
ACAD_XREC_ROUNDTRIP
360
6B1
  0
DICTIONARY
  5
694
330
3C6
100
AcDbDictionary
280
     1
281
     1
  3
ACAD_XREC_ROUNDTRIP
360
695
  0
DICTIONARY
  5
696
330
3C7
100
AcDbDictionary
280
     1
281
     1
  3
ACAD_XREC_ROUNDTRIP
360
697
  0
DICTIONARY
  5
698
330
3C8
100
AcDbDictionary
280
     1
281
     1
  3
ACAD_XREC_ROUNDTRIP
360
699
  0
DICTIONARY
  5
69A
330
3C9
100
AcDbDictionary
280
     1
281
     1
  3
ACAD_XREC_ROUNDTRIP
360
69B
  0
DICTIONARY
  5
6AE
330
3D3
100
AcDbDictionary
280
     1
281
     1
  3
ACAD_XREC_ROUNDTRIP
360
6AF
  0
DICTIONARY
  5
6A4
330
3CE
100
AcDbDictionary
280
     1
281
     1
  3
ACAD_XREC_ROUNDTRIP
360
6A5
  0
DICTIONARY
  5
6AC
330
3D2
100
AcDbDictionary
280
     1
281
     1
  3
ACAD_XREC_ROUNDTRIP
360
6AD
  0
XRECORD
  5
691
102
{ACAD_REACTORS
330
690
102
}
330
690
100
AcDbXrecord
280
     1
102
MATERIAL
148
0.0
149
0.0
149
0.0
 93
        0
 94
      127
282
     0
 72
     1
 77
     1
171
     1
175
     1
179
     1
273
     0
  0
XRECORD
  5
68F
102
{ACAD_REACTORS
330
68E
102
}
330
68E
100
AcDbXrecord
280
     1
102
MATERIAL
148
0.0
149
0.0
149
0.0
 93
        0
 94
      127
282
     0
 72
     1
 77
     1
171
     1
175
     1
179
     1
273
     0
  0
XRECORD
  5
693
102
{ACAD_REACTORS
330
692
102
}
330
692
100
AcDbXrecord
280
     1
102
MATERIAL
148
0.0
149
0.0
149
0.0
 93
        0
 94
      127
282
     0
 72
     1
 77
     1
171
     1
175
     1
179
     1
273
     0
  0
XRECORD
  5
69D
102
{ACAD_REACTORS
330
69C
102
}
330
69C
100
AcDbXrecord
280
     1
102
RTVSPropertyOp0
 70
     1
102
RTVSPropertyOp1
 70
     1
102
RTVSPropertyOp2
 70
     1
102
RTVSPropertyOp3
 70
     1
102
RTVSPropertyOp4
 70
     1
102
RTVSPropertyOp5
 70
     1
102
RTVSPropertyOp6
 70
     1
102
RTVSPropertyOp7
 70
     1
102
RTVSPropertyOp8
 70
     1
102
RTVSPropertyOp9
 70
     1
102
RTVSPropertyOp10
 70
     1
102
RTVSPropertyOp11
 70
     1
102
RTVSPropertyOp12
 70
     1
102
RTVSPropertyOp13
 70
     1
102
RTVSPropertyOp14
 70
     1
102
RTVSPropertyOp15
 70
     1
102
RTVSPropertyOp16
 70
     1
102
RTVSPropertyOp17
 70
     1
102
RTVSPropertyOp18
 70
     1
102
RTVSPropertyOp19
 70
     1
102
RTVSPropertyOp20
 70
     1
102
RTVSPropertyOp21
 70
     1
102
RTVSPropertyOp22
 70
     1
102
RTVSPropertyOp23
 70
     1
102
RTVSPropertyOp24
 70
     1
102
RTVSPropertyOp25
 70
     1
102
RTVSPropertyOp26
 70
     1
102
RTVSPropertyOp27
 70
     1
102
RTVSPropertyOp28
 70
     1
102
RTVSPropertyOp29
 70
     1
102
RTVSPropertyOp30
 70
     1
102
RTVSPropertyOp31
 70
     1
102
RTVSPropertyOp32
 70
     1
  0
XRECORD
  5
6A1
102
{ACAD_REACTORS
330
6A0
102
}
330
6A0
100
AcDbXrecord
280
     1
102
RTVSPropertyOp0
 70
     1
102
RTVSPropertyOp1
 70
     1
102
RTVSPropertyOp2
 70
     1
102
RTVSPropertyOp3
 70
     1
102
RTVSPropertyOp4
 70
     1
102
RTVSPropertyOp5
 70
     1
102
RTVSPropertyOp6
 70
     1
102
RTVSPropertyOp7
 70
     1
102
RTVSPropertyOp8
 70
     1
102
RTVSPropertyOp9
 70
     1
102
RTVSPropertyOp10
 70
     1
102
RTVSPropertyOp11
 70
     1
102
RTVSPropertyOp12
 70
     1
102
RTVSPropertyOp13
 70
     1
102
RTVSPropertyOp14
 70
     1
102
RTVSPropertyOp15
 70
     1
102
RTVSPropertyOp16
 70
     1
102
RTVSPropertyOp17
 70
     1
102
RTVSPropertyOp18
 70
     1
102
RTVSPropertyOp19
 70
     1
102
RTVSPropertyOp20
 70
     1
102
RTVSPropertyOp21
 70
     1
102
RTVSPropertyOp22
 70
     1
102
RTVSPropertyOp23
 70
     1
102
RTVSPropertyOp24
 70
     1
102
RTVSPropertyOp25
 70
     1
102
RTVSPropertyOp26
 70
     1
102
RTVSPropertyOp27
 70
     1
102
RTVSPropertyOp28
 70
     1
102
RTVSPropertyOp29
 70
     1
102
RTVSPropertyOp30
 70
     1
102
RTVSPropertyOp31
 70
     1
102
RTVSPropertyOp32
 70
     1
  0
XRECORD
  5
69F
102
{ACAD_REACTORS
330
69E
102
}
330
69E
100
AcDbXrecord
280
     1
102
RTVSPropertyOp0
 70
     1
102
RTVSPropertyOp1
 70
     1
102
RTVSPropertyOp2
 70
     1
102
RTVSPropertyOp3
 70
     1
102
RTVSPropertyOp4
 70
     1
102
RTVSPropertyOp5
 70
     1
102
RTVSPropertyOp6
 70
     1
102
RTVSPropertyOp7
 70
     1
102
RTVSPropertyOp8
 70
     1
102
RTVSPropertyOp9
 70
     1
102
RTVSPropertyOp10
 70
     1
102
RTVSPropertyOp11
 70
     1
102
RTVSPropertyOp12
 70
     1
102
RTVSPropertyOp13
 70
     1
102
RTVSPropertyOp14
 70
     1
102
RTVSPropertyOp15
 70
     1
102
RTVSPropertyOp16
 70
     1
102
RTVSPropertyOp17
 70
     1
102
RTVSPropertyOp18
 70
     1
102
RTVSPropertyOp19
 70
     1
102
RTVSPropertyOp20
 70
     1
102
RTVSPropertyOp21
 70
     1
102
RTVSPropertyOp22
 70
     1
102
RTVSPropertyOp23
 70
     1
102
RTVSPropertyOp24
 70
     1
102
RTVSPropertyOp25
 70
     1
102
RTVSPropertyOp26
 70
     1
102
RTVSPropertyOp27
 70
     1
102
RTVSPropertyOp28
 70
     1
102
RTVSPropertyOp29
 70
     1
102
RTVSPropertyOp30
 70
     1
102
RTVSPropertyOp31
 70
     1
102
RTVSPropertyOp32
 70
     1
  0
XRECORD
  5
6A3
102
{ACAD_REACTORS
330
6A2
102
}
330
6A2
100
AcDbXrecord
280
     1
102
RTVSPropertyOp0
 70
     1
102
RTVSPropertyOp1
 70
     1
102
RTVSPropertyOp2
 70
     1
102
RTVSPropertyOp3
 70
     1
102
RTVSPropertyOp4
 70
     1
102
RTVSPropertyOp5
 70
     1
102
RTVSPropertyOp6
 70
     1
102
RTVSPropertyOp7
 70
     1
102
RTVSPropertyOp8
 70
     1
102
RTVSPropertyOp9
 70
     1
102
RTVSPropertyOp10
 70
     1
102
RTVSPropertyOp11
 70
     1
102
RTVSPropertyOp12
 70
     1
102
RTVSPropertyOp13
 70
     1
102
RTVSPropertyOp14
 70
     1
102
RTVSPropertyOp15
 70
     1
102
RTVSPropertyOp16
 70
     1
102
RTVSPropertyOp17
 70
     1
102
RTVSPropertyOp18
 70
     1
102
RTVSPropertyOp19
 70
     1
102
RTVSPropertyOp20
 70
     1
102
RTVSPropertyOp21
 70
     1
102
RTVSPropertyOp22
 70
     1
102
RTVSPropertyOp23
 70
     1
102
RTVSPropertyOp24
 70
     1
102
RTVSPropertyOp25
 70
     1
102
RTVSPropertyOp26
 70
     1
102
RTVSPropertyOp27
 70
     1
102
RTVSPropertyOp28
 70
     1
102
RTVSPropertyOp29
 70
     1
102
RTVSPropertyOp30
 70
     1
102
RTVSPropertyOp31
 70
     1
102
RTVSPropertyOp32
 70
     1
  0
XRECORD
  5
6AB
102
{ACAD_REACTORS
330
6AA
102
}
330
6AA
100
AcDbXrecord
280
     1
102
RTVSPropertyOp0
 70
     1
102
RTVSPropertyOp1
 70
     1
102
RTVSPropertyOp2
 70
     1
102
RTVSPropertyOp3
 70
     1
102
RTVSPropertyOp4
 70
     1
102
RTVSPropertyOp5
 70
     1
102
RTVSPropertyOp6
 70
     1
102
RTVSPropertyOp7
 70
     1
102
RTVSPropertyOp8
 70
     1
102
RTVSPropertyOp9
 70
     1
102
RTVSPropertyOp10
 70
     1
102
RTVSPropertyOp11
 70
     1
102
RTVSPropertyOp12
 70
     1
102
RTVSPropertyOp13
 70
     1
102
RTVSPropertyOp14
 70
     1
102
RTVSPropertyOp15
 70
     1
102
RTVSPropertyOp16
 70
     1
102
RTVSPropertyOp17
 70
     1
102
RTVSPropertyOp18
 70
     1
102
RTVSPropertyOp19
 70
     1
102
RTVSPropertyOp20
 70
     1
102
RTVSPropertyOp21
 70
     1
102
RTVSPropertyOp22
 70
     1
102
RTVSPropertyOp23
 70
     1
102
RTVSPropertyOp24
 70
     1
102
RTVSPropertyOp25
 70
     1
102
RTVSPropertyOp26
 70
     1
102
RTVSPropertyOp27
 70
     1
102
RTVSPropertyOp28
 70
     1
102
RTVSPropertyOp29
 70
     1
102
RTVSPropertyOp30
 70
     1
102
RTVSPropertyOp31
 70
     1
102
RTVSPropertyOp32
 70
     1
  0
XRECORD
  5
6B3
102
{ACAD_REACTORS
330
6B2
102
}
330
6B2
100
AcDbXrecord
280
     1
102
RTVSPropertyOp0
 70
     1
102
RTVSPropertyOp1
 70
     1
102
RTVSPropertyOp2
 70
     1
102
RTVSPropertyOp3
 70
     1
102
RTVSPropertyOp4
 70
     1
102
RTVSPropertyOp5
 70
     1
102
RTVSPropertyOp6
 70
     1
102
RTVSPropertyOp7
 70
     1
102
RTVSPropertyOp8
 70
     1
102
RTVSPropertyOp9
 70
     1
102
RTVSPropertyOp10
 70
     1
102
RTVSPropertyOp11
 70
     1
102
RTVSPropertyOp12
 70
     1
102
RTVSPropertyOp13
 70
     1
102
RTVSPropertyOp14
 70
     1
102
RTVSPropertyOp15
 70
     1
102
RTVSPropertyOp16
 70
     1
102
RTVSPropertyOp17
 70
     1
102
RTVSPropertyOp18
 70
     1
102
RTVSPropertyOp19
 70
     1
102
RTVSPropertyOp20
 70
     1
102
RTVSPropertyOp21
 70
     1
102
RTVSPropertyOp22
 70
     1
102
RTVSPropertyOp23
 70
     1
102
RTVSPropertyOp24
 70
     1
102
RTVSPropertyOp25
 70
     1
102
RTVSPropertyOp26
 70
     1
102
RTVSPropertyOp27
 70
     1
102
RTVSPropertyOp28
 70
     1
102
RTVSPropertyOp29
 70
     1
102
RTVSPropertyOp30
 70
     1
102
RTVSPropertyOp31
 70
     1
102
RTVSPropertyOp32
 70
     1
  0
XRECORD
  5
6A7
102
{ACAD_REACTORS
330
6A6
102
}
330
6A6
100
AcDbXrecord
280
     1
102
RTVSPropertyOp0
 70
     1
102
RTVSPropertyOp1
 70
     1
102
RTVSPropertyOp2
 70
     1
102
RTVSPropertyOp3
 70
     1
102
RTVSPropertyOp4
 70
     1
102
RTVSPropertyOp5
 70
     1
102
RTVSPropertyOp6
 70
     1
102
RTVSPropertyOp7
 70
     1
102
RTVSPropertyOp8
 70
     1
102
RTVSPropertyOp9
 70
     1
102
RTVSPropertyOp10
 70
     1
102
RTVSPropertyOp11
 70
     1
102
RTVSPropertyOp12
 70
     1
102
RTVSPropertyOp13
 70
     1
102
RTVSPropertyOp14
 70
     1
102
RTVSPropertyOp15
 70
     1
102
RTVSPropertyOp16
 70
     1
102
RTVSPropertyOp17
 70
     1
102
RTVSPropertyOp18
 70
     1
102
RTVSPropertyOp19
 70
     1
102
RTVSPropertyOp20
 70
     1
102
RTVSPropertyOp21
 70
     1
102
RTVSPropertyOp22
 70
     1
102
RTVSPropertyOp23
 70
     1
102
RTVSPropertyOp24
 70
     1
102
RTVSPropertyOp25
 70
     1
102
RTVSPropertyOp26
 70
     1
102
RTVSPropertyOp27
 70
     1
102
RTVSPropertyOp28
 70
     1
102
RTVSPropertyOp29
 70
     1
102
RTVSPropertyOp30
 70
     1
102
RTVSPropertyOp31
 70
     1
102
RTVSPropertyOp32
 70
     1
  0
XRECORD
  5
6A9
102
{ACAD_REACTORS
330
6A8
102
}
330
6A8
100
AcDbXrecord
280
     1
102
RTVSPropertyOp0
 70
     1
102
RTVSPropertyOp1
 70
     1
102
RTVSPropertyOp2
 70
     1
102
RTVSPropertyOp3
 70
     1
102
RTVSPropertyOp4
 70
     1
102
RTVSPropertyOp5
 70
     1
102
RTVSPropertyOp6
 70
     1
102
RTVSPropertyOp7
 70
     1
102
RTVSPropertyOp8
 70
     1
102
RTVSPropertyOp9
 70
     1
102
RTVSPropertyOp10
 70
     1
102
RTVSPropertyOp11
 70
     1
102
RTVSPropertyOp12
 70
     1
102
RTVSPropertyOp13
 70
     1
102
RTVSPropertyOp14
 70
     1
102
RTVSPropertyOp15
 70
     1
102
RTVSPropertyOp16
 70
     1
102
RTVSPropertyOp17
 70
     1
102
RTVSPropertyOp18
 70
     1
102
RTVSPropertyOp19
 70
     1
102
RTVSPropertyOp20
 70
     1
102
RTVSPropertyOp21
 70
     1
102
RTVSPropertyOp22
 70
     1
102
RTVSPropertyOp23
 70
     1
102
RTVSPropertyOp24
 70
     1
102
RTVSPropertyOp25
 70
     1
102
RTVSPropertyOp26
 70
     1
102
RTVSPropertyOp27
 70
     1
102
RTVSPropertyOp28
 70
     1
102
RTVSPropertyOp29
 70
     1
102
RTVSPropertyOp30
 70
     1
102
RTVSPropertyOp31
 70
     1
102
RTVSPropertyOp32
 70
     1
  0
XRECORD
  5
6B1
102
{ACAD_REACTORS
330
6B0
102
}
330
6B0
100
AcDbXrecord
280
     1
102
RTVSPropertyOp0
 70
     1
102
RTVSPropertyOp1
 70
     1
102
RTVSPropertyOp2
 70
     1
102
RTVSPropertyOp3
 70
     1
102
RTVSPropertyOp4
 70
     1
102
RTVSPropertyOp5
 70
     1
102
RTVSPropertyOp6
 70
     1
102
RTVSPropertyOp7
 70
     1
102
RTVSPropertyOp8
 70
     1
102
RTVSPropertyOp9
 70
     1
102
RTVSPropertyOp10
 70
     1
102
RTVSPropertyOp11
 70
     1
102
RTVSPropertyOp12
 70
     1
102
RTVSPropertyOp13
 70
     1
102
RTVSPropertyOp14
 70
     1
102
RTVSPropertyOp15
 70
     1
102
RTVSPropertyOp16
 70
     1
102
RTVSPropertyOp17
 70
     1
102
RTVSPropertyOp18
 70
     1
102
RTVSPropertyOp19
 70
     1
102
RTVSPropertyOp20
 70
     1
102
RTVSPropertyOp21
 70
     1
102
RTVSPropertyOp22
 70
     1
102
RTVSPropertyOp23
 70
     1
102
RTVSPropertyOp24
 70
     1
102
RTVSPropertyOp25
 70
     1
102
RTVSPropertyOp26
 70
     1
102
RTVSPropertyOp27
 70
     1
102
RTVSPropertyOp28
 70
     1
102
RTVSPropertyOp29
 70
     1
102
RTVSPropertyOp30
 70
     1
102
RTVSPropertyOp31
 70
     1
102
RTVSPropertyOp32
 70
     1
  0
XRECORD
  5
695
102
{ACAD_REACTORS
330
694
102
}
330
694
100
AcDbXrecord
280
     1
102
RTVSPropertyOp0
 70
     1
102
RTVSPropertyOp1
 70
     1
102
RTVSPropertyOp2
 70
     1
102
RTVSPropertyOp3
 70
     1
102
RTVSPropertyOp4
 70
     1
102
RTVSPropertyOp5
 70
     1
102
RTVSPropertyOp6
 70
     1
102
RTVSPropertyOp7
 70
     1
102
RTVSPropertyOp8
 70
     1
102
RTVSPropertyOp9
 70
     1
102
RTVSPropertyOp10
 70
     1
102
RTVSPropertyOp11
 70
     1
102
RTVSPropertyOp12
 70
     1
102
RTVSPropertyOp13
 70
     1
102
RTVSPropertyOp14
 70
     1
102
RTVSPropertyOp15
 70
     1
102
RTVSPropertyOp16
 70
     1
102
RTVSPropertyOp17
 70
     1
102
RTVSPropertyOp18
 70
     1
102
RTVSPropertyOp19
 70
     1
102
RTVSPropertyOp20
 70
     1
102
RTVSPropertyOp21
 70
     1
102
RTVSPropertyOp22
 70
     1
102
RTVSPropertyOp23
 70
     1
102
RTVSPropertyOp24
 70
     1
102
RTVSPropertyOp25
 70
     1
102
RTVSPropertyOp26
 70
     1
102
RTVSPropertyOp27
 70
     1
102
RTVSPropertyOp28
 70
     1
102
RTVSPropertyOp29
 70
     1
102
RTVSPropertyOp30
 70
     1
102
RTVSPropertyOp31
 70
     1
102
RTVSPropertyOp32
 70
     1
  0
XRECORD
  5
697
102
{ACAD_REACTORS
330
696
102
}
330
696
100
AcDbXrecord
280
     1
102
RTVSPropertyOp0
 70
     1
102
RTVSPropertyOp1
 70
     1
102
RTVSPropertyOp2
 70
     1
102
RTVSPropertyOp3
 70
     1
102
RTVSPropertyOp4
 70
     1
102
RTVSPropertyOp5
 70
     1
102
RTVSPropertyOp6
 70
     1
102
RTVSPropertyOp7
 70
     1
102
RTVSPropertyOp8
 70
     1
102
RTVSPropertyOp9
 70
     1
102
RTVSPropertyOp10
 70
     1
102
RTVSPropertyOp11
 70
     1
102
RTVSPropertyOp12
 70
     1
102
RTVSPropertyOp13
 70
     1
102
RTVSPropertyOp14
 70
     1
102
RTVSPropertyOp15
 70
     1
102
RTVSPropertyOp16
 70
     1
102
RTVSPropertyOp17
 70
     1
102
RTVSPropertyOp18
 70
     1
102
RTVSPropertyOp19
 70
     1
102
RTVSPropertyOp20
 70
     1
102
RTVSPropertyOp21
 70
     1
102
RTVSPropertyOp22
 70
     1
102
RTVSPropertyOp23
 70
     1
102
RTVSPropertyOp24
 70
     1
102
RTVSPropertyOp25
 70
     1
102
RTVSPropertyOp26
 70
     1
102
RTVSPropertyOp27
 70
     1
102
RTVSPropertyOp28
 70
     1
102
RTVSPropertyOp29
 70
     1
102
RTVSPropertyOp30
 70
     1
102
RTVSPropertyOp31
 70
     1
102
RTVSPropertyOp32
 70
     1
  0
XRECORD
  5
699
102
{ACAD_REACTORS
330
698
102
}
330
698
100
AcDbXrecord
280
     1
102
RTVSPropertyOp0
 70
     1
102
RTVSPropertyOp1
 70
     1
102
RTVSPropertyOp2
 70
     1
102
RTVSPropertyOp3
 70
     1
102
RTVSPropertyOp4
 70
     1
102
RTVSPropertyOp5
 70
     1
102
RTVSPropertyOp6
 70
     1
102
RTVSPropertyOp7
 70
     1
102
RTVSPropertyOp8
 70
     1
102
RTVSPropertyOp9
 70
     1
102
RTVSPropertyOp10
 70
     1
102
RTVSPropertyOp11
 70
     1
102
RTVSPropertyOp12
 70
     1
102
RTVSPropertyOp13
 70
     1
102
RTVSPropertyOp14
 70
     1
102
RTVSPropertyOp15
 70
     1
102
RTVSPropertyOp16
 70
     1
102
RTVSPropertyOp17
 70
     1
102
RTVSPropertyOp18
 70
     1
102
RTVSPropertyOp19
 70
     1
102
RTVSPropertyOp20
 70
     1
102
RTVSPropertyOp21
 70
     1
102
RTVSPropertyOp22
 70
     1
102
RTVSPropertyOp23
 70
     1
102
RTVSPropertyOp24
 70
     1
102
RTVSPropertyOp25
 70
     1
102
RTVSPropertyOp26
 70
     1
102
RTVSPropertyOp27
 70
     1
102
RTVSPropertyOp28
 70
     1
102
RTVSPropertyOp29
 70
     1
102
RTVSPropertyOp30
 70
     1
102
RTVSPropertyOp31
 70
     1
102
RTVSPropertyOp32
 70
     1
  0
XRECORD
  5
69B
102
{ACAD_REACTORS
330
69A
102
}
330
69A
100
AcDbXrecord
280
     1
102
RTVSPropertyOp0
 70
     1
102
RTVSPropertyOp1
 70
     1
102
RTVSPropertyOp2
 70
     1
102
RTVSPropertyOp3
 70
     1
102
RTVSPropertyOp4
 70
     1
102
RTVSPropertyOp5
 70
     1
102
RTVSPropertyOp6
 70
     1
102
RTVSPropertyOp7
 70
     1
102
RTVSPropertyOp8
 70
     1
102
RTVSPropertyOp9
 70
     1
102
RTVSPropertyOp10
 70
     1
102
RTVSPropertyOp11
 70
     1
102
RTVSPropertyOp12
 70
     1
102
RTVSPropertyOp13
 70
     1
102
RTVSPropertyOp14
 70
     1
102
RTVSPropertyOp15
 70
     1
102
RTVSPropertyOp16
 70
     1
102
RTVSPropertyOp17
 70
     1
102
RTVSPropertyOp18
 70
     1
102
RTVSPropertyOp19
 70
     1
102
RTVSPropertyOp20
 70
     1
102
RTVSPropertyOp21
 70
     1
102
RTVSPropertyOp22
 70
     1
102
RTVSPropertyOp23
 70
     1
102
RTVSPropertyOp24
 70
     1
102
RTVSPropertyOp25
 70
     1
102
RTVSPropertyOp26
 70
     1
102
RTVSPropertyOp27
 70
     1
102
RTVSPropertyOp28
 70
     1
102
RTVSPropertyOp29
 70
     1
102
RTVSPropertyOp30
 70
     1
102
RTVSPropertyOp31
 70
     1
102
RTVSPropertyOp32
 70
     1
  0
XRECORD
  5
6AF
102
{ACAD_REACTORS
330
6AE
102
}
330
6AE
100
AcDbXrecord
280
     1
102
RTVSPropertyOp0
 70
     1
102
RTVSPropertyOp1
 70
     1
102
RTVSPropertyOp2
 70
     1
102
RTVSPropertyOp3
 70
     1
102
RTVSPropertyOp4
 70
     1
102
RTVSPropertyOp5
 70
     1
102
RTVSPropertyOp6
 70
     1
102
RTVSPropertyOp7
 70
     1
102
RTVSPropertyOp8
 70
     1
102
RTVSPropertyOp9
 70
     1
102
RTVSPropertyOp10
 70
     1
102
RTVSPropertyOp11
 70
     1
102
RTVSPropertyOp12
 70
     1
102
RTVSPropertyOp13
 70
     1
102
RTVSPropertyOp14
 70
     1
102
RTVSPropertyOp15
 70
     1
102
RTVSPropertyOp16
 70
     1
102
RTVSPropertyOp17
 70
     1
102
RTVSPropertyOp18
 70
     1
102
RTVSPropertyOp19
 70
     1
102
RTVSPropertyOp20
 70
     1
102
RTVSPropertyOp21
 70
     1
102
RTVSPropertyOp22
 70
     1
102
RTVSPropertyOp23
 70
     1
102
RTVSPropertyOp24
 70
     1
102
RTVSPropertyOp25
 70
     1
102
RTVSPropertyOp26
 70
     1
102
RTVSPropertyOp27
 70
     1
102
RTVSPropertyOp28
 70
     1
102
RTVSPropertyOp29
 70
     1
102
RTVSPropertyOp30
 70
     1
102
RTVSPropertyOp31
 70
     1
102
RTVSPropertyOp32
 70
     1
  0
XRECORD
  5
6A5
102
{ACAD_REACTORS
330
6A4
102
}
330
6A4
100
AcDbXrecord
280
     1
102
RTVSPropertyOp0
 70
     1
102
RTVSPropertyOp1
 70
     1
102
RTVSPropertyOp2
 70
     1
102
RTVSPropertyOp3
 70
     1
102
RTVSPropertyOp4
 70
     1
102
RTVSPropertyOp5
 70
     1
102
RTVSPropertyOp6
 70
     1
102
RTVSPropertyOp7
 70
     1
102
RTVSPropertyOp8
 70
     1
102
RTVSPropertyOp9
 70
     1
102
RTVSPropertyOp10
 70
     1
102
RTVSPropertyOp11
 70
     1
102
RTVSPropertyOp12
 70
     1
102
RTVSPropertyOp13
 70
     1
102
RTVSPropertyOp14
 70
     1
102
RTVSPropertyOp15
 70
     1
102
RTVSPropertyOp16
 70
     1
102
RTVSPropertyOp17
 70
     1
102
RTVSPropertyOp18
 70
     1
102
RTVSPropertyOp19
 70
     1
102
RTVSPropertyOp20
 70
     1
102
RTVSPropertyOp21
 70
     1
102
RTVSPropertyOp22
 70
     1
102
RTVSPropertyOp23
 70
     1
102
RTVSPropertyOp24
 70
     1
102
RTVSPropertyOp25
 70
     1
102
RTVSPropertyOp26
 70
     1
102
RTVSPropertyOp27
 70
     1
102
RTVSPropertyOp28
 70
     1
102
RTVSPropertyOp29
 70
     1
102
RTVSPropertyOp30
 70
     1
102
RTVSPropertyOp31
 70
     1
102
RTVSPropertyOp32
 70
     1
  0
XRECORD
  5
6AD
102
{ACAD_REACTORS
330
6AC
102
}
330
6AC
100
AcDbXrecord
280
     1
102
RTVSPropertyOp0
 70
     1
102
RTVSPropertyOp1
 70
     1
102
RTVSPropertyOp2
 70
     1
102
RTVSPropertyOp3
 70
     1
102
RTVSPropertyOp4
 70
     1
102
RTVSPropertyOp5
 70
     1
102
RTVSPropertyOp6
 70
     1
102
RTVSPropertyOp7
 70
     1
102
RTVSPropertyOp8
 70
     1
102
RTVSPropertyOp9
 70
     1
102
RTVSPropertyOp10
 70
     1
102
RTVSPropertyOp11
 70
     1
102
RTVSPropertyOp12
 70
     1
102
RTVSPropertyOp13
 70
     1
102
RTVSPropertyOp14
 70
     1
102
RTVSPropertyOp15
 70
     1
102
RTVSPropertyOp16
 70
     1
102
RTVSPropertyOp17
 70
     1
102
RTVSPropertyOp18
 70
     1
102
RTVSPropertyOp19
 70
     1
102
RTVSPropertyOp20
 70
     1
102
RTVSPropertyOp21
 70
     1
102
RTVSPropertyOp22
 70
     1
102
RTVSPropertyOp23
 70
     1
102
RTVSPropertyOp24
 70
     1
102
RTVSPropertyOp25
 70
     1
102
RTVSPropertyOp26
 70
     1
102
RTVSPropertyOp27
 70
     1
102
RTVSPropertyOp28
 70
     1
102
RTVSPropertyOp29
 70
     1
102
RTVSPropertyOp30
 70
     1
102
RTVSPropertyOp31
 70
     1
102
RTVSPropertyOp32
 70
     1
  0
ENDSEC
  0
EOF
