  0
SECTION
  2
HEADER
  9
$ACADVER
  1
AC1015
  9
$ACADMAINTVER
 70
     6
  9
$DWGCODEPAGE
  3
ANSI_1252
  9
$INSBASE
 10
0.0
 20
0.0
 30
0.0
  9
$EXTMIN
 10
1.000000000000000E+20
 20
1.000000000000000E+20
 30
1.000000000000000E+20
  9
$EXTMAX
 10
-1.000000000000000E+20
 20
-1.000000000000000E+20
 30
-1.000000000000000E+20
  9
$LIMMIN
 10
-170.0
 20
-170.0
  9
$LIMMAX
 10
519.0
 20
260.0
  9
$ORTHOMODE
 70
     0
  9
$REGENMODE
 70
     1
  9
$FILLMODE
 70
     1
  9
$QTEXTMODE
 70
     0
  9
$MIRRTEXT
 70
     0
  9
$LTSCALE
 40
1.0
  9
$ATTMODE
 70
     1
  9
$TEXTSIZE
 40
3.5
  9
$TRACEWID
 40
1.0
  9
$TEXTSTYLE
  7
SIMPLEX
  9
$CLAYER
  8
1
  9
$CELTYPE
  6
BYLAYER
  9
$CECOLOR
 62
   256
  9
$CELTSCALE
 40
1.0
  9
$DISPSILH
 70
     0
  9
$DIMSCALE
 40
1.0
  9
$DIMASZ
 40
2.5
  9
$DIMEXO
 40
0.0
  9
$DIMDLI
 40
3.75
  9
$DIMRND
 40
0.0
  9
$DIMDLE
 40
0.0
  9
$DIMEXE
 40
1.25
  9
$DIMTP
 40
0.0
  9
$DIMTM
 40
0.0
  9
$DIMTXT
 40
3.5
  9
$DIMCEN
 40
0.0
  9
$DIMTSZ
 40
0.0
  9
$DIMTOL
 70
     0
  9
$DIMLIM
 70
     0
  9
$DIMTIH
 70
     0
  9
$DIMTOH
 70
     0
  9
$DIMSE1
 70
     0
  9
$DIMSE2
 70
     0
  9
$DIMTAD
 70
     1
  9
$DIMZIN
 70
     8
  9
$DIMBLK
  1

  9
$DIMASO
 70
     1
  9
$DIMSHO
 70
     1
  9
$DIMPOST
  1

  9
$DIMAPOST
  1

  9
$DIMALT
 70
     0
  9
$DIMALTD
 70
     3
  9
$DIMALTF
 40
0.039370078
  9
$DIMLFAC
 40
1.0
  9
$DIMTOFL
 70
     0
  9
$DIMTVP
 40
0.0
  9
$DIMTIX
 70
     0
  9
$DIMSOXD
 70
     0
  9
$DIMSAH
 70
     0
  9
$DIMBLK1
  1

  9
$DIMBLK2
  1

  9
$DIMSTYLE
  2
STANDARD
  9
$DIMCLRD
 70
     0
  9
$DIMCLRE
 70
     0
  9
$DIMCLRT
 70
     0
  9
$DIMTFAC
 40
1.0
  9
$DIMGAP
 40
0.625
  9
$DIMJUST
 70
     0
  9
$DIMSD1
 70
     0
  9
$DIMSD2
 70
     0
  9
$DIMTOLJ
 70
     0
  9
$DIMTZIN
 70
     8
  9
$DIMALTZ
 70
     0
  9
$DIMALTTZ
 70
     0
  9
$DIMUPT
 70
     0
  9
$DIMDEC
 70
     2
  9
$DIMTDEC
 70
     2
  9
$DIMALTU
 70
     2
  9
$DIMALTTD
 70
     3
  9
$DIMTXSTY
  7
SIMPLEX
  9
$DIMAUNIT
 70
     0
  9
$DIMADEC
 70
     2
  9
$DIMALTRND
 40
0.0
  9
$DIMAZIN
 70
     2
  9
$DIMDSEP
 70
    46
  9
$DIMATFIT
 70
     3
  9
$DIMFRAC
 70
     0
  9
$DIMLDRBLK
  1

  9
$DIMLUNIT
 70
     2
  9
$DIMLWD
 70
    -2
  9
$DIMLWE
 70
    -2
  9
$DIMTMOVE
 70
     0
  9
$LUNITS
 70
     2
  9
$LUPREC
 70
     4
  9
$SKETCHINC
 40
1.0
  9
$FILLETRAD
 40
0.0
  9
$AUNITS
 70
     0
  9
$AUPREC
 70
     0
  9
$MENU
  1
c:\tdm21\cad\caduti13\tdm13
  9
$ELEVATION
 40
0.0
  9
$PELEVATION
 40
0.0
  9
$THICKNESS
 40
0.0
  9
$LIMCHECK
 70
     0
  9
$CHAMFERA
 40
0.0
  9
$CHAMFERB
 40
0.0
  9
$CHAMFERC
 40
0.0
  9
$CHAMFERD
 40
0.0
  9
$SKPOLY
 70
     0
  9
$TDCREATE
 40
2454957.593642639
  9
$TDUCREATE
 40
2454957.510309306
  9
$TDUPDATE
 40
2456860.678156482
  9
$TDUUPDATE
 40
2456860.594823148
  9
$TDINDWG
 40
0.0009643519
  9
$TDUSRTIMER
 40
0.0009475231
  9
$USRTIMER
 70
     1
  9
$ANGBASE
 50
0.0
  9
$ANGDIR
 70
     0
  9
$PDMODE
 70
     1
  9
$PDSIZE
 40
0.0
  9
$PLINEWID
 40
0.0
  9
$SPLFRAME
 70
     0
  9
$SPLINETYPE
 70
     6
  9
$SPLINESEGS
 70
     8
  9
$HANDSEED
  5
6C1
  9
$SURFTAB1
 70
     6
  9
$SURFTAB2
 70
     6
  9
$SURFTYPE
 70
     6
  9
$SURFU
 70
     6
  9
$SURFV
 70
     6
  9
$UCSBASE
  2

  9
$UCSNAME
  2

  9
$UCSORG
 10
0.0
 20
0.0
 30
0.0
  9
$UCSXDIR
 10
1.0
 20
0.0
 30
0.0
  9
$UCSYDIR
 10
0.0
 20
1.0
 30
0.0
  9
$UCSORTHOREF
  2

  9
$UCSORTHOVIEW
 70
     0
  9
$UCSORGTOP
 10
0.0
 20
0.0
 30
0.0
  9
$UCSORGBOTTOM
 10
0.0
 20
0.0
 30
0.0
  9
$UCSORGLEFT
 10
0.0
 20
0.0
 30
0.0
  9
$UCSORGRIGHT
 10
0.0
 20
0.0
 30
0.0
  9
$UCSORGFRONT
 10
0.0
 20
0.0
 30
0.0
  9
$UCSORGBACK
 10
0.0
 20
0.0
 30
0.0
  9
$PUCSBASE
  2

  9
$PUCSNAME
  2

  9
$PUCSORG
 10
0.0
 20
0.0
 30
0.0
  9
$PUCSXDIR
 10
1.0
 20
0.0
 30
0.0
  9
$PUCSYDIR
 10
0.0
 20
1.0
 30
0.0
  9
$PUCSORTHOREF
  2

  9
$PUCSORTHOVIEW
 70
     0
  9
$PUCSORGTOP
 10
0.0
 20
0.0
 30
0.0
  9
$PUCSORGBOTTOM
 10
0.0
 20
0.0
 30
0.0
  9
$PUCSORGLEFT
 10
0.0
 20
0.0
 30
0.0
  9
$PUCSORGRIGHT
 10
0.0
 20
0.0
 30
0.0
  9
$PUCSORGFRONT
 10
0.0
 20
0.0
 30
0.0
  9
$PUCSORGBACK
 10
0.0
 20
0.0
 30
0.0
  9
$USERI1
 70
     0
  9
$USERI2
 70
     0
  9
$USERI3
 70
     0
  9
$USERI4
 70
     0
  9
$USERI5
 70
     0
  9
$USERR1
 40
0.0
  9
$USERR2
 40
0.0
  9
$USERR3
 40
0.0
  9
$USERR4
 40
0.0
  9
$USERR5
 40
0.0
  9
$WORLDVIEW
 70
     1
  9
$SHADEDGE
 70
     3
  9
$SHADEDIF
 70
    70
  9
$TILEMODE
 70
     1
  9
$MAXACTVP
 70
    64
  9
$PINSBASE
 10
0.0
 20
0.0
 30
0.0
  9
$PLIMCHECK
 70
     0
  9
$PEXTMIN
 10
0.0
 20
0.0
 30
0.0
  9
$PEXTMAX
 10
0.0
 20
0.0
 30
0.0
  9
$PLIMMIN
 10
0.0
 20
0.0
  9
$PLIMMAX
 10
12.0
 20
9.0
  9
$UNITMODE
 70
     0
  9
$VISRETAIN
 70
     0
  9
$PLINEGEN
 70
     0
  9
$PSLTSCALE
 70
     1
  9
$TREEDEPTH
 70
  3020
  9
$CMLSTYLE
  2
STANDARD
  9
$CMLJUST
 70
     0
  9
$CMLSCALE
 40
20.0
  9
$PROXYGRAPHICS
 70
     1
  9
$MEASUREMENT
 70
     1
  9
$CELWEIGHT
370
    -1
  9
$ENDCAPS
280
     0
  9
$JOINSTYLE
280
     0
  9
$LWDISPLAY
290
     0
  9
$INSUNITS
 70
     4
  9
$HYPERLINKBASE
  1

  9
$STYLESHEET
  1
MONOCHROME.CTB
  9
$XEDIT
290
     1
  9
$CEPSNTYPE
380
     0
  9
$PSTYLEMODE
290
     1
  9
$FINGERPRINTGUID
  2
{46B44192-1510-48B1-B61B-CBE2ADA013A7}
  9
$VERSIONGUID
  2
{6160D478-9A74-4C97-9D8A-D4A65CE74B12}
  9
$EXTNAMES
290
     1
  9
$PSVPSCALE
 40
0.0
  9
$OLESTARTUP
290
     0
  0
ENDSEC
  0
SECTION
  2
CLASSES
  0
CLASS
  1
ACDBDICTIONARYWDFLT
  2
AcDbDictionaryWithDefault
  3
ObjectDBX Classes
 90
        0
280
     0
281
     0
  0
CLASS
  1
ACDBPLACEHOLDER
  2
AcDbPlaceHolder
  3
ObjectDBX Classes
 90
        0
280
     0
281
     0
  0
CLASS
  1
LAYOUT
  2
AcDbLayout
  3
ObjectDBX Classes
 90
        0
280
     0
281
     0
  0
CLASS
  1
DICTIONARYVAR
  2
AcDbDictionaryVar
  3
ObjectDBX Classes
 90
        0
280
     0
281
     0
  0
CLASS
  1
TABLESTYLE
  2
AcDbTableStyle
  3
ObjectDBX Classes
 90
     4095
280
     0
281
     0
  0
CLASS
  1
SCALE
  2
AcDbScale
  3
ObjectDBX Classes
 90
     1153
280
     0
281
     0
  0
CLASS
  1
MATERIAL
  2
AcDbMaterial
  3
ObjectDBX Classes
 90
     1153
280
     0
281
     0
  0
CLASS
  1
VISUALSTYLE
  2
AcDbVisualStyle
  3
ObjectDBX Classes
 90
     4095
280
     0
281
     0
  0
ENDSEC
  0
SECTION
  2
TABLES
  0
TABLE
  2
VPORT
  5
8
330
0
100
AcDbSymbolTable
 70
     1
  0
VPORT
  5
39A
330
8
100
AcDbSymbolTableRecord
100
AcDbViewportTableRecord
  2
*Active
 70
     0
 10
0.0
 20
0.0
 11
1.0
 21
1.0
 12
218.9201881351169
 22
109.7549380673833
 13
0.0
 23
0.0
 14
5.0
 24
5.0
 15
5.0
 25
5.0
 16
0.0
 26
0.0
 36
1.0
 17
0.0
 27
0.0
 37
0.0
 40
564.6711112651689
 41
1.066073697585768
 42
50.0
 43
0.0
 44
0.0
 50
0.0
 51
0.0
 71
     0
 72
  2000
 73
     1
 74
     1
 75
     0
 76
     0
 77
     0
 78
     0
281
     0
 65
     1
110
0.0
120
0.0
130
0.0
111
1.0
121
0.0
131
0.0
112
0.0
122
1.0
132
0.0
 79
     0
146
0.0
  0
ENDTAB
  0
TABLE
  2
LTYPE
  5
5
330
0
100
AcDbSymbolTable
 70
     3
  0
LTYPE
  5
12
330
5
100
AcDbSymbolTableRecord
100
AcDbLinetypeTableRecord
  2
BYBLOCK
 70
     0
  3

 72
    65
 73
     0
 40
0.0
  0
LTYPE
  5
13
330
5
100
AcDbSymbolTableRecord
100
AcDbLinetypeTableRecord
  2
BYLAYER
 70
     0
  3

 72
    65
 73
     0
 40
0.0
  0
LTYPE
  5
14
330
5
100
AcDbSymbolTableRecord
100
AcDbLinetypeTableRecord
  2
CONTINUOUS
 70
     0
  3
Solid line
 72
    65
 73
     0
 40
0.0
  0
LTYPE
  5
20
330
5
100
AcDbSymbolTableRecord
100
AcDbLinetypeTableRecord
  2
HIDDEN
 70
     0
  3
Hidden __ __ __ __ __ __ __ __ __ __ __ __ __ _
 72
    65
 73
     2
 40
9.524999999999997
 49
6.349999999999998
 74
     0
 49
-3.174999999999998
 74
     0
  0
LTYPE
  5
351
330
5
100
AcDbSymbolTableRecord
100
AcDbLinetypeTableRecord
  2
CENTER
 70
     0
  3
Dash dot __ . __ . __ . __ . __ . __ . __ . __
 72
    65
 73
     4
 40
25.4
 49
12.7
 74
     0
 49
-6.349999999999998
 74
     0
 49
0.0
 74
     0
 49
-6.349999999999998
 74
     0
  0
ENDTAB
  0
TABLE
  2
LAYER
  5
2
330
0
100
AcDbSymbolTable
 70
    16
  0
LAYER
  5
F
330
2
100
AcDbSymbolTableRecord
100
AcDbLayerTableRecord
  2
0
 70
     0
 62
     7
  6
CONTINUOUS
370
    -3
390
300
  0
LAYER
  5
23
330
2
100
AcDbSymbolTableRecord
100
AcDbLayerTableRecord
  2
1
 70
     0
 62
     4
  6
CONTINUOUS
370
    -3
390
300
  0
LAYER
  5
24
330
2
100
AcDbSymbolTableRecord
100
AcDbLayerTableRecord
  2
SK1
 70
     0
 62
     4
  6
CONTINUOUS
370
    -3
390
300
  0
LAYER
  5
25
330
2
100
AcDbSymbolTableRecord
100
AcDbLayerTableRecord
  2
2
 70
     0
 62
     7
  6
CONTINUOUS
370
    -3
390
300
  0
LAYER
  5
26
330
2
100
AcDbSymbolTableRecord
100
AcDbLayerTableRecord
  2
2L
 70
     0
 62
     7
  6
CONTINUOUS
370
    -3
390
300
  0
LAYER
  5
27
330
2
100
AcDbSymbolTableRecord
100
AcDbLayerTableRecord
  2
SK2
 70
     0
 62
     7
  6
CONTINUOUS
370
    -3
390
300
  0
LAYER
  5
28
330
2
100
AcDbSymbolTableRecord
100
AcDbLayerTableRecord
  2
3
 70
     0
 62
     1
  6
HIDDEN
370
    -3
390
300
  0
LAYER
  5
29
330
2
100
AcDbSymbolTableRecord
100
AcDbLayerTableRecord
  2
SK3
 70
     0
 62
     1
  6
HIDDEN
370
    -3
390
300
  0
LAYER
  5
2A
330
2
100
AcDbSymbolTableRecord
100
AcDbLayerTableRecord
  2
4
 70
     0
 62
     2
  6
CENTER
370
    -3
390
300
  0
LAYER
  5
2B
330
2
100
AcDbSymbolTableRecord
100
AcDbLayerTableRecord
  2
SK4
 70
     0
 62
     2
  6
CENTER
370
    -3
390
300
  0
LAYER
  5
2C
330
2
100
AcDbSymbolTableRecord
100
AcDbLayerTableRecord
  2
5
 70
     0
 62
    -7
  6
CONTINUOUS
370
    -3
390
300
  0
LAYER
  5
2D
330
2
100
AcDbSymbolTableRecord
100
AcDbLayerTableRecord
  2
6
 70
     0
 62
     5
  6
CONTINUOUS
370
    -3
390
300
  0
LAYER
  5
2E
330
2
100
AcDbSymbolTableRecord
100
AcDbLayerTableRecord
  2
SK6
 70
     0
 62
     5
  6
CONTINUOUS
370
    -3
390
300
  0
LAYER
  5
2F
330
2
100
AcDbSymbolTableRecord
100
AcDbLayerTableRecord
  2
DEFPOINTS
 70
     0
 62
     7
  6
CONTINUOUS
290
     0
370
    -3
390
300
  0
LAYER
  5
375
330
2
100
AcDbSymbolTableRecord
100
AcDbLayerTableRecord
  2
CUT
 70
     0
 62
     1
  6
CONTINUOUS
370
    -3
390
300
  0
LAYER
  5
376
330
2
100
AcDbSymbolTableRecord
100
AcDbLayerTableRecord
  2
NOCUT
 70
     0
 62
     7
  6
CONTINUOUS
370
    -3
390
300
  0
ENDTAB
  0
TABLE
  2
STYLE
  5
3
330
0
100
AcDbSymbolTable
 70
     4
  0
STYLE
  5
10
330
3
100
AcDbSymbolTableRecord
100
AcDbTextStyleTableRecord
  2
STANDARD
 70
     0
 40
0.0
 41
1.0
 50
0.0
 71
     0
 42
5.0
  3
txt
  4

  0
STYLE
  5
1D
330
3
100
AcDbSymbolTableRecord
100
AcDbTextStyleTableRecord
  2
TXT
 70
     0
 40
8.0
 41
1.0
 50
0.0
 71
     0
 42
8.0
  3
txt
  4

  0
STYLE
  5
1E
330
3
100
AcDbSymbolTableRecord
100
AcDbTextStyleTableRecord
  2
SIMPLEX
 70
     0
 40
0.0
 41
1.0
 50
0.0
 71
     0
 42
3.5
  3
simplex
  4

  0
STYLE
  5
34C
330
3
100
AcDbSymbolTableRecord
100
AcDbTextStyleTableRecord
  2

 70
     1
 40
0.0
 41
1.0
 50
0.0
 71
     0
 42
2.5
  3
ltypeshp.shx
  4

  0
ENDTAB
  0
TABLE
  2
VIEW
  5
6
330
0
100
AcDbSymbolTable
 70
     0
  0
ENDTAB
  0
TABLE
  2
UCS
  5
7
330
0
100
AcDbSymbolTable
 70
     0
  0
ENDTAB
  0
TABLE
  2
APPID
  5
9
330
0
100
AcDbSymbolTable
 70
     1
  0
APPID
  5
11
330
9
100
AcDbSymbolTableRecord
100
AcDbRegAppTableRecord
  2
ACAD
 70
     0
  0
ENDTAB
  0
TABLE
  2
DIMSTYLE
  5
A
330
0
100
AcDbSymbolTable
 70
     1
100
AcDbDimStyleTable
  0
DIMSTYLE
105
3F
102
{ACAD_REACTORS
330
653
330
661
330
66E
330
67C
330
689
102
}
330
A
100
AcDbSymbolTableRecord
100
AcDbDimStyleTableRecord
  2
STANDARD
 70
     0
 41
2.5
 42
0.0
 43
3.75
 44
1.25
 73
     0
 74
     0
 77
     1
 78
     8
 79
     2
140
3.5
141
0.0
143
0.039370078
147
0.625
171
     3
178
     0
179
     2
271
     2
272
     2
274
     3
283
     0
284
     8
340
1E
  0
ENDTAB
  0
TABLE
  2
BLOCK_RECORD
  5
1
330
0
100
AcDbSymbolTable
 70
     5
  0
BLOCK_RECORD
  5
18
330
1
100
AcDbSymbolTableRecord
100
AcDbBlockTableRecord
  2
*MODEL_SPACE
340
303
  0
BLOCK_RECORD
  5
338
330
1
100
AcDbSymbolTableRecord
100
AcDbBlockTableRecord
  2
*Paper_Space
340
33B
  0
BLOCK_RECORD
  5
654
330
1
100
AcDbSymbolTableRecord
100
AcDbBlockTableRecord
  2
*D0
340
0
  0
BLOCK_RECORD
  5
662
330
1
100
AcDbSymbolTableRecord
100
AcDbBlockTableRecord
  2
*D1
340
0
  0
BLOCK_RECORD
  5
66F
330
1
100
AcDbSymbolTableRecord
100
AcDbBlockTableRecord
  2
*D2
340
0
  0
BLOCK_RECORD
  5
67D
330
1
100
AcDbSymbolTableRecord
100
AcDbBlockTableRecord
  2
*D3
340
0
  0
BLOCK_RECORD
  5
68A
330
1
100
AcDbSymbolTableRecord
100
AcDbBlockTableRecord
  2
*D4
340
0
  0
ENDTAB
  0
ENDSEC
  0
SECTION
  2
BLOCKS
  0
BLOCK
  5
32
330
18
100
AcDbEntity
  8
0
100
AcDbBlockBegin
  2
*MODEL_SPACE
 70
     0
 10
0.0
 20
0.0
 30
0.0
  3
*MODEL_SPACE
  1

  0
ENDBLK
  5
33
330
18
100
AcDbEntity
  8
0
100
AcDbBlockEnd
  0
BLOCK
  5
339
330
338
100
AcDbEntity
 67
     1
  8
0
100
AcDbBlockBegin
  2
*Paper_Space
 70
     0
 10
0.0
 20
0.0
 30
0.0
  3
*Paper_Space
  1

  0
ENDBLK
  5
33A
330
338
100
AcDbEntity
 67
     1
  8
0
100
AcDbBlockEnd
  0
BLOCK
  5
655
330
654
100
AcDbEntity
  8
0
100
AcDbBlockBegin
  2
*D0
 70
     1
 10
0.0
 20
0.0
 30
0.0
  3
*D0
  1

  0
LINE
  5
657
330
654
100
AcDbEntity
  8
2
 62
     0
370
    -2
100
AcDbLine
 10
67.0
 20
5.0
 30
0.0
 11
83.25000000000001
 21
5.000000000000058
 31
0.0
  0
LINE
  5
658
330
654
100
AcDbEntity
  8
2
 62
     0
370
    -2
100
AcDbLine
 10
67.0
 20
-5.0
 30
0.0
 11
83.25000000000004
 21
-4.999999999999943
 31
0.0
  0
LINE
  5
659
330
654
100
AcDbEntity
  8
2
 62
     0
370
    -2
100
AcDbLine
 10
82.00000000000004
 20
-4.999999999999948
 30
0.0
 11
82.0000000000001
 21
-25.22099999999995
 31
0.0
  0
LINE
  5
65A
330
654
100
AcDbEntity
  8
2
 62
     0
370
    -2
100
AcDbLine
 10
82.00000000000003
 20
2.500000000000053
 30
0.0
 11
82.00000000000003
 21
-2.499999999999948
 31
0.0
  0
SOLID
  5
65B
330
654
100
AcDbEntity
  8
2
 62
     0
100
AcDbTrace
 10
82.4166666666667
 20
2.500000000000055
 30
0.0
 11
81.58333333333336
 21
2.500000000000052
 31
0.0
 12
82.00000000000001
 22
5.000000000000053
 32
0.0
 13
82.00000000000001
 23
5.000000000000053
 33
0.0
  0
SOLID
  5
65C
330
654
100
AcDbEntity
  8
2
 62
     0
100
AcDbTrace
 10
81.58333333333336
 20
-2.499999999999949
 30
0.0
 11
82.4166666666667
 21
-2.499999999999946
 31
0.0
 12
82.00000000000004
 22
-4.999999999999948
 32
0.0
 13
82.00000000000004
 23
-4.999999999999948
 33
0.0
  0
MTEXT
  5
65D
330
654
100
AcDbEntity
  8
2
 62
     0
100
AcDbMText
 10
79.60925000000007
 20
-16.36049999999996
 30
0.0
 40
3.5
 41
0.0
 71
     5
 72
     1
  1
MF10x1
  7
SIMPLEX
 11
-2.842170943040401E-15
 21
1.0
 31
0.0
 73
     1
 44
1.0
  0
POINT
  5
65E
330
654
100
AcDbEntity
  8
DEFPOINTS
 62
     0
100
AcDbPoint
 10
67.0
 20
5.0
 30
0.0
  0
POINT
  5
65F
330
654
100
AcDbEntity
  8
DEFPOINTS
 62
     0
100
AcDbPoint
 10
67.0
 20
-5.0
 30
0.0
  0
POINT
  5
660
330
654
100
AcDbEntity
  8
DEFPOINTS
 62
     0
100
AcDbPoint
 10
82.00000000000004
 20
-4.999999999999948
 30
0.0
  0
ENDBLK
  5
656
330
654
100
AcDbEntity
  8
0
100
AcDbBlockEnd
  0
BLOCK
  5
663
330
662
100
AcDbEntity
  8
0
100
AcDbBlockBegin
  2
*D1
 70
     1
 10
0.0
 20
0.0
 30
0.0
  3
*D1
  1

  0
LINE
  5
665
330
662
100
AcDbEntity
  8
2
 62
     0
370
    -2
100
AcDbLine
 10
0.0
 20
0.0
 30
0.0
 11
0.0
 21
76.25
 31
0.0
  0
LINE
  5
666
330
662
100
AcDbEntity
  8
2
 62
     0
370
    -2
100
AcDbLine
 10
67.0
 20
0.0
 30
0.0
 11
67.0
 21
76.25
 31
0.0
  0
LINE
  5
667
330
662
100
AcDbEntity
  8
2
 62
     0
370
    -2
100
AcDbLine
 10
2.5
 20
75.0
 30
0.0
 11
64.5
 21
75.0
 31
0.0
  0
SOLID
  5
668
330
662
100
AcDbEntity
  8
2
 62
     0
100
AcDbTrace
 10
2.5
 20
75.41666666666667
 30
0.0
 11
2.5
 21
74.58333333333333
 31
0.0
 12
0.0
 22
75.0
 32
0.0
 13
0.0
 23
75.0
 33
0.0
  0
SOLID
  5
669
330
662
100
AcDbEntity
  8
2
 62
     0
100
AcDbTrace
 10
64.5
 20
74.58333333333333
 30
0.0
 11
64.5
 21
75.41666666666667
 31
0.0
 12
67.0
 22
75.0
 32
0.0
 13
67.0
 23
75.0
 33
0.0
  0
MTEXT
  5
66A
330
662
100
AcDbEntity
  8
2
 62
     0
100
AcDbMText
 10
33.5
 20
77.39075
 30
0.0
 40
3.5
 41
0.0
 71
     5
 72
     1
  1
67
  7
SIMPLEX
 73
     1
 44
1.0
  0
POINT
  5
66B
330
662
100
AcDbEntity
  8
DEFPOINTS
 62
     0
100
AcDbPoint
 10
0.0
 20
0.0
 30
0.0
  0
POINT
  5
66C
330
662
100
AcDbEntity
  8
DEFPOINTS
 62
     0
100
AcDbPoint
 10
67.0
 20
0.0
 30
0.0
  0
POINT
  5
66D
330
662
100
AcDbEntity
  8
DEFPOINTS
 62
     0
100
AcDbPoint
 10
67.0
 20
75.0
 30
0.0
  0
ENDBLK
  5
664
330
662
100
AcDbEntity
  8
0
100
AcDbBlockEnd
  0
BLOCK
  5
670
330
66F
100
AcDbEntity
  8
0
100
AcDbBlockBegin
  2
*D2
 70
     1
 10
0.0
 20
0.0
 30
0.0
  3
*D2
  1

  0
LINE
  5
672
330
66F
100
AcDbEntity
  8
SK2
 62
     0
370
    -2
100
AcDbLine
 10
-14.99999999999999
 20
3.5
 30
0.0
 11
-39.25000000001786
 21
3.499999999876242
 31
0.0
  0
LINE
  5
673
330
66F
100
AcDbEntity
  8
SK2
 62
     0
370
    -2
100
AcDbLine
 10
-14.99999999999999
 20
-3.5
 30
0.0
 11
-39.24999999998213
 21
-3.500000000123758
 31
0.0
  0
LINE
  5
674
330
66F
100
AcDbEntity
  8
SK2
 62
     0
370
    -2
100
AcDbLine
 10
-37.99999999998213
 20
-3.500000000117379
 30
0.0
 11
-37.99999999993229
 21
-13.26650000011737
 31
0.0
  0
LINE
  5
675
330
66F
100
AcDbEntity
  8
SK2
 62
     0
370
    -2
100
AcDbLine
 10
-38.00000000000509
 20
0.9999999998826214
 30
0.0
 11
-37.99999999999489
 21
-1.000000000117379
 31
0.0
  0
SOLID
  5
676
330
66F
100
AcDbEntity
  8
SK2
 62
     0
100
AcDbTrace
 10
-37.58333333333843
 20
0.999999999884748
 30
0.0
 11
-38.41666666667176
 21
0.9999999998804949
 31
0.0
 12
-38.00000000001786
 22
3.499999999882621
 32
0.0
 13
-38.00000000001786
 23
3.499999999882621
 33
0.0
  0
SOLID
  5
677
330
66F
100
AcDbEntity
  8
SK2
 62
     0
100
AcDbTrace
 10
-38.41666666666156
 20
-1.000000000119505
 30
0.0
 11
-37.58333333332823
 21
-1.000000000115252
 31
0.0
 12
-37.99999999998213
 22
-3.500000000117379
 32
0.0
 13
-37.99999999998213
 23
-3.500000000117379
 33
0.0
  0
MTEXT
  5
678
330
66F
100
AcDbEntity
  8
SK2
 62
     0
100
AcDbMText
 10
-40.39074999995083
 20
-9.633250000129577
 30
0.0
 40
3.5
 41
0.0
 71
     5
 72
     1
  1
%%c7
  7
SIMPLEX
 11
-5.103726964859691E-12
 21
1.0
 31
0.0
 73
     1
 44
1.0
  0
POINT
  5
679
330
66F
100
AcDbEntity
  8
DEFPOINTS
 62
     0
100
AcDbPoint
 10
-14.99999999999999
 20
3.5
 30
0.0
  0
POINT
  5
67A
330
66F
100
AcDbEntity
  8
DEFPOINTS
 62
     0
100
AcDbPoint
 10
-14.99999999999999
 20
-3.5
 30
0.0
  0
POINT
  5
67B
330
66F
100
AcDbEntity
  8
DEFPOINTS
 62
     0
100
AcDbPoint
 10
-37.99999999998213
 20
-3.500000000117379
 30
0.0
  0
ENDBLK
  5
671
330
66F
100
AcDbEntity
  8
0
100
AcDbBlockEnd
  0
BLOCK
  5
67E
330
67D
100
AcDbEntity
  8
0
100
AcDbBlockBegin
  2
*D3
 70
     1
 10
0.0
 20
0.0
 30
0.0
  3
*D3
  1

  0
LINE
  5
680
330
67D
100
AcDbEntity
  8
2
 62
     0
370
    -2
100
AcDbLine
 10
51.14211617
 20
3.35
 30
0.0
 11
51.14211617
 21
61.25
 31
0.0
  0
LINE
  5
681
330
67D
100
AcDbEntity
  8
2
 62
     0
370
    -2
100
AcDbLine
 10
67.0
 20
5.0
 30
0.0
 11
67.0
 21
61.25
 31
0.0
  0
LINE
  5
682
330
67D
100
AcDbEntity
  8
2
 62
     0
370
    -2
100
AcDbLine
 10
53.64211617
 20
60.0
 30
0.0
 11
64.5
 21
60.0
 31
0.0
  0
SOLID
  5
683
330
67D
100
AcDbEntity
  8
2
 62
     0
100
AcDbTrace
 10
53.64211617
 20
60.41666666666666
 30
0.0
 11
53.64211617
 21
59.58333333333334
 31
0.0
 12
51.14211617
 22
60.0
 32
0.0
 13
51.14211617
 23
60.0
 33
0.0
  0
SOLID
  5
684
330
67D
100
AcDbEntity
  8
2
 62
     0
100
AcDbTrace
 10
64.5
 20
59.58333333333334
 30
0.0
 11
64.5
 21
60.41666666666666
 31
0.0
 12
67.0
 22
60.0
 32
0.0
 13
67.0
 23
60.0
 33
0.0
  0
MTEXT
  5
685
330
67D
100
AcDbEntity
  8
2
 62
     0
100
AcDbMText
 10
59.071058085
 20
62.39775
 30
0.0
 40
3.5
 41
0.0
 71
     5
 72
     1
  1
15.86
  7
SIMPLEX
 73
     1
 44
1.0
  0
POINT
  5
686
330
67D
100
AcDbEntity
  8
DEFPOINTS
 62
     0
100
AcDbPoint
 10
51.14211617
 20
3.35
 30
0.0
  0
POINT
  5
687
330
67D
100
AcDbEntity
  8
DEFPOINTS
 62
     0
100
AcDbPoint
 10
67.0
 20
5.0
 30
0.0
  0
POINT
  5
688
330
67D
100
AcDbEntity
  8
DEFPOINTS
 62
     0
100
AcDbPoint
 10
67.0
 20
60.0
 30
0.0
  0
ENDBLK
  5
67F
330
67D
100
AcDbEntity
  8
0
100
AcDbBlockEnd
  0
BLOCK
  5
68B
330
68A
100
AcDbEntity
  8
0
100
AcDbBlockBegin
  2
*D4
 70
     1
 10
0.0
 20
0.0
 30
0.0
  3
*D4
  1

  0
LINE
  5
68D
330
68A
100
AcDbEntity
  8
SK2
 62
     0
370
    -2
100
AcDbLine
 10
-23.0
 20
5.0
 30
0.0
 11
-23.0
 21
91.25
 31
0.0
  0
LINE
  5
68E
330
68A
100
AcDbEntity
  8
SK2
 62
     0
370
    -2
100
AcDbLine
 10
67.0
 20
5.0
 30
0.0
 11
67.0
 21
91.25
 31
0.0
  0
LINE
  5
68F
330
68A
100
AcDbEntity
  8
SK2
 62
     0
370
    -2
100
AcDbLine
 10
-20.5
 20
90.0
 30
0.0
 11
64.5
 21
90.0
 31
0.0
  0
SOLID
  5
690
330
68A
100
AcDbEntity
  8
SK2
 62
     0
100
AcDbTrace
 10
-20.5
 20
90.41666666666667
 30
0.0
 11
-20.5
 21
89.58333333333333
 31
0.0
 12
-23.0
 22
90.0
 32
0.0
 13
-23.0
 23
90.0
 33
0.0
  0
SOLID
  5
691
330
68A
100
AcDbEntity
  8
SK2
 62
     0
100
AcDbTrace
 10
64.5
 20
89.58333333333333
 30
0.0
 11
64.5
 21
90.41666666666667
 31
0.0
 12
67.0
 22
90.0
 32
0.0
 13
67.0
 23
90.0
 33
0.0
  0
MTEXT
  5
692
330
68A
100
AcDbEntity
  8
SK2
 62
     0
100
AcDbMText
 10
22.0
 20
92.39075
 30
0.0
 40
3.5
 41
0.0
 71
     5
 72
     1
  1
90
  7
SIMPLEX
 73
     1
 44
1.0
  0
POINT
  5
693
330
68A
100
AcDbEntity
  8
DEFPOINTS
 62
     0
100
AcDbPoint
 10
-23.0
 20
5.0
 30
0.0
  0
POINT
  5
694
330
68A
100
AcDbEntity
  8
DEFPOINTS
 62
     0
100
AcDbPoint
 10
67.0
 20
5.0
 30
0.0
  0
POINT
  5
695
330
68A
100
AcDbEntity
  8
DEFPOINTS
 62
     0
100
AcDbPoint
 10
67.0
 20
90.0
 30
0.0
  0
ENDBLK
  5
68C
330
68A
100
AcDbEntity
  8
0
100
AcDbBlockEnd
  0
ENDSEC
  0
SECTION
  2
ENTITIES
  0
LINE
  5
3D6
330
18
100
AcDbEntity
  8
SK4
100
AcDbLine
 10
-24.99999999999999
 20
0.0
 30
0.0
 11
51.14211617
 21
0.0
 31
0.0
  0
LINE
  5
3D7
330
18
100
AcDbEntity
  8
4
100
AcDbLine
 10
49.14211617
 20
0.0
 30
0.0
 11
69.0
 21
0.0
 31
0.0
  0
LINE
  5
3D8
330
18
100
AcDbEntity
  8
SK4
100
AcDbLine
 10
49.14211617
 20
0.0
 30
0.0
 11
69.0
 21
0.0
 31
0.0
  0
LINE
  5
3D9
330
18
100
AcDbEntity
  8
1
100
AcDbLine
 10
27.0
 20
-1.613387496720642
 30
0.0
 11
27.62054804241977
 21
-2.020950074702378
 31
0.0
  0
LINE
  5
3DA
330
18
100
AcDbEntity
  8
1
100
AcDbLine
 10
27.62054804241977
 20
-2.020950074702378
 30
0.0
 11
28.24110877663889
 21
-2.390938430826357
 31
0.0
  0
LINE
  5
3DB
330
18
100
AcDbEntity
  8
1
100
AcDbLine
 10
28.24110877663889
 20
-2.390938430826357
 30
0.0
 11
28.86164468513514
 21
-2.716453444581931
 31
0.0
  0
LINE
  5
3DC
330
18
100
AcDbEntity
  8
1
100
AcDbLine
 10
28.86164468513514
 20
-2.716453444581931
 30
0.0
 11
29.17188712992703
 21
-2.860599000314304
 31
0.0
  0
LINE
  5
3DD
330
18
100
AcDbEntity
  8
1
100
AcDbLine
 10
29.17188712992703
 20
-2.860599000314304
 30
0.0
 11
29.48212855432392
 21
-2.991432586572404
 31
0.0
  0
LINE
  5
3DE
330
18
100
AcDbEntity
  8
1
100
AcDbLine
 10
29.48212855432392
 20
-2.991432586572404
 30
0.0
 11
29.79236964462871
 21
-3.108345707998577
 31
0.0
  0
LINE
  5
3DF
330
18
100
AcDbEntity
  8
1
100
AcDbLine
 10
29.79236964462871
 20
-3.108345707998577
 30
0.0
 11
30.10261104245678
 21
-3.210794552698933
 31
0.0
  0
LINE
  5
3E0
330
18
100
AcDbEntity
  8
1
100
AcDbLine
 10
30.10261104245678
 20
-3.210794552698933
 30
0.0
 11
30.41285324964268
 21
-3.298302524685247
 31
0.0
  0
LINE
  5
3E1
330
18
100
AcDbEntity
  8
1
100
AcDbLine
 10
30.41285324964268
 20
-3.298302524685247
 30
0.0
 11
30.72309695446656
 21
-3.370462278444484
 31
0.0
  0
LINE
  5
3E2
330
18
100
AcDbEntity
  8
1
100
AcDbLine
 10
30.72309695446656
 20
-3.370462278444484
 30
0.0
 11
31.03334272775824
 21
-3.426937767242414
 31
0.0
  0
LINE
  5
3E3
330
18
100
AcDbEntity
  8
1
100
AcDbLine
 10
31.03334272775824
 20
-3.426937767242414
 30
0.0
 11
31.34358778229409
 21
-3.467465575414131
 31
0.0
  0
LINE
  5
3E4
330
18
100
AcDbEntity
  8
1
100
AcDbLine
 10
31.34358778229409
 20
-3.467465575414131
 30
0.0
 11
31.65383095326023
 21
-3.491857193296788
 31
0.0
  0
LINE
  5
3E5
330
18
100
AcDbEntity
  8
1
100
AcDbLine
 10
31.65383095326023
 20
-3.491857193296788
 30
0.0
 11
31.96405331147881
 21
-3.499999999995149
 31
0.0
  0
LINE
  5
3E6
330
18
100
AcDbEntity
  8
1
100
AcDbLine
 10
27.0
 20
1.029129143774375
 30
0.0
 11
27.0259779474354
 21
1.010001044307657
 31
0.0
  0
LINE
  5
3E7
330
18
100
AcDbEntity
  8
1
100
AcDbLine
 10
27.0
 20
3.5
 30
0.0
 11
-0.0000000000000071
 21
3.5
 31
0.0
  0
LINE
  5
3E8
330
18
100
AcDbEntity
  8
1
100
AcDbLine
 10
30.73787847095158
 20
3.5
 30
0.0
 11
27.20240045526182
 21
3.5
 31
0.0
  0
LINE
  5
3E9
330
18
100
AcDbEntity
  8
1
100
AcDbLine
 10
49.78447682273608
 20
3.5
 30
0.0
 11
46.24900210145055
 21
3.5
 31
0.0
  0
LINE
  5
3EA
330
18
100
AcDbEntity
  8
1
100
AcDbLine
 10
27.0
 20
3.5
 30
0.0
 11
27.0
 21
3.499449350281822
 31
0.0
  0
LINE
  5
3EB
330
18
100
AcDbEntity
  8
1
100
AcDbLine
 10
27.0
 20
3.499449350281822
 30
0.0
 11
27.0
 21
3.32484503644269
 31
0.0
  0
LINE
  5
3EC
330
18
100
AcDbEntity
  8
1
100
AcDbLine
 10
27.0
 20
3.32484503644269
 30
0.0
 11
27.0
 21
1.029129143774353
 31
0.0
  0
ARC
  5
3ED
330
18
100
AcDbEntity
  8
1
100
AcDbCircle
 10
49.77681446206092
 20
-2.580309945817729
 30
0.0
 40
6.080371771201918
100
AcDbArc
 50
77.02476805256437
 51
89.92779632957772
  0
LINE
  5
3EE
330
18
100
AcDbEntity
  8
1
100
AcDbLine
 10
27.00000000000001
 20
3.496533072384922
 30
0.0
 11
27.20240045526181
 21
3.5
 31
0.0
  0
LINE
  5
3EF
330
18
100
AcDbEntity
  8
1
100
AcDbLine
 10
27.20240045526181
 20
3.5
 30
0.0
 11
27.44490691478838
 21
3.495023192136575
 31
0.0
  0
LINE
  5
3F0
330
18
100
AcDbEntity
  8
1
100
AcDbLine
 10
27.44490691478838
 20
3.495023192136575
 30
0.0
 11
27.68740554179026
 21
3.480108582453851
 31
0.0
  0
LINE
  5
3F1
330
18
100
AcDbEntity
  8
1
100
AcDbLine
 10
27.68740554179026
 20
3.480108582453851
 30
0.0
 11
27.92990829718576
 21
3.455298117590964
 31
0.0
  0
LINE
  5
3F2
330
18
100
AcDbEntity
  8
1
100
AcDbLine
 10
27.92990829718576
 20
3.455298117590964
 30
0.0
 11
28.17241596801202
 21
3.420660598903364
 31
0.0
  0
LINE
  5
3F3
330
18
100
AcDbEntity
  8
1
100
AcDbLine
 10
28.17241596801202
 20
3.420660598903364
 30
0.0
 11
28.41491470740993
 21
3.3762974186079
 31
0.0
  0
LINE
  5
3F4
330
18
100
AcDbEntity
  8
1
100
AcDbLine
 10
28.41491470740993
 20
3.3762974186079
 30
0.0
 11
28.65741568604851
 21
3.3223337585857
 31
0.0
  0
LINE
  5
3F5
330
18
100
AcDbEntity
  8
1
100
AcDbLine
 10
28.65741568604851
 20
3.3223337585857
 30
0.0
 11
28.8999242297148
 21
3.258920081223788
 31
0.0
  0
LINE
  5
3F6
330
18
100
AcDbEntity
  8
1
100
AcDbLine
 10
28.8999242297148
 20
3.258920081223788
 30
0.0
 11
29.38492350901893
 21
3.104503141310577
 31
0.0
  0
LINE
  5
3F7
330
18
100
AcDbEntity
  8
1
100
AcDbLine
 10
29.38492350901893
 20
3.104503141310577
 30
0.0
 11
29.86993338467116
 21
2.914795303211003
 31
0.0
  0
LINE
  5
3F8
330
18
100
AcDbEntity
  8
1
100
AcDbLine
 10
29.86993338467116
 20
2.914795303211003
 30
0.0
 11
30.35493874528094
 21
2.6919588872952
 31
0.0
  0
LINE
  5
3F9
330
18
100
AcDbEntity
  8
1
100
AcDbLine
 10
30.35493874528094
 20
2.6919588872952
 30
0.0
 11
30.83994058371493
 21
2.438525791934653
 31
0.0
  0
LINE
  5
3FA
330
18
100
AcDbEntity
  8
1
100
AcDbLine
 10
30.83994058371493
 20
2.438525791934653
 30
0.0
 11
31.32495119923779
 21
2.157370884654893
 31
0.0
  0
LINE
  5
3FB
330
18
100
AcDbEntity
  8
1
100
AcDbLine
 10
31.32495119923779
 20
2.157370884654893
 30
0.0
 11
32.2949586428686
 21
1.524978545271417
 31
0.0
  0
LINE
  5
3FC
330
18
100
AcDbEntity
  8
1
100
AcDbLine
 10
32.2949586428686
 20
1.524978545271417
 30
0.0
 11
33.26496635771953
 21
0.8234494595204381
 31
0.0
  0
LINE
  5
3FD
330
18
100
AcDbEntity
  8
1
100
AcDbLine
 10
33.26496635771953
 20
0.8234494595204381
 30
0.0
 11
34.96247922466505
 21
-0.4739267220009684
 31
0.0
  0
LINE
  5
3FE
330
18
100
AcDbEntity
  8
1
100
AcDbLine
 10
30.73787847095158
 20
3.5
 30
0.0
 11
31.10109001935609
 21
3.488839857934711
 31
0.0
  0
LINE
  5
3FF
330
18
100
AcDbEntity
  8
1
100
AcDbLine
 10
31.10109001935609
 20
3.488839857934711
 30
0.0
 11
31.46430184385031
 21
3.455430613524857
 31
0.0
  0
LINE
  5
400
330
18
100
AcDbEntity
  8
1
100
AcDbLine
 10
31.46430184385031
 20
3.455430613524857
 30
0.0
 11
31.82751388524974
 21
3.399985325080084
 31
0.0
  0
LINE
  5
401
330
18
100
AcDbEntity
  8
1
100
AcDbLine
 10
31.82751388524974
 20
3.399985325080084
 30
0.0
 11
32.19072591910556
 21
3.322857494204266
 31
0.0
  0
LINE
  5
402
330
18
100
AcDbEntity
  8
1
100
AcDbLine
 10
32.19072591910556
 20
3.322857494204266
 30
0.0
 11
32.55393801019792
 21
3.224538960976003
 31
0.0
  0
LINE
  5
403
330
18
100
AcDbEntity
  8
1
100
AcDbLine
 10
32.55393801019792
 20
3.224538960976003
 30
0.0
 11
32.91715034685863
 21
3.105656805826262
 31
0.0
  0
LINE
  5
404
330
18
100
AcDbEntity
  8
1
100
AcDbLine
 10
32.91715034685863
 20
3.105656805826262
 30
0.0
 11
33.28036286661856
 21
2.966969153240987
 31
0.0
  0
LINE
  5
405
330
18
100
AcDbEntity
  8
1
100
AcDbLine
 10
33.28036286661856
 20
2.966969153240987
 30
0.0
 11
33.64357534583231
 21
2.809360297520676
 31
0.0
  0
LINE
  5
406
330
18
100
AcDbEntity
  8
1
100
AcDbLine
 10
33.64357534583231
 20
2.809360297520676
 30
0.0
 11
34.00678787633483
 21
2.633835394507515
 31
0.0
  0
LINE
  5
407
330
18
100
AcDbEntity
  8
1
100
AcDbLine
 10
34.00678787633483
 20
2.633835394507515
 30
0.0
 11
34.73321338989632
 21
2.233622309897727
 31
0.0
  0
LINE
  5
408
330
18
100
AcDbEntity
  8
1
100
AcDbLine
 10
34.73321338989632
 20
2.233622309897727
 30
0.0
 11
35.45963894031954
 21
1.776522352477672
 31
0.0
  0
LINE
  5
409
330
18
100
AcDbEntity
  8
1
100
AcDbLine
 10
35.45963894031954
 20
1.776522352477672
 30
0.0
 11
36.54927747961807
 21
1.009999783369641
 31
0.0
  0
LINE
  5
40A
330
18
100
AcDbEntity
  8
1
100
AcDbLine
 10
36.72570290827117
 20
3.499999999999998
 30
0.0
 11
36.96820824990023
 21
3.495023114844678
 31
0.0
  0
LINE
  5
40B
330
18
100
AcDbEntity
  8
1
100
AcDbLine
 10
36.96820824990023
 20
3.495023114844678
 30
0.0
 11
37.21070649091092
 21
3.480108405990987
 31
0.0
  0
LINE
  5
40C
330
18
100
AcDbEntity
  8
1
100
AcDbLine
 10
37.21070649091092
 20
3.480108405990987
 30
0.0
 11
37.453209336038
 21
3.455297889734269
 31
0.0
  0
LINE
  5
40D
330
18
100
AcDbEntity
  8
1
100
AcDbLine
 10
37.453209336038
 20
3.455297889734269
 30
0.0
 11
37.69571694119967
 21
3.420660306584942
 31
0.0
  0
LINE
  5
40E
330
18
100
AcDbEntity
  8
1
100
AcDbLine
 10
37.69571694119967
 20
3.420660306584942
 30
0.0
 11
37.93821561723871
 21
3.37629706957688
 31
0.0
  0
LINE
  5
40F
330
18
100
AcDbEntity
  8
1
100
AcDbLine
 10
37.93821561723871
 20
3.37629706957688
 30
0.0
 11
38.18071654654054
 21
3.322333364445885
 31
0.0
  0
LINE
  5
410
330
18
100
AcDbEntity
  8
1
100
AcDbLine
 10
38.18071654654054
 20
3.322333364445885
 30
0.0
 11
38.4232250077857
 21
3.258919634855629
 31
0.0
  0
LINE
  5
411
330
18
100
AcDbEntity
  8
1
100
AcDbLine
 10
38.4232250077857
 20
3.258919634855629
 30
0.0
 11
38.90822415750664
 21
3.104502624410565
 31
0.0
  0
LINE
  5
412
330
18
100
AcDbEntity
  8
1
100
AcDbLine
 10
38.90822415750664
 20
3.104502624410565
 30
0.0
 11
39.39323390027963
 21
2.914794738729548
 31
0.0
  0
LINE
  5
413
330
18
100
AcDbEntity
  8
1
100
AcDbLine
 10
39.39323390027963
 20
2.914794738729548
 30
0.0
 11
39.8782391277463
 21
2.691958299305675
 31
0.0
  0
LINE
  5
414
330
18
100
AcDbEntity
  8
1
100
AcDbLine
 10
39.8782391277463
 20
2.691958299305675
 30
0.0
 11
40.36324083726014
 21
2.43852520746317
 31
0.0
  0
LINE
  5
415
330
18
100
AcDbEntity
  8
1
100
AcDbLine
 10
40.36324083726014
 20
2.43852520746317
 30
0.0
 11
40.84825131807912
 21
2.157370319803198
 31
0.0
  0
LINE
  5
416
330
18
100
AcDbEntity
  8
1
100
AcDbLine
 10
40.84825131807912
 20
2.157370319803198
 30
0.0
 11
41.81825850090452
 21
1.524978085436347
 31
0.0
  0
LINE
  5
417
330
18
100
AcDbEntity
  8
1
100
AcDbLine
 10
41.81825850090452
 20
1.524978085436347
 30
0.0
 11
42.78826594948801
 21
0.8234491565448472
 31
0.0
  0
LINE
  5
418
330
18
100
AcDbEntity
  8
1
100
AcDbLine
 10
42.78826594948801
 20
0.8234491565448472
 30
0.0
 11
44.48577836030654
 21
-0.4739266727706689
 31
0.0
  0
LINE
  5
419
330
18
100
AcDbEntity
  8
1
100
AcDbLine
 10
40.26117764709761
 20
3.5
 30
0.0
 11
36.72570290827117
 21
3.5
 31
0.0
  0
LINE
  5
41A
330
18
100
AcDbEntity
  8
1
100
AcDbLine
 10
27.0
 20
-1.613387496720666
 30
0.0
 11
27.0
 21
-3.5
 31
0.0
  0
LINE
  5
41B
330
18
100
AcDbEntity
  8
1
100
AcDbLine
 10
27.0
 20
-3.411661378014953
 30
0.0
 11
27.24627141929863
 21
-3.36435914078444
 31
0.0
  0
LINE
  5
41C
330
18
100
AcDbEntity
  8
1
100
AcDbLine
 10
27.24627141929863
 20
-3.36435914078444
 30
0.0
 11
27.49253319797478
 21
-3.307191576727363
 31
0.0
  0
LINE
  5
41D
330
18
100
AcDbEntity
  8
1
100
AcDbLine
 10
27.49253319797478
 20
-3.307191576727363
 30
0.0
 11
27.73879923080572
 21
-3.240325412269243
 31
0.0
  0
LINE
  5
41E
330
18
100
AcDbEntity
  8
1
100
AcDbLine
 10
27.73879923080572
 20
-3.240325412269243
 30
0.0
 11
28.2313370753318
 21
-3.07830794669092
 31
0.0
  0
LINE
  5
41F
330
18
100
AcDbEntity
  8
1
100
AcDbLine
 10
28.2313370753318
 20
-3.07830794669092
 30
0.0
 11
28.60073873984336
 21
-2.93299543162159
 31
0.0
  0
LINE
  5
420
330
18
100
AcDbEntity
  8
1
100
AcDbLine
 10
28.60073873984336
 20
-2.93299543162159
 30
0.0
 11
28.97014062864626
 21
-2.76833618842029
 31
0.0
  0
LINE
  5
421
330
18
100
AcDbEntity
  8
1
100
AcDbLine
 10
40.2611776470976
 20
3.499999999999999
 30
0.0
 11
40.62438920034108
 21
3.488839858373626
 31
0.0
  0
LINE
  5
422
330
18
100
AcDbEntity
  8
1
100
AcDbLine
 10
40.62438920034108
 20
3.488839858373626
 30
0.0
 11
40.98760103257476
 21
3.455430615844929
 31
0.0
  0
LINE
  5
423
330
18
100
AcDbEntity
  8
1
100
AcDbLine
 10
40.98760103257476
 20
3.455430615844929
 30
0.0
 11
41.35081307351882
 21
3.399985328181786
 31
0.0
  0
LINE
  5
424
330
18
100
AcDbEntity
  8
1
100
AcDbLine
 10
41.35081307351882
 20
3.399985328181786
 30
0.0
 11
41.71402509693589
 21
3.322857493874216
 31
0.0
  0
LINE
  5
425
330
18
100
AcDbEntity
  8
1
100
AcDbLine
 10
41.71402509693589
 20
3.322857493874216
 30
0.0
 11
42.07723719281368
 21
3.224538962661714
 31
0.0
  0
LINE
  5
426
330
18
100
AcDbEntity
  8
1
100
AcDbLine
 10
42.07723719281368
 20
3.224538962661714
 30
0.0
 11
42.44044953584238
 21
3.105656811053719
 31
0.0
  0
LINE
  5
427
330
18
100
AcDbEntity
  8
1
100
AcDbLine
 10
42.44044953584238
 20
3.105656811053719
 30
0.0
 11
42.80366205739372
 21
2.966969160056151
 31
0.0
  0
LINE
  5
428
330
18
100
AcDbEntity
  8
1
100
AcDbLine
 10
42.80366205739372
 20
2.966969160056151
 30
0.0
 11
43.16687452640832
 21
2.80936029705052
 31
0.0
  0
LINE
  5
429
330
18
100
AcDbEntity
  8
1
100
AcDbLine
 10
43.16687452640832
 20
2.80936029705052
 30
0.0
 11
43.53008706167257
 21
2.63383539743343
 31
0.0
  0
LINE
  5
42A
330
18
100
AcDbEntity
  8
1
100
AcDbLine
 10
43.53008706167257
 20
2.63383539743343
 30
0.0
 11
44.25651257974422
 21
2.233622316337601
 31
0.0
  0
LINE
  5
42B
330
18
100
AcDbEntity
  8
1
100
AcDbLine
 10
44.25651257974422
 20
2.233622316337601
 30
0.0
 11
44.98293812823565
 21
1.7765223561846
 31
0.0
  0
LINE
  5
42C
330
18
100
AcDbEntity
  8
1
100
AcDbLine
 10
44.98293812823565
 20
1.7765223561846
 30
0.0
 11
46.07257666940521
 21
1.009999787427793
 31
0.0
  0
LINE
  5
42D
330
18
100
AcDbEntity
  8
1
100
AcDbLine
 10
51.14211617
 20
-2.095270409673386
 30
0.0
 11
51.14211617000001
 21
1.661645640875077
 31
0.0
  0
LINE
  5
42E
330
18
100
AcDbEntity
  8
1
100
AcDbLine
 10
46.24900210145056
 20
3.499999999999999
 30
0.0
 11
46.5548248528202
 21
3.492086594947783
 31
0.0
  0
LINE
  5
42F
330
18
100
AcDbEntity
  8
1
100
AcDbLine
 10
46.5548248528202
 20
3.492086594947783
 30
0.0
 11
46.86064513810995
 21
3.468382578344077
 31
0.0
  0
LINE
  5
430
330
18
100
AcDbEntity
  8
1
100
AcDbLine
 10
46.86064513810995
 20
3.468382578344077
 30
0.0
 11
47.16646380677383
 21
3.428995544597516
 31
0.0
  0
LINE
  5
431
330
18
100
AcDbEntity
  8
1
100
AcDbLine
 10
47.16646380677383
 20
3.428995544597516
 30
0.0
 11
47.47228171988088
 21
3.374103716831415
 31
0.0
  0
LINE
  5
432
330
18
100
AcDbEntity
  8
1
100
AcDbLine
 10
47.47228171988088
 20
3.374103716831415
 30
0.0
 11
47.77809984024924
 21
3.303955216359767
 31
0.0
  0
LINE
  5
433
330
18
100
AcDbEntity
  8
1
100
AcDbLine
 10
47.77809984024924
 20
3.303955216359767
 30
0.0
 11
48.0839189884216
 21
3.218866873293997
 31
0.0
  0
LINE
  5
434
330
18
100
AcDbEntity
  8
1
100
AcDbLine
 10
48.0839189884216
 20
3.218866873293997
 30
0.0
 11
48.38974002122038
 21
3.119222855092367
 31
0.0
  0
LINE
  5
435
330
18
100
AcDbEntity
  8
1
100
AcDbLine
 10
48.38974002122038
 20
3.119222855092367
 30
0.0
 11
48.69556345318116
 21
3.005473270405145
 31
0.0
  0
LINE
  5
436
330
18
100
AcDbEntity
  8
1
100
AcDbLine
 10
48.69556345318116
 20
3.005473270405145
 30
0.0
 11
49.00138504524478
 21
2.878133811486575
 31
0.0
  0
LINE
  5
437
330
18
100
AcDbEntity
  8
1
100
AcDbLine
 10
49.00138504524478
 20
2.878133811486575
 30
0.0
 11
49.61302273434879
 21
2.585049124279816
 31
0.0
  0
LINE
  5
438
330
18
100
AcDbEntity
  8
1
100
AcDbLine
 10
49.61302273434879
 20
2.585049124279816
 30
0.0
 11
50.22465881117336
 21
2.245262779360856
 31
0.0
  0
LINE
  5
439
330
18
100
AcDbEntity
  8
1
100
AcDbLine
 10
50.22465881117336
 20
2.245262779360856
 30
0.0
 11
51.14211616999999
 21
1.661645640875075
 31
0.0
  0
LINE
  5
43A
330
18
100
AcDbEntity
  8
1
100
AcDbLine
 10
51.14211617
 20
-2.564198473273087
 30
0.0
 11
51.14211617
 21
-2.095270409673386
 31
0.0
  0
LINE
  5
43B
330
18
100
AcDbEntity
  8
1
100
AcDbLine
 10
51.14211616999999
 20
-2.564198473273084
 30
0.0
 11
51.14211617
 21
-3.5
 31
0.0
  0
LINE
  5
43C
330
18
100
AcDbEntity
  8
1
100
AcDbLine
 10
51.14211617
 20
3.345146653020368
 30
0.0
 11
51.14211617
 21
1.661645640875076
 31
0.0
  0
LINE
  5
43D
330
18
100
AcDbEntity
  8
1
100
AcDbLine
 10
-0.0000000000000009
 20
-3.5
 30
0.0
 11
27.0
 21
-3.5
 31
0.0
  0
LINE
  5
43E
330
18
100
AcDbEntity
  8
1
100
AcDbLine
 10
35.49952805926043
 20
-3.499999999991827
 30
0.0
 11
35.8737654566181
 21
-3.48815237493956
 31
0.0
  0
LINE
  5
43F
330
18
100
AcDbEntity
  8
1
100
AcDbLine
 10
35.8737654566181
 20
-3.48815237493956
 30
0.0
 11
36.24800356179767
 21
-3.452689776096425
 31
0.0
  0
LINE
  5
440
330
18
100
AcDbEntity
  8
1
100
AcDbLine
 10
36.24800356179767
 20
-3.452689776096425
 30
0.0
 11
36.62224174714554
 21
-3.39385219315886
 31
0.0
  0
LINE
  5
441
330
18
100
AcDbEntity
  8
1
100
AcDbLine
 10
36.62224174714554
 20
-3.39385219315886
 30
0.0
 11
36.99648051987796
 21
-3.312037779960042
 31
0.0
  0
LINE
  5
442
330
18
100
AcDbEntity
  8
1
100
AcDbLine
 10
36.99648051987796
 20
-3.312037779960042
 30
0.0
 11
37.37071971173901
 21
-3.207800303292166
 31
0.0
  0
LINE
  5
443
330
18
100
AcDbEntity
  8
1
100
AcDbLine
 10
37.37071971173901
 20
-3.207800303292166
 30
0.0
 11
37.74495946612409
 21
-3.081845519431543
 31
0.0
  0
LINE
  5
444
330
18
100
AcDbEntity
  8
1
100
AcDbLine
 10
37.74495946612409
 20
-3.081845519431543
 30
0.0
 11
38.11919966771601
 21
-2.935026141082157
 31
0.0
  0
LINE
  5
445
330
18
100
AcDbEntity
  8
1
100
AcDbLine
 10
38.11919966771601
 20
-2.935026141082157
 30
0.0
 11
38.49344012286669
 21
-2.768336102996255
 31
0.0
  0
LINE
  5
446
330
18
100
AcDbEntity
  8
1
100
AcDbLine
 10
31.96405331147882
 20
-3.5
 30
0.0
 11
35.49952805926043
 21
-3.5
 31
0.0
  0
LINE
  5
447
330
18
100
AcDbEntity
  8
1
100
AcDbLine
 10
27.0259779474354
 20
1.010001044307657
 30
0.0
 11
29.14375974197912
 21
-0.6025359404687741
 31
0.0
  0
LINE
  5
448
330
18
100
AcDbEntity
  8
1
100
AcDbLine
 10
29.14375974197912
 20
-0.6025359404687741
 30
0.0
 11
30.20260257806887
 21
-1.381893322250727
 31
0.0
  0
LINE
  5
449
330
18
100
AcDbEntity
  8
1
100
AcDbLine
 10
30.20260257806887
 20
-1.381893322250727
 30
0.0
 11
31.26144531598988
 21
-2.086654313732895
 31
0.0
  0
LINE
  5
44A
330
18
100
AcDbEntity
  8
1
100
AcDbLine
 10
31.26144531598988
 20
-2.086654313732895
 30
0.0
 11
31.79087135486094
 21
-2.398959656302651
 31
0.0
  0
LINE
  5
44B
330
18
100
AcDbEntity
  8
1
100
AcDbLine
 10
31.79087135486094
 20
-2.398959656302651
 30
0.0
 11
32.32028778036319
 21
-2.678775412264175
 31
0.0
  0
LINE
  5
44C
330
18
100
AcDbEntity
  8
1
100
AcDbLine
 10
32.32028778036319
 20
-2.678775412264175
 30
0.0
 11
32.84971398691802
 21
-2.922322016961459
 31
0.0
  0
LINE
  5
44D
330
18
100
AcDbEntity
  8
1
100
AcDbLine
 10
32.84971398691802
 20
-2.922322016961459
 30
0.0
 11
33.37912999345365
 21
-3.126293275573527
 31
0.0
  0
LINE
  5
44E
330
18
100
AcDbEntity
  8
1
100
AcDbLine
 10
33.37912999345365
 20
-3.126293275573527
 30
0.0
 11
33.64384576179651
 21
-3.212557017404936
 31
0.0
  0
LINE
  5
44F
330
18
100
AcDbEntity
  8
1
100
AcDbLine
 10
33.64384576179651
 20
-3.212557017404936
 30
0.0
 11
33.90855649089848
 21
-3.287934115194603
 31
0.0
  0
LINE
  5
450
330
18
100
AcDbEntity
  8
1
100
AcDbLine
 10
33.90855649089848
 20
-3.287934115194603
 30
0.0
 11
34.17326347442124
 21
-3.352170499469887
 31
0.0
  0
LINE
  5
451
330
18
100
AcDbEntity
  8
1
100
AcDbLine
 10
34.17326347442124
 20
-3.352170499469887
 30
0.0
 11
34.437972124048
 21
-3.405050349998531
 31
0.0
  0
LINE
  5
452
330
18
100
AcDbEntity
  8
1
100
AcDbLine
 10
34.437972124048
 20
-3.405050349998531
 30
0.0
 11
34.70268758844993
 21
-3.446394196226291
 31
0.0
  0
LINE
  5
453
330
18
100
AcDbEntity
  8
1
100
AcDbLine
 10
34.70268758844993
 20
-3.446394196226291
 30
0.0
 11
34.96739889947611
 21
-3.476059887118018
 31
0.0
  0
LINE
  5
454
330
18
100
AcDbEntity
  8
1
100
AcDbLine
 10
34.96739889947611
 20
-3.476059887118018
 30
0.0
 11
35.23210592323975
 21
-3.493948132497673
 31
0.0
  0
LINE
  5
455
330
18
100
AcDbEntity
  8
1
100
AcDbLine
 10
35.23210592323975
 20
-3.493948132497673
 30
0.0
 11
35.49681120529812
 21
-3.499999375244021
 31
0.0
  0
LINE
  5
456
330
18
100
AcDbEntity
  8
1
100
AcDbLine
 10
35.49681120529813
 20
-3.499999375244022
 30
0.0
 11
35.49952805926043
 21
-3.499999999991827
 31
0.0
  0
LINE
  5
457
330
18
100
AcDbEntity
  8
1
100
AcDbLine
 10
34.96247922466505
 20
-0.4739267220009684
 30
0.0
 11
36.59369575403531
 21
-1.661277949346745
 31
0.0
  0
LINE
  5
458
330
18
100
AcDbEntity
  8
1
100
AcDbLine
 10
36.59369575403531
 20
-1.661277949346745
 30
0.0
 11
37.40931111834095
 21
-2.18424312311418
 31
0.0
  0
LINE
  5
459
330
18
100
AcDbEntity
  8
1
100
AcDbLine
 10
37.40931111834095
 20
-2.18424312311418
 30
0.0
 11
37.81711731720054
 21
-2.420408520051621
 31
0.0
  0
LINE
  5
45A
330
18
100
AcDbEntity
  8
1
100
AcDbLine
 10
37.81711731720054
 20
-2.420408520051621
 30
0.0
 11
38.22492038447813
 21
-2.63711656561719
 31
0.0
  0
LINE
  5
45B
330
18
100
AcDbEntity
  8
1
100
AcDbLine
 10
38.22492038447813
 20
-2.63711656561719
 30
0.0
 11
38.63272206725405
 21
-2.832626446378769
 31
0.0
  0
LINE
  5
45C
330
18
100
AcDbEntity
  8
1
100
AcDbLine
 10
38.63272206725405
 20
-2.832626446378769
 30
0.0
 11
39.04052724712153
 21
-3.005368891561977
 31
0.0
  0
LINE
  5
45D
330
18
100
AcDbEntity
  8
1
100
AcDbLine
 10
39.04052724712153
 20
-3.005368891561977
 30
0.0
 11
39.44833451380374
 21
-3.153954438721531
 31
0.0
  0
LINE
  5
45E
330
18
100
AcDbEntity
  8
1
100
AcDbLine
 10
39.44833451380374
 20
-3.153954438721531
 30
0.0
 11
39.85614222061525
 21
-3.277188022164836
 31
0.0
  0
LINE
  5
45F
330
18
100
AcDbEntity
  8
1
100
AcDbLine
 10
39.85614222061525
 20
-3.277188022164836
 30
0.0
 11
40.26394865242359
 21
-3.374078655430302
 31
0.0
  0
LINE
  5
460
330
18
100
AcDbEntity
  8
1
100
AcDbLine
 10
40.26394865242359
 20
-3.374078655430302
 30
0.0
 11
40.67175223170798
 21
-3.443847317627792
 31
0.0
  0
LINE
  5
461
330
18
100
AcDbEntity
  8
1
100
AcDbLine
 10
40.67175223170798
 20
-3.443847317627792
 30
0.0
 11
41.07955343324059
 21
-3.485933557721621
 31
0.0
  0
LINE
  5
462
330
18
100
AcDbEntity
  8
1
100
AcDbLine
 10
41.07955343324059
 20
-3.485933557721621
 30
0.0
 11
41.48735250491413
 21
-3.499999999833944
 31
0.0
  0
LINE
  5
463
330
18
100
AcDbEntity
  8
1
100
AcDbLine
 10
45.02282723497255
 20
-3.499999999836508
 30
0.0
 11
45.39706456415404
 21
-3.488152410299216
 31
0.0
  0
LINE
  5
464
330
18
100
AcDbEntity
  8
1
100
AcDbLine
 10
45.39706456415404
 20
-3.488152410299216
 30
0.0
 11
45.77130234766464
 21
-3.45268979584832
 31
0.0
  0
LINE
  5
465
330
18
100
AcDbEntity
  8
1
100
AcDbLine
 10
45.77130234766464
 20
-3.45268979584832
 30
0.0
 11
46.14554085121966
 21
-3.393852135525597
 31
0.0
  0
LINE
  5
466
330
18
100
AcDbEntity
  8
1
100
AcDbLine
 10
46.14554085121966
 20
-3.393852135525597
 30
0.0
 11
46.51977980676416
 21
-3.312037641193347
 31
0.0
  0
LINE
  5
467
330
18
100
AcDbEntity
  8
1
100
AcDbLine
 10
46.51977980676416
 20
-3.312037641193347
 30
0.0
 11
46.89401912514197
 21
-3.207800127208389
 31
0.0
  0
LINE
  5
468
330
18
100
AcDbEntity
  8
1
100
AcDbLine
 10
46.89401912514197
 20
-3.207800127208389
 30
0.0
 11
47.26825891344071
 21
-3.081845351724128
 31
0.0
  0
LINE
  5
469
330
18
100
AcDbEntity
  8
1
100
AcDbLine
 10
47.26825891344071
 20
-3.081845351724128
 30
0.0
 11
47.64249901574325
 21
-2.935026017207085
 31
0.0
  0
LINE
  5
46A
330
18
100
AcDbEntity
  8
1
100
AcDbLine
 10
47.64249901574325
 20
-2.935026017207085
 30
0.0
 11
48.01673924302574
 21
-2.768336071287827
 31
0.0
  0
LINE
  5
46B
330
18
100
AcDbEntity
  8
1
100
AcDbLine
 10
41.48735250491414
 20
-3.5
 30
0.0
 11
45.02282723497255
 21
-3.5
 31
0.0
  0
LINE
  5
46C
330
18
100
AcDbEntity
  8
1
100
AcDbLine
 10
36.54927747961807
 20
1.009999783369641
 30
0.0
 11
38.66765478655598
 21
-0.6029877270308585
 31
0.0
  0
LINE
  5
46D
330
18
100
AcDbEntity
  8
1
100
AcDbLine
 10
38.66765478655598
 20
-0.6029877270308585
 30
0.0
 11
39.72685148204869
 21
-1.382564895385754
 31
0.0
  0
LINE
  5
46E
330
18
100
AcDbEntity
  8
1
100
AcDbLine
 10
39.72685148204869
 20
-1.382564895385754
 30
0.0
 11
40.78604809346382
 21
-2.087459777261707
 31
0.0
  0
LINE
  5
46F
330
18
100
AcDbEntity
  8
1
100
AcDbLine
 10
40.78604809346382
 20
-2.087459777261707
 30
0.0
 11
41.31565220650982
 21
-2.399790002559056
 31
0.0
  0
LINE
  5
470
330
18
100
AcDbEntity
  8
1
100
AcDbLine
 10
41.31565220650982
 20
-2.399790002559056
 30
0.0
 11
41.84524449809308
 21
-2.679596259547257
 31
0.0
  0
LINE
  5
471
330
18
100
AcDbEntity
  8
1
100
AcDbLine
 10
41.84524449809308
 20
-2.679596259547257
 30
0.0
 11
42.37484853686004
 21
-2.92309933321742
 31
0.0
  0
LINE
  5
472
330
18
100
AcDbEntity
  8
1
100
AcDbLine
 10
42.37484853686004
 20
-2.92309933321742
 30
0.0
 11
42.90444064020136
 21
-3.126988963802964
 31
0.0
  0
LINE
  5
473
330
18
100
AcDbEntity
  8
1
100
AcDbLine
 10
42.90444064020136
 20
-3.126988963802964
 30
0.0
 11
43.16924333064709
 21
-3.21319775585948
 31
0.0
  0
LINE
  5
474
330
18
100
AcDbEntity
  8
1
100
AcDbLine
 10
43.16924333064709
 20
-3.21319775585948
 30
0.0
 11
43.43404473273466
 21
-3.288511449546763
 31
0.0
  0
LINE
  5
475
330
18
100
AcDbEntity
  8
1
100
AcDbLine
 10
43.43404473273466
 20
-3.288511449546763
 30
0.0
 11
43.6988407200654
 21
-3.352674291713088
 31
0.0
  0
LINE
  5
476
330
18
100
AcDbEntity
  8
1
100
AcDbLine
 10
43.6988407200654
 20
-3.352674291713088
 30
0.0
 11
43.96363671211576
 21
-3.405470979450457
 31
0.0
  0
LINE
  5
477
330
18
100
AcDbEntity
  8
1
100
AcDbLine
 10
43.96363671211576
 20
-3.405470979450457
 30
0.0
 11
44.22843869468591
 21
-3.44672277734238
 31
0.0
  0
LINE
  5
478
330
18
100
AcDbEntity
  8
1
100
AcDbLine
 10
44.22843869468591
 20
-3.44672277734238
 30
0.0
 11
44.49324081015109
 21
-3.476287986789797
 31
0.0
  0
LINE
  5
479
330
18
100
AcDbEntity
  8
1
100
AcDbLine
 10
44.49324081015109
 20
-3.476287986789797
 30
0.0
 11
44.75803698206
 21
-3.494066610819756
 31
0.0
  0
LINE
  5
47A
330
18
100
AcDbEntity
  8
1
100
AcDbLine
 10
44.75803698206
 20
-3.494066610819756
 30
0.0
 11
45.02282723497255
 21
-3.499999999836508
 31
0.0
  0
LINE
  5
47B
330
18
100
AcDbEntity
  8
1
100
AcDbLine
 10
44.48577836030654
 20
-0.4739266727706689
 30
0.0
 11
46.11699490144675
 21
-1.661277919339794
 31
0.0
  0
LINE
  5
47C
330
18
100
AcDbEntity
  8
1
100
AcDbLine
 10
46.11699490144675
 20
-1.661277919339794
 30
0.0
 11
46.93261027316069
 21
-2.184243100950957
 31
0.0
  0
LINE
  5
47D
330
18
100
AcDbEntity
  8
1
100
AcDbLine
 10
46.93261027316069
 20
-2.184243100950957
 30
0.0
 11
47.34041647933326
 21
-2.420408498476659
 31
0.0
  0
LINE
  5
47E
330
18
100
AcDbEntity
  8
1
100
AcDbLine
 10
47.34041647933326
 20
-2.420408498476659
 30
0.0
 11
47.74821954986557
 21
-2.637116548437354
 31
0.0
  0
LINE
  5
47F
330
18
100
AcDbEntity
  8
1
100
AcDbLine
 10
47.74821954986557
 20
-2.637116548437354
 30
0.0
 11
48.15602123369304
 21
-2.832626434655744
 31
0.0
  0
LINE
  5
480
330
18
100
AcDbEntity
  8
1
100
AcDbLine
 10
48.15602123369304
 20
-2.832626434655744
 30
0.0
 11
48.56382641459093
 21
-3.005368884605569
 31
0.0
  0
LINE
  5
481
330
18
100
AcDbEntity
  8
1
100
AcDbLine
 10
48.56382641459093
 20
-3.005368884605569
 30
0.0
 11
48.97163368830005
 21
-3.153954432048224
 31
0.0
  0
LINE
  5
482
330
18
100
AcDbEntity
  8
1
100
AcDbLine
 10
48.97163368830005
 20
-3.153954432048224
 30
0.0
 11
49.37944139693785
 21
-3.277188018525373
 31
0.0
  0
LINE
  5
483
330
18
100
AcDbEntity
  8
1
100
AcDbLine
 10
49.37944139693785
 20
-3.277188018525373
 30
0.0
 11
49.78724783600511
 21
-3.37407865240999
 31
0.0
  0
LINE
  5
484
330
18
100
AcDbEntity
  8
1
100
AcDbLine
 10
49.78724783600511
 20
-3.37407865240999
 30
0.0
 11
50.1950514203623
 21
-3.443847315833006
 31
0.0
  0
LINE
  5
485
330
18
100
AcDbEntity
  8
1
100
AcDbLine
 10
50.1950514203623
 20
-3.443847315833006
 30
0.0
 11
50.60285262423329
 21
-3.485933557213718
 31
0.0
  0
LINE
  5
486
330
18
100
AcDbEntity
  8
1
100
AcDbLine
 10
50.60285262423329
 20
-3.485933557213718
 30
0.0
 11
51.01065169779061
 21
-3.499999999833997
 31
0.0
  0
LINE
  5
487
330
18
100
AcDbEntity
  8
1
100
AcDbLine
 10
33.73179058179038
 20
2.76833598592328
 30
0.0
 11
34.10603122408437
 21
2.935026179213174
 31
0.0
  0
LINE
  5
488
330
18
100
AcDbEntity
  8
1
100
AcDbLine
 10
34.10603122408437
 20
2.935026179213174
 30
0.0
 11
34.48027160610772
 21
3.081845660399855
 31
0.0
  0
LINE
  5
489
330
18
100
AcDbEntity
  8
1
100
AcDbLine
 10
34.48027160610772
 20
3.081845660399855
 30
0.0
 11
34.85451160639883
 21
3.207800453995222
 31
0.0
  0
LINE
  5
48A
330
18
100
AcDbEntity
  8
1
100
AcDbLine
 10
34.85451160639883
 20
3.207800453995222
 30
0.0
 11
35.22875103819705
 21
3.31203788881201
 31
0.0
  0
LINE
  5
48B
330
18
100
AcDbEntity
  8
1
100
AcDbLine
 10
35.22875103819705
 20
3.31203788881201
 30
0.0
 11
35.60298975587123
 21
3.393852313211155
 31
0.0
  0
LINE
  5
48C
330
18
100
AcDbEntity
  8
1
100
AcDbLine
 10
35.60298975587123
 20
3.393852313211155
 30
0.0
 11
35.97722774195526
 21
3.452689869429994
 31
0.0
  0
LINE
  5
48D
330
18
100
AcDbEntity
  8
1
100
AcDbLine
 10
35.97722774195526
 20
3.452689869429994
 30
0.0
 11
36.35146571710244
 21
3.488152403840799
 31
0.0
  0
LINE
  5
48E
330
18
100
AcDbEntity
  8
1
100
AcDbLine
 10
36.35146571710244
 20
3.488152403840799
 30
0.0
 11
36.72570290827117
 21
3.499999999999998
 31
0.0
  0
LINE
  5
48F
330
18
100
AcDbEntity
  8
1
100
AcDbLine
 10
51.01065169779061
 20
-3.5
 30
0.0
 11
51.14211617
 21
-3.5
 31
0.0
  0
LINE
  5
490
330
18
100
AcDbEntity
  8
1
100
AcDbLine
 10
46.07257666940521
 20
1.009999787427793
 30
0.0
 11
48.6073443530129
 21
-0.9157363419621776
 31
0.0
  0
LINE
  5
491
330
18
100
AcDbEntity
  8
1
100
AcDbLine
 10
48.6073443530129
 20
-0.9157363419621776
 30
0.0
 11
49.87473888071123
 21
-1.809820446307188
 31
0.0
  0
LINE
  5
492
330
18
100
AcDbEntity
  8
1
100
AcDbLine
 10
49.87473888071123
 20
-1.809820446307188
 30
0.0
 11
50.50843631234095
 21
-2.208425935669219
 31
0.0
  0
LINE
  5
493
330
18
100
AcDbEntity
  8
1
100
AcDbLine
 10
50.50843631234095
 20
-2.208425935669219
 30
0.0
 11
51.14211617
 21
-2.564198473273084
 31
0.0
  0
LINE
  5
494
330
18
100
AcDbEntity
  8
1
100
AcDbLine
 10
43.25508962683063
 20
2.768336055472096
 30
0.0
 11
43.6293302370785
 21
2.935026305111213
 31
0.0
  0
LINE
  5
495
330
18
100
AcDbEntity
  8
1
100
AcDbLine
 10
43.6293302370785
 20
2.935026305111213
 30
0.0
 11
44.00357040439502
 21
3.081845705838207
 31
0.0
  0
LINE
  5
496
330
18
100
AcDbEntity
  8
1
100
AcDbLine
 10
44.00357040439502
 20
3.081845705838207
 30
0.0
 11
44.37780993353331
 21
3.207800357883845
 31
0.0
  0
LINE
  5
497
330
18
100
AcDbEntity
  8
1
100
AcDbLine
 10
44.37780993353331
 20
3.207800357883845
 30
0.0
 11
44.75204864009157
 21
3.312037613990273
 31
0.0
  0
LINE
  5
498
330
18
100
AcDbEntity
  8
1
100
AcDbLine
 10
44.75204864009157
 20
3.312037613990273
 30
0.0
 11
45.12628722060838
 21
3.393851995280049
 31
0.0
  0
LINE
  5
499
330
18
100
AcDbEntity
  8
1
100
AcDbLine
 10
45.12628722060838
 20
3.393851995280049
 30
0.0
 11
45.50052660104325
 21
3.452689708379815
 31
0.0
  0
LINE
  5
49A
330
18
100
AcDbEntity
  8
1
100
AcDbLine
 10
45.50052660104325
 20
3.452689708379815
 30
0.0
 11
45.87476664627577
 21
3.48815231759913
 31
0.0
  0
LINE
  5
49B
330
18
100
AcDbEntity
  8
1
100
AcDbLine
 10
45.87476664627577
 20
3.48815231759913
 30
0.0
 11
46.24900210145056
 21
3.5
 31
0.0
  0
LINE
  5
49C
330
18
100
AcDbEntity
  8
1
 62
     1
100
AcDbLine
 10
58.47113247308103
 20
5.0
 30
0.0
 11
58.52886752691897
 21
5.0
 31
0.0
  0
LINE
  5
49D
330
18
100
AcDbEntity
  8
1
 62
     1
100
AcDbLine
 10
60.47113247308104
 20
-5.000000000000006
 30
0.0
 11
60.40726655205521
 21
-4.889381031487208
 31
0.0
  0
LINE
  5
49E
330
18
100
AcDbEntity
  8
1
 62
     1
100
AcDbLine
 10
53.0
 20
-4.183975
 30
0.0
 11
52.87099148051542
 21
-4.407424206173265
 31
0.0
  0
LINE
  5
49F
330
18
100
AcDbEntity
  8
1
 62
     1
100
AcDbLine
 10
53.24118991596139
 20
-4.60172799394093
 30
0.0
 11
53.0
 21
-4.183975
 31
0.0
  0
ARC
  5
4A0
330
18
100
AcDbEntity
  8
1
 62
     1
100
AcDbCircle
 10
78.53565878277212
 20
12.74503737600956
 30
0.0
 40
17.8003057466409
100
AcDbArc
 50
226.4062322977793
 51
228.8730616824772
  0
ARC
  5
4A1
330
18
100
AcDbEntity
  8
1
 62
     1
100
AcDbCircle
 10
69.18303076883144
 20
2.509072188117497
 30
0.0
 40
6.376319300070849
100
AcDbArc
 50
242.7311173143071
 51
248.3238724231576
  0
LINE
  5
4A2
330
18
100
AcDbEntity
  8
1
 62
     1
100
AcDbLine
 10
65.39799437221568
 20
0.7159464655901078
 30
0.0
 11
65.39799437221568
 21
-2.641915818608899
 31
0.0
  0
LINE
  5
4A3
330
18
100
AcDbEntity
  8
1
 62
     1
100
AcDbLine
 10
65.6402786963071
 20
-2.801488689405077
 30
0.0
 11
65.39799437221569
 21
-2.641915818608912
 31
0.0
  0
LINE
  5
4A4
330
18
100
AcDbEntity
  8
1
 62
     1
100
AcDbLine
 10
65.6402786963071
 20
0.4659510131317751
 30
0.0
 11
65.64027869630713
 21
-2.801488689405095
 31
0.0
  0
ARC
  5
4A5
330
18
100
AcDbEntity
  8
1
 62
     1
100
AcDbCircle
 10
159.312298480767
 20
-56.29305047748232
 30
0.0
 40
107.8153397972239
100
AcDbArc
 50
151.0163978019648
 51
151.5372773044662
  0
ARC
  5
4A6
330
18
100
AcDbEntity
  8
1
 62
     1
100
AcDbCircle
 10
69.97084914930375
 20
-0.3581821393025995
 30
0.0
 40
6.191895774316404
100
AcDbArc
 50
216.6022945374289
 51
222.3919897267292
  0
ARC
  5
4A7
330
18
100
AcDbEntity
  8
1
 62
     1
100
AcDbCircle
 10
95.70586495069278
 20
-20.51637802629948
 30
0.0
 40
34.12386665322786
100
AcDbArc
 50
150.5204920233283
 51
151.7719297613232
  0
LINE
  5
4A8
330
18
100
AcDbEntity
  8
1
 62
     1
100
AcDbLine
 10
64.47113247308104
 20
1.695307864390269
 30
0.0
 11
64.47113247308104
 21
-1.843159219305314
 31
0.0
  0
LINE
  5
4A9
330
18
100
AcDbEntity
  8
1
 62
     1
100
AcDbLine
 10
63.47113247308105
 20
2.680635827360247
 30
0.0
 11
63.47113247308105
 21
-0.7848087987519005
 31
0.0
  0
LINE
  5
4AA
330
18
100
AcDbEntity
  8
1
 62
     1
100
AcDbLine
 10
63.52886752691897
 20
2.626829968937246
 30
0.0
 11
63.52886752691898
 21
-0.8474432518220596
 31
0.0
  0
LINE
  5
4AB
330
18
100
AcDbEntity
  8
1
 62
     1
100
AcDbLine
 10
62.52886752691898
 20
3.491674180804935
 30
0.0
 11
62.52886752691899
 21
0.2479605818247934
 31
0.0
  0
LINE
  5
4AC
330
18
100
AcDbEntity
  8
1
 62
     1
100
AcDbLine
 10
61.47113247308105
 20
4.222655738163253
 30
0.0
 11
61.47113247308105
 21
1.392505196552545
 31
0.0
  0
LINE
  5
4AD
330
18
100
AcDbEntity
  8
1
 62
     1
100
AcDbLine
 10
60.47113247308106
 20
4.705066031669361
 30
0.0
 11
60.47113247308104
 21
2.406583979282651
 31
0.0
  0
LINE
  5
4AE
330
18
100
AcDbEntity
  8
1
 62
     1
100
AcDbLine
 10
60.52886752691899
 20
4.683205409780723
 30
0.0
 11
60.52886752691898
 21
2.350742513940993
 31
0.0
  0
LINE
  5
4AF
330
18
100
AcDbEntity
  8
1
 62
     1
100
AcDbLine
 10
57.47113247308104
 20
5.0
 30
0.0
 11
57.52886752691897
 21
5.0
 31
0.0
  0
LINE
  5
4B0
330
18
100
AcDbEntity
  8
1
 62
     1
100
AcDbLine
 10
56.47113247308104
 20
5.0
 30
0.0
 11
56.52886752691897
 21
4.999999999999999
 31
0.0
  0
ARC
  5
4B1
330
18
100
AcDbEntity
  8
1
 62
     1
100
AcDbCircle
 10
41.74836516431921
 20
9.013139891095289
 30
0.0
 40
24.97768106892587
100
AcDbArc
 50
326.3009827596952
 51
328.3010373507083
  0
LINE
  5
4B2
330
18
100
AcDbEntity
  8
1
 62
     1
100
AcDbLine
 10
62.52886752691899
 20
-4.845217441589656
 30
0.0
 11
62.52886752691899
 21
-5.0
 31
0.0
  0
LINE
  5
4B3
330
18
100
AcDbEntity
  8
1
 62
     1
100
AcDbLine
 10
63.00000000000001
 20
-4.183975
 30
0.0
 11
62.52886752691899
 21
-4.999999999999981
 31
0.0
  0
LINE
  5
4B4
330
18
100
AcDbEntity
  8
1
 62
     1
100
AcDbLine
 10
63.00000000000001
 20
-4.183975
 30
0.0
 11
63.00000000000001
 21
-4.183958461324413
 31
0.0
  0
LINE
  5
4B5
330
18
100
AcDbEntity
  8
1
 62
     1
100
AcDbLine
 10
63.00000000000001
 20
-4.183958461324413
 30
0.0
 11
63.0
 21
-4.179107818885689
 31
0.0
  0
LINE
  5
4B6
330
18
100
AcDbEntity
  8
1
 62
     1
100
AcDbLine
 10
63.0
 20
-4.179107818885689
 30
0.0
 11
63.00000000000001
 21
-4.111605770478631
 31
0.0
  0
LINE
  5
4B7
330
18
100
AcDbEntity
  8
1
 62
     1
100
AcDbLine
 10
63.47113247308106
 20
-5.00000000000003
 30
0.0
 11
63.00000000000001
 21
-4.183975
 31
0.0
  0
LINE
  5
4B8
330
18
100
AcDbEntity
  8
1
 62
     1
100
AcDbLine
 10
63.52886752691897
 20
-4.997817681748047
 30
0.0
 11
63.52886752691897
 21
-5.0
 31
0.0
  0
LINE
  5
4B9
330
18
100
AcDbEntity
  8
1
 62
     1
100
AcDbLine
 10
63.73573157748925
 20
-4.641701121209755
 30
0.0
 11
63.52886752691897
 21
-5.000000000000004
 31
0.0
  0
ARC
  5
4BA
330
18
100
AcDbEntity
  8
1
 62
     1
100
AcDbCircle
 10
-50.46271864440124
 20
61.25192489713019
 30
0.0
 40
131.8455791626363
100
AcDbArc
 50
330.0146323303182
 51
330.245209785217
  0
ARC
  5
4BB
330
18
100
AcDbEntity
  8
1
 62
     1
100
AcDbCircle
 10
75.25587298841694
 20
2.463077320977937
 30
0.0
 40
13.07078223513711
100
AcDbArc
 50
210.5546384767051
 51
214.3996155763999
  0
LINE
  5
4BC
330
18
100
AcDbEntity
  8
1
 62
     1
100
AcDbLine
 10
62.47113247308105
 20
-5.000000000000019
 30
0.0
 11
62.00000000000001
 21
-4.183975
 31
0.0
  0
ARC
  5
4BD
330
18
100
AcDbEntity
  8
1
 62
     1
100
AcDbCircle
 10
53.15842503311964
 20
2.429818466350757
 30
0.0
 40
10.84084642886379
100
AcDbArc
 50
320.5449686087269
 51
324.6431571228825
  0
LINE
  5
4BE
330
18
100
AcDbEntity
  8
1
 62
     1
100
AcDbLine
 10
61.52886752691898
 20
-4.459215228797937
 30
0.0
 11
61.52886752691899
 21
-5.0
 31
0.0
  0
LINE
  5
4BF
330
18
100
AcDbEntity
  8
1
 62
     1
100
AcDbLine
 10
62.00000000000001
 20
-4.183975
 30
0.0
 11
61.52886752691899
 21
-4.999999999999981
 31
0.0
  0
LINE
  5
4C0
330
18
100
AcDbEntity
  8
1
 62
     1
100
AcDbLine
 10
62.00000000000001
 20
-4.183975
 30
0.0
 11
62.00000000000001
 21
-4.183901265454955
 31
0.0
  0
LINE
  5
4C1
330
18
100
AcDbEntity
  8
1
 62
     1
100
AcDbLine
 10
62.00000000000001
 20
-4.183901265454955
 30
0.0
 11
62.00000000000001
 21
-4.161860275063408
 31
0.0
  0
LINE
  5
4C2
330
18
100
AcDbEntity
  8
1
 62
     1
100
AcDbLine
 10
62.00000000000001
 20
-4.161860275063408
 30
0.0
 11
62.00000000000001
 21
-3.843543929052733
 31
0.0
  0
LINE
  5
4C3
330
18
100
AcDbEntity
  8
1
 62
     1
100
AcDbLine
 10
61.47113247308105
 20
-5.000000000000019
 30
0.0
 11
61.00000000000001
 21
-4.183975
 31
0.0
  0
ARC
  5
4C4
330
18
100
AcDbEntity
  8
1
 62
     1
100
AcDbCircle
 10
33.98465193338705
 20
-15.18302749216827
 30
0.0
 40
26.6876728957042
100
AcDbArc
 50
23.43564010868624
 51
25.85911209498226
  0
LINE
  5
4C5
330
18
100
AcDbEntity
  8
1
 62
     1
100
AcDbLine
 10
58.47113247308103
 20
-2.079518110871499
 30
0.0
 11
58.47113247308103
 21
-4.568692482901265
 31
0.0
  0
LINE
  5
4C6
330
18
100
AcDbEntity
  8
1
 62
     1
100
AcDbLine
 10
58.00000000000001
 20
-3.542972568611262
 30
0.0
 11
58.0
 21
-1.176024088772883
 31
0.0
  0
ARC
  5
4C7
330
18
100
AcDbEntity
  8
1
 62
     1
100
AcDbCircle
 10
57.98255461132356
 20
0.2016905796589932
 30
0.0
 40
1.377973913825757
100
AcDbArc
 50
250.7777155138405
 51
270.7254722248358
  0
LINE
  5
4C8
330
18
100
AcDbEntity
  8
1
 62
     1
100
AcDbLine
 10
57.52886752691897
 20
-1.099491546470972
 30
0.0
 11
57.52886752691896
 21
-4.052971300758871
 31
0.0
  0
ARC
  5
4C9
330
18
100
AcDbEntity
  8
1
 62
     1
100
AcDbCircle
 10
42.82338201129031
 20
-9.992794142753393
 30
0.0
 40
15.81990665677884
100
AcDbArc
 50
22.19896206574365
 51
26.34593102861065
  0
ARC
  5
4CA
330
18
100
AcDbEntity
  8
1
 62
     1
100
AcDbCircle
 10
48.85974961709926
 20
-5.802926306155351
 30
0.0
 40
9.84169276493272
100
AcDbArc
 50
28.95970821744499
 51
34.19554816014518
  0
LINE
  5
4CB
330
18
100
AcDbEntity
  8
1
 62
     1
100
AcDbLine
 10
57.0
 20
-2.972126890795711
 30
0.0
 11
56.99999999999999
 21
-0.2717424206747657
 31
0.0
  0
ARC
  5
4CC
330
18
100
AcDbEntity
  8
1
 62
     1
100
AcDbCircle
 10
57.73144386433063
 20
1.5885566748466
 30
0.0
 40
1.999442260636937
100
AcDbArc
 50
233.0279150971288
 51
248.5359344836265
  0
LINE
  5
4CD
330
18
100
AcDbEntity
  8
1
 62
     1
100
AcDbLine
 10
56.52886752691897
 20
-0.0089347921522937
 30
0.0
 11
56.52886752691896
 21
-3.316586196028025
 31
0.0
  0
ARC
  5
4CE
330
18
100
AcDbEntity
  8
1
 62
     1
100
AcDbCircle
 10
46.72062102829592
 20
-7.189896032922679
 30
0.0
 40
10.50868298835089
100
AcDbArc
 50
21.90710521358529
 51
27.98966717218124
  0
ARC
  5
4CF
330
18
100
AcDbEntity
  8
1
 62
     1
100
AcDbCircle
 10
160.1833305843249
 20
-77.70370792544429
 30
0.0
 40
125.2144128542553
100
AcDbArc
 50
143.9087229489945
 51
144.2764231571866
  0
ARC
  5
4D0
330
18
100
AcDbEntity
  8
1
 62
     1
100
AcDbCircle
 10
58.41825011216768
 20
-0.6484928793731033
 30
0.0
 40
1.492762848080248
100
AcDbArc
 50
274.2498461129759
 51
292.930354520269
  0
LINE
  5
4D1
330
18
100
AcDbEntity
  8
1
 62
     1
100
AcDbLine
 10
58.52886752691898
 20
-2.137084080993449
 30
0.0
 11
58.52886752691898
 21
-4.594118266019082
 31
0.0
  0
ARC
  5
4D2
330
18
100
AcDbEntity
  8
1
 62
     1
100
AcDbCircle
 10
-39.11715983239797
 20
-52.70717576785454
 30
0.0
 40
109.5669802875196
100
AcDbArc
 50
25.86868848021294
 51
26.42728260364397
  0
LINE
  5
4D3
330
18
100
AcDbEntity
  8
1
 62
     1
100
AcDbLine
 10
59.47113247308104
 20
-3.021390369798522
 30
0.0
 11
59.47113247308105
 21
-4.901836253330854
 31
0.0
  0
LINE
  5
4D4
330
18
100
AcDbEntity
  8
1
 62
     1
100
AcDbLine
 10
59.00000000000001
 20
-3.943147546552868
 30
0.0
 11
59.0
 21
-2.023654841564762
 31
0.0
  0
ARC
  5
4D5
330
18
100
AcDbEntity
  8
1
 62
     1
100
AcDbCircle
 10
-127.2092990053433
 20
111.3234579642154
 30
0.0
 40
219.959701915454
100
AcDbArc
 50
328.0993044148011
 51
328.3323539203015
  0
LINE
  5
4D6
330
18
100
AcDbEntity
  8
1
 62
     1
100
AcDbLine
 10
60.00000000000001
 20
-4.153374727257875
 30
0.0
 11
60.0
 21
-2.773802881715032
 31
0.0
  0
ARC
  5
4D7
330
18
100
AcDbEntity
  8
1
 62
     1
100
AcDbCircle
 10
58.4293201564602
 20
-0.8164471782541858
 30
0.0
 40
2.509135826405917
100
AcDbArc
 50
295.9912262050289
 51
308.7452960358927
  0
LINE
  5
4D8
330
18
100
AcDbEntity
  8
1
 62
     1
100
AcDbLine
 10
59.52886752691897
 20
-3.071729834185638
 30
0.0
 11
59.52886752691898
 21
-4.913959084941425
 31
0.0
  0
LINE
  5
4D9
330
18
100
AcDbEntity
  8
1
 62
     1
100
AcDbLine
 10
60.47113247308105
 20
-3.817717382466864
 30
0.0
 11
60.47113247308104
 21
-5.0
 31
0.0
  0
ARC
  5
4DA
330
18
100
AcDbEntity
  8
1
 62
     1
100
AcDbCircle
 10
57.17913588528667
 20
-0.0201842782586694
 30
0.0
 40
5.094439112242481
100
AcDbArc
 50
311.1121871939282
 51
318.5864758407145
  0
LINE
  5
4DB
330
18
100
AcDbEntity
  8
1
 62
     1
100
AcDbLine
 10
60.52886752691899
 20
-3.858405367516736
 30
0.0
 11
60.52886752691899
 21
-5.0
 31
0.0
  0
LINE
  5
4DC
330
18
100
AcDbEntity
  8
1
 62
     1
100
AcDbLine
 10
61.00000000000001
 20
-4.183975
 30
0.0
 11
60.52886752691899
 21
-4.999999999999969
 31
0.0
  0
LINE
  5
4DD
330
18
100
AcDbEntity
  8
1
 62
     1
100
AcDbLine
 10
61.00000000000001
 20
-4.183975
 30
0.0
 11
61.00000000000001
 21
-4.183807948304351
 31
0.0
  0
LINE
  5
4DE
330
18
100
AcDbEntity
  8
1
 62
     1
100
AcDbLine
 10
61.00000000000001
 20
-4.183807948304351
 30
0.0
 11
61.0
 21
-4.133016859624807
 31
0.0
  0
LINE
  5
4DF
330
18
100
AcDbEntity
  8
1
 62
     1
100
AcDbLine
 10
61.0
 20
-4.133016859624807
 30
0.0
 11
61.0
 21
-3.390332323553792
 31
0.0
  0
ARC
  5
4E0
330
18
100
AcDbEntity
  8
1
 62
     1
100
AcDbCircle
 10
73.73580360333226
 20
-15.81081772406139
 30
0.0
 40
28.45908419126964
100
AcDbArc
 50
134.9253580970878
 51
136.0661720715271
  0
LINE
  5
4E1
330
18
100
AcDbEntity
  8
1
 62
     1
100
AcDbLine
 10
52.87099148051543
 20
3.548611754757256
 30
0.0
 11
52.65423345728745
 21
3.321268695052874
 31
0.0
  0
LINE
  5
4E2
330
18
100
AcDbEntity
  8
1
 62
     1
100
AcDbLine
 10
53.2411899159614
 20
3.099947382669702
 30
0.0
 11
53.2411899159614
 21
0.0987730155715879
 31
0.0
  0
LINE
  5
4E3
330
18
100
AcDbEntity
  8
1
 62
     1
100
AcDbLine
 10
53.0
 20
0.3747329354774356
 30
0.0
 11
53.0
 21
3.043921438225841
 31
0.0
  0
LINE
  5
4E4
330
18
100
AcDbEntity
  8
1
 62
     1
100
AcDbLine
 10
52.87099148051541
 20
0.4894425760433738
 30
0.0
 11
53.0
 21
0.3747329354774303
 31
0.0
  0
LINE
  5
4E5
330
18
100
AcDbEntity
  8
1
 62
     1
100
AcDbLine
 10
56.00000000000001
 20
-2.258109080696777
 30
0.0
 11
56.0
 21
0.6456294483918616
 31
0.0
  0
LINE
  5
4E6
330
18
100
AcDbEntity
  8
1
 62
     1
100
AcDbLine
 10
55.52886752691897
 20
1.082052292823477
 30
0.0
 11
55.59587611736615
 21
1.010000098167508
 31
0.0
  0
LINE
  5
4E7
330
18
100
AcDbEntity
  8
1
 62
     1
100
AcDbLine
 10
55.52886752691896
 20
1.08205229282346
 30
0.0
 11
55.52886752691896
 21
-2.420435881584852
 31
0.0
  0
LINE
  5
4E8
330
18
100
AcDbEntity
  8
1
 62
     1
100
AcDbLine
 10
54.0
 20
-0.5433785113655387
 30
0.0
 11
54.06264422465604
 21
-0.6283027541812567
 31
0.0
  0
LINE
  5
4E9
330
18
100
AcDbEntity
  8
1
 62
     1
100
AcDbLine
 10
54.06264422465604
 20
-0.6283027541812567
 30
0.0
 11
54.18463729827877
 21
-0.8130021566254744
 31
0.0
  0
LINE
  5
4EA
330
18
100
AcDbEntity
  8
1
 62
     1
100
AcDbLine
 10
54.18463729827877
 20
-0.8130021566254744
 30
0.0
 11
54.30233472064588
 21
-1.015322724096749
 31
0.0
  0
LINE
  5
4EB
330
18
100
AcDbEntity
  8
1
 62
     1
100
AcDbLine
 10
54.30233472064588
 20
-1.015322724096749
 30
0.0
 11
54.47113247308105
 21
-1.346659264537749
 31
0.0
  0
LINE
  5
4EC
330
18
100
AcDbEntity
  8
1
 62
     1
100
AcDbLine
 10
53.99999999999999
 20
-0.5433785113659267
 30
0.0
 11
54.0
 21
2.344377057224331
 31
0.0
  0
ARC
  5
4ED
330
18
100
AcDbEntity
  8
1
 62
     1
100
AcDbCircle
 10
62.11081963146886
 20
8.201852342658382
 30
0.0
 40
10.00489477343151
100
AcDbArc
 50
212.132307596014
 51
215.8360795982899
  0
LINE
  5
4EE
330
18
100
AcDbEntity
  8
1
 62
     1
100
AcDbLine
 10
55.00000000000001
 20
-1.43531451276403
 30
0.0
 11
55.0
 21
1.531900292496205
 31
0.0
  0
ARC
  5
4EF
330
18
100
AcDbEntity
  8
1
 62
     1
100
AcDbCircle
 10
59.6449958415676
 20
5.725359427003372
 30
0.0
 40
6.258265256140275
100
AcDbArc
 50
215.1656825275587
 51
222.0754305668193
  0
LINE
  5
4F0
330
18
100
AcDbEntity
  8
1
 62
     1
100
AcDbLine
 10
55.0
 20
-1.435314512764029
 30
0.0
 11
55.12418511123762
 21
-1.647787611617449
 31
0.0
  0
LINE
  5
4F1
330
18
100
AcDbEntity
  8
1
 62
     1
100
AcDbLine
 10
55.12418511123762
 20
-1.647787611617449
 30
0.0
 11
55.24401662061116
 21
-1.875209901210151
 31
0.0
  0
LINE
  5
4F2
330
18
100
AcDbEntity
  8
1
 62
     1
100
AcDbLine
 10
55.24401662061116
 20
-1.875209901210151
 30
0.0
 11
55.47113247308103
 21
-2.364690586157828
 31
0.0
  0
ARC
  5
4F3
330
18
100
AcDbEntity
  8
1
 62
     1
100
AcDbCircle
 10
62.32633560680216
 20
-3.628941961795859
 30
0.0
 40
9.04887535892938
100
AcDbArc
 50
60.16728551034519
 51
64.22163321952868
  0
LINE
  5
4F4
330
18
100
AcDbEntity
  8
1
 62
     1
100
AcDbLine
 10
66.26157640737013
 20
4.637038416385414
 30
0.0
 11
66.82788142644151
 21
4.482092975331985
 31
0.0
  0
ARC
  5
4F5
330
18
100
AcDbEntity
  8
1
 62
     1
100
AcDbCircle
 10
63.50036862372654
 20
-1.01867179536985
 30
0.0
 40
6.184394854459993
100
AcDbArc
 50
69.75607175491963
 51
72.13102606876042
  0
LINE
  5
4F6
330
18
100
AcDbEntity
  8
1
 62
     1
100
AcDbLine
 10
65.39799437221569
 20
4.873321152396191
 30
0.0
 11
65.64027869630712
 21
4.807030284061248
 31
0.0
  0
LINE
  5
4F7
330
18
100
AcDbEntity
  8
1
 62
     1
100
AcDbLine
 10
66.8278814264415
 20
-0.6631088087855304
 30
0.0
 11
66.82788142644151
 21
-3.416341961459792
 31
0.0
  0
LINE
  5
4F8
330
18
100
AcDbEntity
  8
1
 62
     1
100
AcDbLine
 10
66.82788142644152
 20
-3.416341961459803
 30
0.0
 11
67.00000000000001
 21
-3.263973894710356
 31
0.0
  0
ARC
  5
4F9
330
18
100
AcDbEntity
  8
1
 62
     1
100
AcDbCircle
 10
61.07398841204552
 20
-3.679259077527343
 30
0.0
 40
6.275999868184932
100
AcDbArc
 50
34.2524872704851
 51
38.2887054038409
  0
LINE
  5
4FA
330
18
100
AcDbEntity
  8
1
 62
     1
100
AcDbLine
 10
66.0
 20
-2.614304386590107
 30
0.0
 11
66.0
 21
0.2094939933622565
 31
0.0
  0
ARC
  5
4FB
330
18
100
AcDbEntity
  8
1
 62
     1
100
AcDbCircle
 10
56.51369435444042
 20
-7.504636385484612
 30
0.0
 40
10.6726682952769
100
AcDbArc
 50
24.02897084174414
 51
27.27178025463958
  0
LINE
  5
4FC
330
18
100
AcDbEntity
  8
1
 62
     1
100
AcDbLine
 10
66.26157640737013
 20
-0.1468265245263238
 30
0.0
 11
66.26157640737013
 21
-3.15869241242274
 31
0.0
  0
ARC
  5
4FD
330
18
100
AcDbEntity
  8
1
 62
     1
100
AcDbCircle
 10
67.25730719703729
 20
2.350771627368958
 30
0.0
 40
2.483364274494673
100
AcDbArc
 50
229.3729906783026
 51
239.5795595189714
  0
LINE
  5
4FE
330
18
100
AcDbEntity
  8
1
 62
     1
100
AcDbLine
 10
65.0
 20
-1.838699711459969
 30
0.0
 11
65.0
 21
1.116057171213939
 31
0.0
  0
ARC
  5
4FF
330
18
100
AcDbEntity
  8
1
 62
     1
100
AcDbCircle
 10
58.08117821231963
 20
-5.760559854702321
 30
0.0
 40
7.953165676565083
100
AcDbArc
 50
23.08514084760878
 51
29.5462689846384
  0
ARC
  5
500
330
18
100
AcDbEntity
  8
1
 62
     1
100
AcDbCircle
 10
68.29673934326358
 20
4.574999782840179
 30
0.0
 40
4.778809863925528
100
AcDbArc
 50
217.9600222281874
 51
226.3754018532853
  0
LINE
  5
501
330
18
100
AcDbEntity
  8
1
 62
     1
100
AcDbLine
 10
64.52886752691897
 20
1.635447159259159
 30
0.0
 11
64.52886752691896
 21
-1.902024313982545
 31
0.0
  0
ARC
  5
502
330
18
100
AcDbEntity
  8
1
 62
     1
100
AcDbCircle
 10
99.05941668631328
 20
25.10903044391944
 30
0.0
 40
43.60981355712688
100
AcDbArc
 50
207.9289691260354
 51
209.2227762061785
  0
ARC
  5
503
330
18
100
AcDbEntity
  8
1
 62
     1
100
AcDbCircle
 10
49.19844290009046
 20
-6.652617454680085
 30
0.0
 40
14.47203763795925
100
AcDbArc
 50
35.36662155166823
 51
38.47128791245088
  0
ARC
  5
504
330
18
100
AcDbEntity
  8
1
 62
     1
100
AcDbCircle
 10
65.91110900350196
 20
-0.009180378367545
 30
0.0
 40
7.198775510473544
100
AcDbArc
 50
139.0880222327775
 51
145.1970241905788
  0
LINE
  5
505
330
18
100
AcDbEntity
  8
1
 62
     1
100
AcDbLine
 10
59.99999999999999
 20
2.51411607976492
 30
0.0
 11
60.00000000000001
 21
4.09960272933563
 31
0.0
  0
LINE
  5
506
330
18
100
AcDbEntity
  8
1
 62
     1
100
AcDbLine
 10
60.00000000000001
 20
2.51411607976492
 30
0.0
 11
60.03145773119646
 21
2.518758598749789
 31
0.0
  0
LINE
  5
507
330
18
100
AcDbEntity
  8
1
 62
     1
100
AcDbLine
 10
60.03145773119646
 20
2.518758598749789
 30
0.0
 11
60.0626425912582
 21
2.52179146943514
 31
0.0
  0
LINE
  5
508
330
18
100
AcDbEntity
  8
1
 62
     1
100
AcDbLine
 10
60.0626425912582
 20
2.52179146943514
 30
0.0
 11
60.09354802691531
 21
2.523234310752585
 31
0.0
  0
LINE
  5
509
330
18
100
AcDbEntity
  8
1
 62
     1
100
AcDbLine
 10
60.09354802691531
 20
2.523234310752585
 30
0.0
 11
60.12418189033192
 21
2.523107656581678
 31
0.0
  0
LINE
  5
50A
330
18
100
AcDbEntity
  8
1
 62
     1
100
AcDbLine
 10
60.12418189033192
 20
2.523107656581678
 30
0.0
 11
60.15454453852464
 21
2.521432416402644
 31
0.0
  0
LINE
  5
50B
330
18
100
AcDbEntity
  8
1
 62
     1
100
AcDbLine
 10
60.15454453852464
 20
2.521432416402644
 30
0.0
 11
60.18463256542135
 21
2.518229127065846
 31
0.0
  0
LINE
  5
50C
330
18
100
AcDbEntity
  8
1
 62
     1
100
AcDbLine
 10
60.18463256542135
 20
2.518229127065846
 30
0.0
 11
60.21445522248638
 21
2.513517465111004
 31
0.0
  0
LINE
  5
50D
330
18
100
AcDbEntity
  8
1
 62
     1
100
AcDbLine
 10
60.21445522248638
 20
2.513517465111004
 30
0.0
 11
60.24401049751729
 21
2.507318686359196
 31
0.0
  0
LINE
  5
50E
330
18
100
AcDbEntity
  8
1
 62
     1
100
AcDbLine
 10
60.24401049751729
 20
2.507318686359196
 30
0.0
 11
60.27329947840141
 21
2.499652764023081
 31
0.0
  0
LINE
  5
50F
330
18
100
AcDbEntity
  8
1
 62
     1
100
AcDbLine
 10
60.27329947840141
 20
2.499652764023081
 30
0.0
 11
60.30233305957902
 21
2.490537393420735
 31
0.0
  0
LINE
  5
510
330
18
100
AcDbEntity
  8
1
 62
     1
100
AcDbLine
 10
60.30233305957902
 20
2.490537393420735
 30
0.0
 11
60.3311084881542
 21
2.479994480715833
 31
0.0
  0
LINE
  5
511
330
18
100
AcDbEntity
  8
1
 62
     1
100
AcDbLine
 10
60.3311084881542
 20
2.479994480715833
 30
0.0
 11
60.35962222094579
 21
2.468046161897726
 31
0.0
  0
LINE
  5
512
330
18
100
AcDbEntity
  8
1
 62
     1
100
AcDbLine
 10
60.35962222094579
 20
2.468046161897726
 30
0.0
 11
60.38787433291197
 21
2.454713006312989
 31
0.0
  0
LINE
  5
513
330
18
100
AcDbEntity
  8
1
 62
     1
100
AcDbLine
 10
60.38787433291197
 20
2.454713006312989
 30
0.0
 11
60.41587764272386
 21
2.440010351784215
 31
0.0
  0
LINE
  5
514
330
18
100
AcDbEntity
  8
1
 62
     1
100
AcDbLine
 10
60.41587764272386
 20
2.440010351784215
 30
0.0
 11
60.44363127591092
 21
2.423959847535607
 31
0.0
  0
LINE
  5
515
330
18
100
AcDbEntity
  8
1
 62
     1
100
AcDbLine
 10
60.44363127591092
 20
2.423959847535607
 30
0.0
 11
60.47113247308102
 21
2.406583979282646
 31
0.0
  0
ARC
  5
516
330
18
100
AcDbEntity
  8
1
 62
     1
100
AcDbCircle
 10
238.6748074297247
 20
103.3303260842279
 30
0.0
 40
204.3806715035865
100
AcDbArc
 50
208.7733499945087
 51
209.0465027679857
  0
LINE
  5
517
330
18
100
AcDbEntity
  8
1
 62
     1
100
AcDbLine
 10
59.52886752691899
 20
4.952494377442654
 30
0.0
 11
59.52886752691897
 21
3.256826142539254
 31
0.0
  0
LINE
  5
518
330
18
100
AcDbEntity
  8
1
 62
     1
100
AcDbLine
 10
59.00000000000001
 20
3.18315359733026
 30
0.0
 11
59.00000000000001
 21
4.183975
 31
0.0
  0
LINE
  5
519
330
18
100
AcDbEntity
  8
1
 62
     1
100
AcDbLine
 10
59.00000000000001
 20
3.183153597330261
 30
0.0
 11
59.06264420558981
 21
3.218835663736788
 31
0.0
  0
LINE
  5
51A
330
18
100
AcDbEntity
  8
1
 62
     1
100
AcDbLine
 10
59.06264420558981
 20
3.218835663736788
 30
0.0
 11
59.09355042417062
 21
3.234403900842183
 31
0.0
  0
LINE
  5
51B
330
18
100
AcDbEntity
  8
1
 62
     1
100
AcDbLine
 10
59.09355042417062
 20
3.234403900842183
 30
0.0
 11
59.12418505208655
 21
3.248473118339303
 31
0.0
  0
LINE
  5
51C
330
18
100
AcDbEntity
  8
1
 62
     1
100
AcDbLine
 10
59.12418505208655
 20
3.248473118339303
 30
0.0
 11
59.15454845262686
 21
3.261054669039278
 31
0.0
  0
LINE
  5
51D
330
18
100
AcDbEntity
  8
1
 62
     1
100
AcDbLine
 10
59.15454845262686
 20
3.261054669039278
 30
0.0
 11
59.18463721374869
 21
3.272157896294352
 31
0.0
  0
LINE
  5
51E
330
18
100
AcDbEntity
  8
1
 62
     1
100
AcDbLine
 10
59.18463721374869
 20
3.272157896294352
 30
0.0
 11
59.21446058955679
 21
3.281797567718579
 31
0.0
  0
LINE
  5
51F
330
18
100
AcDbEntity
  8
1
 62
     1
100
AcDbLine
 10
59.21446058955679
 20
3.281797567718579
 30
0.0
 11
59.24401657652169
 21
3.289984967104242
 31
0.0
  0
LINE
  5
520
330
18
100
AcDbEntity
  8
1
 62
     1
100
AcDbLine
 10
59.24401657652169
 20
3.289984967104242
 30
0.0
 11
59.27330523912333
 21
3.296731679006708
 31
0.0
  0
LINE
  5
521
330
18
100
AcDbEntity
  8
1
 62
     1
100
AcDbLine
 10
59.27330523912333
 20
3.296731679006708
 30
0.0
 11
59.30233472079517
 21
3.302052047094104
 31
0.0
  0
LINE
  5
522
330
18
100
AcDbEntity
  8
1
 62
     1
100
AcDbLine
 10
59.30233472079517
 20
3.302052047094104
 30
0.0
 11
59.33110196665474
 21
3.305958082122587
 31
0.0
  0
LINE
  5
523
330
18
100
AcDbEntity
  8
1
 62
     1
100
AcDbLine
 10
59.33110196665474
 20
3.305958082122587
 30
0.0
 11
59.35961240295817
 21
3.308462467727092
 31
0.0
  0
LINE
  5
524
330
18
100
AcDbEntity
  8
1
 62
     1
100
AcDbLine
 10
59.35961240295817
 20
3.308462467727092
 30
0.0
 11
59.38787317525406
 21
3.309578919940506
 31
0.0
  0
LINE
  5
525
330
18
100
AcDbEntity
  8
1
 62
     1
100
AcDbLine
 10
59.38787317525406
 20
3.309578919940506
 30
0.0
 11
59.41588133595178
 21
3.309320719892521
 31
0.0
  0
LINE
  5
526
330
18
100
AcDbEntity
  8
1
 62
     1
100
AcDbLine
 10
59.41588133595178
 20
3.309320719892521
 30
0.0
 11
59.44363392733726
 21
3.307701148031487
 31
0.0
  0
LINE
  5
527
330
18
100
AcDbEntity
  8
1
 62
     1
100
AcDbLine
 10
59.44363392733726
 20
3.307701148031487
 30
0.0
 11
59.47113247308104
 21
3.304733685875073
 31
0.0
  0
LINE
  5
528
330
18
100
AcDbEntity
  8
1
 62
     1
100
AcDbLine
 10
59.47113247308105
 20
4.960825642572772
 30
0.0
 11
59.47113247308103
 21
3.304733685875086
 31
0.0
  0
LINE
  5
529
330
18
100
AcDbEntity
  8
1
 62
     1
100
AcDbLine
 10
58.52886752691898
 20
5.0
 30
0.0
 11
58.52886752691898
 21
4.999791007068346
 31
0.0
  0
LINE
  5
52A
330
18
100
AcDbEntity
  8
1
 62
     1
100
AcDbLine
 10
58.52886752691898
 20
4.999791007068346
 30
0.0
 11
58.52886752691898
 21
4.936176403982223
 31
0.0
  0
LINE
  5
52B
330
18
100
AcDbEntity
  8
1
 62
     1
100
AcDbLine
 10
58.52886752691898
 20
4.936176403982223
 30
0.0
 11
58.52886752691897
 21
4.006023152049163
 31
0.0
  0
LINE
  5
52C
330
18
100
AcDbEntity
  8
1
 62
     1
100
AcDbLine
 10
56.00000000000001
 20
4.179454946069714
 30
0.0
 11
56.0
 21
4.183975
 31
0.0
  0
ARC
  5
52D
330
18
100
AcDbEntity
  8
1
 62
     1
100
AcDbCircle
 10
65.14804586353358
 20
-1.18230876084063
 30
0.0
 40
10.60341214170476
100
AcDbArc
 50
144.9217310208504
 51
149.6249941829473
  0
LINE
  5
52E
330
18
100
AcDbEntity
  8
1
 62
     1
100
AcDbLine
 10
56.47113247308104
 20
5.0
 30
0.0
 11
56.47113247308104
 21
4.999979680097462
 31
0.0
  0
LINE
  5
52F
330
18
100
AcDbEntity
  8
1
 62
     1
100
AcDbLine
 10
56.47113247308104
 20
4.999979680097462
 30
0.0
 11
56.47113247308104
 21
4.994018566422033
 31
0.0
  0
LINE
  5
530
330
18
100
AcDbEntity
  8
1
 62
     1
100
AcDbLine
 10
56.47113247308104
 20
4.994018566422033
 30
0.0
 11
56.47113247308104
 21
4.911012904998364
 31
0.0
  0
LINE
  5
531
330
18
100
AcDbEntity
  8
1
 62
     1
100
AcDbLine
 10
56.52886752691897
 20
5.0
 30
0.0
 11
56.52886752691897
 21
4.99997695424346
 31
0.0
  0
LINE
  5
532
330
18
100
AcDbEntity
  8
1
 62
     1
100
AcDbLine
 10
56.52886752691897
 20
4.99997695424346
 30
0.0
 11
56.52886752691897
 21
4.993208309798791
 31
0.0
  0
LINE
  5
533
330
18
100
AcDbEntity
  8
1
 62
     1
100
AcDbLine
 10
56.52886752691897
 20
4.993208309798791
 30
0.0
 11
56.52886752691897
 21
4.898693073825219
 31
0.0
  0
LINE
  5
534
330
18
100
AcDbEntity
  8
1
 62
     1
100
AcDbLine
 10
57.0
 20
4.036373506787553
 30
0.0
 11
57.0
 21
4.183975
 31
0.0
  0
LINE
  5
535
330
18
100
AcDbEntity
  8
1
 62
     1
100
AcDbLine
 10
57.0
 20
4.036373506787554
 30
0.0
 11
57.1241850550764
 21
4.202347663551731
 31
0.0
  0
LINE
  5
536
330
18
100
AcDbEntity
  8
1
 62
     1
100
AcDbLine
 10
57.1241850550764
 20
4.202347663551731
 30
0.0
 11
57.24401653099619
 21
4.34980083391101
 31
0.0
  0
LINE
  5
537
330
18
100
AcDbEntity
  8
1
 62
     1
100
AcDbLine
 10
57.24401653099619
 20
4.34980083391101
 30
0.0
 11
57.35961226133301
 21
4.47835809950779
 31
0.0
  0
LINE
  5
538
330
18
100
AcDbEntity
  8
1
 62
     1
100
AcDbLine
 10
57.35961226133301
 20
4.47835809950779
 30
0.0
 11
57.47113247308104
 21
4.587853081352732
 31
0.0
  0
LINE
  5
539
330
18
100
AcDbEntity
  8
1
 62
     1
100
AcDbLine
 10
57.47113247308104
 20
5.0
 30
0.0
 11
57.47113247308104
 21
4.999910776842657
 31
0.0
  0
LINE
  5
53A
330
18
100
AcDbEntity
  8
1
 62
     1
100
AcDbLine
 10
57.47113247308104
 20
4.999910776842657
 30
0.0
 11
57.47113247308105
 21
4.97323404880497
 31
0.0
  0
LINE
  5
53B
330
18
100
AcDbEntity
  8
1
 62
     1
100
AcDbLine
 10
57.47113247308105
 20
4.97323404880497
 30
0.0
 11
57.47113247308105
 21
4.587853081352705
 31
0.0
  0
LINE
  5
53C
330
18
100
AcDbEntity
  8
1
 62
     1
100
AcDbLine
 10
58.0
 20
3.698853435115109
 30
0.0
 11
58.0
 21
4.183975
 31
0.0
  0
LINE
  5
53D
330
18
100
AcDbEntity
  8
1
 62
     1
100
AcDbLine
 10
58.0
 20
3.698853435115108
 30
0.0
 11
58.06264420672243
 21
3.760823203189111
 31
0.0
  0
LINE
  5
53E
330
18
100
AcDbEntity
  8
1
 62
     1
100
AcDbLine
 10
58.06264420672243
 20
3.760823203189111
 30
0.0
 11
58.12418504576478
 21
3.817354463953407
 31
0.0
  0
LINE
  5
53F
330
18
100
AcDbEntity
  8
1
 62
     1
100
AcDbLine
 10
58.12418504576478
 20
3.817354463953407
 30
0.0
 11
58.18463719415089
 21
3.868462154092477
 31
0.0
  0
LINE
  5
540
330
18
100
AcDbEntity
  8
1
 62
     1
100
AcDbLine
 10
58.18463719415089
 20
3.868462154092477
 30
0.0
 11
58.24401653790309
 21
3.914168805265484
 31
0.0
  0
LINE
  5
541
330
18
100
AcDbEntity
  8
1
 62
     1
100
AcDbLine
 10
58.24401653790309
 20
3.914168805265484
 30
0.0
 11
58.30233465494979
 21
3.95450140856752
 31
0.0
  0
LINE
  5
542
330
18
100
AcDbEntity
  8
1
 62
     1
100
AcDbLine
 10
58.30233465494979
 20
3.95450140856752
 30
0.0
 11
58.35961232084603
 21
3.98950063924206
 31
0.0
  0
LINE
  5
543
330
18
100
AcDbEntity
  8
1
 62
     1
100
AcDbLine
 10
58.35961232084603
 20
3.98950063924206
 30
0.0
 11
58.41588127809737
 21
4.019217799456836
 31
0.0
  0
LINE
  5
544
330
18
100
AcDbEntity
  8
1
 62
     1
100
AcDbLine
 10
58.41588127809737
 20
4.019217799456836
 30
0.0
 11
58.44363391099363
 21
4.032106392894632
 31
0.0
  0
LINE
  5
545
330
18
100
AcDbEntity
  8
1
 62
     1
100
AcDbLine
 10
58.44363391099363
 20
4.032106392894632
 30
0.0
 11
58.47113247308103
 21
4.043688944709745
 31
0.0
  0
LINE
  5
546
330
18
100
AcDbEntity
  8
1
 62
     1
100
AcDbLine
 10
58.47113247308103
 20
5.0
 30
0.0
 11
58.47113247308103
 21
4.99979874845855
 31
0.0
  0
LINE
  5
547
330
18
100
AcDbEntity
  8
1
 62
     1
100
AcDbLine
 10
58.47113247308103
 20
4.99979874845855
 30
0.0
 11
58.47113247308103
 21
4.938597349332198
 31
0.0
  0
LINE
  5
548
330
18
100
AcDbEntity
  8
1
 62
     1
100
AcDbLine
 10
58.47113247308103
 20
4.938597349332198
 30
0.0
 11
58.47113247308103
 21
4.043688944709742
 31
0.0
  0
LINE
  5
549
330
18
100
AcDbEntity
  8
1
 62
     1
100
AcDbLine
 10
61.00000000000001
 20
1.723969505991894
 30
0.0
 11
61.00000000000001
 21
3.81848200082874
 31
0.0
  0
LINE
  5
54A
330
18
100
AcDbEntity
  8
1
 62
     1
100
AcDbLine
 10
61.00000000000001
 20
1.723969505991885
 30
0.0
 11
61.0269349249327
 21
1.715907727912368
 31
0.0
  0
LINE
  5
54B
330
18
100
AcDbEntity
  8
1
 62
     1
100
AcDbLine
 10
61.0269349249327
 20
1.715907727912368
 30
0.0
 11
61.05367469985688
 21
1.706652939975449
 31
0.0
  0
LINE
  5
54C
330
18
100
AcDbEntity
  8
1
 62
     1
100
AcDbLine
 10
61.05367469985688
 20
1.706652939975449
 30
0.0
 11
61.08021508408498
 21
1.696225297963106
 31
0.0
  0
LINE
  5
54D
330
18
100
AcDbEntity
  8
1
 62
     1
100
AcDbLine
 10
61.08021508408498
 20
1.696225297963106
 30
0.0
 11
61.10655183692948
 21
1.684644957657316
 31
0.0
  0
LINE
  5
54E
330
18
100
AcDbEntity
  8
1
 62
     1
100
AcDbLine
 10
61.10655183692948
 20
1.684644957657316
 30
0.0
 11
61.13268096766523
 21
1.671931953143464
 31
0.0
  0
LINE
  5
54F
330
18
100
AcDbEntity
  8
1
 62
     1
100
AcDbLine
 10
61.13268096766523
 20
1.671931953143464
 30
0.0
 11
61.15861258068377
 21
1.65809953292418
 31
0.0
  0
LINE
  5
550
330
18
100
AcDbEntity
  8
1
 62
     1
100
AcDbLine
 10
61.15861258068377
 20
1.65809953292418
 30
0.0
 11
61.18435164390785
 21
1.643163676133124
 31
0.0
  0
LINE
  5
551
330
18
100
AcDbEntity
  8
1
 62
     1
100
AcDbLine
 10
61.18435164390785
 20
1.643163676133124
 30
0.0
 11
61.23524009380631
 21
1.610061267907418
 31
0.0
  0
LINE
  5
552
330
18
100
AcDbEntity
  8
1
 62
     1
100
AcDbLine
 10
61.23524009380631
 20
1.610061267907418
 30
0.0
 11
61.28533879180273
 21
1.572772137543911
 31
0.0
  0
LINE
  5
553
330
18
100
AcDbEntity
  8
1
 62
     1
100
AcDbLine
 10
61.28533879180273
 20
1.572772137543911
 30
0.0
 11
61.33468334871282
 21
1.531413242175072
 31
0.0
  0
LINE
  5
554
330
18
100
AcDbEntity
  8
1
 62
     1
100
AcDbLine
 10
61.33468334871282
 20
1.531413242175072
 30
0.0
 11
61.37118924806101
 21
1.497814686288928
 31
0.0
  0
LINE
  5
555
330
18
100
AcDbEntity
  8
1
 62
     1
100
AcDbLine
 10
61.37118924806101
 20
1.497814686288928
 30
0.0
 11
61.40727293826781
 21
1.462062451644804
 31
0.0
  0
ARC
  5
556
330
18
100
AcDbEntity
  8
1
 62
     1
100
AcDbCircle
 10
81.92830544308961
 20
15.14441165671985
 30
0.0
 40
23.1553829180361
100
AcDbArc
 50
208.2392747707824
 51
210.6115562333909
  0
LINE
  5
557
330
18
100
AcDbEntity
  8
1
 62
     1
100
AcDbLine
 10
61.52886752691898
 20
4.188318837995349
 30
0.0
 11
61.528867526919
 21
1.331419837308714
 31
0.0
  0
LINE
  5
558
330
18
100
AcDbEntity
  8
1
 62
     1
100
AcDbLine
 10
61.52886752691896
 20
1.331419837308713
 30
0.0
 11
61.699353612311
 21
1.1657607513046
 31
0.0
  0
LINE
  5
559
330
18
100
AcDbEntity
  8
1
 62
     1
100
AcDbLine
 10
61.699353612311
 20
1.1657607513046
 30
0.0
 11
61.7005332458216
 21
1.164578999224721
 31
0.0
  0
LINE
  5
55A
330
18
100
AcDbEntity
  8
1
 62
     1
100
AcDbLine
 10
62.00000000000001
 20
0.8507765280997414
 30
0.0
 11
62.00000000000001
 21
3.35341879581888
 31
0.0
  0
ARC
  5
55B
330
18
100
AcDbEntity
  8
1
 62
     1
100
AcDbCircle
 10
61.30098983203688
 20
-0.1248419651062256
 30
0.0
 40
1.200199168902991
100
AcDbArc
 50
45.88464230765126
 51
54.37919700122144
  0
LINE
  5
55C
330
18
100
AcDbEntity
  8
1
 62
     1
100
AcDbLine
 10
62.47113247308104
 20
3.536833266455433
 30
0.0
 11
62.47113247308106
 21
0.3113472126808213
 31
0.0
  0
ARC
  5
55D
330
18
100
AcDbEntity
  8
1
 62
     1
100
AcDbCircle
 10
70.51724519854116
 20
7.128317142668081
 30
0.0
 40
8.312629769894116
100
AcDbArc
 50
212.7871675753291
 51
218.3673409037987
  0
LINE
  5
55E
330
18
100
AcDbEntity
  8
1
 62
     1
100
AcDbLine
 10
63.0
 20
-0.0633997195811814
 30
0.0
 11
63.00000000000001
 21
2.726815993601489
 31
0.0
  0
LINE
  5
55F
330
18
100
AcDbEntity
  8
1
 62
     1
100
AcDbLine
 10
63.0
 20
-0.0633997195811813
 30
0.0
 11
63.06264421340026
 21
-0.1365425526327339
 31
0.0
  0
LINE
  5
560
330
18
100
AcDbEntity
  8
1
 62
     1
100
AcDbLine
 10
63.06264421340026
 20
-0.1365425526327339
 30
0.0
 11
63.12418508739647
 21
-0.2151647227897513
 31
0.0
  0
LINE
  5
561
330
18
100
AcDbEntity
  8
1
 62
     1
100
AcDbLine
 10
63.12418508739647
 20
-0.2151647227897513
 30
0.0
 11
63.18463729216715
 21
-0.2989435902493499
 31
0.0
  0
LINE
  5
562
330
18
100
AcDbEntity
  8
1
 62
     1
100
AcDbLine
 10
63.18463729216715
 20
-0.2989435902493499
 30
0.0
 11
63.3023347500624
 21
-0.4807429013464463
 31
0.0
  0
LINE
  5
563
330
18
100
AcDbEntity
  8
1
 62
     1
100
AcDbLine
 10
63.3023347500624
 20
-0.4807429013464463
 30
0.0
 11
63.38787306270646
 21
-0.6284263083389747
 31
0.0
  0
LINE
  5
564
330
18
100
AcDbEntity
  8
1
 62
     1
100
AcDbLine
 10
63.38787306270646
 20
-0.6284263083389747
 30
0.0
 11
63.47113247308106
 21
-0.7848087987519845
 31
0.0
  0
ARC
  5
565
330
18
100
AcDbEntity
  8
1
 62
     1
100
AcDbCircle
 10
74.57971634888506
 20
10.38243262764528
 30
0.0
 40
13.8818001931041
100
AcDbArc
 50
209.7612192618199
 51
213.4696071332327
  0
ARC
  5
566
330
18
100
AcDbEntity
  8
1
 62
     1
100
AcDbCircle
 10
59.76394088495955
 20
-4.442123617845906
 30
0.0
 40
5.44447616471029
100
AcDbArc
 50
53.53405736308257
 51
59.47954428649634
  0
LINE
  5
567
330
18
100
AcDbEntity
  8
1
 62
     1
100
AcDbLine
 10
64.0
 20
-0.9745218768164432
 30
0.0
 11
64.0
 21
1.968858094776076
 31
0.0
  0
LINE
  5
568
330
18
100
AcDbEntity
  8
1
 62
     1
100
AcDbLine
 10
64.0
 20
-0.9745218768163659
 30
0.0
 11
64.12418511107853
 21
-1.168511545071803
 31
0.0
  0
LINE
  5
569
330
18
100
AcDbEntity
  8
1
 62
     1
100
AcDbLine
 10
64.12418511107853
 20
-1.168511545071803
 30
0.0
 11
64.24401666159471
 21
-1.379629818977153
 31
0.0
  0
LINE
  5
56A
330
18
100
AcDbEntity
  8
1
 62
     1
100
AcDbLine
 10
64.24401666159471
 20
-1.379629818977153
 30
0.0
 11
64.35961233362305
 21
-1.605276795477862
 31
0.0
  0
LINE
  5
56B
330
18
100
AcDbEntity
  8
1
 62
     1
100
AcDbLine
 10
64.35961233362305
 20
-1.605276795477862
 30
0.0
 11
64.47113247308104
 21
-1.843159219305345
 31
0.0
  0
LINE
  5
56C
330
18
100
AcDbEntity
  8
1
 62
     1
100
AcDbLine
 10
57.52886752691897
 20
5.0
 30
0.0
 11
57.52886752691896
 21
4.999905450980445
 31
0.0
  0
LINE
  5
56D
330
18
100
AcDbEntity
  8
1
 62
     1
100
AcDbLine
 10
57.52886752691896
 20
4.999905450980445
 30
0.0
 11
57.52886752691897
 21
4.971607238332496
 31
0.0
  0
LINE
  5
56E
330
18
100
AcDbEntity
  8
1
 62
     1
100
AcDbLine
 10
57.52886752691897
 20
4.971607238332496
 30
0.0
 11
57.52886752691897
 21
4.562243471311618
 31
0.0
  0
ARC
  5
56F
330
18
100
AcDbEntity
  8
1
 62
     1
100
AcDbCircle
 10
95.88281998151271
 20
-17.264296241429
 30
0.0
 40
46.13823567080232
100
AcDbArc
 50
151.1506112087971
 51
152.386265887927
  0
ARC
  5
570
330
18
100
AcDbEntity
  8
1
 62
     1
100
AcDbCircle
 10
-324.431133770058
 20
-237.8006813467504
 30
0.0
 40
449.9936604898959
100
AcDbArc
 50
32.52121886559274
 51
32.63265905022198
  0
ARC
  5
571
330
18
100
AcDbEntity
  8
1
 62
     1
100
AcDbCircle
 10
152.9115400218847
 20
79.62354497371027
 30
0.0
 40
124.5910037719323
100
AcDbArc
 50
217.1751542176727
 51
217.449513573484
  0
ARC
  5
572
330
18
100
AcDbEntity
  8
1
 62
     1
100
AcDbCircle
 10
0.1482128276165469
 20
30.35649766659272
 30
0.0
 40
60.01544027218011
100
AcDbArc
 50
333.8053942207623
 51
334.8426513179795
  0
LINE
  5
573
330
18
100
AcDbEntity
  8
1
 62
     1
100
AcDbLine
 10
52.87099148051543
 20
3.548611754757258
 30
0.0
 11
53.0
 21
3.421499908392474
 31
0.0
  0
ARC
  5
574
330
18
100
AcDbEntity
  8
1
 62
     1
100
AcDbCircle
 10
36.40828509283771
 20
11.52669650901167
 30
0.0
 40
18.46563457458675
100
AcDbArc
 50
333.9640897786368
 51
335.7242074430251
  0
ARC
  5
575
330
18
100
AcDbEntity
  8
1
 62
     1
100
AcDbCircle
 10
57.82667985831742
 20
1.557445709738946
 30
0.0
 40
7.593475425183369
100
AcDbArc
 50
232.8526387960032
 51
236.5259328307901
  0
LINE
  5
576
330
18
100
AcDbEntity
  8
1
 62
     1
100
AcDbLine
 10
53.63843325761118
 20
-4.776531636809707
 30
0.0
 11
53.63843325761118
 21
-4.81022667615456
 31
0.0
  0
ARC
  5
577
330
18
100
AcDbEntity
  8
1
 62
     1
100
AcDbCircle
 10
-65.00005002364168
 20
-73.69209913571177
 30
0.0
 40
151.5361182111006
100
AcDbArc
 50
30.92037729138155
 51
31.2653937344507
  0
LINE
  5
578
330
18
100
AcDbEntity
  8
1
 62
     1
100
AcDbLine
 10
65.39799437221569
 20
4.873321152396191
 30
0.0
 11
65.39799437221569
 21
4.873319731342814
 31
0.0
  0
LINE
  5
579
330
18
100
AcDbEntity
  8
1
 62
     1
100
AcDbLine
 10
65.39799437221569
 20
4.873319731342814
 30
0.0
 11
65.39799437221569
 21
4.87290839892454
 31
0.0
  0
LINE
  5
57A
330
18
100
AcDbEntity
  8
1
 62
     1
100
AcDbLine
 10
65.39799437221569
 20
4.87290839892454
 30
0.0
 11
65.39799437221569
 21
4.867386379798694
 31
0.0
  0
LINE
  5
57B
330
18
100
AcDbEntity
  8
1
 62
     1
100
AcDbLine
 10
65.64027869630712
 20
4.807030284061248
 30
0.0
 11
65.64027869630713
 21
4.807024797650707
 31
0.0
  0
LINE
  5
57C
330
18
100
AcDbEntity
  8
1
 62
     1
100
AcDbLine
 10
65.64027869630713
 20
4.807024797650707
 30
0.0
 11
65.64027869630712
 21
4.805428980854307
 31
0.0
  0
LINE
  5
57D
330
18
100
AcDbEntity
  8
1
 62
     1
100
AcDbLine
 10
65.64027869630712
 20
4.805428980854307
 30
0.0
 11
65.64027869630712
 21
4.783701772200411
 31
0.0
  0
LINE
  5
57E
330
18
100
AcDbEntity
  8
1
 62
     1
100
AcDbLine
 10
66.0
 20
4.136161654424611
 30
0.0
 11
65.99999999999999
 21
4.183974998657825
 31
0.0
  0
ARC
  5
57F
330
18
100
AcDbEntity
  8
1
 62
     1
100
AcDbCircle
 10
73.05209890068468
 20
-0.3935569883626382
 30
0.0
 40
8.38152868008705
100
AcDbArc
 50
144.1144911236914
 51
147.2864723159102
  0
LINE
  5
580
330
18
100
AcDbEntity
  8
1
 62
     1
100
AcDbLine
 10
66.26157640737013
 20
4.637038416385413
 30
0.0
 11
66.26157640737013
 21
4.637011828307853
 31
0.0
  0
LINE
  5
581
330
18
100
AcDbEntity
  8
1
 62
     1
100
AcDbLine
 10
66.26157640737013
 20
4.637011828307853
 30
0.0
 11
66.26157640737013
 21
4.629185695626391
 31
0.0
  0
LINE
  5
582
330
18
100
AcDbEntity
  8
1
 62
     1
100
AcDbLine
 10
66.26157640737013
 20
4.629185695626391
 30
0.0
 11
66.26157640737013
 21
4.519344614213123
 31
0.0
  0
LINE
  5
583
330
18
100
AcDbEntity
  8
1
 62
     1
100
AcDbLine
 10
66.82788142644151
 20
4.482092975331985
 30
0.0
 11
66.82788142644151
 21
4.482035654769444
 31
0.0
  0
LINE
  5
584
330
18
100
AcDbEntity
  8
1
 62
     1
100
AcDbLine
 10
66.82788142644151
 20
4.482035654769444
 30
0.0
 11
66.82788142644151
 21
4.464990394881643
 31
0.0
  0
LINE
  5
585
330
18
100
AcDbEntity
  8
1
 62
     1
100
AcDbLine
 10
66.82788142644151
 20
4.464990394881643
 30
0.0
 11
66.82788142644151
 21
4.220803819291288
 31
0.0
  0
LINE
  5
586
330
18
100
AcDbEntity
  8
1
 62
     1
100
AcDbLine
 10
66.82788142644151
 20
4.220803819291279
 30
0.0
 11
66.99999999999999
 21
3.898943257356719
 31
0.0
  0
ARC
  5
587
330
18
100
AcDbEntity
  8
1
 62
     1
100
AcDbCircle
 10
52.67043940127299
 20
14.41596260173215
 30
0.0
 40
22.84025336309538
100
AcDbArc
 50
306.5164713628656
 51
308.304869146364
  0
LINE
  5
588
330
18
100
AcDbEntity
  8
1
 62
     1
100
AcDbLine
 10
65.64027869630715
 20
-4.376382601449578
 30
0.0
 11
65.39799437221569
 21
-4.532600136435768
 31
0.0
  0
LINE
  5
589
330
18
100
AcDbEntity
  8
1
 62
     1
100
AcDbLine
 10
67.0
 20
3.898943257356716
 30
0.0
 11
67.0
 21
4.183975
 31
0.0
  0
LINE
  5
58A
330
18
100
AcDbEntity
  8
1
 62
     1
100
AcDbLine
 10
67.0
 20
-0.2122084014710058
 30
0.0
 11
67.0
 21
-0.7071611102440276
 31
0.0
  0
LINE
  5
58B
330
18
100
AcDbEntity
  8
1
 62
     1
100
AcDbLine
 10
67.0
 20
-3.263973894710356
 30
0.0
 11
67.0
 21
-0.7071611102440274
 31
0.0
  0
ARC
  5
58C
330
18
100
AcDbEntity
  8
1
 62
     1
100
AcDbCircle
 10
-1079.756631244002
 20
579.8588993880129
 30
0.0
 40
1280.539021932987
100
AcDbArc
 50
333.2760879976519
 51
333.3229630843671
  0
ARC
  5
58D
330
18
100
AcDbEntity
  8
1
 62
     1
100
AcDbCircle
 10
79.83761062652093
 20
-16.75092273245507
 30
0.0
 40
26.41369919635325
100
AcDbArc
 50
149.8389784233099
 51
151.9391110195656
  0
ARC
  5
58E
330
18
100
AcDbEntity
  8
1
 62
     1
100
AcDbCircle
 10
34.26916886517848
 20
17.60479573880838
 30
0.0
 40
31.93853702323769
100
AcDbArc
 50
334.1013858384522
 51
336.1075303925242
  0
LINE
  5
58F
330
18
100
AcDbEntity
  8
1
 62
     1
100
AcDbLine
 10
63.47113247308106
 20
-4.995539339367575
 30
0.0
 11
63.47113247308106
 21
-5.0
 31
0.0
  0
LINE
  5
590
330
18
100
AcDbEntity
  8
1
 62
     1
100
AcDbLine
 10
62.47113247308105
 20
-4.829153118776679
 30
0.0
 11
62.47113247308105
 21
-5.0
 31
0.0
  0
LINE
  5
591
330
18
100
AcDbEntity
  8
1
 62
     1
100
AcDbLine
 10
61.47113247308106
 20
-4.430138747035427
 30
0.0
 11
61.47113247308105
 21
-5.0
 31
0.0
  0
LINE
  5
592
330
18
100
AcDbEntity
  8
1
 62
     1
100
AcDbLine
 10
57.47113247308104
 20
-1.03747216932731
 30
0.0
 11
57.47113247308104
 21
-4.015467442874686
 31
0.0
  0
LINE
  5
593
330
18
100
AcDbEntity
  8
1
 62
     1
100
AcDbLine
 10
56.52886752691898
 20
-0.0089347921520681
 30
0.0
 11
56.47113247308103
 21
0.0545504179213468
 31
0.0
  0
LINE
  5
594
330
18
100
AcDbEntity
  8
1
 62
     1
100
AcDbLine
 10
56.47113247308104
 20
0.0545504179213172
 30
0.0
 11
56.47113247308103
 21
-3.26881093742758
 31
0.0
  0
LINE
  5
595
330
18
100
AcDbEntity
  8
1
 62
     1
100
AcDbLine
 10
55.47113247308103
 20
1.143945215372062
 30
0.0
 11
55.47113247308104
 21
-2.364690586157837
 31
0.0
  0
LINE
  5
596
330
18
100
AcDbEntity
  8
1
 62
     1
100
AcDbLine
 10
54.52886752691896
 20
2.120915158674559
 30
0.0
 11
54.52886752691897
 21
-1.407689325201622
 31
0.0
  0
LINE
  5
597
330
18
100
AcDbEntity
  8
1
 62
     1
100
AcDbLine
 10
54.47113247308103
 20
2.178234358111016
 30
0.0
 11
54.47113247308103
 21
-1.346659264537733
 31
0.0
  0
ARC
  5
598
330
18
100
AcDbEntity
  8
1
 62
     1
100
AcDbCircle
 10
258.6719831605745
 20
139.4164226472195
 30
0.0
 40
237.1323128670671
100
AcDbArc
 50
214.6208836840265
 51
214.8208002968606
  0
ARC
  5
599
330
18
100
AcDbEntity
  8
1
 62
     1
100
AcDbCircle
 10
43.46628175605278
 20
12.07566066446265
 30
0.0
 40
20.58495741732133
100
AcDbArc
 50
335.1667467125166
 51
337.4034572151355
  0
ARC
  5
59A
330
18
100
AcDbEntity
  8
1
 62
     1
100
AcDbCircle
 10
62.26593149775701
 20
0.6325673502142433
 30
0.0
 40
8.691888066961749
100
AcDbArc
 50
213.2863169895726
 51
218.5773215330792
  0
ARC
  5
59B
330
18
100
AcDbEntity
  8
1
 62
     1
100
AcDbCircle
 10
2726.064085181356
 20
-1495.44049230142
 30
0.0
 40
3059.177614204956
100
AcDbArc
 50
150.824597875629
 51
150.8427004297897
  0
ARC
  5
59C
330
18
100
AcDbEntity
  8
1
 62
     1
100
AcDbCircle
 10
12.73604600286269
 20
20.14864209328182
 30
0.0
 40
47.89854263003311
100
AcDbArc
 50
328.6426272338339
 51
329.4838217518946
  0
LINE
  5
59D
330
18
100
AcDbEntity
  8
1
 62
     1
100
AcDbLine
 10
54.0
 20
-4.183975
 30
0.0
 11
53.63843325761118
 21
-4.810226676154563
 31
0.0
  0
LINE
  5
59E
330
18
100
AcDbEntity
  8
1
 62
     1
100
AcDbLine
 10
54.0
 20
-4.183975
 30
0.0
 11
54.0
 21
-4.183972483919713
 31
0.0
  0
LINE
  5
59F
330
18
100
AcDbEntity
  8
1
 62
     1
100
AcDbLine
 10
54.0
 20
-4.183972483919713
 30
0.0
 11
54.0
 21
-4.183242602681345
 31
0.0
  0
LINE
  5
5A0
330
18
100
AcDbEntity
  8
1
 62
     1
100
AcDbLine
 10
54.0
 20
-4.183242602681345
 30
0.0
 11
53.99999999999999
 21
-4.173381168320401
 31
0.0
  0
LINE
  5
5A1
330
18
100
AcDbEntity
  8
1
 62
     1
100
AcDbLine
 10
54.22680803608087
 20
-4.576817858893875
 30
0.0
 11
54.0
 21
-4.183975
 31
0.0
  0
ARC
  5
5A2
330
18
100
AcDbEntity
  8
1
 62
     1
100
AcDbCircle
 10
102.9105882534911
 20
-29.98649008446486
 30
0.0
 40
53.67467279789543
100
AcDbArc
 50
150.9246723926639
 51
151.9767741496124
  0
LINE
  5
5A3
330
18
100
AcDbEntity
  8
1
 62
     1
100
AcDbLine
 10
52.87099148051541
 20
-4.201512388112351
 30
0.0
 11
52.87099148051542
 21
-4.407424206173255
 31
0.0
  0
LINE
  5
5A4
330
18
100
AcDbEntity
  8
1
 62
     1
100
AcDbLine
 10
53.0
 20
-4.183975
 30
0.0
 11
52.99999999999999
 21
-4.183935913827717
 31
0.0
  0
LINE
  5
5A5
330
18
100
AcDbEntity
  8
1
 62
     1
100
AcDbLine
 10
52.99999999999999
 20
-4.183935913827717
 30
0.0
 11
53.0
 21
-4.172364493790049
 31
0.0
  0
LINE
  5
5A6
330
18
100
AcDbEntity
  8
1
 62
     1
100
AcDbLine
 10
53.0
 20
-4.172364493790049
 30
0.0
 11
52.99999999999999
 21
-4.00794981983332
 31
0.0
  0
LINE
  5
5A7
330
18
100
AcDbEntity
  8
1
 62
     1
100
AcDbLine
 10
53.24118991596139
 20
-4.495252976254037
 30
0.0
 11
53.24118991596139
 21
-4.601727993940918
 31
0.0
  0
ARC
  5
5A8
330
18
100
AcDbEntity
  8
1
 62
     1
100
AcDbCircle
 10
44.50322465607533
 20
-7.686776018896757
 30
0.0
 40
11.70335126643691
100
AcDbArc
 50
38.68788303213698
 51
41.70111842503395
  0
LINE
  5
5A9
330
18
100
AcDbEntity
  8
1
 62
     1
100
AcDbLine
 10
53.63843325761118
 20
2.880474766828865
 30
0.0
 11
53.63843325761117
 21
-0.3712652449036276
 31
0.0
  0
ARC
  5
5AA
330
18
100
AcDbEntity
  8
1
 62
     1
100
AcDbCircle
 10
51.39888534364842
 20
-0.7022685881879385
 30
0.0
 40
4.225105179375623
100
AcDbArc
 50
57.99078381409694
 51
64.14821384119014
  0
LINE
  5
5AB
330
18
100
AcDbEntity
  8
1
 62
     1
100
AcDbLine
 10
52.87099148051543
 20
0.489442576043373
 30
0.0
 11
52.73898715188247
 21
0.6171948026503755
 31
0.0
  0
LINE
  5
5AC
330
18
100
AcDbEntity
  8
1
 62
     1
100
AcDbLine
 10
52.73898715188247
 20
0.6171948026503755
 30
0.0
 11
52.73898144647406
 21
0.6172001905523165
 31
0.0
  0
LINE
  5
5AD
330
18
100
AcDbEntity
  8
1
 62
     1
100
AcDbLine
 10
52.87099148051541
 20
3.253800572766397
 30
0.0
 11
52.87099148051542
 21
0.4894425760433731
 31
0.0
  0
LINE
  5
5AE
330
18
100
AcDbEntity
  8
1
 62
     1
100
AcDbLine
 10
51.14211617
 20
-2.095270409673386
 30
0.0
 11
51.14211617000001
 21
1.661645640875077
 31
0.0
  0
ARC
  5
5AF
330
18
100
AcDbEntity
  8
1
 62
     1
100
AcDbCircle
 10
89.22769823195169
 20
11.52291557212749
 30
0.0
 40
33.16625658825764
100
AcDbArc
 50
208.2069059737453
 51
209.6601028843789
  0
LINE
  5
5B0
330
18
100
AcDbEntity
  8
1
 62
     1
100
AcDbLine
 10
59.52886752691899
 20
-4.913959084941425
 30
0.0
 11
59.47113247315559
 21
-4.901836242820042
 31
0.0
  0
LINE
  5
5B1
330
18
100
AcDbEntity
  8
1
 62
     1
100
AcDbLine
 10
58.52886752691897
 20
-4.594118266019084
 30
0.0
 11
58.47113247308104
 21
-4.568692482901264
 31
0.0
  0
ARC
  5
5B2
330
18
100
AcDbEntity
  8
1
 62
     1
100
AcDbCircle
 10
79.48993056385595
 20
-23.88059096829038
 30
0.0
 40
29.5875804584058
100
AcDbArc
 50
136.5780491617288
 51
137.9225919092992
  0
LINE
  5
5B3
330
18
100
AcDbEntity
  8
1
 62
     1
100
AcDbLine
 10
57.52886752929874
 20
-4.05297127212585
 30
0.0
 11
57.47113247308102
 21
-4.015467442874681
 31
0.0
  0
ARC
  5
5B4
330
18
100
AcDbEntity
  8
1
 62
     1
100
AcDbCircle
 10
63.30933269135075
 20
-12.10444075927656
 30
0.0
 40
11.09964133483107
100
AcDbArc
 50
124.6398179396012
 51
127.6527830144012
  0
LINE
  5
5B5
330
18
100
AcDbEntity
  8
1
 62
     1
100
AcDbLine
 10
56.52886752691895
 20
-3.316586196028026
 30
0.0
 11
56.47113247308103
 21
-3.268810937427582
 31
0.0
  0
ARC
  5
5B6
330
18
100
AcDbEntity
  8
1
 62
     1
100
AcDbCircle
 10
57.46258896179168
 20
-7.277492363301233
 30
0.0
 40
5.227885839938693
100
AcDbArc
 50
106.2454984809278
 51
111.7087972308561
  0
LINE
  5
5B7
330
18
100
AcDbEntity
  8
1
 62
     1
100
AcDbLine
 10
55.52886752691897
 20
-2.420435881584855
 30
0.0
 11
55.47113247308102
 21
-2.36469058615784
 31
0.0
  0
ARC
  5
5B8
330
18
100
AcDbEntity
  8
1
 62
     1
100
AcDbCircle
 10
54.54564182792073
 20
-5.106686076555384
 30
0.0
 40
3.699092839136324
100
AcDbArc
 50
82.9451136163933
 51
90.25982452220317
  0
LINE
  5
5B9
330
18
100
AcDbEntity
  8
1
 62
     1
100
AcDbLine
 10
54.52886752691898
 20
-1.407689325148631
 30
0.0
 11
54.47113247308104
 21
-1.346659264537733
 31
0.0
  0
ARC
  5
5BA
330
18
100
AcDbEntity
  8
1
 62
     1
100
AcDbCircle
 10
51.75683215480574
 20
-4.78580370302516
 30
0.0
 40
4.798834102382061
100
AcDbArc
 50
62.13250557388893
 51
66.91492622147886
  0
ARC
  5
5BB
330
18
100
AcDbEntity
  8
1
 62
     1
100
AcDbCircle
 10
51.7096649680509
 20
-0.9936469462250592
 30
0.0
 40
1.880869361430809
100
AcDbArc
 50
35.49984709014201
 51
46.68139757030825
  0
LINE
  5
5BC
330
18
100
AcDbEntity
  8
1
 62
     1
100
AcDbLine
 10
52.87099148051543
 20
-4.201512388112352
 30
0.0
 11
52.45052989309817
 21
-3.836773260468422
 31
0.0
  0
LINE
  5
5BD
330
18
100
AcDbEntity
  8
1
 62
     1
100
AcDbLine
 10
52.45052989309817
 20
-3.836773260468422
 30
0.0
 11
51.14211617
 21
-2.564198473273087
 31
0.0
  0
LINE
  5
5BE
330
18
100
AcDbEntity
  8
1
 62
     1
100
AcDbLine
 10
52.87099148051541
 20
-4.201512388112361
 30
0.0
 11
53.0
 21
-4.007949819833321
 31
0.0
  0
ARC
  5
5BF
330
18
100
AcDbEntity
  8
1
 62
     1
100
AcDbCircle
 10
98.7041365897567
 20
18.30820831329423
 30
0.0
 40
50.86136800156872
100
AcDbArc
 50
206.0250707872432
 51
206.6375848456708
  0
ARC
  5
5C0
330
18
100
AcDbEntity
  8
1
 62
     1
100
AcDbCircle
 10
72.65092081708701
 20
6.045373318702554
 30
0.0
 40
21.26686733824866
100
AcDbArc
 50
208.7181338619122
 51
209.965059786326
  0
ARC
  5
5C1
330
18
100
AcDbEntity
  8
1
 62
     1
100
AcDbCircle
 10
68.67067655530751
 20
3.75299052381235
 30
0.0
 40
16.67365806747651
100
AcDbArc
 50
209.9721364115035
 51
211.6120399765063
  0
LINE
  5
5C2
330
18
100
AcDbEntity
  8
1
 62
     1
100
AcDbLine
 10
54.52886752691897
 20
-4.981718748669492
 30
0.0
 11
54.47113247308104
 21
-4.986740982202563
 31
0.0
  0
LINE
  5
5C3
330
18
100
AcDbEntity
  8
1
 62
     1
100
AcDbLine
 10
55.52886752691896
 20
-4.76853985149852
 30
0.0
 11
55.47113247308103
 21
-4.787247451414551
 31
0.0
  0
ARC
  5
5C4
330
18
100
AcDbEntity
  8
1
 62
     1
100
AcDbCircle
 10
58.93039298320131
 20
-1.340282365516762
 30
0.0
 40
3.892709953710922
100
AcDbArc
 50
221.1689491912355
 51
230.8140566819122
  0
LINE
  5
5C5
330
18
100
AcDbEntity
  8
1
 62
     1
100
AcDbLine
 10
56.52886752691897
 20
-4.325652709307588
 30
0.0
 11
56.47113247308103
 21
-4.357144512869093
 31
0.0
  0
ARC
  5
5C6
330
18
100
AcDbEntity
  8
1
 62
     1
100
AcDbCircle
 10
58.11178094684801
 20
-1.885760959250775
 30
0.0
 40
1.943506492922193
100
AcDbArc
 50
235.107513168246
 51
245.9610609228097
  0
LINE
  5
5C7
330
18
100
AcDbEntity
  8
1
 62
     1
100
AcDbLine
 10
67.0
 20
-0.2122084014710069
 30
0.0
 11
66.99999999999999
 21
3.898943257356739
 31
0.0
  0
LINE
  5
5C8
330
18
100
AcDbEntity
  8
1
 62
     1
100
AcDbLine
 10
65.64027869630713
 20
4.783701772200413
 30
0.0
 11
66.0
 21
4.13616165442461
 31
0.0
  0
ARC
  5
5C9
330
18
100
AcDbEntity
  8
1
 62
     1
100
AcDbCircle
 10
91.75654021537483
 20
-10.63141977007204
 30
0.0
 40
30.57966863635108
100
AcDbArc
 50
150.1178217194079
 51
151.0423420304077
  0
LINE
  5
5CA
330
18
100
AcDbEntity
  8
1
 62
     1
100
AcDbLine
 10
64.52886752691896
 20
4.955600479373933
 30
0.0
 11
64.47113247308104
 21
4.946759490007991
 31
0.0
  0
LINE
  5
5CB
330
18
100
AcDbEntity
  8
1
 62
     1
100
AcDbLine
 10
63.52886752691896
 20
4.691200969880473
 30
0.0
 11
63.47113247308106
 21
4.668858112682265
 31
0.0
  0
ARC
  5
5CC
330
18
100
AcDbEntity
  8
1
 62
     1
100
AcDbCircle
 10
92.20944612801199
 20
29.34534997200952
 30
0.0
 40
38.89970262346425
100
AcDbArc
 50
220.2703101421342
 51
221.3326562654197
  0
LINE
  5
5CD
330
18
100
AcDbEntity
  8
1
 62
     1
100
AcDbLine
 10
62.52886752691899
 20
4.200818740533173
 30
0.0
 11
62.47113247308105
 21
4.166050260922145
 31
0.0
  0
LINE
  5
5CE
330
18
100
AcDbEntity
  8
1
 62
     1
100
AcDbLine
 10
59.52886752691897
 20
4.952494377442655
 30
0.0
 11
59.47113247308103
 21
4.960825642572772
 31
0.0
  0
LINE
  5
5CF
330
18
100
AcDbEntity
  8
1
 62
     1
100
AcDbLine
 10
60.52886752691899
 20
4.683205409780722
 30
0.0
 11
60.47113246672021
 21
4.705065968022522
 31
0.0
  0
ARC
  5
5D0
330
18
100
AcDbEntity
  8
1
 62
     1
100
AcDbCircle
 10
63.31749194521646
 20
1.598733922675758
 30
0.0
 40
3.208954692951461
100
AcDbArc
 50
125.1326738054179
 51
136.2341081653643
  0
LINE
  5
5D1
330
18
100
AcDbEntity
  8
1
 62
     1
100
AcDbLine
 10
61.52886752691901
 20
4.18831883799535
 30
0.0
 11
61.471132473682
 21
4.222655659404286
 31
0.0
  0
ARC
  5
5D2
330
18
100
AcDbEntity
  8
1
 62
     1
100
AcDbCircle
 10
62.79295748661286
 20
2.018439029636904
 30
0.0
 40
1.552622288415622
100
AcDbArc
 50
101.966793706877
 51
120.7096616056658
  0
LINE
  5
5D3
330
18
100
AcDbEntity
  8
1
 62
     1
100
AcDbLine
 10
62.52886752691898
 20
3.491674180804935
 30
0.0
 11
62.47113247308104
 21
3.536833266455433
 31
0.0
  0
ARC
  5
5D4
330
18
100
AcDbEntity
  8
1
 62
     1
100
AcDbCircle
 10
63.12182573880966
 20
1.549780303352645
 30
0.0
 40
1.183354876164765
100
AcDbArc
 50
72.83475370461785
 51
95.90919586023847
  0
LINE
  5
5D5
330
18
100
AcDbEntity
  8
1
 62
     1
100
AcDbLine
 10
63.52886752691895
 20
2.626829968937244
 30
0.0
 11
63.47113247308104
 21
2.680635827360246
 31
0.0
  0
ARC
  5
5D6
330
18
100
AcDbEntity
  8
1
 62
     1
100
AcDbCircle
 10
63.36371081369837
 20
0.3361202308362283
 30
0.0
 40
1.752475223868631
100
AcDbArc
 50
50.82797766785195
 51
68.7087949277102
  0
LINE
  5
5D7
330
18
100
AcDbEntity
  8
1
 62
     1
100
AcDbLine
 10
64.52886752691896
 20
1.635447159259164
 30
0.0
 11
64.47113247308106
 21
1.695307864390269
 31
0.0
  0
ARC
  5
5D8
330
18
100
AcDbEntity
  8
1
 62
     1
100
AcDbCircle
 10
63.16681761896779
 20
-1.063486632820106
 30
0.0
 40
2.847978350716638
100
AcDbArc
 50
46.72338763071458
 51
49.93330005608272
  0
LINE
  5
5D9
330
18
100
AcDbEntity
  8
1
 62
     1
100
AcDbLine
 10
65.64027869630713
 20
0.4659510131317617
 30
0.0
 11
65.39799437221569
 21
0.715946465590108
 31
0.0
  0
ARC
  5
5DA
330
18
100
AcDbEntity
  8
1
 62
     1
100
AcDbCircle
 10
67.2685873489647
 20
0.6999205934637553
 30
0.0
 40
1.432502107009588
100
AcDbArc
 50
252.0825140463244
 51
259.1932360663305
  0
ARC
  5
5DB
330
18
100
AcDbEntity
  8
1
 62
     1
100
AcDbCircle
 10
69.54810129504166
 20
-9.877369245949689
 30
0.0
 40
8.083284417677632
100
AcDbArc
 50
116.0361084973252
 51
118.9107148322857
  0
ARC
  5
5DC
330
18
100
AcDbEntity
  8
1
 62
     1
100
AcDbCircle
 10
65.30506853387715
 20
-5.913404439769963
 30
0.0
 40
4.085841113011139
100
AcDbArc
 50
94.28168201962905
 51
100.951375928563
  0
LINE
  5
5DD
330
18
100
AcDbEntity
  8
1
 62
     1
100
AcDbLine
 10
64.52886752691896
 20
-1.902024313981794
 30
0.0
 11
64.47113247308107
 21
-1.843159219305311
 31
0.0
  0
ARC
  5
5DE
330
18
100
AcDbEntity
  8
1
 62
     1
100
AcDbCircle
 10
62.76892724548564
 20
-4.590907718577158
 30
0.0
 40
3.819882333370109
100
AcDbArc
 50
71.20064470148475
 51
78.5246371753114
  0
LINE
  5
5DF
330
18
100
AcDbEntity
  8
1
 62
     1
100
AcDbLine
 10
63.52886752691897
 20
-0.8474432518220527
 30
0.0
 11
63.47113247308106
 21
-0.7848087987519061
 31
0.0
  0
LINE
  5
5E0
330
18
100
AcDbEntity
  8
1
 62
     1
100
AcDbLine
 10
62.52886752691897
 20
0.2479605818248259
 30
0.0
 11
62.47113247308103
 21
0.311347212680846
 31
0.0
  0
LINE
  5
5E1
330
18
100
AcDbEntity
  8
1
 62
     1
100
AcDbLine
 10
61.52886752691897
 20
1.33141983730871
 30
0.0
 11
61.47113247308104
 21
1.392505196552533
 31
0.0
  0
LINE
  5
5E2
330
18
100
AcDbEntity
  8
1
 62
     1
100
AcDbLine
 10
60.52886752691898
 20
2.350742513940991
 30
0.0
 11
60.47113247308104
 21
2.406583979282645
 31
0.0
  0
ARC
  5
5E3
330
18
100
AcDbEntity
  8
1
 62
     1
100
AcDbCircle
 10
41.20240450233312
 20
-8.886223352018042
 30
0.0
 40
21.98439649677532
100
AcDbArc
 50
31.23591521971734
 51
33.52831395196714
  0
LINE
  5
5E4
330
18
100
AcDbEntity
  8
1
 62
     1
100
AcDbLine
 10
59.52886752691897
 20
3.256826142539267
 30
0.0
 11
59.47113247308104
 21
3.304733685875077
 31
0.0
  0
ARC
  5
5E5
330
18
100
AcDbEntity
  8
1
 62
     1
100
AcDbCircle
 10
31.46339197817034
 20
-12.03498149321261
 30
0.0
 40
31.46195008865397
100
AcDbArc
 50
28.92728004572056
 51
30.65412144075886
  0
LINE
  5
5E6
330
18
100
AcDbEntity
  8
1
 62
     1
100
AcDbLine
 10
58.52886752691897
 20
4.006023152049162
 30
0.0
 11
58.47113247308101
 21
4.043688944709748
 31
0.0
  0
ARC
  5
5E7
330
18
100
AcDbEntity
  8
1
 62
     1
100
AcDbCircle
 10
19.71106902940831
 20
-16.63482034632865
 30
0.0
 40
43.35321607153755
100
AcDbArc
 50
27.97093007115241
 51
29.27084683476091
  0
LINE
  5
5E8
330
18
100
AcDbEntity
  8
1
 62
     1
100
AcDbLine
 10
57.52886752691897
 20
4.562243471311615
 30
0.0
 11
57.47113247308101
 21
4.587853081352719
 31
0.0
  0
ARC
  5
5E9
330
18
100
AcDbEntity
  8
1
 62
     1
100
AcDbCircle
 10
3.924982101171942
 20
-24.40554655723648
 30
0.0
 40
60.21549798023212
100
AcDbArc
 50
28.18603372355297
 51
29.12102839424038
  0
LINE
  5
5EA
330
18
100
AcDbEntity
  8
1
 62
     1
100
AcDbLine
 10
56.52886752691897
 20
4.898693073825219
 30
0.0
 11
56.47113247308101
 21
4.911012904998369
 31
0.0
  0
LINE
  5
5EB
330
18
100
AcDbEntity
  8
1
 62
     1
100
AcDbLine
 10
55.52886752691899
 20
4.99916470834571
 30
0.0
 11
55.69245454452654
 21
4.716659106820537
 31
0.0
  0
LINE
  5
5EC
330
18
100
AcDbEntity
  8
1
 62
     1
100
AcDbLine
 10
55.69245454452654
 20
4.716659106820537
 30
0.0
 11
55.69245530871058
 21
4.716657783215608
 31
0.0
  0
LINE
  5
5ED
330
18
100
AcDbEntity
  8
1
 62
     1
100
AcDbLine
 10
55.52886752691897
 20
4.999164708345702
 30
0.0
 11
55.47113247308103
 21
4.997601355757069
 31
0.0
  0
LINE
  5
5EE
330
18
100
AcDbEntity
  8
1
 62
     1
100
AcDbLine
 10
54.52886752691896
 20
4.858818558148014
 30
0.0
 11
54.47113247308103
 21
4.843447330718877
 31
0.0
  0
LINE
  5
5EF
330
18
100
AcDbEntity
  8
1
 62
     1
100
AcDbLine
 10
52.87099148051541
 20
3.253800572766398
 30
0.0
 11
52.66172773747415
 21
3.319213209044191
 31
0.0
  0
LINE
  5
5F0
330
18
100
AcDbEntity
  8
1
 62
     1
100
AcDbLine
 10
52.66172773747415
 20
3.319213209044191
 30
0.0
 11
52.55636674210273
 21
3.346296731851022
 31
0.0
  0
LINE
  5
5F1
330
18
100
AcDbEntity
  8
1
 62
     1
100
AcDbLine
 10
52.55636674210273
 20
3.346296731851022
 30
0.0
 11
52.45052993065489
 21
3.369580115582851
 31
0.0
  0
LINE
  5
5F2
330
18
100
AcDbEntity
  8
1
 62
     1
100
AcDbLine
 10
52.45052993065489
 20
3.369580115582851
 30
0.0
 11
52.34419053614619
 21
3.389039278245539
 31
0.0
  0
LINE
  5
5F3
330
18
100
AcDbEntity
  8
1
 62
     1
100
AcDbLine
 10
52.34419053614619
 20
3.389039278245539
 30
0.0
 11
52.23737397764085
 21
3.404641950357009
 31
0.0
  0
LINE
  5
5F4
330
18
100
AcDbEntity
  8
1
 62
     1
100
AcDbLine
 10
52.23737397764085
 20
3.404641950357009
 30
0.0
 11
52.13006400783553
 21
3.416363457237135
 31
0.0
  0
LINE
  5
5F5
330
18
100
AcDbEntity
  8
1
 62
     1
100
AcDbLine
 10
52.13006400783553
 20
3.416363457237135
 30
0.0
 11
52.02225375204243
 21
3.424186510499531
 31
0.0
  0
LINE
  5
5F6
330
18
100
AcDbEntity
  8
1
 62
     1
100
AcDbLine
 10
52.02225375204243
 20
3.424186510499531
 30
0.0
 11
51.91396790568168
 21
3.428091151976535
 31
0.0
  0
LINE
  5
5F7
330
18
100
AcDbEntity
  8
1
 62
     1
100
AcDbLine
 10
51.91396790568168
 20
3.428091151976535
 30
0.0
 11
51.80517481343411
 21
3.428064146986149
 31
0.0
  0
LINE
  5
5F8
330
18
100
AcDbEntity
  8
1
 62
     1
100
AcDbLine
 10
51.80517481343411
 20
3.428064146986149
 30
0.0
 11
51.6958894243778
 21
3.424098666550195
 31
0.0
  0
LINE
  5
5F9
330
18
100
AcDbEntity
  8
1
 62
     1
100
AcDbLine
 10
51.6958894243778
 20
3.424098666550195
 30
0.0
 11
51.5861236461407
 21
3.416187443838754
 31
0.0
  0
LINE
  5
5FA
330
18
100
AcDbEntity
  8
1
 62
     1
100
AcDbLine
 10
51.5861236461407
 20
3.416187443838754
 30
0.0
 11
51.36509047101317
 21
3.388531019534981
 31
0.0
  0
LINE
  5
5FB
330
18
100
AcDbEntity
  8
1
 62
     1
100
AcDbLine
 10
51.36509047101317
 20
3.388531019534981
 30
0.0
 11
51.14211617000002
 21
3.345146653020368
 31
0.0
  0
LINE
  5
5FC
330
18
100
AcDbEntity
  8
1
 62
     1
100
AcDbLine
 10
52.87099148051543
 20
3.253800572766412
 30
0.0
 11
52.99999999999999
 21
3.04392143822584
 31
0.0
  0
ARC
  5
5FD
330
18
100
AcDbEntity
  8
1
 62
     1
100
AcDbCircle
 10
53.41419007293296
 20
1.809410786376778
 30
0.0
 40
1.302130554112519
100
AcDbArc
 50
97.63514682301576
 51
108.5470930079956
  0
ARC
  5
5FE
330
18
100
AcDbEntity
  8
1
 62
     1
100
AcDbCircle
 10
53.78941475734016
 20
1.001892811264382
 30
0.0
 40
1.359005033706284
100
AcDbArc
 50
59.90669486764586
 51
81.08509476175482
  0
LINE
  5
5FF
330
18
100
AcDbEntity
  8
1
 62
     1
100
AcDbLine
 10
54.52886752691895
 20
2.120915158674578
 30
0.0
 11
54.47113247308103
 21
2.178234358111016
 31
0.0
  0
ARC
  5
600
330
18
100
AcDbEntity
  8
1
 62
     1
100
AcDbCircle
 10
53.65901929957901
 20
-0.5711034967254922
 30
0.0
 40
2.494298141322342
100
AcDbArc
 50
43.42366726770545
 51
57.47637245594883
  0
LINE
  5
601
330
18
100
AcDbEntity
  8
1
 62
     1
100
AcDbLine
 10
55.52886752691897
 20
1.082052292823454
 30
0.0
 11
55.47113247308104
 21
1.14394521537203
 31
0.0
  0
ARC
  5
602
330
18
100
AcDbEntity
  8
1
 62
     1
100
AcDbCircle
 10
52.25651347427176
 20
-2.816171207250009
 30
0.0
 40
5.098897090132249
100
AcDbArc
 50
34.26012034475487
 51
42.76120003023539
  0
LINE
  5
603
330
18
100
AcDbEntity
  8
1
 62
     1
100
AcDbLine
 10
57.52886752691896
 20
-1.099491545881564
 30
0.0
 11
57.47113247308103
 21
-1.037472169327287
 31
0.0
  0
ARC
  5
604
330
18
100
AcDbEntity
  8
1
 62
     1
100
AcDbCircle
 10
42.48090468840655
 20
-9.838228650024
 30
0.0
 40
17.77294371746108
100
AcDbArc
 50
25.8833924178553
 51
29.16869411672336
  0
LINE
  5
605
330
18
100
AcDbEntity
  8
1
 62
     1
100
AcDbLine
 10
58.52886752691899
 20
-2.137084080993461
 30
0.0
 11
58.47113247308103
 21
-2.079518110871502
 31
0.0
  0
ARC
  5
606
330
18
100
AcDbEntity
  8
1
 62
     1
100
AcDbCircle
 10
30.68089386368181
 20
-16.00102530184686
 30
0.0
 40
31.58069476304337
100
AcDbArc
 50
24.26749798115611
 51
26.26941665865344
  0
LINE
  5
607
330
18
100
AcDbEntity
  8
1
 62
     1
100
AcDbLine
 10
59.52886752691898
 20
-3.071729834185645
 30
0.0
 11
59.47113247308104
 21
-3.021390369798525
 31
0.0
  0
ARC
  5
608
330
18
100
AcDbEntity
  8
1
 62
     1
100
AcDbCircle
 10
2.447146025268623
 20
-29.36971186201443
 30
0.0
 40
63.40091190963447
100
AcDbArc
 50
23.76722947834488
 51
24.80226174430862
  0
LINE
  5
609
330
18
100
AcDbEntity
  8
1
 62
     1
100
AcDbLine
 10
60.52886752691899
 20
-3.858405367516732
 30
0.0
 11
60.47113247308102
 21
-3.817717382466863
 31
0.0
  0
ARC
  5
60A
330
18
100
AcDbEntity
  8
1
 62
     1
100
AcDbCircle
 10
-285.3837695446909
 20
-160.9279097444105
 30
0.0
 40
380.5257093506029
100
AcDbArc
 50
24.2844624886851
 51
24.45634755967103
  0
LINE
  5
60B
330
18
100
AcDbEntity
  8
1
 62
     1
100
AcDbLine
 10
61.52886752691899
 20
-4.459215228797939
 30
0.0
 11
61.47113247308105
 21
-4.430138747035434
 31
0.0
  0
ARC
  5
60C
330
18
100
AcDbEntity
  8
1
 62
     1
100
AcDbCircle
 10
136.3566465762149
 20
31.08537097983295
 30
0.0
 40
82.15191519502224
100
AcDbArc
 50
205.1617154745387
 51
205.9236186138147
  0
LINE
  5
60D
330
18
100
AcDbEntity
  8
1
 62
     1
100
AcDbLine
 10
62.52886752691897
 20
-4.845217441589664
 30
0.0
 11
62.47113247308103
 21
-4.82915311877668
 31
0.0
  0
ARC
  5
60E
330
18
100
AcDbEntity
  8
1
 62
     1
100
AcDbCircle
 10
88.8072672784083
 20
9.070732573437208
 30
0.0
 40
28.9790890563762
100
AcDbArc
 50
207.0579209318329
 51
209.0384293567513
  0
LINE
  5
60F
330
18
100
AcDbEntity
  8
1
 62
     1
100
AcDbLine
 10
63.52886752691896
 20
-4.997817681748047
 30
0.0
 11
63.47113247308102
 21
-4.995539339367573
 31
0.0
  0
ARC
  5
610
330
18
100
AcDbEntity
  8
1
 62
     1
100
AcDbCircle
 10
2.775544660659826
 20
30.52930691180602
 30
0.0
 40
70.37856946362703
100
AcDbArc
 50
329.6819010072546
 51
330.0171834031804
  0
LINE
  5
611
330
18
100
AcDbEntity
  8
1
 62
     1
100
AcDbLine
 10
64.52886752691894
 20
-4.909664982185756
 30
0.0
 11
64.47113247308104
 21
-4.921282343538318
 31
0.0
  0
ARC
  5
612
330
18
100
AcDbEntity
  8
1
 62
     1
100
AcDbCircle
 10
68.03469929364906
 20
-1.535750115955583
 30
0.0
 40
2.98776058783724
100
AcDbArc
 50
227.0775911967961
 51
233.5955695519945
  0
LINE
  5
613
330
18
100
AcDbEntity
  8
1
 62
     1
100
AcDbLine
 10
66.82788142644151
 20
-3.507336465431943
 30
0.0
 11
66.94047720275623
 21
-3.316412564980226
 31
0.0
  0
LINE
  5
614
330
18
100
AcDbEntity
  8
1
 62
     1
100
AcDbLine
 10
51.14211616999999
 20
-2.564198473273084
 30
0.0
 11
51.14211617
 21
-3.499999998509357
 31
0.0
  0
LINE
  5
615
330
18
100
AcDbEntity
  8
1
 62
     1
100
AcDbLine
 10
51.14211617
 20
-2.564198473273087
 30
0.0
 11
51.14211617
 21
-2.095270409673386
 31
0.0
  0
LINE
  5
616
330
18
100
AcDbEntity
  8
1
 62
     1
100
AcDbLine
 10
51.14211617
 20
3.345146653020368
 30
0.0
 11
51.14211617
 21
1.661645640875076
 31
0.0
  0
ARC
  5
617
330
18
100
AcDbEntity
  8
1
 62
     1
100
AcDbCircle
 10
72.24844042957127
 20
-3.304035517989283
 30
0.0
 40
15.21748133741399
100
AcDbArc
 50
147.1036356908471
 51
150.084030028318
  0
LINE
  5
618
330
18
100
AcDbEntity
  8
1
 62
     1
100
AcDbLine
 10
59.05854746231334
 20
4.2853821320998
 30
0.0
 11
59.00000000000001
 21
4.183975
 31
0.0
  0
LINE
  5
619
330
18
100
AcDbEntity
  8
1
 62
     1
100
AcDbLine
 10
59.00000000000001
 20
4.183975
 30
0.0
 11
58.52886752691897
 21
5.000000000000002
 31
0.0
  0
LINE
  5
61A
330
18
100
AcDbEntity
  8
1
 62
     1
100
AcDbLine
 10
56.47113247308105
 20
5.000000000000019
 30
0.0
 11
55.99999999999999
 21
4.183975
 31
0.0
  0
LINE
  5
61B
330
18
100
AcDbEntity
  8
1
 62
     1
100
AcDbLine
 10
57.0
 20
4.183975
 30
0.0
 11
56.52886752691897
 21
5.000000000000006
 31
0.0
  0
LINE
  5
61C
330
18
100
AcDbEntity
  8
1
 62
     1
100
AcDbLine
 10
57.47113247308105
 20
5.000000000000019
 30
0.0
 11
57.00000000000001
 21
4.183975
 31
0.0
  0
LINE
  5
61D
330
18
100
AcDbEntity
  8
1
 62
     1
100
AcDbLine
 10
58.47113247308103
 20
5.000000000000007
 30
0.0
 11
58.0
 21
4.183975
 31
0.0
  0
LINE
  5
61E
330
18
100
AcDbEntity
  8
1
 62
     1
100
AcDbLine
 10
58.0
 20
4.183975
 30
0.0
 11
57.52886752691897
 21
5.000000000000005
 31
0.0
  0
LINE
  5
61F
330
18
100
AcDbEntity
  8
1
 62
     1
100
AcDbLine
 10
55.69245530871057
 20
4.716657783215609
 30
0.0
 11
55.6924628577132
 21
4.716644707963563
 31
0.0
  0
LINE
  5
620
330
18
100
AcDbEntity
  8
1
 62
     1
100
AcDbLine
 10
55.6924628577132
 20
4.716644707963563
 30
0.0
 11
56.0
 21
4.179454946069712
 31
0.0
  0
LINE
  5
621
330
18
100
AcDbEntity
  8
1
 62
     1
100
AcDbLine
 10
56.0
 20
4.183975000000001
 30
0.0
 11
55.69245530842143
 21
4.716657783048667
 31
0.0
  0
LINE
  5
622
330
18
100
AcDbEntity
  8
1
 62
     1
100
AcDbLine
 10
53.24118991596139
 20
-4.601727993940919
 30
0.0
 11
53.63843325761118
 21
-4.810226676154561
 31
0.0
  0
LINE
  5
623
330
18
100
AcDbEntity
  8
1
 62
     1
100
AcDbLine
 10
51.14211617
 20
-3.5
 30
0.0
 11
52.87099148051542
 21
-4.407424206173255
 31
0.0
  0
ARC
  5
624
330
18
100
AcDbEntity
  8
1
 62
     1
100
AcDbCircle
 10
78.16650112608949
 20
-2.846649998036002
 30
0.0
 40
14.91783559866019
100
AcDbArc
 50
148.8619144489397
 51
150.037147759855
  0
LINE
  5
625
330
18
100
AcDbEntity
  8
1
 62
     1
100
AcDbLine
 10
65.3979943722157
 20
4.873321152396191
 30
0.0
 11
65.24243944410523
 21
4.603892239162446
 31
0.0
  0
LINE
  5
626
330
18
100
AcDbEntity
  8
1
 62
     1
100
AcDbLine
 10
66.0
 20
4.183975
 30
0.0
 11
65.64027869630712
 21
4.807030284061251
 31
0.0
  0
LINE
  5
627
330
18
100
AcDbEntity
  8
1
 62
     1
100
AcDbLine
 10
66.26157640737013
 20
4.637038416385431
 30
0.0
 11
65.99999999999999
 21
4.183975
 31
0.0
  0
LINE
  5
628
330
18
100
AcDbEntity
  8
1
 62
     1
100
AcDbLine
 10
67.0
 20
4.183975
 30
0.0
 11
66.82788142644151
 21
4.482092975331987
 31
0.0
  0
LINE
  5
629
330
18
100
AcDbEntity
  8
1
 62
     1
100
AcDbLine
 10
63.47113247308106
 20
-4.999999999999999
 30
0.0
 11
63.52886752691897
 21
-5.0
 31
0.0
  0
LINE
  5
62A
330
18
100
AcDbEntity
  8
1
 62
     1
100
AcDbLine
 10
62.47113247308105
 20
-5.0
 30
0.0
 11
62.52886752691899
 21
-5.0
 31
0.0
  0
LINE
  5
62B
330
18
100
AcDbEntity
  8
1
 62
     1
100
AcDbLine
 10
61.47113247308105
 20
-5.0
 30
0.0
 11
61.52886752691899
 21
-5.0
 31
0.0
  0
LINE
  5
62C
330
18
100
AcDbEntity
  8
1
 62
     1
100
AcDbLine
 10
60.47113247308103
 20
-5.0
 30
0.0
 11
60.52886752691899
 21
-5.0
 31
0.0
  0
LINE
  5
62D
330
18
100
AcDbEntity
  8
1
 62
     1
100
AcDbLine
 10
52.73898144647406
 20
0.6172001905523165
 30
0.0
 11
52.55124078158292
 21
0.7881781812333404
 31
0.0
  0
LINE
  5
62E
330
18
100
AcDbEntity
  8
1
 62
     1
100
AcDbLine
 10
52.55124078158292
 20
0.7881781812333404
 30
0.0
 11
52.36035015126769
 21
0.948964816776737
 31
0.0
  0
LINE
  5
62F
330
18
100
AcDbEntity
  8
1
 62
     1
100
AcDbLine
 10
52.36035015126769
 20
0.948964816776737
 30
0.0
 11
52.16616721409336
 21
1.09888467971366
 31
0.0
  0
LINE
  5
630
330
18
100
AcDbEntity
  8
1
 62
     1
100
AcDbLine
 10
52.16616721409336
 20
1.09888467971366
 30
0.0
 11
51.96859973416066
 21
1.237225789590711
 31
0.0
  0
LINE
  5
631
330
18
100
AcDbEntity
  8
1
 62
     1
100
AcDbLine
 10
51.96859973416066
 20
1.237225789590711
 30
0.0
 11
51.76754092610685
 21
1.363310334620381
 31
0.0
  0
LINE
  5
632
330
18
100
AcDbEntity
  8
1
 62
     1
100
AcDbLine
 10
51.76754092610685
 20
1.363310334620381
 30
0.0
 11
51.56283037672978
 21
1.476505543204864
 31
0.0
  0
LINE
  5
633
330
18
100
AcDbEntity
  8
1
 62
     1
100
AcDbLine
 10
51.56283037672978
 20
1.476505543204864
 30
0.0
 11
51.35440792532811
 21
1.576144881570155
 31
0.0
  0
LINE
  5
634
330
18
100
AcDbEntity
  8
1
 62
     1
100
AcDbLine
 10
51.35440792532811
 20
1.576144881570155
 30
0.0
 11
51.14211617000001
 21
1.661645640875068
 31
0.0
  0
ARC
  5
635
330
18
100
AcDbEntity
  8
1
 62
     1
100
AcDbCircle
 10
62.59794469815347
 20
-1.657935852872649
 30
0.0
 40
3.670784288878139
100
AcDbArc
 50
40.29128058480418
 51
46.61940438987464
  0
LINE
  5
636
330
18
100
AcDbEntity
  8
1
 62
     1
100
AcDbLine
 10
62.13650314486567
 20
0.7368785870245942
 30
0.0
 11
62.18026639426146
 21
0.6931686801352221
 31
0.0
  0
LINE
  5
637
330
18
100
AcDbEntity
  8
1
 62
     1
100
AcDbLine
 10
62.18026639426146
 20
0.6931686801352221
 30
0.0
 11
62.22346991853654
 21
0.6465476578381838
 31
0.0
  0
LINE
  5
638
330
18
100
AcDbEntity
  8
1
 62
     1
100
AcDbLine
 10
62.22346991853654
 20
0.6465476578381838
 30
0.0
 11
62.30818828054945
 21
0.5450094978196133
 31
0.0
  0
LINE
  5
639
330
18
100
AcDbEntity
  8
1
 62
     1
100
AcDbLine
 10
62.30818828054945
 20
0.5450094978196133
 30
0.0
 11
62.39072461334567
 21
0.4330292312813828
 31
0.0
  0
LINE
  5
63A
330
18
100
AcDbEntity
  8
1
 62
     1
100
AcDbLine
 10
62.39072461334567
 20
0.4330292312813828
 30
0.0
 11
62.47113247308106
 21
0.3113472126808277
 31
0.0
  0
ARC
  5
63B
330
18
100
AcDbEntity
  8
1
 62
     1
100
AcDbCircle
 10
54.51122961832225
 20
-5.994364400966523
 30
0.0
 40
10.14577451424374
100
AcDbArc
 50
42.42899925405388
 51
44.87876496059915
  0
ARC
  5
63C
330
18
100
AcDbEntity
  8
1
 62
     1
100
AcDbCircle
 10
60.24906392926938
 20
0.3348310769825922
 30
0.0
 40
1.616200183404902
100
AcDbArc
 50
40.87548578833771
 51
44.22344112003816
  0
LINE
  5
63D
330
18
100
AcDbEntity
  8
1
 62
     1
100
AcDbLine
 10
61.70053308925482
 20
1.164578842972796
 30
0.0
 11
61.69935361225837
 21
1.165760751357316
 31
0.0
  0
ARC
  5
63E
330
18
100
AcDbEntity
  8
1
 62
     1
100
AcDbCircle
 10
58.04874629607264
 20
3.320614552262078
 30
0.0
 40
3.369732091270598
100
AcDbArc
 50
223.2894390319582
 51
232.5518309767916
  0
LINE
  5
63F
330
18
100
AcDbEntity
  8
SK1
100
AcDbLine
 10
-22.65
 20
-2.75
 30
0.0
 11
-14.99999999999999
 21
-2.75
 31
0.0
  0
LINE
  5
640
330
18
100
AcDbEntity
  8
SK1
100
AcDbLine
 10
-14.99999999999999
 20
-2.749999999999999
 30
0.0
 11
-14.99999999999999
 21
-3.5
 31
0.0
  0
LINE
  5
641
330
18
100
AcDbEntity
  8
SK1
100
AcDbLine
 10
-22.65
 20
2.165063509461131
 30
0.0
 11
-14.99999999999999
 21
2.165063509461131
 31
0.0
  0
ARC
  5
642
330
18
100
AcDbEntity
  8
SK1
100
AcDbCircle
 10
-16.66945872810435
 20
-1.578844711806709
 30
0.0
 40
7.055504836377419
100
AcDbArc
 50
147.9528186101165
 51
153.7995527774216
  0
LINE
  5
643
330
18
100
AcDbEntity
  8
SK1
100
AcDbLine
 10
-22.65
 20
2.75
 30
0.0
 11
-22.65
 21
2.165063509461123
 31
0.0
  0
LINE
  5
644
330
18
100
AcDbEntity
  8
SK1
100
AcDbLine
 10
-22.99999999999999
 20
2.75
 30
0.0
 11
-22.65
 21
2.750000000000001
 31
0.0
  0
LINE
  5
645
330
18
100
AcDbEntity
  8
SK1
100
AcDbLine
 10
-14.99999999999999
 20
3.5
 30
0.0
 11
-14.99999999999999
 21
3.499842546908535
 31
0.0
  0
LINE
  5
646
330
18
100
AcDbEntity
  8
SK1
100
AcDbLine
 10
-14.99999999999999
 20
3.499842546908535
 30
0.0
 11
-14.99999999999999
 21
3.451827436635202
 31
0.0
  0
LINE
  5
647
330
18
100
AcDbEntity
  8
SK1
100
AcDbLine
 10
-14.99999999999999
 20
3.451827436635202
 30
0.0
 11
-14.99999999999999
 21
2.75
 31
0.0
  0
LINE
  5
648
330
18
100
AcDbEntity
  8
SK1
100
AcDbLine
 10
-22.65
 20
2.75
 30
0.0
 11
-14.99999999999999
 21
2.75
 31
0.0
  0
LINE
  5
649
330
18
100
AcDbEntity
  8
SK1
100
AcDbLine
 10
-22.65
 20
-2.165063509461096
 30
0.0
 11
-14.99999999999999
 21
-2.165063509461096
 31
0.0
  0
LINE
  5
64A
330
18
100
AcDbEntity
  8
SK1
100
AcDbLine
 10
-22.65
 20
-2.165063509461097
 30
0.0
 11
-22.64999999999999
 21
-2.749999999999999
 31
0.0
  0
LINE
  5
64B
330
18
100
AcDbEntity
  8
SK1
100
AcDbLine
 10
-22.99999999999999
 20
2.75
 30
0.0
 11
-22.99999999999999
 21
1.536229149573721
 31
0.0
  0
LINE
  5
64C
330
18
100
AcDbEntity
  8
SK1
100
AcDbLine
 10
-22.99999999999999
 20
-1.53622914957372
 30
0.0
 11
-22.99999999999999
 21
-2.749999999999999
 31
0.0
  0
ARC
  5
64D
330
18
100
AcDbEntity
  8
SK1
100
AcDbCircle
 10
-16.66945872810121
 20
1.578844711808379
 30
0.0
 40
7.055504836380964
100
AcDbArc
 50
206.2004472225792
 51
212.0471813898815
  0
LINE
  5
64E
330
18
100
AcDbEntity
  8
SK1
100
AcDbLine
 10
-22.99999999999999
 20
-2.75
 30
0.0
 11
-22.65
 21
-2.75
 31
0.0
  0
LINE
  5
64F
330
18
100
AcDbEntity
  8
SK1
100
AcDbLine
 10
-14.99999999999999
 20
2.165063509461568
 30
0.0
 11
-14.99999999999999
 21
-2.165063509461445
 31
0.0
  0
LINE
  5
650
330
18
100
AcDbEntity
  8
SK1
100
AcDbLine
 10
-22.99999999999999
 20
1.536229149573722
 30
0.0
 11
-22.99999999999999
 21
-1.536229149573721
 31
0.0
  0
LINE
  5
651
330
18
100
AcDbEntity
  8
SK1
100
AcDbLine
 10
0.0000000000000036
 20
3.5
 30
0.0
 11
-14.99999999999999
 21
3.5
 31
0.0
  0
LINE
  5
652
330
18
100
AcDbEntity
  8
SK1
100
AcDbLine
 10
-14.99999999999999
 20
-3.5
 30
0.0
 11
0.0000000000000027
 21
-3.5
 31
0.0
  0
DIMENSION
  5
653
330
18
100
AcDbEntity
  8
2
100
AcDbDimension
  2
*D0
 10
82.00000000000004
 20
-4.999999999999948
 30
0.0
 11
79.60925000000007
 21
-16.36049999999996
 31
0.0
 70
    32
  1
MF10x1
 71
     5
 42
10.0
  3
STANDARD
100
AcDbAlignedDimension
 13
67.0
 23
5.0
 33
0.0
 14
67.0
 24
-5.0
 34
0.0
 50
90.0000000000002
100
AcDbRotatedDimension
  0
DIMENSION
  5
661
330
18
100
AcDbEntity
  8
2
100
AcDbDimension
  2
*D1
 10
67.0
 20
75.0
 30
0.0
 11
33.5
 21
77.39075
 31
0.0
 70
    32
  1
<>
 71
     5
 42
67.0
  3
STANDARD
100
AcDbAlignedDimension
 13
0.0
 23
0.0
 33
0.0
 14
67.0
 24
0.0
 34
0.0
100
AcDbRotatedDimension
  0
DIMENSION
  5
66E
330
18
100
AcDbEntity
  8
SK2
100
AcDbDimension
  2
*D2
 10
-37.99999999998213
 20
-3.500000000117379
 30
0.0
 11
-40.39074999995083
 21
-9.633250000129577
 31
0.0
 70
    32
  1
%%c<>
 71
     5
 42
6.999999999999999
  3
STANDARD
100
AcDbAlignedDimension
 13
-14.99999999999999
 23
3.5
 33
0.0
 14
-14.99999999999999
 24
-3.5
 34
0.0
 50
90.0000000002924
100
AcDbRotatedDimension
  0
DIMENSION
  5
67C
330
18
100
AcDbEntity
  8
2
100
AcDbDimension
  2
*D3
 10
67.0
 20
60.0
 30
0.0
 11
59.071058085
 21
62.39775
 31
0.0
 70
    32
  1
<>
 71
     5
 42
15.85788383
  3
STANDARD
100
AcDbAlignedDimension
 13
51.14211617
 23
3.35
 33
0.0
 14
67.0
 24
5.0
 34
0.0
100
AcDbRotatedDimension
  0
DIMENSION
  5
689
330
18
100
AcDbEntity
  8
SK2
100
AcDbDimension
  2
*D4
 10
67.0
 20
90.0
 30
0.0
 11
22.0
 21
92.39075
 31
0.0
 70
    32
  1
<>
 71
     5
 42
90.0
  3
STANDARD
100
AcDbAlignedDimension
 13
-23.0
 23
5.0
 33
0.0
 14
67.0
 24
5.0
 34
0.0
100
AcDbRotatedDimension
  0
ENDSEC
  0
SECTION
  2
OBJECTS
  0
DICTIONARY
  5
C
330
0
100
AcDbDictionary
281
     1
  3
ACAD_COLOR
350
387
  3
ACAD_GROUP
350
D
  3
ACAD_LAYOUT
350
301
  3
ACAD_MATERIAL
350
386
  3
ACAD_MLEADERSTYLE
350
696
  3
ACAD_MLINESTYLE
350
E
  3
ACAD_PLOTSETTINGS
350
302
  3
ACAD_PLOTSTYLENAME
350
2FF
  3
ACAD_SCALELIST
350
3A0
  3
ACAD_TABLESTYLE
350
388
  3
ACAD_VISUALSTYLE
350
3C5
  3
ACDBHEADERROUNDTRIPXREC
350
697
  3
AcDbVariableDictionary
350
357
  0
DICTIONARY
  5
387
102
{ACAD_REACTORS
330
C
102
}
330
C
100
AcDbDictionary
281
     1
  0
DICTIONARY
  5
D
102
{ACAD_REACTORS
330
C
102
}
330
C
100
AcDbDictionary
281
     1
  0
DICTIONARY
  5
301
102
{ACAD_REACTORS
330
C
102
}
330
C
100
AcDbDictionary
281
     1
  3
Layout1
350
33B
  3
Model
350
303
  0
DICTIONARY
  5
386
102
{ACAD_REACTORS
330
C
102
}
330
C
100
AcDbDictionary
281
     1
  3
ByBlock
350
3C3
  3
ByLayer
350
3C2
  3
Global
350
3C4
  0
DICTIONARY
  5
696
102
{ACAD_REACTORS
330
C
102
}
330
C
100
AcDbDictionary
281
     1
  0
DICTIONARY
  5
E
102
{ACAD_REACTORS
330
C
102
}
330
C
100
AcDbDictionary
281
     1
  3
STANDARD
350
1B
  0
DICTIONARY
  5
302
102
{ACAD_REACTORS
330
C
102
}
330
C
100
AcDbDictionary
281
     1
  0
ACDBDICTIONARYWDFLT
  5
2FF
102
{ACAD_REACTORS
330
C
102
}
330
C
100
AcDbDictionary
281
     1
  3
Normal
350
300
100
AcDbDictionaryWithDefault
340
300
  0
DICTIONARY
  5
3A0
102
{ACAD_REACTORS
330
C
102
}
330
C
100
AcDbDictionary
281
     1
  3
A0
350
3A1
  3
A1
350
3A2
  3
A2
350
3A3
  3
A3
350
3A4
  3
A4
350
3A5
  3
A5
350
3A6
  3
A6
350
3A7
  3
A7
350
3A8
  3
A8
350
3A9
  3
A9
350
3AA
  3
B0
350
3AB
  3
B1
350
3AC
  3
B2
350
3AD
  3
B3
350
3AE
  3
B4
350
3AF
  3
B5
350
3B0
  3
B6
350
3B1
  3
B7
350
3B2
  3
B8
350
3B3
  3
B9
350
3B4
  3
C0
350
3B5
  3
C1
350
3B6
  3
C2
350
3B7
  3
C3
350
3B8
  3
C4
350
3B9
  3
C5
350
3BA
  3
C6
350
3BB
  3
C7
350
3BC
  3
C8
350
3BD
  3
C9
350
3BE
  3
D0
350
3BF
  3
D1
350
3C0
  3
D2
350
3C1
  0
DICTIONARY
  5
388
102
{ACAD_REACTORS
330
C
102
}
330
C
100
AcDbDictionary
281
     1
  3
Standard
350
389
  0
DICTIONARY
  5
3C5
102
{ACAD_REACTORS
330
C
102
}
330
C
100
AcDbDictionary
281
     1
  3
2dWireframe
350
3CA
  3
3D Hidden
350
3CC
  3
3dWireframe
350
3CB
  3
Basic
350
3CD
  3
Brighten
350
3D1
  3
ColorChange
350
3D5
  3
Conceptual
350
3CF
  3
Dim
350
3D0
  3
Facepattern
350
3D4
  3
Flat
350
3C6
  3
FlatWithEdges
350
3C7
  3
Gouraud
350
3C8
  3
GouraudWithEdges
350
3C9
  3
Linepattern
350
3D3
  3
Realistic
350
3CE
  3
Thicken
350
3D2
  0
DICTIONARY
  5
697
102
{ACAD_REACTORS
330
C
102
}
330
C
100
AcDbDictionary
281
     1
  3
COLORDICT
350
698
  3
MATERIALDICT
350
699
  0
DICTIONARY
  5
357
102
{ACAD_REACTORS
330
C
102
}
330
C
100
AcDbDictionary
281
     1
  3
CANNOSCALE
350
69A
  3
CTABLESTYLE
350
38D
  3
DIMASSOC
350
359
  3
HIDETEXT
350
358
  3
PROJECTNAME
350
38E
  0
LAYOUT
  5
33B
102
{ACAD_REACTORS
330
301
102
}
330
301
100
AcDbPlotSettings
  1

  2
Lexmark Optra PS2
  4

  6

 40
0.0
 41
0.0
 42
0.0
 43
0.0
 44
0.0
 45
0.0
 46
0.0
 47
0.0
 48
0.0
 49
0.0
140
0.0
141
0.0
142
1.0
143
1.0
 70
   688
 72
     0
 73
     0
 74
     5
  7
monochrome.ctb
 75
    16
147
1.0
148
0.0
149
0.0
100
AcDbLayout
  1
Layout1
 70
     1
 71
     1
 10
0.0
 20
0.0
 11
12.0
 21
9.0
 12
0.0
 22
0.0
 32
0.0
 14
0.0
 24
0.0
 34
0.0
 15
0.0
 25
0.0
 35
0.0
146
0.0
 13
0.0
 23
0.0
 33
0.0
 16
1.0
 26
0.0
 36
0.0
 17
0.0
 27
1.0
 37
0.0
 76
     0
330
338
  0
LAYOUT
  5
303
102
{ACAD_REACTORS
330
301
102
}
330
301
100
AcDbPlotSettings
  1

  2
Lexmark Optra Rx
  4
A4
  6

 40
6.805083274841307
 41
5.535083293914794
 42
6.974411010742187
 43
7.14373779296875
 44
209.9733276367186
 45
296.9259948730469
 46
0.0
 47
0.0
 48
0.0
 49
0.0
140
0.0
141
0.0
142
1.0
143
2.976565420630886
 70
 11952
 72
     1
 73
     1
 74
     0
  7
monochrome.ctb
 75
     0
147
0.335957675604539
148
204.1199660668592
149
172.3933209647495
100
AcDbLayout
  1
Model
 70
     1
 71
     0
 10
0.0
 20
0.0
 11
12.0
 21
9.0
 12
0.0
 22
0.0
 32
0.0
 14
0.0
 24
0.0
 34
0.0
 15
0.0
 25
0.0
 35
0.0
146
0.0
 13
0.0
 23
0.0
 33
0.0
 16
1.0
 26
0.0
 36
0.0
 17
0.0
 27
1.0
 37
0.0
 76
     0
330
18
331
39A
  0
MATERIAL
  5
3C3
102
{ACAD_REACTORS
330
386
102
}
102
{ACAD_XDICTIONARY
360
69D
102
}
330
386
100
AcDbMaterial
  1
ByBlock
  0
MATERIAL
  5
3C2
102
{ACAD_REACTORS
330
386
102
}
102
{ACAD_XDICTIONARY
360
69B
102
}
330
386
100
AcDbMaterial
  1
ByLayer
  0
MATERIAL
  5
3C4
102
{ACAD_REACTORS
330
386
102
}
102
{ACAD_XDICTIONARY
360
69F
102
}
330
386
100
AcDbMaterial
  1
Global
  0
MLINESTYLE
  5
1B
102
{ACAD_REACTORS
330
E
102
}
330
E
100
AcDbMlineStyle
  2
STANDARD
 70
     0
  3

 62
     0
 51
90.0
 52
90.0
 71
     2
 49
0.5
 62
   256
  6
BYLAYER
 49
-0.5
 62
   256
  6
BYLAYER
  0
ACDBPLACEHOLDER
  5
300
102
{ACAD_REACTORS
330
2FF
102
}
330
2FF
  0
SCALE
  5
3A1
102
{ACAD_REACTORS
330
3A0
102
}
330
3A0
100
AcDbScale
 70
     0
300
1:1
140
1.0
141
1.0
290
     1
  0
SCALE
  5
3A2
102
{ACAD_REACTORS
330
3A0
102
}
330
3A0
100
AcDbScale
 70
     0
300
1:2
140
1.0
141
2.0
290
     0
  0
SCALE
  5
3A3
102
{ACAD_REACTORS
330
3A0
102
}
330
3A0
100
AcDbScale
 70
     0
300
1:4
140
1.0
141
4.0
290
     0
  0
SCALE
  5
3A4
102
{ACAD_REACTORS
330
3A0
102
}
330
3A0
100
AcDbScale
 70
     0
300
1:5
140
1.0
141
5.0
290
     0
  0
SCALE
  5
3A5
102
{ACAD_REACTORS
330
3A0
102
}
330
3A0
100
AcDbScale
 70
     0
300
1:8
140
1.0
141
8.0
290
     0
  0
SCALE
  5
3A6
102
{ACAD_REACTORS
330
3A0
102
}
330
3A0
100
AcDbScale
 70
     0
300
1:10
140
1.0
141
10.0
290
     0
  0
SCALE
  5
3A7
102
{ACAD_REACTORS
330
3A0
102
}
330
3A0
100
AcDbScale
 70
     0
300
1:16
140
1.0
141
16.0
290
     0
  0
SCALE
  5
3A8
102
{ACAD_REACTORS
330
3A0
102
}
330
3A0
100
AcDbScale
 70
     0
300
1:20
140
1.0
141
20.0
290
     0
  0
SCALE
  5
3A9
102
{ACAD_REACTORS
330
3A0
102
}
330
3A0
100
AcDbScale
 70
     0
300
1:30
140
1.0
141
30.0
290
     0
  0
SCALE
  5
3AA
102
{ACAD_REACTORS
330
3A0
102
}
330
3A0
100
AcDbScale
 70
     0
300
1:40
140
1.0
141
40.0
290
     0
  0
SCALE
  5
3AB
102
{ACAD_REACTORS
330
3A0
102
}
330
3A0
100
AcDbScale
 70
     0
300
1:50
140
1.0
141
50.0
290
     0
  0
SCALE
  5
3AC
102
{ACAD_REACTORS
330
3A0
102
}
330
3A0
100
AcDbScale
 70
     0
300
1:100
140
1.0
141
100.0
290
     0
  0
SCALE
  5
3AD
102
{ACAD_REACTORS
330
3A0
102
}
330
3A0
100
AcDbScale
 70
     0
300
2:1
140
2.0
141
1.0
290
     0
  0
SCALE
  5
3AE
102
{ACAD_REACTORS
330
3A0
102
}
330
3A0
100
AcDbScale
 70
     0
300
4:1
140
4.0
141
1.0
290
     0
  0
SCALE
  5
3AF
102
{ACAD_REACTORS
330
3A0
102
}
330
3A0
100
AcDbScale
 70
     0
300
8:1
140
8.0
141
1.0
290
     0
  0
SCALE
  5
3B0
102
{ACAD_REACTORS
330
3A0
102
}
330
3A0
100
AcDbScale
 70
     0
300
10:1
140
10.0
141
1.0
290
     0
  0
SCALE
  5
3B1
102
{ACAD_REACTORS
330
3A0
102
}
330
3A0
100
AcDbScale
 70
     0
300
100:1
140
100.0
141
1.0
290
     0
  0
SCALE
  5
3B2
102
{ACAD_REACTORS
330
3A0
102
}
330
3A0
100
AcDbScale
 70
     0
300
1/128" = 1'-0"
140
0.0078125
141
12.0
290
     0
  0
SCALE
  5
3B3
102
{ACAD_REACTORS
330
3A0
102
}
330
3A0
100
AcDbScale
 70
     0
300
1/64" = 1'-0"
140
0.015625
141
12.0
290
     0
  0
SCALE
  5
3B4
102
{ACAD_REACTORS
330
3A0
102
}
330
3A0
100
AcDbScale
 70
     0
300
1/32" = 1'-0"
140
0.03125
141
12.0
290
     0
  0
SCALE
  5
3B5
102
{ACAD_REACTORS
330
3A0
102
}
330
3A0
100
AcDbScale
 70
     0
300
1/16" = 1'-0"
140
0.0625
141
12.0
290
     0
  0
SCALE
  5
3B6
102
{ACAD_REACTORS
330
3A0
102
}
330
3A0
100
AcDbScale
 70
     0
300
3/32" = 1'-0"
140
0.09375
141
12.0
290
     0
  0
SCALE
  5
3B7
102
{ACAD_REACTORS
330
3A0
102
}
330
3A0
100
AcDbScale
 70
     0
300
1/8" = 1'-0"
140
0.125
141
12.0
290
     0
  0
SCALE
  5
3B8
102
{ACAD_REACTORS
330
3A0
102
}
330
3A0
100
AcDbScale
 70
     0
300
3/16" = 1'-0"
140
0.1875
141
12.0
290
     0
  0
SCALE
  5
3B9
102
{ACAD_REACTORS
330
3A0
102
}
330
3A0
100
AcDbScale
 70
     0
300
1/4" = 1'-0"
140
0.25
141
12.0
290
     0
  0
SCALE
  5
3BA
102
{ACAD_REACTORS
330
3A0
102
}
330
3A0
100
AcDbScale
 70
     0
300
3/8" = 1'-0"
140
0.375
141
12.0
290
     0
  0
SCALE
  5
3BB
102
{ACAD_REACTORS
330
3A0
102
}
330
3A0
100
AcDbScale
 70
     0
300
1/2" = 1'-0"
140
0.5
141
12.0
290
     0
  0
SCALE
  5
3BC
102
{ACAD_REACTORS
330
3A0
102
}
330
3A0
100
AcDbScale
 70
     0
300
3/4" = 1'-0"
140
0.75
141
12.0
290
     0
  0
SCALE
  5
3BD
102
{ACAD_REACTORS
330
3A0
102
}
330
3A0
100
AcDbScale
 70
     0
300
1" = 1'-0"
140
1.0
141
12.0
290
     0
  0
SCALE
  5
3BE
102
{ACAD_REACTORS
330
3A0
102
}
330
3A0
100
AcDbScale
 70
     0
300
1-1/2" = 1'-0"
140
1.5
141
12.0
290
     0
  0
SCALE
  5
3BF
102
{ACAD_REACTORS
330
3A0
102
}
330
3A0
100
AcDbScale
 70
     0
300
3" = 1'-0"
140
3.0
141
12.0
290
     0
  0
SCALE
  5
3C0
102
{ACAD_REACTORS
330
3A0
102
}
330
3A0
100
AcDbScale
 70
     0
300
6" = 1'-0"
140
6.0
141
12.0
290
     0
  0
SCALE
  5
3C1
102
{ACAD_REACTORS
330
3A0
102
}
330
3A0
100
AcDbScale
 70
     0
300
1'-0" = 1'-0"
140
12.0
141
12.0
290
     0
  0
TABLESTYLE
  5
389
102
{ACAD_REACTORS
330
388
102
}
330
388
100
AcDbTableStyle
  3
Standard
 70
     0
 71
     0
 40
1.5
 41
1.5
280
     0
281
     0
  7
STANDARD
140
4.5
170
     2
 62
     0
 63
   257
283
     0
274
    -2
284
     1
 64
     0
275
    -2
285
     1
 65
     0
276
    -2
286
     1
 66
     0
277
    -2
287
     1
 67
     0
278
    -2
288
     1
 68
     0
279
    -2
289
     1
 69
     0
  7
STANDARD
140
6.0
170
     5
 62
     0
 63
   257
283
     0
274
    -2
284
     1
 64
     0
275
    -2
285
     1
 65
     0
276
    -2
286
     1
 66
     0
277
    -2
287
     1
 67
     0
278
    -2
288
     1
 68
     0
279
    -2
289
     1
 69
     0
  7
STANDARD
140
4.5
170
     5
 62
     0
 63
   257
283
     0
274
    -2
284
     1
 64
     0
275
    -2
285
     1
 65
     0
276
    -2
286
     1
 66
     0
277
    -2
287
     1
 67
     0
278
    -2
288
     1
 68
     0
279
    -2
289
     1
 69
     0
  0
VISUALSTYLE
  5
3CA
102
{ACAD_REACTORS
330
3C5
102
}
102
{ACAD_XDICTIONARY
360
6A9
102
}
330
3C5
100
AcDbVisualStyle
  2
2dWireframe
 70
     4
 71
     0
 72
     2
 73
     0
 90
        0
 40
-0.6
 41
-30.0
 62
     5
 63
     7
 74
     1
 91
        4
 64
     7
 65
   257
 75
     1
175
     1
 42
1.0
 92
        0
 66
   257
 43
1.0
 76
     1
 77
     6
 78
     2
 67
     7
 79
     5
170
     0
171
     0
290
     0
174
     0
 93
        1
 44
0.0
173
     0
291
     0
 45
0.0
1001
ACAD
1000
AcDbSavedByObjectVersion
1070
     0
  0
VISUALSTYLE
  5
3CC
102
{ACAD_REACTORS
330
3C5
102
}
102
{ACAD_XDICTIONARY
360
6AD
102
}
330
3C5
100
AcDbVisualStyle
  2
3D Hidden
 70
     6
 71
     1
 72
     2
 73
     2
 90
        0
 40
-0.6
 41
-30.0
 62
     5
 63
     7
 74
     2
 91
        2
 64
     7
 65
   257
 75
     2
175
     1
 42
40.0
 92
        0
 66
   257
 43
1.0
 76
     1
 77
     6
 78
     2
 67
     7
 79
     3
170
     0
171
     0
290
     0
174
     0
 93
        1
 44
0.0
173
     0
291
     0
 45
0.0
1001
ACAD
1000
AcDbSavedByObjectVersion
1070
     0
  0
VISUALSTYLE
  5
3CB
102
{ACAD_REACTORS
330
3C5
102
}
102
{ACAD_XDICTIONARY
360
6AB
102
}
330
3C5
100
AcDbVisualStyle
  2
3dWireframe
 70
     5
 71
     0
 72
     2
 73
     0
 90
        0
 40
-0.6
 41
-30.0
 62
     5
 63
     7
 74
     1
 91
        4
 64
     7
 65
   257
 75
     1
175
     1
 42
1.0
 92
        0
 66
   257
 43
1.0
 76
     1
 77
     6
 78
     2
 67
     7
 79
     5
170
     0
171
     0
290
     0
174
     0
 93
        1
 44
0.0
173
     0
291
     0
 45
0.0
1001
ACAD
1000
AcDbSavedByObjectVersion
1070
     0
  0
VISUALSTYLE
  5
3CD
102
{ACAD_REACTORS
330
3C5
102
}
102
{ACAD_XDICTIONARY
360
6AF
102
}
330
3C5
100
AcDbVisualStyle
  2
Basic
 70
     7
 71
     1
 72
     0
 73
     1
 90
        0
 40
-0.6
 41
-30.0
 62
     5
 63
     7
 74
     0
 91
        4
 64
     7
 65
   257
 75
     1
175
     1
 42
1.0
 92
        8
 66
     7
 43
1.0
 76
     1
 77
     6
 78
     2
 67
     7
 79
     5
170
     0
171
     0
290
     0
174
     0
 93
        1
 44
0.0
173
     0
291
     1
 45
0.0
1001
ACAD
1000
AcDbSavedByObjectVersion
1070
     0
  0
VISUALSTYLE
  5
3D1
102
{ACAD_REACTORS
330
3C5
102
}
102
{ACAD_XDICTIONARY
360
6B7
102
}
330
3C5
100
AcDbVisualStyle
  2
Brighten
 70
    12
 71
     2
 72
     2
 73
     0
 90
        0
 40
-0.6
 41
-30.0
 62
     5
 63
     7
 74
     1
 91
        4
 64
     7
 65
   257
 75
     1
175
     1
 42
1.0
 92
        8
 66
     7
 43
1.0
 76
     1
 77
     6
 78
     2
 67
     7
 79
     5
170
     0
171
     0
290
     0
174
     0
 93
        1
 44
50.0
173
     0
291
     1
 45
0.0
1001
ACAD
1000
AcDbSavedByObjectVersion
1070
     0
  0
VISUALSTYLE
  5
3D5
102
{ACAD_REACTORS
330
3C5
102
}
102
{ACAD_XDICTIONARY
360
6BF
102
}
330
3C5
100
AcDbVisualStyle
  2
ColorChange
 70
    16
 71
     2
 72
     2
 73
     3
 90
        0
 40
-0.6
 41
-30.0
 62
     5
 63
     8
 74
     1
 91
        4
 64
     7
 65
   257
 75
     1
175
     1
 42
1.0
 92
        8
 66
     8
 43
1.0
 76
     1
 77
     6
 78
     2
 67
     7
 79
     5
170
     0
171
     0
290
     0
174
     0
 93
        1
 44
0.0
173
     0
291
     1
 45
0.0
1001
ACAD
1000
AcDbSavedByObjectVersion
1070
     0
  0
VISUALSTYLE
  5
3CF
102
{ACAD_REACTORS
330
3C5
102
}
102
{ACAD_XDICTIONARY
360
6B3
102
}
330
3C5
100
AcDbVisualStyle
  2
Conceptual
 70
     9
 71
     3
 72
     2
 73
     0
 90
        0
 40
-0.6
 41
-30.0
 62
     5
 63
     7
 74
     2
 91
        2
 64
     7
 65
   257
 75
     1
175
     1
 42
40.0
 92
        8
 66
     7
 43
1.0
 76
     1
 77
     6
 78
     2
 67
     7
 79
     3
170
     0
171
     0
290
     0
174
     0
 93
        1
 44
0.0
173
     0
291
     0
 45
0.0
1001
ACAD
1000
AcDbSavedByObjectVersion
1070
     0
  0
VISUALSTYLE
  5
3D0
102
{ACAD_REACTORS
330
3C5
102
}
102
{ACAD_XDICTIONARY
360
6B5
102
}
330
3C5
100
AcDbVisualStyle
  2
Dim
 70
    11
 71
     2
 72
     2
 73
     0
 90
        0
 40
-0.6
 41
-30.0
 62
     5
 63
     7
 74
     1
 91
        4
 64
     7
 65
   257
 75
     1
175
     1
 42
1.0
 92
        8
 66
     7
 43
1.0
 76
     1
 77
     6
 78
     2
 67
     7
 79
     5
170
     0
171
     0
290
     0
174
     0
 93
        1
 44
-50.0
173
     0
291
     1
 45
0.0
1001
ACAD
1000
AcDbSavedByObjectVersion
1070
     0
  0
VISUALSTYLE
  5
3D4
102
{ACAD_REACTORS
330
3C5
102
}
102
{ACAD_XDICTIONARY
360
6BD
102
}
330
3C5
100
AcDbVisualStyle
  2
Facepattern
 70
    15
 71
     2
 72
     2
 73
     0
 90
        0
 40
-0.6
 41
-30.0
 62
     5
 63
     7
 74
     1
 91
        4
 64
     7
 65
   257
 75
     1
175
     1
 42
1.0
 92
        8
 66
     7
 43
1.0
 76
     1
 77
     6
 78
     2
 67
     7
 79
     5
170
     0
171
     0
290
     0
174
     0
 93
        1
 44
0.0
173
     0
291
     1
 45
0.0
1001
ACAD
1000
AcDbSavedByObjectVersion
1070
     0
  0
VISUALSTYLE
  5
3C6
102
{ACAD_REACTORS
330
3C5
102
}
102
{ACAD_XDICTIONARY
360
6A1
102
}
330
3C5
100
AcDbVisualStyle
  2
Flat
 70
     0
 71
     2
 72
     1
 73
     1
 90
        2
 40
-0.6
 41
30.0
 62
     5
 63
     7
 74
     0
 91
        4
 64
     7
 65
   257
 75
     1
175
     1
 42
1.0
 92
        8
 66
     7
 43
1.0
 76
     1
 77
     6
 78
     2
 67
     7
 79
     5
170
     0
171
     0
290
     0
174
     0
 93
       13
 44
0.0
173
     0
291
     1
 45
0.0
1001
ACAD
1000
AcDbSavedByObjectVersion
1070
     0
  0
VISUALSTYLE
  5
3C7
102
{ACAD_REACTORS
330
3C5
102
}
102
{ACAD_XDICTIONARY
360
6A3
102
}
330
3C5
100
AcDbVisualStyle
  2
FlatWithEdges
 70
     1
 71
     2
 72
     1
 73
     1
 90
        2
 40
-0.6
 41
30.0
 62
     5
 63
     7
 74
     1
 91
        4
 64
     7
 65
   257
 75
     1
175
     1
 42
1.0
 92
        0
 66
   257
 43
1.0
 76
     1
 77
     6
 78
     2
 67
     7
 79
     5
170
     0
171
     0
290
     0
174
     0
 93
       13
 44
0.0
173
     0
291
     1
 45
0.0
1001
ACAD
1000
AcDbSavedByObjectVersion
1070
     0
  0
VISUALSTYLE
  5
3C8
102
{ACAD_REACTORS
330
3C5
102
}
102
{ACAD_XDICTIONARY
360
6A5
102
}
330
3C5
100
AcDbVisualStyle
  2
Gouraud
 70
     2
 71
     2
 72
     2
 73
     1
 90
        2
 40
-0.6
 41
30.0
 62
     5
 63
     7
 74
     0
 91
        4
 64
     7
 65
   257
 75
     1
175
     1
 42
1.0
 92
        0
 66
     7
 43
1.0
 76
     1
 77
     6
 78
     2
 67
     7
 79
     5
170
     0
171
     0
290
     0
174
     0
 93
       13
 44
0.0
173
     0
291
     1
 45
0.0
1001
ACAD
1000
AcDbSavedByObjectVersion
1070
     0
  0
VISUALSTYLE
  5
3C9
102
{ACAD_REACTORS
330
3C5
102
}
102
{ACAD_XDICTIONARY
360
6A7
102
}
330
3C5
100
AcDbVisualStyle
  2
GouraudWithEdges
 70
     3
 71
     2
 72
     2
 73
     1
 90
        2
 40
-0.6
 41
30.0
 62
     5
 63
     7
 74
     1
 91
        4
 64
     7
 65
   257
 75
     1
175
     1
 42
1.0
 92
        0
 66
   257
 43
1.0
 76
     1
 77
     6
 78
     2
 67
     7
 79
     5
170
     0
171
     0
290
     0
174
     0
 93
       13
 44
0.0
173
     0
291
     1
 45
0.0
1001
ACAD
1000
AcDbSavedByObjectVersion
1070
     0
  0
VISUALSTYLE
  5
3D3
102
{ACAD_REACTORS
330
3C5
102
}
102
{ACAD_XDICTIONARY
360
6BB
102
}
330
3C5
100
AcDbVisualStyle
  2
Linepattern
 70
    14
 71
     2
 72
     2
 73
     0
 90
        0
 40
-0.6
 41
-30.0
 62
     5
 63
     7
 74
     1
 91
        4
 64
     7
 65
   257
 75
     7
175
     7
 42
1.0
 92
        8
 66
     7
 43
1.0
 76
     1
 77
     6
 78
     2
 67
     7
 79
     5
170
     0
171
     0
290
     0
174
     0
 93
        1
 44
0.0
173
     0
291
     1
 45
0.0
1001
ACAD
1000
AcDbSavedByObjectVersion
1070
     0
  0
VISUALSTYLE
  5
3CE
102
{ACAD_REACTORS
330
3C5
102
}
102
{ACAD_XDICTIONARY
360
6B1
102
}
330
3C5
100
AcDbVisualStyle
  2
Realistic
 70
     8
 71
     2
 72
     2
 73
     0
 90
        0
 40
-0.6
 41
-30.0
 62
     5
 63
     7
 74
     1
 91
        0
 64
     7
 65
   257
 75
     1
175
     1
 42
1.0
 92
        8
 66
     8
 43
1.0
 76
     1
 77
     6
 78
     2
 67
     7
 79
     5
170
     0
171
     0
290
     0
174
     0
 93
       13
 44
0.0
173
     0
291
     0
 45
0.0
1001
ACAD
1000
AcDbSavedByObjectVersion
1070
     0
  0
VISUALSTYLE
  5
3D2
102
{ACAD_REACTORS
330
3C5
102
}
102
{ACAD_XDICTIONARY
360
6B9
102
}
330
3C5
100
AcDbVisualStyle
  2
Thicken
 70
    13
 71
     2
 72
     2
 73
     0
 90
        0
 40
-0.6
 41
-30.0
 62
     5
 63
     7
 74
     1
 91
        4
 64
     7
 65
   257
 75
     1
175
     1
 42
1.0
 92
       12
 66
     7
 43
1.0
 76
     1
 77
     6
 78
     2
 67
     7
 79
     5
170
     0
171
     0
290
     0
174
     0
 93
        1
 44
0.0
173
     0
291
     1
 45
0.0
1001
ACAD
1000
AcDbSavedByObjectVersion
1070
     0
  0
XRECORD
  5
698
102
{ACAD_REACTORS
330
697
102
}
330
697
100
AcDbXrecord
280
     1
340
387
  0
XRECORD
  5
699
102
{ACAD_REACTORS
330
697
102
}
330
697
100
AcDbXrecord
280
     1
340
386
  0
DICTIONARYVAR
  5
69A
102
{ACAD_REACTORS
330
357
102
}
330
357
100
DictionaryVariables
280
     0
  1
1:1
  0
DICTIONARYVAR
  5
38D
102
{ACAD_REACTORS
330
357
102
}
330
357
100
DictionaryVariables
280
     0
  1
Standard
  0
DICTIONARYVAR
  5
359
102
{ACAD_REACTORS
330
357
102
}
330
357
100
DictionaryVariables
280
     0
  1
2
  0
DICTIONARYVAR
  5
358
102
{ACAD_REACTORS
330
357
102
}
330
357
100
DictionaryVariables
280
     0
  1
1
  0
DICTIONARYVAR
  5
38E
102
{ACAD_REACTORS
330
357
102
}
330
357
100
DictionaryVariables
280
     0
  1

  0
DICTIONARY
  5
69D
330
3C3
100
AcDbDictionary
280
     1
281
     1
  3
ACAD_XREC_ROUNDTRIP
360
69E
  0
DICTIONARY
  5
69B
330
3C2
100
AcDbDictionary
280
     1
281
     1
  3
ACAD_XREC_ROUNDTRIP
360
69C
  0
DICTIONARY
  5
69F
330
3C4
100
AcDbDictionary
280
     1
281
     1
  3
ACAD_XREC_ROUNDTRIP
360
6A0
  0
DICTIONARY
  5
6A9
330
3CA
100
AcDbDictionary
280
     1
281
     1
  3
ACAD_XREC_ROUNDTRIP
360
6AA
  0
DICTIONARY
  5
6AD
330
3CC
100
AcDbDictionary
280
     1
281
     1
  3
ACAD_XREC_ROUNDTRIP
360
6AE
  0
DICTIONARY
  5
6AB
330
3CB
100
AcDbDictionary
280
     1
281
     1
  3
ACAD_XREC_ROUNDTRIP
360
6AC
  0
DICTIONARY
  5
6AF
330
3CD
100
AcDbDictionary
280
     1
281
     1
  3
ACAD_XREC_ROUNDTRIP
360
6B0
  0
DICTIONARY
  5
6B7
330
3D1
100
AcDbDictionary
280
     1
281
     1
  3
ACAD_XREC_ROUNDTRIP
360
6B8
  0
DICTIONARY
  5
6BF
330
3D5
100
AcDbDictionary
280
     1
281
     1
  3
ACAD_XREC_ROUNDTRIP
360
6C0
  0
DICTIONARY
  5
6B3
330
3CF
100
AcDbDictionary
280
     1
281
     1
  3
ACAD_XREC_ROUNDTRIP
360
6B4
  0
DICTIONARY
  5
6B5
330
3D0
100
AcDbDictionary
280
     1
281
     1
  3
ACAD_XREC_ROUNDTRIP
360
6B6
  0
DICTIONARY
  5
6BD
330
3D4
100
AcDbDictionary
280
     1
281
     1
  3
ACAD_XREC_ROUNDTRIP
360
6BE
  0
DICTIONARY
  5
6A1
330
3C6
100
AcDbDictionary
280
     1
281
     1
  3
ACAD_XREC_ROUNDTRIP
360
6A2
  0
DICTIONARY
  5
6A3
330
3C7
100
AcDbDictionary
280
     1
281
     1
  3
ACAD_XREC_ROUNDTRIP
360
6A4
  0
DICTIONARY
  5
6A5
330
3C8
100
AcDbDictionary
280
     1
281
     1
  3
ACAD_XREC_ROUNDTRIP
360
6A6
  0
DICTIONARY
  5
6A7
330
3C9
100
AcDbDictionary
280
     1
281
     1
  3
ACAD_XREC_ROUNDTRIP
360
6A8
  0
DICTIONARY
  5
6BB
330
3D3
100
AcDbDictionary
280
     1
281
     1
  3
ACAD_XREC_ROUNDTRIP
360
6BC
  0
DICTIONARY
  5
6B1
330
3CE
100
AcDbDictionary
280
     1
281
     1
  3
ACAD_XREC_ROUNDTRIP
360
6B2
  0
DICTIONARY
  5
6B9
330
3D2
100
AcDbDictionary
280
     1
281
     1
  3
ACAD_XREC_ROUNDTRIP
360
6BA
  0
XRECORD
  5
69E
102
{ACAD_REACTORS
330
69D
102
}
330
69D
100
AcDbXrecord
280
     1
102
MATERIAL
148
0.0
149
0.0
149
0.0
 93
        0
 94
      127
282
     0
 72
     1
 77
     1
171
     1
175
     1
179
     1
273
     0
  0
XRECORD
  5
69C
102
{ACAD_REACTORS
330
69B
102
}
330
69B
100
AcDbXrecord
280
     1
102
MATERIAL
148
0.0
149
0.0
149
0.0
 93
        0
 94
      127
282
     0
 72
     1
 77
     1
171
     1
175
     1
179
     1
273
     0
  0
XRECORD
  5
6A0
102
{ACAD_REACTORS
330
69F
102
}
330
69F
100
AcDbXrecord
280
     1
102
MATERIAL
148
0.0
149
0.0
149
0.0
 93
        0
 94
      127
282
     0
 72
     1
 77
     1
171
     1
175
     1
179
     1
273
     0
  0
XRECORD
  5
6AA
102
{ACAD_REACTORS
330
6A9
102
}
330
6A9
100
AcDbXrecord
280
     1
102
RTVSPropertyOp0
 70
     1
102
RTVSPropertyOp1
 70
     1
102
RTVSPropertyOp2
 70
     1
102
RTVSPropertyOp3
 70
     1
102
RTVSPropertyOp4
 70
     1
102
RTVSPropertyOp5
 70
     1
102
RTVSPropertyOp6
 70
     1
102
RTVSPropertyOp7
 70
     1
102
RTVSPropertyOp8
 70
     1
102
RTVSPropertyOp9
 70
     1
102
RTVSPropertyOp10
 70
     1
102
RTVSPropertyOp11
 70
     1
102
RTVSPropertyOp12
 70
     1
102
RTVSPropertyOp13
 70
     1
102
RTVSPropertyOp14
 70
     1
102
RTVSPropertyOp15
 70
     1
102
RTVSPropertyOp16
 70
     1
102
RTVSPropertyOp17
 70
     1
102
RTVSPropertyOp18
 70
     1
102
RTVSPropertyOp19
 70
     1
102
RTVSPropertyOp20
 70
     1
102
RTVSPropertyOp21
 70
     1
102
RTVSPropertyOp22
 70
     1
102
RTVSPropertyOp23
 70
     1
102
RTVSPropertyOp24
 70
     1
102
RTVSPropertyOp25
 70
     1
102
RTVSPropertyOp26
 70
     1
102
RTVSPropertyOp27
 70
     1
102
RTVSPropertyOp28
 70
     1
102
RTVSPropertyOp29
 70
     1
102
RTVSPropertyOp30
 70
     1
102
RTVSPropertyOp31
 70
     1
102
RTVSPropertyOp32
 70
     1
  0
XRECORD
  5
6AE
102
{ACAD_REACTORS
330
6AD
102
}
330
6AD
100
AcDbXrecord
280
     1
102
RTVSPropertyOp0
 70
     1
102
RTVSPropertyOp1
 70
     1
102
RTVSPropertyOp2
 70
     1
102
RTVSPropertyOp3
 70
     1
102
RTVSPropertyOp4
 70
     1
102
RTVSPropertyOp5
 70
     1
102
RTVSPropertyOp6
 70
     1
102
RTVSPropertyOp7
 70
     1
102
RTVSPropertyOp8
 70
     1
102
RTVSPropertyOp9
 70
     1
102
RTVSPropertyOp10
 70
     1
102
RTVSPropertyOp11
 70
     1
102
RTVSPropertyOp12
 70
     1
102
RTVSPropertyOp13
 70
     1
102
RTVSPropertyOp14
 70
     1
102
RTVSPropertyOp15
 70
     1
102
RTVSPropertyOp16
 70
     1
102
RTVSPropertyOp17
 70
     1
102
RTVSPropertyOp18
 70
     1
102
RTVSPropertyOp19
 70
     1
102
RTVSPropertyOp20
 70
     1
102
RTVSPropertyOp21
 70
     1
102
RTVSPropertyOp22
 70
     1
102
RTVSPropertyOp23
 70
     1
102
RTVSPropertyOp24
 70
     1
102
RTVSPropertyOp25
 70
     1
102
RTVSPropertyOp26
 70
     1
102
RTVSPropertyOp27
 70
     1
102
RTVSPropertyOp28
 70
     1
102
RTVSPropertyOp29
 70
     1
102
RTVSPropertyOp30
 70
     1
102
RTVSPropertyOp31
 70
     1
102
RTVSPropertyOp32
 70
     1
  0
XRECORD
  5
6AC
102
{ACAD_REACTORS
330
6AB
102
}
330
6AB
100
AcDbXrecord
280
     1
102
RTVSPropertyOp0
 70
     1
102
RTVSPropertyOp1
 70
     1
102
RTVSPropertyOp2
 70
     1
102
RTVSPropertyOp3
 70
     1
102
RTVSPropertyOp4
 70
     1
102
RTVSPropertyOp5
 70
     1
102
RTVSPropertyOp6
 70
     1
102
RTVSPropertyOp7
 70
     1
102
RTVSPropertyOp8
 70
     1
102
RTVSPropertyOp9
 70
     1
102
RTVSPropertyOp10
 70
     1
102
RTVSPropertyOp11
 70
     1
102
RTVSPropertyOp12
 70
     1
102
RTVSPropertyOp13
 70
     1
102
RTVSPropertyOp14
 70
     1
102
RTVSPropertyOp15
 70
     1
102
RTVSPropertyOp16
 70
     1
102
RTVSPropertyOp17
 70
     1
102
RTVSPropertyOp18
 70
     1
102
RTVSPropertyOp19
 70
     1
102
RTVSPropertyOp20
 70
     1
102
RTVSPropertyOp21
 70
     1
102
RTVSPropertyOp22
 70
     1
102
RTVSPropertyOp23
 70
     1
102
RTVSPropertyOp24
 70
     1
102
RTVSPropertyOp25
 70
     1
102
RTVSPropertyOp26
 70
     1
102
RTVSPropertyOp27
 70
     1
102
RTVSPropertyOp28
 70
     1
102
RTVSPropertyOp29
 70
     1
102
RTVSPropertyOp30
 70
     1
102
RTVSPropertyOp31
 70
     1
102
RTVSPropertyOp32
 70
     1
  0
XRECORD
  5
6B0
102
{ACAD_REACTORS
330
6AF
102
}
330
6AF
100
AcDbXrecord
280
     1
102
RTVSPropertyOp0
 70
     1
102
RTVSPropertyOp1
 70
     1
102
RTVSPropertyOp2
 70
     1
102
RTVSPropertyOp3
 70
     1
102
RTVSPropertyOp4
 70
     1
102
RTVSPropertyOp5
 70
     1
102
RTVSPropertyOp6
 70
     1
102
RTVSPropertyOp7
 70
     1
102
RTVSPropertyOp8
 70
     1
102
RTVSPropertyOp9
 70
     1
102
RTVSPropertyOp10
 70
     1
102
RTVSPropertyOp11
 70
     1
102
RTVSPropertyOp12
 70
     1
102
RTVSPropertyOp13
 70
     1
102
RTVSPropertyOp14
 70
     1
102
RTVSPropertyOp15
 70
     1
102
RTVSPropertyOp16
 70
     1
102
RTVSPropertyOp17
 70
     1
102
RTVSPropertyOp18
 70
     1
102
RTVSPropertyOp19
 70
     1
102
RTVSPropertyOp20
 70
     1
102
RTVSPropertyOp21
 70
     1
102
RTVSPropertyOp22
 70
     1
102
RTVSPropertyOp23
 70
     1
102
RTVSPropertyOp24
 70
     1
102
RTVSPropertyOp25
 70
     1
102
RTVSPropertyOp26
 70
     1
102
RTVSPropertyOp27
 70
     1
102
RTVSPropertyOp28
 70
     1
102
RTVSPropertyOp29
 70
     1
102
RTVSPropertyOp30
 70
     1
102
RTVSPropertyOp31
 70
     1
102
RTVSPropertyOp32
 70
     1
  0
XRECORD
  5
6B8
102
{ACAD_REACTORS
330
6B7
102
}
330
6B7
100
AcDbXrecord
280
     1
102
RTVSPropertyOp0
 70
     1
102
RTVSPropertyOp1
 70
     1
102
RTVSPropertyOp2
 70
     1
102
RTVSPropertyOp3
 70
     1
102
RTVSPropertyOp4
 70
     1
102
RTVSPropertyOp5
 70
     1
102
RTVSPropertyOp6
 70
     1
102
RTVSPropertyOp7
 70
     1
102
RTVSPropertyOp8
 70
     1
102
RTVSPropertyOp9
 70
     1
102
RTVSPropertyOp10
 70
     1
102
RTVSPropertyOp11
 70
     1
102
RTVSPropertyOp12
 70
     1
102
RTVSPropertyOp13
 70
     1
102
RTVSPropertyOp14
 70
     1
102
RTVSPropertyOp15
 70
     1
102
RTVSPropertyOp16
 70
     1
102
RTVSPropertyOp17
 70
     1
102
RTVSPropertyOp18
 70
     1
102
RTVSPropertyOp19
 70
     1
102
RTVSPropertyOp20
 70
     1
102
RTVSPropertyOp21
 70
     1
102
RTVSPropertyOp22
 70
     1
102
RTVSPropertyOp23
 70
     1
102
RTVSPropertyOp24
 70
     1
102
RTVSPropertyOp25
 70
     1
102
RTVSPropertyOp26
 70
     1
102
RTVSPropertyOp27
 70
     1
102
RTVSPropertyOp28
 70
     1
102
RTVSPropertyOp29
 70
     1
102
RTVSPropertyOp30
 70
     1
102
RTVSPropertyOp31
 70
     1
102
RTVSPropertyOp32
 70
     1
  0
XRECORD
  5
6C0
102
{ACAD_REACTORS
330
6BF
102
}
330
6BF
100
AcDbXrecord
280
     1
102
RTVSPropertyOp0
 70
     1
102
RTVSPropertyOp1
 70
     1
102
RTVSPropertyOp2
 70
     1
102
RTVSPropertyOp3
 70
     1
102
RTVSPropertyOp4
 70
     1
102
RTVSPropertyOp5
 70
     1
102
RTVSPropertyOp6
 70
     1
102
RTVSPropertyOp7
 70
     1
102
RTVSPropertyOp8
 70
     1
102
RTVSPropertyOp9
 70
     1
102
RTVSPropertyOp10
 70
     1
102
RTVSPropertyOp11
 70
     1
102
RTVSPropertyOp12
 70
     1
102
RTVSPropertyOp13
 70
     1
102
RTVSPropertyOp14
 70
     1
102
RTVSPropertyOp15
 70
     1
102
RTVSPropertyOp16
 70
     1
102
RTVSPropertyOp17
 70
     1
102
RTVSPropertyOp18
 70
     1
102
RTVSPropertyOp19
 70
     1
102
RTVSPropertyOp20
 70
     1
102
RTVSPropertyOp21
 70
     1
102
RTVSPropertyOp22
 70
     1
102
RTVSPropertyOp23
 70
     1
102
RTVSPropertyOp24
 70
     1
102
RTVSPropertyOp25
 70
     1
102
RTVSPropertyOp26
 70
     1
102
RTVSPropertyOp27
 70
     1
102
RTVSPropertyOp28
 70
     1
102
RTVSPropertyOp29
 70
     1
102
RTVSPropertyOp30
 70
     1
102
RTVSPropertyOp31
 70
     1
102
RTVSPropertyOp32
 70
     1
  0
XRECORD
  5
6B4
102
{ACAD_REACTORS
330
6B3
102
}
330
6B3
100
AcDbXrecord
280
     1
102
RTVSPropertyOp0
 70
     1
102
RTVSPropertyOp1
 70
     1
102
RTVSPropertyOp2
 70
     1
102
RTVSPropertyOp3
 70
     1
102
RTVSPropertyOp4
 70
     1
102
RTVSPropertyOp5
 70
     1
102
RTVSPropertyOp6
 70
     1
102
RTVSPropertyOp7
 70
     1
102
RTVSPropertyOp8
 70
     1
102
RTVSPropertyOp9
 70
     1
102
RTVSPropertyOp10
 70
     1
102
RTVSPropertyOp11
 70
     1
102
RTVSPropertyOp12
 70
     1
102
RTVSPropertyOp13
 70
     1
102
RTVSPropertyOp14
 70
     1
102
RTVSPropertyOp15
 70
     1
102
RTVSPropertyOp16
 70
     1
102
RTVSPropertyOp17
 70
     1
102
RTVSPropertyOp18
 70
     1
102
RTVSPropertyOp19
 70
     1
102
RTVSPropertyOp20
 70
     1
102
RTVSPropertyOp21
 70
     1
102
RTVSPropertyOp22
 70
     1
102
RTVSPropertyOp23
 70
     1
102
RTVSPropertyOp24
 70
     1
102
RTVSPropertyOp25
 70
     1
102
RTVSPropertyOp26
 70
     1
102
RTVSPropertyOp27
 70
     1
102
RTVSPropertyOp28
 70
     1
102
RTVSPropertyOp29
 70
     1
102
RTVSPropertyOp30
 70
     1
102
RTVSPropertyOp31
 70
     1
102
RTVSPropertyOp32
 70
     1
  0
XRECORD
  5
6B6
102
{ACAD_REACTORS
330
6B5
102
}
330
6B5
100
AcDbXrecord
280
     1
102
RTVSPropertyOp0
 70
     1
102
RTVSPropertyOp1
 70
     1
102
RTVSPropertyOp2
 70
     1
102
RTVSPropertyOp3
 70
     1
102
RTVSPropertyOp4
 70
     1
102
RTVSPropertyOp5
 70
     1
102
RTVSPropertyOp6
 70
     1
102
RTVSPropertyOp7
 70
     1
102
RTVSPropertyOp8
 70
     1
102
RTVSPropertyOp9
 70
     1
102
RTVSPropertyOp10
 70
     1
102
RTVSPropertyOp11
 70
     1
102
RTVSPropertyOp12
 70
     1
102
RTVSPropertyOp13
 70
     1
102
RTVSPropertyOp14
 70
     1
102
RTVSPropertyOp15
 70
     1
102
RTVSPropertyOp16
 70
     1
102
RTVSPropertyOp17
 70
     1
102
RTVSPropertyOp18
 70
     1
102
RTVSPropertyOp19
 70
     1
102
RTVSPropertyOp20
 70
     1
102
RTVSPropertyOp21
 70
     1
102
RTVSPropertyOp22
 70
     1
102
RTVSPropertyOp23
 70
     1
102
RTVSPropertyOp24
 70
     1
102
RTVSPropertyOp25
 70
     1
102
RTVSPropertyOp26
 70
     1
102
RTVSPropertyOp27
 70
     1
102
RTVSPropertyOp28
 70
     1
102
RTVSPropertyOp29
 70
     1
102
RTVSPropertyOp30
 70
     1
102
RTVSPropertyOp31
 70
     1
102
RTVSPropertyOp32
 70
     1
  0
XRECORD
  5
6BE
102
{ACAD_REACTORS
330
6BD
102
}
330
6BD
100
AcDbXrecord
280
     1
102
RTVSPropertyOp0
 70
     1
102
RTVSPropertyOp1
 70
     1
102
RTVSPropertyOp2
 70
     1
102
RTVSPropertyOp3
 70
     1
102
RTVSPropertyOp4
 70
     1
102
RTVSPropertyOp5
 70
     1
102
RTVSPropertyOp6
 70
     1
102
RTVSPropertyOp7
 70
     1
102
RTVSPropertyOp8
 70
     1
102
RTVSPropertyOp9
 70
     1
102
RTVSPropertyOp10
 70
     1
102
RTVSPropertyOp11
 70
     1
102
RTVSPropertyOp12
 70
     1
102
RTVSPropertyOp13
 70
     1
102
RTVSPropertyOp14
 70
     1
102
RTVSPropertyOp15
 70
     1
102
RTVSPropertyOp16
 70
     1
102
RTVSPropertyOp17
 70
     1
102
RTVSPropertyOp18
 70
     1
102
RTVSPropertyOp19
 70
     1
102
RTVSPropertyOp20
 70
     1
102
RTVSPropertyOp21
 70
     1
102
RTVSPropertyOp22
 70
     1
102
RTVSPropertyOp23
 70
     1
102
RTVSPropertyOp24
 70
     1
102
RTVSPropertyOp25
 70
     1
102
RTVSPropertyOp26
 70
     1
102
RTVSPropertyOp27
 70
     1
102
RTVSPropertyOp28
 70
     1
102
RTVSPropertyOp29
 70
     1
102
RTVSPropertyOp30
 70
     1
102
RTVSPropertyOp31
 70
     1
102
RTVSPropertyOp32
 70
     1
  0
XRECORD
  5
6A2
102
{ACAD_REACTORS
330
6A1
102
}
330
6A1
100
AcDbXrecord
280
     1
102
RTVSPropertyOp0
 70
     1
102
RTVSPropertyOp1
 70
     1
102
RTVSPropertyOp2
 70
     1
102
RTVSPropertyOp3
 70
     1
102
RTVSPropertyOp4
 70
     1
102
RTVSPropertyOp5
 70
     1
102
RTVSPropertyOp6
 70
     1
102
RTVSPropertyOp7
 70
     1
102
RTVSPropertyOp8
 70
     1
102
RTVSPropertyOp9
 70
     1
102
RTVSPropertyOp10
 70
     1
102
RTVSPropertyOp11
 70
     1
102
RTVSPropertyOp12
 70
     1
102
RTVSPropertyOp13
 70
     1
102
RTVSPropertyOp14
 70
     1
102
RTVSPropertyOp15
 70
     1
102
RTVSPropertyOp16
 70
     1
102
RTVSPropertyOp17
 70
     1
102
RTVSPropertyOp18
 70
     1
102
RTVSPropertyOp19
 70
     1
102
RTVSPropertyOp20
 70
     1
102
RTVSPropertyOp21
 70
     1
102
RTVSPropertyOp22
 70
     1
102
RTVSPropertyOp23
 70
     1
102
RTVSPropertyOp24
 70
     1
102
RTVSPropertyOp25
 70
     1
102
RTVSPropertyOp26
 70
     1
102
RTVSPropertyOp27
 70
     1
102
RTVSPropertyOp28
 70
     1
102
RTVSPropertyOp29
 70
     1
102
RTVSPropertyOp30
 70
     1
102
RTVSPropertyOp31
 70
     1
102
RTVSPropertyOp32
 70
     1
  0
XRECORD
  5
6A4
102
{ACAD_REACTORS
330
6A3
102
}
330
6A3
100
AcDbXrecord
280
     1
102
RTVSPropertyOp0
 70
     1
102
RTVSPropertyOp1
 70
     1
102
RTVSPropertyOp2
 70
     1
102
RTVSPropertyOp3
 70
     1
102
RTVSPropertyOp4
 70
     1
102
RTVSPropertyOp5
 70
     1
102
RTVSPropertyOp6
 70
     1
102
RTVSPropertyOp7
 70
     1
102
RTVSPropertyOp8
 70
     1
102
RTVSPropertyOp9
 70
     1
102
RTVSPropertyOp10
 70
     1
102
RTVSPropertyOp11
 70
     1
102
RTVSPropertyOp12
 70
     1
102
RTVSPropertyOp13
 70
     1
102
RTVSPropertyOp14
 70
     1
102
RTVSPropertyOp15
 70
     1
102
RTVSPropertyOp16
 70
     1
102
RTVSPropertyOp17
 70
     1
102
RTVSPropertyOp18
 70
     1
102
RTVSPropertyOp19
 70
     1
102
RTVSPropertyOp20
 70
     1
102
RTVSPropertyOp21
 70
     1
102
RTVSPropertyOp22
 70
     1
102
RTVSPropertyOp23
 70
     1
102
RTVSPropertyOp24
 70
     1
102
RTVSPropertyOp25
 70
     1
102
RTVSPropertyOp26
 70
     1
102
RTVSPropertyOp27
 70
     1
102
RTVSPropertyOp28
 70
     1
102
RTVSPropertyOp29
 70
     1
102
RTVSPropertyOp30
 70
     1
102
RTVSPropertyOp31
 70
     1
102
RTVSPropertyOp32
 70
     1
  0
XRECORD
  5
6A6
102
{ACAD_REACTORS
330
6A5
102
}
330
6A5
100
AcDbXrecord
280
     1
102
RTVSPropertyOp0
 70
     1
102
RTVSPropertyOp1
 70
     1
102
RTVSPropertyOp2
 70
     1
102
RTVSPropertyOp3
 70
     1
102
RTVSPropertyOp4
 70
     1
102
RTVSPropertyOp5
 70
     1
102
RTVSPropertyOp6
 70
     1
102
RTVSPropertyOp7
 70
     1
102
RTVSPropertyOp8
 70
     1
102
RTVSPropertyOp9
 70
     1
102
RTVSPropertyOp10
 70
     1
102
RTVSPropertyOp11
 70
     1
102
RTVSPropertyOp12
 70
     1
102
RTVSPropertyOp13
 70
     1
102
RTVSPropertyOp14
 70
     1
102
RTVSPropertyOp15
 70
     1
102
RTVSPropertyOp16
 70
     1
102
RTVSPropertyOp17
 70
     1
102
RTVSPropertyOp18
 70
     1
102
RTVSPropertyOp19
 70
     1
102
RTVSPropertyOp20
 70
     1
102
RTVSPropertyOp21
 70
     1
102
RTVSPropertyOp22
 70
     1
102
RTVSPropertyOp23
 70
     1
102
RTVSPropertyOp24
 70
     1
102
RTVSPropertyOp25
 70
     1
102
RTVSPropertyOp26
 70
     1
102
RTVSPropertyOp27
 70
     1
102
RTVSPropertyOp28
 70
     1
102
RTVSPropertyOp29
 70
     1
102
RTVSPropertyOp30
 70
     1
102
RTVSPropertyOp31
 70
     1
102
RTVSPropertyOp32
 70
     1
  0
XRECORD
  5
6A8
102
{ACAD_REACTORS
330
6A7
102
}
330
6A7
100
AcDbXrecord
280
     1
102
RTVSPropertyOp0
 70
     1
102
RTVSPropertyOp1
 70
     1
102
RTVSPropertyOp2
 70
     1
102
RTVSPropertyOp3
 70
     1
102
RTVSPropertyOp4
 70
     1
102
RTVSPropertyOp5
 70
     1
102
RTVSPropertyOp6
 70
     1
102
RTVSPropertyOp7
 70
     1
102
RTVSPropertyOp8
 70
     1
102
RTVSPropertyOp9
 70
     1
102
RTVSPropertyOp10
 70
     1
102
RTVSPropertyOp11
 70
     1
102
RTVSPropertyOp12
 70
     1
102
RTVSPropertyOp13
 70
     1
102
RTVSPropertyOp14
 70
     1
102
RTVSPropertyOp15
 70
     1
102
RTVSPropertyOp16
 70
     1
102
RTVSPropertyOp17
 70
     1
102
RTVSPropertyOp18
 70
     1
102
RTVSPropertyOp19
 70
     1
102
RTVSPropertyOp20
 70
     1
102
RTVSPropertyOp21
 70
     1
102
RTVSPropertyOp22
 70
     1
102
RTVSPropertyOp23
 70
     1
102
RTVSPropertyOp24
 70
     1
102
RTVSPropertyOp25
 70
     1
102
RTVSPropertyOp26
 70
     1
102
RTVSPropertyOp27
 70
     1
102
RTVSPropertyOp28
 70
     1
102
RTVSPropertyOp29
 70
     1
102
RTVSPropertyOp30
 70
     1
102
RTVSPropertyOp31
 70
     1
102
RTVSPropertyOp32
 70
     1
  0
XRECORD
  5
6BC
102
{ACAD_REACTORS
330
6BB
102
}
330
6BB
100
AcDbXrecord
280
     1
102
RTVSPropertyOp0
 70
     1
102
RTVSPropertyOp1
 70
     1
102
RTVSPropertyOp2
 70
     1
102
RTVSPropertyOp3
 70
     1
102
RTVSPropertyOp4
 70
     1
102
RTVSPropertyOp5
 70
     1
102
RTVSPropertyOp6
 70
     1
102
RTVSPropertyOp7
 70
     1
102
RTVSPropertyOp8
 70
     1
102
RTVSPropertyOp9
 70
     1
102
RTVSPropertyOp10
 70
     1
102
RTVSPropertyOp11
 70
     1
102
RTVSPropertyOp12
 70
     1
102
RTVSPropertyOp13
 70
     1
102
RTVSPropertyOp14
 70
     1
102
RTVSPropertyOp15
 70
     1
102
RTVSPropertyOp16
 70
     1
102
RTVSPropertyOp17
 70
     1
102
RTVSPropertyOp18
 70
     1
102
RTVSPropertyOp19
 70
     1
102
RTVSPropertyOp20
 70
     1
102
RTVSPropertyOp21
 70
     1
102
RTVSPropertyOp22
 70
     1
102
RTVSPropertyOp23
 70
     1
102
RTVSPropertyOp24
 70
     1
102
RTVSPropertyOp25
 70
     1
102
RTVSPropertyOp26
 70
     1
102
RTVSPropertyOp27
 70
     1
102
RTVSPropertyOp28
 70
     1
102
RTVSPropertyOp29
 70
     1
102
RTVSPropertyOp30
 70
     1
102
RTVSPropertyOp31
 70
     1
102
RTVSPropertyOp32
 70
     1
  0
XRECORD
  5
6B2
102
{ACAD_REACTORS
330
6B1
102
}
330
6B1
100
AcDbXrecord
280
     1
102
RTVSPropertyOp0
 70
     1
102
RTVSPropertyOp1
 70
     1
102
RTVSPropertyOp2
 70
     1
102
RTVSPropertyOp3
 70
     1
102
RTVSPropertyOp4
 70
     1
102
RTVSPropertyOp5
 70
     1
102
RTVSPropertyOp6
 70
     1
102
RTVSPropertyOp7
 70
     1
102
RTVSPropertyOp8
 70
     1
102
RTVSPropertyOp9
 70
     1
102
RTVSPropertyOp10
 70
     1
102
RTVSPropertyOp11
 70
     1
102
RTVSPropertyOp12
 70
     1
102
RTVSPropertyOp13
 70
     1
102
RTVSPropertyOp14
 70
     1
102
RTVSPropertyOp15
 70
     1
102
RTVSPropertyOp16
 70
     1
102
RTVSPropertyOp17
 70
     1
102
RTVSPropertyOp18
 70
     1
102
RTVSPropertyOp19
 70
     1
102
RTVSPropertyOp20
 70
     1
102
RTVSPropertyOp21
 70
     1
102
RTVSPropertyOp22
 70
     1
102
RTVSPropertyOp23
 70
     1
102
RTVSPropertyOp24
 70
     1
102
RTVSPropertyOp25
 70
     1
102
RTVSPropertyOp26
 70
     1
102
RTVSPropertyOp27
 70
     1
102
RTVSPropertyOp28
 70
     1
102
RTVSPropertyOp29
 70
     1
102
RTVSPropertyOp30
 70
     1
102
RTVSPropertyOp31
 70
     1
102
RTVSPropertyOp32
 70
     1
  0
XRECORD
  5
6BA
102
{ACAD_REACTORS
330
6B9
102
}
330
6B9
100
AcDbXrecord
280
     1
102
RTVSPropertyOp0
 70
     1
102
RTVSPropertyOp1
 70
     1
102
RTVSPropertyOp2
 70
     1
102
RTVSPropertyOp3
 70
     1
102
RTVSPropertyOp4
 70
     1
102
RTVSPropertyOp5
 70
     1
102
RTVSPropertyOp6
 70
     1
102
RTVSPropertyOp7
 70
     1
102
RTVSPropertyOp8
 70
     1
102
RTVSPropertyOp9
 70
     1
102
RTVSPropertyOp10
 70
     1
102
RTVSPropertyOp11
 70
     1
102
RTVSPropertyOp12
 70
     1
102
RTVSPropertyOp13
 70
     1
102
RTVSPropertyOp14
 70
     1
102
RTVSPropertyOp15
 70
     1
102
RTVSPropertyOp16
 70
     1
102
RTVSPropertyOp17
 70
     1
102
RTVSPropertyOp18
 70
     1
102
RTVSPropertyOp19
 70
     1
102
RTVSPropertyOp20
 70
     1
102
RTVSPropertyOp21
 70
     1
102
RTVSPropertyOp22
 70
     1
102
RTVSPropertyOp23
 70
     1
102
RTVSPropertyOp24
 70
     1
102
RTVSPropertyOp25
 70
     1
102
RTVSPropertyOp26
 70
     1
102
RTVSPropertyOp27
 70
     1
102
RTVSPropertyOp28
 70
     1
102
RTVSPropertyOp29
 70
     1
102
RTVSPropertyOp30
 70
     1
102
RTVSPropertyOp31
 70
     1
102
RTVSPropertyOp32
 70
     1
  0
ENDSEC
  0
EOF
