  0
SECTION
  2
HEADER
  9
$ACADVER
  1
AC1015
  9
$ACADMAINTVER
 70
     6
  9
$DWGCODEPAGE
  3
ANSI_1252
  9
$INSBASE
 10
0.0
 20
0.0
 30
0.0
  9
$EXTMIN
 10
1.000000000000000E+20
 20
1.000000000000000E+20
 30
1.000000000000000E+20
  9
$EXTMAX
 10
-1.000000000000000E+20
 20
-1.000000000000000E+20
 30
-1.000000000000000E+20
  9
$LIMMIN
 10
-170.0
 20
-170.0
  9
$LIMMAX
 10
519.0
 20
260.0
  9
$ORTHOMODE
 70
     0
  9
$REGENMODE
 70
     1
  9
$FILLMODE
 70
     1
  9
$QTEXTMODE
 70
     0
  9
$MIRRTEXT
 70
     0
  9
$LTSCALE
 40
1.0
  9
$ATTMODE
 70
     1
  9
$TEXTSIZE
 40
3.5
  9
$TRACEWID
 40
1.0
  9
$TEXTSTYLE
  7
SIMPLEX
  9
$CLAYER
  8
1
  9
$CELTYPE
  6
BYLAYER
  9
$CECOLOR
 62
   256
  9
$CELTSCALE
 40
1.0
  9
$DISPSILH
 70
     0
  9
$DIMSCALE
 40
1.0
  9
$DIMASZ
 40
2.5
  9
$DIMEXO
 40
0.0
  9
$DIMDLI
 40
3.75
  9
$DIMRND
 40
0.0
  9
$DIMDLE
 40
0.0
  9
$DIMEXE
 40
1.25
  9
$DIMTP
 40
0.0
  9
$DIMTM
 40
0.0
  9
$DIMTXT
 40
3.5
  9
$DIMCEN
 40
0.0
  9
$DIMTSZ
 40
0.0
  9
$DIMTOL
 70
     0
  9
$DIMLIM
 70
     0
  9
$DIMTIH
 70
     0
  9
$DIMTOH
 70
     0
  9
$DIMSE1
 70
     0
  9
$DIMSE2
 70
     0
  9
$DIMTAD
 70
     1
  9
$DIMZIN
 70
     8
  9
$DIMBLK
  1

  9
$DIMASO
 70
     1
  9
$DIMSHO
 70
     1
  9
$DIMPOST
  1

  9
$DIMAPOST
  1

  9
$DIMALT
 70
     0
  9
$DIMALTD
 70
     3
  9
$DIMALTF
 40
0.039370078
  9
$DIMLFAC
 40
1.0
  9
$DIMTOFL
 70
     0
  9
$DIMTVP
 40
0.0
  9
$DIMTIX
 70
     0
  9
$DIMSOXD
 70
     0
  9
$DIMSAH
 70
     0
  9
$DIMBLK1
  1

  9
$DIMBLK2
  1

  9
$DIMSTYLE
  2
STANDARD
  9
$DIMCLRD
 70
     0
  9
$DIMCLRE
 70
     0
  9
$DIMCLRT
 70
     0
  9
$DIMTFAC
 40
1.0
  9
$DIMGAP
 40
0.625
  9
$DIMJUST
 70
     0
  9
$DIMSD1
 70
     0
  9
$DIMSD2
 70
     0
  9
$DIMTOLJ
 70
     0
  9
$DIMTZIN
 70
     8
  9
$DIMALTZ
 70
     0
  9
$DIMALTTZ
 70
     0
  9
$DIMUPT
 70
     0
  9
$DIMDEC
 70
     2
  9
$DIMTDEC
 70
     2
  9
$DIMALTU
 70
     2
  9
$DIMALTTD
 70
     3
  9
$DIMTXSTY
  7
SIMPLEX
  9
$DIMAUNIT
 70
     0
  9
$DIMADEC
 70
     2
  9
$DIMALTRND
 40
0.0
  9
$DIMAZIN
 70
     2
  9
$DIMDSEP
 70
    46
  9
$DIMATFIT
 70
     3
  9
$DIMFRAC
 70
     0
  9
$DIMLDRBLK
  1

  9
$DIMLUNIT
 70
     2
  9
$DIMLWD
 70
    -2
  9
$DIMLWE
 70
    -2
  9
$DIMTMOVE
 70
     0
  9
$LUNITS
 70
     2
  9
$LUPREC
 70
     4
  9
$SKETCHINC
 40
1.0
  9
$FILLETRAD
 40
0.0
  9
$AUNITS
 70
     0
  9
$AUPREC
 70
     0
  9
$MENU
  1
c:\tdm21\cad\caduti13\tdm13
  9
$ELEVATION
 40
0.0
  9
$PELEVATION
 40
0.0
  9
$THICKNESS
 40
0.0
  9
$LIMCHECK
 70
     0
  9
$CHAMFERA
 40
0.0
  9
$CHAMFERB
 40
0.0
  9
$CHAMFERC
 40
0.0
  9
$CHAMFERD
 40
0.0
  9
$SKPOLY
 70
     0
  9
$TDCREATE
 40
2454957.593642639
  9
$TDUCREATE
 40
2454957.510309306
  9
$TDUPDATE
 40
2456860.744988761
  9
$TDUUPDATE
 40
2456860.661655428
  9
$TDINDWG
 40
0.0009643519
  9
$TDUSRTIMER
 40
0.0009475231
  9
$USRTIMER
 70
     1
  9
$ANGBASE
 50
0.0
  9
$ANGDIR
 70
     0
  9
$PDMODE
 70
     1
  9
$PDSIZE
 40
0.0
  9
$PLINEWID
 40
0.0
  9
$SPLFRAME
 70
     0
  9
$SPLINETYPE
 70
     6
  9
$SPLINESEGS
 70
     8
  9
$HANDSEED
  5
726
  9
$SURFTAB1
 70
     6
  9
$SURFTAB2
 70
     6
  9
$SURFTYPE
 70
     6
  9
$SURFU
 70
     6
  9
$SURFV
 70
     6
  9
$UCSBASE
  2

  9
$UCSNAME
  2

  9
$UCSORG
 10
0.0
 20
0.0
 30
0.0
  9
$UCSXDIR
 10
1.0
 20
0.0
 30
0.0
  9
$UCSYDIR
 10
0.0
 20
1.0
 30
0.0
  9
$UCSORTHOREF
  2

  9
$UCSORTHOVIEW
 70
     0
  9
$UCSORGTOP
 10
0.0
 20
0.0
 30
0.0
  9
$UCSORGBOTTOM
 10
0.0
 20
0.0
 30
0.0
  9
$UCSORGLEFT
 10
0.0
 20
0.0
 30
0.0
  9
$UCSORGRIGHT
 10
0.0
 20
0.0
 30
0.0
  9
$UCSORGFRONT
 10
0.0
 20
0.0
 30
0.0
  9
$UCSORGBACK
 10
0.0
 20
0.0
 30
0.0
  9
$PUCSBASE
  2

  9
$PUCSNAME
  2

  9
$PUCSORG
 10
0.0
 20
0.0
 30
0.0
  9
$PUCSXDIR
 10
1.0
 20
0.0
 30
0.0
  9
$PUCSYDIR
 10
0.0
 20
1.0
 30
0.0
  9
$PUCSORTHOREF
  2

  9
$PUCSORTHOVIEW
 70
     0
  9
$PUCSORGTOP
 10
0.0
 20
0.0
 30
0.0
  9
$PUCSORGBOTTOM
 10
0.0
 20
0.0
 30
0.0
  9
$PUCSORGLEFT
 10
0.0
 20
0.0
 30
0.0
  9
$PUCSORGRIGHT
 10
0.0
 20
0.0
 30
0.0
  9
$PUCSORGFRONT
 10
0.0
 20
0.0
 30
0.0
  9
$PUCSORGBACK
 10
0.0
 20
0.0
 30
0.0
  9
$USERI1
 70
     0
  9
$USERI2
 70
     0
  9
$USERI3
 70
     0
  9
$USERI4
 70
     0
  9
$USERI5
 70
     0
  9
$USERR1
 40
0.0
  9
$USERR2
 40
0.0
  9
$USERR3
 40
0.0
  9
$USERR4
 40
0.0
  9
$USERR5
 40
0.0
  9
$WORLDVIEW
 70
     1
  9
$SHADEDGE
 70
     3
  9
$SHADEDIF
 70
    70
  9
$TILEMODE
 70
     1
  9
$MAXACTVP
 70
    64
  9
$PINSBASE
 10
0.0
 20
0.0
 30
0.0
  9
$PLIMCHECK
 70
     0
  9
$PEXTMIN
 10
0.0
 20
0.0
 30
0.0
  9
$PEXTMAX
 10
0.0
 20
0.0
 30
0.0
  9
$PLIMMIN
 10
0.0
 20
0.0
  9
$PLIMMAX
 10
12.0
 20
9.0
  9
$UNITMODE
 70
     0
  9
$VISRETAIN
 70
     0
  9
$PLINEGEN
 70
     0
  9
$PSLTSCALE
 70
     1
  9
$TREEDEPTH
 70
  3020
  9
$CMLSTYLE
  2
STANDARD
  9
$CMLJUST
 70
     0
  9
$CMLSCALE
 40
20.0
  9
$PROXYGRAPHICS
 70
     1
  9
$MEASUREMENT
 70
     1
  9
$CELWEIGHT
370
    -1
  9
$ENDCAPS
280
     0
  9
$JOINSTYLE
280
     0
  9
$LWDISPLAY
290
     0
  9
$INSUNITS
 70
     4
  9
$HYPERLINKBASE
  1

  9
$STYLESHEET
  1
MONOCHROME.CTB
  9
$XEDIT
290
     1
  9
$CEPSNTYPE
380
     0
  9
$PSTYLEMODE
290
     1
  9
$FINGERPRINTGUID
  2
{46B44192-1510-48B1-B61B-CBE2ADA013A7}
  9
$VERSIONGUID
  2
{6160D478-9A74-4C97-9D8A-D4A65CE74B12}
  9
$EXTNAMES
290
     1
  9
$PSVPSCALE
 40
0.0
  9
$OLESTARTUP
290
     0
  0
ENDSEC
  0
SECTION
  2
CLASSES
  0
CLASS
  1
ACDBDICTIONARYWDFLT
  2
AcDbDictionaryWithDefault
  3
ObjectDBX Classes
 90
        0
280
     0
281
     0
  0
CLASS
  1
ACDBPLACEHOLDER
  2
AcDbPlaceHolder
  3
ObjectDBX Classes
 90
        0
280
     0
281
     0
  0
CLASS
  1
LAYOUT
  2
AcDbLayout
  3
ObjectDBX Classes
 90
        0
280
     0
281
     0
  0
CLASS
  1
DICTIONARYVAR
  2
AcDbDictionaryVar
  3
ObjectDBX Classes
 90
        0
280
     0
281
     0
  0
CLASS
  1
TABLESTYLE
  2
AcDbTableStyle
  3
ObjectDBX Classes
 90
     4095
280
     0
281
     0
  0
CLASS
  1
SCALE
  2
AcDbScale
  3
ObjectDBX Classes
 90
     1153
280
     0
281
     0
  0
CLASS
  1
MATERIAL
  2
AcDbMaterial
  3
ObjectDBX Classes
 90
     1153
280
     0
281
     0
  0
CLASS
  1
VISUALSTYLE
  2
AcDbVisualStyle
  3
ObjectDBX Classes
 90
     4095
280
     0
281
     0
  0
ENDSEC
  0
SECTION
  2
TABLES
  0
TABLE
  2
VPORT
  5
8
330
0
100
AcDbSymbolTable
 70
     1
  0
VPORT
  5
39A
330
8
100
AcDbSymbolTableRecord
100
AcDbViewportTableRecord
  2
*Active
 70
     0
 10
0.0
 20
0.0
 11
1.0
 21
1.0
 12
218.9201881351169
 22
109.7549380673833
 13
0.0
 23
0.0
 14
5.0
 24
5.0
 15
5.0
 25
5.0
 16
0.0
 26
0.0
 36
1.0
 17
0.0
 27
0.0
 37
0.0
 40
564.6711112651689
 41
1.066073697585768
 42
50.0
 43
0.0
 44
0.0
 50
0.0
 51
0.0
 71
     0
 72
  2000
 73
     1
 74
     1
 75
     0
 76
     0
 77
     0
 78
     0
281
     0
 65
     1
110
0.0
120
0.0
130
0.0
111
1.0
121
0.0
131
0.0
112
0.0
122
1.0
132
0.0
 79
     0
146
0.0
  0
ENDTAB
  0
TABLE
  2
LTYPE
  5
5
330
0
100
AcDbSymbolTable
 70
     3
  0
LTYPE
  5
12
330
5
100
AcDbSymbolTableRecord
100
AcDbLinetypeTableRecord
  2
BYBLOCK
 70
     0
  3

 72
    65
 73
     0
 40
0.0
  0
LTYPE
  5
13
330
5
100
AcDbSymbolTableRecord
100
AcDbLinetypeTableRecord
  2
BYLAYER
 70
     0
  3

 72
    65
 73
     0
 40
0.0
  0
LTYPE
  5
14
330
5
100
AcDbSymbolTableRecord
100
AcDbLinetypeTableRecord
  2
CONTINUOUS
 70
     0
  3
Solid line
 72
    65
 73
     0
 40
0.0
  0
LTYPE
  5
20
330
5
100
AcDbSymbolTableRecord
100
AcDbLinetypeTableRecord
  2
HIDDEN
 70
     0
  3
Hidden __ __ __ __ __ __ __ __ __ __ __ __ __ _
 72
    65
 73
     2
 40
9.524999999999997
 49
6.349999999999998
 74
     0
 49
-3.174999999999998
 74
     0
  0
LTYPE
  5
351
330
5
100
AcDbSymbolTableRecord
100
AcDbLinetypeTableRecord
  2
CENTER
 70
     0
  3
Dash dot __ . __ . __ . __ . __ . __ . __ . __
 72
    65
 73
     4
 40
25.4
 49
12.7
 74
     0
 49
-6.349999999999998
 74
     0
 49
0.0
 74
     0
 49
-6.349999999999998
 74
     0
  0
ENDTAB
  0
TABLE
  2
LAYER
  5
2
330
0
100
AcDbSymbolTable
 70
    16
  0
LAYER
  5
F
330
2
100
AcDbSymbolTableRecord
100
AcDbLayerTableRecord
  2
0
 70
     0
 62
     7
  6
CONTINUOUS
370
    -3
390
300
  0
LAYER
  5
23
330
2
100
AcDbSymbolTableRecord
100
AcDbLayerTableRecord
  2
1
 70
     0
 62
     4
  6
CONTINUOUS
370
    -3
390
300
  0
LAYER
  5
24
330
2
100
AcDbSymbolTableRecord
100
AcDbLayerTableRecord
  2
SK1
 70
     0
 62
     4
  6
CONTINUOUS
370
    -3
390
300
  0
LAYER
  5
25
330
2
100
AcDbSymbolTableRecord
100
AcDbLayerTableRecord
  2
2
 70
     0
 62
     7
  6
CONTINUOUS
370
    -3
390
300
  0
LAYER
  5
26
330
2
100
AcDbSymbolTableRecord
100
AcDbLayerTableRecord
  2
2L
 70
     0
 62
     7
  6
CONTINUOUS
370
    -3
390
300
  0
LAYER
  5
27
330
2
100
AcDbSymbolTableRecord
100
AcDbLayerTableRecord
  2
SK2
 70
     0
 62
     7
  6
CONTINUOUS
370
    -3
390
300
  0
LAYER
  5
28
330
2
100
AcDbSymbolTableRecord
100
AcDbLayerTableRecord
  2
3
 70
     0
 62
     1
  6
HIDDEN
370
    -3
390
300
  0
LAYER
  5
29
330
2
100
AcDbSymbolTableRecord
100
AcDbLayerTableRecord
  2
SK3
 70
     0
 62
     1
  6
HIDDEN
370
    -3
390
300
  0
LAYER
  5
2A
330
2
100
AcDbSymbolTableRecord
100
AcDbLayerTableRecord
  2
4
 70
     0
 62
     2
  6
CENTER
370
    -3
390
300
  0
LAYER
  5
2B
330
2
100
AcDbSymbolTableRecord
100
AcDbLayerTableRecord
  2
SK4
 70
     0
 62
     2
  6
CENTER
370
    -3
390
300
  0
LAYER
  5
2C
330
2
100
AcDbSymbolTableRecord
100
AcDbLayerTableRecord
  2
5
 70
     0
 62
    -7
  6
CONTINUOUS
370
    -3
390
300
  0
LAYER
  5
2D
330
2
100
AcDbSymbolTableRecord
100
AcDbLayerTableRecord
  2
6
 70
     0
 62
     5
  6
CONTINUOUS
370
    -3
390
300
  0
LAYER
  5
2E
330
2
100
AcDbSymbolTableRecord
100
AcDbLayerTableRecord
  2
SK6
 70
     0
 62
     5
  6
CONTINUOUS
370
    -3
390
300
  0
LAYER
  5
2F
330
2
100
AcDbSymbolTableRecord
100
AcDbLayerTableRecord
  2
DEFPOINTS
 70
     0
 62
     7
  6
CONTINUOUS
290
     0
370
    -3
390
300
  0
LAYER
  5
375
330
2
100
AcDbSymbolTableRecord
100
AcDbLayerTableRecord
  2
CUT
 70
     0
 62
     1
  6
CONTINUOUS
370
    -3
390
300
  0
LAYER
  5
376
330
2
100
AcDbSymbolTableRecord
100
AcDbLayerTableRecord
  2
NOCUT
 70
     0
 62
     7
  6
CONTINUOUS
370
    -3
390
300
  0
ENDTAB
  0
TABLE
  2
STYLE
  5
3
330
0
100
AcDbSymbolTable
 70
     4
  0
STYLE
  5
10
330
3
100
AcDbSymbolTableRecord
100
AcDbTextStyleTableRecord
  2
STANDARD
 70
     0
 40
0.0
 41
1.0
 50
0.0
 71
     0
 42
5.0
  3
txt
  4

  0
STYLE
  5
1D
330
3
100
AcDbSymbolTableRecord
100
AcDbTextStyleTableRecord
  2
TXT
 70
     0
 40
8.0
 41
1.0
 50
0.0
 71
     0
 42
8.0
  3
txt
  4

  0
STYLE
  5
1E
330
3
100
AcDbSymbolTableRecord
100
AcDbTextStyleTableRecord
  2
SIMPLEX
 70
     0
 40
0.0
 41
1.0
 50
0.0
 71
     0
 42
3.5
  3
simplex
  4

  0
STYLE
  5
34C
330
3
100
AcDbSymbolTableRecord
100
AcDbTextStyleTableRecord
  2

 70
     1
 40
0.0
 41
1.0
 50
0.0
 71
     0
 42
2.5
  3
ltypeshp.shx
  4

  0
ENDTAB
  0
TABLE
  2
VIEW
  5
6
330
0
100
AcDbSymbolTable
 70
     0
  0
ENDTAB
  0
TABLE
  2
UCS
  5
7
330
0
100
AcDbSymbolTable
 70
     0
  0
ENDTAB
  0
TABLE
  2
APPID
  5
9
330
0
100
AcDbSymbolTable
 70
     1
  0
APPID
  5
11
330
9
100
AcDbSymbolTableRecord
100
AcDbRegAppTableRecord
  2
ACAD
 70
     0
  0
ENDTAB
  0
TABLE
  2
DIMSTYLE
  5
A
330
0
100
AcDbSymbolTable
 70
     1
100
AcDbDimStyleTable
  0
DIMSTYLE
105
3F
102
{ACAD_REACTORS
330
6B7
330
6C5
330
6D2
330
6E0
330
6EE
102
}
330
A
100
AcDbSymbolTableRecord
100
AcDbDimStyleTableRecord
  2
STANDARD
 70
     0
 41
2.5
 42
0.0
 43
3.75
 44
1.25
 73
     0
 74
     0
 77
     1
 78
     8
 79
     2
140
3.5
141
0.0
143
0.039370078
147
0.625
171
     3
178
     0
179
     2
271
     2
272
     2
274
     3
283
     0
284
     8
340
1E
  0
ENDTAB
  0
TABLE
  2
BLOCK_RECORD
  5
1
330
0
100
AcDbSymbolTable
 70
     5
  0
BLOCK_RECORD
  5
18
330
1
100
AcDbSymbolTableRecord
100
AcDbBlockTableRecord
  2
*MODEL_SPACE
340
303
  0
BLOCK_RECORD
  5
338
330
1
100
AcDbSymbolTableRecord
100
AcDbBlockTableRecord
  2
*Paper_Space
340
33B
  0
BLOCK_RECORD
  5
6B8
330
1
100
AcDbSymbolTableRecord
100
AcDbBlockTableRecord
  2
*D0
340
0
  0
BLOCK_RECORD
  5
6C6
330
1
100
AcDbSymbolTableRecord
100
AcDbBlockTableRecord
  2
*D1
340
0
  0
BLOCK_RECORD
  5
6D3
330
1
100
AcDbSymbolTableRecord
100
AcDbBlockTableRecord
  2
*D2
340
0
  0
BLOCK_RECORD
  5
6E1
330
1
100
AcDbSymbolTableRecord
100
AcDbBlockTableRecord
  2
*D3
340
0
  0
BLOCK_RECORD
  5
6EF
330
1
100
AcDbSymbolTableRecord
100
AcDbBlockTableRecord
  2
*D4
340
0
  0
ENDTAB
  0
ENDSEC
  0
SECTION
  2
BLOCKS
  0
BLOCK
  5
32
330
18
100
AcDbEntity
  8
0
100
AcDbBlockBegin
  2
*MODEL_SPACE
 70
     0
 10
0.0
 20
0.0
 30
0.0
  3
*MODEL_SPACE
  1

  0
ENDBLK
  5
33
330
18
100
AcDbEntity
  8
0
100
AcDbBlockEnd
  0
BLOCK
  5
339
330
338
100
AcDbEntity
 67
     1
  8
0
100
AcDbBlockBegin
  2
*Paper_Space
 70
     0
 10
0.0
 20
0.0
 30
0.0
  3
*Paper_Space
  1

  0
ENDBLK
  5
33A
330
338
100
AcDbEntity
 67
     1
  8
0
100
AcDbBlockEnd
  0
BLOCK
  5
6B9
330
6B8
100
AcDbEntity
  8
0
100
AcDbBlockBegin
  2
*D0
 70
     1
 10
0.0
 20
0.0
 30
0.0
  3
*D0
  1

  0
LINE
  5
6BB
330
6B8
100
AcDbEntity
  8
2
 62
     0
370
    -2
100
AcDbLine
 10
41.7
 20
2.0
 30
0.0
 11
57.95
 21
2.000000000000057
 31
0.0
  0
LINE
  5
6BC
330
6B8
100
AcDbEntity
  8
2
 62
     0
370
    -2
100
AcDbLine
 10
41.7
 20
-2.0
 30
0.0
 11
57.95000000000002
 21
-1.999999999999943
 31
0.0
  0
LINE
  5
6BD
330
6B8
100
AcDbEntity
  8
2
 62
     0
370
    -2
100
AcDbLine
 10
56.70000000000002
 20
-4.499999999999948
 30
0.0
 11
56.70000000000006
 21
-14.53249999999995
 31
0.0
  0
LINE
  5
6BE
330
6B8
100
AcDbEntity
  8
2
 62
     0
370
    -2
100
AcDbLine
 10
56.7
 20
4.500000000000052
 30
0.0
 11
56.69999999999999
 21
7.000000000000052
 31
0.0
  0
SOLID
  5
6BF
330
6B8
100
AcDbEntity
  8
2
 62
     0
100
AcDbTrace
 10
56.28333333333333
 20
4.500000000000051
 30
0.0
 11
57.11666666666666
 21
4.500000000000054
 31
0.0
 12
56.7
 22
2.000000000000052
 32
0.0
 13
56.7
 23
2.000000000000052
 33
0.0
  0
SOLID
  5
6C0
330
6B8
100
AcDbEntity
  8
2
 62
     0
100
AcDbTrace
 10
57.11666666666669
 20
-4.499999999999946
 30
0.0
 11
56.28333333333336
 21
-4.499999999999949
 31
0.0
 12
56.70000000000002
 22
-1.999999999999948
 32
0.0
 13
56.70000000000002
 23
-1.999999999999948
 33
0.0
  0
MTEXT
  5
6C1
330
6B8
100
AcDbEntity
  8
2
 62
     0
100
AcDbMText
 10
54.28475000000005
 20
-10.76624999999996
 30
0.0
 40
3.5
 41
0.0
 71
     5
 72
     1
  1
M4
  7
SIMPLEX
 11
-3.552713678800501E-15
 21
1.0
 31
0.0
 73
     1
 44
1.0
  0
POINT
  5
6C2
330
6B8
100
AcDbEntity
  8
DEFPOINTS
 62
     0
100
AcDbPoint
 10
41.7
 20
2.0
 30
0.0
  0
POINT
  5
6C3
330
6B8
100
AcDbEntity
  8
DEFPOINTS
 62
     0
100
AcDbPoint
 10
41.7
 20
-2.0
 30
0.0
  0
POINT
  5
6C4
330
6B8
100
AcDbEntity
  8
DEFPOINTS
 62
     0
100
AcDbPoint
 10
56.70000000000002
 20
-1.999999999999948
 30
0.0
  0
ENDBLK
  5
6BA
330
6B8
100
AcDbEntity
  8
0
100
AcDbBlockEnd
  0
BLOCK
  5
6C7
330
6C6
100
AcDbEntity
  8
0
100
AcDbBlockBegin
  2
*D1
 70
     1
 10
0.0
 20
0.0
 30
0.0
  3
*D1
  1

  0
LINE
  5
6C9
330
6C6
100
AcDbEntity
  8
2
 62
     0
370
    -2
100
AcDbLine
 10
0.0
 20
0.0
 30
0.0
 11
0.0
 21
76.25
 31
0.0
  0
LINE
  5
6CA
330
6C6
100
AcDbEntity
  8
2
 62
     0
370
    -2
100
AcDbLine
 10
41.7
 20
0.0
 30
0.0
 11
41.7
 21
76.25
 31
0.0
  0
LINE
  5
6CB
330
6C6
100
AcDbEntity
  8
2
 62
     0
370
    -2
100
AcDbLine
 10
2.5
 20
75.0
 30
0.0
 11
39.2
 21
75.0
 31
0.0
  0
SOLID
  5
6CC
330
6C6
100
AcDbEntity
  8
2
 62
     0
100
AcDbTrace
 10
2.5
 20
75.41666666666667
 30
0.0
 11
2.5
 21
74.58333333333333
 31
0.0
 12
0.0
 22
75.0
 32
0.0
 13
0.0
 23
75.0
 33
0.0
  0
SOLID
  5
6CD
330
6C6
100
AcDbEntity
  8
2
 62
     0
100
AcDbTrace
 10
39.2
 20
74.58333333333333
 30
0.0
 11
39.2
 21
75.41666666666667
 31
0.0
 12
41.7
 22
75.0
 32
0.0
 13
41.7
 23
75.0
 33
0.0
  0
MTEXT
  5
6CE
330
6C6
100
AcDbEntity
  8
2
 62
     0
100
AcDbMText
 10
20.85
 20
77.438
 30
0.0
 40
3.5
 41
0.0
 71
     5
 72
     1
  1
41.7
  7
SIMPLEX
 73
     1
 44
1.0
  0
POINT
  5
6CF
330
6C6
100
AcDbEntity
  8
DEFPOINTS
 62
     0
100
AcDbPoint
 10
0.0
 20
0.0
 30
0.0
  0
POINT
  5
6D0
330
6C6
100
AcDbEntity
  8
DEFPOINTS
 62
     0
100
AcDbPoint
 10
41.7
 20
0.0
 30
0.0
  0
POINT
  5
6D1
330
6C6
100
AcDbEntity
  8
DEFPOINTS
 62
     0
100
AcDbPoint
 10
41.7
 20
75.0
 30
0.0
  0
ENDBLK
  5
6C8
330
6C6
100
AcDbEntity
  8
0
100
AcDbBlockEnd
  0
BLOCK
  5
6D4
330
6D3
100
AcDbEntity
  8
0
100
AcDbBlockBegin
  2
*D2
 70
     1
 10
0.0
 20
0.0
 30
0.0
  3
*D2
  1

  0
LINE
  5
6D6
330
6D3
100
AcDbEntity
  8
SK2
 62
     0
370
    -2
100
AcDbLine
 10
-14.95
 20
2.1336
 30
0.0
 11
-37.55000000001089
 21
2.133599999884662
 31
0.0
  0
LINE
  5
6D7
330
6D3
100
AcDbEntity
  8
SK2
 62
     0
370
    -2
100
AcDbLine
 10
-14.95
 20
-2.1336
 30
0.0
 11
-37.54999999998911
 21
-2.133600000115337
 31
0.0
  0
LINE
  5
6D8
330
6D3
100
AcDbEntity
  8
SK2
 62
     0
370
    -2
100
AcDbLine
 10
-36.29999999997635
 20
-4.633600000108958
 30
0.0
 11
-36.2999999998847
 21
-22.59010000010896
 31
0.0
  0
LINE
  5
6D9
330
6D3
100
AcDbEntity
  8
SK2
 62
     0
370
    -2
100
AcDbLine
 10
-36.30000000002365
 20
4.633599999891041
 30
0.0
 11
-36.30000000003641
 21
7.133599999891041
 31
0.0
  0
SOLID
  5
6DA
330
6D3
100
AcDbEntity
  8
SK2
 62
     0
100
AcDbTrace
 10
-36.71666666669032
 20
4.633599999888915
 30
0.0
 11
-35.88333333335699
 21
4.633599999893168
 31
0.0
 12
-36.30000000001089
 22
2.133599999891042
 32
0.0
 13
-36.30000000001089
 23
2.133599999891042
 33
0.0
  0
SOLID
  5
6DB
330
6D3
100
AcDbEntity
  8
SK2
 62
     0
100
AcDbTrace
 10
-35.88333333330969
 20
-4.633600000106831
 30
0.0
 11
-36.71666666664301
 21
-4.633600000111084
 31
0.0
 12
-36.29999999998911
 22
-2.133600000108958
 32
0.0
 13
-36.29999999998911
 23
-2.133600000108958
 33
0.0
  0
MTEXT
  5
6DC
330
6D3
100
AcDbEntity
  8
SK2
 62
     0
100
AcDbMText
 10
-38.73799999992416
 20
-14.8618500001214
 30
0.0
 40
3.5
 41
0.0
 71
     5
 72
     1
  1
%%c4.27
  7
SIMPLEX
 11
-5.103612404163637E-12
 21
1.0
 31
0.0
 73
     1
 44
1.0
  0
POINT
  5
6DD
330
6D3
100
AcDbEntity
  8
DEFPOINTS
 62
     0
100
AcDbPoint
 10
-14.95
 20
2.1336
 30
0.0
  0
POINT
  5
6DE
330
6D3
100
AcDbEntity
  8
DEFPOINTS
 62
     0
100
AcDbPoint
 10
-14.95
 20
-2.1336
 30
0.0
  0
POINT
  5
6DF
330
6D3
100
AcDbEntity
  8
DEFPOINTS
 62
     0
100
AcDbPoint
 10
-36.29999999998911
 20
-2.133600000108958
 30
0.0
  0
ENDBLK
  5
6D5
330
6D3
100
AcDbEntity
  8
0
100
AcDbBlockEnd
  0
BLOCK
  5
6E2
330
6E1
100
AcDbEntity
  8
0
100
AcDbBlockBegin
  2
*D3
 70
     1
 10
0.0
 20
0.0
 30
0.0
  3
*D3
  1

  0
LINE
  5
6E4
330
6E1
100
AcDbEntity
  8
2
 62
     0
370
    -2
100
AcDbLine
 10
33.797593834
 20
1.485
 30
0.0
 11
33.797593834
 21
61.25
 31
0.0
  0
LINE
  5
6E5
330
6E1
100
AcDbEntity
  8
2
 62
     0
370
    -2
100
AcDbLine
 10
41.7
 20
2.0
 30
0.0
 11
41.7
 21
61.25
 31
0.0
  0
LINE
  5
6E6
330
6E1
100
AcDbEntity
  8
2
 62
     0
370
    -2
100
AcDbLine
 10
41.7
 20
60.0
 30
0.0
 11
52.702
 21
60.0
 31
0.0
  0
LINE
  5
6E7
330
6E1
100
AcDbEntity
  8
2
 62
     0
370
    -2
100
AcDbLine
 10
36.297593834
 20
60.0
 30
0.0
 11
39.2
 21
60.0
 31
0.0
  0
SOLID
  5
6E8
330
6E1
100
AcDbEntity
  8
2
 62
     0
100
AcDbTrace
 10
36.297593834
 20
60.41666666666666
 30
0.0
 11
36.297593834
 21
59.58333333333334
 31
0.0
 12
33.797593834
 22
60.0
 32
0.0
 13
33.797593834
 23
60.0
 33
0.0
  0
SOLID
  5
6E9
330
6E1
100
AcDbEntity
  8
2
 62
     0
100
AcDbTrace
 10
39.2
 20
59.58333333333334
 30
0.0
 11
39.2
 21
60.41666666666666
 31
0.0
 12
41.7
 22
60.0
 32
0.0
 13
41.7
 23
60.0
 33
0.0
  0
MTEXT
  5
6EA
330
6E1
100
AcDbEntity
  8
2
 62
     0
100
AcDbMText
 10
48.451
 20
62.39775
 30
0.0
 40
3.5
 41
0.0
 71
     5
 72
     1
  1
7.9
  7
SIMPLEX
 73
     1
 44
1.0
  0
POINT
  5
6EB
330
6E1
100
AcDbEntity
  8
DEFPOINTS
 62
     0
100
AcDbPoint
 10
33.797593834
 20
1.485
 30
0.0
  0
POINT
  5
6EC
330
6E1
100
AcDbEntity
  8
DEFPOINTS
 62
     0
100
AcDbPoint
 10
41.7
 20
2.0
 30
0.0
  0
POINT
  5
6ED
330
6E1
100
AcDbEntity
  8
DEFPOINTS
 62
     0
100
AcDbPoint
 10
41.7
 20
60.0
 30
0.0
  0
ENDBLK
  5
6E3
330
6E1
100
AcDbEntity
  8
0
100
AcDbBlockEnd
  0
BLOCK
  5
6F0
330
6EF
100
AcDbEntity
  8
0
100
AcDbBlockBegin
  2
*D4
 70
     1
 10
0.0
 20
0.0
 30
0.0
  3
*D4
  1

  0
LINE
  5
6F2
330
6EF
100
AcDbEntity
  8
SK2
 62
     0
370
    -2
100
AcDbLine
 10
-21.3
 20
2.0
 30
0.0
 11
-21.3
 21
91.25
 31
0.0
  0
LINE
  5
6F3
330
6EF
100
AcDbEntity
  8
SK2
 62
     0
370
    -2
100
AcDbLine
 10
41.7
 20
2.0
 30
0.0
 11
41.7
 21
91.25
 31
0.0
  0
LINE
  5
6F4
330
6EF
100
AcDbEntity
  8
SK2
 62
     0
370
    -2
100
AcDbLine
 10
-18.8
 20
90.0
 30
0.0
 11
39.2
 21
90.0
 31
0.0
  0
SOLID
  5
6F5
330
6EF
100
AcDbEntity
  8
SK2
 62
     0
100
AcDbTrace
 10
-18.8
 20
90.41666666666667
 30
0.0
 11
-18.8
 21
89.58333333333333
 31
0.0
 12
-21.3
 22
90.0
 32
0.0
 13
-21.3
 23
90.0
 33
0.0
  0
SOLID
  5
6F6
330
6EF
100
AcDbEntity
  8
SK2
 62
     0
100
AcDbTrace
 10
39.2
 20
89.58333333333333
 30
0.0
 11
39.2
 21
90.41666666666667
 31
0.0
 12
41.7
 22
90.0
 32
0.0
 13
41.7
 23
90.0
 33
0.0
  0
MTEXT
  5
6F7
330
6EF
100
AcDbEntity
  8
SK2
 62
     0
100
AcDbMText
 10
10.2
 20
92.39075
 30
0.0
 40
3.5
 41
0.0
 71
     5
 72
     1
  1
63
  7
SIMPLEX
 73
     1
 44
1.0
  0
POINT
  5
6F8
330
6EF
100
AcDbEntity
  8
DEFPOINTS
 62
     0
100
AcDbPoint
 10
-21.3
 20
2.0
 30
0.0
  0
POINT
  5
6F9
330
6EF
100
AcDbEntity
  8
DEFPOINTS
 62
     0
100
AcDbPoint
 10
41.7
 20
2.0
 30
0.0
  0
POINT
  5
6FA
330
6EF
100
AcDbEntity
  8
DEFPOINTS
 62
     0
100
AcDbPoint
 10
41.7
 20
90.0
 30
0.0
  0
ENDBLK
  5
6F1
330
6EF
100
AcDbEntity
  8
0
100
AcDbBlockEnd
  0
ENDSEC
  0
SECTION
  2
ENTITIES
  0
LINE
  5
3D6
330
18
100
AcDbEntity
  8
SK4
100
AcDbLine
 10
-23.3
 20
0.0
 30
0.0
 11
16.9
 21
0.0
 31
0.0
  0
LINE
  5
3D7
330
18
100
AcDbEntity
  8
4
100
AcDbLine
 10
14.9
 20
0.0
 30
0.0
 11
43.7
 21
0.0
 31
0.0
  0
LINE
  5
3D8
330
18
100
AcDbEntity
  8
SK4
100
AcDbLine
 10
14.9
 20
0.0
 30
0.0
 11
43.7
 21
0.0
 31
0.0
  0
LINE
  5
3D9
330
18
100
AcDbEntity
  8
1
100
AcDbLine
 10
16.9
 20
2.1336
 30
0.0
 11
0.0000000000000009
 21
2.1336
 31
0.0
  0
LINE
  5
3DA
330
18
100
AcDbEntity
  8
1
100
AcDbLine
 10
16.9
 20
2.1336
 30
0.0
 11
16.90000000000001
 21
2.131478789187217
 31
0.0
  0
LINE
  5
3DB
330
18
100
AcDbEntity
  8
1
100
AcDbLine
 10
16.90000000000001
 20
2.131478789187217
 30
0.0
 11
16.9
 21
1.942159300117809
 31
0.0
  0
LINE
  5
3DC
330
18
100
AcDbEntity
  8
1
100
AcDbLine
 10
16.9
 20
1.942159300117809
 30
0.0
 11
16.9
 21
-2.1336
 31
0.0
  0
LINE
  5
3DD
330
18
100
AcDbEntity
  8
1
100
AcDbLine
 10
16.9
 20
2.1336
 30
0.0
 11
20.57839339
 21
1.485
 31
0.0
  0
LINE
  5
3DE
330
18
100
AcDbEntity
  8
1
100
AcDbLine
 10
20.57839339
 20
1.485
 30
0.0
 11
20.57839339000001
 21
1.48352362295792
 31
0.0
  0
LINE
  5
3DF
330
18
100
AcDbEntity
  8
1
100
AcDbLine
 10
20.57839339000001
 20
1.48352362295792
 30
0.0
 11
20.57839339
 21
1.351755980818779
 31
0.0
  0
LINE
  5
3E0
330
18
100
AcDbEntity
  8
1
100
AcDbLine
 10
20.57839339
 20
1.351755980818779
 30
0.0
 11
20.57839339
 21
-1.485
 31
0.0
  0
LINE
  5
3E1
330
18
100
AcDbEntity
  8
1
100
AcDbLine
 10
20.57839339
 20
1.485
 30
0.0
 11
23.70000000000001
 21
1.485
 31
0.0
  0
LINE
  5
3E2
330
18
100
AcDbEntity
  8
1
100
AcDbLine
 10
23.7
 20
-0.7744126526587715
 30
0.0
 11
23.93237142652582
 21
-0.9295440472292118
 31
0.0
  0
LINE
  5
3E3
330
18
100
AcDbEntity
  8
1
100
AcDbLine
 10
23.93237142652582
 20
-0.9295440472292118
 30
0.0
 11
24.16474322000693
 21
-1.069523056756701
 31
0.0
  0
LINE
  5
3E4
330
18
100
AcDbEntity
  8
1
100
AcDbLine
 10
24.16474322000693
 20
-1.069523056756701
 30
0.0
 11
24.39711462271141
 21
-1.192068694559033
 31
0.0
  0
LINE
  5
3E5
330
18
100
AcDbEntity
  8
1
100
AcDbLine
 10
24.39711462271141
 20
-1.192068694559033
 30
0.0
 11
24.51330452637609
 21
-1.246168065653736
 31
0.0
  0
LINE
  5
3E6
330
18
100
AcDbEntity
  8
1
100
AcDbLine
 10
24.51330452637609
 20
-1.246168065653736
 30
0.0
 11
24.62948614108288
 21
-1.295183019496285
 31
0.0
  0
LINE
  5
3E7
330
18
100
AcDbEntity
  8
1
100
AcDbLine
 10
24.62948614108288
 20
-1.295183019496285
 30
0.0
 11
24.74567715818272
 21
-1.338915558262929
 31
0.0
  0
LINE
  5
3E8
330
18
100
AcDbEntity
  8
1
100
AcDbLine
 10
24.74567715818272
 20
-1.338915558262929
 30
0.0
 11
24.86185757928556
 21
-1.37718540600608
 31
0.0
  0
LINE
  5
3E9
330
18
100
AcDbEntity
  8
1
100
AcDbLine
 10
24.86185757928556
 20
-1.37718540600608
 30
0.0
 11
24.97804964804103
 21
-1.409838073133442
 31
0.0
  0
LINE
  5
3EA
330
18
100
AcDbEntity
  8
1
100
AcDbLine
 10
24.97804964804103
 20
-1.409838073133442
 30
0.0
 11
25.09422892143342
 21
-1.436739189631454
 31
0.0
  0
LINE
  5
3EB
330
18
100
AcDbEntity
  8
1
100
AcDbLine
 10
25.09422892143342
 20
-1.436739189631454
 30
0.0
 11
25.21042195079532
 21
-1.457779546848991
 31
0.0
  0
LINE
  5
3EC
330
18
100
AcDbEntity
  8
1
100
AcDbLine
 10
25.21042195079532
 20
-1.457779546848991
 30
0.0
 11
25.32660024407389
 21
-1.472873593757841
 31
0.0
  0
LINE
  5
3ED
330
18
100
AcDbEntity
  8
1
100
AcDbLine
 10
25.32660024407389
 20
-1.472873593757841
 30
0.0
 11
25.44279416518437
 21
-1.481958487691912
 31
0.0
  0
LINE
  5
3EE
330
18
100
AcDbEntity
  8
1
100
AcDbLine
 10
25.44279416518437
 20
-1.481958487691912
 30
0.0
 11
25.5589688951679
 21
-1.484999988639112
 31
0.0
  0
LINE
  5
3EF
330
18
100
AcDbEntity
  8
1
100
AcDbLine
 10
25.55896889516791
 20
-1.484999988639112
 30
0.0
 11
25.5591938771861
 21
-1.484999999972763
 31
0.0
  0
LINE
  5
3F0
330
18
100
AcDbEntity
  8
1
100
AcDbLine
 10
26.09144134825105
 20
1.485
 30
0.0
 11
27.46385370969658
 21
1.485
 31
0.0
  0
LINE
  5
3F1
330
18
100
AcDbEntity
  8
1
100
AcDbLine
 10
23.70000000000001
 20
1.484999999993087
 30
0.0
 11
23.70000000000001
 21
1.484999998021493
 31
0.0
  0
LINE
  5
3F2
330
18
100
AcDbEntity
  8
1
100
AcDbLine
 10
23.70000000000001
 20
1.484999998021493
 30
0.0
 11
23.70000000000001
 21
1.484999489901815
 31
0.0
  0
LINE
  5
3F3
330
18
100
AcDbEntity
  8
1
100
AcDbLine
 10
23.70000000000001
 20
1.484999489901815
 30
0.0
 11
23.70000000000001
 21
1.484963036083755
 31
0.0
  0
LINE
  5
3F4
330
18
100
AcDbEntity
  8
1
100
AcDbLine
 10
23.70000000000001
 20
1.484963036083755
 30
0.0
 11
23.70000000000001
 21
1.484536054602299
 31
0.0
  0
LINE
  5
3F5
330
18
100
AcDbEntity
  8
1
100
AcDbLine
 10
23.7
 20
1.484536054602298
 30
0.0
 11
23.84440393895308
 21
1.47691430449926
 31
0.0
  0
LINE
  5
3F6
330
18
100
AcDbEntity
  8
1
100
AcDbLine
 10
23.84440393895308
 20
1.47691430449926
 30
0.0
 11
23.98879397867227
 21
1.459991728368411
 31
0.0
  0
LINE
  5
3F7
330
18
100
AcDbEntity
  8
1
100
AcDbLine
 10
23.98879397867227
 20
1.459991728368411
 30
0.0
 11
24.13320470812364
 21
1.433868737773577
 31
0.0
  0
LINE
  5
3F8
330
18
100
AcDbEntity
  8
1
100
AcDbLine
 10
24.13320470812364
 20
1.433868737773577
 30
0.0
 11
24.27760003549503
 21
1.398713242215349
 31
0.0
  0
LINE
  5
3F9
330
18
100
AcDbEntity
  8
1
100
AcDbLine
 10
24.27760003549503
 20
1.398713242215349
 30
0.0
 11
24.4219941967521
 21
1.354749761972088
 31
0.0
  0
LINE
  5
3FA
330
18
100
AcDbEntity
  8
1
100
AcDbLine
 10
24.4219941967521
 20
1.354749761972088
 30
0.0
 11
24.56640510702638
 21
1.3022440149847
 31
0.0
  0
LINE
  5
3FB
330
18
100
AcDbEntity
  8
1
100
AcDbLine
 10
24.56640510702638
 20
1.3022440149847
 30
0.0
 11
24.710796200786
 21
1.241541909078617
 31
0.0
  0
LINE
  5
3FC
330
18
100
AcDbEntity
  8
1
100
AcDbLine
 10
24.710796200786
 20
1.241541909078617
 30
0.0
 11
24.8551971477199
 21
1.173016129551283
 31
0.0
  0
LINE
  5
3FD
330
18
100
AcDbEntity
  8
1
100
AcDbLine
 10
24.8551971477199
 20
1.173016129551283
 30
0.0
 11
24.99960284594637
 21
1.097095515262323
 31
0.0
  0
LINE
  5
3FE
330
18
100
AcDbEntity
  8
1
100
AcDbLine
 10
24.99960284594637
 20
1.097095515262323
 30
0.0
 11
25.28840132237982
 21
0.9250510866210804
 31
0.0
  0
LINE
  5
3FF
330
18
100
AcDbEntity
  8
1
100
AcDbLine
 10
25.28840132237982
 20
0.9250510866210804
 30
0.0
 11
25.57719100998284
 21
0.7297381417049461
 31
0.0
  0
LINE
  5
400
330
18
100
AcDbEntity
  8
1
100
AcDbLine
 10
25.57719100998284
 20
0.7297381417049461
 30
0.0
 11
26.01039137387297
 21
0.4039999668446117
 31
0.0
  0
LINE
  5
401
330
18
100
AcDbEntity
  8
1
100
AcDbLine
 10
24.87298778380292
 20
1.164052651014806
 30
0.0
 11
25.02530724580652
 21
1.237102141259685
 31
0.0
  0
LINE
  5
402
330
18
100
AcDbEntity
  8
1
100
AcDbLine
 10
25.02530724580652
 20
1.237102141259685
 30
0.0
 11
25.17760879861673
 21
1.301472858068363
 31
0.0
  0
LINE
  5
403
330
18
100
AcDbEntity
  8
1
100
AcDbLine
 10
25.17760879861673
 20
1.301472858068363
 30
0.0
 11
25.32991451339898
 21
1.356726663037576
 31
0.0
  0
LINE
  5
404
330
18
100
AcDbEntity
  8
1
100
AcDbLine
 10
25.32991451339898
 20
1.356726663037576
 30
0.0
 11
25.48223376508192
 21
1.402474270786416
 31
0.0
  0
LINE
  5
405
330
18
100
AcDbEntity
  8
1
100
AcDbLine
 10
25.48223376508192
 20
1.402474270786416
 30
0.0
 11
25.63453520327458
 21
1.438387445697713
 31
0.0
  0
LINE
  5
406
330
18
100
AcDbEntity
  8
1
100
AcDbLine
 10
25.63453520327458
 20
1.438387445697713
 30
0.0
 11
25.78684076045275
 21
1.464223572361429
 31
0.0
  0
LINE
  5
407
330
18
100
AcDbEntity
  8
1
100
AcDbLine
 10
25.78684076045275
 20
1.464223572361429
 30
0.0
 11
25.9391598662822
 21
1.479797350024517
 31
0.0
  0
LINE
  5
408
330
18
100
AcDbEntity
  8
1
100
AcDbLine
 10
25.9391598662822
 20
1.479797350024517
 30
0.0
 11
26.09144134825105
 21
1.485
 31
0.0
  0
LINE
  5
409
330
18
100
AcDbEntity
  8
1
100
AcDbLine
 10
29.90076102911001
 20
1.485
 30
0.0
 11
31.27317337555297
 21
1.485
 31
0.0
  0
LINE
  5
40A
330
18
100
AcDbEntity
  8
1
100
AcDbLine
 10
23.7
 20
-1.432131980634362
 30
0.0
 11
23.70000000000001
 21
-1.485
 31
0.0
  0
ARC
  5
40B
330
18
100
AcDbEntity
  8
1
100
AcDbCircle
 10
33.16784213529787
 20
0.8736377004037514
 30
0.0
 40
2.358834289181968
100
AcDbArc
 50
270.2427006625227
 51
285.4841254184754
  0
LINE
  5
40C
330
18
100
AcDbEntity
  8
1
100
AcDbLine
 10
33.797593834
 20
-1.156886303320462
 30
0.0
 11
33.79759383400001
 21
-0.8034955828604774
 31
0.0
  0
LINE
  5
40D
330
18
100
AcDbEntity
  8
1
100
AcDbLine
 10
33.797593834
 20
-0.803495582860324
 30
0.0
 11
33.33143882796881
 21
-0.4606681246014875
 31
0.0
  0
LINE
  5
40E
330
18
100
AcDbEntity
  8
1
100
AcDbLine
 10
33.33143882796881
 20
-0.4606681246014875
 30
0.0
 11
32.86528444852077
 21
-0.0877463608338245
 31
0.0
  0
ARC
  5
40F
330
18
100
AcDbEntity
  8
1
100
AcDbCircle
 10
24.19161255508997
 20
0.8232984585073546
 30
0.0
 40
2.308370967436216
100
AcDbArc
 50
257.7036572405713
 51
269.8800866757348
  0
LINE
  5
410
330
18
100
AcDbEntity
  8
1
100
AcDbLine
 10
33.71008070961332
 20
1.485
 30
0.0
 11
33.797593834
 21
1.485
 31
0.0
  0
LINE
  5
411
330
18
100
AcDbEntity
  8
1
100
AcDbLine
 10
23.70000000000001
 20
1.05616486201955
 30
0.0
 11
23.70000000000001
 21
-0.7744126526587717
 31
0.0
  0
LINE
  5
412
330
18
100
AcDbEntity
  8
1
100
AcDbLine
 10
33.797593834
 20
0.2700208026893698
 30
0.0
 11
33.62903058467695
 21
0.4039998045731284
 31
0.0
  0
LINE
  5
413
330
18
100
AcDbEntity
  8
1
100
AcDbLine
 10
33.797593834
 20
0.2975485618259215
 30
0.0
 11
33.797593834
 21
0.3506174356797766
 31
0.0
  0
LINE
  5
414
330
18
100
AcDbEntity
  8
1
100
AcDbLine
 10
33.797593834
 20
0.3506174356797766
 30
0.0
 11
33.79759383400011
 21
1.483281372158443
 31
0.0
  0
LINE
  5
415
330
18
100
AcDbEntity
  8
1
100
AcDbLine
 10
33.797593834
 20
1.483281372158454
 30
0.0
 11
33.71008070961331
 21
1.485
 31
0.0
  0
LINE
  5
416
330
18
100
AcDbEntity
  8
1
100
AcDbLine
 10
23.70000000000001
 20
1.056164862019554
 30
0.0
 11
23.89334112980152
 21
0.9394439329218802
 31
0.0
  0
LINE
  5
417
330
18
100
AcDbEntity
  8
1
100
AcDbLine
 10
23.89334112980152
 20
0.9394439329218802
 30
0.0
 11
24.08667627437664
 21
0.8121216379103686
 31
0.0
  0
LINE
  5
418
330
18
100
AcDbEntity
  8
1
100
AcDbLine
 10
24.08667627437664
 20
0.8121216379103686
 30
0.0
 11
24.47333907145456
 21
0.5315213350033053
 31
0.0
  0
LINE
  5
419
330
18
100
AcDbEntity
  8
1
100
AcDbLine
 10
24.47333907145456
 20
0.5315213350033053
 30
0.0
 11
25.2466458944491
 21
-0.0877469799967446
 31
0.0
  0
LINE
  5
41A
330
18
100
AcDbEntity
  8
1
100
AcDbLine
 10
33.797593834
 20
0.27002080268937
 30
0.0
 11
33.797593834
 21
0.2975485618259216
 31
0.0
  0
LINE
  5
41B
330
18
100
AcDbEntity
  8
1
100
AcDbLine
 10
33.797593834
 20
0.2700208026894341
 30
0.0
 11
33.797593834
 21
-0.8034955828604771
 31
0.0
  0
LINE
  5
41C
330
18
100
AcDbEntity
  8
1
100
AcDbLine
 10
33.797593834
 20
-1.399619164791486
 30
0.0
 11
33.797593834
 21
-1.156886303320462
 31
0.0
  0
LINE
  5
41D
330
18
100
AcDbEntity
  8
1
100
AcDbLine
 10
33.797593834
 20
1.485
 30
0.0
 11
33.797593834
 21
1.483281372158444
 31
0.0
  0
LINE
  5
41E
330
18
100
AcDbEntity
  8
1
100
AcDbLine
 10
-0.0000000000000013
 20
-2.1336
 30
0.0
 11
16.9
 21
-2.1336
 31
0.0
  0
LINE
  5
41F
330
18
100
AcDbEntity
  8
1
100
AcDbLine
 10
16.9
 20
-2.133599999999999
 30
0.0
 11
20.57839339
 21
-1.485
 31
0.0
  0
LINE
  5
420
330
18
100
AcDbEntity
  8
1
100
AcDbLine
 10
20.57839339
 20
-1.485
 30
0.0
 11
23.70000000000001
 21
-1.485
 31
0.0
  0
LINE
  5
421
330
18
100
AcDbEntity
  8
1
100
AcDbLine
 10
25.5591938771861
 20
-1.484999999972763
 30
0.0
 11
25.71150583020822
 21
-1.479794632395202
 31
0.0
  0
LINE
  5
422
330
18
100
AcDbEntity
  8
1
100
AcDbLine
 10
25.71150583020822
 20
-1.479794632395202
 30
0.0
 11
25.86380408639858
 21
-1.464221223496117
 31
0.0
  0
LINE
  5
423
330
18
100
AcDbEntity
  8
1
100
AcDbLine
 10
25.86380408639858
 20
-1.464221223496117
 30
0.0
 11
26.01611680305494
 21
-1.438385681970295
 31
0.0
  0
LINE
  5
424
330
18
100
AcDbEntity
  8
1
100
AcDbLine
 10
26.01611680305494
 20
-1.438385681970295
 30
0.0
 11
26.16842749174322
 21
-1.402466672960973
 31
0.0
  0
LINE
  5
425
330
18
100
AcDbEntity
  8
1
100
AcDbLine
 10
26.16842749174322
 20
-1.402466672960973
 30
0.0
 11
26.32072560039921
 21
-1.356724084939556
 31
0.0
  0
LINE
  5
426
330
18
100
AcDbEntity
  8
1
100
AcDbLine
 10
26.32072560039921
 20
-1.356724084939556
 30
0.0
 11
26.47303895098578
 21
-1.301469405354706
 31
0.0
  0
LINE
  5
427
330
18
100
AcDbEntity
  8
1
100
AcDbLine
 10
26.47303895098578
 20
-1.301469405354706
 30
0.0
 11
26.62534875172418
 21
-1.237092129259945
 31
0.0
  0
LINE
  5
428
330
18
100
AcDbEntity
  8
1
100
AcDbLine
 10
26.62534875172418
 20
-1.237092129259945
 30
0.0
 11
26.77764697267868
 21
-1.16405218666325
 31
0.0
  0
LINE
  5
429
330
18
100
AcDbEntity
  8
1
100
AcDbLine
 10
24.18678155099081
 20
-1.485
 30
0.0
 11
25.55919387718611
 21
-1.485
 31
0.0
  0
LINE
  5
42A
330
18
100
AcDbEntity
  8
1
100
AcDbLine
 10
29.36851354248307
 20
-1.484999999940892
 30
0.0
 11
29.52082057786697
 21
-1.479794748313251
 31
0.0
  0
LINE
  5
42B
330
18
100
AcDbEntity
  8
1
100
AcDbLine
 10
29.52082057786697
 20
-1.479794748313251
 30
0.0
 11
29.67312012861934
 21
-1.464222030760651
 31
0.0
  0
LINE
  5
42C
330
18
100
AcDbEntity
  8
1
100
AcDbLine
 10
29.67312012861934
 20
-1.464222030760651
 30
0.0
 11
29.82543751311444
 21
-1.438385333443159
 31
0.0
  0
LINE
  5
42D
330
18
100
AcDbEntity
  8
1
100
AcDbLine
 10
29.82543751311444
 20
-1.438385333443159
 30
0.0
 11
29.97774419416773
 21
-1.402467265317828
 31
0.0
  0
LINE
  5
42E
330
18
100
AcDbEntity
  8
1
100
AcDbLine
 10
29.97774419416773
 20
-1.402467265317828
 30
0.0
 11
30.13004384464086
 21
-1.35672486119562
 31
0.0
  0
LINE
  5
42F
330
18
100
AcDbEntity
  8
1
100
AcDbLine
 10
30.13004384464086
 20
-1.35672486119562
 30
0.0
 11
30.28236148782145
 21
-1.301468125090284
 31
0.0
  0
LINE
  5
430
330
18
100
AcDbEntity
  8
1
100
AcDbLine
 10
30.28236148782145
 20
-1.301468125090284
 30
0.0
 11
30.43466751326557
 21
-1.237092400840579
 31
0.0
  0
LINE
  5
431
330
18
100
AcDbEntity
  8
1
100
AcDbLine
 10
30.43466751326557
 20
-1.237092400840579
 30
0.0
 11
30.58696738300075
 21
-1.164052095163473
 31
0.0
  0
LINE
  5
432
330
18
100
AcDbEntity
  8
1
100
AcDbLine
 10
27.99610118871632
 20
-1.485
 30
0.0
 11
29.36851354248308
 21
-1.485
 31
0.0
  0
LINE
  5
433
330
18
100
AcDbEntity
  8
1
100
AcDbLine
 10
31.80542086940687
 20
-1.484999999896179
 30
0.0
 11
31.71950733180563
 21
-1.483342218776676
 31
0.0
  0
LINE
  5
434
330
18
100
AcDbEntity
  8
1
100
AcDbLine
 10
31.71950733180563
 20
-1.483342218776676
 30
0.0
 11
31.63357678628998
 21
-1.478375609904214
 31
0.0
  0
LINE
  5
435
330
18
100
AcDbEntity
  8
1
100
AcDbLine
 10
31.63357678628998
 20
-1.478375609904214
 30
0.0
 11
31.54766497905503
 21
-1.470112791969716
 31
0.0
  0
LINE
  5
436
330
18
100
AcDbEntity
  8
1
100
AcDbLine
 10
31.54766497905503
 20
-1.470112791969716
 30
0.0
 11
31.46174205393307
 21
-1.458566183302862
 31
0.0
  0
LINE
  5
437
330
18
100
AcDbEntity
  8
1
100
AcDbLine
 10
31.46174205393307
 20
-1.458566183302862
 30
0.0
 11
31.37581415858234
 21
-1.443766808774621
 31
0.0
  0
LINE
  5
438
330
18
100
AcDbEntity
  8
1
100
AcDbLine
 10
31.37581415858234
 20
-1.443766808774621
 30
0.0
 11
31.28990506799981
 21
-1.425748634254894
 31
0.0
  0
LINE
  5
439
330
18
100
AcDbEntity
  8
1
100
AcDbLine
 10
31.28990506799981
 20
-1.425748634254894
 30
0.0
 11
31.11805520294762
 21
-1.380210049565486
 31
0.0
  0
LINE
  5
43A
330
18
100
AcDbEntity
  8
1
100
AcDbLine
 10
31.11805520294762
 20
-1.380210049565486
 30
0.0
 11
30.94621165265142
 21
-1.322359723436337
 31
0.0
  0
LINE
  5
43B
330
18
100
AcDbEntity
  8
1
100
AcDbLine
 10
30.94621165265142
 20
-1.322359723436337
 30
0.0
 11
30.77437719355052
 21
-1.252718632723666
 31
0.0
  0
LINE
  5
43C
330
18
100
AcDbEntity
  8
1
100
AcDbLine
 10
30.77437719355052
 20
-1.252718632723666
 30
0.0
 11
30.60254023658911
 21
-1.171904416523224
 31
0.0
  0
LINE
  5
43D
330
18
100
AcDbEntity
  8
1
100
AcDbLine
 10
30.60254023658911
 20
-1.171904416523224
 30
0.0
 11
30.43069056281487
 21
-1.080630045365814
 31
0.0
  0
LINE
  5
43E
330
18
100
AcDbEntity
  8
1
100
AcDbLine
 10
30.43069056281487
 20
-1.080630045365814
 30
0.0
 11
30.25884735675239
 21
-0.9797184565377766
 31
0.0
  0
LINE
  5
43F
330
18
100
AcDbEntity
  8
1
100
AcDbLine
 10
30.25884735675239
 20
-0.9797184565377766
 30
0.0
 11
29.91517625896317
 21
-0.7526689720881473
 31
0.0
  0
LINE
  5
440
330
18
100
AcDbEntity
  8
1
100
AcDbLine
 10
29.91517625896317
 20
-0.7526689720881473
 30
0.0
 11
29.5714837951136
 21
-0.4988094988122206
 31
0.0
  0
LINE
  5
441
330
18
100
AcDbEntity
  8
1
100
AcDbLine
 10
29.5714837951136
 20
-0.4988094988122206
 30
0.0
 11
29.05596475856706
 21
-0.0877463482198391
 31
0.0
  0
LINE
  5
442
330
18
100
AcDbEntity
  8
1
100
AcDbLine
 10
33.17783320900693
 20
-1.484999999899979
 30
0.0
 11
33.07289526088169
 21
-1.482527373754396
 31
0.0
  0
LINE
  5
443
330
18
100
AcDbEntity
  8
1
100
AcDbLine
 10
33.07289526088169
 20
-1.482527373754396
 30
0.0
 11
32.96794505405487
 21
-1.475122939926947
 31
0.0
  0
LINE
  5
444
330
18
100
AcDbEntity
  8
1
100
AcDbLine
 10
32.96794505405487
 20
-1.475122939926947
 30
0.0
 11
32.86301206507708
 21
-1.462808393876789
 31
0.0
  0
LINE
  5
445
330
18
100
AcDbEntity
  8
1
100
AcDbLine
 10
32.86301206507708
 20
-1.462808393876789
 30
0.0
 11
32.75805892018921
 21
-1.445624100575867
 31
0.0
  0
LINE
  5
446
330
18
100
AcDbEntity
  8
1
100
AcDbLine
 10
32.75805892018921
 20
-1.445624100575867
 30
0.0
 11
32.65312801354484
 21
-1.423631968197383
 31
0.0
  0
LINE
  5
447
330
18
100
AcDbEntity
  8
1
100
AcDbLine
 10
32.65312801354484
 20
-1.423631968197383
 30
0.0
 11
32.54817451012892
 21
-1.396896435923317
 31
0.0
  0
LINE
  5
448
330
18
100
AcDbEntity
  8
1
100
AcDbLine
 10
32.54817451012892
 20
-1.396896435923317
 30
0.0
 11
32.44324257739164
 21
-1.365518741488742
 31
0.0
  0
LINE
  5
449
330
18
100
AcDbEntity
  8
1
100
AcDbLine
 10
32.44324257739164
 20
-1.365518741488742
 30
0.0
 11
32.33829120317092
 21
-1.329588501949071
 31
0.0
  0
LINE
  5
44A
330
18
100
AcDbEntity
  8
1
100
AcDbLine
 10
32.33829120317092
 20
-1.329588501949071
 30
0.0
 11
32.23335536081228
 21
-1.289241084734398
 31
0.0
  0
LINE
  5
44B
330
18
100
AcDbEntity
  8
1
100
AcDbLine
 10
32.23335536081228
 20
-1.289241084734398
 30
0.0
 11
32.02346610747393
 21
-1.195812876886595
 31
0.0
  0
LINE
  5
44C
330
18
100
AcDbEntity
  8
1
100
AcDbLine
 10
32.02346610747393
 20
-1.195812876886595
 30
0.0
 11
31.81357764139332
 21
-1.086478000050245
 31
0.0
  0
LINE
  5
44D
330
18
100
AcDbEntity
  8
1
100
AcDbLine
 10
31.81357764139332
 20
-1.086478000050245
 30
0.0
 11
31.60369136552498
 21
-0.9626920033102331
 31
0.0
  0
LINE
  5
44E
330
18
100
AcDbEntity
  8
1
100
AcDbLine
 10
31.60369136552498
 20
-0.9626920033102331
 30
0.0
 11
31.39380681516456
 21
-0.8261016707025013
 31
0.0
  0
LINE
  5
44F
330
18
100
AcDbEntity
  8
1
100
AcDbLine
 10
31.39380681516456
 20
-0.8261016707025013
 30
0.0
 11
30.97404079962373
 21
-0.5219218342208032
 31
0.0
  0
LINE
  5
450
330
18
100
AcDbEntity
  8
1
100
AcDbLine
 10
30.97404079962373
 20
-0.5219218342208032
 30
0.0
 11
29.81971104805506
 21
0.4039999737901475
 31
0.0
  0
LINE
  5
451
330
18
100
AcDbEntity
  8
1
100
AcDbLine
 10
31.80542086940687
 20
-1.485
 30
0.0
 11
33.17783320900695
 21
-1.485
 31
0.0
  0
LINE
  5
452
330
18
100
AcDbEntity
  8
1
100
AcDbLine
 10
26.01039137387297
 20
0.4039999668446117
 30
0.0
 11
26.84991685222992
 21
-0.2746944551001203
 31
0.0
  0
LINE
  5
453
330
18
100
AcDbEntity
  8
1
100
AcDbLine
 10
26.84991685222992
 20
-0.2746944551001203
 30
0.0
 11
27.2696831379295
 21
-0.6012390588442165
 31
0.0
  0
LINE
  5
454
330
18
100
AcDbEntity
  8
1
100
AcDbLine
 10
27.2696831379295
 20
-0.6012390588442165
 30
0.0
 11
27.68945378619942
 21
-0.8959038304047725
 31
0.0
  0
LINE
  5
455
330
18
100
AcDbEntity
  8
1
100
AcDbLine
 10
27.68945378619942
 20
-0.8959038304047725
 30
0.0
 11
27.89934167739248
 21
-1.026308868969734
 31
0.0
  0
LINE
  5
456
330
18
100
AcDbEntity
  8
1
100
AcDbLine
 10
27.89934167739248
 20
-1.026308868969734
 30
0.0
 11
28.10923097047331
 21
-1.143062585514288
 31
0.0
  0
LINE
  5
457
330
18
100
AcDbEntity
  8
1
100
AcDbLine
 10
28.10923097047331
 20
-1.143062585514288
 30
0.0
 11
28.31911834402816
 21
-1.2446100778034
 31
0.0
  0
LINE
  5
458
330
18
100
AcDbEntity
  8
1
100
AcDbLine
 10
28.31911834402816
 20
-1.2446100778034
 30
0.0
 11
28.42405111254956
 21
-1.289246298817099
 31
0.0
  0
LINE
  5
459
330
18
100
AcDbEntity
  8
1
100
AcDbLine
 10
28.42405111254956
 20
-1.289246298817099
 30
0.0
 11
28.52900379200533
 21
-1.329601067226591
 31
0.0
  0
LINE
  5
45A
330
18
100
AcDbEntity
  8
1
100
AcDbLine
 10
28.52900379200533
 20
-1.329601067226591
 30
0.0
 11
28.63393471099891
 21
-1.365522144179714
 31
0.0
  0
LINE
  5
45B
330
18
100
AcDbEntity
  8
1
100
AcDbLine
 10
28.63393471099891
 20
-1.365522144179714
 30
0.0
 11
28.73888780952313
 21
-1.396905702227115
 31
0.0
  0
LINE
  5
45C
330
18
100
AcDbEntity
  8
1
100
AcDbLine
 10
28.73888780952313
 20
-1.396905702227115
 30
0.0
 11
28.84381946825716
 21
-1.423634961189115
 31
0.0
  0
LINE
  5
45D
330
18
100
AcDbEntity
  8
1
100
AcDbLine
 10
28.84381946825716
 20
-1.423634961189115
 30
0.0
 11
28.94877084923308
 21
-1.445629298012822
 31
0.0
  0
LINE
  5
45E
330
18
100
AcDbEntity
  8
1
100
AcDbLine
 10
28.94877084923308
 20
-1.445629298012822
 30
0.0
 11
29.05370565021945
 21
-1.462811428359694
 31
0.0
  0
LINE
  5
45F
330
18
100
AcDbEntity
  8
1
100
AcDbLine
 10
29.05370565021945
 20
-1.462811428359694
 30
0.0
 11
29.15865322510538
 21
-1.47512420266719
 31
0.0
  0
LINE
  5
460
330
18
100
AcDbEntity
  8
1
100
AcDbLine
 10
29.15865322510538
 20
-1.47512420266719
 30
0.0
 11
29.26359355498551
 21
-1.482529893653331
 31
0.0
  0
LINE
  5
461
330
18
100
AcDbEntity
  8
1
100
AcDbLine
 10
29.26359355498551
 20
-1.482529893653331
 30
0.0
 11
29.36851354248307
 21
-1.484999999940892
 31
0.0
  0
LINE
  5
462
330
18
100
AcDbEntity
  8
1
100
AcDbLine
 10
29.05596475856706
 20
-0.0877463482198391
 30
0.0
 11
28.31484991274949
 21
0.5068976750557167
 31
0.0
  0
LINE
  5
463
330
18
100
AcDbEntity
  8
1
100
AcDbLine
 10
28.31484991274949
 20
0.5068976750557167
 30
0.0
 11
27.94428695741091
 21
0.7788300554307095
 31
0.0
  0
LINE
  5
464
330
18
100
AcDbEntity
  8
1
100
AcDbLine
 10
27.94428695741091
 20
0.7788300554307095
 30
0.0
 11
27.75899777050405
 21
0.9033763734332518
 31
0.0
  0
LINE
  5
465
330
18
100
AcDbEntity
  8
1
100
AcDbLine
 10
27.75899777050405
 20
0.9033763734332518
 30
0.0
 11
27.57370384605561
 21
1.018557488112917
 31
0.0
  0
LINE
  5
466
330
18
100
AcDbEntity
  8
1
100
AcDbLine
 10
27.57370384605561
 20
1.018557488112917
 30
0.0
 11
27.38841857559257
 21
1.123171218643397
 31
0.0
  0
LINE
  5
467
330
18
100
AcDbEntity
  8
1
100
AcDbLine
 10
27.38841857559257
 20
1.123171218643397
 30
0.0
 11
27.20313781378446
 21
1.216137253678443
 31
0.0
  0
LINE
  5
468
330
18
100
AcDbEntity
  8
1
100
AcDbLine
 10
27.20313781378446
 20
1.216137253678443
 30
0.0
 11
27.01785657086442
 21
1.296495012582092
 31
0.0
  0
LINE
  5
469
330
18
100
AcDbEntity
  8
1
100
AcDbLine
 10
27.01785657086442
 20
1.296495012582092
 30
0.0
 11
26.83256992006853
 21
1.363412420227196
 31
0.0
  0
LINE
  5
46A
330
18
100
AcDbEntity
  8
1
100
AcDbLine
 10
26.83256992006853
 20
1.363412420227196
 30
0.0
 11
26.7399225533265
 21
1.391606730113796
 31
0.0
  0
LINE
  5
46B
330
18
100
AcDbEntity
  8
1
100
AcDbLine
 10
26.7399225533265
 20
1.391606730113796
 30
0.0
 11
26.6472758963198
 21
1.416193680400686
 31
0.0
  0
LINE
  5
46C
330
18
100
AcDbEntity
  8
1
100
AcDbLine
 10
26.6472758963198
 20
1.416193680400686
 30
0.0
 11
26.55464177465911
 21
1.437101757255952
 31
0.0
  0
LINE
  5
46D
330
18
100
AcDbEntity
  8
1
100
AcDbLine
 10
26.55464177465911
 20
1.437101757255952
 30
0.0
 11
26.46198887321822
 21
1.45428721751676
 31
0.0
  0
LINE
  5
46E
330
18
100
AcDbEntity
  8
1
100
AcDbLine
 10
26.46198887321822
 20
1.45428721751676
 30
0.0
 11
26.36935638840457
 21
1.467697589892446
 31
0.0
  0
LINE
  5
46F
330
18
100
AcDbEntity
  8
1
100
AcDbLine
 10
26.36935638840457
 20
1.467697589892446
 30
0.0
 11
26.27670754359539
 21
1.477301054367389
 31
0.0
  0
LINE
  5
470
330
18
100
AcDbEntity
  8
1
100
AcDbLine
 10
26.27670754359539
 20
1.477301054367389
 30
0.0
 11
26.18406296512942
 21
1.483074833886862
 31
0.0
  0
LINE
  5
471
330
18
100
AcDbEntity
  8
1
100
AcDbLine
 10
26.18406296512942
 20
1.483074833886862
 30
0.0
 11
26.09144134825105
 21
1.485
 31
0.0
  0
LINE
  5
472
330
18
100
AcDbEntity
  8
1
100
AcDbLine
 10
29.81971104805506
 20
0.4039999737901475
 30
0.0
 11
29.52522790381577
 21
0.6290725019417094
 31
0.0
  0
LINE
  5
473
330
18
100
AcDbEntity
  8
1
100
AcDbLine
 10
29.52522790381577
 20
0.6290725019417094
 30
0.0
 11
29.23073545375894
 21
0.8376966892931412
 31
0.0
  0
LINE
  5
474
330
18
100
AcDbEntity
  8
1
100
AcDbLine
 10
29.23073545375894
 20
0.8376966892931412
 30
0.0
 11
28.93625046727256
 21
1.02440421194441
 31
0.0
  0
LINE
  5
475
330
18
100
AcDbEntity
  8
1
100
AcDbLine
 10
28.93625046727256
 20
1.02440421194441
 30
0.0
 11
28.78901103346359
 21
1.107985552694636
 31
0.0
  0
LINE
  5
476
330
18
100
AcDbEntity
  8
1
100
AcDbLine
 10
28.78901103346359
 20
1.107985552694636
 30
0.0
 11
28.64177628365328
 21
1.184309261352711
 31
0.0
  0
LINE
  5
477
330
18
100
AcDbEntity
  8
1
100
AcDbLine
 10
28.64177628365328
 20
1.184309261352711
 30
0.0
 11
28.49452294762805
 21
1.252883865749593
 31
0.0
  0
LINE
  5
478
330
18
100
AcDbEntity
  8
1
100
AcDbLine
 10
28.49452294762805
 20
1.252883865749593
 30
0.0
 11
28.34728700543202
 21
1.31324277962544
 31
0.0
  0
LINE
  5
479
330
18
100
AcDbEntity
  8
1
100
AcDbLine
 10
28.34728700543202
 20
1.31324277962544
 30
0.0
 11
28.20004939194388
 21
1.365003373548199
 31
0.0
  0
LINE
  5
47A
330
18
100
AcDbEntity
  8
1
100
AcDbLine
 10
28.20004939194388
 20
1.365003373548199
 30
0.0
 11
28.05279679505578
 21
1.40782579068552
 31
0.0
  0
LINE
  5
47B
330
18
100
AcDbEntity
  8
1
100
AcDbLine
 10
28.05279679505578
 20
1.40782579068552
 30
0.0
 11
27.90556309933107
 21
1.441421480943907
 31
0.0
  0
LINE
  5
47C
330
18
100
AcDbEntity
  8
1
100
AcDbLine
 10
27.90556309933107
 20
1.441421480943907
 30
0.0
 11
27.75832186285787
 21
1.465580027921621
 31
0.0
  0
LINE
  5
47D
330
18
100
AcDbEntity
  8
1
100
AcDbLine
 10
27.75832186285787
 20
1.465580027921621
 30
0.0
 11
27.61107195120089
 21
1.480136941690696
 31
0.0
  0
LINE
  5
47E
330
18
100
AcDbEntity
  8
1
100
AcDbLine
 10
27.61107195120089
 20
1.480136941690696
 30
0.0
 11
27.46385370969659
 21
1.485
 31
0.0
  0
LINE
  5
47F
330
18
100
AcDbEntity
  8
1
100
AcDbLine
 10
32.86528444852077
 20
-0.0877463608338245
 30
0.0
 11
32.1241628901697
 21
0.5069029058237082
 31
0.0
  0
LINE
  5
480
330
18
100
AcDbEntity
  8
1
100
AcDbLine
 10
32.1241628901697
 20
0.5069029058237082
 30
0.0
 11
31.75360107322092
 21
0.7788337572903704
 31
0.0
  0
LINE
  5
481
330
18
100
AcDbEntity
  8
1
100
AcDbLine
 10
31.75360107322092
 20
0.7788337572903704
 30
0.0
 11
31.56831491856417
 21
0.9033778804103488
 31
0.0
  0
LINE
  5
482
330
18
100
AcDbEntity
  8
1
100
AcDbLine
 10
31.56831491856417
 20
0.9033778804103488
 30
0.0
 11
31.38302077757717
 21
1.018559289999155
 31
0.0
  0
LINE
  5
483
330
18
100
AcDbEntity
  8
1
100
AcDbLine
 10
31.38302077757717
 20
1.018559289999155
 30
0.0
 11
31.19773328974007
 21
1.123174095805469
 31
0.0
  0
LINE
  5
484
330
18
100
AcDbEntity
  8
1
100
AcDbLine
 10
31.19773328974007
 20
1.123174095805469
 30
0.0
 11
31.01245191708503
 21
1.216139882484351
 31
0.0
  0
LINE
  5
485
330
18
100
AcDbEntity
  8
1
100
AcDbLine
 10
31.01245191708503
 20
1.216139882484351
 30
0.0
 11
30.82717166569778
 21
1.296496601971616
 31
0.0
  0
LINE
  5
486
330
18
100
AcDbEntity
  8
1
100
AcDbLine
 10
30.82717166569778
 20
1.296496601971616
 30
0.0
 11
30.64188759010398
 21
1.363412808045915
 31
0.0
  0
LINE
  5
487
330
18
100
AcDbEntity
  8
1
100
AcDbLine
 10
30.64188759010398
 20
1.363412808045915
 30
0.0
 11
30.54923738530466
 21
1.39160816872062
 31
0.0
  0
LINE
  5
488
330
18
100
AcDbEntity
  8
1
100
AcDbLine
 10
30.54923738530466
 20
1.39160816872062
 30
0.0
 11
30.45659514755172
 21
1.416193935140093
 31
0.0
  0
LINE
  5
489
330
18
100
AcDbEntity
  8
1
100
AcDbLine
 10
30.45659514755172
 20
1.416193935140093
 30
0.0
 11
30.36395737466147
 21
1.437102374428499
 31
0.0
  0
LINE
  5
48A
330
18
100
AcDbEntity
  8
1
100
AcDbLine
 10
30.36395737466147
 20
1.437102374428499
 30
0.0
 11
30.27130551991037
 21
1.454288027923101
 31
0.0
  0
LINE
  5
48B
330
18
100
AcDbEntity
  8
1
100
AcDbLine
 10
30.27130551991037
 20
1.454288027923101
 30
0.0
 11
30.17867429550472
 21
1.467697507475839
 31
0.0
  0
LINE
  5
48C
330
18
100
AcDbEntity
  8
1
100
AcDbLine
 10
30.17867429550472
 20
1.467697507475839
 30
0.0
 11
30.08602315909609
 21
1.477301502849623
 31
0.0
  0
LINE
  5
48D
330
18
100
AcDbEntity
  8
1
100
AcDbLine
 10
30.08602315909609
 20
1.477301502849623
 30
0.0
 11
29.99338351165813
 21
1.483074878504432
 31
0.0
  0
LINE
  5
48E
330
18
100
AcDbEntity
  8
1
100
AcDbLine
 10
29.99338351165813
 20
1.483074878504432
 30
0.0
 11
29.90076102911002
 21
1.485
 31
0.0
  0
LINE
  5
48F
330
18
100
AcDbEntity
  8
1
100
AcDbLine
 10
28.68230758902261
 20
1.164052764669859
 30
0.0
 11
28.83462664965309
 21
1.237101958411714
 31
0.0
  0
LINE
  5
490
330
18
100
AcDbEntity
  8
1
100
AcDbLine
 10
28.83462664965309
 20
1.237101958411714
 30
0.0
 11
28.98692783289155
 21
1.301472623939768
 31
0.0
  0
LINE
  5
491
330
18
100
AcDbEntity
  8
1
100
AcDbLine
 10
28.98692783289155
 20
1.301472623939768
 30
0.0
 11
29.13923428304123
 21
1.356726746116963
 31
0.0
  0
LINE
  5
492
330
18
100
AcDbEntity
  8
1
100
AcDbLine
 10
29.13923428304123
 20
1.356726746116963
 30
0.0
 11
29.29155312754621
 21
1.402474116906709
 31
0.0
  0
LINE
  5
493
330
18
100
AcDbEntity
  8
1
100
AcDbLine
 10
29.29155312754621
 20
1.402474116906709
 30
0.0
 11
29.44385419761738
 21
1.438387327536944
 31
0.0
  0
LINE
  5
494
330
18
100
AcDbEntity
  8
1
100
AcDbLine
 10
29.44385419761738
 20
1.438387327536944
 30
0.0
 11
29.5961604797002
 21
1.464223634811818
 31
0.0
  0
LINE
  5
495
330
18
100
AcDbEntity
  8
1
100
AcDbLine
 10
29.5961604797002
 20
1.464223634811818
 30
0.0
 11
29.74847919258931
 21
1.479797253800631
 31
0.0
  0
LINE
  5
496
330
18
100
AcDbEntity
  8
1
100
AcDbLine
 10
29.74847919258931
 20
1.479797253800631
 30
0.0
 11
29.90076102911002
 21
1.485
 31
0.0
  0
LINE
  5
497
330
18
100
AcDbEntity
  8
1
100
AcDbLine
 10
33.62903058467695
 20
0.4039998045731284
 30
0.0
 11
33.33455338782291
 21
0.6290687413359611
 31
0.0
  0
LINE
  5
498
330
18
100
AcDbEntity
  8
1
100
AcDbLine
 10
33.33455338782291
 20
0.6290687413359611
 30
0.0
 11
33.04007416122212
 21
0.8376841158588733
 31
0.0
  0
LINE
  5
499
330
18
100
AcDbEntity
  8
1
100
AcDbLine
 10
33.04007416122212
 20
0.8376841158588733
 30
0.0
 11
32.74558331807789
 21
1.024395574867197
 31
0.0
  0
LINE
  5
49A
330
18
100
AcDbEntity
  8
1
100
AcDbLine
 10
32.74558331807789
 20
1.024395574867197
 30
0.0
 11
32.59834993057574
 21
1.107975709724708
 31
0.0
  0
LINE
  5
49B
330
18
100
AcDbEntity
  8
1
100
AcDbLine
 10
32.59834993057574
 20
1.107975709724708
 30
0.0
 11
32.45109757268423
 21
1.184308689282944
 31
0.0
  0
LINE
  5
49C
330
18
100
AcDbEntity
  8
1
100
AcDbLine
 10
32.45109757268423
 20
1.184308689282944
 30
0.0
 11
32.30386057732427
 21
1.252874846641511
 31
0.0
  0
LINE
  5
49D
330
18
100
AcDbEntity
  8
1
100
AcDbLine
 10
32.30386057732427
 20
1.252874846641511
 30
0.0
 11
32.15662505196374
 21
1.313236821003369
 31
0.0
  0
LINE
  5
49E
330
18
100
AcDbEntity
  8
1
100
AcDbLine
 10
32.15662505196374
 20
1.313236821003369
 30
0.0
 11
32.00937237247811
 21
1.365001992311605
 31
0.0
  0
LINE
  5
49F
330
18
100
AcDbEntity
  8
1
100
AcDbLine
 10
32.00937237247811
 20
1.365001992311605
 30
0.0
 11
31.86213832586358
 21
1.407819357616575
 31
0.0
  0
LINE
  5
4A0
330
18
100
AcDbEntity
  8
1
100
AcDbLine
 10
31.86213832586358
 20
1.407819357616575
 30
0.0
 11
31.71489956797317
 21
1.4414196153543
 31
0.0
  0
LINE
  5
4A1
330
18
100
AcDbEntity
  8
1
100
AcDbLine
 10
31.71489956797317
 20
1.4414196153543
 30
0.0
 11
31.56764865586688
 21
1.465578193098215
 31
0.0
  0
LINE
  5
4A2
330
18
100
AcDbEntity
  8
1
100
AcDbLine
 10
31.56764865586688
 20
1.465578193098215
 30
0.0
 11
31.42041705108737
 21
1.480134809162936
 31
0.0
  0
LINE
  5
4A3
330
18
100
AcDbEntity
  8
1
100
AcDbLine
 10
31.42041705108737
 20
1.480134809162936
 30
0.0
 11
31.27317337555297
 21
1.485
 31
0.0
  0
LINE
  5
4A4
330
18
100
AcDbEntity
  8
1
100
AcDbLine
 10
32.49162618585425
 20
1.164052327729677
 30
0.0
 11
32.64394378464177
 21
1.237100636615289
 31
0.0
  0
LINE
  5
4A5
330
18
100
AcDbEntity
  8
1
100
AcDbLine
 10
32.64394378464177
 20
1.237100636615289
 30
0.0
 11
32.79624435413897
 21
1.30147146098842
 31
0.0
  0
LINE
  5
4A6
330
18
100
AcDbEntity
  8
1
100
AcDbLine
 10
32.79624435413897
 20
1.30147146098842
 30
0.0
 11
32.94855336903431
 21
1.356726675632872
 31
0.0
  0
LINE
  5
4A7
330
18
100
AcDbEntity
  8
1
100
AcDbLine
 10
32.94855336903431
 20
1.356726675632872
 30
0.0
 11
33.10087073438963
 21
1.402473369313678
 31
0.0
  0
LINE
  5
4A8
330
18
100
AcDbEntity
  8
1
100
AcDbLine
 10
33.10087073438963
 20
1.402473369313678
 30
0.0
 11
33.25317119774274
 21
1.438386871688728
 31
0.0
  0
LINE
  5
4A9
330
18
100
AcDbEntity
  8
1
100
AcDbLine
 10
33.25317119774274
 20
1.438386871688728
 30
0.0
 11
33.40548001938374
 21
1.464223750924029
 31
0.0
  0
LINE
  5
4AA
330
18
100
AcDbEntity
  8
1
100
AcDbLine
 10
33.40548001938374
 20
1.464223750924029
 30
0.0
 11
33.55779729644125
 21
1.479796943718027
 31
0.0
  0
LINE
  5
4AB
330
18
100
AcDbEntity
  8
1
100
AcDbLine
 10
33.55779729644125
 20
1.479796943718027
 30
0.0
 11
33.71008070961331
 21
1.485
 31
0.0
  0
LINE
  5
4AC
330
18
100
AcDbEntity
  8
1
100
AcDbLine
 10
25.2466458944491
 20
-0.0877469799967446
 30
0.0
 11
25.25155605009054
 21
-0.0917486113598915
 31
0.0
  0
LINE
  5
4AD
330
18
100
AcDbEntity
  8
1
100
AcDbLine
 10
25.25155605009054
 20
-0.0917486113598915
 30
0.0
 11
25.93769501810188
 21
-0.6312670781586428
 31
0.0
  0
LINE
  5
4AE
330
18
100
AcDbEntity
  8
1
100
AcDbLine
 10
25.93769501810188
 20
-0.6312670781586428
 30
0.0
 11
26.28077454301849
 21
-0.8721119480671737
 31
0.0
  0
LINE
  5
4AF
330
18
100
AcDbEntity
  8
1
100
AcDbLine
 10
26.28077454301849
 20
-0.8721119480671737
 30
0.0
 11
26.45230210772489
 21
-0.9814193621491736
 31
0.0
  0
LINE
  5
4B0
330
18
100
AcDbEntity
  8
1
100
AcDbLine
 10
26.45230210772489
 20
-0.9814193621491736
 30
0.0
 11
26.62383303835315
 21
-1.08200750970097
 31
0.0
  0
LINE
  5
4B1
330
18
100
AcDbEntity
  8
1
100
AcDbLine
 10
26.62383303835315
 20
-1.08200750970097
 30
0.0
 11
26.79537661859001
 21
-1.172985209849161
 31
0.0
  0
LINE
  5
4B2
330
18
100
AcDbEntity
  8
1
100
AcDbLine
 10
26.79537661859001
 20
-1.172985209849161
 30
0.0
 11
26.96691197062147
 21
-1.253531366332011
 31
0.0
  0
LINE
  5
4B3
330
18
100
AcDbEntity
  8
1
100
AcDbLine
 10
26.96691197062147
 20
-1.253531366332011
 30
0.0
 11
27.13843937111677
 21
-1.322933763561989
 31
0.0
  0
LINE
  5
4B4
330
18
100
AcDbEntity
  8
1
100
AcDbLine
 10
27.13843937111677
 20
-1.322933763561989
 30
0.0
 11
27.30997010938633
 21
-1.380581190930657
 31
0.0
  0
LINE
  5
4B5
330
18
100
AcDbEntity
  8
1
100
AcDbLine
 10
27.30997010938633
 20
-1.380581190930657
 30
0.0
 11
27.48151333939693
 21
-1.425960889977669
 31
0.0
  0
LINE
  5
4B6
330
18
100
AcDbEntity
  8
1
100
AcDbLine
 10
27.48151333939693
 20
-1.425960889977669
 30
0.0
 11
27.56727194415566
 21
-1.443914604671736
 31
0.0
  0
LINE
  5
4B7
330
18
100
AcDbEntity
  8
1
100
AcDbLine
 10
27.56727194415566
 20
-1.443914604671736
 30
0.0
 11
27.6530486155175
 21
-1.458662571648791
 31
0.0
  0
LINE
  5
4B8
330
18
100
AcDbEntity
  8
1
100
AcDbLine
 10
27.6530486155175
 20
-1.458662571648791
 30
0.0
 11
27.73880823666197
 21
-1.470166200257209
 31
0.0
  0
LINE
  5
4B9
330
18
100
AcDbEntity
  8
1
100
AcDbLine
 10
27.73880823666197
 20
-1.470166200257209
 30
0.0
 11
27.8245759801597
 21
-1.478399735566351
 31
0.0
  0
LINE
  5
4BA
330
18
100
AcDbEntity
  8
1
100
AcDbLine
 10
27.8245759801597
 20
-1.478399735566351
 30
0.0
 11
27.9103506906684
 21
-1.483349231003223
 31
0.0
  0
LINE
  5
4BB
330
18
100
AcDbEntity
  8
1
100
AcDbLine
 10
27.9103506906684
 20
-1.483349231003223
 30
0.0
 11
27.99610118871632
 21
-1.484999999901586
 31
0.0
  0
LINE
  5
4BC
330
18
100
AcDbEntity
  8
1
100
AcDbLine
 10
25.25155818367038
 20
-0.0917459931596668
 30
0.0
 11
25.24664587971152
 21
-0.0877469980789066
 31
0.0
  0
LINE
  5
4BD
330
18
100
AcDbEntity
  8
1
 62
     1
100
AcDbLine
 10
37.83845298923242
 20
2.0
 30
0.0
 11
37.8615470107676
 21
2.0
 31
0.0
  0
LINE
  5
4BE
330
18
100
AcDbEntity
  8
1
 62
     1
100
AcDbLine
 10
35.73845298923243
 20
-2.000000000000003
 30
0.0
 11
35.59917346261073
 21
-1.758760895914901
 31
0.0
  0
LINE
  5
4BF
330
18
100
AcDbEntity
  8
1
 62
     1
100
AcDbLine
 10
36.43845298923242
 20
-2.000000000000002
 30
0.0
 11
36.10000000000001
 21
-1.4137825
 31
0.0
  0
ARC
  5
4C0
330
18
100
AcDbEntity
  8
1
 62
     1
100
AcDbCircle
 10
47.9929097039894
 20
7.683509481607201
 30
0.0
 40
9.924122086125253
100
AcDbArc
 50
227.1816157127109
 51
229.6840115273325
  0
LINE
  5
4C1
330
18
100
AcDbEntity
  8
1
 62
     1
100
AcDbLine
 10
41.18930238377679
 20
0.4581498918827406
 30
0.0
 11
41.18930238377679
 21
-0.7638120707105435
 31
0.0
  0
ARC
  5
4C2
330
18
100
AcDbEntity
  8
1
 62
     1
100
AcDbCircle
 10
43.2147197876572
 20
2.090437755591855
 30
0.0
 40
3.499707781710271
100
AcDbArc
 50
234.6399311590263
 51
242.0049138730203
  0
LINE
  5
4C3
330
18
100
AcDbEntity
  8
1
 62
     1
100
AcDbLine
 10
41.57198532896464
 20
0.1164970058997279
 30
0.0
 11
41.57198532896463
 21
-0.9997357391294274
 31
0.0
  0
LINE
  5
4C4
330
18
100
AcDbEntity
  8
1
 62
     1
100
AcDbLine
 10
40.73850046488489
 20
0.8918272960107587
 30
0.0
 11
40.58593354205894
 21
1.041506239632066
 31
0.0
  0
LINE
  5
4C5
330
18
100
AcDbEntity
  8
1
 62
     1
100
AcDbLine
 10
40.58593354205895
 20
1.041506239632071
 30
0.0
 11
40.58593354205894
 21
-0.2695973464053635
 31
0.0
  0
LINE
  5
4C6
330
18
100
AcDbEntity
  8
1
 62
     1
100
AcDbLine
 10
40.73850046488487
 20
-0.4068833974657981
 30
0.0
 11
40.58593354205894
 21
-0.2695973464053635
 31
0.0
  0
LINE
  5
4C7
330
18
100
AcDbEntity
  8
1
 62
     1
100
AcDbLine
 10
40.73850046488488
 20
0.8918272960107634
 30
0.0
 11
40.73850046488488
 21
-0.4068833974658074
 31
0.0
  0
ARC
  5
4C8
330
18
100
AcDbEntity
  8
1
 62
     1
100
AcDbCircle
 10
34.4325196259017
 20
2.276402931722695
 30
0.0
 40
6.900433236232748
100
AcDbArc
 50
323.2511155196483
 51
328.2404209722786
  0
LINE
  5
4C9
330
18
100
AcDbEntity
  8
1
 62
     1
100
AcDbLine
 10
39.96154701076762
 20
-1.852149971898088
 30
0.0
 11
39.96154701076761
 21
-2.0
 31
0.0
  0
LINE
  5
4CA
330
18
100
AcDbEntity
  8
1
 62
     1
100
AcDbLine
 10
40.3
 20
-1.4137825
 30
0.0
 11
39.96154701076761
 21
-1.999999999999966
 31
0.0
  0
LINE
  5
4CB
330
18
100
AcDbEntity
  8
1
 62
     1
100
AcDbLine
 10
40.3
 20
-1.4137825
 30
0.0
 11
40.3
 21
-1.413769626260633
 31
0.0
  0
LINE
  5
4CC
330
18
100
AcDbEntity
  8
1
 62
     1
100
AcDbLine
 10
40.3
 20
-1.413769626260633
 30
0.0
 11
40.3
 21
-1.409959646262886
 31
0.0
  0
LINE
  5
4CD
330
18
100
AcDbEntity
  8
1
 62
     1
100
AcDbLine
 10
40.3
 20
-1.409959646262886
 30
0.0
 11
40.30000000000001
 21
-1.35586083906824
 31
0.0
  0
ARC
  5
4CE
330
18
100
AcDbEntity
  8
1
 62
     1
100
AcDbCircle
 10
52.58645219011136
 20
4.672117134737011
 30
0.0
 40
13.68548833038087
100
AcDbArc
 50
206.1334880612368
 51
208.7305930267772
  0
LINE
  5
4CF
330
18
100
AcDbEntity
  8
1
 62
     1
100
AcDbLine
 10
40.58593354205893
 20
-1.909033691523176
 30
0.0
 11
40.3
 21
-1.4137825
 31
0.0
  0
ARC
  5
4D0
330
18
100
AcDbEntity
  8
1
 62
     1
100
AcDbCircle
 10
-329.8204274691026
 20
209.4340227404292
 30
0.0
 40
426.5696622367208
100
AcDbArc
 50
330.3073448096934
 51
330.3783064390169
  0
ARC
  5
4D1
330
18
100
AcDbEntity
  8
1
 62
     1
100
AcDbCircle
 10
44.38362789531774
 20
0.6983318910550751
 30
0.0
 40
3.985148417189551
100
AcDbArc
 50
211.8909556517094
 51
216.7188346206028
  0
LINE
  5
4D2
330
18
100
AcDbEntity
  8
1
 62
     1
100
AcDbLine
 10
38.56154701076759
 20
2.0
 30
0.0
 11
38.56154701076759
 21
1.999923036876019
 31
0.0
  0
LINE
  5
4D3
330
18
100
AcDbEntity
  8
1
 62
     1
100
AcDbLine
 10
38.56154701076759
 20
1.999923036876019
 30
0.0
 11
38.56154701076758
 21
1.976543689656891
 31
0.0
  0
LINE
  5
4D4
330
18
100
AcDbEntity
  8
1
 62
     1
100
AcDbLine
 10
38.56154701076758
 20
1.976543689656891
 30
0.0
 11
38.56154701076759
 21
1.634699677251031
 31
0.0
  0
LINE
  5
4D5
330
18
100
AcDbEntity
  8
1
 62
     1
100
AcDbLine
 10
38.53845298923243
 20
2.0
 30
0.0
 11
38.56154701076759
 21
2.0
 31
0.0
  0
ARC
  5
4D6
330
18
100
AcDbEntity
  8
1
 62
     1
100
AcDbCircle
 10
42.74472882977567
 20
-7.443803332819328
 30
0.0
 40
7.795585936153257
100
AcDbArc
 50
125.6584653868444
 51
128.785825935038
  0
LINE
  5
4D7
330
18
100
AcDbEntity
  8
1
 62
     1
100
AcDbLine
 10
37.86154701076761
 20
-0.0585464201274745
 30
0.0
 11
37.90275076392388
 21
-0.0853969500110397
 31
0.0
  0
LINE
  5
4D8
330
18
100
AcDbEntity
  8
1
 62
     1
100
AcDbLine
 10
37.90275076392388
 20
-0.0853969500110397
 30
0.0
 11
37.94430036143585
 21
-0.1091582092871249
 31
0.0
  0
LINE
  5
4D9
330
18
100
AcDbEntity
  8
1
 62
     1
100
AcDbLine
 10
37.94430036143585
 20
-0.1091582092871249
 30
0.0
 11
37.98617429394264
 21
-0.1297298446864563
 31
0.0
  0
LINE
  5
4DA
330
18
100
AcDbEntity
  8
1
 62
     1
100
AcDbLine
 10
37.98617429394264
 20
-0.1297298446864563
 30
0.0
 11
38.00723356152641
 21
-0.1387944241527393
 31
0.0
  0
LINE
  5
4DB
330
18
100
AcDbEntity
  8
1
 62
     1
100
AcDbLine
 10
38.00723356152641
 20
-0.1387944241527393
 30
0.0
 11
38.02836919953457
 21
-0.1470288192164634
 31
0.0
  0
LINE
  5
4DC
330
18
100
AcDbEntity
  8
1
 62
     1
100
AcDbLine
 10
38.02836919953457
 20
-0.1470288192164634
 30
0.0
 11
38.0495841167235
 21
-0.1544242215505587
 31
0.0
  0
LINE
  5
4DD
330
18
100
AcDbEntity
  8
1
 62
     1
100
AcDbLine
 10
38.0495841167235
 20
-0.1544242215505587
 30
0.0
 11
38.07087312007631
 21
-0.1609693246068539
 31
0.0
  0
LINE
  5
4DE
330
18
100
AcDbEntity
  8
1
 62
     1
100
AcDbLine
 10
38.07087312007631
 20
-0.1609693246068539
 30
0.0
 11
38.09223162503692
 21
-0.1666528899636933
 31
0.0
  0
LINE
  5
4DF
330
18
100
AcDbEntity
  8
1
 62
     1
100
AcDbLine
 10
38.09223162503692
 20
-0.1666528899636933
 30
0.0
 11
38.11366206262625
 21
-0.171466309652872
 31
0.0
  0
LINE
  5
4E0
330
18
100
AcDbEntity
  8
1
 62
     1
100
AcDbLine
 10
38.11366206262625
 20
-0.171466309652872
 30
0.0
 11
38.1351580860715
 21
-0.1753993813766559
 31
0.0
  0
LINE
  5
4E1
330
18
100
AcDbEntity
  8
1
 62
     1
100
AcDbLine
 10
38.1351580860715
 20
-0.1753993813766559
 30
0.0
 11
38.15671393708486
 21
-0.1784419275758147
 31
0.0
  0
LINE
  5
4E2
330
18
100
AcDbEntity
  8
1
 62
     1
100
AcDbLine
 10
38.15671393708486
 20
-0.1784419275758147
 30
0.0
 11
38.17833051563427
 21
-0.1805856321229791
 31
0.0
  0
LINE
  5
4E3
330
18
100
AcDbEntity
  8
1
 62
     1
100
AcDbLine
 10
38.17833051563427
 20
-0.1805856321229791
 30
0.0
 11
38.2
 21
-0.1818215118349703
 31
0.0
  0
LINE
  5
4E4
330
18
100
AcDbEntity
  8
1
 62
     1
100
AcDbLine
 10
37.86154701076759
 20
-0.0585464201274627
 30
0.0
 11
37.8615470107676
 21
-1.36727236876907
 31
0.0
  0
ARC
  5
4E5
330
18
100
AcDbEntity
  8
1
 62
     1
100
AcDbCircle
 10
35.25355190576732
 20
-2.181900844634375
 30
0.0
 40
2.523861353990733
100
AcDbArc
 50
52.21917594526751
 51
61.40299598681316
  0
LINE
  5
4E6
330
18
100
AcDbEntity
  8
1
 62
     1
100
AcDbLine
 10
36.8
 20
-0.1868535986992995
 30
0.0
 11
36.8
 21
0.8451748467711255
 31
0.0
  0
ARC
  5
4E7
330
18
100
AcDbEntity
  8
1
 62
     1
100
AcDbCircle
 10
40.21900747663599
 20
3.500349692840184
 30
0.0
 40
4.32952504055927
100
AcDbArc
 50
209.7906464793969
 51
217.8326378016599
  0
LINE
  5
4E8
330
18
100
AcDbEntity
  8
1
 62
     1
100
AcDbLine
 10
36.4615470107676
 20
1.349246313651612
 30
0.0
 11
36.4615470107676
 21
0.0339945937738338
 31
0.0
  0
LINE
  5
4E9
330
18
100
AcDbEntity
  8
1
 62
     1
100
AcDbLine
 10
36.8
 20
-0.1868535986990948
 30
0.0
 11
36.82349549075939
 21
-0.2065548658848698
 31
0.0
  0
LINE
  5
4EA
330
18
100
AcDbEntity
  8
1
 62
     1
100
AcDbLine
 10
36.82349549075939
 20
-0.2065548658848698
 30
0.0
 11
36.84669731448311
 21
-0.2283604946467863
 31
0.0
  0
LINE
  5
4EB
330
18
100
AcDbEntity
  8
1
 62
     1
100
AcDbLine
 10
36.84669731448311
 20
-0.2283604946467863
 30
0.0
 11
36.86959601836626
 21
-0.252151081112487
 31
0.0
  0
LINE
  5
4EC
330
18
100
AcDbEntity
  8
1
 62
     1
100
AcDbLine
 10
36.86959601836626
 20
-0.252151081112487
 30
0.0
 11
36.89217730841544
 21
-0.2778026709230197
 31
0.0
  0
LINE
  5
4ED
330
18
100
AcDbEntity
  8
1
 62
     1
100
AcDbLine
 10
36.89217730841544
 20
-0.2778026709230197
 30
0.0
 11
36.91444257297074
 21
-0.3052116657243172
 31
0.0
  0
LINE
  5
4EE
330
18
100
AcDbEntity
  8
1
 62
     1
100
AcDbLine
 10
36.91444257297074
 20
-0.3052116657243172
 30
0.0
 11
36.95800143803437
 21
-0.3648655218888406
 31
0.0
  0
LINE
  5
4EF
330
18
100
AcDbEntity
  8
1
 62
     1
100
AcDbLine
 10
36.95800143803437
 20
-0.3648655218888406
 30
0.0
 11
37.00027184110743
 21
-0.4303256653266846
 31
0.0
  0
LINE
  5
4F0
330
18
100
AcDbEntity
  8
1
 62
     1
100
AcDbLine
 10
37.00027184110743
 20
-0.4303256653266846
 30
0.0
 11
37.04128444372404
 21
-0.5009012983104432
 31
0.0
  0
LINE
  5
4F1
330
18
100
AcDbEntity
  8
1
 62
     1
100
AcDbLine
 10
37.04128444372404
 20
-0.5009012983104432
 30
0.0
 11
37.08105210109029
 21
-0.5759178735828907
 31
0.0
  0
LINE
  5
4F2
330
18
100
AcDbEntity
  8
1
 62
     1
100
AcDbLine
 10
37.08105210109029
 20
-0.5759178735828907
 30
0.0
 11
37.13845298923241
 21
-0.695500297924603
 31
0.0
  0
LINE
  5
4F3
330
18
100
AcDbEntity
  8
1
 62
     1
100
AcDbLine
 10
36.8
 20
0.8451748467711255
 30
0.0
 11
36.82149165567511
 21
0.8446323036708433
 31
0.0
  0
LINE
  5
4F4
330
18
100
AcDbEntity
  8
1
 62
     1
100
AcDbLine
 10
36.82149165567511
 20
0.8446323036708433
 30
0.0
 11
36.84295535620453
 21
0.8430830371666508
 31
0.0
  0
LINE
  5
4F5
330
18
100
AcDbEntity
  8
1
 62
     1
100
AcDbLine
 10
36.84295535620453
 20
0.8430830371666508
 30
0.0
 11
36.86438339494856
 21
0.8405341209404744
 31
0.0
  0
LINE
  5
4F6
330
18
100
AcDbEntity
  8
1
 62
     1
100
AcDbLine
 10
36.86438339494856
 20
0.8405341209404744
 30
0.0
 11
36.885768173454
 21
0.8369926105552242
 31
0.0
  0
LINE
  5
4F7
330
18
100
AcDbEntity
  8
1
 62
     1
100
AcDbLine
 10
36.885768173454
 20
0.8369926105552242
 30
0.0
 11
36.90711170258783
 21
0.8324644459681018
 31
0.0
  0
LINE
  5
4F8
330
18
100
AcDbEntity
  8
1
 62
     1
100
AcDbLine
 10
36.90711170258783
 20
0.8324644459681018
 30
0.0
 11
36.92841349430347
 21
0.8269575560079839
 31
0.0
  0
LINE
  5
4F9
330
18
100
AcDbEntity
  8
1
 62
     1
100
AcDbLine
 10
36.92841349430347
 20
0.8269575560079839
 30
0.0
 11
36.94966713600634
 21
0.8204811695616494
 31
0.0
  0
LINE
  5
4FA
330
18
100
AcDbEntity
  8
1
 62
     1
100
AcDbLine
 10
36.94966713600634
 20
0.8204811695616494
 30
0.0
 11
36.97086662805791
 21
0.8130443743833385
 31
0.0
  0
LINE
  5
4FB
330
18
100
AcDbEntity
  8
1
 62
     1
100
AcDbLine
 10
36.97086662805791
 20
0.8130443743833385
 30
0.0
 11
36.99201584313017
 21
0.8046534273853624
 31
0.0
  0
LINE
  5
4FC
330
18
100
AcDbEntity
  8
1
 62
     1
100
AcDbLine
 10
36.99201584313017
 20
0.8046534273853624
 30
0.0
 11
37.01311351911041
 21
0.7953177214391551
 31
0.0
  0
LINE
  5
4FD
330
18
100
AcDbEntity
  8
1
 62
     1
100
AcDbLine
 10
37.01311351911041
 20
0.7953177214391551
 30
0.0
 11
37.03415418372114
 21
0.7850482953252493
 31
0.0
  0
LINE
  5
4FE
330
18
100
AcDbEntity
  8
1
 62
     1
100
AcDbLine
 10
37.03415418372114
 20
0.7850482953252493
 30
0.0
 11
37.05513324807137
 21
0.7738557332806097
 31
0.0
  0
LINE
  5
4FF
330
18
100
AcDbEntity
  8
1
 62
     1
100
AcDbLine
 10
37.05513324807137
 20
0.7738557332806097
 30
0.0
 11
37.09691935193874
 21
0.7487310988098199
 31
0.0
  0
LINE
  5
500
330
18
100
AcDbEntity
  8
1
 62
     1
100
AcDbLine
 10
37.09691935193874
 20
0.7487310988098199
 30
0.0
 11
37.1384529892324
 21
0.7200329960161604
 31
0.0
  0
ARC
  5
501
330
18
100
AcDbEntity
  8
1
 62
     1
100
AcDbCircle
 10
37.44615548926697
 20
-2.724980782565073
 30
0.0
 40
2.025919961898798
100
AcDbArc
 50
88.47737368040261
 51
98.07623235620572
  0
ARC
  5
502
330
18
100
AcDbEntity
  8
1
 62
     1
100
AcDbCircle
 10
38.60247305362956
 20
1.779473089913245
 30
0.0
 40
1.802546791864716
100
AcDbArc
 50
216.9333318582444
 51
229.7573113668145
  0
LINE
  5
503
330
18
100
AcDbEntity
  8
1
 62
     1
100
AcDbLine
 10
37.16154701076762
 20
0.6962838275863465
 30
0.0
 11
37.16154701076761
 21
-0.7192532182981816
 31
0.0
  0
LINE
  5
504
330
18
100
AcDbEntity
  8
1
 62
     1
100
AcDbLine
 10
37.5
 20
-0.6993117827009441
 30
0.0
 11
37.54669731249373
 21
-0.76621647742219
 31
0.0
  0
LINE
  5
505
330
18
100
AcDbEntity
  8
1
 62
     1
100
AcDbLine
 10
37.54669731249373
 20
-0.76621647742219
 30
0.0
 11
37.59217729812393
 21
-0.8389242601975081
 31
0.0
  0
LINE
  5
506
330
18
100
AcDbEntity
  8
1
 62
     1
100
AcDbLine
 10
37.59217729812393
 20
-0.8389242601975081
 30
0.0
 11
37.63638208959392
 21
-0.9164353433354069
 31
0.0
  0
LINE
  5
507
330
18
100
AcDbEntity
  8
1
 62
     1
100
AcDbLine
 10
37.63638208959392
 20
-0.9164353433354069
 30
0.0
 11
37.72093270548057
 21
-1.082459575052822
 31
0.0
  0
LINE
  5
508
330
18
100
AcDbEntity
  8
1
 62
     1
100
AcDbLine
 10
37.72093270548057
 20
-1.082459575052822
 30
0.0
 11
37.83845298923242
 21
-1.348629060669084
 31
0.0
  0
LINE
  5
509
330
18
100
AcDbEntity
  8
1
 62
     1
100
AcDbLine
 10
37.83845298923242
 20
-0.0331586596332294
 30
0.0
 11
37.83845298923241
 21
-1.348629060669069
 31
0.0
  0
LINE
  5
50A
330
18
100
AcDbEntity
  8
1
 62
     1
100
AcDbLine
 10
37.5
 20
0.3578540555784924
 30
0.0
 11
37.54295679785312
 21
0.3210000563917758
 31
0.0
  0
LINE
  5
50B
330
18
100
AcDbEntity
  8
1
 62
     1
100
AcDbLine
 10
37.54295679785312
 20
0.3210000563917758
 30
0.0
 11
37.58577105332021
 21
0.2804818388376986
 31
0.0
  0
LINE
  5
50C
330
18
100
AcDbEntity
  8
1
 62
     1
100
AcDbLine
 10
37.58577105332021
 20
0.2804818388376986
 30
0.0
 11
37.62841787514579
 21
0.2364060302640765
 31
0.0
  0
LINE
  5
50D
330
18
100
AcDbEntity
  8
1
 62
     1
100
AcDbLine
 10
37.62841787514579
 20
0.2364060302640765
 30
0.0
 11
37.67087239040885
 21
0.1888930765133152
 31
0.0
  0
LINE
  5
50E
330
18
100
AcDbEntity
  8
1
 62
     1
100
AcDbLine
 10
37.67087239040885
 20
0.1888930765133152
 30
0.0
 11
37.75514162019436
 21
0.0840170261349883
 31
0.0
  0
LINE
  5
50F
330
18
100
AcDbEntity
  8
1
 62
     1
100
AcDbLine
 10
37.75514162019436
 20
0.0840170261349883
 30
0.0
 11
37.83845298923242
 21
-0.0331586596350826
 31
0.0
  0
LINE
  5
510
330
18
100
AcDbEntity
  8
1
 62
     1
100
AcDbLine
 10
37.50000000000001
 20
-0.6993117827009282
 30
0.0
 11
37.50000000000001
 21
0.3578540555784924
 31
0.0
  0
LINE
  5
511
330
18
100
AcDbEntity
  8
1
 62
     1
100
AcDbLine
 10
38.2
 20
-1.109459112297238
 30
0.0
 11
38.29217409053449
 21
-1.277303105030847
 31
0.0
  0
LINE
  5
512
330
18
100
AcDbEntity
  8
1
 62
     1
100
AcDbLine
 10
38.29217409053449
 20
-1.277303105030847
 30
0.0
 11
38.53845298923243
 21
-1.804450504114282
 31
0.0
  0
ARC
  5
513
330
18
100
AcDbEntity
  8
1
 62
     1
100
AcDbCircle
 10
33.74181270795214
 20
-3.087078074658703
 30
0.0
 40
5.321386391439018
100
AcDbArc
 50
25.67198105325365
 51
33.09098751162743
  0
LINE
  5
514
330
18
100
AcDbEntity
  8
1
 62
     1
100
AcDbLine
 10
38.20000000000001
 20
-1.109459112297239
 30
0.0
 11
38.2
 21
-0.1818215118350703
 31
0.0
  0
ARC
  5
515
330
18
100
AcDbEntity
  8
1
 62
     1
100
AcDbCircle
 10
-368.6057716664105
 20
-189.1125656797887
 30
0.0
 40
449.4199984022177
100
AcDbArc
 50
24.62596507023726
 51
24.72925510251043
  0
LINE
  5
516
330
18
100
AcDbEntity
  8
1
 62
     1
100
AcDbLine
 10
39.93845298923241
 20
-2.000000000000002
 30
0.0
 11
39.60000000000001
 21
-1.4137825
 31
0.0
  0
LINE
  5
517
330
18
100
AcDbEntity
  8
1
 62
     1
100
AcDbLine
 10
39.60000000000001
 20
-1.4137825
 30
0.0
 11
39.41145452771094
 21
-1.740352685278287
 31
0.0
  0
LINE
  5
518
330
18
100
AcDbEntity
  8
1
 62
     1
100
AcDbLine
 10
39.60000000000001
 20
-1.4137825
 30
0.0
 11
39.60000000000002
 21
-1.413717966675665
 31
0.0
  0
LINE
  5
519
330
18
100
AcDbEntity
  8
1
 62
     1
100
AcDbLine
 10
39.60000000000002
 20
-1.413717966675665
 30
0.0
 11
39.60000000000001
 21
-1.394031307122692
 31
0.0
  0
LINE
  5
51A
330
18
100
AcDbEntity
  8
1
 62
     1
100
AcDbLine
 10
39.60000000000001
 20
-1.394031307122692
 30
0.0
 11
39.60000000000002
 21
-1.106306183530886
 31
0.0
  0
LINE
  5
51B
330
18
100
AcDbEntity
  8
1
 62
     1
100
AcDbLine
 10
39.2615470107676
 20
-1.433330434343536
 30
0.0
 11
39.3027507790627
 21
-1.402224224524342
 31
0.0
  0
LINE
  5
51C
330
18
100
AcDbEntity
  8
1
 62
     1
100
AcDbLine
 10
39.3027507790627
 20
-1.402224224524342
 30
0.0
 11
39.34430036745775
 21
-1.368284391388098
 31
0.0
  0
LINE
  5
51D
330
18
100
AcDbEntity
  8
1
 62
     1
100
AcDbLine
 10
39.34430036745775
 20
-1.368284391388098
 30
0.0
 11
39.42836917383431
 21
-1.291972911446528
 31
0.0
  0
LINE
  5
51E
330
18
100
AcDbEntity
  8
1
 62
     1
100
AcDbLine
 10
39.42836917383431
 20
-1.291972911446528
 30
0.0
 11
39.51366206692622
 21
-1.204549130310996
 31
0.0
  0
LINE
  5
51F
330
18
100
AcDbEntity
  8
1
 62
     1
100
AcDbLine
 10
39.51366206692622
 20
-1.204549130310996
 30
0.0
 11
39.60000000000001
 21
-1.106306183530886
 31
0.0
  0
LINE
  5
520
330
18
100
AcDbEntity
  8
1
 62
     1
100
AcDbLine
 10
39.26154701076759
 20
-1.433330434343517
 30
0.0
 11
39.26154701076759
 21
-1.997664524688005
 31
0.0
  0
ARC
  5
521
330
18
100
AcDbEntity
  8
1
 62
     1
100
AcDbCircle
 10
-21.56050084236794
 20
-33.68944377511744
 30
0.0
 40
68.5628351663677
100
AcDbArc
 50
27.53204747818333
 51
28.13630758121887
  0
ARC
  5
522
330
18
100
AcDbEntity
  8
1
 62
     1
100
AcDbCircle
 10
-121.3073382655436
 20
116.8852000601462
 30
0.0
 40
199.117627446021
100
AcDbArc
 50
323.4066197323069
 51
323.5704808363039
  0
LINE
  5
523
330
18
100
AcDbEntity
  8
1
 62
     1
100
AcDbLine
 10
38.9
 20
-1.357289975837198
 30
0.0
 11
38.90000000000001
 21
-0.6948963694973254
 31
0.0
  0
LINE
  5
524
330
18
100
AcDbEntity
  8
1
 62
     1
100
AcDbLine
 10
38.56154701076758
 20
-0.804811236957979
 30
0.0
 11
38.58210336658671
 21
-0.804060058466615
 31
0.0
  0
LINE
  5
525
330
18
100
AcDbEntity
  8
1
 62
     1
100
AcDbLine
 10
38.58210336658671
 20
-0.804060058466615
 30
0.0
 11
38.60275077380319
 21
-0.802515453476105
 31
0.0
  0
LINE
  5
526
330
18
100
AcDbEntity
  8
1
 62
     1
100
AcDbLine
 10
38.60275077380319
 20
-0.802515453476105
 30
0.0
 11
38.62348463459102
 21
-0.8001720788571145
 31
0.0
  0
LINE
  5
527
330
18
100
AcDbEntity
  8
1
 62
     1
100
AcDbLine
 10
38.62348463459102
 20
-0.8001720788571145
 30
0.0
 11
38.64430035112422
 21
-0.7970245914803096
 31
0.0
  0
LINE
  5
528
330
18
100
AcDbEntity
  8
1
 62
     1
100
AcDbLine
 10
38.64430035112422
 20
-0.7970245914803096
 30
0.0
 11
38.66519520336799
 21
-0.7930674267600494
 31
0.0
  0
LINE
  5
529
330
18
100
AcDbEntity
  8
1
 62
     1
100
AcDbLine
 10
38.66519520336799
 20
-0.7930674267600494
 30
0.0
 11
38.68617426994838
 21
-0.7882947363590469
 31
0.0
  0
LINE
  5
52A
330
18
100
AcDbEntity
  8
1
 62
     1
100
AcDbLine
 10
38.68617426994838
 20
-0.7882947363590469
 30
0.0
 11
38.70723353454463
 21
-0.7827026798881682
 31
0.0
  0
LINE
  5
52B
330
18
100
AcDbEntity
  8
1
 62
     1
100
AcDbLine
 10
38.70723353454463
 20
-0.7827026798881682
 30
0.0
 11
38.74958411135828
 21
-0.7690427327463824
 31
0.0
  0
LINE
  5
52C
330
18
100
AcDbEntity
  8
1
 62
     1
100
AcDbLine
 10
38.74958411135828
 20
-0.7690427327463824
 30
0.0
 11
38.79223163002169
 21
-0.752057230160311
 31
0.0
  0
LINE
  5
52D
330
18
100
AcDbEntity
  8
1
 62
     1
100
AcDbLine
 10
38.79223163002169
 20
-0.752057230160311
 30
0.0
 11
38.83515808278588
 21
-0.7317197262430363
 31
0.0
  0
LINE
  5
52E
330
18
100
AcDbEntity
  8
1
 62
     1
100
AcDbLine
 10
38.83515808278588
 20
-0.7317197262430363
 30
0.0
 11
38.86751504191488
 21
-0.714258258290916
 31
0.0
  0
LINE
  5
52F
330
18
100
AcDbEntity
  8
1
 62
     1
100
AcDbLine
 10
38.86751504191488
 20
-0.714258258290916
 30
0.0
 11
38.9
 21
-0.6948963694973251
 31
0.0
  0
ARC
  5
530
330
18
100
AcDbEntity
  8
1
 62
     1
100
AcDbCircle
 10
34.04718386932277
 20
-0.2923898735716968
 30
0.0
 40
1.135258876111858
100
AcDbArc
 50
275.8492896637269
 51
284.9682367690845
  0
ARC
  5
531
330
18
100
AcDbEntity
  8
1
 62
     1
100
AcDbCircle
 10
34.06107101874229
 20
-0.1904661957616509
 30
0.0
 40
1.237517299086004
100
AcDbArc
 50
257.7072738283099
 51
263.3872222052321
  0
ARC
  5
532
330
18
100
AcDbEntity
  8
1
 62
     1
100
AcDbCircle
 10
37.95715279076052
 20
-1.031238333578091
 30
0.0
 40
4.641622417306555
100
AcDbArc
 50
144.8323653705278
 51
148.4881007765937
  0
LINE
  5
533
330
18
100
AcDbEntity
  8
1
 62
     1
100
AcDbLine
 10
34.16287936108692
 20
1.695897697370586
 30
0.0
 11
34.16287936108692
 21
1.695885636879639
 31
0.0
  0
LINE
  5
534
330
18
100
AcDbEntity
  8
1
 62
     1
100
AcDbLine
 10
34.16287936108692
 20
1.695885636879639
 30
0.0
 11
34.16287936108692
 21
1.692327187116353
 31
0.0
  0
LINE
  5
535
330
18
100
AcDbEntity
  8
1
 62
     1
100
AcDbLine
 10
34.16287936108692
 20
1.692327187116353
 30
0.0
 11
34.16287936108692
 21
1.642118540279153
 31
0.0
  0
LINE
  5
536
330
18
100
AcDbEntity
  8
1
 62
     1
100
AcDbLine
 10
34.00000000000001
 20
1.39483859855199
 30
0.0
 11
34.00000000000001
 21
1.413782498804949
 31
0.0
  0
LINE
  5
537
330
18
100
AcDbEntity
  8
1
 62
     1
100
AcDbLine
 10
36.10000000000001
 20
0.3529416961998435
 30
0.0
 11
36.11241215946442
 21
0.3512029914724068
 31
0.0
  0
LINE
  5
538
330
18
100
AcDbEntity
  8
1
 62
     1
100
AcDbLine
 10
36.11241215946442
 20
0.3512029914724068
 30
0.0
 11
36.12474814856791
 21
0.3488084059231705
 31
0.0
  0
LINE
  5
539
330
18
100
AcDbEntity
  8
1
 62
     1
100
AcDbLine
 10
36.12474814856791
 20
0.3488084059231705
 30
0.0
 11
36.13700173480777
 21
0.3457723385596776
 31
0.0
  0
LINE
  5
53A
330
18
100
AcDbEntity
  8
1
 62
     1
100
AcDbLine
 10
36.13700173480777
 20
0.3457723385596776
 30
0.0
 11
36.14916890360008
 21
0.342108570310111
 31
0.0
  0
LINE
  5
53B
330
18
100
AcDbEntity
  8
1
 62
     1
100
AcDbLine
 10
36.14916890360008
 20
0.342108570310111
 30
0.0
 11
36.16125368532551
 21
0.3378287566033835
 31
0.0
  0
LINE
  5
53C
330
18
100
AcDbEntity
  8
1
 62
     1
100
AcDbLine
 10
36.16125368532551
 20
0.3378287566033835
 30
0.0
 11
36.17325260199384
 21
0.3329467982228379
 31
0.0
  0
LINE
  5
53D
330
18
100
AcDbEntity
  8
1
 62
     1
100
AcDbLine
 10
36.17325260199384
 20
0.3329467982228379
 30
0.0
 11
36.18516129650435
 21
0.3274768179826975
 31
0.0
  0
LINE
  5
53E
330
18
100
AcDbEntity
  8
1
 62
     1
100
AcDbLine
 10
36.18516129650435
 20
0.3274768179826975
 30
0.0
 11
36.19698252755228
 21
0.3214296820968885
 31
0.0
  0
LINE
  5
53F
330
18
100
AcDbEntity
  8
1
 62
     1
100
AcDbLine
 10
36.19698252755228
 20
0.3214296820968885
 30
0.0
 11
36.20871652495343
 21
0.3148175381719687
 31
0.0
  0
LINE
  5
540
330
18
100
AcDbEntity
  8
1
 62
     1
100
AcDbLine
 10
36.20871652495343
 20
0.3148175381719687
 30
0.0
 11
36.22035995666685
 21
0.3076542023315457
 31
0.0
  0
LINE
  5
541
330
18
100
AcDbEntity
  8
1
 62
     1
100
AcDbLine
 10
36.22035995666685
 20
0.3076542023315457
 30
0.0
 11
36.23191229793446
 21
0.2999516923130736
 31
0.0
  0
LINE
  5
542
330
18
100
AcDbEntity
  8
1
 62
     1
100
AcDbLine
 10
36.23191229793446
 20
0.2999516923130736
 30
0.0
 11
36.25475240838013
 21
0.282970443544498
 31
0.0
  0
LINE
  5
543
330
18
100
AcDbEntity
  8
1
 62
     1
100
AcDbLine
 10
36.25475240838013
 20
0.282970443544498
 30
0.0
 11
36.27164532570619
 21
0.2689043504595086
 31
0.0
  0
LINE
  5
544
330
18
100
AcDbEntity
  8
1
 62
     1
100
AcDbLine
 10
36.27164532570619
 20
0.2689043504595086
 30
0.0
 11
36.28834412747085
 21
0.2537322084199822
 31
0.0
  0
LINE
  5
545
330
18
100
AcDbEntity
  8
1
 62
     1
100
AcDbLine
 10
36.10000000000001
 20
1.208844688453992
 30
0.0
 11
36.14295243623501
 21
1.241817999546067
 31
0.0
  0
LINE
  5
546
330
18
100
AcDbEntity
  8
1
 62
     1
100
AcDbLine
 10
36.14295243623501
 20
1.241817999546067
 30
0.0
 11
36.18576171112571
 21
1.271042239753283
 31
0.0
  0
LINE
  5
547
330
18
100
AcDbEntity
  8
1
 62
     1
100
AcDbLine
 10
36.18576171112571
 20
1.271042239753283
 30
0.0
 11
36.22840335621144
 21
1.296513340947034
 31
0.0
  0
LINE
  5
548
330
18
100
AcDbEntity
  8
1
 62
     1
100
AcDbLine
 10
36.22840335621144
 20
1.296513340947034
 30
0.0
 11
36.27086328909092
 21
1.318236964741881
 31
0.0
  0
LINE
  5
549
330
18
100
AcDbEntity
  8
1
 62
     1
100
AcDbLine
 10
36.27086328909092
 20
1.318236964741881
 30
0.0
 11
36.29201298333509
 21
1.32769307248366
 31
0.0
  0
LINE
  5
54A
330
18
100
AcDbEntity
  8
1
 62
     1
100
AcDbLine
 10
36.29201298333509
 20
1.32769307248366
 30
0.0
 11
36.31310770311845
 21
1.336214164248743
 31
0.0
  0
LINE
  5
54B
330
18
100
AcDbEntity
  8
1
 62
     1
100
AcDbLine
 10
36.31310770311845
 20
1.336214164248743
 30
0.0
 11
36.33414995137827
 21
1.34380475560691
 31
0.0
  0
LINE
  5
54C
330
18
100
AcDbEntity
  8
1
 62
     1
100
AcDbLine
 10
36.33414995137827
 20
1.34380475560691
 30
0.0
 11
36.35513454401772
 21
1.350466452392118
 31
0.0
  0
LINE
  5
54D
330
18
100
AcDbEntity
  8
1
 62
     1
100
AcDbLine
 10
36.35513454401772
 20
1.350466452392118
 30
0.0
 11
36.37605630825019
 21
1.356200861679144
 31
0.0
  0
LINE
  5
54E
330
18
100
AcDbEntity
  8
1
 62
     1
100
AcDbLine
 10
36.37605630825019
 20
1.356200861679144
 30
0.0
 11
36.39691707338572
 21
1.361012008263278
 31
0.0
  0
LINE
  5
54F
330
18
100
AcDbEntity
  8
1
 62
     1
100
AcDbLine
 10
36.39691707338572
 20
1.361012008263278
 30
0.0
 11
36.41771749490687
 21
1.364904676103297
 31
0.0
  0
LINE
  5
550
330
18
100
AcDbEntity
  8
1
 62
     1
100
AcDbLine
 10
36.41771749490687
 20
1.364904676103297
 30
0.0
 11
36.43845298923242
 21
1.367882319689066
 31
0.0
  0
ARC
  5
551
330
18
100
AcDbEntity
  8
1
 62
     1
100
AcDbCircle
 10
31.52566285332049
 20
-2.902400164957337
 30
0.0
 40
5.614266060384194
100
AcDbArc
 50
35.43767977097094
 51
41.01903153832646
  0
LINE
  5
552
330
18
100
AcDbEntity
  8
1
 62
     1
100
AcDbLine
 10
36.09999999999999
 20
0.352941696199844
 30
0.0
 11
36.1
 21
1.208844688453984
 31
0.0
  0
ARC
  5
553
330
18
100
AcDbEntity
  8
1
 62
     1
100
AcDbCircle
 10
45.49010765266299
 20
6.929076431834034
 30
0.0
 40
10.99553438710886
100
AcDbArc
 50
207.7768490845512
 51
211.348785765177
  0
LINE
  5
554
330
18
100
AcDbEntity
  8
1
 62
     1
100
AcDbLine
 10
35.76154701076759
 20
1.804810857931759
 30
0.0
 11
35.7615470107676
 21
0.7822686894642046
 31
0.0
  0
ARC
  5
555
330
18
100
AcDbEntity
  8
1
 62
     1
100
AcDbCircle
 10
20.21104812104245
 20
-6.096771863206557
 30
0.0
 40
16.22546560975643
100
AcDbArc
 50
26.74982315549212
 51
28.69708884712312
  0
LINE
  5
556
330
18
100
AcDbEntity
  8
1
 62
     1
100
AcDbLine
 10
34.7
 20
1.206205011150974
 30
0.0
 11
34.70000000000001
 21
1.41378249832064
 31
0.0
  0
LINE
  5
557
330
18
100
AcDbEntity
  8
1
 62
     1
100
AcDbLine
 10
34.44356028674768
 20
1.857948905338685
 30
0.0
 11
34.44356028674768
 21
1.857913580369344
 31
0.0
  0
LINE
  5
558
330
18
100
AcDbEntity
  8
1
 62
     1
100
AcDbLine
 10
34.44356028674768
 20
1.857913580369344
 30
0.0
 11
34.44356028674768
 21
1.847339898129626
 31
0.0
  0
LINE
  5
559
330
18
100
AcDbEntity
  8
1
 62
     1
100
AcDbLine
 10
34.44356028674768
 20
1.847339898129626
 30
0.0
 11
34.44356028674768
 21
1.69436107308426
 31
0.0
  0
LINE
  5
55A
330
18
100
AcDbEntity
  8
1
 62
     1
100
AcDbLine
 10
34.7
 20
1.206205011150986
 30
0.0
 11
34.7466956538888
 21
1.258693487676853
 31
0.0
  0
LINE
  5
55B
330
18
100
AcDbEntity
  8
1
 62
     1
100
AcDbLine
 10
34.7466956538888
 20
1.258693487676853
 30
0.0
 11
34.79217407715491
 21
1.304194006544084
 31
0.0
  0
LINE
  5
55C
330
18
100
AcDbEntity
  8
1
 62
     1
100
AcDbLine
 10
34.79217407715491
 20
1.304194006544084
 30
0.0
 11
34.8144385904572
 21
1.324324463613769
 31
0.0
  0
LINE
  5
55D
330
18
100
AcDbEntity
  8
1
 62
     1
100
AcDbLine
 10
34.8144385904572
 20
1.324324463613769
 30
0.0
 11
34.83637738068951
 21
1.342711516438232
 31
0.0
  0
LINE
  5
55E
330
18
100
AcDbEntity
  8
1
 62
     1
100
AcDbLine
 10
34.83637738068951
 20
1.342711516438232
 30
0.0
 11
34.85799602203554
 21
1.35937005534213
 31
0.0
  0
LINE
  5
55F
330
18
100
AcDbEntity
  8
1
 62
     1
100
AcDbLine
 10
34.85799602203554
 20
1.35937005534213
 30
0.0
 11
34.87929218547448
 21
1.374308476285245
 31
0.0
  0
LINE
  5
560
330
18
100
AcDbEntity
  8
1
 62
     1
100
AcDbLine
 10
34.87929218547448
 20
1.374308476285245
 30
0.0
 11
34.90027580632973
 21
1.387546566696158
 31
0.0
  0
LINE
  5
561
330
18
100
AcDbEntity
  8
1
 62
     1
100
AcDbLine
 10
34.90027580632973
 20
1.387546566696158
 30
0.0
 11
34.92093556654526
 21
1.399091195319589
 31
0.0
  0
LINE
  5
562
330
18
100
AcDbEntity
  8
1
 62
     1
100
AcDbLine
 10
34.92093556654526
 20
1.399091195319589
 30
0.0
 11
34.94128243513901
 21
1.408962499322494
 31
0.0
  0
LINE
  5
563
330
18
100
AcDbEntity
  8
1
 62
     1
100
AcDbLine
 10
34.94128243513901
 20
1.408962499322494
 30
0.0
 11
34.96132269224451
 21
1.417181684217788
 31
0.0
  0
LINE
  5
564
330
18
100
AcDbEntity
  8
1
 62
     1
100
AcDbLine
 10
34.96132269224451
 20
1.417181684217788
 30
0.0
 11
34.98105048176287
 21
1.42376354464263
 31
0.0
  0
LINE
  5
565
330
18
100
AcDbEntity
  8
1
 62
     1
100
AcDbLine
 10
34.98105048176287
 20
1.42376354464263
 30
0.0
 11
34.99080292758863
 21
1.426448113927843
 31
0.0
  0
LINE
  5
566
330
18
100
AcDbEntity
  8
1
 62
     1
100
AcDbLine
 10
34.99080292758863
 20
1.426448113927843
 30
0.0
 11
35.00048194807782
 21
1.428732225152602
 31
0.0
  0
LINE
  5
567
330
18
100
AcDbEntity
  8
1
 62
     1
100
AcDbLine
 10
35.00048194807782
 20
1.428732225152602
 30
0.0
 11
35.01008678024957
 21
1.430618273063681
 31
0.0
  0
LINE
  5
568
330
18
100
AcDbEntity
  8
1
 62
     1
100
AcDbLine
 10
35.01008678024957
 20
1.430618273063681
 30
0.0
 11
35.01961666112297
 21
1.432108652407855
 31
0.0
  0
LINE
  5
569
330
18
100
AcDbEntity
  8
1
 62
     1
100
AcDbLine
 10
35.01961666112297
 20
1.432108652407855
 30
0.0
 11
35.0290711813245
 21
1.433205845358427
 31
0.0
  0
LINE
  5
56A
330
18
100
AcDbEntity
  8
1
 62
     1
100
AcDbLine
 10
35.0290711813245
 20
1.433205845358427
 30
0.0
 11
35.03845298923241
 21
1.433913179717817
 31
0.0
  0
LINE
  5
56B
330
18
100
AcDbEntity
  8
1
 62
     1
100
AcDbLine
 10
35.0384529892324
 20
1.997704728045249
 30
0.0
 11
35.0384529892324
 21
1.43391317971783
 31
0.0
  0
ARC
  5
56C
330
18
100
AcDbEntity
  8
1
 62
     1
100
AcDbCircle
 10
25.97344650048382
 20
-4.320412061052913
 30
0.0
 40
10.74715034064168
100
AcDbArc
 50
28.70292571859857
 51
32.26056290516986
  0
ARC
  5
56D
330
18
100
AcDbEntity
  8
1
 62
     1
100
AcDbCircle
 10
193.5238024089898
 20
90.81983292399644
 30
0.0
 40
181.6587147324236
100
AcDbArc
 50
209.2721192062531
 51
209.489577345821
  0
LINE
  5
56E
330
18
100
AcDbEntity
  8
1
 62
     1
100
AcDbLine
 10
35.40000000000001
 20
0.8411008813910579
 30
0.0
 11
35.42349465533199
 21
0.8536466893046668
 31
0.0
  0
LINE
  5
56F
330
18
100
AcDbEntity
  8
1
 62
     1
100
AcDbLine
 10
35.42349465533199
 20
0.8536466893046668
 30
0.0
 11
35.43513417610275
 21
0.8590961564103388
 31
0.0
  0
LINE
  5
570
330
18
100
AcDbEntity
  8
1
 62
     1
100
AcDbLine
 10
35.43513417610275
 20
0.8590961564103388
 30
0.0
 11
35.44669565942224
 21
0.8640023741023783
 31
0.0
  0
LINE
  5
571
330
18
100
AcDbEntity
  8
1
 62
     1
100
AcDbLine
 10
35.44669565942224
 20
0.8640023741023783
 30
0.0
 11
35.45818276002971
 21
0.8683733104704056
 31
0.0
  0
LINE
  5
572
330
18
100
AcDbEntity
  8
1
 62
     1
100
AcDbLine
 10
35.45818276002971
 20
0.8683733104704056
 30
0.0
 11
35.4695935636448
 21
0.8722147283251047
 31
0.0
  0
LINE
  5
573
330
18
100
AcDbEntity
  8
1
 62
     1
100
AcDbLine
 10
35.4695935636448
 20
0.8722147283251047
 30
0.0
 11
35.48092420330194
 21
0.8755315660069406
 31
0.0
  0
LINE
  5
574
330
18
100
AcDbEntity
  8
1
 62
     1
100
AcDbLine
 10
35.48092420330194
 20
0.8755315660069406
 30
0.0
 11
35.4921740805168
 21
0.8783296789808124
 31
0.0
  0
LINE
  5
575
330
18
100
AcDbEntity
  8
1
 62
     1
100
AcDbLine
 10
35.4921740805168
 20
0.8783296789808124
 30
0.0
 11
35.50334643629155
 21
0.8806161894228705
 31
0.0
  0
LINE
  5
576
330
18
100
AcDbEntity
  8
1
 62
     1
100
AcDbLine
 10
35.50334643629155
 20
0.8806161894228705
 30
0.0
 11
35.51443859951997
 21
0.8823967165637117
 31
0.0
  0
LINE
  5
577
330
18
100
AcDbEntity
  8
1
 62
     1
100
AcDbLine
 10
35.51443859951997
 20
0.8823967165637117
 30
0.0
 11
35.52544791533382
 21
0.8836768541632087
 31
0.0
  0
LINE
  5
578
330
18
100
AcDbEntity
  8
1
 62
     1
100
AcDbLine
 10
35.52544791533382
 20
0.8836768541632087
 30
0.0
 11
35.53637740093866
 21
0.8844629270402139
 31
0.0
  0
LINE
  5
579
330
18
100
AcDbEntity
  8
1
 62
     1
100
AcDbLine
 10
35.53637740093866
 20
0.8844629270402139
 30
0.0
 11
35.54722748782513
 21
0.8847611768037154
 31
0.0
  0
LINE
  5
57A
330
18
100
AcDbEntity
  8
1
 62
     1
100
AcDbLine
 10
35.54722748782513
 20
0.8847611768037154
 30
0.0
 11
35.55799604511922
 21
0.8845775849029267
 31
0.0
  0
LINE
  5
57B
330
18
100
AcDbEntity
  8
1
 62
     1
100
AcDbLine
 10
35.55799604511922
 20
0.8845775849029267
 30
0.0
 11
35.56868268221101
 21
0.8839179808798872
 31
0.0
  0
LINE
  5
57C
330
18
100
AcDbEntity
  8
1
 62
     1
100
AcDbLine
 10
35.56868268221101
 20
0.8839179808798872
 30
0.0
 11
35.5792922161945
 21
0.882787891803195
 31
0.0
  0
LINE
  5
57D
330
18
100
AcDbEntity
  8
1
 62
     1
100
AcDbLine
 10
35.5792922161945
 20
0.882787891803195
 30
0.0
 11
35.5898237698851
 21
0.8811935294022419
 31
0.0
  0
LINE
  5
57E
330
18
100
AcDbEntity
  8
1
 62
     1
100
AcDbLine
 10
35.5898237698851
 20
0.8811935294022419
 30
0.0
 11
35.60027582215169
 21
0.8791411700340354
 31
0.0
  0
LINE
  5
57F
330
18
100
AcDbEntity
  8
1
 62
     1
100
AcDbLine
 10
35.60027582215169
 20
0.8791411700340354
 30
0.0
 11
35.61064685186309
 21
0.8766370900555827
 31
0.0
  0
LINE
  5
580
330
18
100
AcDbEntity
  8
1
 62
     1
100
AcDbLine
 10
35.61064685186309
 20
0.8766370900555827
 30
0.0
 11
35.62093554662781
 21
0.8736875073616068
 31
0.0
  0
LINE
  5
581
330
18
100
AcDbEntity
  8
1
 62
     1
100
AcDbLine
 10
35.62093554662781
 20
0.8736875073616068
 30
0.0
 11
35.63114678935156
 21
0.8702969708145611
 31
0.0
  0
LINE
  5
582
330
18
100
AcDbEntity
  8
1
 62
     1
100
AcDbLine
 10
35.63114678935156
 20
0.8702969708145611
 30
0.0
 11
35.64128242422693
 21
0.8664710568620946
 31
0.0
  0
LINE
  5
583
330
18
100
AcDbEntity
  8
1
 62
     1
100
AcDbLine
 10
35.64128242422693
 20
0.8664710568620946
 30
0.0
 11
35.65134139958415
 21
0.8622161811499923
 31
0.0
  0
LINE
  5
584
330
18
100
AcDbEntity
  8
1
 62
     1
100
AcDbLine
 10
35.65134139958415
 20
0.8622161811499923
 30
0.0
 11
35.66132266375351
 21
0.8575387593240398
 31
0.0
  0
LINE
  5
585
330
18
100
AcDbEntity
  8
1
 62
     1
100
AcDbLine
 10
35.66132266375351
 20
0.8575387593240398
 30
0.0
 11
35.67122516506526
 21
0.852445207030022
 31
0.0
  0
LINE
  5
586
330
18
100
AcDbEntity
  8
1
 62
     1
100
AcDbLine
 10
35.67122516506526
 20
0.852445207030022
 30
0.0
 11
35.68105045943415
 21
0.8469405690985229
 31
0.0
  0
LINE
  5
587
330
18
100
AcDbEntity
  8
1
 62
     1
100
AcDbLine
 10
35.68105045943415
 20
0.8469405690985229
 30
0.0
 11
35.70048196656519
 21
0.83471528748347
 31
0.0
  0
LINE
  5
588
330
18
100
AcDbEntity
  8
1
 62
     1
100
AcDbLine
 10
35.70048196656519
 20
0.83471528748347
 30
0.0
 11
35.7196166657248
 21
0.8209112139606018
 31
0.0
  0
LINE
  5
589
330
18
100
AcDbEntity
  8
1
 62
     1
100
AcDbLine
 10
35.7196166657248
 20
0.8209112139606018
 30
0.0
 11
35.73845298923243
 21
0.8055765399899301
 31
0.0
  0
LINE
  5
58A
330
18
100
AcDbEntity
  8
1
 62
     1
100
AcDbLine
 10
35.73845298923242
 20
1.815607308281273
 30
0.0
 11
35.73845298923242
 21
0.8055765399899285
 31
0.0
  0
ARC
  5
58B
330
18
100
AcDbEntity
  8
1
 62
     1
100
AcDbCircle
 10
37.62583180160501
 20
-0.0457886179079021
 30
0.0
 40
2.651653884921056
100
AcDbArc
 50
135.3971126524159
 51
147.0729494481725
  0
LINE
  5
58C
330
18
100
AcDbEntity
  8
1
 62
     1
100
AcDbLine
 10
35.4
 20
0.8411008813910577
 30
0.0
 11
35.4
 21
1.395657673622908
 31
0.0
  0
LINE
  5
58D
330
18
100
AcDbEntity
  8
1
 62
     1
100
AcDbLine
 10
33.91856034792802
 20
1.544876140019947
 30
0.0
 11
34.0
 21
1.39483859855199
 31
0.0
  0
ARC
  5
58E
330
18
100
AcDbEntity
  8
1
 62
     1
100
AcDbCircle
 10
40.62515981799918
 20
-0.7809689870132057
 30
0.0
 40
2.581685580616581
100
AcDbArc
 50
68.48492952991886
 51
74.36114663448492
  0
ARC
  5
58F
330
18
100
AcDbEntity
  8
1
 62
     1
100
AcDbCircle
 10
40.72047868009437
 20
-0.4573798117457195
 30
0.0
 40
2.244343532553618
100
AcDbArc
 50
74.47754051027376
 51
77.94258756855594
  0
LINE
  5
590
330
18
100
AcDbEntity
  8
1
 62
     1
100
AcDbLine
 10
41.32110138619768
 20
1.705103637670546
 30
0.0
 11
41.57198532896464
 21
1.635510310966815
 31
0.0
  0
ARC
  5
591
330
18
100
AcDbEntity
  8
1
 62
     1
100
AcDbCircle
 10
40.77935693522404
 20
-0.0676815987184778
 30
0.0
 40
1.849325278060632
100
AcDbArc
 50
91.26591782968423
 51
96.0036201632156
  0
LINE
  5
592
330
18
100
AcDbEntity
  8
1
 62
     1
100
AcDbLine
 10
41.57198532896464
 20
-0.999735739129421
 30
0.0
 11
41.69999999999999
 21
-0.9451435790424058
 31
0.0
  0
LINE
  5
593
330
18
100
AcDbEntity
  8
1
 62
     1
100
AcDbLine
 10
41.00000000000001
 20
-0.4812655625088424
 30
0.0
 11
41.0
 21
0.5841791081841529
 31
0.0
  0
ARC
  5
594
330
18
100
AcDbEntity
  8
1
 62
     1
100
AcDbCircle
 10
39.91736800410863
 20
-1.407315262022027
 30
0.0
 40
1.42479073438755
100
AcDbArc
 50
26.83598150309298
 51
40.54264942259346
  0
ARC
  5
595
330
18
100
AcDbEntity
  8
1
 62
     1
100
AcDbCircle
 10
42.60252719335392
 20
2.207554918795984
 30
0.0
 40
2.281528289455744
100
AcDbArc
 50
215.2164451089654
 51
225.37029047217
  0
ARC
  5
596
330
18
100
AcDbEntity
  8
1
 62
     1
100
AcDbCircle
 10
40.26612854437748
 20
-2.558303643959086
 30
0.0
 40
2.202704813823708
100
AcDbArc
 50
70.54036359107324
 51
77.61647523591172
  0
ARC
  5
597
330
18
100
AcDbEntity
  8
1
 62
     1
100
AcDbCircle
 10
45.62345546811771
 20
4.646609465350113
 30
0.0
 40
6.43913176711707
100
AcDbArc
 50
208.4436809841893
 51
214.2294057244675
  0
LINE
  5
598
330
18
100
AcDbEntity
  8
1
 62
     1
100
AcDbLine
 10
39.96154701076761
 20
1.57964622246276
 30
0.0
 11
39.9615470107676
 21
0.3719509502568564
 31
0.0
  0
ARC
  5
599
330
18
100
AcDbEntity
  8
1
 62
     1
100
AcDbCircle
 10
38.17469258722146
 20
-1.818984985770198
 30
0.0
 40
2.827210602334759
100
AcDbArc
 50
46.54466846059333
 51
50.8004605266264
  0
LINE
  5
59A
330
18
100
AcDbEntity
  8
1
 62
     1
100
AcDbLine
 10
40.11925853907259
 20
0.2333620574261859
 30
0.0
 11
40.12017588686381
 21
0.2325001290627713
 31
0.0
  0
ARC
  5
59B
330
18
100
AcDbEntity
  8
1
 62
     1
100
AcDbCircle
 10
40.46982265576165
 20
0.574697002498085
 30
0.0
 40
0.481047900433761
100
AcDbArc
 50
76.03209759530351
 51
110.6714628774035
  0
LINE
  5
59C
330
18
100
AcDbEntity
  8
1
 62
     1
100
AcDbLine
 10
40.3
 20
0.053022657400048
 30
0.0
 11
40.3
 21
1.024797478780969
 31
0.0
  0
ARC
  5
59D
330
18
100
AcDbEntity
  8
1
 62
     1
100
AcDbCircle
 10
40.12336149124513
 20
-0.2941444946096108
 30
0.0
 40
0.3895384413166187
100
AcDbArc
 50
48.68623882069173
 51
63.03302610011419
  0
LINE
  5
59E
330
18
100
AcDbEntity
  8
1
 62
     1
100
AcDbLine
 10
35.73845298923242
 20
-1.634217844934508
 30
0.0
 11
35.73845298923242
 21
-2.0
 31
0.0
  0
LINE
  5
59F
330
18
100
AcDbEntity
  8
1
 62
     1
100
AcDbLine
 10
35.06154701076758
 20
-1.10308055953476
 30
0.0
 11
35.06154701076759
 21
-1.931160806441109
 31
0.0
  0
LINE
  5
5A0
330
18
100
AcDbEntity
  8
1
 62
     1
100
AcDbLine
 10
38.90000000000001
 20
1.021294457637415
 30
0.0
 11
38.90000000000001
 21
1.4137825
 31
0.0
  0
LINE
  5
5A1
330
18
100
AcDbEntity
  8
1
 62
     1
100
AcDbLine
 10
38.90000000000001
 20
1.021294457637415
 30
0.0
 11
38.92349465406194
 21
1.040641226894226
 31
0.0
  0
LINE
  5
5A2
330
18
100
AcDbEntity
  8
1
 62
     1
100
AcDbLine
 10
38.92349465406194
 20
1.040641226894226
 30
0.0
 11
38.94669566208021
 21
1.057958757571523
 31
0.0
  0
LINE
  5
5A3
330
18
100
AcDbEntity
  8
1
 62
     1
100
AcDbLine
 10
38.94669566208021
 20
1.057958757571523
 30
0.0
 11
38.96959357256176
 21
1.07327228276788
 31
0.0
  0
LINE
  5
5A4
330
18
100
AcDbEntity
  8
1
 62
     1
100
AcDbLine
 10
38.96959357256176
 20
1.07327228276788
 30
0.0
 11
38.99217409201068
 21
1.086604910242536
 31
0.0
  0
LINE
  5
5A5
330
18
100
AcDbEntity
  8
1
 62
     1
100
AcDbLine
 10
38.99217409201068
 20
1.086604910242536
 30
0.0
 11
39.01443860737654
 21
1.09798885256093
 31
0.0
  0
LINE
  5
5A6
330
18
100
AcDbEntity
  8
1
 62
     1
100
AcDbLine
 10
39.01443860737654
 20
1.09798885256093
 30
0.0
 11
39.03637740100076
 21
1.107450892483893
 31
0.0
  0
LINE
  5
5A7
330
18
100
AcDbEntity
  8
1
 62
     1
100
AcDbLine
 10
39.03637740100076
 20
1.107450892483893
 30
0.0
 11
39.047227485286
 21
1.111472444261593
 31
0.0
  0
LINE
  5
5A8
330
18
100
AcDbEntity
  8
1
 62
     1
100
AcDbLine
 10
39.047227485286
 20
1.111472444261593
 30
0.0
 11
39.05799604306139
 21
1.115025732401598
 31
0.0
  0
LINE
  5
5A9
330
18
100
AcDbEntity
  8
1
 62
     1
100
AcDbLine
 10
39.05799604306139
 20
1.115025732401598
 30
0.0
 11
39.06868267957582
 21
1.118114471979832
 31
0.0
  0
LINE
  5
5AA
330
18
100
AcDbEntity
  8
1
 62
     1
100
AcDbLine
 10
39.06868267957582
 20
1.118114471979832
 30
0.0
 11
39.07929221439778
 21
1.120743968290734
 31
0.0
  0
LINE
  5
5AB
330
18
100
AcDbEntity
  8
1
 62
     1
100
AcDbLine
 10
39.07929221439778
 20
1.120743968290734
 30
0.0
 11
39.08982377316672
 21
1.122918297891916
 31
0.0
  0
LINE
  5
5AC
330
18
100
AcDbEntity
  8
1
 62
     1
100
AcDbLine
 10
39.08982377316672
 20
1.122918297891916
 30
0.0
 11
39.10027583447818
 21
1.124641379222712
 31
0.0
  0
LINE
  5
5AD
330
18
100
AcDbEntity
  8
1
 62
     1
100
AcDbLine
 10
39.10027583447818
 20
1.124641379222712
 30
0.0
 11
39.11064687692775
 21
1.125917130722457
 31
0.0
  0
LINE
  5
5AE
330
18
100
AcDbEntity
  8
1
 62
     1
100
AcDbLine
 10
39.11064687692775
 20
1.125917130722457
 30
0.0
 11
39.12093558401926
 21
1.12674948887325
 31
0.0
  0
LINE
  5
5AF
330
18
100
AcDbEntity
  8
1
 62
     1
100
AcDbLine
 10
39.12093558401926
 20
1.12674948887325
 30
0.0
 11
39.131146827199
 21
1.127143047830054
 31
0.0
  0
LINE
  5
5B0
330
18
100
AcDbEntity
  8
1
 62
     1
100
AcDbLine
 10
39.131146827199
 20
1.127143047830054
 30
0.0
 11
39.1412824643163
 21
1.127102438733036
 31
0.0
  0
LINE
  5
5B1
330
18
100
AcDbEntity
  8
1
 62
     1
100
AcDbLine
 10
39.1412824643163
 20
1.127102438733036
 30
0.0
 11
39.15134144317135
 21
1.126632084907601
 31
0.0
  0
LINE
  5
5B2
330
18
100
AcDbEntity
  8
1
 62
     1
100
AcDbLine
 10
39.15134144317135
 20
1.126632084907601
 30
0.0
 11
39.16132271156428
 21
1.125736409679151
 31
0.0
  0
LINE
  5
5B3
330
18
100
AcDbEntity
  8
1
 62
     1
100
AcDbLine
 10
39.16132271156428
 20
1.125736409679151
 30
0.0
 11
39.17122521729525
 21
1.124419836373092
 31
0.0
  0
LINE
  5
5B4
330
18
100
AcDbEntity
  8
1
 62
     1
100
AcDbLine
 10
39.17122521729525
 20
1.124419836373092
 30
0.0
 11
39.18105049543642
 21
1.122686436230445
 31
0.0
  0
LINE
  5
5B5
330
18
100
AcDbEntity
  8
1
 62
     1
100
AcDbLine
 10
39.18105049543642
 20
1.122686436230445
 30
0.0
 11
39.19080294907114
 21
1.120540074174031
 31
0.0
  0
LINE
  5
5B6
330
18
100
AcDbEntity
  8
1
 62
     1
100
AcDbLine
 10
39.19080294907114
 20
1.120540074174031
 30
0.0
 11
39.20048197069395
 21
1.117985450700375
 31
0.0
  0
LINE
  5
5B7
330
18
100
AcDbEntity
  8
1
 62
     1
100
AcDbLine
 10
39.20048197069395
 20
1.117985450700375
 30
0.0
 11
39.21008679711247
 21
1.115027289711946
 31
0.0
  0
LINE
  5
5B8
330
18
100
AcDbEntity
  8
1
 62
     1
100
AcDbLine
 10
39.21008679711247
 20
1.115027289711946
 30
0.0
 11
39.21961666513434
 21
1.11167031511121
 31
0.0
  0
LINE
  5
5B9
330
18
100
AcDbEntity
  8
1
 62
     1
100
AcDbLine
 10
39.21961666513434
 20
1.11167031511121
 30
0.0
 11
39.22907117686677
 21
1.10791914831898
 31
0.0
  0
LINE
  5
5BA
330
18
100
AcDbEntity
  8
1
 62
     1
100
AcDbLine
 10
39.22907117686677
 20
1.10791914831898
 30
0.0
 11
39.23845298923242
 21
1.103777601722119
 31
0.0
  0
LINE
  5
5BB
330
18
100
AcDbEntity
  8
1
 62
     1
100
AcDbLine
 10
39.23845298923242
 20
1.931378020890601
 30
0.0
 11
39.23845298923241
 21
1.103777601722136
 31
0.0
  0
LINE
  5
5BC
330
18
100
AcDbEntity
  8
1
 62
     1
100
AcDbLine
 10
37.8615470107676
 20
2.0
 30
0.0
 11
37.8615470107676
 21
1.999988202075296
 31
0.0
  0
LINE
  5
5BD
330
18
100
AcDbEntity
  8
1
 62
     1
100
AcDbLine
 10
37.8615470107676
 20
1.999988202075296
 30
0.0
 11
37.8615470107676
 21
1.996514467826449
 31
0.0
  0
LINE
  5
5BE
330
18
100
AcDbEntity
  8
1
 62
     1
100
AcDbLine
 10
37.8615470107676
 20
1.996514467826449
 30
0.0
 11
37.86154701076759
 21
1.947726648789858
 31
0.0
  0
ARC
  5
5BF
330
18
100
AcDbEntity
  8
1
 62
     1
100
AcDbCircle
 10
20.39243988299959
 20
-7.790653753992647
 30
0.0
 40
20.00011200455253
100
AcDbArc
 50
27.07878793924918
 51
29.1380482308791
  0
ARC
  5
5C0
330
18
100
AcDbEntity
  8
1
 62
     1
100
AcDbCircle
 10
89.63169547447886
 20
45.58784471085504
 30
0.0
 40
68.93416786004148
100
AcDbArc
 50
219.5275481373191
 51
219.9679932588062
  0
ARC
  5
5C1
330
18
100
AcDbEntity
  8
1
 62
     1
100
AcDbCircle
 10
21.74559929421617
 20
9.368177417891822
 30
0.0
 40
17.07694577419533
100
AcDbArc
 50
331.8324646154956
 51
334.3350732278217
  0
ARC
  5
5C2
330
18
100
AcDbEntity
  8
1
 62
     1
100
AcDbCircle
 10
9.86980743035194
 20
-14.86220108252311
 30
0.0
 40
32.06795314766424
100
AcDbArc
 50
30.50081493191563
 51
31.67305699396825
  0
LINE
  5
5C3
330
18
100
AcDbEntity
  8
1
 62
     1
100
AcDbLine
 10
37.5
 20
1.413755506476522
 30
0.0
 11
37.5149173180619
 21
1.439620037011504
 31
0.0
  0
LINE
  5
5C4
330
18
100
AcDbEntity
  8
1
 62
     1
100
AcDbLine
 10
37.83845298923242
 20
2.0
 30
0.0
 11
37.83845298923242
 21
1.999989430512607
 31
0.0
  0
LINE
  5
5C5
330
18
100
AcDbEntity
  8
1
 62
     1
100
AcDbLine
 10
37.83845298923242
 20
1.999989430512607
 30
0.0
 11
37.83845298923242
 21
1.996880950073489
 31
0.0
  0
LINE
  5
5C6
330
18
100
AcDbEntity
  8
1
 62
     1
100
AcDbLine
 10
37.83845298923242
 20
1.996880950073489
 30
0.0
 11
37.83845298923242
 21
1.953337494373541
 31
0.0
  0
LINE
  5
5C7
330
18
100
AcDbEntity
  8
1
 62
     1
100
AcDbLine
 10
38.20000000000001
 20
1.313617608884195
 30
0.0
 11
38.2
 21
1.4137825
 31
0.0
  0
LINE
  5
5C8
330
18
100
AcDbEntity
  8
1
 62
     1
100
AcDbLine
 10
38.20000000000001
 20
1.313617608884429
 30
0.0
 11
38.24669732240979
 21
1.376958125582628
 31
0.0
  0
LINE
  5
5C9
330
18
100
AcDbEntity
  8
1
 62
     1
100
AcDbLine
 10
38.24669732240979
 20
1.376958125582628
 30
0.0
 11
38.2921773056431
 21
1.434356496073961
 31
0.0
  0
LINE
  5
5CA
330
18
100
AcDbEntity
  8
1
 62
     1
100
AcDbLine
 10
38.2921773056431
 20
1.434356496073961
 30
0.0
 11
38.33638208697368
 21
1.4856484554058
 31
0.0
  0
LINE
  5
5CB
330
18
100
AcDbEntity
  8
1
 62
     1
100
AcDbLine
 10
38.33638208697368
 20
1.4856484554058
 30
0.0
 11
38.37929623505354
 21
1.530746031003731
 31
0.0
  0
LINE
  5
5CC
330
18
100
AcDbEntity
  8
1
 62
     1
100
AcDbLine
 10
38.37929623505354
 20
1.530746031003731
 30
0.0
 11
38.42093272831897
 21
1.569621118473191
 31
0.0
  0
LINE
  5
5CD
330
18
100
AcDbEntity
  8
1
 62
     1
100
AcDbLine
 10
38.42093272831897
 20
1.569621118473191
 30
0.0
 11
38.44128441922364
 21
1.586732562610788
 31
0.0
  0
LINE
  5
5CE
330
18
100
AcDbEntity
  8
1
 62
     1
100
AcDbLine
 10
38.44128441922364
 20
1.586732562610788
 30
0.0
 11
38.46131903875943
 21
1.602289762206019
 31
0.0
  0
LINE
  5
5CF
330
18
100
AcDbEntity
  8
1
 62
     1
100
AcDbLine
 10
38.46131903875943
 20
1.602289762206019
 30
0.0
 11
38.48105205854692
 21
1.616307588469714
 31
0.0
  0
LINE
  5
5D0
330
18
100
AcDbEntity
  8
1
 62
     1
100
AcDbLine
 10
38.48105205854692
 20
1.616307588469714
 30
0.0
 11
38.50048467723429
 21
1.628793393687429
 31
0.0
  0
LINE
  5
5D1
330
18
100
AcDbEntity
  8
1
 62
     1
100
AcDbLine
 10
38.50048467723429
 20
1.628793393687429
 30
0.0
 11
38.51961447750561
 21
1.6397516907854
 31
0.0
  0
LINE
  5
5D2
330
18
100
AcDbEntity
  8
1
 62
     1
100
AcDbLine
 10
38.51961447750561
 20
1.6397516907854
 30
0.0
 11
38.53845298923243
 21
1.64919833299873
 31
0.0
  0
LINE
  5
5D3
330
18
100
AcDbEntity
  8
1
 62
     1
100
AcDbLine
 10
38.53845298923243
 20
2.0
 30
0.0
 11
38.53845298923243
 21
1.999926013034261
 31
0.0
  0
LINE
  5
5D4
330
18
100
AcDbEntity
  8
1
 62
     1
100
AcDbLine
 10
38.53845298923243
 20
1.999926013034261
 30
0.0
 11
38.53845298923243
 21
1.977471846208622
 31
0.0
  0
LINE
  5
5D5
330
18
100
AcDbEntity
  8
1
 62
     1
100
AcDbLine
 10
38.53845298923243
 20
1.977471846208622
 30
0.0
 11
38.53845298923243
 21
1.649198332998745
 31
0.0
  0
LINE
  5
5D6
330
18
100
AcDbEntity
  8
1
 62
     1
100
AcDbLine
 10
39.60000000000001
 20
1.315485492487515
 30
0.0
 11
39.64295293987712
 21
1.362703472529294
 31
0.0
  0
LINE
  5
5D7
330
18
100
AcDbEntity
  8
1
 62
     1
100
AcDbLine
 10
39.64295293987712
 20
1.362703472529294
 30
0.0
 11
39.68576273734842
 21
1.406462901681728
 31
0.0
  0
LINE
  5
5D8
330
18
100
AcDbEntity
  8
1
 62
     1
100
AcDbLine
 10
39.68576273734842
 20
1.406462901681728
 30
0.0
 11
39.72840406340722
 21
1.446731764809414
 31
0.0
  0
LINE
  5
5D9
330
18
100
AcDbEntity
  8
1
 62
     1
100
AcDbLine
 10
39.72840406340722
 20
1.446731764809414
 30
0.0
 11
39.77085582702682
 21
1.483485139897557
 31
0.0
  0
LINE
  5
5DA
330
18
100
AcDbEntity
  8
1
 62
     1
100
AcDbLine
 10
39.77085582702682
 20
1.483485139897557
 30
0.0
 11
39.81310549983848
 21
1.516708678633852
 31
0.0
  0
LINE
  5
5DB
330
18
100
AcDbEntity
  8
1
 62
     1
100
AcDbLine
 10
39.81310549983848
 20
1.516708678633852
 30
0.0
 11
39.85512787043324
 21
1.546385074477508
 31
0.0
  0
LINE
  5
5DC
330
18
100
AcDbEntity
  8
1
 62
     1
100
AcDbLine
 10
39.85512787043324
 20
1.546385074477508
 30
0.0
 11
39.89691672745667
 21
1.572513558127398
 31
0.0
  0
LINE
  5
5DD
330
18
100
AcDbEntity
  8
1
 62
     1
100
AcDbLine
 10
39.89691672745667
 20
1.572513558127398
 30
0.0
 11
39.9384529892324
 21
1.595093863070991
 31
0.0
  0
LINE
  5
5DE
330
18
100
AcDbEntity
  8
1
 62
     1
100
AcDbLine
 10
39.60000000000001
 20
0.5795536061839112
 30
0.0
 11
39.6
 21
1.315485492487505
 31
0.0
  0
LINE
  5
5DF
330
18
100
AcDbEntity
  8
1
 62
     1
100
AcDbLine
 10
39.60000000000001
 20
0.5795536061839062
 30
0.0
 11
39.60926134283609
 21
0.5811935410511103
 31
0.0
  0
LINE
  5
5E0
330
18
100
AcDbEntity
  8
1
 62
     1
100
AcDbLine
 10
39.60926134283609
 20
0.5811935410511103
 30
0.0
 11
39.61848122333397
 21
0.5824715993735569
 31
0.0
  0
LINE
  5
5E1
330
18
100
AcDbEntity
  8
1
 62
     1
100
AcDbLine
 10
39.61848122333397
 20
0.5824715993735569
 30
0.0
 11
39.62765705862869
 21
0.5833920402893413
 31
0.0
  0
LINE
  5
5E2
330
18
100
AcDbEntity
  8
1
 62
     1
100
AcDbLine
 10
39.62765705862869
 20
0.5833920402893413
 30
0.0
 11
39.63678626585519
 21
0.5839591229365587
 31
0.0
  0
LINE
  5
5E3
330
18
100
AcDbEntity
  8
1
 62
     1
100
AcDbLine
 10
39.63678626585519
 20
0.5839591229365587
 30
0.0
 11
39.64586689319142
 21
0.5841771286374853
 31
0.0
  0
LINE
  5
5E4
330
18
100
AcDbEntity
  8
1
 62
     1
100
AcDbLine
 10
39.64586689319142
 20
0.5841771286374853
 30
0.0
 11
39.65490185085859
 21
0.5840505558219137
 31
0.0
  0
LINE
  5
5E5
330
18
100
AcDbEntity
  8
1
 62
     1
100
AcDbLine
 10
39.65490185085859
 20
0.5840505558219137
 30
0.0
 11
39.66389040105389
 21
0.5835838577809793
 31
0.0
  0
LINE
  5
5E6
330
18
100
AcDbEntity
  8
1
 62
     1
100
AcDbLine
 10
39.66389040105389
 20
0.5835838577809793
 30
0.0
 11
39.67283066870141
 21
0.5827814554277542
 31
0.0
  0
LINE
  5
5E7
330
18
100
AcDbEntity
  8
1
 62
     1
100
AcDbLine
 10
39.67283066870141
 20
0.5827814554277542
 30
0.0
 11
39.6817207787252
 21
0.5816477696753104
 31
0.0
  0
LINE
  5
5E8
330
18
100
AcDbEntity
  8
1
 62
     1
100
AcDbLine
 10
39.6817207787252
 20
0.5816477696753104
 30
0.0
 11
39.69056105638231
 21
0.580186922322289
 31
0.0
  0
LINE
  5
5E9
330
18
100
AcDbEntity
  8
1
 62
     1
100
AcDbLine
 10
39.69056105638231
 20
0.580186922322289
 30
0.0
 11
39.69935377895881
 21
0.5784028346295266
 31
0.0
  0
LINE
  5
5EA
330
18
100
AcDbEntity
  8
1
 62
     1
100
AcDbLine
 10
39.69935377895881
 20
0.5784028346295266
 30
0.0
 11
39.70809763573418
 21
0.5762999644426177
 31
0.0
  0
LINE
  5
5EB
330
18
100
AcDbEntity
  8
1
 62
     1
100
AcDbLine
 10
39.70809763573418
 20
0.5762999644426177
 30
0.0
 11
39.72543341896682
 21
0.5711556879423857
 31
0.0
  0
LINE
  5
5EC
330
18
100
AcDbEntity
  8
1
 62
     1
100
AcDbLine
 10
39.72543341896682
 20
0.5711556879423857
 30
0.0
 11
39.74257093102061
 21
0.5647857385497412
 31
0.0
  0
LINE
  5
5ED
330
18
100
AcDbEntity
  8
1
 62
     1
100
AcDbLine
 10
39.74257093102061
 20
0.5647857385497412
 30
0.0
 11
39.75950942079506
 21
0.5572232423898422
 31
0.0
  0
LINE
  5
5EE
330
18
100
AcDbEntity
  8
1
 62
     1
100
AcDbLine
 10
39.75950942079506
 20
0.5572232423898422
 30
0.0
 11
39.77624881310236
 21
0.5484994904302811
 31
0.0
  0
LINE
  5
5EF
330
18
100
AcDbEntity
  8
1
 62
     1
100
AcDbLine
 10
39.77624881310236
 20
0.5484994904302811
 30
0.0
 11
39.79279650721109
 21
0.5386421759319298
 31
0.0
  0
LINE
  5
5F0
330
18
100
AcDbEntity
  8
1
 62
     1
100
AcDbLine
 10
39.79279650721109
 20
0.5386421759319298
 30
0.0
 11
39.80914685526872
 21
0.5276860208942782
 31
0.0
  0
LINE
  5
5F1
330
18
100
AcDbEntity
  8
1
 62
     1
100
AcDbLine
 10
39.80914685526872
 20
0.5276860208942782
 30
0.0
 11
39.82529589636365
 21
0.5156644599518503
 31
0.0
  0
LINE
  5
5F2
330
18
100
AcDbEntity
  8
1
 62
     1
100
AcDbLine
 10
39.82529589636365
 20
0.5156644599518503
 30
0.0
 11
39.84125572964047
 21
0.5025991834146486
 31
0.0
  0
LINE
  5
5F3
330
18
100
AcDbEntity
  8
1
 62
     1
100
AcDbLine
 10
39.84125572964047
 20
0.5025991834146486
 30
0.0
 11
39.85702630024893
 21
0.4885208256923025
 31
0.0
  0
LINE
  5
5F4
330
18
100
AcDbEntity
  8
1
 62
     1
100
AcDbLine
 10
39.85702630024893
 20
0.4885208256923025
 30
0.0
 11
39.87260352756127
 21
0.4734629743686078
 31
0.0
  0
LINE
  5
5F5
330
18
100
AcDbEntity
  8
1
 62
     1
100
AcDbLine
 10
39.93845298923242
 20
1.595093863070984
 30
0.0
 11
39.93845298923241
 21
0.3968719118142277
 31
0.0
  0
ARC
  5
5F6
330
18
100
AcDbEntity
  8
1
 62
     1
100
AcDbCircle
 10
56.2911066527692
 20
10.97947582501882
 30
0.0
 40
19.28716033093588
100
AcDbArc
 50
208.0001858009412
 51
210.0704289006066
  0
LINE
  5
5F7
330
18
100
AcDbEntity
  8
1
 62
     1
100
AcDbLine
 10
39.26154701076759
 20
1.924627509417858
 30
0.0
 11
39.26154701076759
 21
1.082512218739122
 31
0.0
  0
ARC
  5
5F8
330
18
100
AcDbEntity
  8
1
 62
     1
100
AcDbCircle
 10
33.05889308937661
 20
-3.455100636467519
 30
0.0
 40
7.685261614864222
100
AcDbArc
 50
31.66691683260188
 51
36.18770564763178
  0
ARC
  5
5F9
330
18
100
AcDbEntity
  8
1
 62
     1
100
AcDbCircle
 10
26.9997788801055
 20
-5.146284686153178
 30
0.0
 40
13.40358439727775
100
AcDbArc
 50
27.39654800027802
 51
30.39165012461077
  0
ARC
  5
5FA
330
18
100
AcDbEntity
  8
1
 62
     1
100
AcDbCircle
 10
29.18046288858819
 20
4.724610482242376
 30
0.0
 40
7.862247031471222
100
AcDbArc
 50
334.303498237588
 51
337.3878591159221
  0
ARC
  5
5FB
330
18
100
AcDbEntity
  8
1
 62
     1
100
AcDbCircle
 10
34.90311213704013
 20
-0.4051399741293272
 30
0.0
 40
1.257672376683671
100
AcDbArc
 50
224.1048859259902
 51
233.9395749554511
  0
ARC
  5
5FC
330
18
100
AcDbEntity
  8
1
 62
     1
100
AcDbCircle
 10
28.81327207141986
 20
-4.903928184398996
 30
0.0
 40
7.196911342024235
100
AcDbArc
 50
38.52669701978743
 51
41.98410849603945
  0
ARC
  5
5FD
330
18
100
AcDbEntity
  8
1
 62
     1
100
AcDbCircle
 10
5.328242650800306
 20
-26.79525849796103
 30
0.0
 40
38.56394508480054
100
AcDbArc
 50
40.97571235910409
 51
41.60742387175851
  0
ARC
  5
5FE
330
18
100
AcDbEntity
  8
1
 62
     1
100
AcDbCircle
 10
31.55254544235503
 20
-2.339762224531886
 30
0.0
 40
3.442569891340148
100
AcDbArc
 50
46.5847270010363
 51
49.29645619799636
  0
LINE
  5
5FF
330
18
100
AcDbEntity
  8
1
 62
     1
100
AcDbLine
 10
33.91856034792802
 20
-0.9246352064629113
 30
0.0
 11
33.79759383400001
 21
-0.8034955828603324
 31
0.0
  0
LINE
  5
600
330
18
100
AcDbEntity
  8
1
 62
     1
100
AcDbLine
 10
33.91856034792802
 20
0.1608927988051105
 30
0.0
 11
33.91856034792802
 21
-0.924635206462912
 31
0.0
  0
ARC
  5
601
330
18
100
AcDbEntity
  8
1
 62
     1
100
AcDbCircle
 10
15.67648644343998
 20
-15.35128055252303
 30
0.0
 40
30.3582643398724
100
AcDbArc
 50
33.4715043409396
 51
34.35663624359753
  0
ARC
  5
602
330
18
100
AcDbEntity
  8
1
 62
     1
100
AcDbCircle
 10
-37.59013186530017
 20
44.62619397145138
 30
0.0
 40
89.69737683798495
100
AcDbArc
 50
331.183754750891
 51
331.4354406201305
  0
LINE
  5
603
330
18
100
AcDbEntity
  8
1
 62
     1
100
AcDbLine
 10
41.57198532896464
 20
1.635510310966815
 30
0.0
 11
41.57198532896464
 21
1.635506901156682
 31
0.0
  0
LINE
  5
604
330
18
100
AcDbEntity
  8
1
 62
     1
100
AcDbLine
 10
41.57198532896464
 20
1.635506901156682
 30
0.0
 11
41.57198532896465
 21
1.634511707149025
 31
0.0
  0
LINE
  5
605
330
18
100
AcDbEntity
  8
1
 62
     1
100
AcDbLine
 10
41.57198532896465
 20
1.634511707149025
 30
0.0
 11
41.57198532896464
 21
1.62083478338933
 31
0.0
  0
LINE
  5
606
330
18
100
AcDbEntity
  8
1
 62
     1
100
AcDbLine
 10
41.57198532896463
 20
1.620834783389372
 30
0.0
 11
41.7
 21
1.383128448508369
 31
0.0
  0
ARC
  5
607
330
18
100
AcDbEntity
  8
1
 62
     1
100
AcDbCircle
 10
38.91540891790394
 20
2.842106665901366
 30
0.0
 40
5.065605742419765
100
AcDbArc
 50
296.6733099578909
 51
301.6299438051601
  0
LINE
  5
608
330
18
100
AcDbEntity
  8
1
 62
     1
100
AcDbLine
 10
40.73850046488489
 20
-1.866105705178498
 30
0.0
 11
40.68918086070716
 21
-1.880393658610601
 31
0.0
  0
LINE
  5
609
330
18
100
AcDbEntity
  8
1
 62
     1
100
AcDbLine
 10
40.58593354205894
 20
-1.906305641784636
 30
0.0
 11
40.58593354205894
 21
-1.90903369152318
 31
0.0
  0
LINE
  5
60A
330
18
100
AcDbEntity
  8
1
 62
     1
100
AcDbLine
 10
41.7
 20
1.383128448493798
 30
0.0
 11
41.7
 21
1.413782498073539
 31
0.0
  0
LINE
  5
60B
330
18
100
AcDbEntity
  8
1
 62
     1
100
AcDbLine
 10
41.7
 20
-0.9451435790424058
 30
0.0
 11
41.70000000000001
 21
0.0580940999715487
 31
0.0
  0
ARC
  5
60C
330
18
100
AcDbEntity
  8
1
 62
     1
100
AcDbCircle
 10
60.81605772819704
 20
23.4608746575428
 30
0.0
 40
30.27500744167527
100
AcDbArc
 50
226.6659633074649
 51
227.33957668305
  0
ARC
  5
60D
330
18
100
AcDbEntity
  8
1
 62
     1
100
AcDbCircle
 10
33.86986808277666
 20
4.74718165896419
 30
0.0
 40
7.345210145380383
100
AcDbArc
 50
331.0961805939259
 51
336.1033523184755
  0
LINE
  5
60E
330
18
100
AcDbEntity
  8
1
 62
     1
100
AcDbLine
 10
39.93845298923241
 20
-1.842418538956701
 30
0.0
 11
39.93845298923242
 21
-2.0
 31
0.0
  0
LINE
  5
60F
330
18
100
AcDbEntity
  8
1
 62
     1
100
AcDbLine
 10
39.23845298923241
 20
-1.415504756407495
 30
0.0
 11
39.23845298923242
 21
-1.996276648515706
 31
0.0
  0
LINE
  5
610
330
18
100
AcDbEntity
  8
1
 62
     1
100
AcDbLine
 10
38.56154701076758
 20
-0.804811236888966
 30
0.0
 11
38.56154701076759
 21
-1.81525650958331
 31
0.0
  0
LINE
  5
611
330
18
100
AcDbEntity
  8
1
 62
     1
100
AcDbLine
 10
38.53845298923243
 20
-0.7814992890867083
 30
0.0
 11
38.53845298923243
 21
-1.804450504091982
 31
0.0
  0
LINE
  5
612
330
18
100
AcDbEntity
  8
1
 62
     1
100
AcDbLine
 10
37.13845298923241
 20
0.7200329960161493
 30
0.0
 11
37.13845298923241
 21
-0.6955002988445509
 31
0.0
  0
LINE
  5
613
330
18
100
AcDbEntity
  8
1
 62
     1
100
AcDbLine
 10
36.43845298923242
 20
1.367882319689068
 30
0.0
 11
36.43845298923241
 21
0.0593819841059055
 31
0.0
  0
LINE
  5
614
330
18
100
AcDbEntity
  8
1
 62
     1
100
AcDbLine
 10
35.06154701076758
 20
1.996327447270732
 30
0.0
 11
35.06154701076759
 21
1.416095059865933
 31
0.0
  0
ARC
  5
615
330
18
100
AcDbEntity
  8
1
 62
     1
100
AcDbCircle
 10
67.53051697865939
 20
-18.45388927812655
 30
0.0
 40
34.5532884012644
100
AcDbArc
 50
150.3556592529013
 51
151.5101349224169
  0
LINE
  5
616
330
18
100
AcDbEntity
  8
1
 62
     1
100
AcDbLine
 10
36.8
 20
-1.4137825
 30
0.0
 11
36.8
 21
-1.413780234914519
 31
0.0
  0
LINE
  5
617
330
18
100
AcDbEntity
  8
1
 62
     1
100
AcDbLine
 10
36.8
 20
-1.413780234914519
 30
0.0
 11
36.80000000000001
 21
-1.413120209359402
 31
0.0
  0
LINE
  5
618
330
18
100
AcDbEntity
  8
1
 62
     1
100
AcDbLine
 10
36.80000000000001
 20
-1.413120209359402
 30
0.0
 11
36.80000000000001
 21
-1.404088990765229
 31
0.0
  0
LINE
  5
619
330
18
100
AcDbEntity
  8
1
 62
     1
100
AcDbLine
 10
36.93607580645777
 20
-1.649472600575184
 30
0.0
 11
36.8
 21
-1.4137825
 31
0.0
  0
ARC
  5
61A
330
18
100
AcDbEntity
  8
1
 62
     1
100
AcDbCircle
 10
24.60783716439049
 20
5.72521831408935
 30
0.0
 40
14.1233554053832
100
AcDbArc
 50
327.066390137912
 51
329.6832486491488
  0
LINE
  5
61B
330
18
100
AcDbEntity
  8
1
 62
     1
100
AcDbLine
 10
36.4615470107676
 20
-1.953157782412124
 30
0.0
 11
36.4615470107676
 21
-2.0
 31
0.0
  0
LINE
  5
61C
330
18
100
AcDbEntity
  8
1
 62
     1
100
AcDbLine
 10
36.8
 20
-1.4137825
 30
0.0
 11
36.4615470107676
 21
-1.99999999999999
 31
0.0
  0
ARC
  5
61D
330
18
100
AcDbEntity
  8
1
 62
     1
100
AcDbCircle
 10
45.21487808731597
 20
-5.607778688652063
 30
0.0
 40
8.32617521230004
100
AcDbArc
 50
147.4099501566174
 51
152.0248632055024
  0
LINE
  5
61E
330
18
100
AcDbEntity
  8
1
 62
     1
100
AcDbLine
 10
37.50000000000001
 20
-1.363427375682484
 30
0.0
 11
37.58576272894449
 21
-1.471276585197405
 31
0.0
  0
LINE
  5
61F
330
18
100
AcDbEntity
  8
1
 62
     1
100
AcDbLine
 10
37.58576272894449
 20
-1.471276585197405
 30
0.0
 11
37.67085581624531
 21
-1.566045022799752
 31
0.0
  0
LINE
  5
620
330
18
100
AcDbEntity
  8
1
 62
     1
100
AcDbLine
 10
37.67085581624531
 20
-1.566045022799752
 30
0.0
 11
37.7131054803387
 21
-1.608428553643254
 31
0.0
  0
LINE
  5
621
330
18
100
AcDbEntity
  8
1
 62
     1
100
AcDbLine
 10
37.7131054803387
 20
-1.608428553643254
 30
0.0
 11
37.75512786007087
 21
-1.647432054834908
 31
0.0
  0
LINE
  5
622
330
18
100
AcDbEntity
  8
1
 62
     1
100
AcDbLine
 10
37.75512786007087
 20
-1.647432054834908
 30
0.0
 11
37.79691670641776
 21
-1.683039805015905
 31
0.0
  0
LINE
  5
623
330
18
100
AcDbEntity
  8
1
 62
     1
100
AcDbLine
 10
37.79691670641776
 20
-1.683039805015905
 30
0.0
 11
37.83845298923244
 21
-1.715233413370472
 31
0.0
  0
LINE
  5
624
330
18
100
AcDbEntity
  8
1
 62
     1
100
AcDbLine
 10
38.2
 20
-1.123293271977021
 30
0.0
 11
38.21207464079466
 21
-1.130273305701959
 31
0.0
  0
ARC
  5
625
330
18
100
AcDbEntity
  8
1
 62
     1
100
AcDbCircle
 10
10.01061636452923
 20
-12.92923764174771
 30
0.0
 40
28.09782680428897
100
AcDbArc
 50
23.70240697825066
 51
25.36356309652239
  0
ARC
  5
626
330
18
100
AcDbEntity
  8
1
 62
     1
100
AcDbCircle
 10
71.93615526632148
 20
18.89008366178188
 30
0.0
 40
41.79431872961788
100
AcDbArc
 50
209.0508805787172
 51
209.6078265266235
  0
LINE
  5
627
330
18
100
AcDbEntity
  8
1
 62
     1
100
AcDbLine
 10
35.06154701076758
 20
-1.103080559534766
 30
0.0
 11
35.10275077929875
 21
-1.087754269350339
 31
0.0
  0
LINE
  5
628
330
18
100
AcDbEntity
  8
1
 62
     1
100
AcDbLine
 10
35.10275077929875
 20
-1.087754269350339
 30
0.0
 11
35.1443003731588
 21
-1.069336526603138
 31
0.0
  0
LINE
  5
629
330
18
100
AcDbEntity
  8
1
 62
     1
100
AcDbLine
 10
35.1443003731588
 20
-1.069336526603138
 30
0.0
 11
35.18617428946226
 21
-1.047811190540242
 31
0.0
  0
LINE
  5
62A
330
18
100
AcDbEntity
  8
1
 62
     1
100
AcDbLine
 10
35.18617428946226
 20
-1.047811190540242
 30
0.0
 11
35.22836917994735
 21
-1.023161420350419
 31
0.0
  0
LINE
  5
62B
330
18
100
AcDbEntity
  8
1
 62
     1
100
AcDbLine
 10
35.22836917994735
 20
-1.023161420350419
 30
0.0
 11
35.27087310875454
 21
-0.995376744490852
 31
0.0
  0
LINE
  5
62C
330
18
100
AcDbEntity
  8
1
 62
     1
100
AcDbLine
 10
35.27087310875454
 20
-0.995376744490852
 30
0.0
 11
35.31366206950042
 21
-0.9644590145436984
 31
0.0
  0
LINE
  5
62D
330
18
100
AcDbEntity
  8
1
 62
     1
100
AcDbLine
 10
35.31366206950042
 20
-0.9644590145436984
 30
0.0
 11
35.35671393700739
 21
-0.9304136039914499
 31
0.0
  0
LINE
  5
62E
330
18
100
AcDbEntity
  8
1
 62
     1
100
AcDbLine
 10
35.35671393700739
 20
-0.9304136039914499
 30
0.0
 11
35.40000000000001
 21
-0.8932526365974676
 31
0.0
  0
ARC
  5
62F
330
18
100
AcDbEntity
  8
1
 62
     1
100
AcDbCircle
 10
-0.3271327566369777
 20
21.22227431559132
 30
0.0
 40
42.28989110771469
100
AcDbArc
 50
326.804838544399
 51
327.6528272167897
  0
LINE
  5
630
330
18
100
AcDbEntity
  8
1
 62
     1
100
AcDbLine
 10
35.4
 20
-1.404673247296452
 30
0.0
 11
35.40000000000001
 21
-0.8932526365974711
 31
0.0
  0
ARC
  5
631
330
18
100
AcDbEntity
  8
1
 62
     1
100
AcDbCircle
 10
27.40801251331415
 20
-4.538629261808486
 30
0.0
 40
8.376539481967459
100
AcDbArc
 50
24.37196156546801
 51
29.47934214400442
  0
LINE
  5
632
330
18
100
AcDbEntity
  8
1
 62
     1
100
AcDbLine
 10
34.7
 20
-1.241763465150585
 30
0.0
 11
34.7
 21
-0.4164912184941922
 31
0.0
  0
ARC
  5
633
330
18
100
AcDbEntity
  8
1
 62
     1
100
AcDbCircle
 10
25.6737836453904
 20
-6.127752079204631
 30
0.0
 40
10.26396479055986
100
AcDbArc
 50
24.17303020456364
 51
28.42716299293158
  0
LINE
  5
634
330
18
100
AcDbEntity
  8
1
 62
     1
100
AcDbLine
 10
35.03845298923242
 20
-1.081809368906114
 30
0.0
 11
35.0384529892324
 21
-1.92440006463263
 31
0.0
  0
ARC
  5
635
330
18
100
AcDbEntity
  8
1
 62
     1
100
AcDbCircle
 10
34.56222634417368
 20
0.0975483000028644
 30
0.0
 40
0.5320717693843484
100
AcDbArc
 50
257.1128590461263
 51
285.0038666796408
  0
LINE
  5
636
330
18
100
AcDbEntity
  8
1
 62
     1
100
AcDbLine
 10
34.44356028674768
 20
-0.4211097933275766
 30
0.0
 11
34.44356028674768
 21
-1.507359312821316
 31
0.0
  0
ARC
  5
637
330
18
100
AcDbEntity
  8
1
 62
     1
100
AcDbCircle
 10
95.65174629263862
 20
-60.4238549224816
 30
0.0
 40
84.95647084175837
100
AcDbArc
 50
135.8439455709409
 51
136.0929332737658
  0
ARC
  5
638
330
18
100
AcDbEntity
  8
1
 62
     1
100
AcDbCircle
 10
33.42756870112031
 20
0.619925148970554
 30
0.0
 40
3.254985850759637
100
AcDbArc
 50
315.8131788444007
 51
325.1730313679617
  0
LINE
  5
639
330
18
100
AcDbEntity
  8
1
 62
     1
100
AcDbLine
 10
35.7615470107676
 20
-1.648725283531387
 30
0.0
 11
35.76154701076759
 21
-2.0
 31
0.0
  0
LINE
  5
63A
330
18
100
AcDbEntity
  8
1
 62
     1
100
AcDbLine
 10
36.10000000000001
 20
-1.4137825
 30
0.0
 11
35.76154701076759
 21
-2.000000000000003
 31
0.0
  0
LINE
  5
63B
330
18
100
AcDbEntity
  8
1
 62
     1
100
AcDbLine
 10
36.10000000000001
 20
-1.4137825
 30
0.0
 11
36.10000000000002
 21
-1.413745295477061
 31
0.0
  0
LINE
  5
63C
330
18
100
AcDbEntity
  8
1
 62
     1
100
AcDbLine
 10
36.10000000000002
 20
-1.413745295477061
 30
0.0
 11
36.10000000000001
 21
-1.402538907693558
 31
0.0
  0
LINE
  5
63D
330
18
100
AcDbEntity
  8
1
 62
     1
100
AcDbLine
 10
36.10000000000001
 20
-1.402538907693558
 30
0.0
 11
36.10000000000001
 21
-1.239329114845418
 31
0.0
  0
ARC
  5
63E
330
18
100
AcDbEntity
  8
1
 62
     1
100
AcDbCircle
 10
69.91198318947949
 20
14.47220282151543
 30
0.0
 40
37.28404116863364
100
AcDbArc
 50
204.9230435924091
 51
206.1292929989507
  0
LINE
  5
63F
330
18
100
AcDbEntity
  8
1
 62
     1
100
AcDbLine
 10
36.43845298923241
 20
-1.947536613149146
 30
0.0
 11
36.43845298923242
 21
-2.0
 31
0.0
  0
ARC
  5
640
330
18
100
AcDbEntity
  8
1
 62
     1
100
AcDbCircle
 10
32.28656135825937
 20
-1.368197136360514
 30
0.0
 40
2.270306727464818
100
AcDbArc
 50
34.26776225724229
 51
40.99869715591752
  0
LINE
  5
641
330
18
100
AcDbEntity
  8
1
 62
     1
100
AcDbLine
 10
34.00000000000001
 20
-0.8971808595718427
 30
0.0
 11
34.00000000000001
 21
0.1212039487682067
 31
0.0
  0
ARC
  5
642
330
18
100
AcDbEntity
  8
1
 62
     1
100
AcDbCircle
 10
31.66337130888083
 20
-2.394221083067595
 30
0.0
 40
2.775107960971687
100
AcDbArc
 50
25.76140600688327
 51
32.64703004355236
  0
LINE
  5
643
330
18
100
AcDbEntity
  8
1
 62
     1
100
AcDbLine
 10
34.16287936108692
 20
-0.0898061633843308
 30
0.0
 11
34.16287936108692
 21
-1.187988111624863
 31
0.0
  0
ARC
  5
644
330
18
100
AcDbEntity
  8
1
 62
     1
100
AcDbCircle
 10
34.50775093088406
 20
0.5755636867509841
 30
0.0
 40
1.120680659307334
100
AcDbArc
 50
93.28372709701176
 51
107.9186652082697
  0
LINE
  5
645
330
18
100
AcDbEntity
  8
1
 62
     1
100
AcDbLine
 10
34.16287936108692
 20
1.695897697370585
 30
0.0
 11
34.44356028674768
 21
1.857948905338684
 31
0.0
  0
ARC
  5
646
330
18
100
AcDbEntity
  8
1
 62
     1
100
AcDbCircle
 10
35.09070508922255
 20
-0.9058784609052315
 30
0.0
 40
2.716640820587383
100
AcDbArc
 50
115.5608159434363
 51
118.4240688390653
  0
LINE
  5
647
330
18
100
AcDbEntity
  8
1
 62
     1
100
AcDbLine
 10
33.91856034792802
 20
1.554840049371283
 30
0.0
 11
33.91856034792801
 21
1.554837717995164
 31
0.0
  0
LINE
  5
648
330
18
100
AcDbEntity
  8
1
 62
     1
100
AcDbLine
 10
33.91856034792801
 20
1.554837717995164
 30
0.0
 11
33.91856034792802
 21
1.55415863070709
 31
0.0
  0
LINE
  5
649
330
18
100
AcDbEntity
  8
1
 62
     1
100
AcDbLine
 10
33.91856034792802
 20
1.55415863070709
 30
0.0
 11
33.91856034792802
 21
1.544876140019946
 31
0.0
  0
LINE
  5
64A
330
18
100
AcDbEntity
  8
1
 62
     1
100
AcDbLine
 10
33.797593834
 20
1.485
 30
0.0
 11
33.91856034792802
 21
1.554840049371284
 31
0.0
  0
LINE
  5
64B
330
18
100
AcDbEntity
  8
1
 62
     1
100
AcDbLine
 10
33.91856034792802
 20
-0.92463520646291
 30
0.0
 11
34.00000000000001
 21
-0.8971808595718436
 31
0.0
  0
LINE
  5
64C
330
18
100
AcDbEntity
  8
1
 62
     1
100
AcDbLine
 10
33.797593834
 20
0.2975485618259215
 30
0.0
 11
33.797593834
 21
0.3506174356797766
 31
0.0
  0
LINE
  5
64D
330
18
100
AcDbEntity
  8
1
 62
     1
100
AcDbLine
 10
33.797593834
 20
0.3506174356797766
 30
0.0
 11
33.79759383400011
 21
1.483281372158443
 31
0.0
  0
LINE
  5
64E
330
18
100
AcDbEntity
  8
1
 62
     1
100
AcDbLine
 10
39.2615470107676
 20
-1.997664524688006
 30
0.0
 11
39.41145452771094
 21
-1.740352685278289
 31
0.0
  0
LINE
  5
64F
330
18
100
AcDbEntity
  8
1
 62
     1
100
AcDbLine
 10
39.2615470107676
 20
-1.997664524688005
 30
0.0
 11
39.23845298923242
 21
-1.996276648515707
 31
0.0
  0
LINE
  5
650
330
18
100
AcDbEntity
  8
1
 62
     1
100
AcDbLine
 10
38.5615470107676
 20
-1.815256509583314
 30
0.0
 11
38.53845298923244
 21
-1.804450502204149
 31
0.0
  0
LINE
  5
651
330
18
100
AcDbEntity
  8
1
 62
     1
100
AcDbLine
 10
37.8615470107676
 20
-1.36727236876907
 30
0.0
 11
37.83845298923241
 21
-1.348629060669075
 31
0.0
  0
LINE
  5
652
330
18
100
AcDbEntity
  8
1
 62
     1
100
AcDbLine
 10
37.16154701076759
 20
-0.7192532182981605
 30
0.0
 11
37.13845298923243
 21
-0.6955002964138154
 31
0.0
  0
LINE
  5
653
330
18
100
AcDbEntity
  8
1
 62
     1
100
AcDbLine
 10
36.46154701076759
 20
0.033994593773839
 30
0.0
 11
36.43845298923242
 21
0.0593819841058959
 31
0.0
  0
LINE
  5
654
330
18
100
AcDbEntity
  8
1
 62
     1
100
AcDbLine
 10
35.76154701076758
 20
0.7822686894642166
 30
0.0
 11
35.73845298923246
 21
0.8055765399899067
 31
0.0
  0
LINE
  5
655
330
18
100
AcDbEntity
  8
1
 62
     1
100
AcDbLine
 10
35.06154701076759
 20
1.41609505332554
 30
0.0
 11
35.03845298923241
 21
1.43391317971783
 31
0.0
  0
ARC
  5
656
330
18
100
AcDbEntity
  8
1
 62
     1
100
AcDbCircle
 10
34.27390327194367
 20
0.7862645983389036
 30
0.0
 40
0.7192730426279779
100
AcDbArc
 50
240.3942999701777
 51
247.6158306668709
  0
LINE
  5
657
330
18
100
AcDbEntity
  8
1
 62
     1
100
AcDbLine
 10
35.0615470107676
 20
-1.103080559534767
 30
0.0
 11
35.03845298923241
 21
-1.081809368906117
 31
0.0
  0
LINE
  5
658
330
18
100
AcDbEntity
  8
1
 62
     1
100
AcDbLine
 10
35.76154701076759
 20
-1.648725283531381
 30
0.0
 11
35.73845298923241
 21
-1.634217844934508
 31
0.0
  0
LINE
  5
659
330
18
100
AcDbEntity
  8
1
 62
     1
100
AcDbLine
 10
36.46154701076759
 20
-1.953157782412124
 30
0.0
 11
36.43845298923244
 21
-1.947536612660414
 31
0.0
  0
ARC
  5
65A
330
18
100
AcDbEntity
  8
1
 62
     1
100
AcDbCircle
 10
44.4774002820846
 20
2.692010129391952
 30
0.0
 40
8.70174874250784
100
AcDbArc
 50
208.0811181273401
 51
209.9287045710843
  0
ARC
  5
65B
330
18
100
AcDbEntity
  8
1
 62
     1
100
AcDbCircle
 10
41.93925539492347
 20
1.223962685740435
 30
0.0
 40
5.769593197095378
100
AcDbArc
 50
209.8696920081396
 51
213.6847297455768
  0
LINE
  5
65C
330
18
100
AcDbEntity
  8
1
 62
     1
100
AcDbLine
 10
37.16154701076758
 20
-1.971838813950735
 30
0.0
 11
37.13845298923241
 21
-1.975926261418769
 31
0.0
  0
LINE
  5
65D
330
18
100
AcDbEntity
  8
1
 62
     1
100
AcDbLine
 10
37.8615470107676
 20
-1.70203532324789
 30
0.0
 11
37.83845298923242
 21
-1.715233413370478
 31
0.0
  0
LINE
  5
65E
330
18
100
AcDbEntity
  8
1
 62
     1
100
AcDbLine
 10
33.797593834
 20
-1.156886303320462
 30
0.0
 11
33.79759383400001
 21
-0.8034955828604774
 31
0.0
  0
LINE
  5
65F
330
18
100
AcDbEntity
  8
1
 62
     1
100
AcDbLine
 10
41.7
 20
0.1130557058494563
 30
0.0
 11
41.70000000000001
 21
1.383128448493781
 31
0.0
  0
LINE
  5
660
330
18
100
AcDbEntity
  8
1
 62
     1
100
AcDbLine
 10
35.06154701076759
 20
-1.931160806441114
 30
0.0
 11
35.03845298923241
 21
-1.92440006463263
 31
0.0
  0
LINE
  5
661
330
18
100
AcDbEntity
  8
1
 62
     1
100
AcDbLine
 10
33.91856034792802
 20
-1.419748760639986
 30
0.0
 11
34.00000000000001
 21
-1.280465868464887
 31
0.0
  0
LINE
  5
662
330
18
100
AcDbEntity
  8
1
 62
     1
100
AcDbLine
 10
39.26154701076761
 20
1.924627509417858
 30
0.0
 11
39.23845298923243
 21
1.9313780208906
 31
0.0
  0
LINE
  5
663
330
18
100
AcDbEntity
  8
1
 62
     1
100
AcDbLine
 10
39.96154701076762
 20
1.579646222462753
 30
0.0
 11
39.93845298923242
 21
1.595093863070979
 31
0.0
  0
ARC
  5
664
330
18
100
AcDbEntity
  8
1
 62
     1
100
AcDbCircle
 10
40.65977858351201
 20
-0.129733687585685
 30
0.0
 40
0.7908929071741961
100
AcDbArc
 50
47.98971865500276
 51
64.51945538477044
  0
ARC
  5
665
330
18
100
AcDbEntity
  8
1
 62
     1
100
AcDbCircle
 10
41.92414370426498
 20
0.7179979165317402
 30
0.0
 40
0.6969947119179738
100
AcDbArc
 50
239.6524746408492
 51
251.239370303118
  0
LINE
  5
666
330
18
100
AcDbEntity
  8
1
 62
     1
100
AcDbLine
 10
41.70000000000001
 20
0.1130557058494469
 30
0.0
 11
41.7
 21
0.0580940999715624
 31
0.0
  0
LINE
  5
667
330
18
100
AcDbEntity
  8
1
 62
     1
100
AcDbLine
 10
41.7
 20
-1.092435603105451
 30
0.0
 11
41.7
 21
-0.9451435800693551
 31
0.0
  0
LINE
  5
668
330
18
100
AcDbEntity
  8
1
 62
     1
100
AcDbLine
 10
39.9615470107676
 20
0.3719509502568403
 30
0.0
 11
39.93845298923241
 21
0.3968719118142349
 31
0.0
  0
LINE
  5
669
330
18
100
AcDbEntity
  8
1
 62
     1
100
AcDbLine
 10
39.26154701076759
 20
1.08251221873912
 30
0.0
 11
39.23845298923242
 21
1.103777601722129
 31
0.0
  0
LINE
  5
66A
330
18
100
AcDbEntity
  8
1
 62
     1
100
AcDbLine
 10
38.5615470107676
 20
1.634699675126558
 30
0.0
 11
38.53845298923243
 21
1.649198332998754
 31
0.0
  0
LINE
  5
66B
330
18
100
AcDbEntity
  8
1
 62
     1
100
AcDbLine
 10
37.8615470107676
 20
1.947726648789862
 30
0.0
 11
37.83845298923241
 21
1.953337494373544
 31
0.0
  0
LINE
  5
66C
330
18
100
AcDbEntity
  8
1
 62
     1
100
AcDbLine
 10
37.16154701076759
 20
1.975796806243374
 30
0.0
 11
37.13845298923243
 21
1.971698886358314
 31
0.0
  0
LINE
  5
66D
330
18
100
AcDbEntity
  8
1
 62
     1
100
AcDbLine
 10
36.46154701076759
 20
1.714803290852832
 30
0.0
 11
36.4384529892324
 21
1.701596198153442
 31
0.0
  0
LINE
  5
66E
330
18
100
AcDbEntity
  8
1
 62
     1
100
AcDbLine
 10
35.0615470107676
 20
1.996327447270731
 30
0.0
 11
35.03845298923242
 21
1.997704728045252
 31
0.0
  0
LINE
  5
66F
330
18
100
AcDbEntity
  8
1
 62
     1
100
AcDbLine
 10
35.76154701076759
 20
1.804810857931767
 30
0.0
 11
35.73845298923244
 21
1.815607308281268
 31
0.0
  0
LINE
  5
670
330
18
100
AcDbEntity
  8
1
 62
     1
100
AcDbLine
 10
36.4615470107676
 20
1.349246313651623
 30
0.0
 11
36.4384529892324
 21
1.367882319689069
 31
0.0
  0
LINE
  5
671
330
18
100
AcDbEntity
  8
1
 62
     1
100
AcDbLine
 10
37.1615470107676
 20
0.6962838275863541
 30
0.0
 11
37.13845298923243
 21
0.7200329960161337
 31
0.0
  0
LINE
  5
672
330
18
100
AcDbEntity
  8
1
 62
     1
100
AcDbLine
 10
37.86154701076759
 20
-0.0585464201274429
 30
0.0
 11
37.83845298923243
 21
-0.0331586596309057
 31
0.0
  0
LINE
  5
673
330
18
100
AcDbEntity
  8
1
 62
     1
100
AcDbLine
 10
38.56154701076758
 20
-0.8048112350157939
 30
0.0
 11
38.53845298923242
 21
-0.7814992890866993
 31
0.0
  0
ARC
  5
674
330
18
100
AcDbEntity
  8
1
 62
     1
100
AcDbCircle
 10
25.30261384965186
 20
-7.514475585990636
 30
0.0
 40
15.21174224400399
100
AcDbArc
 50
23.63642130516216
 51
26.6354148378814
  0
LINE
  5
675
330
18
100
AcDbEntity
  8
1
 62
     1
100
AcDbLine
 10
39.2615470107676
 20
-1.433330434343528
 30
0.0
 11
39.23845298923241
 21
-1.415504756407494
 31
0.0
  0
LINE
  5
676
330
18
100
AcDbEntity
  8
1
 62
     1
100
AcDbLine
 10
39.96154701076761
 20
-1.852149971898264
 30
0.0
 11
39.9384529892324
 21
-1.842418538956692
 31
0.0
  0
LINE
  5
677
330
18
100
AcDbEntity
  8
1
 62
     1
100
AcDbLine
 10
41.57198532896464
 20
-1.47104424850949
 30
0.0
 11
41.7
 21
-1.252384503283551
 31
0.0
  0
LINE
  5
678
330
18
100
AcDbEntity
  8
1
 62
     1
100
AcDbLine
 10
41.70000000000001
 20
-1.092435603105447
 30
0.0
 11
41.69999999999999
 21
-1.252384503283558
 31
0.0
  0
LINE
  5
679
330
18
100
AcDbEntity
  8
1
 62
     1
100
AcDbLine
 10
33.797593834
 20
0.2700208026894341
 30
0.0
 11
33.797593834
 21
-0.8034955828604771
 31
0.0
  0
LINE
  5
67A
330
18
100
AcDbEntity
  8
1
 62
     1
100
AcDbLine
 10
33.797593834
 20
0.27002080268937
 30
0.0
 11
33.797593834
 21
0.2975485618259216
 31
0.0
  0
LINE
  5
67B
330
18
100
AcDbEntity
  8
1
 62
     1
100
AcDbLine
 10
33.797593834
 20
1.485
 30
0.0
 11
33.797593834
 21
1.483281372158444
 31
0.0
  0
LINE
  5
67C
330
18
100
AcDbEntity
  8
1
 62
     1
100
AcDbLine
 10
33.797593834
 20
-1.399619164791486
 30
0.0
 11
33.797593834
 21
-1.156886303320462
 31
0.0
  0
LINE
  5
67D
330
18
100
AcDbEntity
  8
1
 62
     1
100
AcDbLine
 10
34.16287936108692
 20
1.695897697370591
 30
0.0
 11
34.00000000000001
 21
1.4137825
 31
0.0
  0
LINE
  5
67E
330
18
100
AcDbEntity
  8
1
 62
     1
100
AcDbLine
 10
34.7
 20
1.4137825
 30
0.0
 11
34.44356028674768
 21
1.857948905338688
 31
0.0
  0
LINE
  5
67F
330
18
100
AcDbEntity
  8
1
 62
     1
100
AcDbLine
 10
34.97364311912693
 20
1.887746064438401
 30
0.0
 11
35.03845298923242
 21
1.997704728045249
 31
0.0
  0
LINE
  5
680
330
18
100
AcDbEntity
  8
1
 62
     1
100
AcDbLine
 10
34.97364311910729
 20
1.887746064449756
 30
0.0
 11
34.7
 21
1.4137825
 31
0.0
  0
LINE
  5
681
330
18
100
AcDbEntity
  8
1
 62
     1
100
AcDbLine
 10
34.00000000000001
 20
1.4137825
 30
0.0
 11
33.91856034792802
 21
1.554840049371283
 31
0.0
  0
LINE
  5
682
330
18
100
AcDbEntity
  8
1
 62
     1
100
AcDbLine
 10
36.43845298923242
 20
-2.0
 30
0.0
 11
36.4615470107676
 21
-2.0
 31
0.0
  0
LINE
  5
683
330
18
100
AcDbEntity
  8
1
 62
     1
100
AcDbLine
 10
35.73845298923242
 20
-2.0
 30
0.0
 11
35.76154701076759
 21
-2.0
 31
0.0
  0
ARC
  5
684
330
18
100
AcDbEntity
  8
1
 62
     1
100
AcDbCircle
 10
43.01827485238324
 20
-0.9024823321382851
 30
0.0
 40
4.724674518841001
100
AcDbArc
 50
143.1398635691202
 51
150.3847380043094
  0
LINE
  5
685
330
18
100
AcDbEntity
  8
1
 62
     1
100
AcDbLine
 10
38.91073345904481
 20
1.432373387738564
 30
0.0
 11
38.90000000000001
 21
1.4137825
 31
0.0
  0
LINE
  5
686
330
18
100
AcDbEntity
  8
1
 62
     1
100
AcDbLine
 10
38.2
 20
1.4137825
 30
0.0
 11
37.8615470107676
 21
1.999999999999997
 31
0.0
  0
LINE
  5
687
330
18
100
AcDbEntity
  8
1
 62
     1
100
AcDbLine
 10
37.5149173180619
 20
1.439620037011504
 30
0.0
 11
37.68597162109066
 21
1.727541989539545
 31
0.0
  0
LINE
  5
688
330
18
100
AcDbEntity
  8
1
 62
     1
100
AcDbLine
 10
37.68597162109066
 20
1.727541989539545
 30
0.0
 11
37.7644633806048
 21
1.849099199291319
 31
0.0
  0
LINE
  5
689
330
18
100
AcDbEntity
  8
1
 62
     1
100
AcDbLine
 10
37.7644633806048
 20
1.849099199291319
 30
0.0
 11
37.83845298923242
 21
1.953337494373543
 31
0.0
  0
LINE
  5
68A
330
18
100
AcDbEntity
  8
1
 62
     1
100
AcDbLine
 10
37.83845298923242
 20
1.999999999999998
 30
0.0
 11
37.51491731644348
 21
1.439620037945906
 31
0.0
  0
LINE
  5
68B
330
18
100
AcDbEntity
  8
1
 62
     1
100
AcDbLine
 10
38.53845298923243
 20
2.000000000000024
 30
0.0
 11
38.2
 21
1.4137825
 31
0.0
  0
LINE
  5
68C
330
18
100
AcDbEntity
  8
1
 62
     1
100
AcDbLine
 10
38.90000000000001
 20
1.4137825
 30
0.0
 11
38.56154701076759
 21
2.000000000000003
 31
0.0
  0
LINE
  5
68D
330
18
100
AcDbEntity
  8
1
 62
     1
100
AcDbLine
 10
41.7
 20
1.4137825
 30
0.0
 11
41.57198532896464
 21
1.635510310966813
 31
0.0
  0
LINE
  5
68E
330
18
100
AcDbEntity
  8
1
 62
     1
100
AcDbLine
 10
40.68918086070716
 20
-1.880393658610601
 30
0.0
 11
40.68888598325442
 21
-1.880475433525109
 31
0.0
  0
LINE
  5
68F
330
18
100
AcDbEntity
  8
1
 62
     1
100
AcDbLine
 10
40.68888598325442
 20
-1.880475433525109
 30
0.0
 11
40.58593354205894
 21
-1.906305641784641
 31
0.0
  0
LINE
  5
690
330
18
100
AcDbEntity
  8
1
 62
     1
100
AcDbLine
 10
40.58593354205894
 20
-1.90903369152318
 30
0.0
 11
40.68918086070727
 21
-1.880393658611024
 31
0.0
  0
LINE
  5
691
330
18
100
AcDbEntity
  8
1
 62
     1
100
AcDbLine
 10
39.93845298923242
 20
-2.0
 30
0.0
 11
39.96154701076761
 21
-2.0
 31
0.0
  0
ARC
  5
692
330
18
100
AcDbEntity
  8
1
 62
     1
100
AcDbCircle
 10
35.66157798273768
 20
-0.3828243196181049
 30
0.0
 40
0.893423630363895
100
AcDbArc
 50
29.64903610391663
 51
45.4440167392587
  0
LINE
  5
693
330
18
100
AcDbEntity
  8
1
 62
     1
100
AcDbLine
 10
41.24767014116398
 20
0.4040000648588647
 30
0.0
 11
41.18930238377681
 21
0.4581498918827249
 31
0.0
  0
LINE
  5
694
330
18
100
AcDbEntity
  8
1
 62
     1
100
AcDbLine
 10
40.38059151553429
 20
-0.0014874923882831
 30
0.0
 11
40.38158159431539
 21
-0.002335228816535
 31
0.0
  0
LINE
  5
695
330
18
100
AcDbEntity
  8
1
 62
     1
100
AcDbLine
 10
40.38158159431541
 20
-0.002335228816535
 30
0.0
 11
40.40877524957865
 21
-0.0273030808654267
 31
0.0
  0
LINE
  5
696
330
18
100
AcDbEntity
  8
1
 62
     1
100
AcDbLine
 10
40.40877524957865
 20
-0.0273030808654267
 30
0.0
 11
40.4354943278535
 21
-0.0549981060149921
 31
0.0
  0
LINE
  5
697
330
18
100
AcDbEntity
  8
1
 62
     1
100
AcDbLine
 10
40.4354943278535
 20
-0.0549981060149921
 30
0.0
 11
40.46173879280729
 21
-0.0852542052703359
 31
0.0
  0
LINE
  5
698
330
18
100
AcDbEntity
  8
1
 62
     1
100
AcDbLine
 10
40.46173879280729
 20
-0.0852542052703359
 30
0.0
 11
40.48750576298064
 21
-0.1179064132170198
 31
0.0
  0
LINE
  5
699
330
18
100
AcDbEntity
  8
1
 62
     1
100
AcDbLine
 10
40.48750576298064
 20
-0.1179064132170198
 30
0.0
 11
40.51280146241265
 21
-0.1528054348940167
 31
0.0
  0
LINE
  5
69A
330
18
100
AcDbEntity
  8
1
 62
     1
100
AcDbLine
 10
40.51280146241265
 20
-0.1528054348940167
 30
0.0
 11
40.53764004074058
 21
-0.1898206507719358
 31
0.0
  0
LINE
  5
69B
330
18
100
AcDbEntity
  8
1
 62
     1
100
AcDbLine
 10
40.53764004074058
 20
-0.1898206507719358
 30
0.0
 11
40.58593354205893
 21
-0.2695973464053577
 31
0.0
  0
LINE
  5
69C
330
18
100
AcDbEntity
  8
1
 62
     1
100
AcDbLine
 10
40.38158275269501
 20
-0.00233387936393
 30
0.0
 11
40.38059151856674
 21
-0.0014874888376342
 31
0.0
  0
ARC
  5
69D
330
18
100
AcDbEntity
  8
1
 62
     1
100
AcDbCircle
 10
37.09900081981768
 20
-2.973870885085388
 30
0.0
 40
4.405490737911544
100
AcDbArc
 50
43.39866850914736
 51
46.70337075102653
  0
LINE
  5
69E
330
18
100
AcDbEntity
  8
1
 62
     1
100
AcDbLine
 10
39.87260352756127
 20
0.4734629743686078
 30
0.0
 11
39.87310109444735
 21
0.4729629774835324
 31
0.0
  0
ARC
  5
69F
330
18
100
AcDbEntity
  8
1
 62
     1
100
AcDbCircle
 10
39.35607894907128
 20
-0.0366821001884466
 30
0.0
 40
0.7259907040792323
100
AcDbArc
 50
36.66619843296949
 51
44.58831103104458
  0
LINE
  5
6A0
330
18
100
AcDbEntity
  8
1
 62
     1
100
AcDbLine
 10
40.1201756807952
 20
0.232499909818243
 30
0.0
 11
40.11925853908728
 21
0.2333620574123742
 31
0.0
  0
LINE
  5
6A1
330
18
100
AcDbEntity
  8
1
 62
     1
100
AcDbLine
 10
39.8731013963865
 20
0.4729632783431771
 30
0.0
 11
39.87260352085319
 21
0.4734629676852353
 31
0.0
  0
ARC
  5
6A2
330
18
100
AcDbEntity
  8
1
 62
     1
100
AcDbCircle
 10
38.0997084684308
 20
1.223085293313436
 30
0.0
 40
1.052754485407282
100
AcDbArc
 50
231.0813828192094
 51
235.2734233242863
  0
LINE
  5
6A3
330
18
100
AcDbEntity
  8
SK1
100
AcDbLine
 10
0.0000000000000009
 20
2.1336
 30
0.0
 11
-14.95
 21
2.1336
 31
0.0
  0
LINE
  5
6A4
330
18
100
AcDbEntity
  8
SK1
100
AcDbLine
 10
-21.08664
 20
-1.6637
 30
0.0
 11
-14.95
 21
-1.6637
 31
0.0
  0
LINE
  5
6A5
330
18
100
AcDbEntity
  8
SK1
100
AcDbLine
 10
-14.95
 20
-1.663699999999449
 30
0.0
 11
-14.95
 21
-2.1336
 31
0.0
  0
LINE
  5
6A6
330
18
100
AcDbEntity
  8
SK1
100
AcDbLine
 10
-21.08664
 20
1.6637
 30
0.0
 11
-14.95
 21
1.6637
 31
0.0
  0
LINE
  5
6A7
330
18
100
AcDbEntity
  8
SK1
100
AcDbLine
 10
-21.08664
 20
1.663699999999449
 30
0.0
 11
-21.08664
 21
1.335796118425263
 31
0.0
  0
ARC
  5
6A8
330
18
100
AcDbEntity
  8
SK1
100
AcDbCircle
 10
-17.35014833678106
 20
-1.030124332532053
 30
0.0
 40
4.422405193730163
100
AcDbArc
 50
147.6582945967918
 51
153.271968098911
  0
LINE
  5
6A9
330
18
100
AcDbEntity
  8
SK1
100
AcDbLine
 10
-21.3
 20
1.6637
 30
0.0
 11
-21.08664
 21
1.6637
 31
0.0
  0
LINE
  5
6AA
330
18
100
AcDbEntity
  8
SK1
100
AcDbLine
 10
-14.95
 20
2.1336
 30
0.0
 11
-14.95
 21
2.133501398882526
 31
0.0
  0
LINE
  5
6AB
330
18
100
AcDbEntity
  8
SK1
100
AcDbLine
 10
-14.95
 20
2.133501398882526
 30
0.0
 11
-14.95
 21
2.103412416736121
 31
0.0
  0
LINE
  5
6AC
330
18
100
AcDbEntity
  8
SK1
100
AcDbLine
 10
-14.95
 20
2.103412416736121
 30
0.0
 11
-14.95
 21
1.663699999999449
 31
0.0
  0
LINE
  5
6AD
330
18
100
AcDbEntity
  8
SK1
100
AcDbLine
 10
-21.3
 20
1.663699999999999
 30
0.0
 11
-21.3
 21
0.9588659799992911
 31
0.0
  0
LINE
  5
6AE
330
18
100
AcDbEntity
  8
SK1
100
AcDbLine
 10
-21.3
 20
-0.9588659799992897
 30
0.0
 11
-21.30000000000001
 21
-1.6637
 31
0.0
  0
ARC
  5
6AF
330
18
100
AcDbEntity
  8
SK1
100
AcDbCircle
 10
-17.3501483367804
 20
1.030124332532422
 30
0.0
 40
4.422405193730908
100
AcDbArc
 50
206.7280319010894
 51
212.3417054032068
  0
LINE
  5
6B0
330
18
100
AcDbEntity
  8
SK1
100
AcDbLine
 10
-21.3
 20
-1.6637
 30
0.0
 11
-21.08664
 21
-1.6637
 31
0.0
  0
LINE
  5
6B1
330
18
100
AcDbEntity
  8
SK1
100
AcDbLine
 10
-21.08664
 20
-1.335796118425949
 30
0.0
 11
-21.08664
 21
-1.663699999999449
 31
0.0
  0
LINE
  5
6B2
330
18
100
AcDbEntity
  8
SK1
100
AcDbLine
 10
-14.95
 20
1.335796118425145
 30
0.0
 11
-14.95
 21
-1.335796118425191
 31
0.0
  0
LINE
  5
6B3
330
18
100
AcDbEntity
  8
SK1
100
AcDbLine
 10
-21.3
 20
0.958865979999291
 30
0.0
 11
-21.3
 21
-0.95886597999929
 31
0.0
  0
LINE
  5
6B4
330
18
100
AcDbEntity
  8
SK1
100
AcDbLine
 10
-21.08664
 20
-1.335796118425263
 30
0.0
 11
-14.95
 21
-1.335796118425263
 31
0.0
  0
LINE
  5
6B5
330
18
100
AcDbEntity
  8
SK1
100
AcDbLine
 10
-21.08664
 20
1.335796118425263
 30
0.0
 11
-14.95
 21
1.335796118425263
 31
0.0
  0
LINE
  5
6B6
330
18
100
AcDbEntity
  8
SK1
100
AcDbLine
 10
-14.95
 20
-2.1336
 30
0.0
 11
0.0000000000000004
 21
-2.1336
 31
0.0
  0
DIMENSION
  5
6B7
330
18
100
AcDbEntity
  8
2
100
AcDbDimension
  2
*D0
 10
56.70000000000002
 20
-1.999999999999948
 30
0.0
 11
54.28475000000005
 21
-10.76624999999996
 31
0.0
 70
    32
  1
M4
 71
     5
 42
4.0
  3
STANDARD
100
AcDbAlignedDimension
 13
41.7
 23
2.0
 33
0.0
 14
41.7
 24
-2.0
 34
0.0
 50
90.0000000000002
100
AcDbRotatedDimension
  0
DIMENSION
  5
6C5
330
18
100
AcDbEntity
  8
2
100
AcDbDimension
  2
*D1
 10
41.7
 20
75.0
 30
0.0
 11
20.85
 21
77.438
 31
0.0
 70
    32
  1
<>
 71
     5
 42
41.7
  3
STANDARD
100
AcDbAlignedDimension
 13
0.0
 23
0.0
 33
0.0
 14
41.7
 24
0.0
 34
0.0
100
AcDbRotatedDimension
  0
DIMENSION
  5
6D2
330
18
100
AcDbEntity
  8
SK2
100
AcDbDimension
  2
*D2
 10
-36.29999999998911
 20
-2.133600000108958
 30
0.0
 11
-38.73799999992416
 21
-14.8618500001214
 31
0.0
 70
    32
  1
%%c<>
 71
     5
 42
4.2672
  3
STANDARD
100
AcDbAlignedDimension
 13
-14.95
 23
2.1336
 33
0.0
 14
-14.95
 24
-2.1336
 34
0.0
 50
90.0000000002924
100
AcDbRotatedDimension
  0
DIMENSION
  5
6E0
330
18
100
AcDbEntity
  8
2
100
AcDbDimension
  2
*D3
 10
41.7
 20
60.0
 30
0.0
 11
48.451
 21
62.39775
 31
0.0
 70
    32
  1
<>
 71
     5
 42
7.902406165999999
  3
STANDARD
100
AcDbAlignedDimension
 13
33.797593834
 23
1.485
 33
0.0
 14
41.7
 24
2.0
 34
0.0
100
AcDbRotatedDimension
  0
DIMENSION
  5
6EE
330
18
100
AcDbEntity
  8
SK2
100
AcDbDimension
  2
*D4
 10
41.7
 20
90.0
 30
0.0
 11
10.2
 21
92.39075
 31
0.0
 70
    32
  1
<>
 71
     5
 42
63.0
  3
STANDARD
100
AcDbAlignedDimension
 13
-21.3
 23
2.0
 33
0.0
 14
41.7
 24
2.0
 34
0.0
100
AcDbRotatedDimension
  0
ENDSEC
  0
SECTION
  2
OBJECTS
  0
DICTIONARY
  5
C
330
0
100
AcDbDictionary
281
     1
  3
ACAD_COLOR
350
387
  3
ACAD_GROUP
350
D
  3
ACAD_LAYOUT
350
301
  3
ACAD_MATERIAL
350
386
  3
ACAD_MLEADERSTYLE
350
6FB
  3
ACAD_MLINESTYLE
350
E
  3
ACAD_PLOTSETTINGS
350
302
  3
ACAD_PLOTSTYLENAME
350
2FF
  3
ACAD_SCALELIST
350
3A0
  3
ACAD_TABLESTYLE
350
388
  3
ACAD_VISUALSTYLE
350
3C5
  3
ACDBHEADERROUNDTRIPXREC
350
6FC
  3
AcDbVariableDictionary
350
357
  0
DICTIONARY
  5
387
102
{ACAD_REACTORS
330
C
102
}
330
C
100
AcDbDictionary
281
     1
  0
DICTIONARY
  5
D
102
{ACAD_REACTORS
330
C
102
}
330
C
100
AcDbDictionary
281
     1
  0
DICTIONARY
  5
301
102
{ACAD_REACTORS
330
C
102
}
330
C
100
AcDbDictionary
281
     1
  3
Layout1
350
33B
  3
Model
350
303
  0
DICTIONARY
  5
386
102
{ACAD_REACTORS
330
C
102
}
330
C
100
AcDbDictionary
281
     1
  3
ByBlock
350
3C3
  3
ByLayer
350
3C2
  3
Global
350
3C4
  0
DICTIONARY
  5
6FB
102
{ACAD_REACTORS
330
C
102
}
330
C
100
AcDbDictionary
281
     1
  0
DICTIONARY
  5
E
102
{ACAD_REACTORS
330
C
102
}
330
C
100
AcDbDictionary
281
     1
  3
STANDARD
350
1B
  0
DICTIONARY
  5
302
102
{ACAD_REACTORS
330
C
102
}
330
C
100
AcDbDictionary
281
     1
  0
ACDBDICTIONARYWDFLT
  5
2FF
102
{ACAD_REACTORS
330
C
102
}
330
C
100
AcDbDictionary
281
     1
  3
Normal
350
300
100
AcDbDictionaryWithDefault
340
300
  0
DICTIONARY
  5
3A0
102
{ACAD_REACTORS
330
C
102
}
330
C
100
AcDbDictionary
281
     1
  3
A0
350
3A1
  3
A1
350
3A2
  3
A2
350
3A3
  3
A3
350
3A4
  3
A4
350
3A5
  3
A5
350
3A6
  3
A6
350
3A7
  3
A7
350
3A8
  3
A8
350
3A9
  3
A9
350
3AA
  3
B0
350
3AB
  3
B1
350
3AC
  3
B2
350
3AD
  3
B3
350
3AE
  3
B4
350
3AF
  3
B5
350
3B0
  3
B6
350
3B1
  3
B7
350
3B2
  3
B8
350
3B3
  3
B9
350
3B4
  3
C0
350
3B5
  3
C1
350
3B6
  3
C2
350
3B7
  3
C3
350
3B8
  3
C4
350
3B9
  3
C5
350
3BA
  3
C6
350
3BB
  3
C7
350
3BC
  3
C8
350
3BD
  3
C9
350
3BE
  3
D0
350
3BF
  3
D1
350
3C0
  3
D2
350
3C1
  0
DICTIONARY
  5
388
102
{ACAD_REACTORS
330
C
102
}
330
C
100
AcDbDictionary
281
     1
  3
Standard
350
389
  0
DICTIONARY
  5
3C5
102
{ACAD_REACTORS
330
C
102
}
330
C
100
AcDbDictionary
281
     1
  3
2dWireframe
350
3CA
  3
3D Hidden
350
3CC
  3
3dWireframe
350
3CB
  3
Basic
350
3CD
  3
Brighten
350
3D1
  3
ColorChange
350
3D5
  3
Conceptual
350
3CF
  3
Dim
350
3D0
  3
Facepattern
350
3D4
  3
Flat
350
3C6
  3
FlatWithEdges
350
3C7
  3
Gouraud
350
3C8
  3
GouraudWithEdges
350
3C9
  3
Linepattern
350
3D3
  3
Realistic
350
3CE
  3
Thicken
350
3D2
  0
DICTIONARY
  5
6FC
102
{ACAD_REACTORS
330
C
102
}
330
C
100
AcDbDictionary
281
     1
  3
COLORDICT
350
6FD
  3
MATERIALDICT
350
6FE
  0
DICTIONARY
  5
357
102
{ACAD_REACTORS
330
C
102
}
330
C
100
AcDbDictionary
281
     1
  3
CANNOSCALE
350
6FF
  3
CTABLESTYLE
350
38D
  3
DIMASSOC
350
359
  3
HIDETEXT
350
358
  3
PROJECTNAME
350
38E
  0
LAYOUT
  5
33B
102
{ACAD_REACTORS
330
301
102
}
330
301
100
AcDbPlotSettings
  1

  2
Lexmark Optra PS2
  4

  6

 40
0.0
 41
0.0
 42
0.0
 43
0.0
 44
0.0
 45
0.0
 46
0.0
 47
0.0
 48
0.0
 49
0.0
140
0.0
141
0.0
142
1.0
143
1.0
 70
   688
 72
     0
 73
     0
 74
     5
  7
monochrome.ctb
 75
    16
147
1.0
148
0.0
149
0.0
100
AcDbLayout
  1
Layout1
 70
     1
 71
     1
 10
0.0
 20
0.0
 11
12.0
 21
9.0
 12
0.0
 22
0.0
 32
0.0
 14
0.0
 24
0.0
 34
0.0
 15
0.0
 25
0.0
 35
0.0
146
0.0
 13
0.0
 23
0.0
 33
0.0
 16
1.0
 26
0.0
 36
0.0
 17
0.0
 27
1.0
 37
0.0
 76
     0
330
338
  0
LAYOUT
  5
303
102
{ACAD_REACTORS
330
301
102
}
330
301
100
AcDbPlotSettings
  1

  2
Lexmark Optra Rx
  4
A4
  6

 40
6.805083274841307
 41
5.535083293914794
 42
6.974411010742187
 43
7.14373779296875
 44
209.9733276367186
 45
296.9259948730469
 46
0.0
 47
0.0
 48
0.0
 49
0.0
140
0.0
141
0.0
142
1.0
143
2.976565420630886
 70
 11952
 72
     1
 73
     1
 74
     0
  7
monochrome.ctb
 75
     0
147
0.335957675604539
148
204.1199660668592
149
172.3933209647495
100
AcDbLayout
  1
Model
 70
     1
 71
     0
 10
0.0
 20
0.0
 11
12.0
 21
9.0
 12
0.0
 22
0.0
 32
0.0
 14
0.0
 24
0.0
 34
0.0
 15
0.0
 25
0.0
 35
0.0
146
0.0
 13
0.0
 23
0.0
 33
0.0
 16
1.0
 26
0.0
 36
0.0
 17
0.0
 27
1.0
 37
0.0
 76
     0
330
18
331
39A
  0
MATERIAL
  5
3C3
102
{ACAD_REACTORS
330
386
102
}
102
{ACAD_XDICTIONARY
360
702
102
}
330
386
100
AcDbMaterial
  1
ByBlock
  0
MATERIAL
  5
3C2
102
{ACAD_REACTORS
330
386
102
}
102
{ACAD_XDICTIONARY
360
700
102
}
330
386
100
AcDbMaterial
  1
ByLayer
  0
MATERIAL
  5
3C4
102
{ACAD_REACTORS
330
386
102
}
102
{ACAD_XDICTIONARY
360
704
102
}
330
386
100
AcDbMaterial
  1
Global
  0
MLINESTYLE
  5
1B
102
{ACAD_REACTORS
330
E
102
}
330
E
100
AcDbMlineStyle
  2
STANDARD
 70
     0
  3

 62
     0
 51
90.0
 52
90.0
 71
     2
 49
0.5
 62
   256
  6
BYLAYER
 49
-0.5
 62
   256
  6
BYLAYER
  0
ACDBPLACEHOLDER
  5
300
102
{ACAD_REACTORS
330
2FF
102
}
330
2FF
  0
SCALE
  5
3A1
102
{ACAD_REACTORS
330
3A0
102
}
330
3A0
100
AcDbScale
 70
     0
300
1:1
140
1.0
141
1.0
290
     1
  0
SCALE
  5
3A2
102
{ACAD_REACTORS
330
3A0
102
}
330
3A0
100
AcDbScale
 70
     0
300
1:2
140
1.0
141
2.0
290
     0
  0
SCALE
  5
3A3
102
{ACAD_REACTORS
330
3A0
102
}
330
3A0
100
AcDbScale
 70
     0
300
1:4
140
1.0
141
4.0
290
     0
  0
SCALE
  5
3A4
102
{ACAD_REACTORS
330
3A0
102
}
330
3A0
100
AcDbScale
 70
     0
300
1:5
140
1.0
141
5.0
290
     0
  0
SCALE
  5
3A5
102
{ACAD_REACTORS
330
3A0
102
}
330
3A0
100
AcDbScale
 70
     0
300
1:8
140
1.0
141
8.0
290
     0
  0
SCALE
  5
3A6
102
{ACAD_REACTORS
330
3A0
102
}
330
3A0
100
AcDbScale
 70
     0
300
1:10
140
1.0
141
10.0
290
     0
  0
SCALE
  5
3A7
102
{ACAD_REACTORS
330
3A0
102
}
330
3A0
100
AcDbScale
 70
     0
300
1:16
140
1.0
141
16.0
290
     0
  0
SCALE
  5
3A8
102
{ACAD_REACTORS
330
3A0
102
}
330
3A0
100
AcDbScale
 70
     0
300
1:20
140
1.0
141
20.0
290
     0
  0
SCALE
  5
3A9
102
{ACAD_REACTORS
330
3A0
102
}
330
3A0
100
AcDbScale
 70
     0
300
1:30
140
1.0
141
30.0
290
     0
  0
SCALE
  5
3AA
102
{ACAD_REACTORS
330
3A0
102
}
330
3A0
100
AcDbScale
 70
     0
300
1:40
140
1.0
141
40.0
290
     0
  0
SCALE
  5
3AB
102
{ACAD_REACTORS
330
3A0
102
}
330
3A0
100
AcDbScale
 70
     0
300
1:50
140
1.0
141
50.0
290
     0
  0
SCALE
  5
3AC
102
{ACAD_REACTORS
330
3A0
102
}
330
3A0
100
AcDbScale
 70
     0
300
1:100
140
1.0
141
100.0
290
     0
  0
SCALE
  5
3AD
102
{ACAD_REACTORS
330
3A0
102
}
330
3A0
100
AcDbScale
 70
     0
300
2:1
140
2.0
141
1.0
290
     0
  0
SCALE
  5
3AE
102
{ACAD_REACTORS
330
3A0
102
}
330
3A0
100
AcDbScale
 70
     0
300
4:1
140
4.0
141
1.0
290
     0
  0
SCALE
  5
3AF
102
{ACAD_REACTORS
330
3A0
102
}
330
3A0
100
AcDbScale
 70
     0
300
8:1
140
8.0
141
1.0
290
     0
  0
SCALE
  5
3B0
102
{ACAD_REACTORS
330
3A0
102
}
330
3A0
100
AcDbScale
 70
     0
300
10:1
140
10.0
141
1.0
290
     0
  0
SCALE
  5
3B1
102
{ACAD_REACTORS
330
3A0
102
}
330
3A0
100
AcDbScale
 70
     0
300
100:1
140
100.0
141
1.0
290
     0
  0
SCALE
  5
3B2
102
{ACAD_REACTORS
330
3A0
102
}
330
3A0
100
AcDbScale
 70
     0
300
1/128" = 1'-0"
140
0.0078125
141
12.0
290
     0
  0
SCALE
  5
3B3
102
{ACAD_REACTORS
330
3A0
102
}
330
3A0
100
AcDbScale
 70
     0
300
1/64" = 1'-0"
140
0.015625
141
12.0
290
     0
  0
SCALE
  5
3B4
102
{ACAD_REACTORS
330
3A0
102
}
330
3A0
100
AcDbScale
 70
     0
300
1/32" = 1'-0"
140
0.03125
141
12.0
290
     0
  0
SCALE
  5
3B5
102
{ACAD_REACTORS
330
3A0
102
}
330
3A0
100
AcDbScale
 70
     0
300
1/16" = 1'-0"
140
0.0625
141
12.0
290
     0
  0
SCALE
  5
3B6
102
{ACAD_REACTORS
330
3A0
102
}
330
3A0
100
AcDbScale
 70
     0
300
3/32" = 1'-0"
140
0.09375
141
12.0
290
     0
  0
SCALE
  5
3B7
102
{ACAD_REACTORS
330
3A0
102
}
330
3A0
100
AcDbScale
 70
     0
300
1/8" = 1'-0"
140
0.125
141
12.0
290
     0
  0
SCALE
  5
3B8
102
{ACAD_REACTORS
330
3A0
102
}
330
3A0
100
AcDbScale
 70
     0
300
3/16" = 1'-0"
140
0.1875
141
12.0
290
     0
  0
SCALE
  5
3B9
102
{ACAD_REACTORS
330
3A0
102
}
330
3A0
100
AcDbScale
 70
     0
300
1/4" = 1'-0"
140
0.25
141
12.0
290
     0
  0
SCALE
  5
3BA
102
{ACAD_REACTORS
330
3A0
102
}
330
3A0
100
AcDbScale
 70
     0
300
3/8" = 1'-0"
140
0.375
141
12.0
290
     0
  0
SCALE
  5
3BB
102
{ACAD_REACTORS
330
3A0
102
}
330
3A0
100
AcDbScale
 70
     0
300
1/2" = 1'-0"
140
0.5
141
12.0
290
     0
  0
SCALE
  5
3BC
102
{ACAD_REACTORS
330
3A0
102
}
330
3A0
100
AcDbScale
 70
     0
300
3/4" = 1'-0"
140
0.75
141
12.0
290
     0
  0
SCALE
  5
3BD
102
{ACAD_REACTORS
330
3A0
102
}
330
3A0
100
AcDbScale
 70
     0
300
1" = 1'-0"
140
1.0
141
12.0
290
     0
  0
SCALE
  5
3BE
102
{ACAD_REACTORS
330
3A0
102
}
330
3A0
100
AcDbScale
 70
     0
300
1-1/2" = 1'-0"
140
1.5
141
12.0
290
     0
  0
SCALE
  5
3BF
102
{ACAD_REACTORS
330
3A0
102
}
330
3A0
100
AcDbScale
 70
     0
300
3" = 1'-0"
140
3.0
141
12.0
290
     0
  0
SCALE
  5
3C0
102
{ACAD_REACTORS
330
3A0
102
}
330
3A0
100
AcDbScale
 70
     0
300
6" = 1'-0"
140
6.0
141
12.0
290
     0
  0
SCALE
  5
3C1
102
{ACAD_REACTORS
330
3A0
102
}
330
3A0
100
AcDbScale
 70
     0
300
1'-0" = 1'-0"
140
12.0
141
12.0
290
     0
  0
TABLESTYLE
  5
389
102
{ACAD_REACTORS
330
388
102
}
330
388
100
AcDbTableStyle
  3
Standard
 70
     0
 71
     0
 40
1.5
 41
1.5
280
     0
281
     0
  7
STANDARD
140
4.5
170
     2
 62
     0
 63
   257
283
     0
274
    -2
284
     1
 64
     0
275
    -2
285
     1
 65
     0
276
    -2
286
     1
 66
     0
277
    -2
287
     1
 67
     0
278
    -2
288
     1
 68
     0
279
    -2
289
     1
 69
     0
  7
STANDARD
140
6.0
170
     5
 62
     0
 63
   257
283
     0
274
    -2
284
     1
 64
     0
275
    -2
285
     1
 65
     0
276
    -2
286
     1
 66
     0
277
    -2
287
     1
 67
     0
278
    -2
288
     1
 68
     0
279
    -2
289
     1
 69
     0
  7
STANDARD
140
4.5
170
     5
 62
     0
 63
   257
283
     0
274
    -2
284
     1
 64
     0
275
    -2
285
     1
 65
     0
276
    -2
286
     1
 66
     0
277
    -2
287
     1
 67
     0
278
    -2
288
     1
 68
     0
279
    -2
289
     1
 69
     0
  0
VISUALSTYLE
  5
3CA
102
{ACAD_REACTORS
330
3C5
102
}
102
{ACAD_XDICTIONARY
360
70E
102
}
330
3C5
100
AcDbVisualStyle
  2
2dWireframe
 70
     4
 71
     0
 72
     2
 73
     0
 90
        0
 40
-0.6
 41
-30.0
 62
     5
 63
     7
 74
     1
 91
        4
 64
     7
 65
   257
 75
     1
175
     1
 42
1.0
 92
        0
 66
   257
 43
1.0
 76
     1
 77
     6
 78
     2
 67
     7
 79
     5
170
     0
171
     0
290
     0
174
     0
 93
        1
 44
0.0
173
     0
291
     0
 45
0.0
1001
ACAD
1000
AcDbSavedByObjectVersion
1070
     0
  0
VISUALSTYLE
  5
3CC
102
{ACAD_REACTORS
330
3C5
102
}
102
{ACAD_XDICTIONARY
360
712
102
}
330
3C5
100
AcDbVisualStyle
  2
3D Hidden
 70
     6
 71
     1
 72
     2
 73
     2
 90
        0
 40
-0.6
 41
-30.0
 62
     5
 63
     7
 74
     2
 91
        2
 64
     7
 65
   257
 75
     2
175
     1
 42
40.0
 92
        0
 66
   257
 43
1.0
 76
     1
 77
     6
 78
     2
 67
     7
 79
     3
170
     0
171
     0
290
     0
174
     0
 93
        1
 44
0.0
173
     0
291
     0
 45
0.0
1001
ACAD
1000
AcDbSavedByObjectVersion
1070
     0
  0
VISUALSTYLE
  5
3CB
102
{ACAD_REACTORS
330
3C5
102
}
102
{ACAD_XDICTIONARY
360
710
102
}
330
3C5
100
AcDbVisualStyle
  2
3dWireframe
 70
     5
 71
     0
 72
     2
 73
     0
 90
        0
 40
-0.6
 41
-30.0
 62
     5
 63
     7
 74
     1
 91
        4
 64
     7
 65
   257
 75
     1
175
     1
 42
1.0
 92
        0
 66
   257
 43
1.0
 76
     1
 77
     6
 78
     2
 67
     7
 79
     5
170
     0
171
     0
290
     0
174
     0
 93
        1
 44
0.0
173
     0
291
     0
 45
0.0
1001
ACAD
1000
AcDbSavedByObjectVersion
1070
     0
  0
VISUALSTYLE
  5
3CD
102
{ACAD_REACTORS
330
3C5
102
}
102
{ACAD_XDICTIONARY
360
714
102
}
330
3C5
100
AcDbVisualStyle
  2
Basic
 70
     7
 71
     1
 72
     0
 73
     1
 90
        0
 40
-0.6
 41
-30.0
 62
     5
 63
     7
 74
     0
 91
        4
 64
     7
 65
   257
 75
     1
175
     1
 42
1.0
 92
        8
 66
     7
 43
1.0
 76
     1
 77
     6
 78
     2
 67
     7
 79
     5
170
     0
171
     0
290
     0
174
     0
 93
        1
 44
0.0
173
     0
291
     1
 45
0.0
1001
ACAD
1000
AcDbSavedByObjectVersion
1070
     0
  0
VISUALSTYLE
  5
3D1
102
{ACAD_REACTORS
330
3C5
102
}
102
{ACAD_XDICTIONARY
360
71C
102
}
330
3C5
100
AcDbVisualStyle
  2
Brighten
 70
    12
 71
     2
 72
     2
 73
     0
 90
        0
 40
-0.6
 41
-30.0
 62
     5
 63
     7
 74
     1
 91
        4
 64
     7
 65
   257
 75
     1
175
     1
 42
1.0
 92
        8
 66
     7
 43
1.0
 76
     1
 77
     6
 78
     2
 67
     7
 79
     5
170
     0
171
     0
290
     0
174
     0
 93
        1
 44
50.0
173
     0
291
     1
 45
0.0
1001
ACAD
1000
AcDbSavedByObjectVersion
1070
     0
  0
VISUALSTYLE
  5
3D5
102
{ACAD_REACTORS
330
3C5
102
}
102
{ACAD_XDICTIONARY
360
724
102
}
330
3C5
100
AcDbVisualStyle
  2
ColorChange
 70
    16
 71
     2
 72
     2
 73
     3
 90
        0
 40
-0.6
 41
-30.0
 62
     5
 63
     8
 74
     1
 91
        4
 64
     7
 65
   257
 75
     1
175
     1
 42
1.0
 92
        8
 66
     8
 43
1.0
 76
     1
 77
     6
 78
     2
 67
     7
 79
     5
170
     0
171
     0
290
     0
174
     0
 93
        1
 44
0.0
173
     0
291
     1
 45
0.0
1001
ACAD
1000
AcDbSavedByObjectVersion
1070
     0
  0
VISUALSTYLE
  5
3CF
102
{ACAD_REACTORS
330
3C5
102
}
102
{ACAD_XDICTIONARY
360
718
102
}
330
3C5
100
AcDbVisualStyle
  2
Conceptual
 70
     9
 71
     3
 72
     2
 73
     0
 90
        0
 40
-0.6
 41
-30.0
 62
     5
 63
     7
 74
     2
 91
        2
 64
     7
 65
   257
 75
     1
175
     1
 42
40.0
 92
        8
 66
     7
 43
1.0
 76
     1
 77
     6
 78
     2
 67
     7
 79
     3
170
     0
171
     0
290
     0
174
     0
 93
        1
 44
0.0
173
     0
291
     0
 45
0.0
1001
ACAD
1000
AcDbSavedByObjectVersion
1070
     0
  0
VISUALSTYLE
  5
3D0
102
{ACAD_REACTORS
330
3C5
102
}
102
{ACAD_XDICTIONARY
360
71A
102
}
330
3C5
100
AcDbVisualStyle
  2
Dim
 70
    11
 71
     2
 72
     2
 73
     0
 90
        0
 40
-0.6
 41
-30.0
 62
     5
 63
     7
 74
     1
 91
        4
 64
     7
 65
   257
 75
     1
175
     1
 42
1.0
 92
        8
 66
     7
 43
1.0
 76
     1
 77
     6
 78
     2
 67
     7
 79
     5
170
     0
171
     0
290
     0
174
     0
 93
        1
 44
-50.0
173
     0
291
     1
 45
0.0
1001
ACAD
1000
AcDbSavedByObjectVersion
1070
     0
  0
VISUALSTYLE
  5
3D4
102
{ACAD_REACTORS
330
3C5
102
}
102
{ACAD_XDICTIONARY
360
722
102
}
330
3C5
100
AcDbVisualStyle
  2
Facepattern
 70
    15
 71
     2
 72
     2
 73
     0
 90
        0
 40
-0.6
 41
-30.0
 62
     5
 63
     7
 74
     1
 91
        4
 64
     7
 65
   257
 75
     1
175
     1
 42
1.0
 92
        8
 66
     7
 43
1.0
 76
     1
 77
     6
 78
     2
 67
     7
 79
     5
170
     0
171
     0
290
     0
174
     0
 93
        1
 44
0.0
173
     0
291
     1
 45
0.0
1001
ACAD
1000
AcDbSavedByObjectVersion
1070
     0
  0
VISUALSTYLE
  5
3C6
102
{ACAD_REACTORS
330
3C5
102
}
102
{ACAD_XDICTIONARY
360
706
102
}
330
3C5
100
AcDbVisualStyle
  2
Flat
 70
     0
 71
     2
 72
     1
 73
     1
 90
        2
 40
-0.6
 41
30.0
 62
     5
 63
     7
 74
     0
 91
        4
 64
     7
 65
   257
 75
     1
175
     1
 42
1.0
 92
        8
 66
     7
 43
1.0
 76
     1
 77
     6
 78
     2
 67
     7
 79
     5
170
     0
171
     0
290
     0
174
     0
 93
       13
 44
0.0
173
     0
291
     1
 45
0.0
1001
ACAD
1000
AcDbSavedByObjectVersion
1070
     0
  0
VISUALSTYLE
  5
3C7
102
{ACAD_REACTORS
330
3C5
102
}
102
{ACAD_XDICTIONARY
360
708
102
}
330
3C5
100
AcDbVisualStyle
  2
FlatWithEdges
 70
     1
 71
     2
 72
     1
 73
     1
 90
        2
 40
-0.6
 41
30.0
 62
     5
 63
     7
 74
     1
 91
        4
 64
     7
 65
   257
 75
     1
175
     1
 42
1.0
 92
        0
 66
   257
 43
1.0
 76
     1
 77
     6
 78
     2
 67
     7
 79
     5
170
     0
171
     0
290
     0
174
     0
 93
       13
 44
0.0
173
     0
291
     1
 45
0.0
1001
ACAD
1000
AcDbSavedByObjectVersion
1070
     0
  0
VISUALSTYLE
  5
3C8
102
{ACAD_REACTORS
330
3C5
102
}
102
{ACAD_XDICTIONARY
360
70A
102
}
330
3C5
100
AcDbVisualStyle
  2
Gouraud
 70
     2
 71
     2
 72
     2
 73
     1
 90
        2
 40
-0.6
 41
30.0
 62
     5
 63
     7
 74
     0
 91
        4
 64
     7
 65
   257
 75
     1
175
     1
 42
1.0
 92
        0
 66
     7
 43
1.0
 76
     1
 77
     6
 78
     2
 67
     7
 79
     5
170
     0
171
     0
290
     0
174
     0
 93
       13
 44
0.0
173
     0
291
     1
 45
0.0
1001
ACAD
1000
AcDbSavedByObjectVersion
1070
     0
  0
VISUALSTYLE
  5
3C9
102
{ACAD_REACTORS
330
3C5
102
}
102
{ACAD_XDICTIONARY
360
70C
102
}
330
3C5
100
AcDbVisualStyle
  2
GouraudWithEdges
 70
     3
 71
     2
 72
     2
 73
     1
 90
        2
 40
-0.6
 41
30.0
 62
     5
 63
     7
 74
     1
 91
        4
 64
     7
 65
   257
 75
     1
175
     1
 42
1.0
 92
        0
 66
   257
 43
1.0
 76
     1
 77
     6
 78
     2
 67
     7
 79
     5
170
     0
171
     0
290
     0
174
     0
 93
       13
 44
0.0
173
     0
291
     1
 45
0.0
1001
ACAD
1000
AcDbSavedByObjectVersion
1070
     0
  0
VISUALSTYLE
  5
3D3
102
{ACAD_REACTORS
330
3C5
102
}
102
{ACAD_XDICTIONARY
360
720
102
}
330
3C5
100
AcDbVisualStyle
  2
Linepattern
 70
    14
 71
     2
 72
     2
 73
     0
 90
        0
 40
-0.6
 41
-30.0
 62
     5
 63
     7
 74
     1
 91
        4
 64
     7
 65
   257
 75
     7
175
     7
 42
1.0
 92
        8
 66
     7
 43
1.0
 76
     1
 77
     6
 78
     2
 67
     7
 79
     5
170
     0
171
     0
290
     0
174
     0
 93
        1
 44
0.0
173
     0
291
     1
 45
0.0
1001
ACAD
1000
AcDbSavedByObjectVersion
1070
     0
  0
VISUALSTYLE
  5
3CE
102
{ACAD_REACTORS
330
3C5
102
}
102
{ACAD_XDICTIONARY
360
716
102
}
330
3C5
100
AcDbVisualStyle
  2
Realistic
 70
     8
 71
     2
 72
     2
 73
     0
 90
        0
 40
-0.6
 41
-30.0
 62
     5
 63
     7
 74
     1
 91
        0
 64
     7
 65
   257
 75
     1
175
     1
 42
1.0
 92
        8
 66
     8
 43
1.0
 76
     1
 77
     6
 78
     2
 67
     7
 79
     5
170
     0
171
     0
290
     0
174
     0
 93
       13
 44
0.0
173
     0
291
     0
 45
0.0
1001
ACAD
1000
AcDbSavedByObjectVersion
1070
     0
  0
VISUALSTYLE
  5
3D2
102
{ACAD_REACTORS
330
3C5
102
}
102
{ACAD_XDICTIONARY
360
71E
102
}
330
3C5
100
AcDbVisualStyle
  2
Thicken
 70
    13
 71
     2
 72
     2
 73
     0
 90
        0
 40
-0.6
 41
-30.0
 62
     5
 63
     7
 74
     1
 91
        4
 64
     7
 65
   257
 75
     1
175
     1
 42
1.0
 92
       12
 66
     7
 43
1.0
 76
     1
 77
     6
 78
     2
 67
     7
 79
     5
170
     0
171
     0
290
     0
174
     0
 93
        1
 44
0.0
173
     0
291
     1
 45
0.0
1001
ACAD
1000
AcDbSavedByObjectVersion
1070
     0
  0
XRECORD
  5
6FD
102
{ACAD_REACTORS
330
6FC
102
}
330
6FC
100
AcDbXrecord
280
     1
340
387
  0
XRECORD
  5
6FE
102
{ACAD_REACTORS
330
6FC
102
}
330
6FC
100
AcDbXrecord
280
     1
340
386
  0
DICTIONARYVAR
  5
6FF
102
{ACAD_REACTORS
330
357
102
}
330
357
100
DictionaryVariables
280
     0
  1
1:1
  0
DICTIONARYVAR
  5
38D
102
{ACAD_REACTORS
330
357
102
}
330
357
100
DictionaryVariables
280
     0
  1
Standard
  0
DICTIONARYVAR
  5
359
102
{ACAD_REACTORS
330
357
102
}
330
357
100
DictionaryVariables
280
     0
  1
2
  0
DICTIONARYVAR
  5
358
102
{ACAD_REACTORS
330
357
102
}
330
357
100
DictionaryVariables
280
     0
  1
1
  0
DICTIONARYVAR
  5
38E
102
{ACAD_REACTORS
330
357
102
}
330
357
100
DictionaryVariables
280
     0
  1

  0
DICTIONARY
  5
702
330
3C3
100
AcDbDictionary
280
     1
281
     1
  3
ACAD_XREC_ROUNDTRIP
360
703
  0
DICTIONARY
  5
700
330
3C2
100
AcDbDictionary
280
     1
281
     1
  3
ACAD_XREC_ROUNDTRIP
360
701
  0
DICTIONARY
  5
704
330
3C4
100
AcDbDictionary
280
     1
281
     1
  3
ACAD_XREC_ROUNDTRIP
360
705
  0
DICTIONARY
  5
70E
330
3CA
100
AcDbDictionary
280
     1
281
     1
  3
ACAD_XREC_ROUNDTRIP
360
70F
  0
DICTIONARY
  5
712
330
3CC
100
AcDbDictionary
280
     1
281
     1
  3
ACAD_XREC_ROUNDTRIP
360
713
  0
DICTIONARY
  5
710
330
3CB
100
AcDbDictionary
280
     1
281
     1
  3
ACAD_XREC_ROUNDTRIP
360
711
  0
DICTIONARY
  5
714
330
3CD
100
AcDbDictionary
280
     1
281
     1
  3
ACAD_XREC_ROUNDTRIP
360
715
  0
DICTIONARY
  5
71C
330
3D1
100
AcDbDictionary
280
     1
281
     1
  3
ACAD_XREC_ROUNDTRIP
360
71D
  0
DICTIONARY
  5
724
330
3D5
100
AcDbDictionary
280
     1
281
     1
  3
ACAD_XREC_ROUNDTRIP
360
725
  0
DICTIONARY
  5
718
330
3CF
100
AcDbDictionary
280
     1
281
     1
  3
ACAD_XREC_ROUNDTRIP
360
719
  0
DICTIONARY
  5
71A
330
3D0
100
AcDbDictionary
280
     1
281
     1
  3
ACAD_XREC_ROUNDTRIP
360
71B
  0
DICTIONARY
  5
722
330
3D4
100
AcDbDictionary
280
     1
281
     1
  3
ACAD_XREC_ROUNDTRIP
360
723
  0
DICTIONARY
  5
706
330
3C6
100
AcDbDictionary
280
     1
281
     1
  3
ACAD_XREC_ROUNDTRIP
360
707
  0
DICTIONARY
  5
708
330
3C7
100
AcDbDictionary
280
     1
281
     1
  3
ACAD_XREC_ROUNDTRIP
360
709
  0
DICTIONARY
  5
70A
330
3C8
100
AcDbDictionary
280
     1
281
     1
  3
ACAD_XREC_ROUNDTRIP
360
70B
  0
DICTIONARY
  5
70C
330
3C9
100
AcDbDictionary
280
     1
281
     1
  3
ACAD_XREC_ROUNDTRIP
360
70D
  0
DICTIONARY
  5
720
330
3D3
100
AcDbDictionary
280
     1
281
     1
  3
ACAD_XREC_ROUNDTRIP
360
721
  0
DICTIONARY
  5
716
330
3CE
100
AcDbDictionary
280
     1
281
     1
  3
ACAD_XREC_ROUNDTRIP
360
717
  0
DICTIONARY
  5
71E
330
3D2
100
AcDbDictionary
280
     1
281
     1
  3
ACAD_XREC_ROUNDTRIP
360
71F
  0
XRECORD
  5
703
102
{ACAD_REACTORS
330
702
102
}
330
702
100
AcDbXrecord
280
     1
102
MATERIAL
148
0.0
149
0.0
149
0.0
 93
        0
 94
      127
282
     0
 72
     1
 77
     1
171
     1
175
     1
179
     1
273
     0
  0
XRECORD
  5
701
102
{ACAD_REACTORS
330
700
102
}
330
700
100
AcDbXrecord
280
     1
102
MATERIAL
148
0.0
149
0.0
149
0.0
 93
        0
 94
      127
282
     0
 72
     1
 77
     1
171
     1
175
     1
179
     1
273
     0
  0
XRECORD
  5
705
102
{ACAD_REACTORS
330
704
102
}
330
704
100
AcDbXrecord
280
     1
102
MATERIAL
148
0.0
149
0.0
149
0.0
 93
        0
 94
      127
282
     0
 72
     1
 77
     1
171
     1
175
     1
179
     1
273
     0
  0
XRECORD
  5
70F
102
{ACAD_REACTORS
330
70E
102
}
330
70E
100
AcDbXrecord
280
     1
102
RTVSPropertyOp0
 70
     1
102
RTVSPropertyOp1
 70
     1
102
RTVSPropertyOp2
 70
     1
102
RTVSPropertyOp3
 70
     1
102
RTVSPropertyOp4
 70
     1
102
RTVSPropertyOp5
 70
     1
102
RTVSPropertyOp6
 70
     1
102
RTVSPropertyOp7
 70
     1
102
RTVSPropertyOp8
 70
     1
102
RTVSPropertyOp9
 70
     1
102
RTVSPropertyOp10
 70
     1
102
RTVSPropertyOp11
 70
     1
102
RTVSPropertyOp12
 70
     1
102
RTVSPropertyOp13
 70
     1
102
RTVSPropertyOp14
 70
     1
102
RTVSPropertyOp15
 70
     1
102
RTVSPropertyOp16
 70
     1
102
RTVSPropertyOp17
 70
     1
102
RTVSPropertyOp18
 70
     1
102
RTVSPropertyOp19
 70
     1
102
RTVSPropertyOp20
 70
     1
102
RTVSPropertyOp21
 70
     1
102
RTVSPropertyOp22
 70
     1
102
RTVSPropertyOp23
 70
     1
102
RTVSPropertyOp24
 70
     1
102
RTVSPropertyOp25
 70
     1
102
RTVSPropertyOp26
 70
     1
102
RTVSPropertyOp27
 70
     1
102
RTVSPropertyOp28
 70
     1
102
RTVSPropertyOp29
 70
     1
102
RTVSPropertyOp30
 70
     1
102
RTVSPropertyOp31
 70
     1
102
RTVSPropertyOp32
 70
     1
  0
XRECORD
  5
713
102
{ACAD_REACTORS
330
712
102
}
330
712
100
AcDbXrecord
280
     1
102
RTVSPropertyOp0
 70
     1
102
RTVSPropertyOp1
 70
     1
102
RTVSPropertyOp2
 70
     1
102
RTVSPropertyOp3
 70
     1
102
RTVSPropertyOp4
 70
     1
102
RTVSPropertyOp5
 70
     1
102
RTVSPropertyOp6
 70
     1
102
RTVSPropertyOp7
 70
     1
102
RTVSPropertyOp8
 70
     1
102
RTVSPropertyOp9
 70
     1
102
RTVSPropertyOp10
 70
     1
102
RTVSPropertyOp11
 70
     1
102
RTVSPropertyOp12
 70
     1
102
RTVSPropertyOp13
 70
     1
102
RTVSPropertyOp14
 70
     1
102
RTVSPropertyOp15
 70
     1
102
RTVSPropertyOp16
 70
     1
102
RTVSPropertyOp17
 70
     1
102
RTVSPropertyOp18
 70
     1
102
RTVSPropertyOp19
 70
     1
102
RTVSPropertyOp20
 70
     1
102
RTVSPropertyOp21
 70
     1
102
RTVSPropertyOp22
 70
     1
102
RTVSPropertyOp23
 70
     1
102
RTVSPropertyOp24
 70
     1
102
RTVSPropertyOp25
 70
     1
102
RTVSPropertyOp26
 70
     1
102
RTVSPropertyOp27
 70
     1
102
RTVSPropertyOp28
 70
     1
102
RTVSPropertyOp29
 70
     1
102
RTVSPropertyOp30
 70
     1
102
RTVSPropertyOp31
 70
     1
102
RTVSPropertyOp32
 70
     1
  0
XRECORD
  5
711
102
{ACAD_REACTORS
330
710
102
}
330
710
100
AcDbXrecord
280
     1
102
RTVSPropertyOp0
 70
     1
102
RTVSPropertyOp1
 70
     1
102
RTVSPropertyOp2
 70
     1
102
RTVSPropertyOp3
 70
     1
102
RTVSPropertyOp4
 70
     1
102
RTVSPropertyOp5
 70
     1
102
RTVSPropertyOp6
 70
     1
102
RTVSPropertyOp7
 70
     1
102
RTVSPropertyOp8
 70
     1
102
RTVSPropertyOp9
 70
     1
102
RTVSPropertyOp10
 70
     1
102
RTVSPropertyOp11
 70
     1
102
RTVSPropertyOp12
 70
     1
102
RTVSPropertyOp13
 70
     1
102
RTVSPropertyOp14
 70
     1
102
RTVSPropertyOp15
 70
     1
102
RTVSPropertyOp16
 70
     1
102
RTVSPropertyOp17
 70
     1
102
RTVSPropertyOp18
 70
     1
102
RTVSPropertyOp19
 70
     1
102
RTVSPropertyOp20
 70
     1
102
RTVSPropertyOp21
 70
     1
102
RTVSPropertyOp22
 70
     1
102
RTVSPropertyOp23
 70
     1
102
RTVSPropertyOp24
 70
     1
102
RTVSPropertyOp25
 70
     1
102
RTVSPropertyOp26
 70
     1
102
RTVSPropertyOp27
 70
     1
102
RTVSPropertyOp28
 70
     1
102
RTVSPropertyOp29
 70
     1
102
RTVSPropertyOp30
 70
     1
102
RTVSPropertyOp31
 70
     1
102
RTVSPropertyOp32
 70
     1
  0
XRECORD
  5
715
102
{ACAD_REACTORS
330
714
102
}
330
714
100
AcDbXrecord
280
     1
102
RTVSPropertyOp0
 70
     1
102
RTVSPropertyOp1
 70
     1
102
RTVSPropertyOp2
 70
     1
102
RTVSPropertyOp3
 70
     1
102
RTVSPropertyOp4
 70
     1
102
RTVSPropertyOp5
 70
     1
102
RTVSPropertyOp6
 70
     1
102
RTVSPropertyOp7
 70
     1
102
RTVSPropertyOp8
 70
     1
102
RTVSPropertyOp9
 70
     1
102
RTVSPropertyOp10
 70
     1
102
RTVSPropertyOp11
 70
     1
102
RTVSPropertyOp12
 70
     1
102
RTVSPropertyOp13
 70
     1
102
RTVSPropertyOp14
 70
     1
102
RTVSPropertyOp15
 70
     1
102
RTVSPropertyOp16
 70
     1
102
RTVSPropertyOp17
 70
     1
102
RTVSPropertyOp18
 70
     1
102
RTVSPropertyOp19
 70
     1
102
RTVSPropertyOp20
 70
     1
102
RTVSPropertyOp21
 70
     1
102
RTVSPropertyOp22
 70
     1
102
RTVSPropertyOp23
 70
     1
102
RTVSPropertyOp24
 70
     1
102
RTVSPropertyOp25
 70
     1
102
RTVSPropertyOp26
 70
     1
102
RTVSPropertyOp27
 70
     1
102
RTVSPropertyOp28
 70
     1
102
RTVSPropertyOp29
 70
     1
102
RTVSPropertyOp30
 70
     1
102
RTVSPropertyOp31
 70
     1
102
RTVSPropertyOp32
 70
     1
  0
XRECORD
  5
71D
102
{ACAD_REACTORS
330
71C
102
}
330
71C
100
AcDbXrecord
280
     1
102
RTVSPropertyOp0
 70
     1
102
RTVSPropertyOp1
 70
     1
102
RTVSPropertyOp2
 70
     1
102
RTVSPropertyOp3
 70
     1
102
RTVSPropertyOp4
 70
     1
102
RTVSPropertyOp5
 70
     1
102
RTVSPropertyOp6
 70
     1
102
RTVSPropertyOp7
 70
     1
102
RTVSPropertyOp8
 70
     1
102
RTVSPropertyOp9
 70
     1
102
RTVSPropertyOp10
 70
     1
102
RTVSPropertyOp11
 70
     1
102
RTVSPropertyOp12
 70
     1
102
RTVSPropertyOp13
 70
     1
102
RTVSPropertyOp14
 70
     1
102
RTVSPropertyOp15
 70
     1
102
RTVSPropertyOp16
 70
     1
102
RTVSPropertyOp17
 70
     1
102
RTVSPropertyOp18
 70
     1
102
RTVSPropertyOp19
 70
     1
102
RTVSPropertyOp20
 70
     1
102
RTVSPropertyOp21
 70
     1
102
RTVSPropertyOp22
 70
     1
102
RTVSPropertyOp23
 70
     1
102
RTVSPropertyOp24
 70
     1
102
RTVSPropertyOp25
 70
     1
102
RTVSPropertyOp26
 70
     1
102
RTVSPropertyOp27
 70
     1
102
RTVSPropertyOp28
 70
     1
102
RTVSPropertyOp29
 70
     1
102
RTVSPropertyOp30
 70
     1
102
RTVSPropertyOp31
 70
     1
102
RTVSPropertyOp32
 70
     1
  0
XRECORD
  5
725
102
{ACAD_REACTORS
330
724
102
}
330
724
100
AcDbXrecord
280
     1
102
RTVSPropertyOp0
 70
     1
102
RTVSPropertyOp1
 70
     1
102
RTVSPropertyOp2
 70
     1
102
RTVSPropertyOp3
 70
     1
102
RTVSPropertyOp4
 70
     1
102
RTVSPropertyOp5
 70
     1
102
RTVSPropertyOp6
 70
     1
102
RTVSPropertyOp7
 70
     1
102
RTVSPropertyOp8
 70
     1
102
RTVSPropertyOp9
 70
     1
102
RTVSPropertyOp10
 70
     1
102
RTVSPropertyOp11
 70
     1
102
RTVSPropertyOp12
 70
     1
102
RTVSPropertyOp13
 70
     1
102
RTVSPropertyOp14
 70
     1
102
RTVSPropertyOp15
 70
     1
102
RTVSPropertyOp16
 70
     1
102
RTVSPropertyOp17
 70
     1
102
RTVSPropertyOp18
 70
     1
102
RTVSPropertyOp19
 70
     1
102
RTVSPropertyOp20
 70
     1
102
RTVSPropertyOp21
 70
     1
102
RTVSPropertyOp22
 70
     1
102
RTVSPropertyOp23
 70
     1
102
RTVSPropertyOp24
 70
     1
102
RTVSPropertyOp25
 70
     1
102
RTVSPropertyOp26
 70
     1
102
RTVSPropertyOp27
 70
     1
102
RTVSPropertyOp28
 70
     1
102
RTVSPropertyOp29
 70
     1
102
RTVSPropertyOp30
 70
     1
102
RTVSPropertyOp31
 70
     1
102
RTVSPropertyOp32
 70
     1
  0
XRECORD
  5
719
102
{ACAD_REACTORS
330
718
102
}
330
718
100
AcDbXrecord
280
     1
102
RTVSPropertyOp0
 70
     1
102
RTVSPropertyOp1
 70
     1
102
RTVSPropertyOp2
 70
     1
102
RTVSPropertyOp3
 70
     1
102
RTVSPropertyOp4
 70
     1
102
RTVSPropertyOp5
 70
     1
102
RTVSPropertyOp6
 70
     1
102
RTVSPropertyOp7
 70
     1
102
RTVSPropertyOp8
 70
     1
102
RTVSPropertyOp9
 70
     1
102
RTVSPropertyOp10
 70
     1
102
RTVSPropertyOp11
 70
     1
102
RTVSPropertyOp12
 70
     1
102
RTVSPropertyOp13
 70
     1
102
RTVSPropertyOp14
 70
     1
102
RTVSPropertyOp15
 70
     1
102
RTVSPropertyOp16
 70
     1
102
RTVSPropertyOp17
 70
     1
102
RTVSPropertyOp18
 70
     1
102
RTVSPropertyOp19
 70
     1
102
RTVSPropertyOp20
 70
     1
102
RTVSPropertyOp21
 70
     1
102
RTVSPropertyOp22
 70
     1
102
RTVSPropertyOp23
 70
     1
102
RTVSPropertyOp24
 70
     1
102
RTVSPropertyOp25
 70
     1
102
RTVSPropertyOp26
 70
     1
102
RTVSPropertyOp27
 70
     1
102
RTVSPropertyOp28
 70
     1
102
RTVSPropertyOp29
 70
     1
102
RTVSPropertyOp30
 70
     1
102
RTVSPropertyOp31
 70
     1
102
RTVSPropertyOp32
 70
     1
  0
XRECORD
  5
71B
102
{ACAD_REACTORS
330
71A
102
}
330
71A
100
AcDbXrecord
280
     1
102
RTVSPropertyOp0
 70
     1
102
RTVSPropertyOp1
 70
     1
102
RTVSPropertyOp2
 70
     1
102
RTVSPropertyOp3
 70
     1
102
RTVSPropertyOp4
 70
     1
102
RTVSPropertyOp5
 70
     1
102
RTVSPropertyOp6
 70
     1
102
RTVSPropertyOp7
 70
     1
102
RTVSPropertyOp8
 70
     1
102
RTVSPropertyOp9
 70
     1
102
RTVSPropertyOp10
 70
     1
102
RTVSPropertyOp11
 70
     1
102
RTVSPropertyOp12
 70
     1
102
RTVSPropertyOp13
 70
     1
102
RTVSPropertyOp14
 70
     1
102
RTVSPropertyOp15
 70
     1
102
RTVSPropertyOp16
 70
     1
102
RTVSPropertyOp17
 70
     1
102
RTVSPropertyOp18
 70
     1
102
RTVSPropertyOp19
 70
     1
102
RTVSPropertyOp20
 70
     1
102
RTVSPropertyOp21
 70
     1
102
RTVSPropertyOp22
 70
     1
102
RTVSPropertyOp23
 70
     1
102
RTVSPropertyOp24
 70
     1
102
RTVSPropertyOp25
 70
     1
102
RTVSPropertyOp26
 70
     1
102
RTVSPropertyOp27
 70
     1
102
RTVSPropertyOp28
 70
     1
102
RTVSPropertyOp29
 70
     1
102
RTVSPropertyOp30
 70
     1
102
RTVSPropertyOp31
 70
     1
102
RTVSPropertyOp32
 70
     1
  0
XRECORD
  5
723
102
{ACAD_REACTORS
330
722
102
}
330
722
100
AcDbXrecord
280
     1
102
RTVSPropertyOp0
 70
     1
102
RTVSPropertyOp1
 70
     1
102
RTVSPropertyOp2
 70
     1
102
RTVSPropertyOp3
 70
     1
102
RTVSPropertyOp4
 70
     1
102
RTVSPropertyOp5
 70
     1
102
RTVSPropertyOp6
 70
     1
102
RTVSPropertyOp7
 70
     1
102
RTVSPropertyOp8
 70
     1
102
RTVSPropertyOp9
 70
     1
102
RTVSPropertyOp10
 70
     1
102
RTVSPropertyOp11
 70
     1
102
RTVSPropertyOp12
 70
     1
102
RTVSPropertyOp13
 70
     1
102
RTVSPropertyOp14
 70
     1
102
RTVSPropertyOp15
 70
     1
102
RTVSPropertyOp16
 70
     1
102
RTVSPropertyOp17
 70
     1
102
RTVSPropertyOp18
 70
     1
102
RTVSPropertyOp19
 70
     1
102
RTVSPropertyOp20
 70
     1
102
RTVSPropertyOp21
 70
     1
102
RTVSPropertyOp22
 70
     1
102
RTVSPropertyOp23
 70
     1
102
RTVSPropertyOp24
 70
     1
102
RTVSPropertyOp25
 70
     1
102
RTVSPropertyOp26
 70
     1
102
RTVSPropertyOp27
 70
     1
102
RTVSPropertyOp28
 70
     1
102
RTVSPropertyOp29
 70
     1
102
RTVSPropertyOp30
 70
     1
102
RTVSPropertyOp31
 70
     1
102
RTVSPropertyOp32
 70
     1
  0
XRECORD
  5
707
102
{ACAD_REACTORS
330
706
102
}
330
706
100
AcDbXrecord
280
     1
102
RTVSPropertyOp0
 70
     1
102
RTVSPropertyOp1
 70
     1
102
RTVSPropertyOp2
 70
     1
102
RTVSPropertyOp3
 70
     1
102
RTVSPropertyOp4
 70
     1
102
RTVSPropertyOp5
 70
     1
102
RTVSPropertyOp6
 70
     1
102
RTVSPropertyOp7
 70
     1
102
RTVSPropertyOp8
 70
     1
102
RTVSPropertyOp9
 70
     1
102
RTVSPropertyOp10
 70
     1
102
RTVSPropertyOp11
 70
     1
102
RTVSPropertyOp12
 70
     1
102
RTVSPropertyOp13
 70
     1
102
RTVSPropertyOp14
 70
     1
102
RTVSPropertyOp15
 70
     1
102
RTVSPropertyOp16
 70
     1
102
RTVSPropertyOp17
 70
     1
102
RTVSPropertyOp18
 70
     1
102
RTVSPropertyOp19
 70
     1
102
RTVSPropertyOp20
 70
     1
102
RTVSPropertyOp21
 70
     1
102
RTVSPropertyOp22
 70
     1
102
RTVSPropertyOp23
 70
     1
102
RTVSPropertyOp24
 70
     1
102
RTVSPropertyOp25
 70
     1
102
RTVSPropertyOp26
 70
     1
102
RTVSPropertyOp27
 70
     1
102
RTVSPropertyOp28
 70
     1
102
RTVSPropertyOp29
 70
     1
102
RTVSPropertyOp30
 70
     1
102
RTVSPropertyOp31
 70
     1
102
RTVSPropertyOp32
 70
     1
  0
XRECORD
  5
709
102
{ACAD_REACTORS
330
708
102
}
330
708
100
AcDbXrecord
280
     1
102
RTVSPropertyOp0
 70
     1
102
RTVSPropertyOp1
 70
     1
102
RTVSPropertyOp2
 70
     1
102
RTVSPropertyOp3
 70
     1
102
RTVSPropertyOp4
 70
     1
102
RTVSPropertyOp5
 70
     1
102
RTVSPropertyOp6
 70
     1
102
RTVSPropertyOp7
 70
     1
102
RTVSPropertyOp8
 70
     1
102
RTVSPropertyOp9
 70
     1
102
RTVSPropertyOp10
 70
     1
102
RTVSPropertyOp11
 70
     1
102
RTVSPropertyOp12
 70
     1
102
RTVSPropertyOp13
 70
     1
102
RTVSPropertyOp14
 70
     1
102
RTVSPropertyOp15
 70
     1
102
RTVSPropertyOp16
 70
     1
102
RTVSPropertyOp17
 70
     1
102
RTVSPropertyOp18
 70
     1
102
RTVSPropertyOp19
 70
     1
102
RTVSPropertyOp20
 70
     1
102
RTVSPropertyOp21
 70
     1
102
RTVSPropertyOp22
 70
     1
102
RTVSPropertyOp23
 70
     1
102
RTVSPropertyOp24
 70
     1
102
RTVSPropertyOp25
 70
     1
102
RTVSPropertyOp26
 70
     1
102
RTVSPropertyOp27
 70
     1
102
RTVSPropertyOp28
 70
     1
102
RTVSPropertyOp29
 70
     1
102
RTVSPropertyOp30
 70
     1
102
RTVSPropertyOp31
 70
     1
102
RTVSPropertyOp32
 70
     1
  0
XRECORD
  5
70B
102
{ACAD_REACTORS
330
70A
102
}
330
70A
100
AcDbXrecord
280
     1
102
RTVSPropertyOp0
 70
     1
102
RTVSPropertyOp1
 70
     1
102
RTVSPropertyOp2
 70
     1
102
RTVSPropertyOp3
 70
     1
102
RTVSPropertyOp4
 70
     1
102
RTVSPropertyOp5
 70
     1
102
RTVSPropertyOp6
 70
     1
102
RTVSPropertyOp7
 70
     1
102
RTVSPropertyOp8
 70
     1
102
RTVSPropertyOp9
 70
     1
102
RTVSPropertyOp10
 70
     1
102
RTVSPropertyOp11
 70
     1
102
RTVSPropertyOp12
 70
     1
102
RTVSPropertyOp13
 70
     1
102
RTVSPropertyOp14
 70
     1
102
RTVSPropertyOp15
 70
     1
102
RTVSPropertyOp16
 70
     1
102
RTVSPropertyOp17
 70
     1
102
RTVSPropertyOp18
 70
     1
102
RTVSPropertyOp19
 70
     1
102
RTVSPropertyOp20
 70
     1
102
RTVSPropertyOp21
 70
     1
102
RTVSPropertyOp22
 70
     1
102
RTVSPropertyOp23
 70
     1
102
RTVSPropertyOp24
 70
     1
102
RTVSPropertyOp25
 70
     1
102
RTVSPropertyOp26
 70
     1
102
RTVSPropertyOp27
 70
     1
102
RTVSPropertyOp28
 70
     1
102
RTVSPropertyOp29
 70
     1
102
RTVSPropertyOp30
 70
     1
102
RTVSPropertyOp31
 70
     1
102
RTVSPropertyOp32
 70
     1
  0
XRECORD
  5
70D
102
{ACAD_REACTORS
330
70C
102
}
330
70C
100
AcDbXrecord
280
     1
102
RTVSPropertyOp0
 70
     1
102
RTVSPropertyOp1
 70
     1
102
RTVSPropertyOp2
 70
     1
102
RTVSPropertyOp3
 70
     1
102
RTVSPropertyOp4
 70
     1
102
RTVSPropertyOp5
 70
     1
102
RTVSPropertyOp6
 70
     1
102
RTVSPropertyOp7
 70
     1
102
RTVSPropertyOp8
 70
     1
102
RTVSPropertyOp9
 70
     1
102
RTVSPropertyOp10
 70
     1
102
RTVSPropertyOp11
 70
     1
102
RTVSPropertyOp12
 70
     1
102
RTVSPropertyOp13
 70
     1
102
RTVSPropertyOp14
 70
     1
102
RTVSPropertyOp15
 70
     1
102
RTVSPropertyOp16
 70
     1
102
RTVSPropertyOp17
 70
     1
102
RTVSPropertyOp18
 70
     1
102
RTVSPropertyOp19
 70
     1
102
RTVSPropertyOp20
 70
     1
102
RTVSPropertyOp21
 70
     1
102
RTVSPropertyOp22
 70
     1
102
RTVSPropertyOp23
 70
     1
102
RTVSPropertyOp24
 70
     1
102
RTVSPropertyOp25
 70
     1
102
RTVSPropertyOp26
 70
     1
102
RTVSPropertyOp27
 70
     1
102
RTVSPropertyOp28
 70
     1
102
RTVSPropertyOp29
 70
     1
102
RTVSPropertyOp30
 70
     1
102
RTVSPropertyOp31
 70
     1
102
RTVSPropertyOp32
 70
     1
  0
XRECORD
  5
721
102
{ACAD_REACTORS
330
720
102
}
330
720
100
AcDbXrecord
280
     1
102
RTVSPropertyOp0
 70
     1
102
RTVSPropertyOp1
 70
     1
102
RTVSPropertyOp2
 70
     1
102
RTVSPropertyOp3
 70
     1
102
RTVSPropertyOp4
 70
     1
102
RTVSPropertyOp5
 70
     1
102
RTVSPropertyOp6
 70
     1
102
RTVSPropertyOp7
 70
     1
102
RTVSPropertyOp8
 70
     1
102
RTVSPropertyOp9
 70
     1
102
RTVSPropertyOp10
 70
     1
102
RTVSPropertyOp11
 70
     1
102
RTVSPropertyOp12
 70
     1
102
RTVSPropertyOp13
 70
     1
102
RTVSPropertyOp14
 70
     1
102
RTVSPropertyOp15
 70
     1
102
RTVSPropertyOp16
 70
     1
102
RTVSPropertyOp17
 70
     1
102
RTVSPropertyOp18
 70
     1
102
RTVSPropertyOp19
 70
     1
102
RTVSPropertyOp20
 70
     1
102
RTVSPropertyOp21
 70
     1
102
RTVSPropertyOp22
 70
     1
102
RTVSPropertyOp23
 70
     1
102
RTVSPropertyOp24
 70
     1
102
RTVSPropertyOp25
 70
     1
102
RTVSPropertyOp26
 70
     1
102
RTVSPropertyOp27
 70
     1
102
RTVSPropertyOp28
 70
     1
102
RTVSPropertyOp29
 70
     1
102
RTVSPropertyOp30
 70
     1
102
RTVSPropertyOp31
 70
     1
102
RTVSPropertyOp32
 70
     1
  0
XRECORD
  5
717
102
{ACAD_REACTORS
330
716
102
}
330
716
100
AcDbXrecord
280
     1
102
RTVSPropertyOp0
 70
     1
102
RTVSPropertyOp1
 70
     1
102
RTVSPropertyOp2
 70
     1
102
RTVSPropertyOp3
 70
     1
102
RTVSPropertyOp4
 70
     1
102
RTVSPropertyOp5
 70
     1
102
RTVSPropertyOp6
 70
     1
102
RTVSPropertyOp7
 70
     1
102
RTVSPropertyOp8
 70
     1
102
RTVSPropertyOp9
 70
     1
102
RTVSPropertyOp10
 70
     1
102
RTVSPropertyOp11
 70
     1
102
RTVSPropertyOp12
 70
     1
102
RTVSPropertyOp13
 70
     1
102
RTVSPropertyOp14
 70
     1
102
RTVSPropertyOp15
 70
     1
102
RTVSPropertyOp16
 70
     1
102
RTVSPropertyOp17
 70
     1
102
RTVSPropertyOp18
 70
     1
102
RTVSPropertyOp19
 70
     1
102
RTVSPropertyOp20
 70
     1
102
RTVSPropertyOp21
 70
     1
102
RTVSPropertyOp22
 70
     1
102
RTVSPropertyOp23
 70
     1
102
RTVSPropertyOp24
 70
     1
102
RTVSPropertyOp25
 70
     1
102
RTVSPropertyOp26
 70
     1
102
RTVSPropertyOp27
 70
     1
102
RTVSPropertyOp28
 70
     1
102
RTVSPropertyOp29
 70
     1
102
RTVSPropertyOp30
 70
     1
102
RTVSPropertyOp31
 70
     1
102
RTVSPropertyOp32
 70
     1
  0
XRECORD
  5
71F
102
{ACAD_REACTORS
330
71E
102
}
330
71E
100
AcDbXrecord
280
     1
102
RTVSPropertyOp0
 70
     1
102
RTVSPropertyOp1
 70
     1
102
RTVSPropertyOp2
 70
     1
102
RTVSPropertyOp3
 70
     1
102
RTVSPropertyOp4
 70
     1
102
RTVSPropertyOp5
 70
     1
102
RTVSPropertyOp6
 70
     1
102
RTVSPropertyOp7
 70
     1
102
RTVSPropertyOp8
 70
     1
102
RTVSPropertyOp9
 70
     1
102
RTVSPropertyOp10
 70
     1
102
RTVSPropertyOp11
 70
     1
102
RTVSPropertyOp12
 70
     1
102
RTVSPropertyOp13
 70
     1
102
RTVSPropertyOp14
 70
     1
102
RTVSPropertyOp15
 70
     1
102
RTVSPropertyOp16
 70
     1
102
RTVSPropertyOp17
 70
     1
102
RTVSPropertyOp18
 70
     1
102
RTVSPropertyOp19
 70
     1
102
RTVSPropertyOp20
 70
     1
102
RTVSPropertyOp21
 70
     1
102
RTVSPropertyOp22
 70
     1
102
RTVSPropertyOp23
 70
     1
102
RTVSPropertyOp24
 70
     1
102
RTVSPropertyOp25
 70
     1
102
RTVSPropertyOp26
 70
     1
102
RTVSPropertyOp27
 70
     1
102
RTVSPropertyOp28
 70
     1
102
RTVSPropertyOp29
 70
     1
102
RTVSPropertyOp30
 70
     1
102
RTVSPropertyOp31
 70
     1
102
RTVSPropertyOp32
 70
     1
  0
ENDSEC
  0
EOF
