  0
SECTION
  2
HEADER
  9
$ACADVER
  1
AC1015
  9
$ACADMAINTVER
 70
     6
  9
$DWGCODEPAGE
  3
ANSI_1252
  9
$INSBASE
 10
0.0
 20
0.0
 30
0.0
  9
$EXTMIN
 10
1.000000000000000E+20
 20
1.000000000000000E+20
 30
1.000000000000000E+20
  9
$EXTMAX
 10
-1.000000000000000E+20
 20
-1.000000000000000E+20
 30
-1.000000000000000E+20
  9
$LIMMIN
 10
-170.0
 20
-170.0
  9
$LIMMAX
 10
519.0
 20
260.0
  9
$ORTHOMODE
 70
     0
  9
$REGENMODE
 70
     1
  9
$FILLMODE
 70
     1
  9
$QTEXTMODE
 70
     0
  9
$MIRRTEXT
 70
     0
  9
$LTSCALE
 40
1.0
  9
$ATTMODE
 70
     1
  9
$TEXTSIZE
 40
3.5
  9
$TRACEWID
 40
1.0
  9
$TEXTSTYLE
  7
SIMPLEX
  9
$CLAYER
  8
1
  9
$CELTYPE
  6
BYLAYER
  9
$CECOLOR
 62
   256
  9
$CELTSCALE
 40
1.0
  9
$DISPSILH
 70
     0
  9
$DIMSCALE
 40
1.0
  9
$DIMASZ
 40
2.5
  9
$DIMEXO
 40
0.0
  9
$DIMDLI
 40
3.75
  9
$DIMRND
 40
0.0
  9
$DIMDLE
 40
0.0
  9
$DIMEXE
 40
1.25
  9
$DIMTP
 40
0.0
  9
$DIMTM
 40
0.0
  9
$DIMTXT
 40
3.5
  9
$DIMCEN
 40
0.0
  9
$DIMTSZ
 40
0.0
  9
$DIMTOL
 70
     0
  9
$DIMLIM
 70
     0
  9
$DIMTIH
 70
     0
  9
$DIMTOH
 70
     0
  9
$DIMSE1
 70
     0
  9
$DIMSE2
 70
     0
  9
$DIMTAD
 70
     1
  9
$DIMZIN
 70
     8
  9
$DIMBLK
  1

  9
$DIMASO
 70
     1
  9
$DIMSHO
 70
     1
  9
$DIMPOST
  1

  9
$DIMAPOST
  1

  9
$DIMALT
 70
     0
  9
$DIMALTD
 70
     3
  9
$DIMALTF
 40
0.039370078
  9
$DIMLFAC
 40
1.0
  9
$DIMTOFL
 70
     0
  9
$DIMTVP
 40
0.0
  9
$DIMTIX
 70
     0
  9
$DIMSOXD
 70
     0
  9
$DIMSAH
 70
     0
  9
$DIMBLK1
  1

  9
$DIMBLK2
  1

  9
$DIMSTYLE
  2
STANDARD
  9
$DIMCLRD
 70
     0
  9
$DIMCLRE
 70
     0
  9
$DIMCLRT
 70
     0
  9
$DIMTFAC
 40
1.0
  9
$DIMGAP
 40
0.625
  9
$DIMJUST
 70
     0
  9
$DIMSD1
 70
     0
  9
$DIMSD2
 70
     0
  9
$DIMTOLJ
 70
     0
  9
$DIMTZIN
 70
     8
  9
$DIMALTZ
 70
     0
  9
$DIMALTTZ
 70
     0
  9
$DIMUPT
 70
     0
  9
$DIMDEC
 70
     2
  9
$DIMTDEC
 70
     2
  9
$DIMALTU
 70
     2
  9
$DIMALTTD
 70
     3
  9
$DIMTXSTY
  7
SIMPLEX
  9
$DIMAUNIT
 70
     0
  9
$DIMADEC
 70
     2
  9
$DIMALTRND
 40
0.0
  9
$DIMAZIN
 70
     2
  9
$DIMDSEP
 70
    46
  9
$DIMATFIT
 70
     3
  9
$DIMFRAC
 70
     0
  9
$DIMLDRBLK
  1

  9
$DIMLUNIT
 70
     2
  9
$DIMLWD
 70
    -2
  9
$DIMLWE
 70
    -2
  9
$DIMTMOVE
 70
     0
  9
$LUNITS
 70
     2
  9
$LUPREC
 70
     4
  9
$SKETCHINC
 40
1.0
  9
$FILLETRAD
 40
0.0
  9
$AUNITS
 70
     0
  9
$AUPREC
 70
     0
  9
$MENU
  1
c:\tdm21\cad\caduti13\tdm13
  9
$ELEVATION
 40
0.0
  9
$PELEVATION
 40
0.0
  9
$THICKNESS
 40
0.0
  9
$LIMCHECK
 70
     0
  9
$CHAMFERA
 40
0.0
  9
$CHAMFERB
 40
0.0
  9
$CHAMFERC
 40
0.0
  9
$CHAMFERD
 40
0.0
  9
$SKPOLY
 70
     0
  9
$TDCREATE
 40
2454957.593642639
  9
$TDUCREATE
 40
2454957.510309306
  9
$TDUPDATE
 40
2456860.799246308
  9
$TDUUPDATE
 40
2456860.715912974
  9
$TDINDWG
 40
0.0009643519
  9
$TDUSRTIMER
 40
0.0009475231
  9
$USRTIMER
 70
     1
  9
$ANGBASE
 50
0.0
  9
$ANGDIR
 70
     0
  9
$PDMODE
 70
     1
  9
$PDSIZE
 40
0.0
  9
$PLINEWID
 40
0.0
  9
$SPLFRAME
 70
     0
  9
$SPLINETYPE
 70
     6
  9
$SPLINESEGS
 70
     8
  9
$HANDSEED
  5
735
  9
$SURFTAB1
 70
     6
  9
$SURFTAB2
 70
     6
  9
$SURFTYPE
 70
     6
  9
$SURFU
 70
     6
  9
$SURFV
 70
     6
  9
$UCSBASE
  2

  9
$UCSNAME
  2

  9
$UCSORG
 10
0.0
 20
0.0
 30
0.0
  9
$UCSXDIR
 10
1.0
 20
0.0
 30
0.0
  9
$UCSYDIR
 10
0.0
 20
1.0
 30
0.0
  9
$UCSORTHOREF
  2

  9
$UCSORTHOVIEW
 70
     0
  9
$UCSORGTOP
 10
0.0
 20
0.0
 30
0.0
  9
$UCSORGBOTTOM
 10
0.0
 20
0.0
 30
0.0
  9
$UCSORGLEFT
 10
0.0
 20
0.0
 30
0.0
  9
$UCSORGRIGHT
 10
0.0
 20
0.0
 30
0.0
  9
$UCSORGFRONT
 10
0.0
 20
0.0
 30
0.0
  9
$UCSORGBACK
 10
0.0
 20
0.0
 30
0.0
  9
$PUCSBASE
  2

  9
$PUCSNAME
  2

  9
$PUCSORG
 10
0.0
 20
0.0
 30
0.0
  9
$PUCSXDIR
 10
1.0
 20
0.0
 30
0.0
  9
$PUCSYDIR
 10
0.0
 20
1.0
 30
0.0
  9
$PUCSORTHOREF
  2

  9
$PUCSORTHOVIEW
 70
     0
  9
$PUCSORGTOP
 10
0.0
 20
0.0
 30
0.0
  9
$PUCSORGBOTTOM
 10
0.0
 20
0.0
 30
0.0
  9
$PUCSORGLEFT
 10
0.0
 20
0.0
 30
0.0
  9
$PUCSORGRIGHT
 10
0.0
 20
0.0
 30
0.0
  9
$PUCSORGFRONT
 10
0.0
 20
0.0
 30
0.0
  9
$PUCSORGBACK
 10
0.0
 20
0.0
 30
0.0
  9
$USERI1
 70
     0
  9
$USERI2
 70
     0
  9
$USERI3
 70
     0
  9
$USERI4
 70
     0
  9
$USERI5
 70
     0
  9
$USERR1
 40
0.0
  9
$USERR2
 40
0.0
  9
$USERR3
 40
0.0
  9
$USERR4
 40
0.0
  9
$USERR5
 40
0.0
  9
$WORLDVIEW
 70
     1
  9
$SHADEDGE
 70
     3
  9
$SHADEDIF
 70
    70
  9
$TILEMODE
 70
     1
  9
$MAXACTVP
 70
    64
  9
$PINSBASE
 10
0.0
 20
0.0
 30
0.0
  9
$PLIMCHECK
 70
     0
  9
$PEXTMIN
 10
0.0
 20
0.0
 30
0.0
  9
$PEXTMAX
 10
0.0
 20
0.0
 30
0.0
  9
$PLIMMIN
 10
0.0
 20
0.0
  9
$PLIMMAX
 10
12.0
 20
9.0
  9
$UNITMODE
 70
     0
  9
$VISRETAIN
 70
     0
  9
$PLINEGEN
 70
     0
  9
$PSLTSCALE
 70
     1
  9
$TREEDEPTH
 70
  3020
  9
$CMLSTYLE
  2
STANDARD
  9
$CMLJUST
 70
     0
  9
$CMLSCALE
 40
20.0
  9
$PROXYGRAPHICS
 70
     1
  9
$MEASUREMENT
 70
     1
  9
$CELWEIGHT
370
    -1
  9
$ENDCAPS
280
     0
  9
$JOINSTYLE
280
     0
  9
$LWDISPLAY
290
     0
  9
$INSUNITS
 70
     4
  9
$HYPERLINKBASE
  1

  9
$STYLESHEET
  1
MONOCHROME.CTB
  9
$XEDIT
290
     1
  9
$CEPSNTYPE
380
     0
  9
$PSTYLEMODE
290
     1
  9
$FINGERPRINTGUID
  2
{46B44192-1510-48B1-B61B-CBE2ADA013A7}
  9
$VERSIONGUID
  2
{6160D478-9A74-4C97-9D8A-D4A65CE74B12}
  9
$EXTNAMES
290
     1
  9
$PSVPSCALE
 40
0.0
  9
$OLESTARTUP
290
     0
  0
ENDSEC
  0
SECTION
  2
CLASSES
  0
CLASS
  1
ACDBDICTIONARYWDFLT
  2
AcDbDictionaryWithDefault
  3
ObjectDBX Classes
 90
        0
280
     0
281
     0
  0
CLASS
  1
ACDBPLACEHOLDER
  2
AcDbPlaceHolder
  3
ObjectDBX Classes
 90
        0
280
     0
281
     0
  0
CLASS
  1
LAYOUT
  2
AcDbLayout
  3
ObjectDBX Classes
 90
        0
280
     0
281
     0
  0
CLASS
  1
DICTIONARYVAR
  2
AcDbDictionaryVar
  3
ObjectDBX Classes
 90
        0
280
     0
281
     0
  0
CLASS
  1
TABLESTYLE
  2
AcDbTableStyle
  3
ObjectDBX Classes
 90
     4095
280
     0
281
     0
  0
CLASS
  1
SCALE
  2
AcDbScale
  3
ObjectDBX Classes
 90
     1153
280
     0
281
     0
  0
CLASS
  1
MATERIAL
  2
AcDbMaterial
  3
ObjectDBX Classes
 90
     1153
280
     0
281
     0
  0
CLASS
  1
VISUALSTYLE
  2
AcDbVisualStyle
  3
ObjectDBX Classes
 90
     4095
280
     0
281
     0
  0
ENDSEC
  0
SECTION
  2
TABLES
  0
TABLE
  2
VPORT
  5
8
330
0
100
AcDbSymbolTable
 70
     1
  0
VPORT
  5
39A
330
8
100
AcDbSymbolTableRecord
100
AcDbViewportTableRecord
  2
*Active
 70
     0
 10
0.0
 20
0.0
 11
1.0
 21
1.0
 12
218.9201881351169
 22
109.7549380673833
 13
0.0
 23
0.0
 14
5.0
 24
5.0
 15
5.0
 25
5.0
 16
0.0
 26
0.0
 36
1.0
 17
0.0
 27
0.0
 37
0.0
 40
564.6711112651689
 41
1.066073697585768
 42
50.0
 43
0.0
 44
0.0
 50
0.0
 51
0.0
 71
     0
 72
  2000
 73
     1
 74
     1
 75
     0
 76
     0
 77
     0
 78
     0
281
     0
 65
     1
110
0.0
120
0.0
130
0.0
111
1.0
121
0.0
131
0.0
112
0.0
122
1.0
132
0.0
 79
     0
146
0.0
  0
ENDTAB
  0
TABLE
  2
LTYPE
  5
5
330
0
100
AcDbSymbolTable
 70
     3
  0
LTYPE
  5
12
330
5
100
AcDbSymbolTableRecord
100
AcDbLinetypeTableRecord
  2
BYBLOCK
 70
     0
  3

 72
    65
 73
     0
 40
0.0
  0
LTYPE
  5
13
330
5
100
AcDbSymbolTableRecord
100
AcDbLinetypeTableRecord
  2
BYLAYER
 70
     0
  3

 72
    65
 73
     0
 40
0.0
  0
LTYPE
  5
14
330
5
100
AcDbSymbolTableRecord
100
AcDbLinetypeTableRecord
  2
CONTINUOUS
 70
     0
  3
Solid line
 72
    65
 73
     0
 40
0.0
  0
LTYPE
  5
20
330
5
100
AcDbSymbolTableRecord
100
AcDbLinetypeTableRecord
  2
HIDDEN
 70
     0
  3
Hidden __ __ __ __ __ __ __ __ __ __ __ __ __ _
 72
    65
 73
     2
 40
9.524999999999997
 49
6.349999999999998
 74
     0
 49
-3.174999999999998
 74
     0
  0
LTYPE
  5
351
330
5
100
AcDbSymbolTableRecord
100
AcDbLinetypeTableRecord
  2
CENTER
 70
     0
  3
Dash dot __ . __ . __ . __ . __ . __ . __ . __
 72
    65
 73
     4
 40
25.4
 49
12.7
 74
     0
 49
-6.349999999999998
 74
     0
 49
0.0
 74
     0
 49
-6.349999999999998
 74
     0
  0
ENDTAB
  0
TABLE
  2
LAYER
  5
2
330
0
100
AcDbSymbolTable
 70
    16
  0
LAYER
  5
F
330
2
100
AcDbSymbolTableRecord
100
AcDbLayerTableRecord
  2
0
 70
     0
 62
     7
  6
CONTINUOUS
370
    -3
390
300
  0
LAYER
  5
23
330
2
100
AcDbSymbolTableRecord
100
AcDbLayerTableRecord
  2
1
 70
     0
 62
     4
  6
CONTINUOUS
370
    -3
390
300
  0
LAYER
  5
24
330
2
100
AcDbSymbolTableRecord
100
AcDbLayerTableRecord
  2
SK1
 70
     0
 62
     4
  6
CONTINUOUS
370
    -3
390
300
  0
LAYER
  5
25
330
2
100
AcDbSymbolTableRecord
100
AcDbLayerTableRecord
  2
2
 70
     0
 62
     7
  6
CONTINUOUS
370
    -3
390
300
  0
LAYER
  5
26
330
2
100
AcDbSymbolTableRecord
100
AcDbLayerTableRecord
  2
2L
 70
     0
 62
     7
  6
CONTINUOUS
370
    -3
390
300
  0
LAYER
  5
27
330
2
100
AcDbSymbolTableRecord
100
AcDbLayerTableRecord
  2
SK2
 70
     0
 62
     7
  6
CONTINUOUS
370
    -3
390
300
  0
LAYER
  5
28
330
2
100
AcDbSymbolTableRecord
100
AcDbLayerTableRecord
  2
3
 70
     0
 62
     1
  6
HIDDEN
370
    -3
390
300
  0
LAYER
  5
29
330
2
100
AcDbSymbolTableRecord
100
AcDbLayerTableRecord
  2
SK3
 70
     0
 62
     1
  6
HIDDEN
370
    -3
390
300
  0
LAYER
  5
2A
330
2
100
AcDbSymbolTableRecord
100
AcDbLayerTableRecord
  2
4
 70
     0
 62
     2
  6
CENTER
370
    -3
390
300
  0
LAYER
  5
2B
330
2
100
AcDbSymbolTableRecord
100
AcDbLayerTableRecord
  2
SK4
 70
     0
 62
     2
  6
CENTER
370
    -3
390
300
  0
LAYER
  5
2C
330
2
100
AcDbSymbolTableRecord
100
AcDbLayerTableRecord
  2
5
 70
     0
 62
    -7
  6
CONTINUOUS
370
    -3
390
300
  0
LAYER
  5
2D
330
2
100
AcDbSymbolTableRecord
100
AcDbLayerTableRecord
  2
6
 70
     0
 62
     5
  6
CONTINUOUS
370
    -3
390
300
  0
LAYER
  5
2E
330
2
100
AcDbSymbolTableRecord
100
AcDbLayerTableRecord
  2
SK6
 70
     0
 62
     5
  6
CONTINUOUS
370
    -3
390
300
  0
LAYER
  5
2F
330
2
100
AcDbSymbolTableRecord
100
AcDbLayerTableRecord
  2
DEFPOINTS
 70
     0
 62
     7
  6
CONTINUOUS
290
     0
370
    -3
390
300
  0
LAYER
  5
375
330
2
100
AcDbSymbolTableRecord
100
AcDbLayerTableRecord
  2
CUT
 70
     0
 62
     1
  6
CONTINUOUS
370
    -3
390
300
  0
LAYER
  5
376
330
2
100
AcDbSymbolTableRecord
100
AcDbLayerTableRecord
  2
NOCUT
 70
     0
 62
     7
  6
CONTINUOUS
370
    -3
390
300
  0
ENDTAB
  0
TABLE
  2
STYLE
  5
3
330
0
100
AcDbSymbolTable
 70
     4
  0
STYLE
  5
10
330
3
100
AcDbSymbolTableRecord
100
AcDbTextStyleTableRecord
  2
STANDARD
 70
     0
 40
0.0
 41
1.0
 50
0.0
 71
     0
 42
5.0
  3
txt
  4

  0
STYLE
  5
1D
330
3
100
AcDbSymbolTableRecord
100
AcDbTextStyleTableRecord
  2
TXT
 70
     0
 40
8.0
 41
1.0
 50
0.0
 71
     0
 42
8.0
  3
txt
  4

  0
STYLE
  5
1E
330
3
100
AcDbSymbolTableRecord
100
AcDbTextStyleTableRecord
  2
SIMPLEX
 70
     0
 40
0.0
 41
1.0
 50
0.0
 71
     0
 42
3.5
  3
simplex
  4

  0
STYLE
  5
34C
330
3
100
AcDbSymbolTableRecord
100
AcDbTextStyleTableRecord
  2

 70
     1
 40
0.0
 41
1.0
 50
0.0
 71
     0
 42
2.5
  3
ltypeshp.shx
  4

  0
ENDTAB
  0
TABLE
  2
VIEW
  5
6
330
0
100
AcDbSymbolTable
 70
     0
  0
ENDTAB
  0
TABLE
  2
UCS
  5
7
330
0
100
AcDbSymbolTable
 70
     0
  0
ENDTAB
  0
TABLE
  2
APPID
  5
9
330
0
100
AcDbSymbolTable
 70
     1
  0
APPID
  5
11
330
9
100
AcDbSymbolTableRecord
100
AcDbRegAppTableRecord
  2
ACAD
 70
     0
  0
ENDTAB
  0
TABLE
  2
DIMSTYLE
  5
A
330
0
100
AcDbSymbolTable
 70
     1
100
AcDbDimStyleTable
  0
DIMSTYLE
105
3F
102
{ACAD_REACTORS
330
6C8
330
6D5
330
6E2
330
6F0
330
6FD
102
}
330
A
100
AcDbSymbolTableRecord
100
AcDbDimStyleTableRecord
  2
STANDARD
 70
     0
 41
2.5
 42
0.0
 43
3.75
 44
1.25
 73
     0
 74
     0
 77
     1
 78
     8
 79
     2
140
3.5
141
0.0
143
0.039370078
147
0.625
171
     3
178
     0
179
     2
271
     2
272
     2
274
     3
283
     0
284
     8
340
1E
  0
ENDTAB
  0
TABLE
  2
BLOCK_RECORD
  5
1
330
0
100
AcDbSymbolTable
 70
     5
  0
BLOCK_RECORD
  5
18
330
1
100
AcDbSymbolTableRecord
100
AcDbBlockTableRecord
  2
*MODEL_SPACE
340
303
  0
BLOCK_RECORD
  5
338
330
1
100
AcDbSymbolTableRecord
100
AcDbBlockTableRecord
  2
*Paper_Space
340
33B
  0
BLOCK_RECORD
  5
6C9
330
1
100
AcDbSymbolTableRecord
100
AcDbBlockTableRecord
  2
*D0
340
0
  0
BLOCK_RECORD
  5
6D6
330
1
100
AcDbSymbolTableRecord
100
AcDbBlockTableRecord
  2
*D1
340
0
  0
BLOCK_RECORD
  5
6E3
330
1
100
AcDbSymbolTableRecord
100
AcDbBlockTableRecord
  2
*D2
340
0
  0
BLOCK_RECORD
  5
6F1
330
1
100
AcDbSymbolTableRecord
100
AcDbBlockTableRecord
  2
*D3
340
0
  0
BLOCK_RECORD
  5
6FE
330
1
100
AcDbSymbolTableRecord
100
AcDbBlockTableRecord
  2
*D4
340
0
  0
ENDTAB
  0
ENDSEC
  0
SECTION
  2
BLOCKS
  0
BLOCK
  5
32
330
18
100
AcDbEntity
  8
0
100
AcDbBlockBegin
  2
*MODEL_SPACE
 70
     0
 10
0.0
 20
0.0
 30
0.0
  3
*MODEL_SPACE
  1

  0
ENDBLK
  5
33
330
18
100
AcDbEntity
  8
0
100
AcDbBlockEnd
  0
BLOCK
  5
339
330
338
100
AcDbEntity
 67
     1
  8
0
100
AcDbBlockBegin
  2
*Paper_Space
 70
     0
 10
0.0
 20
0.0
 30
0.0
  3
*Paper_Space
  1

  0
ENDBLK
  5
33A
330
338
100
AcDbEntity
 67
     1
  8
0
100
AcDbBlockEnd
  0
BLOCK
  5
6CA
330
6C9
100
AcDbEntity
  8
0
100
AcDbBlockBegin
  2
*D0
 70
     1
 10
0.0
 20
0.0
 30
0.0
  3
*D0
  1

  0
LINE
  5
6CC
330
6C9
100
AcDbEntity
  8
2
 62
     0
370
    -2
100
AcDbLine
 10
65.7
 20
8.0
 30
0.0
 11
81.95
 21
8.000000000000057
 31
0.0
  0
LINE
  5
6CD
330
6C9
100
AcDbEntity
  8
2
 62
     0
370
    -2
100
AcDbLine
 10
65.7
 20
-8.0
 30
0.0
 11
81.95000000000006
 21
-7.999999999999942
 31
0.0
  0
LINE
  5
6CE
330
6C9
100
AcDbEntity
  8
2
 62
     0
370
    -2
100
AcDbLine
 10
80.70000000000002
 20
5.500000000000053
 30
0.0
 11
80.70000000000005
 21
-5.499999999999947
 31
0.0
  0
SOLID
  5
6CF
330
6C9
100
AcDbEntity
  8
2
 62
     0
100
AcDbTrace
 10
81.11666666666669
 20
5.500000000000055
 30
0.0
 11
80.28333333333335
 21
5.500000000000052
 31
0.0
 12
80.7
 22
8.000000000000053
 32
0.0
 13
80.7
 23
8.000000000000053
 33
0.0
  0
SOLID
  5
6D0
330
6C9
100
AcDbEntity
  8
2
 62
     0
100
AcDbTrace
 10
80.28333333333337
 20
-5.499999999999948
 30
0.0
 11
81.11666666666672
 21
-5.499999999999945
 31
0.0
 12
80.70000000000006
 22
-7.999999999999947
 32
0.0
 13
80.70000000000006
 23
-7.999999999999947
 33
0.0
  0
MTEXT
  5
6D1
330
6C9
100
AcDbEntity
  8
2
 62
     0
100
AcDbMText
 10
78.30925000000003
 20
0.0000000000000448
 30
0.0
 40
3.5
 41
0.0
 71
     5
 72
     1
  1
M16
  7
SIMPLEX
 11
-3.552713678800501E-15
 21
1.0
 31
0.0
 73
     1
 44
1.0
  0
POINT
  5
6D2
330
6C9
100
AcDbEntity
  8
DEFPOINTS
 62
     0
100
AcDbPoint
 10
65.7
 20
8.0
 30
0.0
  0
POINT
  5
6D3
330
6C9
100
AcDbEntity
  8
DEFPOINTS
 62
     0
100
AcDbPoint
 10
65.7
 20
-8.0
 30
0.0
  0
POINT
  5
6D4
330
6C9
100
AcDbEntity
  8
DEFPOINTS
 62
     0
100
AcDbPoint
 10
80.70000000000006
 20
-7.999999999999947
 30
0.0
  0
ENDBLK
  5
6CB
330
6C9
100
AcDbEntity
  8
0
100
AcDbBlockEnd
  0
BLOCK
  5
6D7
330
6D6
100
AcDbEntity
  8
0
100
AcDbBlockBegin
  2
*D1
 70
     1
 10
0.0
 20
0.0
 30
0.0
  3
*D1
  1

  0
LINE
  5
6D9
330
6D6
100
AcDbEntity
  8
2
 62
     0
370
    -2
100
AcDbLine
 10
0.0
 20
0.0
 30
0.0
 11
0.0
 21
76.25
 31
0.0
  0
LINE
  5
6DA
330
6D6
100
AcDbEntity
  8
2
 62
     0
370
    -2
100
AcDbLine
 10
65.7
 20
0.0
 30
0.0
 11
65.7
 21
76.25
 31
0.0
  0
LINE
  5
6DB
330
6D6
100
AcDbEntity
  8
2
 62
     0
370
    -2
100
AcDbLine
 10
2.5
 20
75.0
 30
0.0
 11
63.2
 21
75.0
 31
0.0
  0
SOLID
  5
6DC
330
6D6
100
AcDbEntity
  8
2
 62
     0
100
AcDbTrace
 10
2.5
 20
75.41666666666667
 30
0.0
 11
2.5
 21
74.58333333333333
 31
0.0
 12
0.0
 22
75.0
 32
0.0
 13
0.0
 23
75.0
 33
0.0
  0
SOLID
  5
6DD
330
6D6
100
AcDbEntity
  8
2
 62
     0
100
AcDbTrace
 10
63.2
 20
74.58333333333333
 30
0.0
 11
63.2
 21
75.41666666666667
 31
0.0
 12
65.7
 22
75.0
 32
0.0
 13
65.7
 23
75.0
 33
0.0
  0
MTEXT
  5
6DE
330
6D6
100
AcDbEntity
  8
2
 62
     0
100
AcDbMText
 10
32.85
 20
77.39775
 30
0.0
 40
3.5
 41
0.0
 71
     5
 72
     1
  1
65.7
  7
SIMPLEX
 73
     1
 44
1.0
  0
POINT
  5
6DF
330
6D6
100
AcDbEntity
  8
DEFPOINTS
 62
     0
100
AcDbPoint
 10
0.0
 20
0.0
 30
0.0
  0
POINT
  5
6E0
330
6D6
100
AcDbEntity
  8
DEFPOINTS
 62
     0
100
AcDbPoint
 10
65.7
 20
0.0
 30
0.0
  0
POINT
  5
6E1
330
6D6
100
AcDbEntity
  8
DEFPOINTS
 62
     0
100
AcDbPoint
 10
65.7
 20
75.0
 30
0.0
  0
ENDBLK
  5
6D8
330
6D6
100
AcDbEntity
  8
0
100
AcDbBlockEnd
  0
BLOCK
  5
6E4
330
6E3
100
AcDbEntity
  8
0
100
AcDbBlockBegin
  2
*D2
 70
     1
 10
0.0
 20
0.0
 30
0.0
  3
*D2
  1

  0
LINE
  5
6E6
330
6E3
100
AcDbEntity
  8
SK2
 62
     0
370
    -2
100
AcDbLine
 10
-30.07599999999999
 20
6.096
 30
0.0
 11
-60.55000000003111
 21
6.095999999844479
 31
0.0
  0
LINE
  5
6E7
330
6E3
100
AcDbEntity
  8
SK2
 62
     0
370
    -2
100
AcDbLine
 10
-30.07599999999999
 20
-6.096
 30
0.0
 11
-60.54999999996889
 21
-6.096000000155521
 31
0.0
  0
LINE
  5
6E8
330
6E3
100
AcDbEntity
  8
SK2
 62
     0
370
    -2
100
AcDbLine
 10
-59.29999999996889
 20
-6.096000000149142
 30
0.0
 11
-59.29999999986737
 21
-25.98800000014914
 31
0.0
  0
LINE
  5
6E9
330
6E3
100
AcDbEntity
  8
SK2
 62
     0
370
    -2
100
AcDbLine
 10
-59.30000000001835
 20
3.595999999850858
 30
0.0
 11
-59.29999999998165
 21
-3.596000000149142
 31
0.0
  0
SOLID
  5
6EA
330
6E3
100
AcDbEntity
  8
SK2
 62
     0
100
AcDbTrace
 10
-58.88333333335169
 20
3.595999999852984
 30
0.0
 11
-59.71666666668501
 21
3.595999999848732
 31
0.0
 12
-59.30000000003111
 22
6.095999999850858
 32
0.0
 13
-59.30000000003111
 23
6.095999999850858
 33
0.0
  0
SOLID
  5
6EB
330
6E3
100
AcDbEntity
  8
SK2
 62
     0
100
AcDbTrace
 10
-59.71666666664832
 20
-3.596000000151268
 30
0.0
 11
-58.88333333331499
 21
-3.596000000147016
 31
0.0
 12
-59.29999999996889
 22
-6.096000000149142
 32
0.0
 13
-59.29999999996889
 23
-6.096000000149142
 33
0.0
  0
MTEXT
  5
6EC
330
6E3
100
AcDbEntity
  8
SK2
 62
     0
100
AcDbMText
 10
-61.69774999991175
 20
-17.29200000016138
 30
0.0
 40
3.5
 41
0.0
 71
     5
 72
     1
  1
%%c12.19
  7
SIMPLEX
 11
-5.103529147843830E-12
 21
1.0
 31
0.0
 73
     1
 44
1.0
  0
POINT
  5
6ED
330
6E3
100
AcDbEntity
  8
DEFPOINTS
 62
     0
100
AcDbPoint
 10
-30.07599999999999
 20
6.096
 30
0.0
  0
POINT
  5
6EE
330
6E3
100
AcDbEntity
  8
DEFPOINTS
 62
     0
100
AcDbPoint
 10
-30.07599999999999
 20
-6.096
 30
0.0
  0
POINT
  5
6EF
330
6E3
100
AcDbEntity
  8
DEFPOINTS
 62
     0
100
AcDbPoint
 10
-59.29999999996889
 20
-6.096000000149142
 30
0.0
  0
ENDBLK
  5
6E5
330
6E3
100
AcDbEntity
  8
0
100
AcDbBlockEnd
  0
BLOCK
  5
6F2
330
6F1
100
AcDbEntity
  8
0
100
AcDbBlockBegin
  2
*D3
 70
     1
 10
0.0
 20
0.0
 30
0.0
  3
*D3
  1

  0
LINE
  5
6F4
330
6F1
100
AcDbEntity
  8
2
 62
     0
370
    -2
100
AcDbLine
 10
41.54529946
 20
6.0
 30
0.0
 11
41.54529946
 21
61.25
 31
0.0
  0
LINE
  5
6F5
330
6F1
100
AcDbEntity
  8
2
 62
     0
370
    -2
100
AcDbLine
 10
65.7
 20
8.0
 30
0.0
 11
65.7
 21
61.25
 31
0.0
  0
LINE
  5
6F6
330
6F1
100
AcDbEntity
  8
2
 62
     0
370
    -2
100
AcDbLine
 10
44.04529946
 20
60.0
 30
0.0
 11
63.2
 21
60.0
 31
0.0
  0
SOLID
  5
6F7
330
6F1
100
AcDbEntity
  8
2
 62
     0
100
AcDbTrace
 10
44.04529946
 20
60.41666666666666
 30
0.0
 11
44.04529946
 21
59.58333333333334
 31
0.0
 12
41.54529946
 22
60.0
 32
0.0
 13
41.54529946
 23
60.0
 33
0.0
  0
SOLID
  5
6F8
330
6F1
100
AcDbEntity
  8
2
 62
     0
100
AcDbTrace
 10
63.2
 20
59.58333333333334
 30
0.0
 11
63.2
 21
60.41666666666666
 31
0.0
 12
65.7
 22
60.0
 32
0.0
 13
65.7
 23
60.0
 33
0.0
  0
MTEXT
  5
6F9
330
6F1
100
AcDbEntity
  8
2
 62
     0
100
AcDbMText
 10
53.62264973000001
 20
62.438
 30
0.0
 40
3.5
 41
0.0
 71
     5
 72
     1
  1
24.15
  7
SIMPLEX
 73
     1
 44
1.0
  0
POINT
  5
6FA
330
6F1
100
AcDbEntity
  8
DEFPOINTS
 62
     0
100
AcDbPoint
 10
41.54529946
 20
6.0
 30
0.0
  0
POINT
  5
6FB
330
6F1
100
AcDbEntity
  8
DEFPOINTS
 62
     0
100
AcDbPoint
 10
65.7
 20
8.0
 30
0.0
  0
POINT
  5
6FC
330
6F1
100
AcDbEntity
  8
DEFPOINTS
 62
     0
100
AcDbPoint
 10
65.7
 20
60.0
 30
0.0
  0
ENDBLK
  5
6F3
330
6F1
100
AcDbEntity
  8
0
100
AcDbBlockEnd
  0
BLOCK
  5
6FF
330
6FE
100
AcDbEntity
  8
0
100
AcDbBlockBegin
  2
*D4
 70
     1
 10
0.0
 20
0.0
 30
0.0
  3
*D4
  1

  0
LINE
  5
701
330
6FE
100
AcDbEntity
  8
SK2
 62
     0
370
    -2
100
AcDbLine
 10
-44.3
 20
8.0
 30
0.0
 11
-44.3
 21
91.25
 31
0.0
  0
LINE
  5
702
330
6FE
100
AcDbEntity
  8
SK2
 62
     0
370
    -2
100
AcDbLine
 10
65.7
 20
8.0
 30
0.0
 11
65.7
 21
91.25
 31
0.0
  0
LINE
  5
703
330
6FE
100
AcDbEntity
  8
SK2
 62
     0
370
    -2
100
AcDbLine
 10
-41.8
 20
90.0
 30
0.0
 11
63.2
 21
90.0
 31
0.0
  0
SOLID
  5
704
330
6FE
100
AcDbEntity
  8
SK2
 62
     0
100
AcDbTrace
 10
-41.8
 20
90.41666666666667
 30
0.0
 11
-41.8
 21
89.58333333333333
 31
0.0
 12
-44.3
 22
90.0
 32
0.0
 13
-44.3
 23
90.0
 33
0.0
  0
SOLID
  5
705
330
6FE
100
AcDbEntity
  8
SK2
 62
     0
100
AcDbTrace
 10
63.2
 20
89.58333333333333
 30
0.0
 11
63.2
 21
90.41666666666667
 31
0.0
 12
65.7
 22
90.0
 32
0.0
 13
65.7
 23
90.0
 33
0.0
  0
MTEXT
  5
706
330
6FE
100
AcDbEntity
  8
SK2
 62
     0
100
AcDbMText
 10
10.7
 20
92.39075
 30
0.0
 40
3.5
 41
0.0
 71
     5
 72
     1
  1
110
  7
SIMPLEX
 73
     1
 44
1.0
  0
POINT
  5
707
330
6FE
100
AcDbEntity
  8
DEFPOINTS
 62
     0
100
AcDbPoint
 10
-44.3
 20
8.0
 30
0.0
  0
POINT
  5
708
330
6FE
100
AcDbEntity
  8
DEFPOINTS
 62
     0
100
AcDbPoint
 10
65.7
 20
8.0
 30
0.0
  0
POINT
  5
709
330
6FE
100
AcDbEntity
  8
DEFPOINTS
 62
     0
100
AcDbPoint
 10
65.7
 20
90.0
 30
0.0
  0
ENDBLK
  5
700
330
6FE
100
AcDbEntity
  8
0
100
AcDbBlockEnd
  0
ENDSEC
  0
SECTION
  2
ENTITIES
  0
LINE
  5
3D6
330
18
100
AcDbEntity
  8
SK4
100
AcDbLine
 10
-46.3
 20
0.0
 30
0.0
 11
10.7
 21
0.0
 31
0.0
  0
LINE
  5
3D7
330
18
100
AcDbEntity
  8
4
100
AcDbLine
 10
8.700000000000003
 20
0.0
 30
0.0
 11
67.7
 21
0.0
 31
0.0
  0
LINE
  5
3D8
330
18
100
AcDbEntity
  8
SK4
100
AcDbLine
 10
8.700000000000003
 20
0.0
 30
0.0
 11
67.7
 21
0.0
 31
0.0
  0
LINE
  5
3D9
330
18
100
AcDbEntity
  8
1
100
AcDbLine
 10
10.7
 20
6.096
 30
0.0
 11
10.7
 21
6.089939397677763
 31
0.0
  0
LINE
  5
3DA
330
18
100
AcDbEntity
  8
1
100
AcDbLine
 10
10.7
 20
6.089939397677763
 30
0.0
 11
10.7
 21
5.549026571765169
 31
0.0
  0
LINE
  5
3DB
330
18
100
AcDbEntity
  8
1
100
AcDbLine
 10
10.7
 20
5.549026571765169
 30
0.0
 11
10.7
 21
-6.096
 31
0.0
  0
LINE
  5
3DC
330
18
100
AcDbEntity
  8
1
100
AcDbLine
 10
10.7
 20
6.096
 30
0.0
 11
-0.0000000000000009
 21
6.096
 31
0.0
  0
LINE
  5
3DD
330
18
100
AcDbEntity
  8
1
100
AcDbLine
 10
10.7
 20
6.0
 30
0.0
 11
26.94559015322642
 21
6.0
 31
0.0
  0
LINE
  5
3DE
330
18
100
AcDbEntity
  8
1
100
AcDbLine
 10
31.26360626133056
 20
6.0
 30
0.0
 11
38.37354831692965
 21
6.0
 31
0.0
  0
LINE
  5
3DF
330
18
100
AcDbEntity
  8
1
100
AcDbLine
 10
21.7
 20
-4.506807657798613
 30
0.0
 11
22.35569960505054
 21
-4.845012945789162
 31
0.0
  0
LINE
  5
3E0
330
18
100
AcDbEntity
  8
1
100
AcDbLine
 10
22.35569960505054
 20
-4.845012945789162
 30
0.0
 11
23.01139887447139
 21
-5.143899870836202
 31
0.0
  0
LINE
  5
3E1
330
18
100
AcDbEntity
  8
1
100
AcDbLine
 10
23.01139887447139
 20
-5.143899870836202
 30
0.0
 11
23.66710422650255
 21
-5.401024983261829
 31
0.0
  0
LINE
  5
3E2
330
18
100
AcDbEntity
  8
1
100
AcDbLine
 10
23.66710422650255
 20
-5.401024983261829
 30
0.0
 11
24.32279582705091
 21
-5.614306104744961
 31
0.0
  0
LINE
  5
3E3
330
18
100
AcDbEntity
  8
1
100
AcDbLine
 10
24.32279582705091
 20
-5.614306104744961
 30
0.0
 11
24.97849797916249
 21
-5.782014861352055
 31
0.0
  0
LINE
  5
3E4
330
18
100
AcDbEntity
  8
1
100
AcDbLine
 10
24.97849797916249
 20
-5.782014861352055
 30
0.0
 11
25.30634835571478
 21
-5.848339988193745
 31
0.0
  0
LINE
  5
3E5
330
18
100
AcDbEntity
  8
1
100
AcDbLine
 10
25.30634835571478
 20
-5.848339988193745
 30
0.0
 11
25.63420330345515
 21
-5.902789944186875
 31
0.0
  0
LINE
  5
3E6
330
18
100
AcDbEntity
  8
1
100
AcDbLine
 10
25.63420330345515
 20
-5.902789944186875
 30
0.0
 11
25.96204616654354
 21
-5.945253996309927
 31
0.0
  0
LINE
  5
3E7
330
18
100
AcDbEntity
  8
1
100
AcDbLine
 10
25.96204616654354
 20
-5.945253996309927
 30
0.0
 11
26.2899020260656
 21
-5.975648497906942
 31
0.0
  0
LINE
  5
3E8
330
18
100
AcDbEntity
  8
1
100
AcDbLine
 10
26.2899020260656
 20
-5.975648497906942
 30
0.0
 11
26.61775161861405
 21
-5.993908645336417
 31
0.0
  0
LINE
  5
3E9
330
18
100
AcDbEntity
  8
1
100
AcDbLine
 10
26.61775161861405
 20
-5.993908645336417
 30
0.0
 11
26.94559015326187
 21
-5.999999999961084
 31
0.0
  0
LINE
  5
3EA
330
18
100
AcDbEntity
  8
1
100
AcDbLine
 10
21.7
 20
-1.520781295375226
 30
0.0
 11
22.89545023364184
 21
-2.449719611168328
 31
0.0
  0
LINE
  5
3EB
330
18
100
AcDbEntity
  8
1
100
AcDbLine
 10
22.89545023364184
 20
-2.449719611168328
 30
0.0
 11
24.09091112116296
 21
-3.312669231589692
 31
0.0
  0
LINE
  5
3EC
330
18
100
AcDbEntity
  8
1
100
AcDbLine
 10
24.09091112116296
 20
-3.312669231589692
 30
0.0
 11
25.28636272275744
 21
-4.08637177567465
 31
0.0
  0
LINE
  5
3ED
330
18
100
AcDbEntity
  8
1
100
AcDbLine
 10
25.28636272275744
 20
-4.08637177567465
 30
0.0
 11
25.88408509679426
 21
-4.433132007032469
 31
0.0
  0
LINE
  5
3EE
330
18
100
AcDbEntity
  8
1
100
AcDbLine
 10
25.88408509679426
 20
-4.433132007032469
 30
0.0
 11
26.48181243481292
 21
-4.749987793539567
 31
0.0
  0
LINE
  5
3EF
330
18
100
AcDbEntity
  8
1
100
AcDbLine
 10
26.48181243481292
 20
-4.749987793539567
 30
0.0
 11
27.07954225872576
 21
-5.034800227469733
 31
0.0
  0
LINE
  5
3F0
330
18
100
AcDbEntity
  8
1
100
AcDbLine
 10
27.07954225872576
 20
-5.034800227469733
 30
0.0
 11
27.67727238766053
 21
-5.285646529525375
 31
0.0
  0
LINE
  5
3F1
330
18
100
AcDbEntity
  8
1
100
AcDbLine
 10
27.67727238766053
 20
-5.285646529525375
 30
0.0
 11
28.27500035413671
 21
-5.500833601012257
 31
0.0
  0
LINE
  5
3F2
330
18
100
AcDbEntity
  8
1
100
AcDbLine
 10
28.27500035413671
 20
-5.500833601012257
 30
0.0
 11
28.87272398810319
 21
-5.678909129991613
 31
0.0
  0
LINE
  5
3F3
330
18
100
AcDbEntity
  8
1
100
AcDbLine
 10
28.87272398810319
 20
-5.678909129991613
 30
0.0
 11
29.4704461499826
 21
-5.818672927967718
 31
0.0
  0
LINE
  5
3F4
330
18
100
AcDbEntity
  8
1
100
AcDbLine
 10
29.4704461499826
 20
-5.818672927967718
 30
0.0
 11
30.06817309059272
 21
-5.919183559632913
 31
0.0
  0
LINE
  5
3F5
330
18
100
AcDbEntity
  8
1
100
AcDbLine
 10
30.06817309059272
 20
-5.919183559632913
 30
0.0
 11
30.66590276460512
 21
-5.979762082652305
 31
0.0
  0
LINE
  5
3F6
330
18
100
AcDbEntity
  8
1
100
AcDbLine
 10
30.66590276460512
 20
-5.979762082652305
 30
0.0
 11
31.26360626133092
 21
-5.999999999996337
 31
0.0
  0
LINE
  5
3F7
330
18
100
AcDbEntity
  8
1
100
AcDbLine
 10
21.7
 20
-1.520781295375235
 30
0.0
 11
21.70000000000001
 21
-4.506807657798614
 31
0.0
  0
LINE
  5
3F8
330
18
100
AcDbEntity
  8
1
100
AcDbLine
 10
21.7
 20
3.960894436312054
 30
0.0
 11
22.74209248403687
 21
3.276983632566385
 31
0.0
  0
LINE
  5
3F9
330
18
100
AcDbEntity
  8
1
100
AcDbLine
 10
22.74209248403687
 20
3.276983632566385
 30
0.0
 11
23.78419373686632
 21
2.525961664540906
 31
0.0
  0
LINE
  5
3FA
330
18
100
AcDbEntity
  8
1
100
AcDbLine
 10
23.78419373686632
 20
2.525961664540906
 30
0.0
 11
25.86838734473926
 21
0.88513858950325
 31
0.0
  0
LINE
  5
3FB
330
18
100
AcDbEntity
  8
1
100
AcDbLine
 10
25.86838734473926
 20
0.88513858950325
 30
0.0
 11
30.03677473557817
 21
-2.473321235017861
 31
0.0
  0
LINE
  5
3FC
330
18
100
AcDbEntity
  8
1
100
AcDbLine
 10
30.03677473557817
 20
-2.473321235017861
 30
0.0
 11
31.07887179717134
 21
-3.228330693600324
 31
0.0
  0
LINE
  5
3FD
330
18
100
AcDbEntity
  8
1
100
AcDbLine
 10
31.07887179717134
 20
-3.228330693600324
 30
0.0
 11
32.12096834320781
 21
-3.917216989204093
 31
0.0
  0
LINE
  5
3FE
330
18
100
AcDbEntity
  8
1
100
AcDbLine
 10
32.12096834320781
 20
-3.917216989204093
 30
0.0
 11
33.1630665036958
 21
-4.525868853231535
 31
0.0
  0
LINE
  5
3FF
330
18
100
AcDbEntity
  8
1
100
AcDbLine
 10
33.1630665036958
 20
-4.525868853231535
 30
0.0
 11
33.68411421909934
 21
-4.796141274252612
 31
0.0
  0
LINE
  5
400
330
18
100
AcDbEntity
  8
1
100
AcDbLine
 10
33.68411421909934
 20
-4.796141274252612
 30
0.0
 11
34.20516316534832
 21
-5.041822401753061
 31
0.0
  0
LINE
  5
401
330
18
100
AcDbEntity
  8
1
100
AcDbLine
 10
34.20516316534832
 20
-5.041822401753061
 30
0.0
 11
34.72621254007494
 21
-5.26165332143111
 31
0.0
  0
LINE
  5
402
330
18
100
AcDbEntity
  8
1
100
AcDbLine
 10
34.72621254007494
 20
-5.26165332143111
 30
0.0
 11
35.2472603604503
 21
-5.454508037061889
 31
0.0
  0
LINE
  5
403
330
18
100
AcDbEntity
  8
1
100
AcDbLine
 10
35.2472603604503
 20
-5.454508037061889
 30
0.0
 11
35.76830925191916
 21
-5.619396251728113
 31
0.0
  0
LINE
  5
404
330
18
100
AcDbEntity
  8
1
100
AcDbLine
 10
35.76830925191916
 20
-5.619396251728113
 30
0.0
 11
36.28935880201024
 21
-5.755472950773228
 31
0.0
  0
LINE
  5
405
330
18
100
AcDbEntity
  8
1
100
AcDbLine
 10
36.28935880201024
 20
-5.755472950773228
 30
0.0
 11
36.81040676745808
 21
-5.862041211085034
 31
0.0
  0
LINE
  5
406
330
18
100
AcDbEntity
  8
1
100
AcDbLine
 10
36.81040676745808
 20
-5.862041211085034
 30
0.0
 11
37.33145561557573
 21
-5.938553775003063
 31
0.0
  0
LINE
  5
407
330
18
100
AcDbEntity
  8
1
100
AcDbLine
 10
37.33145561557573
 20
-5.938553775003063
 30
0.0
 11
37.85250528364656
 21
-5.984618573280744
 31
0.0
  0
LINE
  5
408
330
18
100
AcDbEntity
  8
1
100
AcDbLine
 10
37.85250528364656
 20
-5.984618573280744
 30
0.0
 11
38.37354831695522
 21
-5.999999999970511
 31
0.0
  0
LINE
  5
409
330
18
100
AcDbEntity
  8
1
100
AcDbLine
 10
21.7
 20
5.804069628427698
 30
0.0
 11
22.23183815001943
 21
5.677495125516689
 31
0.0
  0
LINE
  5
40A
330
18
100
AcDbEntity
  8
1
100
AcDbLine
 10
22.23183815001943
 20
5.677495125516689
 30
0.0
 11
22.76367460678446
 21
5.520593103092087
 31
0.0
  0
LINE
  5
40B
330
18
100
AcDbEntity
  8
1
100
AcDbLine
 10
22.76367460678446
 20
5.520593103092087
 30
0.0
 11
23.29551335842379
 21
5.334203374417083
 31
0.0
  0
LINE
  5
40C
330
18
100
AcDbEntity
  8
1
100
AcDbLine
 10
23.29551335842379
 20
5.334203374417083
 30
0.0
 11
23.82735151490396
 21
5.119320196526433
 31
0.0
  0
LINE
  5
40D
330
18
100
AcDbEntity
  8
1
100
AcDbLine
 10
23.82735151490396
 20
5.119320196526433
 30
0.0
 11
24.35918974623719
 21
4.877091653609996
 31
0.0
  0
LINE
  5
40E
330
18
100
AcDbEntity
  8
1
100
AcDbLine
 10
24.35918974623719
 20
4.877091653609996
 30
0.0
 11
24.89102859228294
 21
4.608812010930516
 31
0.0
  0
LINE
  5
40F
330
18
100
AcDbEntity
  8
1
100
AcDbLine
 10
24.89102859228294
 20
4.608812010930516
 30
0.0
 11
25.95470621647186
 21
3.999961714715523
 31
0.0
  0
LINE
  5
410
330
18
100
AcDbEntity
  8
1
100
AcDbLine
 10
25.95470621647186
 20
3.999961714715523
 30
0.0
 11
27.01838455001441
 21
3.305761055266513
 31
0.0
  0
LINE
  5
411
330
18
100
AcDbEntity
  8
1
100
AcDbLine
 10
27.01838455001441
 20
3.305761055266513
 30
0.0
 11
28.08206315490109
 21
2.541022555789727
 31
0.0
  0
LINE
  5
412
330
18
100
AcDbEntity
  8
1
100
AcDbLine
 10
28.08206315490109
 20
2.541022555789727
 30
0.0
 11
30.20942048410571
 21
0.8663608771060607
 31
0.0
  0
LINE
  5
413
330
18
100
AcDbEntity
  8
1
100
AcDbLine
 10
21.7
 20
5.804069628427697
 30
0.0
 11
21.70000000000001
 21
3.960894436312056
 31
0.0
  0
LINE
  5
414
330
18
100
AcDbEntity
  8
1
100
AcDbLine
 10
41.54529946
 20
-2.533703997808085
 30
0.0
 11
36.85768979271182
 21
1.241121407868397
 31
0.0
  0
LINE
  5
415
330
18
100
AcDbEntity
  8
1
100
AcDbLine
 10
36.85768979271182
 20
1.241121407868397
 30
0.0
 11
34.51388333199557
 21
3.035885461147718
 31
0.0
  0
LINE
  5
416
330
18
100
AcDbEntity
  8
1
100
AcDbLine
 10
34.51388333199557
 20
3.035885461147718
 30
0.0
 11
33.34197554949422
 21
3.826622507542642
 31
0.0
  0
LINE
  5
417
330
18
100
AcDbEntity
  8
1
100
AcDbLine
 10
33.34197554949422
 20
3.826622507542642
 30
0.0
 11
32.17007748033264
 21
4.518277426140259
 31
0.0
  0
LINE
  5
418
330
18
100
AcDbEntity
  8
1
100
AcDbLine
 10
41.54529946
 20
-0.5074873716350763
 30
0.0
 11
41.54529946
 21
0.9414332993487396
 31
0.0
  0
LINE
  5
419
330
18
100
AcDbEntity
  8
1
100
AcDbLine
 10
41.54529946
 20
0.9414332993487344
 30
0.0
 11
38.97487484388451
 21
2.933600802406688
 31
0.0
  0
LINE
  5
41A
330
18
100
AcDbEntity
  8
1
100
AcDbLine
 10
38.97487484388451
 20
2.933600802406688
 30
0.0
 11
37.68966268988653
 21
3.807742930865675
 31
0.0
  0
LINE
  5
41B
330
18
100
AcDbEntity
  8
1
100
AcDbLine
 10
37.68966268988653
 20
3.807742930865675
 30
0.0
 11
37.04705276842348
 21
4.201937443933026
 31
0.0
  0
LINE
  5
41C
330
18
100
AcDbEntity
  8
1
100
AcDbLine
 10
37.04705276842348
 20
4.201937443933026
 30
0.0
 11
36.40445127789263
 21
4.563365925682035
 31
0.0
  0
LINE
  5
41D
330
18
100
AcDbEntity
  8
1
100
AcDbLine
 10
36.40445127789263
 20
4.563365925682035
 30
0.0
 11
35.76184884945958
 21
4.889215544882106
 31
0.0
  0
LINE
  5
41E
330
18
100
AcDbEntity
  8
1
100
AcDbLine
 10
35.76184884945958
 20
4.889215544882106
 30
0.0
 11
35.11923866256834
 21
5.176949355560045
 31
0.0
  0
LINE
  5
41F
330
18
100
AcDbEntity
  8
1
100
AcDbLine
 10
35.11923866256834
 20
5.176949355560045
 30
0.0
 11
34.47662902151375
 21
5.424319982244577
 31
0.0
  0
LINE
  5
420
330
18
100
AcDbEntity
  8
1
100
AcDbLine
 10
34.47662902151375
 20
5.424319982244577
 30
0.0
 11
33.83402828493553
 21
5.629395990637483
 31
0.0
  0
LINE
  5
421
330
18
100
AcDbEntity
  8
1
100
AcDbLine
 10
33.83402828493553
 20
5.629395990637483
 30
0.0
 11
33.19142545116871
 21
5.790581841017657
 31
0.0
  0
LINE
  5
422
330
18
100
AcDbEntity
  8
1
100
AcDbLine
 10
33.19142545116871
 20
5.790581841017657
 30
0.0
 11
32.54881516009336
 21
5.906622034491077
 31
0.0
  0
LINE
  5
423
330
18
100
AcDbEntity
  8
1
100
AcDbLine
 10
32.54881516009336
 20
5.906622034491077
 30
0.0
 11
32.22751684018255
 21
5.947414819415074
 31
0.0
  0
LINE
  5
424
330
18
100
AcDbEntity
  8
1
100
AcDbLine
 10
32.22751684018255
 20
5.947414819415074
 30
0.0
 11
31.90620602107239
 21
5.976610126107483
 31
0.0
  0
LINE
  5
425
330
18
100
AcDbEntity
  8
1
100
AcDbLine
 10
31.90620602107239
 20
5.976610126107483
 30
0.0
 11
31.58491013400066
 21
5.994148904826686
 31
0.0
  0
LINE
  5
426
330
18
100
AcDbEntity
  8
1
100
AcDbLine
 10
31.58491013400066
 20
5.994148904826686
 30
0.0
 11
31.26360626133056
 21
5.999999999999999
 31
0.0
  0
ARC
  5
427
330
18
100
AcDbEntity
  8
1
100
AcDbCircle
 10
31.29032561180049
 20
-3.219672345717107
 30
0.0
 40
9.220129692124228
100
AcDbArc
 50
90.16604730297504
 51
103.7129604861263
  0
LINE
  5
428
330
18
100
AcDbEntity
  8
1
100
AcDbLine
 10
41.54529946
 20
5.438781485911278
 30
0.0
 11
41.14882496260387
 21
5.568715613347399
 31
0.0
  0
LINE
  5
429
330
18
100
AcDbEntity
  8
1
100
AcDbLine
 10
41.14882496260387
 20
5.568715613347399
 30
0.0
 11
40.75235844117009
 21
5.68211412977498
 31
0.0
  0
LINE
  5
42A
330
18
100
AcDbEntity
  8
1
100
AcDbLine
 10
40.75235844117009
 20
5.68211412977498
 30
0.0
 11
40.35589267097541
 21
5.778642456587163
 31
0.0
  0
LINE
  5
42B
330
18
100
AcDbEntity
  8
1
100
AcDbLine
 10
40.35589267097541
 20
5.778642456587163
 30
0.0
 11
39.95942281486757
 21
5.858015524612352
 31
0.0
  0
LINE
  5
42C
330
18
100
AcDbEntity
  8
1
100
AcDbLine
 10
39.95942281486757
 20
5.858015524612352
 30
0.0
 11
39.5629462277975
 21
5.919996105002452
 31
0.0
  0
LINE
  5
42D
330
18
100
AcDbEntity
  8
1
100
AcDbLine
 10
39.5629462277975
 20
5.919996105002452
 30
0.0
 11
39.16647711528964
 21
5.964398450777189
 31
0.0
  0
LINE
  5
42E
330
18
100
AcDbEntity
  8
1
100
AcDbLine
 10
39.16647711528964
 20
5.964398450777189
 30
0.0
 11
38.77001190958847
 21
5.991092513922518
 31
0.0
  0
LINE
  5
42F
330
18
100
AcDbEntity
  8
1
100
AcDbLine
 10
38.77001190958847
 20
5.991092513922518
 30
0.0
 11
38.37354831692966
 21
6.000000000000001
 31
0.0
  0
LINE
  5
430
330
18
100
AcDbEntity
  8
1
100
AcDbLine
 10
41.54529946
 20
5.438781485911274
 30
0.0
 11
41.54529946
 21
0.9414332993487465
 31
0.0
  0
LINE
  5
431
330
18
100
AcDbEntity
  8
1
100
AcDbLine
 10
41.54529946
 20
-2.533703997808097
 30
0.0
 11
41.54529946
 21
-0.5074873716350785
 31
0.0
  0
LINE
  5
432
330
18
100
AcDbEntity
  8
1
100
AcDbLine
 10
41.54529946
 20
-2.533703997808098
 30
0.0
 11
41.54529946
 21
-5.925681677484655
 31
0.0
  0
LINE
  5
433
330
18
100
AcDbEntity
  8
1
100
AcDbLine
 10
-0.0000000000000022
 20
-6.096
 30
0.0
 11
10.7
 21
-6.096
 31
0.0
  0
ARC
  5
434
330
18
100
AcDbEntity
  8
1
100
AcDbCircle
 10
26.93242719276043
 20
3.100774561540178
 30
0.0
 40
9.100887960325483
100
AcDbArc
 50
270.0828700405258
 51
283.8074926165122
  0
LINE
  5
435
330
18
100
AcDbEntity
  8
1
100
AcDbLine
 10
10.70000000000001
 20
-6.0
 30
0.0
 11
26.94559015326187
 21
-6.0
 31
0.0
  0
ARC
  5
436
330
18
100
AcDbEntity
  8
1
100
AcDbCircle
 10
38.36038649761942
 20
3.100774466553093
 30
0.0
 40
9.100887827098024
100
AcDbArc
 50
270.0828628569649
 51
283.807482388015
  0
LINE
  5
437
330
18
100
AcDbEntity
  8
1
100
AcDbLine
 10
31.26360626133093
 20
-6.0
 30
0.0
 11
38.37354831695523
 21
-6.0
 31
0.0
  0
LINE
  5
438
330
18
100
AcDbEntity
  8
1
100
AcDbLine
 10
30.20942048410571
 20
0.8663608771060607
 30
0.0
 11
30.20944998379071
 21
0.8663368033149458
 31
0.0
  0
LINE
  5
439
330
18
100
AcDbEntity
  8
1
100
AcDbLine
 10
30.2094499837907
 20
0.8663368033149459
 30
0.0
 11
33.04338802365073
 21
-1.453210964653374
 31
0.0
  0
LINE
  5
43A
330
18
100
AcDbEntity
  8
1
100
AcDbLine
 10
33.04338802365073
 20
-1.453210964653374
 30
0.0
 11
34.46037456598769
 21
-2.552391904599211
 31
0.0
  0
LINE
  5
43B
330
18
100
AcDbEntity
  8
1
100
AcDbLine
 10
34.46037456598769
 20
-2.552391904599211
 30
0.0
 11
35.87736744378284
 21
-3.555058873856
 31
0.0
  0
LINE
  5
43C
330
18
100
AcDbEntity
  8
1
100
AcDbLine
 10
35.87736744378284
 20
-3.555058873856
 30
0.0
 11
36.58585250025066
 21
-4.008159010275176
 31
0.0
  0
LINE
  5
43D
330
18
100
AcDbEntity
  8
1
100
AcDbLine
 10
36.58585250025066
 20
-4.008159010275176
 30
0.0
 11
37.29435184513925
 21
-4.423286130897203
 31
0.0
  0
LINE
  5
43E
330
18
100
AcDbEntity
  8
1
100
AcDbLine
 10
37.29435184513925
 20
-4.423286130897203
 30
0.0
 11
38.00284286707584
 21
-4.796493482791037
 31
0.0
  0
LINE
  5
43F
330
18
100
AcDbEntity
  8
1
100
AcDbLine
 10
38.00284286707584
 20
-4.796493482791037
 30
0.0
 11
38.71133287562247
 21
-5.124247565484701
 31
0.0
  0
LINE
  5
440
330
18
100
AcDbEntity
  8
1
100
AcDbLine
 10
38.71133287562247
 20
-5.124247565484701
 30
0.0
 11
39.41983229014784
 21
-5.403448212879824
 31
0.0
  0
LINE
  5
441
330
18
100
AcDbEntity
  8
1
100
AcDbLine
 10
39.41983229014784
 20
-5.403448212879824
 30
0.0
 11
40.12831734968189
 21
-5.631440138032159
 31
0.0
  0
LINE
  5
442
330
18
100
AcDbEntity
  8
1
100
AcDbLine
 10
40.12831734968189
 20
-5.631440138032159
 30
0.0
 11
40.48257127803076
 21
-5.725543212140421
 31
0.0
  0
LINE
  5
443
330
18
100
AcDbEntity
  8
1
100
AcDbLine
 10
40.48257127803076
 20
-5.725543212140421
 30
0.0
 11
40.83681419862422
 21
-5.806070881501609
 31
0.0
  0
LINE
  5
444
330
18
100
AcDbEntity
  8
1
100
AcDbLine
 10
40.83681419862422
 20
-5.806070881501609
 30
0.0
 11
41.19105537402675
 21
-5.872836580804601
 31
0.0
  0
LINE
  5
445
330
18
100
AcDbEntity
  8
1
100
AcDbLine
 10
41.19105537402675
 20
-5.872836580804601
 30
0.0
 11
41.54529946
 21
-5.925681677484652
 31
0.0
  0
LINE
  5
446
330
18
100
AcDbEntity
  8
1
100
AcDbLine
 10
30.20945008281327
 20
0.8663369246319227
 30
0.0
 11
30.20942058312115
 21
0.8663609984381575
 31
0.0
  0
LINE
  5
447
330
18
100
AcDbEntity
  8
1
100
AcDbLine
 10
32.17007748033264
 20
4.51827742614026
 30
0.0
 11
31.51701655560595
 21
4.853983864820082
 31
0.0
  0
LINE
  5
448
330
18
100
AcDbEntity
  8
1
100
AcDbLine
 10
31.51701655560595
 20
4.853983864820082
 30
0.0
 11
30.86394891791084
 21
5.150606950446938
 31
0.0
  0
LINE
  5
449
330
18
100
AcDbEntity
  8
1
100
AcDbLine
 10
30.86394891791084
 20
5.150606950446938
 30
0.0
 11
30.21088634798222
 21
5.405754296836928
 31
0.0
  0
LINE
  5
44A
330
18
100
AcDbEntity
  8
1
100
AcDbLine
 10
30.21088634798222
 20
5.405754296836928
 30
0.0
 11
29.5578309521568
 21
5.617369432868712
 31
0.0
  0
LINE
  5
44B
330
18
100
AcDbEntity
  8
1
100
AcDbLine
 10
29.5578309521568
 20
5.617369432868712
 30
0.0
 11
28.90476611664481
 21
5.783754927623807
 31
0.0
  0
LINE
  5
44C
330
18
100
AcDbEntity
  8
1
100
AcDbLine
 10
28.90476611664481
 20
5.783754927623807
 30
0.0
 11
28.251698986589
 21
5.903568580751553
 31
0.0
  0
LINE
  5
44D
330
18
100
AcDbEntity
  8
1
100
AcDbLine
 10
28.251698986589
 20
5.903568580751553
 30
0.0
 11
27.92517508717813
 21
5.945692912722992
 31
0.0
  0
LINE
  5
44E
330
18
100
AcDbEntity
  8
1
100
AcDbLine
 10
27.92517508717813
 20
5.945692912722992
 30
0.0
 11
27.598640601306
 21
5.975843884952671
 31
0.0
  0
LINE
  5
44F
330
18
100
AcDbEntity
  8
1
100
AcDbLine
 10
27.598640601306
 20
5.975843884952671
 30
0.0
 11
27.27210777016333
 21
5.993957608384171
 31
0.0
  0
LINE
  5
450
330
18
100
AcDbEntity
  8
1
100
AcDbLine
 10
27.27210777016333
 20
5.993957608384171
 30
0.0
 11
26.94559015322642
 21
6.0
 31
0.0
  0
ARC
  5
451
330
18
100
AcDbEntity
  8
1
100
AcDbCircle
 10
42.78515059416524
 20
-3.573124207637463
 30
0.0
 40
9.579455448223177
100
AcDbArc
 50
97.43660614446816
 51
103.600352684299
  0
LINE
  5
452
330
18
100
AcDbEntity
  8
1
100
AcDbLine
 10
41.54529946
 20
5.438781485911274
 30
0.0
 11
41.54529946000001
 21
5.925681677484658
 31
0.0
  0
ARC
  5
453
330
18
100
AcDbEntity
  8
1
 62
     1
100
AcDbCircle
 10
76.67294541530774
 20
-12.34510306989371
 30
0.0
 40
39.59428057343606
100
AcDbArc
 50
150.1239124947338
 51
152.2928727696579
  0
LINE
  5
454
330
18
100
AcDbEntity
  8
1
 62
     1
100
AcDbLine
 10
41.61867778746992
 20
6.064361695416503
 30
0.0
 11
41.54529946
 21
5.925681677484656
 31
0.0
  0
LINE
  5
455
330
18
100
AcDbEntity
  8
1
 62
     1
100
AcDbLine
 10
42.7
 20
8.0
 30
0.0
 11
42.72886752691898
 21
8.0
 31
0.0
  0
LINE
  5
456
330
18
100
AcDbEntity
  8
1
 62
     1
100
AcDbLine
 10
54.67113247308103
 20
8.0
 30
0.0
 11
54.72886752691898
 21
8.0
 31
0.0
  0
LINE
  5
457
330
18
100
AcDbEntity
  8
1
 62
     1
100
AcDbLine
 10
58.67113247308103
 20
8.0
 30
0.0
 11
58.72886752691898
 21
8.0
 31
0.0
  0
LINE
  5
458
330
18
100
AcDbEntity
  8
1
 62
     1
100
AcDbLine
 10
44.67113247308103
 20
-7.999999999999996
 30
0.0
 11
43.7
 21
-6.317950000000001
 31
0.0
  0
LINE
  5
459
330
18
100
AcDbEntity
  8
1
 62
     1
100
AcDbLine
 10
46.67113247308104
 20
-7.999999999999996
 30
0.0
 11
45.7
 21
-6.317950000000001
 31
0.0
  0
LINE
  5
45A
330
18
100
AcDbEntity
  8
1
 62
     1
100
AcDbLine
 10
56.67113247308103
 20
-7.999999999999982
 30
0.0
 11
55.7
 21
-6.317950000000001
 31
0.0
  0
LINE
  5
45B
330
18
100
AcDbEntity
  8
1
 62
     1
100
AcDbLine
 10
58.67113247308102
 20
-7.999999999999982
 30
0.0
 11
57.70000000000001
 21
-6.317950000000001
 31
0.0
  0
LINE
  5
45C
330
18
100
AcDbEntity
  8
1
 62
     1
100
AcDbLine
 10
65.30626342954099
 20
5.30208653485342
 30
0.0
 11
65.30626342954098
 21
-0.0243786161928849
 31
0.0
  0
LINE
  5
45D
330
18
100
AcDbEntity
  8
1
 62
     1
100
AcDbLine
 10
62.92195636944638
 20
6.885780969391231
 30
0.0
 11
62.53966247385087
 21
7.120657193005286
 31
0.0
  0
LINE
  5
45E
330
18
100
AcDbEntity
  8
1
 62
     1
100
AcDbLine
 10
62.53966247385088
 20
7.120657193005241
 30
0.0
 11
62.53966247385088
 21
2.696760096313855
 31
0.0
  0
LINE
  5
45F
330
18
100
AcDbEntity
  8
1
 62
     1
100
AcDbLine
 10
62.92195636944637
 20
2.299136262177941
 30
0.0
 11
62.53966247385087
 21
2.696760096313856
 31
0.0
  0
ARC
  5
460
330
18
100
AcDbEntity
  8
1
 62
     1
100
AcDbCircle
 10
35.31771450968274
 20
11.74917508815742
 30
0.0
 40
33.54624036508667
100
AcDbArc
 50
325.3733864421789
 51
327.7855234182179
  0
LINE
  5
461
330
18
100
AcDbEntity
  8
1
 62
     1
100
AcDbLine
 10
63.7
 20
-6.13412058565676
 30
0.0
 11
63.70000000000002
 21
-2.433659236631716
 31
0.0
  0
ARC
  5
462
330
18
100
AcDbEntity
  8
1
 62
     1
100
AcDbCircle
 10
59.17267257855685
 20
0.5390737124273874
 30
0.0
 40
5.415489972400033
100
AcDbArc
 50
313.8156457521324
 51
326.7103035477593
  0
LINE
  5
463
330
18
100
AcDbEntity
  8
1
 62
     1
100
AcDbLine
 10
62.92195636944638
 20
-3.36850675602739
 30
0.0
 11
62.92195636944637
 21
-7.312645880375389
 31
0.0
  0
LINE
  5
464
330
18
100
AcDbEntity
  8
1
 62
     1
100
AcDbLine
 10
64.26204555548568
 20
-4.124235890007911
 30
0.0
 11
64.26204555548568
 21
-7.228965342673186
 31
0.0
  0
ARC
  5
465
330
18
100
AcDbEntity
  8
1
 62
     1
100
AcDbCircle
 10
163.207334479661
 20
29.71911709950992
 30
0.0
 40
104.5730184695337
100
AcDbArc
 50
197.9066648249618
 51
198.88279492178
  0
ARC
  5
466
330
18
100
AcDbEntity
  8
1
 62
     1
100
AcDbCircle
 10
56.73853818766143
 20
1.10092453709806
 30
0.0
 40
10.27460905099204
100
AcDbArc
 50
326.4987146504017
 51
330.7148531942807
  0
LINE
  5
467
330
18
100
AcDbEntity
  8
1
 62
     1
100
AcDbLine
 10
65.7
 20
-6.317950000000001
 30
0.0
 11
65.30626342954098
 21
-6.999921426863557
 31
0.0
  0
LINE
  5
468
330
18
100
AcDbEntity
  8
1
 62
     1
100
AcDbLine
 10
60.67113247308104
 20
7.876746970870151
 30
0.0
 11
60.67113247308102
 21
4.552714993795846
 31
0.0
  0
LINE
  5
469
330
18
100
AcDbEntity
  8
1
 62
     1
100
AcDbLine
 10
56.67113247308103
 20
8.0
 30
0.0
 11
56.72886752691898
 21
8.0
 31
0.0
  0
LINE
  5
46A
330
18
100
AcDbEntity
  8
1
 62
     1
100
AcDbLine
 10
56.72886752691898
 20
-3.287819638637933
 30
0.0
 11
56.84782885118776
 21
-3.282096494273874
 31
0.0
  0
LINE
  5
46B
330
18
100
AcDbEntity
  8
1
 62
     1
100
AcDbLine
 10
56.84782885118776
 20
-3.282096494273874
 30
0.0
 11
56.96751166036046
 21
-3.269729785832507
 31
0.0
  0
LINE
  5
46C
330
18
100
AcDbEntity
  8
1
 62
     1
100
AcDbLine
 10
56.96751166036046
 20
-3.269729785832507
 30
0.0
 11
57.08791375466207
 21
-3.250650148669769
 31
0.0
  0
LINE
  5
46D
330
18
100
AcDbEntity
  8
1
 62
     1
100
AcDbLine
 10
57.08791375466207
 20
-3.250650148669769
 30
0.0
 11
57.20900820554654
 21
-3.224797718549107
 31
0.0
  0
LINE
  5
46E
330
18
100
AcDbEntity
  8
1
 62
     1
100
AcDbLine
 10
57.20900820554654
 20
-3.224797718549107
 30
0.0
 11
57.33079199255101
 21
-3.192112629103185
 31
0.0
  0
LINE
  5
46F
330
18
100
AcDbEntity
  8
1
 62
     1
100
AcDbLine
 10
57.33079199255101
 20
-3.192112629103185
 30
0.0
 11
57.4532329381129
 21
-3.152546238942247
 31
0.0
  0
LINE
  5
470
330
18
100
AcDbEntity
  8
1
 62
     1
100
AcDbLine
 10
57.4532329381129
 20
-3.152546238942247
 30
0.0
 11
57.57631490888911
 21
-3.106052934542574
 31
0.0
  0
LINE
  5
471
330
18
100
AcDbEntity
  8
1
 62
     1
100
AcDbLine
 10
57.57631490888911
 20
-3.106052934542574
 30
0.0
 11
57.7
 21
-3.052598181083875
 31
0.0
  0
LINE
  5
472
330
18
100
AcDbEntity
  8
1
 62
     1
100
AcDbLine
 10
56.72886752691898
 20
2.863880760438507
 30
0.0
 11
56.85376893290295
 21
2.800824750509002
 31
0.0
  0
LINE
  5
473
330
18
100
AcDbEntity
  8
1
 62
     1
100
AcDbLine
 10
56.85376893290295
 20
2.800824750509002
 30
0.0
 11
56.97824474863817
 21
2.746882573580345
 31
0.0
  0
LINE
  5
474
330
18
100
AcDbEntity
  8
1
 62
     1
100
AcDbLine
 10
56.97824474863817
 20
2.746882573580345
 30
0.0
 11
57.10207495904075
 21
2.702341111568075
 31
0.0
  0
LINE
  5
475
330
18
100
AcDbEntity
  8
1
 62
     1
100
AcDbLine
 10
57.10207495904075
 20
2.702341111568075
 30
0.0
 11
57.16364894342324
 21
2.683686595250167
 31
0.0
  0
LINE
  5
476
330
18
100
AcDbEntity
  8
1
 62
     1
100
AcDbLine
 10
57.16364894342324
 20
2.683686595250167
 30
0.0
 11
57.22495005958658
 21
2.667488888159219
 31
0.0
  0
LINE
  5
477
330
18
100
AcDbEntity
  8
1
 62
     1
100
AcDbLine
 10
57.22495005958658
 20
2.667488888159219
 30
0.0
 11
57.28594744767559
 21
2.653775243793081
 31
0.0
  0
LINE
  5
478
330
18
100
AcDbEntity
  8
1
 62
     1
100
AcDbLine
 10
57.28594744767559
 20
2.653775243793081
 30
0.0
 11
57.3465832436758
 21
2.642578077398658
 31
0.0
  0
LINE
  5
479
330
18
100
AcDbEntity
  8
1
 62
     1
100
AcDbLine
 10
57.3465832436758
 20
2.642578077398658
 30
0.0
 11
57.40680321598239
 21
2.633929268588988
 31
0.0
  0
LINE
  5
47A
330
18
100
AcDbEntity
  8
1
 62
     1
100
AcDbLine
 10
57.40680321598239
 20
2.633929268588988
 30
0.0
 11
57.46657952206915
 21
2.627852850402637
 31
0.0
  0
LINE
  5
47B
330
18
100
AcDbEntity
  8
1
 62
     1
100
AcDbLine
 10
57.46657952206915
 20
2.627852850402637
 30
0.0
 11
57.52585160152095
 21
2.624370523029738
 31
0.0
  0
LINE
  5
47C
330
18
100
AcDbEntity
  8
1
 62
     1
100
AcDbLine
 10
57.52585160152095
 20
2.624370523029738
 30
0.0
 11
57.58455009023268
 21
2.623504607114384
 31
0.0
  0
LINE
  5
47D
330
18
100
AcDbEntity
  8
1
 62
     1
100
AcDbLine
 10
57.58455009023268
 20
2.623504607114384
 30
0.0
 11
57.64261787043253
 21
2.625275005672028
 31
0.0
  0
LINE
  5
47E
330
18
100
AcDbEntity
  8
1
 62
     1
100
AcDbLine
 10
57.64261787043253
 20
2.625275005672028
 30
0.0
 11
57.70000000000002
 21
2.629693932197695
 31
0.0
  0
LINE
  5
47F
330
18
100
AcDbEntity
  8
1
 62
     1
100
AcDbLine
 10
53.7
 20
0.2876490289173724
 30
0.0
 11
53.94558627655143
 21
-0.0276689481083608
 31
0.0
  0
LINE
  5
480
330
18
100
AcDbEntity
  8
1
 62
     1
100
AcDbLine
 10
53.94558627655143
 20
-0.0276689481083608
 30
0.0
 11
54.18941537705277
 21
-0.3687281278151686
 31
0.0
  0
LINE
  5
481
330
18
100
AcDbEntity
  8
1
 62
     1
100
AcDbLine
 10
54.18941537705277
 20
-0.3687281278151686
 30
0.0
 11
54.67113247308103
 21
-1.121779307451197
 31
0.0
  0
LINE
  5
482
330
18
100
AcDbEntity
  8
1
 62
     1
100
AcDbLine
 10
53.7
 20
5.243866176455622
 30
0.0
 11
53.75777074135566
 21
5.240347662503223
 31
0.0
  0
LINE
  5
483
330
18
100
AcDbEntity
  8
1
 62
     1
100
AcDbLine
 10
53.75777074135566
 20
5.240347662503223
 30
0.0
 11
53.81609778509281
 21
5.233844552105146
 31
0.0
  0
LINE
  5
484
330
18
100
AcDbEntity
  8
1
 62
     1
100
AcDbLine
 10
53.81609778509281
 20
5.233844552105146
 30
0.0
 11
53.87493307255125
 21
5.224361087823943
 31
0.0
  0
LINE
  5
485
330
18
100
AcDbEntity
  8
1
 62
     1
100
AcDbLine
 10
53.87493307255125
 20
5.224361087823943
 30
0.0
 11
53.93424158474237
 21
5.211903097753124
 31
0.0
  0
LINE
  5
486
330
18
100
AcDbEntity
  8
1
 62
     1
100
AcDbLine
 10
53.93424158474237
 20
5.211903097753124
 30
0.0
 11
53.99398004883471
 21
5.196479879161895
 31
0.0
  0
LINE
  5
487
330
18
100
AcDbEntity
  8
1
 62
     1
100
AcDbLine
 10
53.99398004883471
 20
5.196479879161895
 30
0.0
 11
54.05411808198744
 21
5.178099507718521
 31
0.0
  0
LINE
  5
488
330
18
100
AcDbEntity
  8
1
 62
     1
100
AcDbLine
 10
54.05411808198744
 20
5.178099507718521
 30
0.0
 11
54.11462023877979
 21
5.156774842387266
 31
0.0
  0
LINE
  5
489
330
18
100
AcDbEntity
  8
1
 62
     1
100
AcDbLine
 10
54.11462023877979
 20
5.156774842387266
 30
0.0
 11
54.17545617255538
 21
5.132517574773819
 31
0.0
  0
LINE
  5
48A
330
18
100
AcDbEntity
  8
1
 62
     1
100
AcDbLine
 10
54.17545617255538
 20
5.132517574773819
 30
0.0
 11
54.2365998261493
 21
5.105341502517197
 31
0.0
  0
LINE
  5
48B
330
18
100
AcDbEntity
  8
1
 62
     1
100
AcDbLine
 10
54.2365998261493
 20
5.105341502517197
 30
0.0
 11
54.29802023264462
 21
5.075263077770654
 31
0.0
  0
LINE
  5
48C
330
18
100
AcDbEntity
  8
1
 62
     1
100
AcDbLine
 10
54.29802023264462
 20
5.075263077770654
 30
0.0
 11
54.4216046695394
 21
5.006460750670697
 31
0.0
  0
LINE
  5
48D
330
18
100
AcDbEntity
  8
1
 62
     1
100
AcDbLine
 10
54.4216046695394
 20
5.006460750670697
 30
0.0
 11
54.5460294443925
 21
4.926251999418846
 31
0.0
  0
LINE
  5
48E
330
18
100
AcDbEntity
  8
1
 62
     1
100
AcDbLine
 10
54.5460294443925
 20
4.926251999418846
 30
0.0
 11
54.67113247308103
 21
4.834796095608875
 31
0.0
  0
LINE
  5
48F
330
18
100
AcDbEntity
  8
1
 62
     1
100
AcDbLine
 10
53.7
 20
0.2876490289173725
 30
0.0
 11
53.7
 21
5.243866176455623
 31
0.0
  0
LINE
  5
490
330
18
100
AcDbEntity
  8
1
 62
     1
100
AcDbLine
 10
52.72886752691898
 20
1.007574507873779
 30
0.0
 11
52.96751160810589
 21
0.7892872530914959
 31
0.0
  0
LINE
  5
491
330
18
100
AcDbEntity
  8
1
 62
     1
100
AcDbLine
 10
52.96751160810589
 20
0.7892872530914959
 30
0.0
 11
53.20900825218288
 21
0.5956804245252031
 31
0.0
  0
LINE
  5
492
330
18
100
AcDbEntity
  8
1
 62
     1
100
AcDbLine
 10
53.20900825218288
 20
0.5956804245252031
 30
0.0
 11
53.3307920371906
 21
0.5085343557737065
 31
0.0
  0
LINE
  5
493
330
18
100
AcDbEntity
  8
1
 62
     1
100
AcDbLine
 10
53.3307920371906
 20
0.5085343557737065
 30
0.0
 11
53.45323298090685
 21
0.4280451740987975
 31
0.0
  0
LINE
  5
494
330
18
100
AcDbEntity
  8
1
 62
     1
100
AcDbLine
 10
53.45323298090685
 20
0.4280451740987975
 30
0.0
 11
53.57631489556898
 21
0.3543632443138401
 31
0.0
  0
LINE
  5
495
330
18
100
AcDbEntity
  8
1
 62
     1
100
AcDbLine
 10
53.57631489556898
 20
0.3543632443138401
 30
0.0
 11
53.7
 21
0.2876490289173724
 31
0.0
  0
LINE
  5
496
330
18
100
AcDbEntity
  8
1
 62
     1
100
AcDbLine
 10
52.72886752691898
 20
6.344972599452397
 30
0.0
 11
52.97824929276587
 21
6.026874613915005
 31
0.0
  0
LINE
  5
497
330
18
100
AcDbEntity
  8
1
 62
     1
100
AcDbLine
 10
52.97824929276587
 20
6.026874613915005
 30
0.0
 11
53.22495005733724
 21
5.735469042013674
 31
0.0
  0
LINE
  5
498
330
18
100
AcDbEntity
  8
1
 62
     1
100
AcDbLine
 10
53.22495005733724
 20
5.735469042013674
 30
0.0
 11
53.46657162474295
 21
5.473602792965645
 31
0.0
  0
LINE
  5
499
330
18
100
AcDbEntity
  8
1
 62
     1
100
AcDbLine
 10
53.46657162474295
 20
5.473602792965645
 30
0.0
 11
53.7
 21
5.243866176455622
 31
0.0
  0
LINE
  5
49A
330
18
100
AcDbEntity
  8
1
 62
     1
100
AcDbLine
 10
52.72886752691897
 20
6.344972599452391
 30
0.0
 11
52.72886752691898
 21
1.007574507874011
 31
0.0
  0
LINE
  5
49B
330
18
100
AcDbEntity
  8
1
 62
     1
100
AcDbLine
 10
52.67113247308104
 20
6.383439783314468
 30
0.0
 11
52.67113247308104
 21
1.070523074061403
 31
0.0
  0
LINE
  5
49C
330
18
100
AcDbEntity
  8
1
 62
     1
100
AcDbLine
 10
51.69999999999999
 20
6.003563661956097
 30
0.0
 11
51.7577705671351
 21
6.049414077069657
 31
0.0
  0
LINE
  5
49D
330
18
100
AcDbEntity
  8
1
 62
     1
100
AcDbLine
 10
51.7577705671351
 20
6.049414077069657
 30
0.0
 11
51.81609743471802
 21
6.092322378168213
 31
0.0
  0
LINE
  5
49E
330
18
100
AcDbEntity
  8
1
 62
     1
100
AcDbLine
 10
51.81609743471802
 20
6.092322378168213
 30
0.0
 11
51.87493256714564
 21
6.132279606502367
 31
0.0
  0
LINE
  5
49F
330
18
100
AcDbEntity
  8
1
 62
     1
100
AcDbLine
 10
51.87493256714564
 20
6.132279606502367
 30
0.0
 11
51.93424101956125
 21
6.169285736422706
 31
0.0
  0
LINE
  5
4A0
330
18
100
AcDbEntity
  8
1
 62
     1
100
AcDbLine
 10
51.93424101956125
 20
6.169285736422706
 30
0.0
 11
51.99397954495472
 21
6.203334921214451
 31
0.0
  0
LINE
  5
4A1
330
18
100
AcDbEntity
  8
1
 62
     1
100
AcDbLine
 10
51.99397954495472
 20
6.203334921214451
 30
0.0
 11
52.0541177103739
 21
6.234428682102119
 31
0.0
  0
LINE
  5
4A2
330
18
100
AcDbEntity
  8
1
 62
     1
100
AcDbLine
 10
52.0541177103739
 20
6.234428682102119
 30
0.0
 11
52.11462011543447
 21
6.262566325078581
 31
0.0
  0
LINE
  5
4A3
330
18
100
AcDbEntity
  8
1
 62
     1
100
AcDbLine
 10
52.11462011543447
 20
6.262566325078581
 30
0.0
 11
52.17545624767132
 21
6.287749114096504
 31
0.0
  0
LINE
  5
4A4
330
18
100
AcDbEntity
  8
1
 62
     1
100
AcDbLine
 10
52.17545624767132
 20
6.287749114096504
 30
0.0
 11
52.23660015429192
 21
6.309981412417222
 31
0.0
  0
LINE
  5
4A5
330
18
100
AcDbEntity
  8
1
 62
     1
100
AcDbLine
 10
52.23660015429192
 20
6.309981412417222
 30
0.0
 11
52.29802073652116
 21
6.32926531683601
 31
0.0
  0
LINE
  5
4A6
330
18
100
AcDbEntity
  8
1
 62
     1
100
AcDbLine
 10
52.29802073652116
 20
6.32926531683601
 30
0.0
 11
52.35969868497678
 21
6.34560786871318
 31
0.0
  0
LINE
  5
4A7
330
18
100
AcDbEntity
  8
1
 62
     1
100
AcDbLine
 10
52.35969868497678
 20
6.34560786871318
 30
0.0
 11
52.42160530340497
 21
6.359013898167571
 31
0.0
  0
LINE
  5
4A8
330
18
100
AcDbEntity
  8
1
 62
     1
100
AcDbLine
 10
52.42160530340497
 20
6.359013898167571
 30
0.0
 11
52.48372327614925
 21
6.369491358113317
 31
0.0
  0
LINE
  5
4A9
330
18
100
AcDbEntity
  8
1
 62
     1
100
AcDbLine
 10
52.48372327614925
 20
6.369491358113317
 30
0.0
 11
52.54602982681293
 21
6.377048638586583
 31
0.0
  0
LINE
  5
4AA
330
18
100
AcDbEntity
  8
1
 62
     1
100
AcDbLine
 10
52.54602982681293
 20
6.377048638586583
 30
0.0
 11
52.60850493635133
 21
6.381694520272787
 31
0.0
  0
LINE
  5
4AB
330
18
100
AcDbEntity
  8
1
 62
     1
100
AcDbLine
 10
52.60850493635133
 20
6.381694520272787
 30
0.0
 11
52.67113247308105
 21
6.383439783212321
 31
0.0
  0
LINE
  5
4AC
330
18
100
AcDbEntity
  8
1
 62
     1
100
AcDbLine
 10
60.72886752691896
 20
-6.614127244326856
 30
0.0
 11
61.20900813857736
 21
-6.094765238492068
 31
0.0
  0
LINE
  5
4AD
330
18
100
AcDbEntity
  8
1
 62
     1
100
AcDbLine
 10
61.20900813857736
 20
-6.094765238492068
 30
0.0
 11
61.70000000000001
 21
-5.493091004713786
 31
0.0
  0
LINE
  5
4AE
330
18
100
AcDbEntity
  8
1
 62
     1
100
AcDbLine
 10
61.70000000000001
 20
-5.493091004713786
 30
0.0
 11
61.70000000000001
 21
-0.7595827152457277
 31
0.0
  0
LINE
  5
4AF
330
18
100
AcDbEntity
  8
1
 62
     1
100
AcDbLine
 10
60.72886752691898
 20
-1.461340296602903
 30
0.0
 11
60.853767847005
 21
-1.40666553658193
 31
0.0
  0
LINE
  5
4B0
330
18
100
AcDbEntity
  8
1
 62
     1
100
AcDbLine
 10
60.853767847005
 20
-1.40666553658193
 30
0.0
 11
60.97824937900404
 21
-1.34275879760269
 31
0.0
  0
LINE
  5
4B1
330
18
100
AcDbEntity
  8
1
 62
     1
100
AcDbLine
 10
60.97824937900404
 20
-1.34275879760269
 30
0.0
 11
61.10206978489894
 21
-1.269487047956629
 31
0.0
  0
LINE
  5
4B2
330
18
100
AcDbEntity
  8
1
 62
     1
100
AcDbLine
 10
61.10206978489894
 20
-1.269487047956629
 30
0.0
 11
61.22495034077389
 21
-1.186735942793102
 31
0.0
  0
LINE
  5
4B3
330
18
100
AcDbEntity
  8
1
 62
     1
100
AcDbLine
 10
61.22495034077389
 20
-1.186735942793102
 30
0.0
 11
61.34657200919096
 21
-1.094414325524556
 31
0.0
  0
LINE
  5
4B4
330
18
100
AcDbEntity
  8
1
 62
     1
100
AcDbLine
 10
61.34657200919096
 20
-1.094414325524556
 30
0.0
 11
61.46657158235612
 21
-0.9924591373668792
 31
0.0
  0
LINE
  5
4B5
330
18
100
AcDbEntity
  8
1
 62
     1
100
AcDbLine
 10
61.46657158235612
 20
-0.9924591373668792
 30
0.0
 11
61.58453783599133
 21
-0.8808414377129552
 31
0.0
  0
LINE
  5
4B6
330
18
100
AcDbEntity
  8
1
 62
     1
100
AcDbLine
 10
61.58453783599133
 20
-0.8808414377129552
 30
0.0
 11
61.70000000000002
 21
-0.7595827152456638
 31
0.0
  0
LINE
  5
4B7
330
18
100
AcDbEntity
  8
1
 62
     1
100
AcDbLine
 10
60.72886752691898
 20
-1.461340296602931
 30
0.0
 11
60.72886752691898
 21
-6.614127244326863
 31
0.0
  0
ARC
  5
4B8
330
18
100
AcDbEntity
  8
1
 62
     1
100
AcDbCircle
 10
391.3882901753771
 20
147.4748582838042
 30
0.0
 40
363.4467467278672
100
AcDbArc
 50
204.8902394318436
 51
205.2028357543888
  0
ARC
  5
4B9
330
18
100
AcDbEntity
  8
1
 62
     1
100
AcDbCircle
 10
1002.300348908428
 20
333.3207477479052
 30
0.0
 40
998.1677217872236
100
AcDbArc
 50
199.5539071176972
 51
199.69745696718
  0
LINE
  5
4BA
330
18
100
AcDbEntity
  8
1
 62
     1
100
AcDbLine
 10
54.72886752691898
 20
-1.184602459793776
 30
0.0
 11
54.84782880705232
 21
-1.239891475993782
 31
0.0
  0
LINE
  5
4BB
330
18
100
AcDbEntity
  8
1
 62
     1
100
AcDbLine
 10
54.84782880705232
 20
-1.239891475993782
 30
0.0
 11
54.96751155462533
 21
-1.288607008114988
 31
0.0
  0
LINE
  5
4BC
330
18
100
AcDbEntity
  8
1
 62
     1
100
AcDbLine
 10
54.96751155462533
 20
-1.288607008114988
 30
0.0
 11
55.08791364164308
 21
-1.330631687821644
 31
0.0
  0
LINE
  5
4BD
330
18
100
AcDbEntity
  8
1
 62
     1
100
AcDbLine
 10
55.08791364164308
 20
-1.330631687821644
 30
0.0
 11
55.20900814181491
 21
-1.365844708406148
 31
0.0
  0
LINE
  5
4BE
330
18
100
AcDbEntity
  8
1
 62
     1
100
AcDbLine
 10
55.20900814181491
 20
-1.365844708406148
 30
0.0
 11
55.33079200551757
 21
-1.394137160228555
 31
0.0
  0
LINE
  5
4BF
330
18
100
AcDbEntity
  8
1
 62
     1
100
AcDbLine
 10
55.33079200551757
 20
-1.394137160228555
 30
0.0
 11
55.45323299078454
 21
-1.415396502702009
 31
0.0
  0
LINE
  5
4C0
330
18
100
AcDbEntity
  8
1
 62
     1
100
AcDbLine
 10
55.45323299078454
 20
-1.415396502702009
 30
0.0
 11
55.57631495744965
 21
-1.429521269026578
 31
0.0
  0
LINE
  5
4C1
330
18
100
AcDbEntity
  8
1
 62
     1
100
AcDbLine
 10
55.57631495744965
 20
-1.429521269026578
 30
0.0
 11
55.7
 21
-1.436410056400188
 31
0.0
  0
LINE
  5
4C2
330
18
100
AcDbEntity
  8
1
 62
     1
100
AcDbLine
 10
55.7
 20
-1.436410056400504
 30
0.0
 11
55.7
 21
4.090367715152078
 31
0.0
  0
ARC
  5
4C3
330
18
100
AcDbEntity
  8
1
 62
     1
100
AcDbCircle
 10
58.18622164600609
 20
8.348555427721253
 30
0.0
 40
4.965759425559334
100
AcDbArc
 50
225.8741384730785
 51
230.4751747254687
  0
LINE
  5
4C4
330
18
100
AcDbEntity
  8
1
 62
     1
100
AcDbLine
 10
54.72886752691898
 20
4.784063538913134
 30
0.0
 11
54.72886752691898
 21
-1.184602459793844
 31
0.0
  0
ARC
  5
4C5
330
18
100
AcDbEntity
  8
1
 62
     1
100
AcDbCircle
 10
34.43627166836067
 20
-14.0973151981558
 30
0.0
 40
24.74776989379449
100
AcDbArc
 50
26.04746193858763
 51
30.77052607321851
  0
LINE
  5
4C6
330
18
100
AcDbEntity
  8
1
 62
     1
100
AcDbLine
 10
56.67113247308102
 20
2.923068760738997
 30
0.0
 11
56.67113247308104
 21
-3.229839653966457
 31
0.0
  0
LINE
  5
4C7
330
18
100
AcDbEntity
  8
1
 62
     1
100
AcDbLine
 10
60.67113247308102
 20
-1.398877105712963
 30
0.0
 11
60.67113247308102
 21
-6.578205392450626
 31
0.0
  0
ARC
  5
4C8
330
18
100
AcDbEntity
  8
1
 62
     1
100
AcDbCircle
 10
-16.16926597958524
 20
-31.49555211867784
 30
0.0
 40
82.52426952991023
100
AcDbArc
 50
21.38917380749845
 51
23.16775892502961
  0
LINE
  5
4C9
330
18
100
AcDbEntity
  8
1
 62
     1
100
AcDbLine
 10
59.70000000000001
 20
-4.439544296158596
 30
0.0
 11
59.70000000000001
 21
0.9715338129432745
 31
0.0
  0
LINE
  5
4CA
330
18
100
AcDbEntity
  8
1
 62
     1
100
AcDbLine
 10
58.72886752691899
 20
-5.144129012461298
 30
0.0
 11
58.84782879126785
 21
-5.077824208054394
 31
0.0
  0
LINE
  5
4CB
330
18
100
AcDbEntity
  8
1
 62
     1
100
AcDbLine
 10
58.84782879126785
 20
-5.077824208054394
 30
0.0
 11
58.96751155948524
 21
-5.005304680415872
 31
0.0
  0
LINE
  5
4CC
330
18
100
AcDbEntity
  8
1
 62
     1
100
AcDbLine
 10
58.96751155948524
 20
-5.005304680415872
 30
0.0
 11
59.20900821447442
 21
-4.841576484499545
 31
0.0
  0
LINE
  5
4CD
330
18
100
AcDbEntity
  8
1
 62
     1
100
AcDbLine
 10
59.20900821447442
 20
-4.841576484499545
 30
0.0
 11
59.45323300703154
 21
-4.6529467716308
 31
0.0
  0
LINE
  5
4CE
330
18
100
AcDbEntity
  8
1
 62
     1
100
AcDbLine
 10
59.45323300703154
 20
-4.6529467716308
 30
0.0
 11
59.70000000000002
 21
-4.4395442961586
 31
0.0
  0
LINE
  5
4CF
330
18
100
AcDbEntity
  8
1
 62
     1
100
AcDbLine
 10
58.72886752691898
 20
0.7286293448000357
 30
0.0
 11
58.72886752691898
 21
-5.144129012461303
 31
0.0
  0
ARC
  5
4D0
330
18
100
AcDbEntity
  8
1
 62
     1
100
AcDbCircle
 10
12.24344048555818
 20
-25.90176529853041
 30
0.0
 40
50.87624227143942
100
AcDbArc
 50
24.13938169598142
 51
26.68681956524789
  0
LINE
  5
4D1
330
18
100
AcDbEntity
  8
1
 62
     1
100
AcDbLine
 10
57.70000000000002
 20
-3.052598181083876
 30
0.0
 11
57.70000000000002
 21
2.629693932197702
 31
0.0
  0
LINE
  5
4D2
330
18
100
AcDbEntity
  8
1
 62
     1
100
AcDbLine
 10
50.67113247308105
 20
7.452704247271694
 30
0.0
 11
50.67113247308106
 21
3.182432198083647
 31
0.0
  0
LINE
  5
4D3
330
18
100
AcDbEntity
  8
1
 62
     1
100
AcDbLine
 10
49.7
 20
6.312407599957558
 30
0.0
 11
49.81609767937556
 21
6.493282468737521
 31
0.0
  0
LINE
  5
4D4
330
18
100
AcDbEntity
  8
1
 62
     1
100
AcDbLine
 10
49.81609767937556
 20
6.493282468737521
 30
0.0
 11
49.93424158659631
 21
6.663372194180777
 31
0.0
  0
LINE
  5
4D5
330
18
100
AcDbEntity
  8
1
 62
     1
100
AcDbLine
 10
49.93424158659631
 20
6.663372194180777
 30
0.0
 11
50.05411842112018
 21
6.822569697099643
 31
0.0
  0
LINE
  5
4D6
330
18
100
AcDbEntity
  8
1
 62
     1
100
AcDbLine
 10
50.05411842112018
 20
6.822569697099643
 30
0.0
 11
50.17545669879178
 21
6.970786974118694
 31
0.0
  0
LINE
  5
4D7
330
18
100
AcDbEntity
  8
1
 62
     1
100
AcDbLine
 10
50.17545669879178
 20
6.970786974118694
 30
0.0
 11
50.29802070049874
 21
7.10795438081271
 31
0.0
  0
LINE
  5
4D8
330
18
100
AcDbEntity
  8
1
 62
     1
100
AcDbLine
 10
50.29802070049874
 20
7.10795438081271
 30
0.0
 11
50.42160498596544
 21
7.23401925180965
 31
0.0
  0
LINE
  5
4D9
330
18
100
AcDbEntity
  8
1
 62
     1
100
AcDbLine
 10
50.42160498596544
 20
7.23401925180965
 30
0.0
 11
50.54602963685437
 21
7.348944408150835
 31
0.0
  0
LINE
  5
4DA
330
18
100
AcDbEntity
  8
1
 62
     1
100
AcDbLine
 10
50.54602963685437
 20
7.348944408150835
 30
0.0
 11
50.67113247308105
 21
7.452704247271704
 31
0.0
  0
LINE
  5
4DB
330
18
100
AcDbEntity
  8
1
 62
     1
100
AcDbLine
 10
49.70000000000001
 20
3.543111772489818
 30
0.0
 11
49.7
 21
6.312407599957557
 31
0.0
  0
LINE
  5
4DC
330
18
100
AcDbEntity
  8
1
 62
     1
100
AcDbLine
 10
48.72886752691898
 20
5.005985822986429
 30
0.0
 11
49.20900820133483
 21
4.240581169435019
 31
0.0
  0
LINE
  5
4DD
330
18
100
AcDbEntity
  8
1
 62
     1
100
AcDbLine
 10
49.20900820133483
 20
4.240581169435019
 30
0.0
 11
49.70000000000001
 21
3.543111772489818
 31
0.0
  0
ARC
  5
4DE
330
18
100
AcDbEntity
  8
1
 62
     1
100
AcDbCircle
 10
229.4831560554056
 20
113.7403170247919
 30
0.0
 40
209.433757683431
100
AcDbArc
 50
210.3378298214094
 51
210.8600724004768
  0
LINE
  5
4DF
330
18
100
AcDbEntity
  8
1
 62
     1
100
AcDbLine
 10
48.72886752691897
 20
7.955881116350325
 30
0.0
 11
48.72886752691897
 21
5.005985822986433
 31
0.0
  0
LINE
  5
4E0
330
18
100
AcDbEntity
  8
1
 62
     1
100
AcDbLine
 10
48.67113247308102
 20
7.96228886822996
 30
0.0
 11
48.67113247308103
 21
5.055348746182025
 31
0.0
  0
ARC
  5
4E1
330
18
100
AcDbEntity
  8
1
 62
     1
100
AcDbCircle
 10
75.13141018111632
 20
21.77740300054827
 30
0.0
 40
32.24487251174628
100
AcDbArc
 50
208.2566020415166
 51
211.7081340688238
  0
LINE
  5
4E2
330
18
100
AcDbEntity
  8
1
 62
     1
100
AcDbLine
 10
47.70000000000001
 20
4.830038486862108
 30
0.0
 11
47.7
 21
6.317950000000001
 31
0.0
  0
LINE
  5
4E3
330
18
100
AcDbEntity
  8
1
 62
     1
100
AcDbLine
 10
46.72886752691898
 20
8.0
 30
0.0
 11
46.72886752691897
 21
7.999686634104277
 31
0.0
  0
LINE
  5
4E4
330
18
100
AcDbEntity
  8
1
 62
     1
100
AcDbLine
 10
46.72886752691897
 20
7.999686634104277
 30
0.0
 11
46.72886752691897
 21
7.904453720574017
 31
0.0
  0
LINE
  5
4E5
330
18
100
AcDbEntity
  8
1
 62
     1
100
AcDbLine
 10
46.72886752691897
 20
7.904453720574017
 30
0.0
 11
46.72886752691898
 21
6.511948436580345
 31
0.0
  0
LINE
  5
4E6
330
18
100
AcDbEntity
  8
1
 62
     1
100
AcDbLine
 10
50.72886752691898
 20
3.124085814239371
 30
0.0
 11
50.96751162161424
 21
2.807908267149433
 31
0.0
  0
LINE
  5
4E7
330
18
100
AcDbEntity
  8
1
 62
     1
100
AcDbLine
 10
50.96751162161424
 20
2.807908267149433
 30
0.0
 11
51.20900814589722
 21
2.512470680457457
 31
0.0
  0
LINE
  5
4E8
330
18
100
AcDbEntity
  8
1
 62
     1
100
AcDbLine
 10
51.20900814589722
 20
2.512470680457457
 30
0.0
 11
51.45323294513589
 21
2.239342235960319
 31
0.0
  0
LINE
  5
4E9
330
18
100
AcDbEntity
  8
1
 62
     1
100
AcDbLine
 10
51.45323294513589
 20
2.239342235960319
 30
0.0
 11
51.7
 21
1.990106845959367
 31
0.0
  0
LINE
  5
4EA
330
18
100
AcDbEntity
  8
1
 62
     1
100
AcDbLine
 10
51.7
 20
1.990106845959434
 30
0.0
 11
51.70000000000001
 21
6.003563661956089
 31
0.0
  0
ARC
  5
4EB
330
18
100
AcDbEntity
  8
1
 62
     1
100
AcDbCircle
 10
72.13636646664581
 20
20.96469688189966
 30
0.0
 40
25.32753932498441
100
AcDbArc
 50
212.3039125818369
 51
216.2072545847838
  0
LINE
  5
4EC
330
18
100
AcDbEntity
  8
1
 62
     1
100
AcDbLine
 10
50.72886752691897
 20
7.429391657267035
 30
0.0
 11
50.72886752691897
 21
3.12408581423937
 31
0.0
  0
LINE
  5
4ED
330
18
100
AcDbEntity
  8
1
 62
     1
100
AcDbLine
 10
45.7
 20
5.754240891053811
 30
0.0
 11
45.94558812255104
 21
5.995911203494551
 31
0.0
  0
LINE
  5
4EE
330
18
100
AcDbEntity
  8
1
 62
     1
100
AcDbLine
 10
45.94558812255104
 20
5.995911203494551
 30
0.0
 11
46.1894203348775
 21
6.208990907545822
 31
0.0
  0
LINE
  5
4EF
330
18
100
AcDbEntity
  8
1
 62
     1
100
AcDbLine
 10
46.1894203348775
 20
6.208990907545822
 30
0.0
 11
46.31061716085793
 21
6.304733348934177
 31
0.0
  0
LINE
  5
4F0
330
18
100
AcDbEntity
  8
1
 62
     1
100
AcDbLine
 10
46.31061716085793
 20
6.304733348934177
 30
0.0
 11
46.43131453435345
 21
6.393258524094418
 31
0.0
  0
LINE
  5
4F1
330
18
100
AcDbEntity
  8
1
 62
     1
100
AcDbLine
 10
46.43131453435345
 20
6.393258524094418
 30
0.0
 11
46.55149177000158
 21
6.474554625828477
 31
0.0
  0
LINE
  5
4F2
330
18
100
AcDbEntity
  8
1
 62
     1
100
AcDbLine
 10
46.55149177000158
 20
6.474554625828477
 30
0.0
 11
46.67113247308104
 21
6.548620588214343
 31
0.0
  0
LINE
  5
4F3
330
18
100
AcDbEntity
  8
1
 62
     1
100
AcDbLine
 10
46.67113247308103
 20
8.0
 30
0.0
 11
46.67113247308103
 21
7.999694164002325
 31
0.0
  0
LINE
  5
4F4
330
18
100
AcDbEntity
  8
1
 62
     1
100
AcDbLine
 10
46.67113247308103
 20
7.999694164002325
 30
0.0
 11
46.67113247308102
 21
7.906803967275178
 31
0.0
  0
LINE
  5
4F5
330
18
100
AcDbEntity
  8
1
 62
     1
100
AcDbLine
 10
46.67113247308102
 20
7.906803967275178
 30
0.0
 11
46.67113247308102
 21
6.548620588214356
 31
0.0
  0
ARC
  5
4F6
330
18
100
AcDbEntity
  8
1
 62
     1
100
AcDbCircle
 10
106.3133478471279
 20
40.05975456625998
 30
0.0
 40
69.64837870081358
100
AcDbArc
 50
207.8444339141487
 51
209.5086860841221
  0
LINE
  5
4F7
330
18
100
AcDbEntity
  8
1
 62
     1
100
AcDbLine
 10
45.7
 20
5.754240891053808
 30
0.0
 11
45.7
 21
6.317950000000001
 31
0.0
  0
LINE
  5
4F8
330
18
100
AcDbEntity
  8
1
 62
     1
100
AcDbLine
 10
44.72886752691898
 20
8.0
 30
0.0
 11
44.72886752691898
 21
7.999896687413258
 31
0.0
  0
LINE
  5
4F9
330
18
100
AcDbEntity
  8
1
 62
     1
100
AcDbLine
 10
44.72886752691898
 20
7.999896687413258
 30
0.0
 11
44.72886752691898
 21
7.969170353484436
 31
0.0
  0
LINE
  5
4FA
330
18
100
AcDbEntity
  8
1
 62
     1
100
AcDbLine
 10
44.72886752691898
 20
7.969170353484436
 30
0.0
 11
44.72886752691898
 21
7.528880282376291
 31
0.0
  0
ARC
  5
4FB
330
18
100
AcDbEntity
  8
1
 62
     1
100
AcDbCircle
 10
-36971.55072385073
 20
-20713.3510246102
 30
0.0
 40
42419.69442214035
100
AcDbArc
 50
29.23828707959854
 51
29.24097158448024
  0
LINE
  5
4FC
330
18
100
AcDbEntity
  8
1
 62
     1
100
AcDbLine
 10
42.72886752691898
 20
8.0
 30
0.0
 11
42.72886752691898
 21
7.999995345633069
 31
0.0
  0
LINE
  5
4FD
330
18
100
AcDbEntity
  8
1
 62
     1
100
AcDbLine
 10
42.72886752691898
 20
7.999995345633069
 30
0.0
 11
42.72886752691898
 21
7.998645334269115
 31
0.0
  0
LINE
  5
4FE
330
18
100
AcDbEntity
  8
1
 62
     1
100
AcDbLine
 10
42.72886752691898
 20
7.998645334269115
 30
0.0
 11
42.72886752691898
 21
7.98041152913166
 31
0.0
  0
LINE
  5
4FF
330
18
100
AcDbEntity
  8
1
 62
     1
100
AcDbLine
 10
43.7
 20
6.246314114656206
 30
0.0
 11
44.18942023081463
 21
6.946845825307136
 31
0.0
  0
LINE
  5
500
330
18
100
AcDbEntity
  8
1
 62
     1
100
AcDbLine
 10
44.18942023081463
 20
6.946845825307136
 30
0.0
 11
44.43131439158509
 21
7.260945630010838
 31
0.0
  0
LINE
  5
501
330
18
100
AcDbEntity
  8
1
 62
     1
100
AcDbLine
 10
44.43131439158509
 20
7.260945630010838
 30
0.0
 11
44.67113247308103
 21
7.550107745689887
 31
0.0
  0
LINE
  5
502
330
18
100
AcDbEntity
  8
1
 62
     1
100
AcDbLine
 10
44.67113247308103
 20
8.0
 30
0.0
 11
44.67113247308103
 21
7.99990116987423
 31
0.0
  0
LINE
  5
503
330
18
100
AcDbEntity
  8
1
 62
     1
100
AcDbLine
 10
44.67113247308103
 20
7.99990116987423
 30
0.0
 11
44.67113247308103
 21
7.970527623126541
 31
0.0
  0
LINE
  5
504
330
18
100
AcDbEntity
  8
1
 62
     1
100
AcDbLine
 10
44.67113247308103
 20
7.970527623126541
 30
0.0
 11
44.67113247308102
 21
7.550107745695652
 31
0.0
  0
LINE
  5
505
330
18
100
AcDbEntity
  8
1
 62
     1
100
AcDbLine
 10
43.7
 20
6.246314114656208
 30
0.0
 11
43.7
 21
6.317949999106211
 31
0.0
  0
ARC
  5
506
330
18
100
AcDbEntity
  8
1
 62
     1
100
AcDbCircle
 10
89.73524654574447
 20
27.12965569290467
 30
0.0
 40
36.52559194994932
100
AcDbArc
 50
225.7808975204099
 51
228.0240364805048
  0
ARC
  5
507
330
18
100
AcDbEntity
  8
1
 62
     1
100
AcDbCircle
 10
60.1835900646734
 20
-2.570314746292257
 30
0.0
 40
5.388798236307162
100
AcDbArc
 50
40.81884987904777
 51
49.26584557876604
  0
LINE
  5
508
330
18
100
AcDbEntity
  8
1
 62
     1
100
AcDbLine
 10
60.72886752691898
 20
4.50036896219112
 30
0.0
 11
60.67113247308105
 21
4.552714993795821
 31
0.0
  0
ARC
  5
509
330
18
100
AcDbEntity
  8
1
 62
     1
100
AcDbCircle
 10
60.29683147275389
 20
2.652337510573531
 30
0.0
 40
1.937038393983641
100
AcDbArc
 50
78.8575680389815
 51
107.9450045130344
  0
LINE
  5
50A
330
18
100
AcDbEntity
  8
1
 62
     1
100
AcDbLine
 10
58.72886752691897
 20
6.126821092797959
 30
0.0
 11
58.67113247308104
 21
6.167450597829166
 31
0.0
  0
LINE
  5
50B
330
18
100
AcDbEntity
  8
1
 62
     1
100
AcDbLine
 10
56.72886752691896
 20
7.293164061214222
 30
0.0
 11
56.67113247308102
 21
7.319025605206329
 31
0.0
  0
LINE
  5
50C
330
18
100
AcDbEntity
  8
1
 62
     1
100
AcDbLine
 10
54.72886752691899
 20
7.91180870675287
 30
0.0
 11
54.67113247308104
 21
7.92096024389558
 31
0.0
  0
LINE
  5
50D
330
18
100
AcDbEntity
  8
1
 62
     1
100
AcDbLine
 10
52.72886752691899
 20
7.936295959901625
 30
0.0
 11
52.67113247308104
 21
7.928050223598622
 31
0.0
  0
ARC
  5
50E
330
18
100
AcDbEntity
  8
1
 62
     1
100
AcDbCircle
 10
120.258315300344
 20
-27.24248938579698
 30
0.0
 40
76.19086945320426
100
AcDbArc
 50
152.5087520807301
 51
154.1246402046919
  0
ARC
  5
50F
330
18
100
AcDbEntity
  8
1
 62
     1
100
AcDbCircle
 10
64.39143021781909
 20
4.660832375321431
 30
0.0
 40
1.358611061702033
100
AcDbArc
 50
95.46593819946979
 51
120.5904954309301
  0
LINE
  5
510
330
18
100
AcDbEntity
  8
1
 62
     1
100
AcDbLine
 10
64.26204555548568
 20
6.012968505024117
 30
0.0
 11
64.26204555548568
 21
0.95245577050556
 31
0.0
  0
ARC
  5
511
330
18
100
AcDbEntity
  8
1
 62
     1
100
AcDbCircle
 10
77.41701618099171
 20
16.75404538559012
 30
0.0
 40
17.53533841879726
100
AcDbArc
 50
214.2471087046389
 51
218.5322668392362
  0
LINE
  5
512
330
18
100
AcDbEntity
  8
1
 62
     1
100
AcDbLine
 10
62.92195636944637
 20
6.88578096939123
 30
0.0
 11
62.92195636944636
 21
2.299136262177941
 31
0.0
  0
ARC
  5
513
330
18
100
AcDbEntity
  8
1
 62
     1
100
AcDbCircle
 10
68.02804209975633
 20
6.561760610517252
 30
0.0
 40
6.651337082851031
100
AcDbArc
 50
219.8555521411951
 51
228.9499287644405
  0
LINE
  5
514
330
18
100
AcDbEntity
  8
1
 62
     1
100
AcDbLine
 10
63.70000000000001
 20
1.512962935144813
 30
0.0
 11
63.70000000000002
 21
5.830419789556939
 31
0.0
  0
LINE
  5
515
330
18
100
AcDbEntity
  8
1
 62
     1
100
AcDbLine
 10
65.30626342954099
 20
6.999878975049221
 30
0.0
 11
65.27914544900503
 21
7.007492090443773
 31
0.0
  0
LINE
  5
516
330
18
100
AcDbEntity
  8
1
 62
     1
100
AcDbLine
 10
65.27914544900503
 20
7.007492090443766
 30
0.0
 11
65.30626342954098
 21
6.999921426863561
 31
0.0
  0
ARC
  5
517
330
18
100
AcDbEntity
  8
1
 62
     1
100
AcDbCircle
 10
63.14155912571191
 20
0.5335591618334439
 30
0.0
 40
6.782642249857207
100
AcDbArc
 50
91.85539929603581
 51
95.09116823745913
  0
ARC
  5
518
330
18
100
AcDbEntity
  8
1
 62
     1
100
AcDbCircle
 10
68.91229271177805
 20
8.945632225521802
 30
0.0
 40
5.126261015252045
100
AcDbArc
 50
225.2965018894885
 51
231.196275786455
  0
ARC
  5
519
330
18
100
AcDbEntity
  8
1
 62
     1
100
AcDbCircle
 10
66.6994607424101
 20
2.432938037892783
 30
0.0
 40
2.824761906218305
100
AcDbArc
 50
240.4485494823227
 51
249.2779128478736
  0
LINE
  5
51A
330
18
100
AcDbEntity
  8
1
 62
     1
100
AcDbLine
 10
46.67113247308103
 20
-7.873925321624452
 30
0.0
 11
46.67113247308103
 21
-8.0
 31
0.0
  0
LINE
  5
51B
330
18
100
AcDbEntity
  8
1
 62
     1
100
AcDbLine
 10
44.67113247308102
 20
-7.194248892461882
 30
0.0
 11
44.67113247308103
 21
-8.0
 31
0.0
  0
LINE
  5
51C
330
18
100
AcDbEntity
  8
1
 62
     1
100
AcDbLine
 10
42.7
 20
-5.995367495562452
 30
0.0
 11
42.7
 21
-8.0
 31
0.0
  0
LINE
  5
51D
330
18
100
AcDbEntity
  8
1
 62
     1
100
AcDbLine
 10
57.7
 20
5.531558238628915
 30
0.0
 11
57.94558813246152
 21
5.735014789322471
 31
0.0
  0
LINE
  5
51E
330
18
100
AcDbEntity
  8
1
 62
     1
100
AcDbLine
 10
57.94558813246152
 20
5.735014789322471
 30
0.0
 11
58.06773651800776
 21
5.825640498196422
 31
0.0
  0
LINE
  5
51F
330
18
100
AcDbEntity
  8
1
 62
     1
100
AcDbLine
 10
58.06773651800776
 20
5.825640498196422
 30
0.0
 11
58.18942016117577
 21
5.908843328717696
 31
0.0
  0
LINE
  5
520
330
18
100
AcDbEntity
  8
1
 62
     1
100
AcDbLine
 10
58.18942016117577
 20
5.908843328717696
 30
0.0
 11
58.31061699214868
 21
5.984618499571463
 31
0.0
  0
LINE
  5
521
330
18
100
AcDbEntity
  8
1
 62
     1
100
AcDbLine
 10
58.31061699214868
 20
5.984618499571463
 30
0.0
 11
58.43131445687308
 21
6.052972069452403
 31
0.0
  0
LINE
  5
522
330
18
100
AcDbEntity
  8
1
 62
     1
100
AcDbLine
 10
58.43131445687308
 20
6.052972069452403
 30
0.0
 11
58.55149178369506
 21
6.113910543198077
 31
0.0
  0
LINE
  5
523
330
18
100
AcDbEntity
  8
1
 62
     1
100
AcDbLine
 10
58.55149178369506
 20
6.113910543198077
 30
0.0
 11
58.67113247308104
 21
6.167450597829163
 31
0.0
  0
LINE
  5
524
330
18
100
AcDbEntity
  8
1
 62
     1
100
AcDbLine
 10
58.67113247308102
 20
8.0
 30
0.0
 11
58.67113247308103
 21
7.99961571297492
 31
0.0
  0
LINE
  5
525
330
18
100
AcDbEntity
  8
1
 62
     1
100
AcDbLine
 10
58.67113247308103
 20
7.99961571297492
 30
0.0
 11
58.67113247308103
 21
7.882229728857959
 31
0.0
  0
LINE
  5
526
330
18
100
AcDbEntity
  8
1
 62
     1
100
AcDbLine
 10
58.67113247308103
 20
7.882229728857959
 30
0.0
 11
58.67113247308102
 21
6.16745059782916
 31
0.0
  0
LINE
  5
527
330
18
100
AcDbEntity
  8
1
 62
     1
100
AcDbLine
 10
55.7
 20
6.152496920143272
 30
0.0
 11
55.94558813174853
 21
6.48255111616354
 31
0.0
  0
LINE
  5
528
330
18
100
AcDbEntity
  8
1
 62
     1
100
AcDbLine
 10
55.94558813174853
 20
6.48255111616354
 30
0.0
 11
56.18942034177579
 21
6.78735711202647
 31
0.0
  0
LINE
  5
529
330
18
100
AcDbEntity
  8
1
 62
     1
100
AcDbLine
 10
56.18942034177579
 20
6.78735711202647
 30
0.0
 11
56.43131452745935
 21
7.066331359380305
 31
0.0
  0
LINE
  5
52A
330
18
100
AcDbEntity
  8
1
 62
     1
100
AcDbLine
 10
56.43131452745935
 20
7.066331359380305
 30
0.0
 11
56.67113247308103
 21
7.319025605206328
 31
0.0
  0
LINE
  5
52B
330
18
100
AcDbEntity
  8
1
 62
     1
100
AcDbLine
 10
56.67113247308103
 20
8.0
 30
0.0
 11
56.67113247308103
 21
7.999852761306006
 31
0.0
  0
LINE
  5
52C
330
18
100
AcDbEntity
  8
1
 62
     1
100
AcDbLine
 10
56.67113247308103
 20
7.999852761306006
 30
0.0
 11
56.67113247308103
 21
7.955806011459162
 31
0.0
  0
LINE
  5
52D
330
18
100
AcDbEntity
  8
1
 62
     1
100
AcDbLine
 10
56.67113247308103
 20
7.955806011459162
 30
0.0
 11
56.67113247308104
 21
7.319025605206328
 31
0.0
  0
LINE
  5
52E
330
18
100
AcDbEntity
  8
1
 62
     1
100
AcDbLine
 10
54.72886752691898
 20
8.0
 30
0.0
 11
54.72886752691898
 21
7.999979606516225
 31
0.0
  0
LINE
  5
52F
330
18
100
AcDbEntity
  8
1
 62
     1
100
AcDbLine
 10
54.72886752691898
 20
7.999979606516225
 30
0.0
 11
54.72886752691898
 21
7.99401931597789
 31
0.0
  0
LINE
  5
530
330
18
100
AcDbEntity
  8
1
 62
     1
100
AcDbLine
 10
54.72886752691898
 20
7.99401931597789
 30
0.0
 11
54.72886752691899
 21
7.911808706752869
 31
0.0
  0
ARC
  5
531
330
18
100
AcDbEntity
  8
1
 62
     1
100
AcDbCircle
 10
261.3720659048694
 20
120.7824861475433
 30
0.0
 40
235.4594972029244
100
AcDbArc
 50
208.6438288659425
 51
209.1328256118498
  0
LINE
  5
532
330
18
100
AcDbEntity
  8
1
 62
     1
100
AcDbLine
 10
55.7
 20
6.152496920143196
 30
0.0
 11
55.7
 21
6.317950000000001
 31
0.0
  0
LINE
  5
533
330
18
100
AcDbEntity
  8
1
 62
     1
100
AcDbLine
 10
61.70000000000001
 20
6.272122950102307
 30
0.0
 11
61.80072077274399
 21
6.407938417807797
 31
0.0
  0
LINE
  5
534
330
18
100
AcDbEntity
  8
1
 62
     1
100
AcDbLine
 10
61.80072077274399
 20
6.407938417807797
 30
0.0
 11
61.90301742535414
 21
6.535340655255033
 31
0.0
  0
LINE
  5
535
330
18
100
AcDbEntity
  8
1
 62
     1
100
AcDbLine
 10
61.90301742535414
 20
6.535340655255033
 30
0.0
 11
62.00668052525889
 21
6.654273988666183
 31
0.0
  0
LINE
  5
536
330
18
100
AcDbEntity
  8
1
 62
     1
100
AcDbLine
 10
62.00668052525889
 20
6.654273988666183
 30
0.0
 11
62.11152509127547
 21
6.764693596240872
 31
0.0
  0
LINE
  5
537
330
18
100
AcDbEntity
  8
1
 62
     1
100
AcDbLine
 10
62.11152509127547
 20
6.764693596240872
 30
0.0
 11
62.21738365805132
 21
6.866561389701292
 31
0.0
  0
LINE
  5
538
330
18
100
AcDbEntity
  8
1
 62
     1
100
AcDbLine
 10
62.21738365805132
 20
6.866561389701292
 30
0.0
 11
62.32410962349952
 21
6.959852461159117
 31
0.0
  0
LINE
  5
539
330
18
100
AcDbEntity
  8
1
 62
     1
100
AcDbLine
 10
62.32410962349952
 20
6.959852461159117
 30
0.0
 11
62.43157456470412
 21
7.044553122059946
 31
0.0
  0
LINE
  5
53A
330
18
100
AcDbEntity
  8
1
 62
     1
100
AcDbLine
 10
62.43157456470412
 20
7.044553122059946
 30
0.0
 11
62.53966247385088
 21
7.120657193005288
 31
0.0
  0
LINE
  5
53B
330
18
100
AcDbEntity
  8
1
 62
     1
100
AcDbLine
 10
61.70000000000002
 20
3.121288742880496
 30
0.0
 11
61.70000000000001
 21
6.272122950102299
 31
0.0
  0
LINE
  5
53C
330
18
100
AcDbEntity
  8
1
 62
     1
100
AcDbLine
 10
61.7
 20
3.121288742880495
 30
0.0
 11
61.80613488606166
 21
3.08858326399027
 31
0.0
  0
LINE
  5
53D
330
18
100
AcDbEntity
  8
1
 62
     1
100
AcDbLine
 10
61.80613488606166
 20
3.08858326399027
 30
0.0
 11
61.91196262323906
 21
3.049917389113204
 31
0.0
  0
LINE
  5
53E
330
18
100
AcDbEntity
  8
1
 62
     1
100
AcDbLine
 10
61.91196262323906
 20
3.049917389113204
 30
0.0
 11
62.01747139653126
 21
3.005356556651197
 31
0.0
  0
LINE
  5
53F
330
18
100
AcDbEntity
  8
1
 62
     1
100
AcDbLine
 10
62.01747139653126
 20
3.005356556651197
 30
0.0
 11
62.12263736169021
 21
2.954976167508234
 31
0.0
  0
LINE
  5
540
330
18
100
AcDbEntity
  8
1
 62
     1
100
AcDbLine
 10
62.12263736169021
 20
2.954976167508234
 30
0.0
 11
62.22745542152943
 21
2.898846126428371
 31
0.0
  0
LINE
  5
541
330
18
100
AcDbEntity
  8
1
 62
     1
100
AcDbLine
 10
62.22745542152943
 20
2.898846126428371
 30
0.0
 11
62.33190447667954
 21
2.837047487959138
 31
0.0
  0
LINE
  5
542
330
18
100
AcDbEntity
  8
1
 62
     1
100
AcDbLine
 10
62.33190447667954
 20
2.837047487959138
 30
0.0
 11
62.43597945318547
 21
2.769656643656092
 31
0.0
  0
LINE
  5
543
330
18
100
AcDbEntity
  8
1
 62
     1
100
AcDbLine
 10
62.43597945318547
 20
2.769656643656092
 30
0.0
 11
62.53966247385087
 21
2.696760096313855
 31
0.0
  0
ARC
  5
544
330
18
100
AcDbEntity
  8
1
 62
     1
100
AcDbCircle
 10
128.0579184774267
 20
47.83620658706882
 30
0.0
 40
78.29992020058049
100
AcDbArc
 50
210.6960635544728
 51
212.0614684130673
  0
LINE
  5
545
330
18
100
AcDbEntity
  8
1
 62
     1
100
AcDbLine
 10
60.72886752691898
 20
7.865397926203386
 30
0.0
 11
60.72886752691898
 21
4.50036896219112
 31
0.0
  0
LINE
  5
546
330
18
100
AcDbEntity
  8
1
 62
     1
100
AcDbLine
 10
60.72886752691898
 20
4.500368962191125
 30
0.0
 11
61.20900813857736
 21
3.773512882616072
 31
0.0
  0
LINE
  5
547
330
18
100
AcDbEntity
  8
1
 62
     1
100
AcDbLine
 10
61.20900813857736
 20
3.773512882616072
 30
0.0
 11
61.45323295060854
 21
3.437207823673831
 31
0.0
  0
LINE
  5
548
330
18
100
AcDbEntity
  8
1
 62
     1
100
AcDbLine
 10
61.45323295060854
 20
3.437207823673831
 30
0.0
 11
61.7
 21
3.121288742880495
 31
0.0
  0
LINE
  5
549
330
18
100
AcDbEntity
  8
1
 62
     1
100
AcDbLine
 10
56.72886752691898
 20
8.0
 30
0.0
 11
56.72886752691898
 21
7.999847386901271
 31
0.0
  0
LINE
  5
54A
330
18
100
AcDbEntity
  8
1
 62
     1
100
AcDbLine
 10
56.72886752691898
 20
7.999847386901271
 30
0.0
 11
56.72886752691898
 21
7.954163559579587
 31
0.0
  0
LINE
  5
54B
330
18
100
AcDbEntity
  8
1
 62
     1
100
AcDbLine
 10
56.72886752691898
 20
7.954163559579587
 30
0.0
 11
56.72886752691898
 21
7.293164061214218
 31
0.0
  0
ARC
  5
54C
330
18
100
AcDbEntity
  8
1
 62
     1
100
AcDbCircle
 10
104.321916589578
 20
32.36693119754671
 30
0.0
 40
53.7939033703474
100
AcDbArc
 50
207.7819094735866
 51
209.9245440392267
  0
LINE
  5
54D
330
18
100
AcDbEntity
  8
1
 62
     1
100
AcDbLine
 10
57.70000000000001
 20
5.531558238628915
 30
0.0
 11
57.70000000000001
 21
6.317950000000001
 31
0.0
  0
ARC
  5
54E
330
18
100
AcDbEntity
  8
1
 62
     1
100
AcDbCircle
 10
82.19369914942985
 20
-9.604783659657116
 30
0.0
 40
32.63764176322393
100
AcDbArc
 50
150.0132890734707
 51
150.8128847854189
  0
LINE
  5
54F
330
18
100
AcDbEntity
  8
1
 62
     1
100
AcDbLine
 10
54.67113247308103
 20
8.0
 30
0.0
 11
54.67113247308104
 21
7.999981675431243
 31
0.0
  0
LINE
  5
550
330
18
100
AcDbEntity
  8
1
 62
     1
100
AcDbLine
 10
54.67113247308104
 20
7.999981675431243
 30
0.0
 11
54.67113247308104
 21
7.994630068226384
 31
0.0
  0
LINE
  5
551
330
18
100
AcDbEntity
  8
1
 62
     1
100
AcDbLine
 10
54.67113247308104
 20
7.994630068226384
 30
0.0
 11
54.67113247308104
 21
7.920960243895577
 31
0.0
  0
ARC
  5
552
330
18
100
AcDbEntity
  8
1
 62
     1
100
AcDbCircle
 10
-13.74085631208533
 20
-32.87287516161761
 30
0.0
 40
77.99758174357048
100
AcDbArc
 50
30.15730936342758
 51
31.54789718203077
  0
LINE
  5
553
330
18
100
AcDbEntity
  8
1
 62
     1
100
AcDbLine
 10
58.72886752691898
 20
8.0
 30
0.0
 11
58.72886752691897
 21
7.999607317664085
 31
0.0
  0
LINE
  5
554
330
18
100
AcDbEntity
  8
1
 62
     1
100
AcDbLine
 10
58.72886752691897
 20
7.999607317664085
 30
0.0
 11
58.72886752691898
 21
7.8795889937558
 31
0.0
  0
LINE
  5
555
330
18
100
AcDbEntity
  8
1
 62
     1
100
AcDbLine
 10
58.72886752691898
 20
7.8795889937558
 30
0.0
 11
58.72886752691897
 21
6.126821092797955
 31
0.0
  0
ARC
  5
556
330
18
100
AcDbEntity
  8
1
 62
     1
100
AcDbCircle
 10
82.26774767879657
 20
19.01971008223299
 30
0.0
 40
26.83838711779815
100
AcDbArc
 50
208.7107270406377
 51
212.7651437522152
  0
LINE
  5
557
330
18
100
AcDbEntity
  8
1
 62
     1
100
AcDbLine
 10
59.70000000000001
 20
4.495212858691529
 30
0.0
 11
59.70000000000001
 21
6.317950000000001
 31
0.0
  0
ARC
  5
558
330
18
100
AcDbEntity
  8
1
 62
     1
100
AcDbCircle
 10
30.30736674627719
 20
-8.109759702299378
 30
0.0
 40
25.62438184454638
100
AcDbArc
 50
33.61882362028979
 51
35.97263038079277
  0
LINE
  5
559
330
18
100
AcDbEntity
  8
1
 62
     1
100
AcDbLine
 10
41.61867778746993
 20
-6.064361695416505
 30
0.0
 11
41.54529946000001
 21
-5.925681677484656
 31
0.0
  0
ARC
  5
55A
330
18
100
AcDbEntity
  8
1
 62
     1
100
AcDbCircle
 10
76.67301026769894
 20
12.34513766297787
 30
0.0
 40
39.59435406314782
100
AcDbArc
 50
207.7071279151454
 51
209.8760841641003
  0
LINE
  5
55B
330
18
100
AcDbEntity
  8
1
 62
     1
100
AcDbLine
 10
65.70000000000002
 20
6.125162196074852
 30
0.0
 11
65.70000000000002
 21
6.314492899957533
 31
0.0
  0
ARC
  5
55C
330
18
100
AcDbEntity
  8
1
 62
     1
100
AcDbCircle
 10
62.9032635707928
 20
-1.448662300718301
 30
0.0
 40
8.783548790222175
100
AcDbArc
 50
74.30650527562533
 51
81.10063312799132
  0
ARC
  5
55D
330
18
100
AcDbEntity
  8
1
 62
     1
100
AcDbCircle
 10
119.1448400897911
 20
-21.63213016672598
 30
0.0
 40
62.00881570869331
100
AcDbArc
 50
152.2615622493774
 51
153.3987251403054
  0
ARC
  5
55E
330
18
100
AcDbEntity
  8
1
 62
     1
100
AcDbCircle
 10
35.31771450973569
 20
-11.74917508812239
 30
0.0
 40
33.54624036502319
100
AcDbArc
 50
32.21447658177969
 51
34.6266135578233
  0
LINE
  5
55F
330
18
100
AcDbEntity
  8
1
 62
     1
100
AcDbLine
 10
65.30626342954098
 20
6.999921426861031
 30
0.0
 11
65.30626342954096
 21
6.999921426133615
 31
0.0
  0
LINE
  5
560
330
18
100
AcDbEntity
  8
1
 62
     1
100
AcDbLine
 10
65.30626342954096
 20
6.999921426133615
 30
0.0
 11
65.30626342954098
 21
6.999921238624689
 31
0.0
  0
LINE
  5
561
330
18
100
AcDbEntity
  8
1
 62
     1
100
AcDbLine
 10
65.30626342954098
 20
6.999921238624689
 30
0.0
 11
65.30626342954099
 21
6.99987897504922
 31
0.0
  0
ARC
  5
562
330
18
100
AcDbEntity
  8
1
 62
     1
100
AcDbCircle
 10
-165.6966162225485
 20
-126.1523330339523
 30
0.0
 40
266.6305381617393
100
AcDbArc
 50
29.78969445922169
 51
29.95954906912903
  0
LINE
  5
563
330
18
100
AcDbEntity
  8
1
 62
     1
100
AcDbLine
 10
58.67113247308103
 20
-7.960716509516066
 30
0.0
 11
58.67113247308102
 21
-8.0
 31
0.0
  0
LINE
  5
564
330
18
100
AcDbEntity
  8
1
 62
     1
100
AcDbLine
 10
54.67113247308103
 20
-6.373754522562443
 30
0.0
 11
54.67113247308103
 21
-8.0
 31
0.0
  0
LINE
  5
565
330
18
100
AcDbEntity
  8
1
 62
     1
100
AcDbLine
 10
50.67113247308105
 20
-2.908126442006686
 30
0.0
 11
50.67113247308105
 21
-7.339763300311569
 31
0.0
  0
LINE
  5
566
330
18
100
AcDbEntity
  8
1
 62
     1
100
AcDbLine
 10
48.67113247308103
 20
-0.7758582208504874
 30
0.0
 11
48.67113247308103
 21
-6.200278143315493
 31
0.0
  0
LINE
  5
567
330
18
100
AcDbEntity
  8
1
 62
     1
100
AcDbLine
 10
46.67113247308103
 20
1.414673117536807
 30
0.0
 11
46.67113247308103
 21
-4.595167939435401
 31
0.0
  0
LINE
  5
568
330
18
100
AcDbEntity
  8
1
 62
     1
100
AcDbLine
 10
44.67113247308103
 20
3.498968829999935
 30
0.0
 11
44.67113247308104
 21
-2.644971271750689
 31
0.0
  0
LINE
  5
569
330
18
100
AcDbEntity
  8
1
 62
     1
100
AcDbLine
 10
42.7
 20
5.296750758073581
 30
0.0
 11
42.7
 21
-0.5278226239910043
 31
0.0
  0
LINE
  5
56A
330
18
100
AcDbEntity
  8
1
 62
     1
100
AcDbLine
 10
62.4202243861557
 20
7.036036924953009
 30
0.0
 11
62.53966247385088
 21
7.289440048591073
 31
0.0
  0
LINE
  5
56B
330
18
100
AcDbEntity
  8
1
 62
     1
100
AcDbLine
 10
51.70000000000001
 20
-6.003563661956094
 30
0.0
 11
51.70585960577879
 21
-6.008369899864602
 31
0.0
  0
ARC
  5
56C
330
18
100
AcDbEntity
  8
1
 62
     1
100
AcDbCircle
 10
74.19942715699293
 20
-22.30920730075308
 30
0.0
 40
27.78985344766455
100
AcDbArc
 50
146.4282427275933
 51
147.6262066550339
  0
LINE
  5
56D
330
18
100
AcDbEntity
  8
1
 62
     1
100
AcDbLine
 10
51.64590656073481
 20
-6.077639484859316
 30
0.0
 11
51.70000000000001
 21
-6.003563661956094
 31
0.0
  0
LINE
  5
56E
330
18
100
AcDbEntity
  8
1
 62
     1
100
AcDbLine
 10
46.72886752691898
 20
-7.884903808121639
 30
0.0
 11
46.72886752691898
 21
-8.0
 31
0.0
  0
LINE
  5
56F
330
18
100
AcDbEntity
  8
1
 62
     1
100
AcDbLine
 10
47.7
 20
-6.317950000000001
 30
0.0
 11
46.72886752691898
 21
-7.999999999999995
 31
0.0
  0
LINE
  5
570
330
18
100
AcDbEntity
  8
1
 62
     1
100
AcDbLine
 10
47.7
 20
-6.317950000000001
 30
0.0
 11
47.7
 21
-6.317911505156889
 31
0.0
  0
LINE
  5
571
330
18
100
AcDbEntity
  8
1
 62
     1
100
AcDbLine
 10
47.7
 20
-6.317911505156889
 30
0.0
 11
47.7
 21
-6.306573292844226
 31
0.0
  0
LINE
  5
572
330
18
100
AcDbEntity
  8
1
 62
     1
100
AcDbLine
 10
47.7
 20
-6.306573292844226
 30
0.0
 11
47.7
 21
-6.147205537581923
 31
0.0
  0
LINE
  5
573
330
18
100
AcDbEntity
  8
1
 62
     1
100
AcDbLine
 10
48.34713446481452
 20
-7.43881924978199
 30
0.0
 11
47.7
 21
-6.317950000000001
 31
0.0
  0
ARC
  5
574
330
18
100
AcDbEntity
  8
1
 62
     1
100
AcDbCircle
 10
56.83334166495057
 20
-2.549860623220505
 30
0.0
 40
9.793741668405563
100
AcDbArc
 50
209.9465216275839
 51
213.5486863202872
  0
ARC
  5
575
330
18
100
AcDbEntity
  8
1
 62
     1
100
AcDbCircle
 10
229.4831560566102
 20
-113.7403170255044
 30
0.0
 40
209.4337576848306
100
AcDbArc
 50
149.139927599525
 51
149.6621701785889
  0
LINE
  5
576
330
18
100
AcDbEntity
  8
1
 62
     1
100
AcDbLine
 10
49.7
 20
-6.312407599957558
 30
0.0
 11
49.81609767937557
 21
-6.49328246873752
 31
0.0
  0
LINE
  5
577
330
18
100
AcDbEntity
  8
1
 62
     1
100
AcDbLine
 10
49.81609767937557
 20
-6.49328246873752
 30
0.0
 11
49.93424158659631
 21
-6.663372194180778
 31
0.0
  0
LINE
  5
578
330
18
100
AcDbEntity
  8
1
 62
     1
100
AcDbLine
 10
49.93424158659631
 20
-6.663372194180778
 30
0.0
 11
50.05411842112019
 21
-6.822569697099649
 31
0.0
  0
LINE
  5
579
330
18
100
AcDbEntity
  8
1
 62
     1
100
AcDbLine
 10
50.05411842112019
 20
-6.822569697099649
 30
0.0
 11
50.17545669879177
 21
-6.970786974118699
 31
0.0
  0
LINE
  5
57A
330
18
100
AcDbEntity
  8
1
 62
     1
100
AcDbLine
 10
50.17545669879177
 20
-6.970786974118699
 30
0.0
 11
50.29802070049875
 21
-7.107954380812715
 31
0.0
  0
LINE
  5
57B
330
18
100
AcDbEntity
  8
1
 62
     1
100
AcDbLine
 10
50.29802070049875
 20
-7.107954380812715
 30
0.0
 11
50.42160498596542
 21
-7.234019251809652
 31
0.0
  0
LINE
  5
57C
330
18
100
AcDbEntity
  8
1
 62
     1
100
AcDbLine
 10
50.42160498596542
 20
-7.234019251809652
 30
0.0
 11
50.54602963685438
 21
-7.348944408150841
 31
0.0
  0
LINE
  5
57D
330
18
100
AcDbEntity
  8
1
 62
     1
100
AcDbLine
 10
50.54602963685438
 20
-7.348944408150841
 30
0.0
 11
50.67113247308104
 21
-7.4527042472717
 31
0.0
  0
ARC
  5
57E
330
18
100
AcDbEntity
  8
1
 62
     1
100
AcDbCircle
 10
90.19430898489526
 20
10.61972473086485
 30
0.0
 40
48.88449042110706
100
AcDbArc
 50
197.9908201032684
 51
201.3712299238233
  0
ARC
  5
57F
330
18
100
AcDbEntity
  8
1
 62
     1
100
AcDbCircle
 10
32.24502052289863
 20
1.682995861123561
 30
0.0
 40
13.00732188301118
100
AcDbArc
 50
323.7064541884764
 51
331.7229541844756
  0
LINE
  5
580
330
18
100
AcDbEntity
  8
1
 62
     1
100
AcDbLine
 10
42.72886752691897
 20
-6.016337308251458
 30
0.0
 11
42.72886752691898
 21
-8.0
 31
0.0
  0
LINE
  5
581
330
18
100
AcDbEntity
  8
1
 62
     1
100
AcDbLine
 10
43.7
 20
-6.317950000000001
 30
0.0
 11
42.72886752691898
 21
-7.999999999999995
 31
0.0
  0
LINE
  5
582
330
18
100
AcDbEntity
  8
1
 62
     1
100
AcDbLine
 10
43.7
 20
-6.317950000000001
 30
0.0
 11
43.70000000000001
 21
-6.317565034341003
 31
0.0
  0
LINE
  5
583
330
18
100
AcDbEntity
  8
1
 62
     1
100
AcDbLine
 10
43.70000000000001
 20
-6.317565034341003
 30
0.0
 11
43.7
 21
-6.199208517081055
 31
0.0
  0
LINE
  5
584
330
18
100
AcDbEntity
  8
1
 62
     1
100
AcDbLine
 10
43.7
 20
-6.199208517081055
 30
0.0
 11
43.70000000000001
 21
-4.478956715742866
 31
0.0
  0
ARC
  5
585
330
18
100
AcDbEntity
  8
1
 62
     1
100
AcDbCircle
 10
41.05892091381959
 20
0.3350999375876993
 30
0.0
 40
0.7773743425865851
100
AcDbArc
 50
43.9408022018241
 51
50.54986732336387
  0
LINE
  5
586
330
18
100
AcDbEntity
  8
1
 62
     1
100
AcDbLine
 10
41.55285587185159
 20
0.9353546109836217
 30
0.0
 11
41.5528189286013
 21
0.9353847750953178
 31
0.0
  0
ARC
  5
587
330
18
100
AcDbEntity
  8
1
 62
     1
100
AcDbCircle
 10
24.34456863619382
 20
5.551565788676731
 30
0.0
 40
24.05562835965879
100
AcDbArc
 50
327.927625257121
 51
332.5950823170533
  0
LINE
  5
588
330
18
100
AcDbEntity
  8
1
 62
     1
100
AcDbLine
 10
44.72886752691897
 20
-7.22178913280288
 30
0.0
 11
44.72886752691898
 21
-8.0
 31
0.0
  0
LINE
  5
589
330
18
100
AcDbEntity
  8
1
 62
     1
100
AcDbLine
 10
45.7
 20
-6.317950000000001
 30
0.0
 11
44.72886752691898
 21
-7.999999999999995
 31
0.0
  0
LINE
  5
58A
330
18
100
AcDbEntity
  8
1
 62
     1
100
AcDbLine
 10
45.7
 20
-6.317950000000001
 30
0.0
 11
45.7
 21
-6.31778003967887
 31
0.0
  0
LINE
  5
58B
330
18
100
AcDbEntity
  8
1
 62
     1
100
AcDbLine
 10
45.7
 20
-6.31778003967887
 30
0.0
 11
45.70000000000001
 21
-6.266562864768317
 31
0.0
  0
LINE
  5
58C
330
18
100
AcDbEntity
  8
1
 62
     1
100
AcDbLine
 10
45.70000000000001
 20
-6.266562864768317
 30
0.0
 11
45.7
 21
-5.520363933781894
 31
0.0
  0
LINE
  5
58D
330
18
100
AcDbEntity
  8
1
 62
     1
100
AcDbLine
 10
44.72886752691898
 20
-2.704803448246377
 30
0.0
 11
44.67113247308103
 21
-2.6449712717014
 31
0.0
  0
LINE
  5
58E
330
18
100
AcDbEntity
  8
1
 62
     1
100
AcDbLine
 10
42.72886752691897
 20
-0.5594924711678086
 30
0.0
 11
42.7
 21
-0.5278226239909914
 31
0.0
  0
LINE
  5
58F
330
18
100
AcDbEntity
  8
1
 62
     1
100
AcDbLine
 10
41.61867778746993
 20
0.8745343092377318
 30
0.0
 11
41.89237936272216
 21
0.5730160446256554
 31
0.0
  0
LINE
  5
590
330
18
100
AcDbEntity
  8
1
 62
     1
100
AcDbLine
 10
41.89237936272216
 20
0.5730160446256554
 30
0.0
 11
42.16399620372856
 21
0.2374275779848263
 31
0.0
  0
LINE
  5
591
330
18
100
AcDbEntity
  8
1
 62
     1
100
AcDbLine
 10
42.16399620372856
 20
0.2374275779848263
 30
0.0
 11
42.43325860873664
 21
-0.1301946644183594
 31
0.0
  0
LINE
  5
592
330
18
100
AcDbEntity
  8
1
 62
     1
100
AcDbLine
 10
42.43325860873664
 20
-0.1301946644183594
 30
0.0
 11
42.7
 21
-0.527822623990972
 31
0.0
  0
ARC
  5
593
330
18
100
AcDbEntity
  8
1
 62
     1
100
AcDbCircle
 10
82.19586236852649
 20
9.606011252282949
 30
0.0
 40
32.640128971871
100
AcDbArc
 50
209.1871447131939
 51
209.9866794943123
  0
LINE
  5
594
330
18
100
AcDbEntity
  8
1
 62
     1
100
AcDbLine
 10
52.72886752691897
 20
-7.936295962878525
 30
0.0
 11
52.67113247308105
 21
-7.928050223598619
 31
0.0
  0
ARC
  5
595
330
18
100
AcDbEntity
  8
1
 62
     1
100
AcDbCircle
 10
120.4238844681916
 20
27.32613742504785
 30
0.0
 40
76.37636191952416
100
AcDbArc
 50
205.8675688744115
 51
207.4895778052106
  0
LINE
  5
596
330
18
100
AcDbEntity
  8
1
 62
     1
100
AcDbLine
 10
50.72886752691899
 20
-7.364787018323641
 30
0.0
 11
50.67113247308104
 21
-7.339763300311565
 31
0.0
  0
ARC
  5
597
330
18
100
AcDbEntity
  8
1
 62
     1
100
AcDbCircle
 10
-22672.95523372497
 20
-10466.7506543226
 30
0.0
 40
25015.24451056746
100
AcDbArc
 50
24.71604465603204
 51
24.72136230627272
  0
LINE
  5
598
330
18
100
AcDbEntity
  8
1
 62
     1
100
AcDbLine
 10
48.72886752691898
 20
-6.240200793248476
 30
0.0
 11
48.67113247308104
 21
-6.200278143315503
 31
0.0
  0
ARC
  5
599
330
18
100
AcDbEntity
  8
1
 62
     1
100
AcDbCircle
 10
-37.73464926448977
 20
-44.33846541879389
 30
0.0
 40
94.44797270062594
100
AcDbArc
 50
23.81592806802066
 51
25.2347071334837
  0
LINE
  5
59A
330
18
100
AcDbEntity
  8
1
 62
     1
100
AcDbLine
 10
46.72886752691898
 20
-4.646991237275876
 30
0.0
 11
46.67113247308103
 21
-4.595167939435412
 31
0.0
  0
LINE
  5
59B
330
18
100
AcDbEntity
  8
1
 62
     1
100
AcDbLine
 10
65.7
 20
6.314492899957535
 30
0.0
 11
65.7
 21
6.31795
 31
0.0
  0
LINE
  5
59C
330
18
100
AcDbEntity
  8
1
 62
     1
100
AcDbLine
 10
65.7
 20
-0.2089775559381379
 30
0.0
 11
65.7
 21
4.950877607011988
 31
0.0
  0
LINE
  5
59D
330
18
100
AcDbEntity
  8
1
 62
     1
100
AcDbLine
 10
65.7
 20
-6.31795
 30
0.0
 11
65.7
 21
-6.317447078793023
 31
0.0
  0
LINE
  5
59E
330
18
100
AcDbEntity
  8
1
 62
     1
100
AcDbLine
 10
65.7
 20
-6.317447078793023
 30
0.0
 11
65.7
 21
-6.161597018837054
 31
0.0
  0
LINE
  5
59F
330
18
100
AcDbEntity
  8
1
 62
     1
100
AcDbLine
 10
65.7
 20
-6.161597018837054
 30
0.0
 11
65.7
 21
-3.92495899633199
 31
0.0
  0
LINE
  5
5A0
330
18
100
AcDbEntity
  8
1
 62
     1
100
AcDbLine
 10
65.30626342954096
 20
-4.570205505137558
 30
0.0
 11
65.30626342954098
 21
-6.999921426863561
 31
0.0
  0
ARC
  5
5A1
330
18
100
AcDbEntity
  8
1
 62
     1
100
AcDbCircle
 10
63.14155303693936
 20
-0.5336723494262907
 30
0.0
 40
6.782528951955984
100
AcDbArc
 50
264.9087981446235
 51
268.1446211642042
  0
ARC
  5
5A2
330
18
100
AcDbEntity
  8
1
 62
     1
100
AcDbCircle
 10
71.11202880846417
 20
9.408402182428798
 30
0.0
 40
15.17651910744862
100
AcDbArc
 50
235.6085581765818
 51
237.3398939522093
  0
LINE
  5
5A3
330
18
100
AcDbEntity
  8
1
 62
     1
100
AcDbLine
 10
62.53966247385087
 20
-3.115235525410031
 30
0.0
 11
62.53966247385088
 21
-7.289440048591056
 31
0.0
  0
LINE
  5
5A4
330
18
100
AcDbEntity
  8
1
 62
     1
100
AcDbLine
 10
58.67113247308102
 20
0.7918286778832448
 30
0.0
 11
58.67113247308102
 21
-5.095346222126286
 31
0.0
  0
LINE
  5
5A5
330
18
100
AcDbEntity
  8
1
 62
     1
100
AcDbLine
 10
56.72886752691898
 20
2.863880760438505
 30
0.0
 11
56.72886752691898
 21
-3.287819638637927
 31
0.0
  0
LINE
  5
5A6
330
18
100
AcDbEntity
  8
1
 62
     1
100
AcDbLine
 10
54.67113247308104
 20
4.834796095608856
 30
0.0
 11
54.67113247308103
 21
-1.121779307451203
 31
0.0
  0
LINE
  5
5A7
330
18
100
AcDbEntity
  8
1
 62
     1
100
AcDbLine
 10
46.67113247308103
 20
8.0
 30
0.0
 11
46.72886752691898
 21
8.0
 31
0.0
  0
LINE
  5
5A8
330
18
100
AcDbEntity
  8
1
 62
     1
100
AcDbLine
 10
44.67113247308103
 20
8.0
 30
0.0
 11
44.72886752691898
 21
8.0
 31
0.0
  0
LINE
  5
5A9
330
18
100
AcDbEntity
  8
1
 62
     1
100
AcDbLine
 10
42.7
 20
8.0
 30
0.0
 11
42.7
 21
7.999995852133937
 31
0.0
  0
LINE
  5
5AA
330
18
100
AcDbEntity
  8
1
 62
     1
100
AcDbLine
 10
42.7
 20
7.999995852133937
 30
0.0
 11
42.70000000000001
 21
7.998793226273277
 31
0.0
  0
LINE
  5
5AB
330
18
100
AcDbEntity
  8
1
 62
     1
100
AcDbLine
 10
42.70000000000001
 20
7.998793226273277
 30
0.0
 11
42.70000000000001
 21
7.982568714242506
 31
0.0
  0
LINE
  5
5AC
330
18
100
AcDbEntity
  8
1
 62
     1
100
AcDbLine
 10
57.70000000000001
 20
-6.317950000000001
 30
0.0
 11
57.70000000000001
 21
-6.3178263477603
 31
0.0
  0
LINE
  5
5AD
330
18
100
AcDbEntity
  8
1
 62
     1
100
AcDbLine
 10
57.70000000000001
 20
-6.3178263477603
 30
0.0
 11
57.7
 21
-6.280794579813525
 31
0.0
  0
LINE
  5
5AE
330
18
100
AcDbEntity
  8
1
 62
     1
100
AcDbLine
 10
57.7
 20
-6.280794579813525
 30
0.0
 11
57.70000000000001
 21
-5.744667268472787
 31
0.0
  0
LINE
  5
5AF
330
18
100
AcDbEntity
  8
1
 62
     1
100
AcDbLine
 10
59.70000000000001
 20
-6.317950000000001
 30
0.0
 11
59.7
 21
-6.317932655572953
 31
0.0
  0
LINE
  5
5B0
330
18
100
AcDbEntity
  8
1
 62
     1
100
AcDbLine
 10
59.7
 20
-6.317932655572953
 30
0.0
 11
59.70000000000001
 21
-6.312860746927884
 31
0.0
  0
LINE
  5
5B1
330
18
100
AcDbEntity
  8
1
 62
     1
100
AcDbLine
 10
59.70000000000001
 20
-6.312860746927884
 30
0.0
 11
59.70000000000001
 21
-6.242804998781229
 31
0.0
  0
ARC
  5
5B2
330
18
100
AcDbEntity
  8
1
 62
     1
100
AcDbCircle
 10
67.11062224787705
 20
-3.013710493215907
 30
0.0
 40
8.06987286151429
100
AcDbArc
 50
209.8089312544606
 51
217.0597274516911
  0
LINE
  5
5B3
330
18
100
AcDbEntity
  8
1
 62
     1
100
AcDbLine
 10
60.10842230184033
 20
-7.025357847902535
 30
0.0
 11
59.70000000000001
 21
-6.317950000000001
 31
0.0
  0
LINE
  5
5B4
330
18
100
AcDbEntity
  8
1
 62
     1
100
AcDbLine
 10
56.67113247308104
 20
-7.446856317936555
 30
0.0
 11
56.67113247308103
 21
-8.0
 31
0.0
  0
ARC
  5
5B5
330
18
100
AcDbEntity
  8
1
 62
     1
100
AcDbCircle
 10
42.03062408033971
 20
2.408265652262482
 30
0.0
 40
15.46090705796933
100
AcDbArc
 50
325.2161952407619
 51
332.1464287761195
  0
LINE
  5
5B6
330
18
100
AcDbEntity
  8
1
 62
     1
100
AcDbLine
 10
54.72886752691898
 20
-6.411921401237054
 30
0.0
 11
54.72886752691898
 21
-8.0
 31
0.0
  0
LINE
  5
5B7
330
18
100
AcDbEntity
  8
1
 62
     1
100
AcDbLine
 10
55.7
 20
-6.317950000000001
 30
0.0
 11
54.72886752691898
 21
-7.999999999999995
 31
0.0
  0
LINE
  5
5B8
330
18
100
AcDbEntity
  8
1
 62
     1
100
AcDbLine
 10
55.7
 20
-6.317950000000001
 30
0.0
 11
55.7
 21
-6.317635021973005
 31
0.0
  0
LINE
  5
5B9
330
18
100
AcDbEntity
  8
1
 62
     1
100
AcDbLine
 10
55.7
 20
-6.317635021973005
 30
0.0
 11
55.7
 21
-6.221326572543756
 31
0.0
  0
LINE
  5
5BA
330
18
100
AcDbEntity
  8
1
 62
     1
100
AcDbLine
 10
55.7
 20
-6.221326572543756
 30
0.0
 11
55.69999999999999
 21
-4.815120367897537
 31
0.0
  0
LINE
  5
5BB
330
18
100
AcDbEntity
  8
1
 62
     1
100
AcDbLine
 10
61.70000000000001
 20
-6.272122950102306
 30
0.0
 11
61.87460367262023
 21
-6.500978889608152
 31
0.0
  0
LINE
  5
5BC
330
18
100
AcDbEntity
  8
1
 62
     1
100
AcDbLine
 10
61.87460367262023
 20
-6.500978889608152
 30
0.0
 11
61.96356020330961
 21
-6.606008566997396
 31
0.0
  0
LINE
  5
5BD
330
18
100
AcDbEntity
  8
1
 62
     1
100
AcDbLine
 10
61.96356020330961
 20
-6.606008566997396
 30
0.0
 11
62.05344608117322
 21
-6.704724001658189
 31
0.0
  0
LINE
  5
5BE
330
18
100
AcDbEntity
  8
1
 62
     1
100
AcDbLine
 10
62.05344608117322
 20
-6.704724001658189
 30
0.0
 11
62.1441509328677
 21
-6.797101362878459
 31
0.0
  0
LINE
  5
5BF
330
18
100
AcDbEntity
  8
1
 62
     1
100
AcDbLine
 10
62.1441509328677
 20
-6.797101362878459
 30
0.0
 11
62.23557670849969
 21
-6.883123186467772
 31
0.0
  0
LINE
  5
5C0
330
18
100
AcDbEntity
  8
1
 62
     1
100
AcDbLine
 10
62.23557670849969
 20
-6.883123186467772
 30
0.0
 11
62.3276275629697
 21
-6.962770390120767
 31
0.0
  0
LINE
  5
5C1
330
18
100
AcDbEntity
  8
1
 62
     1
100
AcDbLine
 10
62.3276275629697
 20
-6.962770390120767
 30
0.0
 11
62.42022438615579
 21
-7.036036924952923
 31
0.0
  0
ARC
  5
5C2
330
18
100
AcDbEntity
  8
1
 62
     1
100
AcDbCircle
 10
128.0579184772324
 20
-47.83620658695125
 30
0.0
 40
78.29992020035345
100
AcDbArc
 50
147.9385315869301
 51
149.3039364455286
  0
ARC
  5
5C3
330
18
100
AcDbEntity
  8
1
 62
     1
100
AcDbCircle
 10
206.6109580017433
 20
49.18038483170719
 30
0.0
 40
163.1367774709277
100
AcDbArc
 50
198.2722100157048
 51
199.3309683153755
  0
LINE
  5
5C4
330
18
100
AcDbEntity
  8
1
 62
     1
100
AcDbLine
 10
52.67113247308104
 20
-4.822001299543404
 30
0.0
 11
52.67113247308104
 21
-7.928050223598615
 31
0.0
  0
ARC
  5
5C5
330
18
100
AcDbEntity
  8
1
 62
     1
100
AcDbCircle
 10
46.47608877127866
 20
0.6509987911335289
 30
0.0
 40
8.343137384502459
100
AcDbArc
 50
318.5436458995962
 51
329.9747785156457
  0
LINE
  5
5C6
330
18
100
AcDbEntity
  8
1
 62
     1
100
AcDbLine
 10
52.72886752691898
 20
-4.872506820128478
 30
0.0
 11
52.72886752691899
 21
-7.93629596292139
 31
0.0
  0
ARC
  5
5C7
330
18
100
AcDbEntity
  8
1
 62
     1
100
AcDbCircle
 10
-13.74085631208645
 20
32.87287516161798
 30
0.0
 40
77.99758174357164
100
AcDbArc
 50
328.4521028179694
 51
329.8426906365726
  0
ARC
  5
5C8
330
18
100
AcDbEntity
  8
1
 62
     1
100
AcDbCircle
 10
124.5885653647785
 20
19.05081446574047
 30
0.0
 40
74.39636523995621
100
AcDbArc
 50
197.66431114809
 51
199.9831412172036
  0
LINE
  5
5C9
330
18
100
AcDbEntity
  8
1
 62
     1
100
AcDbLine
 10
53.7
 20
-6.311398437641447
 30
0.0
 11
53.7
 21
-5.554206934370272
 31
0.0
  0
LINE
  5
5CA
330
18
100
AcDbEntity
  8
1
 62
     1
100
AcDbLine
 10
53.7
 20
-5.554206934370272
 30
0.0
 11
53.7
 21
-3.523969313987382
 31
0.0
  0
LINE
  5
5CB
330
18
100
AcDbEntity
  8
1
 62
     1
100
AcDbLine
 10
54.67113247308103
 20
-7.999999999999982
 30
0.0
 11
53.92489398727861
 21
-6.707477630665907
 31
0.0
  0
ARC
  5
5CC
330
18
100
AcDbEntity
  8
1
 62
     1
100
AcDbCircle
 10
31.77141967276077
 20
7.729492945920644
 30
0.0
 40
29.22133488796458
100
AcDbArc
 50
328.6582074277969
 51
332.5407060763163
  0
LINE
  5
5CD
330
18
100
AcDbEntity
  8
1
 62
     1
100
AcDbLine
 10
56.72886752691898
 20
-7.469818404083872
 30
0.0
 11
56.72886752691898
 21
-8.0
 31
0.0
  0
LINE
  5
5CE
330
18
100
AcDbEntity
  8
1
 62
     1
100
AcDbLine
 10
57.70000000000001
 20
-6.317950000000001
 30
0.0
 11
56.72886752691898
 21
-8.000000000000007
 31
0.0
  0
LINE
  5
5CF
330
18
100
AcDbEntity
  8
1
 62
     1
100
AcDbLine
 10
58.72886752691898
 20
-7.96674960557292
 30
0.0
 11
58.72886752691898
 21
-8.0
 31
0.0
  0
LINE
  5
5D0
330
18
100
AcDbEntity
  8
1
 62
     1
100
AcDbLine
 10
59.70000000000001
 20
-6.317950000000001
 30
0.0
 11
58.72886752691898
 21
-7.999999999999996
 31
0.0
  0
LINE
  5
5D1
330
18
100
AcDbEntity
  8
1
 62
     1
100
AcDbLine
 10
50.72886752691898
 20
-2.967177042734547
 30
0.0
 11
50.8537678461131
 21
-2.872618949494993
 31
0.0
  0
LINE
  5
5D2
330
18
100
AcDbEntity
  8
1
 62
     1
100
AcDbLine
 10
50.8537678461131
 20
-2.872618949494993
 30
0.0
 11
50.9782493744262
 21
-2.769469287456009
 31
0.0
  0
LINE
  5
5D3
330
18
100
AcDbEntity
  8
1
 62
     1
100
AcDbLine
 10
50.9782493744262
 20
-2.769469287456009
 30
0.0
 11
51.1020697866855
 21
-2.657664875618225
 31
0.0
  0
LINE
  5
5D4
330
18
100
AcDbEntity
  8
1
 62
     1
100
AcDbLine
 10
51.1020697866855
 20
-2.657664875618225
 30
0.0
 11
51.22495035990952
 21
-2.537161554582485
 31
0.0
  0
LINE
  5
5D5
330
18
100
AcDbEntity
  8
1
 62
     1
100
AcDbLine
 10
51.22495035990952
 20
-2.537161554582485
 30
0.0
 11
51.34657205092357
 21
-2.40793803214152
 31
0.0
  0
LINE
  5
5D6
330
18
100
AcDbEntity
  8
1
 62
     1
100
AcDbLine
 10
51.34657205092357
 20
-2.40793803214152
 30
0.0
 11
51.46657163883775
 21
-2.269999742356912
 31
0.0
  0
LINE
  5
5D7
330
18
100
AcDbEntity
  8
1
 62
     1
100
AcDbLine
 10
51.46657163883775
 20
-2.269999742356912
 30
0.0
 11
51.58453787814665
 21
-2.12338367035551
 31
0.0
  0
LINE
  5
5D8
330
18
100
AcDbEntity
  8
1
 62
     1
100
AcDbLine
 10
51.58453787814665
 20
-2.12338367035551
 30
0.0
 11
51.7
 21
-1.968175693209401
 31
0.0
  0
LINE
  5
5D9
330
18
100
AcDbEntity
  8
1
 62
     1
100
AcDbLine
 10
50.72886752691897
 20
-2.967177042734566
 30
0.0
 11
50.72886752691897
 21
-7.364787018323634
 31
0.0
  0
ARC
  5
5DA
330
18
100
AcDbEntity
  8
1
 62
     1
100
AcDbCircle
 10
32.34640769980116
 20
6.697294074603986
 30
0.0
 40
23.144375579406
100
AcDbArc
 50
322.5849958220994
 51
326.7399543469031
  0
LINE
  5
5DB
330
18
100
AcDbEntity
  8
1
 62
     1
100
AcDbLine
 10
51.7
 20
-5.996329455939308
 30
0.0
 11
51.7
 21
-1.968175693209537
 31
0.0
  0
LINE
  5
5DC
330
18
100
AcDbEntity
  8
1
 62
     1
100
AcDbLine
 10
46.72886752691897
 20
1.352143460091726
 30
0.0
 11
46.72886752691897
 21
-4.646991237275873
 31
0.0
  0
LINE
  5
5DD
330
18
100
AcDbEntity
  8
1
 62
     1
100
AcDbLine
 10
46.72886752691896
 20
-4.646991237275867
 30
0.0
 11
46.84782884566642
 21
-4.597700359502507
 31
0.0
  0
LINE
  5
5DE
330
18
100
AcDbEntity
  8
1
 62
     1
100
AcDbLine
 10
46.84782884566642
 20
-4.597700359502507
 30
0.0
 11
46.96751165676695
 21
-4.542022380049348
 31
0.0
  0
LINE
  5
5DF
330
18
100
AcDbEntity
  8
1
 62
     1
100
AcDbLine
 10
46.96751165676695
 20
-4.542022380049348
 30
0.0
 11
47.08791376082597
 21
-4.479925318792219
 31
0.0
  0
LINE
  5
5E0
330
18
100
AcDbEntity
  8
1
 62
     1
100
AcDbLine
 10
47.08791376082597
 20
-4.479925318792219
 30
0.0
 11
47.20900821691529
 21
-4.411395884650136
 31
0.0
  0
LINE
  5
5E1
330
18
100
AcDbEntity
  8
1
 62
     1
100
AcDbLine
 10
47.20900821691529
 20
-4.411395884650136
 30
0.0
 11
47.33079199948849
 21
-4.336412375014112
 31
0.0
  0
LINE
  5
5E2
330
18
100
AcDbEntity
  8
1
 62
     1
100
AcDbLine
 10
47.33079199948849
 20
-4.336412375014112
 30
0.0
 11
47.45323294312811
 21
-4.254974532966815
 31
0.0
  0
LINE
  5
5E3
330
18
100
AcDbEntity
  8
1
 62
     1
100
AcDbLine
 10
47.45323294312811
 20
-4.254974532966815
 30
0.0
 11
47.7
 21
-4.072741143005628
 31
0.0
  0
LINE
  5
5E4
330
18
100
AcDbEntity
  8
1
 62
     1
100
AcDbLine
 10
47.7
 20
-4.072741143005628
 30
0.0
 11
47.70000000000001
 21
1.458888714474861
 31
0.0
  0
ARC
  5
5E5
330
18
100
AcDbEntity
  8
1
 62
     1
100
AcDbCircle
 10
-1.831738929798831
 20
-21.38874201779662
 30
0.0
 40
54.54731731412562
100
AcDbArc
 50
22.20296009303642
 51
24.76257845747906
  0
LINE
  5
5E6
330
18
100
AcDbEntity
  8
1
 62
     1
100
AcDbLine
 10
48.72886752691897
 20
-0.8390206567780597
 30
0.0
 11
48.85376784948821
 21
-0.8010025205166188
 31
0.0
  0
LINE
  5
5E7
330
18
100
AcDbEntity
  8
1
 62
     1
100
AcDbLine
 10
48.85376784948821
 20
-0.8010025205166188
 30
0.0
 11
48.97824932638365
 21
-0.7535928352306
 31
0.0
  0
LINE
  5
5E8
330
18
100
AcDbEntity
  8
1
 62
     1
100
AcDbLine
 10
48.97824932638365
 20
-0.7535928352306
 30
0.0
 11
49.10206959958675
 21
-0.6966325813631925
 31
0.0
  0
LINE
  5
5E9
330
18
100
AcDbEntity
  8
1
 62
     1
100
AcDbLine
 10
49.10206959958675
 20
-0.6966325813631925
 30
0.0
 11
49.22494999966616
 21
-0.6299813749848862
 31
0.0
  0
LINE
  5
5EA
330
18
100
AcDbEntity
  8
1
 62
     1
100
AcDbLine
 10
49.22494999966616
 20
-0.6299813749848862
 30
0.0
 11
49.3465716249916
 21
-0.5535219303769315
 31
0.0
  0
LINE
  5
5EB
330
18
100
AcDbEntity
  8
1
 62
     1
100
AcDbLine
 10
49.3465716249916
 20
-0.5535219303769315
 30
0.0
 11
49.46657136924979
 21
-0.4671645062745538
 31
0.0
  0
LINE
  5
5EC
330
18
100
AcDbEntity
  8
1
 62
     1
100
AcDbLine
 10
49.46657136924979
 20
-0.4671645062745538
 30
0.0
 11
49.58453784324881
 21
-0.3708524585679969
 31
0.0
  0
LINE
  5
5ED
330
18
100
AcDbEntity
  8
1
 62
     1
100
AcDbLine
 10
49.58453784324881
 20
-0.3708524585679969
 30
0.0
 11
49.7
 21
-0.2645798452227182
 31
0.0
  0
LINE
  5
5EE
330
18
100
AcDbEntity
  8
1
 62
     1
100
AcDbLine
 10
48.72886752691898
 20
-0.8390206567780943
 30
0.0
 11
48.72886752691897
 21
-6.240200793248471
 31
0.0
  0
LINE
  5
5EF
330
18
100
AcDbEntity
  8
1
 62
     1
100
AcDbLine
 10
48.72886752691898
 20
-6.240200793248468
 30
0.0
 11
48.96751155223286
 21
-6.021048456473917
 31
0.0
  0
LINE
  5
5F0
330
18
100
AcDbEntity
  8
1
 62
     1
100
AcDbLine
 10
48.96751155223286
 20
-6.021048456473917
 30
0.0
 11
49.20900820133481
 21
-5.779535671473664
 31
0.0
  0
LINE
  5
5F1
330
18
100
AcDbEntity
  8
1
 62
     1
100
AcDbLine
 10
49.20900820133481
 20
-5.779535671473664
 30
0.0
 11
49.45323300956335
 21
-5.51600793150558
 31
0.0
  0
LINE
  5
5F2
330
18
100
AcDbEntity
  8
1
 62
     1
100
AcDbLine
 10
49.45323300956335
 20
-5.51600793150558
 30
0.0
 11
49.7
 21
-5.230951268186702
 31
0.0
  0
ARC
  5
5F3
330
18
100
AcDbEntity
  8
1
 62
     1
100
AcDbCircle
 10
-388.9136085826204
 20
-162.9520900826826
 30
0.0
 40
467.8130633873479
100
AcDbArc
 50
20.00554760514075
 51
20.35047442866858
  0
LINE
  5
5F4
330
18
100
AcDbEntity
  8
1
 62
     1
100
AcDbLine
 10
49.70000000000001
 20
-5.230951268186703
 30
0.0
 11
49.7
 21
-0.2645798452227178
 31
0.0
  0
LINE
  5
5F5
330
18
100
AcDbEntity
  8
1
 62
     1
100
AcDbLine
 10
43.7
 20
4.455944225526389
 30
0.0
 11
43.81609776644596
 21
4.37541910254569
 31
0.0
  0
LINE
  5
5F6
330
18
100
AcDbEntity
  8
1
 62
     1
100
AcDbLine
 10
43.81609776644596
 20
4.37541910254569
 30
0.0
 11
43.93424160832338
 21
4.283435426877176
 31
0.0
  0
LINE
  5
5F7
330
18
100
AcDbEntity
  8
1
 62
     1
100
AcDbLine
 10
43.93424160832338
 20
4.283435426877176
 30
0.0
 11
44.05411814932228
 21
4.18010802067284
 31
0.0
  0
LINE
  5
5F8
330
18
100
AcDbEntity
  8
1
 62
     1
100
AcDbLine
 10
44.05411814932228
 20
4.18010802067284
 30
0.0
 11
44.1754562310845
 21
4.065578184898352
 31
0.0
  0
LINE
  5
5F9
330
18
100
AcDbEntity
  8
1
 62
     1
100
AcDbLine
 10
44.1754562310845
 20
4.065578184898352
 30
0.0
 11
44.29802024612109
 21
3.940009278857473
 31
0.0
  0
LINE
  5
5FA
330
18
100
AcDbEntity
  8
1
 62
     1
100
AcDbLine
 10
44.29802024612109
 20
3.940009278857473
 30
0.0
 11
44.42160462200049
 21
3.803583148601063
 31
0.0
  0
LINE
  5
5FB
330
18
100
AcDbEntity
  8
1
 62
     1
100
AcDbLine
 10
44.42160462200049
 20
3.803583148601063
 30
0.0
 11
44.67113247308103
 21
3.498968829999908
 31
0.0
  0
LINE
  5
5FC
330
18
100
AcDbEntity
  8
1
 62
     1
100
AcDbLine
 10
43.7
 20
-0.948710800795832
 30
0.0
 11
43.7
 21
4.45594422552639
 31
0.0
  0
LINE
  5
5FD
330
18
100
AcDbEntity
  8
1
 62
     1
100
AcDbLine
 10
43.7
 20
-0.948710800795832
 30
0.0
 11
44.18942023081463
 21
-1.757235302284113
 31
0.0
  0
LINE
  5
5FE
330
18
100
AcDbEntity
  8
1
 62
     1
100
AcDbLine
 10
44.18942023081463
 20
-1.757235302284113
 30
0.0
 11
44.67113247308103
 21
-2.644971271767158
 31
0.0
  0
LINE
  5
5FF
330
18
100
AcDbEntity
  8
1
 62
     1
100
AcDbLine
 10
42.72886752691898
 20
5.272920006347686
 30
0.0
 11
42.95079378644906
 21
5.045086441881846
 31
0.0
  0
LINE
  5
600
330
18
100
AcDbEntity
  8
1
 62
     1
100
AcDbLine
 10
42.95079378644906
 20
5.045086441881846
 30
0.0
 11
43.17076671836296
 21
4.842129559847407
 31
0.0
  0
LINE
  5
601
330
18
100
AcDbEntity
  8
1
 62
     1
100
AcDbLine
 10
43.17076671836296
 20
4.842129559847407
 30
0.0
 11
43.38719353212466
 21
4.665944616305706
 31
0.0
  0
LINE
  5
602
330
18
100
AcDbEntity
  8
1
 62
     1
100
AcDbLine
 10
43.38719353212466
 20
4.665944616305706
 30
0.0
 11
43.49346082319611
 21
4.588446691696578
 31
0.0
  0
LINE
  5
603
330
18
100
AcDbEntity
  8
1
 62
     1
100
AcDbLine
 10
43.49346082319611
 20
4.588446691696578
 30
0.0
 11
43.59803682038161
 21
4.518277624628549
 31
0.0
  0
LINE
  5
604
330
18
100
AcDbEntity
  8
1
 62
     1
100
AcDbLine
 10
42.72886752691897
 20
5.272920006347678
 30
0.0
 11
42.72886752691898
 21
-0.5594924715333296
 31
0.0
  0
LINE
  5
605
330
18
100
AcDbEntity
  8
1
 62
     1
100
AcDbLine
 10
42.72886752691897
 20
-0.5594924720304714
 30
0.0
 11
42.84782880800368
 21
-0.6316640785142877
 31
0.0
  0
LINE
  5
606
330
18
100
AcDbEntity
  8
1
 62
     1
100
AcDbLine
 10
42.84782880800368
 20
-0.6316640785142877
 30
0.0
 11
42.96751160346165
 21
-0.6973739075060406
 31
0.0
  0
LINE
  5
607
330
18
100
AcDbEntity
  8
1
 62
     1
100
AcDbLine
 10
42.96751160346165
 20
-0.6973739075060406
 30
0.0
 11
43.0879137444597
 21
-0.7564926777905665
 31
0.0
  0
LINE
  5
608
330
18
100
AcDbEntity
  8
1
 62
     1
100
AcDbLine
 10
43.0879137444597
 20
-0.7564926777905665
 30
0.0
 11
43.20900825343701
 21
-0.8088839877603903
 31
0.0
  0
LINE
  5
609
330
18
100
AcDbEntity
  8
1
 62
     1
100
AcDbLine
 10
43.20900825343701
 20
-0.8088839877603903
 30
0.0
 11
43.33079206267752
 21
-0.8544263463157898
 31
0.0
  0
LINE
  5
60A
330
18
100
AcDbEntity
  8
1
 62
     1
100
AcDbLine
 10
43.33079206267752
 20
-0.8544263463157898
 30
0.0
 11
43.45323298427953
 21
-0.8929898363124543
 31
0.0
  0
LINE
  5
60B
330
18
100
AcDbEntity
  8
1
 62
     1
100
AcDbLine
 10
43.45323298427953
 20
-0.8929898363124543
 30
0.0
 11
43.57631493459349
 21
-0.9244577708359013
 31
0.0
  0
LINE
  5
60C
330
18
100
AcDbEntity
  8
1
 62
     1
100
AcDbLine
 10
43.57631493459349
 20
-0.9244577708359013
 30
0.0
 11
43.7
 21
-0.948710800795832
 31
0.0
  0
LINE
  5
60D
330
18
100
AcDbEntity
  8
1
 62
     1
100
AcDbLine
 10
42.34073365591362
 20
7.377732439466278
 30
0.0
 11
42.7
 21
8.0
 31
0.0
  0
LINE
  5
60E
330
18
100
AcDbEntity
  8
1
 62
     1
100
AcDbLine
 10
44.72886752691898
 20
3.441767238110413
 30
0.0
 11
44.85376894313313
 21
3.362603914540194
 31
0.0
  0
LINE
  5
60F
330
18
100
AcDbEntity
  8
1
 62
     1
100
AcDbLine
 10
44.85376894313313
 20
3.362603914540194
 30
0.0
 11
44.97824479971219
 21
3.292307002334684
 31
0.0
  0
LINE
  5
610
330
18
100
AcDbEntity
  8
1
 62
     1
100
AcDbLine
 10
44.97824479971219
 20
3.292307002334684
 30
0.0
 11
45.10207499247683
 21
3.231178850775109
 31
0.0
  0
LINE
  5
611
330
18
100
AcDbEntity
  8
1
 62
     1
100
AcDbLine
 10
45.10207499247683
 20
3.231178850775109
 30
0.0
 11
45.22494995611741
 21
3.179529645334529
 31
0.0
  0
LINE
  5
612
330
18
100
AcDbEntity
  8
1
 62
     1
100
AcDbLine
 10
45.22494995611741
 20
3.179529645334529
 30
0.0
 11
45.34658294199975
 21
3.137625098954418
 31
0.0
  0
LINE
  5
613
330
18
100
AcDbEntity
  8
1
 62
     1
100
AcDbLine
 10
45.34658294199975
 20
3.137625098954418
 30
0.0
 11
45.4068028356851
 21
3.120414168911179
 31
0.0
  0
LINE
  5
614
330
18
100
AcDbEntity
  8
1
 62
     1
100
AcDbLine
 10
45.4068028356851
 20
3.120414168911179
 30
0.0
 11
45.46657911065217
 21
3.105732649256278
 31
0.0
  0
LINE
  5
615
330
18
100
AcDbEntity
  8
1
 62
     1
100
AcDbLine
 10
45.46657911065217
 20
3.105732649256278
 30
0.0
 11
45.52585121639018
 21
3.093605684254397
 31
0.0
  0
LINE
  5
616
330
18
100
AcDbEntity
  8
1
 62
     1
100
AcDbLine
 10
45.52585121639018
 20
3.093605684254397
 30
0.0
 11
45.58454979532543
 21
3.084060272291993
 31
0.0
  0
LINE
  5
617
330
18
100
AcDbEntity
  8
1
 62
     1
100
AcDbLine
 10
45.58454979532543
 20
3.084060272291993
 30
0.0
 11
45.64261772074359
 21
3.077119017306822
 31
0.0
  0
LINE
  5
618
330
18
100
AcDbEntity
  8
1
 62
     1
100
AcDbLine
 10
45.64261772074359
 20
3.077119017306822
 30
0.0
 11
45.7
 21
3.072795834594314
 31
0.0
  0
LINE
  5
619
330
18
100
AcDbEntity
  8
1
 62
     1
100
AcDbLine
 10
44.72886752691898
 20
3.441767238110413
 30
0.0
 11
44.72886752691898
 21
-2.70480344824637
 31
0.0
  0
ARC
  5
61A
330
18
100
AcDbEntity
  8
1
 62
     1
100
AcDbCircle
 10
45.00195387218665
 20
-0.5317952522102449
 30
0.0
 40
2.190226706290624
100
AcDbArc
 50
262.8370748401346
 51
288.577636480281
  0
LINE
  5
61B
330
18
100
AcDbEntity
  8
1
 62
     1
100
AcDbLine
 10
45.7
 20
-2.608678586990811
 30
0.0
 11
45.7
 21
3.072795834594313
 31
0.0
  0
ARC
  5
61C
330
18
100
AcDbEntity
  8
1
 62
     1
100
AcDbCircle
 10
9.174163670222399
 20
-21.68269469629941
 30
0.0
 40
41.20634788959477
100
AcDbArc
 50
24.49895436116782
 51
27.57384009191403
  0
LINE
  5
61D
330
18
100
AcDbEntity
  8
1
 62
     1
100
AcDbLine
 10
44.72886752691897
 20
7.52888028237629
 30
0.0
 11
44.67113247308105
 21
7.55010774555495
 31
0.0
  0
LINE
  5
61E
330
18
100
AcDbEntity
  8
1
 62
     1
100
AcDbLine
 10
42.72886752691898
 20
7.980411523918017
 30
0.0
 11
42.7
 21
7.982568714242507
 31
0.0
  0
ARC
  5
61F
330
18
100
AcDbEntity
  8
1
 62
     1
100
AcDbCircle
 10
65.70578884978366
 20
-6.089958555216223
 30
0.0
 40
26.96855000373323
100
AcDbArc
 50
148.5460806435434
 51
150.0407169118442
  0
ARC
  5
620
330
18
100
AcDbEntity
  8
1
 62
     1
100
AcDbCircle
 10
119.1448400903162
 20
21.63213016699261
 30
0.0
 40
62.00881570928219
100
AcDbArc
 50
206.6012748596976
 51
207.7384377506148
  0
LINE
  5
621
330
18
100
AcDbEntity
  8
1
 62
     1
100
AcDbLine
 10
60.72886752691898
 20
-6.614127244326863
 30
0.0
 11
60.67113247308104
 21
-6.578205392450647
 31
0.0
  0
ARC
  5
622
330
18
100
AcDbEntity
  8
1
 62
     1
100
AcDbCircle
 10
-61.1718273645446
 20
-60.59358051577666
 30
0.0
 40
133.2789908632257
100
AcDbArc
 50
23.90864955259854
 51
24.9184055927864
  0
LINE
  5
623
330
18
100
AcDbEntity
  8
1
 62
     1
100
AcDbLine
 10
58.72886752691898
 20
-5.144129012461303
 30
0.0
 11
58.67113247308104
 21
-5.095346222126297
 31
0.0
  0
LINE
  5
624
330
18
100
AcDbEntity
  8
1
 62
     1
100
AcDbLine
 10
56.72886752691896
 20
-3.287819638637927
 30
0.0
 11
56.67113247308103
 21
-3.229839653966448
 31
0.0
  0
LINE
  5
625
330
18
100
AcDbEntity
  8
1
 62
     1
100
AcDbLine
 10
54.72886752691896
 20
-1.184602459793795
 30
0.0
 11
54.67113247308103
 21
-1.121779307451184
 31
0.0
  0
LINE
  5
626
330
18
100
AcDbEntity
  8
1
 62
     1
100
AcDbLine
 10
52.72886752691898
 20
1.007574507868567
 30
0.0
 11
52.67113247308104
 21
1.070523074061396
 31
0.0
  0
ARC
  5
627
330
18
100
AcDbEntity
  8
1
 62
     1
100
AcDbCircle
 10
49.32993315576449
 20
-1.390442850255581
 30
0.0
 40
4.128673476837394
100
AcDbArc
 50
45.33523326831911
 51
54.9661180606376
  0
LINE
  5
628
330
18
100
AcDbEntity
  8
1
 62
     1
100
AcDbLine
 10
50.72886752691899
 20
3.124085814239364
 30
0.0
 11
50.67113247308105
 21
3.182432198083644
 31
0.0
  0
LINE
  5
629
330
18
100
AcDbEntity
  8
1
 62
     1
100
AcDbLine
 10
49.70000000000001
 20
3.543111772489818
 30
0.0
 11
49.82300090607172
 21
3.525545076378651
 31
0.0
  0
LINE
  5
62A
330
18
100
AcDbEntity
  8
1
 62
     1
100
AcDbLine
 10
49.82300090607172
 20
3.525545076378651
 30
0.0
 11
49.94558498231181
 21
3.499922222080799
 31
0.0
  0
LINE
  5
62B
330
18
100
AcDbEntity
  8
1
 62
     1
100
AcDbLine
 10
49.94558498231181
 20
3.499922222080799
 30
0.0
 11
50.06773184654841
 21
3.466332092443793
 31
0.0
  0
LINE
  5
62C
330
18
100
AcDbEntity
  8
1
 62
     1
100
AcDbLine
 10
50.06773184654841
 20
3.466332092443793
 30
0.0
 11
50.18941393009614
 21
3.424871122287822
 31
0.0
  0
LINE
  5
62D
330
18
100
AcDbEntity
  8
1
 62
     1
100
AcDbLine
 10
50.18941393009614
 20
3.424871122287822
 30
0.0
 11
50.31060910348577
 21
3.375642711747685
 31
0.0
  0
LINE
  5
62E
330
18
100
AcDbEntity
  8
1
 62
     1
100
AcDbLine
 10
50.31060910348577
 20
3.375642711747685
 30
0.0
 11
50.43130486511783
 21
3.318751555362438
 31
0.0
  0
LINE
  5
62F
330
18
100
AcDbEntity
  8
1
 62
     1
100
AcDbLine
 10
50.43130486511783
 20
3.318751555362438
 30
0.0
 11
50.55148439855877
 21
3.254308592155594
 31
0.0
  0
LINE
  5
630
330
18
100
AcDbEntity
  8
1
 62
     1
100
AcDbLine
 10
50.55148439855877
 20
3.254308592155594
 30
0.0
 11
50.67113247308106
 21
3.182432198083639
 31
0.0
  0
LINE
  5
631
330
18
100
AcDbEntity
  8
1
 62
     1
100
AcDbLine
 10
48.72886752691898
 20
5.005985822986431
 30
0.0
 11
48.67113247308102
 21
5.055348746182026
 31
0.0
  0
LINE
  5
632
330
18
100
AcDbEntity
  8
1
 62
     1
100
AcDbLine
 10
47.7
 20
4.830038486862106
 30
0.0
 11
47.8230009363715
 21
4.885534356343237
 31
0.0
  0
LINE
  5
633
330
18
100
AcDbEntity
  8
1
 62
     1
100
AcDbLine
 10
47.8230009363715
 20
4.885534356343237
 30
0.0
 11
47.94558493621734
 21
4.933149002261993
 31
0.0
  0
LINE
  5
634
330
18
100
AcDbEntity
  8
1
 62
     1
100
AcDbLine
 10
47.94558493621734
 20
4.933149002261993
 30
0.0
 11
48.06773171793325
 21
4.972911591166402
 31
0.0
  0
LINE
  5
635
330
18
100
AcDbEntity
  8
1
 62
     1
100
AcDbLine
 10
48.06773171793325
 20
4.972911591166402
 30
0.0
 11
48.18941378134446
 21
5.004854123755112
 31
0.0
  0
LINE
  5
636
330
18
100
AcDbEntity
  8
1
 62
     1
100
AcDbLine
 10
48.18941378134446
 20
5.004854123755112
 30
0.0
 11
48.31060903704283
 21
5.029018161006326
 31
0.0
  0
LINE
  5
637
330
18
100
AcDbEntity
  8
1
 62
     1
100
AcDbLine
 10
48.31060903704283
 20
5.029018161006326
 30
0.0
 11
48.43130493327089
 21
5.045452230204086
 31
0.0
  0
LINE
  5
638
330
18
100
AcDbEntity
  8
1
 62
     1
100
AcDbLine
 10
48.43130493327089
 20
5.045452230204086
 30
0.0
 11
48.55148446373276
 21
5.05420864566886
 31
0.0
  0
LINE
  5
639
330
18
100
AcDbEntity
  8
1
 62
     1
100
AcDbLine
 10
48.55148446373276
 20
5.05420864566886
 30
0.0
 11
48.67113247308103
 21
5.055348746182018
 31
0.0
  0
LINE
  5
63A
330
18
100
AcDbEntity
  8
1
 62
     1
100
AcDbLine
 10
46.72886752691898
 20
6.511948436580346
 30
0.0
 11
46.67113247308104
 21
6.548620588214355
 31
0.0
  0
LINE
  5
63B
330
18
100
AcDbEntity
  8
1
 62
     1
100
AcDbLine
 10
42.7
 20
5.296750758073583
 30
0.0
 11
42.62464877061684
 21
5.337380984394398
 31
0.0
  0
LINE
  5
63C
330
18
100
AcDbEntity
  8
1
 62
     1
100
AcDbLine
 10
42.62464877061684
 20
5.337380984394398
 30
0.0
 11
42.54951786342754
 21
5.37389227284128
 31
0.0
  0
LINE
  5
63D
330
18
100
AcDbEntity
  8
1
 62
     1
100
AcDbLine
 10
42.54951786342754
 20
5.37389227284128
 30
0.0
 11
42.4746515049829
 21
5.406247205323103
 31
0.0
  0
LINE
  5
63E
330
18
100
AcDbEntity
  8
1
 62
     1
100
AcDbLine
 10
42.4746515049829
 20
5.406247205323103
 30
0.0
 11
42.40007750051677
 21
5.434418359993913
 31
0.0
  0
LINE
  5
63F
330
18
100
AcDbEntity
  8
1
 62
     1
100
AcDbLine
 10
42.40007750051677
 20
5.434418359993913
 30
0.0
 11
42.32583416666009
 21
5.458379472815473
 31
0.0
  0
LINE
  5
640
330
18
100
AcDbEntity
  8
1
 62
     1
100
AcDbLine
 10
42.32583416666009
 20
5.458379472815473
 30
0.0
 11
42.25195798509225
 21
5.478105995555507
 31
0.0
  0
LINE
  5
641
330
18
100
AcDbEntity
  8
1
 62
     1
100
AcDbLine
 10
42.25195798509225
 20
5.478105995555507
 30
0.0
 11
42.17849703970336
 21
5.493574625839693
 31
0.0
  0
LINE
  5
642
330
18
100
AcDbEntity
  8
1
 62
     1
100
AcDbLine
 10
42.17849703970336
 20
5.493574625839693
 30
0.0
 11
42.10549387707974
 21
5.504765368920719
 31
0.0
  0
LINE
  5
643
330
18
100
AcDbEntity
  8
1
 62
     1
100
AcDbLine
 10
42.10549387707974
 20
5.504765368920719
 30
0.0
 11
42.03300515166188
 21
5.511660041331006
 31
0.0
  0
LINE
  5
644
330
18
100
AcDbEntity
  8
1
 62
     1
100
AcDbLine
 10
42.03300515166188
 20
5.511660041331006
 30
0.0
 11
41.96108130438878
 21
5.514243644938849
 31
0.0
  0
LINE
  5
645
330
18
100
AcDbEntity
  8
1
 62
     1
100
AcDbLine
 10
41.96108130438878
 20
5.514243644938849
 30
0.0
 11
41.8897888964389
 21
5.512504142154645
 31
0.0
  0
LINE
  5
646
330
18
100
AcDbEntity
  8
1
 62
     1
100
AcDbLine
 10
41.8897888964389
 20
5.512504142154645
 30
0.0
 11
41.81918853342013
 21
5.506432342247221
 31
0.0
  0
LINE
  5
647
330
18
100
AcDbEntity
  8
1
 62
     1
100
AcDbLine
 10
41.81918853342013
 20
5.506432342247221
 30
0.0
 11
41.74935840286305
 21
5.496023505269397
 31
0.0
  0
LINE
  5
648
330
18
100
AcDbEntity
  8
1
 62
     1
100
AcDbLine
 10
41.74935840286305
 20
5.496023505269397
 30
0.0
 11
41.68037205121207
 21
5.481275461216605
 31
0.0
  0
LINE
  5
649
330
18
100
AcDbEntity
  8
1
 62
     1
100
AcDbLine
 10
41.68037205121207
 20
5.481275461216605
 30
0.0
 11
41.61232197845388
 21
5.462192375807156
 31
0.0
  0
LINE
  5
64A
330
18
100
AcDbEntity
  8
1
 62
     1
100
AcDbLine
 10
41.61232197845388
 20
5.462192375807156
 30
0.0
 11
41.54529946
 21
5.438781485911278
 31
0.0
  0
LINE
  5
64B
330
18
100
AcDbEntity
  8
1
 62
     1
100
AcDbLine
 10
42.72886752691898
 20
5.272920006347677
 30
0.0
 11
42.70000000000001
 21
5.29675075807358
 31
0.0
  0
LINE
  5
64C
330
18
100
AcDbEntity
  8
1
 62
     1
100
AcDbLine
 10
44.72886752691898
 20
3.441767238110409
 30
0.0
 11
44.67113247308104
 21
3.498968829999918
 31
0.0
  0
LINE
  5
64D
330
18
100
AcDbEntity
  8
1
 62
     1
100
AcDbLine
 10
45.7
 20
3.072795834594314
 30
0.0
 11
46.17545660055191
 21
2.319142894966256
 31
0.0
  0
LINE
  5
64E
330
18
100
AcDbEntity
  8
1
 62
     1
100
AcDbLine
 10
46.17545660055191
 20
2.319142894966256
 30
0.0
 11
46.67113247308103
 21
1.414673117536802
 31
0.0
  0
LINE
  5
64F
330
18
100
AcDbEntity
  8
1
 62
     1
100
AcDbLine
 10
46.72886752691897
 20
1.352143460091734
 30
0.0
 11
46.67113247308102
 21
1.414673117536814
 31
0.0
  0
LINE
  5
650
330
18
100
AcDbEntity
  8
1
 62
     1
100
AcDbLine
 10
46.72886752691898
 20
1.352143460091737
 30
0.0
 11
46.79135248196587
 21
1.340287858898341
 31
0.0
  0
LINE
  5
651
330
18
100
AcDbEntity
  8
1
 62
     1
100
AcDbLine
 10
46.79135248196587
 20
1.340287858898341
 30
0.0
 11
46.85376893244281
 21
1.330770195358081
 31
0.0
  0
LINE
  5
652
330
18
100
AcDbEntity
  8
1
 62
     1
100
AcDbLine
 10
46.85376893244281
 20
1.330770195358081
 30
0.0
 11
46.91607787641618
 21
1.323623366861575
 31
0.0
  0
LINE
  5
653
330
18
100
AcDbEntity
  8
1
 62
     1
100
AcDbLine
 10
46.91607787641618
 20
1.323623366861575
 30
0.0
 11
46.97824473893201
 21
1.318879897113512
 31
0.0
  0
LINE
  5
654
330
18
100
AcDbEntity
  8
1
 62
     1
100
AcDbLine
 10
46.97824473893201
 20
1.318879897113512
 30
0.0
 11
47.04025762787267
 21
1.316568458157862
 31
0.0
  0
LINE
  5
655
330
18
100
AcDbEntity
  8
1
 62
     1
100
AcDbLine
 10
47.04025762787267
 20
1.316568458157862
 30
0.0
 11
47.10207492914257
 21
1.316717030747445
 31
0.0
  0
LINE
  5
656
330
18
100
AcDbEntity
  8
1
 62
     1
100
AcDbLine
 10
47.10207492914257
 20
1.316717030747445
 30
0.0
 11
47.16364890710107
 21
1.319353858275115
 31
0.0
  0
LINE
  5
657
330
18
100
AcDbEntity
  8
1
 62
     1
100
AcDbLine
 10
47.16364890710107
 20
1.319353858275115
 30
0.0
 11
47.22495002197238
 21
1.324507861735198
 31
0.0
  0
LINE
  5
658
330
18
100
AcDbEntity
  8
1
 62
     1
100
AcDbLine
 10
47.22495002197238
 20
1.324507861735198
 30
0.0
 11
47.28594741287574
 21
1.332203580063452
 31
0.0
  0
LINE
  5
659
330
18
100
AcDbEntity
  8
1
 62
     1
100
AcDbLine
 10
47.28594741287574
 20
1.332203580063452
 30
0.0
 11
47.34658321532751
 21
1.342461947942414
 31
0.0
  0
LINE
  5
65A
330
18
100
AcDbEntity
  8
1
 62
     1
100
AcDbLine
 10
47.34658321532751
 20
1.342461947942414
 30
0.0
 11
47.40680319643759
 21
1.355304690607334
 31
0.0
  0
LINE
  5
65B
330
18
100
AcDbEntity
  8
1
 62
     1
100
AcDbLine
 10
47.40680319643759
 20
1.355304690607334
 30
0.0
 11
47.46657951302035
 21
1.370756483765511
 31
0.0
  0
LINE
  5
65C
330
18
100
AcDbEntity
  8
1
 62
     1
100
AcDbLine
 10
47.46657951302035
 20
1.370756483765511
 30
0.0
 11
47.52585160356021
 21
1.388829931275396
 31
0.0
  0
LINE
  5
65D
330
18
100
AcDbEntity
  8
1
 62
     1
100
AcDbLine
 10
47.52585160356021
 20
1.388829931275396
 30
0.0
 11
47.58455010111374
 21
1.409535259050671
 31
0.0
  0
LINE
  5
65E
330
18
100
AcDbEntity
  8
1
 62
     1
100
AcDbLine
 10
47.58455010111374
 20
1.409535259050671
 30
0.0
 11
47.64261788020416
 21
1.432885423515058
 31
0.0
  0
LINE
  5
65F
330
18
100
AcDbEntity
  8
1
 62
     1
100
AcDbLine
 10
47.64261788020416
 20
1.432885423515058
 30
0.0
 11
47.70000000000002
 21
1.458888714474691
 31
0.0
  0
LINE
  5
660
330
18
100
AcDbEntity
  8
1
 62
     1
100
AcDbLine
 10
48.72886752691895
 20
-0.8390206567780786
 30
0.0
 11
48.67113247308104
 21
-0.7758582208504956
 31
0.0
  0
LINE
  5
661
330
18
100
AcDbEntity
  8
1
 62
     1
100
AcDbLine
 10
50.72886752691897
 20
-2.967177042734567
 30
0.0
 11
50.67113247308104
 21
-2.908126442006697
 31
0.0
  0
LINE
  5
662
330
18
100
AcDbEntity
  8
1
 62
     1
100
AcDbLine
 10
52.72886752691896
 20
-4.872506820128458
 30
0.0
 11
52.67113247308106
 21
-4.822001296996645
 31
0.0
  0
LINE
  5
663
330
18
100
AcDbEntity
  8
1
 62
     1
100
AcDbLine
 10
54.728867526919
 20
-6.411921401237068
 30
0.0
 11
54.67113247308104
 21
-6.373754522562445
 31
0.0
  0
ARC
  5
664
330
18
100
AcDbEntity
  8
1
 62
     1
100
AcDbCircle
 10
94.90297975416378
 20
8.154856947249707
 30
0.0
 40
41.29278562672344
100
AcDbArc
 50
198.3063647077596
 51
202.1994673558785
  0
LINE
  5
665
330
18
100
AcDbEntity
  8
1
 62
     1
100
AcDbLine
 10
56.72886752691898
 20
-7.46981840408387
 30
0.0
 11
56.67113247308101
 21
-7.446856317157835
 31
0.0
  0
ARC
  5
666
330
18
100
AcDbEntity
  8
1
 62
     1
100
AcDbCircle
 10
77.85266871582313
 20
1.757887624290392
 30
0.0
 40
21.50379609649854
100
AcDbArc
 50
200.419590477567
 51
206.8697158836643
  0
LINE
  5
667
330
18
100
AcDbEntity
  8
1
 62
     1
100
AcDbLine
 10
58.72886752691899
 20
-7.966749605572922
 30
0.0
 11
58.67113247308103
 21
-7.960716509516066
 31
0.0
  0
ARC
  5
668
330
18
100
AcDbEntity
  8
1
 62
     1
100
AcDbCircle
 10
-13.56353388073076
 20
33.93547877663799
 30
0.0
 40
83.558164997143
100
AcDbArc
 50
329.9024980751226
 51
331.25929856806
  0
ARC
  5
669
330
18
100
AcDbEntity
  8
1
 62
     1
100
AcDbCircle
 10
69.5250920616862
 20
-1.614721143277835
 30
0.0
 40
10.86053114837112
100
AcDbArc
 50
205.2226572503938
 51
209.8808438139746
  0
LINE
  5
66A
330
18
100
AcDbEntity
  8
1
 62
     1
100
AcDbLine
 10
60.72886752691899
 20
-7.865397926203382
 30
0.0
 11
60.67113247308102
 21
-7.876746970870149
 31
0.0
  0
LINE
  5
66B
330
18
100
AcDbEntity
  8
1
 62
     1
100
AcDbLine
 10
41.54529946
 20
-0.5074873716350763
 30
0.0
 11
41.54529946
 21
0.9414332993487396
 31
0.0
  0
LINE
  5
66C
330
18
100
AcDbEntity
  8
1
 62
     1
100
AcDbLine
 10
42.7
 20
-5.995367495562464
 30
0.0
 11
41.54529946
 21
-2.533703997808097
 31
0.0
  0
LINE
  5
66D
330
18
100
AcDbEntity
  8
1
 62
     1
100
AcDbLine
 10
42.72886752691896
 20
-6.016337308251458
 30
0.0
 11
42.7
 21
-5.995367495562453
 31
0.0
  0
LINE
  5
66E
330
18
100
AcDbEntity
  8
1
 62
     1
100
AcDbLine
 10
44.72886752691898
 20
-7.221789132802885
 30
0.0
 11
44.67113247308103
 21
-7.194248892461885
 31
0.0
  0
ARC
  5
66F
330
18
100
AcDbEntity
  8
1
 62
     1
100
AcDbCircle
 10
70.44319093545874
 20
3.305780994716693
 30
0.0
 40
26.27017937232801
100
AcDbArc
 50
199.631828335679
 51
205.1870237865758
  0
LINE
  5
670
330
18
100
AcDbEntity
  8
1
 62
     1
100
AcDbLine
 10
46.72886752691898
 20
-7.884903808121641
 30
0.0
 11
46.67113247308104
 21
-7.87392532162445
 31
0.0
  0
ARC
  5
671
330
18
100
AcDbEntity
  8
1
 62
     1
100
AcDbCircle
 10
-0.9119125949157336
 20
19.90888823588735
 30
0.0
 40
55.1554572791894
100
AcDbArc
 50
329.7405685841432
 51
331.8085921724319
  0
ARC
  5
672
330
18
100
AcDbEntity
  8
1
 62
     1
100
AcDbCircle
 10
59.73784093870677
 20
-0.9284069061679538
 30
0.0
 40
13.12035294815186
100
AcDbArc
 50
203.4383129119661
 51
209.7503307514948
  0
LINE
  5
673
330
18
100
AcDbEntity
  8
1
 62
     1
100
AcDbLine
 10
48.72886752691898
 20
-7.955881116350322
 30
0.0
 11
48.67113247308102
 21
-7.962288868229958
 31
0.0
  0
LINE
  5
674
330
18
100
AcDbEntity
  8
1
 62
     1
100
AcDbLine
 10
50.72886752691898
 20
-7.42939165726704
 30
0.0
 11
50.67113247308102
 21
-7.452704247271694
 31
0.0
  0
LINE
  5
675
330
18
100
AcDbEntity
  8
1
 62
     1
100
AcDbLine
 10
60.72886752691898
 20
7.865397926203387
 30
0.0
 11
60.67113247308104
 21
7.876746970870148
 31
0.0
  0
ARC
  5
676
330
18
100
AcDbEntity
  8
1
 62
     1
100
AcDbCircle
 10
-21.08474390401861
 20
-120.4399515161412
 30
0.0
 40
152.5596869722557
100
AcDbArc
 50
55.5090071232991
 51
55.98343027103708
  0
LINE
  5
677
330
18
100
AcDbEntity
  8
1
 62
     1
100
AcDbLine
 10
65.7
 20
-1.360906906044386
 30
0.0
 11
65.7
 21
-0.208977555938145
 31
0.0
  0
LINE
  5
678
330
18
100
AcDbEntity
  8
1
 62
     1
100
AcDbLine
 10
48.728867526919
 20
7.955881116350324
 30
0.0
 11
48.67113247308102
 21
7.96228886822996
 31
0.0
  0
LINE
  5
679
330
18
100
AcDbEntity
  8
1
 62
     1
100
AcDbLine
 10
50.72886752691899
 20
7.429391657267034
 30
0.0
 11
50.67113247308102
 21
7.452704247271691
 31
0.0
  0
LINE
  5
67A
330
18
100
AcDbEntity
  8
1
 62
     1
100
AcDbLine
 10
52.72886752691899
 20
6.344972599452389
 30
0.0
 11
52.67113247308104
 21
6.383439779943032
 31
0.0
  0
LINE
  5
67B
330
18
100
AcDbEntity
  8
1
 62
     1
100
AcDbLine
 10
54.72886752691898
 20
4.784063538913133
 30
0.0
 11
54.67113247308103
 21
4.834796095608874
 31
0.0
  0
LINE
  5
67C
330
18
100
AcDbEntity
  8
1
 62
     1
100
AcDbLine
 10
55.69999999999999
 20
4.090367715152077
 30
0.0
 11
55.81609746724687
 21
3.982316665002922
 31
0.0
  0
LINE
  5
67D
330
18
100
AcDbEntity
  8
1
 62
     1
100
AcDbLine
 10
55.81609746724687
 20
3.982316665002922
 30
0.0
 11
55.93424124062854
 21
3.86311729690885
 31
0.0
  0
LINE
  5
67E
330
18
100
AcDbEntity
  8
1
 62
     1
100
AcDbLine
 10
55.93424124062854
 20
3.86311729690885
 30
0.0
 11
56.05411811607553
 21
3.732906684917754
 31
0.0
  0
LINE
  5
67F
330
18
100
AcDbEntity
  8
1
 62
     1
100
AcDbLine
 10
56.05411811607553
 20
3.732906684917754
 30
0.0
 11
56.29802086467865
 21
3.440122705099398
 31
0.0
  0
LINE
  5
680
330
18
100
AcDbEntity
  8
1
 62
     1
100
AcDbLine
 10
56.29802086467865
 20
3.440122705099398
 30
0.0
 11
56.48372304781979
 21
3.192985838999475
 31
0.0
  0
LINE
  5
681
330
18
100
AcDbEntity
  8
1
 62
     1
100
AcDbLine
 10
56.48372304781979
 20
3.192985838999475
 30
0.0
 11
56.67113247308104
 21
2.92306876052532
 31
0.0
  0
LINE
  5
682
330
18
100
AcDbEntity
  8
1
 62
     1
100
AcDbLine
 10
56.728867526919
 20
2.863880760438496
 30
0.0
 11
56.67113247308105
 21
2.923068760433331
 31
0.0
  0
LINE
  5
683
330
18
100
AcDbEntity
  8
1
 62
     1
100
AcDbLine
 10
57.70000000000002
 20
2.629693932197695
 30
0.0
 11
58.17545591674831
 21
1.781437144931288
 31
0.0
  0
LINE
  5
684
330
18
100
AcDbEntity
  8
1
 62
     1
100
AcDbLine
 10
58.17545591674831
 20
1.781437144931288
 30
0.0
 11
58.67113247308103
 21
0.7918286778832707
 31
0.0
  0
LINE
  5
685
330
18
100
AcDbEntity
  8
1
 62
     1
100
AcDbLine
 10
58.72886752691898
 20
0.7286293448000362
 30
0.0
 11
58.67113247308104
 21
0.7918286778832474
 31
0.0
  0
ARC
  5
686
330
18
100
AcDbEntity
  8
1
 62
     1
100
AcDbCircle
 10
58.84939808727552
 20
2.305795696958064
 30
0.0
 40
1.581809914623054
100
AcDbArc
 50
265.6298236856585
 51
302.5178147744367
  0
LINE
  5
687
330
18
100
AcDbEntity
  8
1
 62
     1
100
AcDbLine
 10
60.72886752691899
 20
-1.46134029660293
 30
0.0
 11
60.67113247308104
 21
-1.398877105712993
 31
0.0
  0
ARC
  5
688
330
18
100
AcDbEntity
  8
1
 62
     1
100
AcDbCircle
 10
69.1866848194506
 20
5.958168970847331
 30
0.0
 40
11.22072821248374
100
AcDbArc
 50
243.9673148610755
 51
249.7677302451183
  0
LINE
  5
689
330
18
100
AcDbEntity
  8
1
 62
     1
100
AcDbLine
 10
65.69999999999999
 20
-1.360906906044384
 30
0.0
 11
65.69999999999999
 21
-3.924958996331989
 31
0.0
  0
LINE
  5
68A
330
18
100
AcDbEntity
  8
1
 62
     1
100
AcDbLine
 10
41.54529946
 20
5.438781485911274
 30
0.0
 11
41.54529946
 21
0.9414332993487465
 31
0.0
  0
LINE
  5
68B
330
18
100
AcDbEntity
  8
1
 62
     1
100
AcDbLine
 10
41.54529946
 20
-2.533703997808098
 30
0.0
 11
41.54529946
 21
-5.925681677484655
 31
0.0
  0
LINE
  5
68C
330
18
100
AcDbEntity
  8
1
 62
     1
100
AcDbLine
 10
41.54529946
 20
-2.533703997808097
 30
0.0
 11
41.54529946
 21
-0.5074873716350785
 31
0.0
  0
ARC
  5
68D
330
18
100
AcDbEntity
  8
1
 62
     1
100
AcDbCircle
 10
56.83333999529157
 20
2.549861616261601
 30
0.0
 40
9.793739726032836
100
AcDbArc
 50
146.4513131232777
 51
150.0534785306703
  0
LINE
  5
68E
330
18
100
AcDbEntity
  8
1
 62
     1
100
AcDbLine
 10
48.34713446478026
 20
7.438819249722645
 30
0.0
 11
47.7
 21
6.317950000000001
 31
0.0
  0
LINE
  5
68F
330
18
100
AcDbEntity
  8
1
 62
     1
100
AcDbLine
 10
47.7
 20
6.317950000000001
 30
0.0
 11
46.72886752691898
 21
7.999999999999999
 31
0.0
  0
LINE
  5
690
330
18
100
AcDbEntity
  8
1
 62
     1
100
AcDbLine
 10
46.67113247308103
 20
7.999999999999999
 30
0.0
 11
45.7
 21
6.317950000000002
 31
0.0
  0
LINE
  5
691
330
18
100
AcDbEntity
  8
1
 62
     1
100
AcDbLine
 10
45.7
 20
6.31795
 30
0.0
 11
44.72886752691898
 21
7.999999999999999
 31
0.0
  0
LINE
  5
692
330
18
100
AcDbEntity
  8
1
 62
     1
100
AcDbLine
 10
43.7
 20
6.317950000000001
 30
0.0
 11
42.72886752691897
 21
7.999999999999999
 31
0.0
  0
LINE
  5
693
330
18
100
AcDbEntity
  8
1
 62
     1
100
AcDbLine
 10
44.67113247308103
 20
7.999999999999999
 30
0.0
 11
43.7
 21
6.317950000000001
 31
0.0
  0
LINE
  5
694
330
18
100
AcDbEntity
  8
1
 62
     1
100
AcDbLine
 10
63.66045362841777
 20
1.546283829135859
 30
0.0
 11
63.7
 21
1.512962935144782
 31
0.0
  0
LINE
  5
695
330
18
100
AcDbEntity
  8
1
 62
     1
100
AcDbLine
 10
46.67113247308103
 20
-8.0
 30
0.0
 11
46.72886752691898
 21
-8.0
 31
0.0
  0
LINE
  5
696
330
18
100
AcDbEntity
  8
1
 62
     1
100
AcDbLine
 10
44.67113247308103
 20
-8.0
 30
0.0
 11
44.72886752691898
 21
-8.0
 31
0.0
  0
LINE
  5
697
330
18
100
AcDbEntity
  8
1
 62
     1
100
AcDbLine
 10
42.7
 20
-8.0
 30
0.0
 11
42.72886752691898
 21
-8.0
 31
0.0
  0
LINE
  5
698
330
18
100
AcDbEntity
  8
1
 62
     1
100
AcDbLine
 10
58.67113247308103
 20
7.999999999999996
 30
0.0
 11
57.70000000000002
 21
6.317950000000001
 31
0.0
  0
ARC
  5
699
330
18
100
AcDbEntity
  8
1
 62
     1
100
AcDbCircle
 10
67.11062396595986
 20
3.013709419444414
 30
0.0
 40
8.069874884701992
100
AcDbArc
 50
142.940273815858
 51
150.1910681944201
  0
LINE
  5
69A
330
18
100
AcDbEntity
  8
1
 62
     1
100
AcDbLine
 10
60.10842230184025
 20
7.025357847902402
 30
0.0
 11
59.70000000000001
 21
6.317950000000001
 31
0.0
  0
LINE
  5
69B
330
18
100
AcDbEntity
  8
1
 62
     1
100
AcDbLine
 10
56.67113247308104
 20
7.999999999999996
 30
0.0
 11
55.7
 21
6.317950000000001
 31
0.0
  0
LINE
  5
69C
330
18
100
AcDbEntity
  8
1
 62
     1
100
AcDbLine
 10
55.7
 20
6.317950000000001
 30
0.0
 11
54.72886752691898
 21
7.999999999999999
 31
0.0
  0
LINE
  5
69D
330
18
100
AcDbEntity
  8
1
 62
     1
100
AcDbLine
 10
57.70000000000001
 20
6.317950000000001
 30
0.0
 11
56.72886752691898
 21
8.000000000000007
 31
0.0
  0
ARC
  5
69E
330
18
100
AcDbEntity
  8
1
 62
     1
100
AcDbCircle
 10
74.96986347811513
 20
-5.390482460829147
 30
0.0
 40
24.2744402037734
100
AcDbArc
 50
146.7440554913858
 51
150.1070267022413
  0
LINE
  5
69F
330
18
100
AcDbEntity
  8
1
 62
     1
100
AcDbLine
 10
54.67113247308104
 20
8.000000000000002
 30
0.0
 11
53.92489398725748
 21
6.707477630629312
 31
0.0
  0
LINE
  5
6A0
330
18
100
AcDbEntity
  8
1
 62
     1
100
AcDbLine
 10
59.70000000000001
 20
6.317950000000001
 30
0.0
 11
58.72886752691898
 21
7.999999999999999
 31
0.0
  0
LINE
  5
6A1
330
18
100
AcDbEntity
  8
1
 62
     1
100
AcDbLine
 10
42.34073365587461
 20
-7.377732439398723
 30
0.0
 11
42.7
 21
-8.0
 31
0.0
  0
LINE
  5
6A2
330
18
100
AcDbEntity
  8
1
 62
     1
100
AcDbLine
 10
65.69999999999999
 20
6.317950000000001
 30
0.0
 11
65.30626342954096
 21
6.999921426863562
 31
0.0
  0
LINE
  5
6A3
330
18
100
AcDbEntity
  8
1
 62
     1
100
AcDbLine
 10
58.67113247308102
 20
-8.0
 30
0.0
 11
58.72886752691898
 21
-8.0
 31
0.0
  0
LINE
  5
6A4
330
18
100
AcDbEntity
  8
1
 62
     1
100
AcDbLine
 10
56.67113247308103
 20
-8.0
 30
0.0
 11
56.72886752691898
 21
-8.0
 31
0.0
  0
LINE
  5
6A5
330
18
100
AcDbEntity
  8
1
 62
     1
100
AcDbLine
 10
54.67113247308103
 20
-8.0
 30
0.0
 11
54.72886752691898
 21
-8.0
 31
0.0
  0
ARC
  5
6A6
330
18
100
AcDbEntity
  8
1
 62
     1
100
AcDbCircle
 10
62.90326239204849
 20
1.448670358407208
 30
0.0
 40
8.783556905998513
100
AcDbArc
 50
278.8993663373267
 51
285.693487909789
  0
LINE
  5
6A7
330
18
100
AcDbEntity
  8
1
 62
     1
100
AcDbLine
 10
65.27914544903966
 20
-7.007492090434094
 30
0.0
 11
65.30626342954098
 21
-6.999921426863561
 31
0.0
  0
ARC
  5
6A8
330
18
100
AcDbEntity
  8
1
 62
     1
100
AcDbCircle
 10
47.91264333960986
 20
-2.873672241489873
 30
0.0
 40
6.180417938092575
100
AcDbArc
 50
39.65450532772992
 51
45.65623351936477
  0
LINE
  5
6A9
330
18
100
AcDbEntity
  8
1
 62
     1
100
AcDbLine
 10
41.54529946
 20
5.438781485911274
 30
0.0
 11
41.54529946000001
 21
5.925681677484658
 31
0.0
  0
ARC
  5
6AA
330
18
100
AcDbEntity
  8
1
 62
     1
100
AcDbCircle
 10
45.07710459891842
 20
6.822862720527647
 30
0.0
 40
2.738384286477372
100
AcDbArc
 50
237.3079154116115
 51
239.8085871205064
  0
LINE
  5
6AB
330
18
100
AcDbEntity
  8
1
 62
     1
100
AcDbLine
 10
41.5528189286013
 20
0.9353847750953177
 30
0.0
 11
41.54529946
 21
0.9414332993487461
 31
0.0
  0
LINE
  5
6AC
330
18
100
AcDbEntity
  8
1
 62
     1
100
AcDbLine
 10
41.55285587192152
 20
0.9353546109274011
 30
0.0
 11
41.55281892753312
 21
0.9353847737869956
 31
0.0
  0
LINE
  5
6AD
330
18
100
AcDbEntity
  8
1
 62
     1
100
AcDbLine
 10
65.70000000000002
 20
4.950877607011972
 30
0.0
 11
65.70000000000002
 21
6.125162196074851
 31
0.0
  0
LINE
  5
6AE
330
18
100
AcDbEntity
  8
1
 62
     1
100
AcDbLine
 10
55.02599580514517
 20
4.518277447444333
 30
0.0
 11
55.19907450746835
 21
4.384090033501003
 31
0.0
  0
LINE
  5
6AF
330
18
100
AcDbEntity
  8
1
 62
     1
100
AcDbLine
 10
55.19907450746835
 20
4.384090033501003
 30
0.0
 11
55.3698037986973
 21
4.267518483835445
 31
0.0
  0
LINE
  5
6B0
330
18
100
AcDbEntity
  8
1
 62
     1
100
AcDbLine
 10
55.3698037986973
 20
4.267518483835445
 30
0.0
 11
55.45398003163137
 21
4.216098934903226
 31
0.0
  0
LINE
  5
6B1
330
18
100
AcDbEntity
  8
1
 62
     1
100
AcDbLine
 10
55.45398003163137
 20
4.216098934903226
 30
0.0
 11
55.53717685661589
 21
4.169380486910904
 31
0.0
  0
LINE
  5
6B2
330
18
100
AcDbEntity
  8
1
 62
     1
100
AcDbLine
 10
55.53717685661589
 20
4.169380486910904
 30
0.0
 11
55.6192434663397
 21
4.127444932409317
 31
0.0
  0
LINE
  5
6B3
330
18
100
AcDbEntity
  8
1
 62
     1
100
AcDbLine
 10
55.6192434663397
 20
4.127444932409317
 30
0.0
 11
55.69999999999999
 21
4.090367715152077
 31
0.0
  0
LINE
  5
6B4
330
18
100
AcDbEntity
  8
SK1
100
AcDbLine
 10
0.0000000000000018
 20
6.096
 30
0.0
 11
-30.07599999999999
 21
6.096
 31
0.0
  0
LINE
  5
6B5
330
18
100
AcDbEntity
  8
SK1
100
AcDbLine
 10
-30.076
 20
-4.572000000000001
 30
0.0
 11
-30.07599999999999
 21
-6.096
 31
0.0
  0
LINE
  5
6B6
330
18
100
AcDbEntity
  8
SK1
100
AcDbLine
 10
-43.6904
 20
4.032124998062439
 30
0.0
 11
-30.076
 21
4.032124998062439
 31
0.0
  0
ARC
  5
6B7
330
18
100
AcDbEntity
  8
SK1
100
AcDbCircle
 10
-31.63138506158165
 20
-4.01447072387433
 30
0.0
 40
14.49684497457784
100
AcDbArc
 50
146.2860833229725
 51
150.9140491491054
  0
LINE
  5
6B8
330
18
100
AcDbEntity
  8
SK1
100
AcDbLine
 10
-43.6904
 20
4.572000000000002
 30
0.0
 11
-43.6904
 21
4.032124998062439
 31
0.0
  0
LINE
  5
6B9
330
18
100
AcDbEntity
  8
SK1
100
AcDbLine
 10
-44.3
 20
4.572
 30
0.0
 11
-43.6904
 21
4.572
 31
0.0
  0
LINE
  5
6BA
330
18
100
AcDbEntity
  8
SK1
100
AcDbLine
 10
-30.07599999999999
 20
6.096
 30
0.0
 11
-30.076
 21
6.095680765486963
 31
0.0
  0
LINE
  5
6BB
330
18
100
AcDbEntity
  8
SK1
100
AcDbLine
 10
-30.076
 20
6.095680765486963
 30
0.0
 11
-30.076
 21
5.9979427710188
 31
0.0
  0
LINE
  5
6BC
330
18
100
AcDbEntity
  8
SK1
100
AcDbLine
 10
-30.076
 20
5.9979427710188
 30
0.0
 11
-30.076
 21
4.572000000000001
 31
0.0
  0
LINE
  5
6BD
330
18
100
AcDbEntity
  8
SK1
100
AcDbLine
 10
-43.69039999999999
 20
4.572000000000001
 30
0.0
 11
-30.07599999999999
 21
4.572000000000001
 31
0.0
  0
LINE
  5
6BE
330
18
100
AcDbEntity
  8
SK1
100
AcDbLine
 10
-43.69039999999999
 20
-4.032124998062437
 30
0.0
 11
-43.69039999999999
 21
-4.571999999999999
 31
0.0
  0
LINE
  5
6BF
330
18
100
AcDbEntity
  8
SK1
100
AcDbLine
 10
-43.6904
 20
-4.572
 30
0.0
 11
-30.07599999999999
 21
-4.572
 31
0.0
  0
LINE
  5
6C0
330
18
100
AcDbEntity
  8
SK1
100
AcDbLine
 10
-44.30000000000001
 20
4.572
 30
0.0
 11
-44.30000000000001
 21
3.032721708300978
 31
0.0
  0
LINE
  5
6C1
330
18
100
AcDbEntity
  8
SK1
100
AcDbLine
 10
-44.3
 20
-3.032721708300974
 30
0.0
 11
-44.3
 21
-4.572000000000001
 31
0.0
  0
ARC
  5
6C2
330
18
100
AcDbEntity
  8
SK1
100
AcDbCircle
 10
-31.63138506159362
 20
4.014470723866983
 30
0.0
 40
14.49684497456381
100
AcDbArc
 50
209.0859508508922
 51
213.7139166770295
  0
LINE
  5
6C3
330
18
100
AcDbEntity
  8
SK1
100
AcDbLine
 10
-44.3
 20
-4.571999999999999
 30
0.0
 11
-43.6904
 21
-4.572
 31
0.0
  0
LINE
  5
6C4
330
18
100
AcDbEntity
  8
SK1
100
AcDbLine
 10
-30.076
 20
4.032124998062432
 30
0.0
 11
-30.076
 21
-4.032124998062433
 31
0.0
  0
LINE
  5
6C5
330
18
100
AcDbEntity
  8
SK1
100
AcDbLine
 10
-44.3
 20
3.032721708300978
 30
0.0
 11
-44.3
 21
-3.032721708300976
 31
0.0
  0
LINE
  5
6C6
330
18
100
AcDbEntity
  8
SK1
100
AcDbLine
 10
-43.6904
 20
-4.032124998062438
 30
0.0
 11
-30.076
 21
-4.032124998062438
 31
0.0
  0
LINE
  5
6C7
330
18
100
AcDbEntity
  8
SK1
100
AcDbLine
 10
-30.07599999999999
 20
-6.096
 30
0.0
 11
0.0000000000000027
 21
-6.096
 31
0.0
  0
DIMENSION
  5
6C8
330
18
100
AcDbEntity
  8
2
100
AcDbDimension
  2
*D0
 10
80.70000000000006
 20
-7.999999999999947
 30
0.0
 11
78.30925000000003
 21
0.0000000000000448
 31
0.0
 70
    32
  1
M16
 71
     5
 42
16.0
  3
STANDARD
100
AcDbAlignedDimension
 13
65.7
 23
8.0
 33
0.0
 14
65.7
 24
-8.0
 34
0.0
 50
90.0000000000002
100
AcDbRotatedDimension
  0
DIMENSION
  5
6D5
330
18
100
AcDbEntity
  8
2
100
AcDbDimension
  2
*D1
 10
65.7
 20
75.0
 30
0.0
 11
32.85
 21
77.39775
 31
0.0
 70
    32
  1
<>
 71
     5
 42
65.7
  3
STANDARD
100
AcDbAlignedDimension
 13
0.0
 23
0.0
 33
0.0
 14
65.7
 24
0.0
 34
0.0
100
AcDbRotatedDimension
  0
DIMENSION
  5
6E2
330
18
100
AcDbEntity
  8
SK2
100
AcDbDimension
  2
*D2
 10
-59.29999999996889
 20
-6.096000000149142
 30
0.0
 11
-61.69774999991175
 21
-17.29200000016138
 31
0.0
 70
    32
  1
%%c<>
 71
     5
 42
12.192
  3
STANDARD
100
AcDbAlignedDimension
 13
-30.07599999999999
 23
6.096
 33
0.0
 14
-30.07599999999999
 24
-6.096
 34
0.0
 50
90.0000000002924
100
AcDbRotatedDimension
  0
DIMENSION
  5
6F0
330
18
100
AcDbEntity
  8
2
100
AcDbDimension
  2
*D3
 10
65.7
 20
60.0
 30
0.0
 11
53.62264973000001
 21
62.438
 31
0.0
 70
    32
  1
<>
 71
     5
 42
24.15470054
  3
STANDARD
100
AcDbAlignedDimension
 13
41.54529946
 23
6.0
 33
0.0
 14
65.7
 24
8.0
 34
0.0
100
AcDbRotatedDimension
  0
DIMENSION
  5
6FD
330
18
100
AcDbEntity
  8
SK2
100
AcDbDimension
  2
*D4
 10
65.7
 20
90.0
 30
0.0
 11
10.7
 21
92.39075
 31
0.0
 70
    32
  1
<>
 71
     5
 42
110.0
  3
STANDARD
100
AcDbAlignedDimension
 13
-44.3
 23
8.0
 33
0.0
 14
65.7
 24
8.0
 34
0.0
100
AcDbRotatedDimension
  0
ENDSEC
  0
SECTION
  2
OBJECTS
  0
DICTIONARY
  5
C
330
0
100
AcDbDictionary
281
     1
  3
ACAD_COLOR
350
387
  3
ACAD_GROUP
350
D
  3
ACAD_LAYOUT
350
301
  3
ACAD_MATERIAL
350
386
  3
ACAD_MLEADERSTYLE
350
70A
  3
ACAD_MLINESTYLE
350
E
  3
ACAD_PLOTSETTINGS
350
302
  3
ACAD_PLOTSTYLENAME
350
2FF
  3
ACAD_SCALELIST
350
3A0
  3
ACAD_TABLESTYLE
350
388
  3
ACAD_VISUALSTYLE
350
3C5
  3
ACDBHEADERROUNDTRIPXREC
350
70B
  3
AcDbVariableDictionary
350
357
  0
DICTIONARY
  5
387
102
{ACAD_REACTORS
330
C
102
}
330
C
100
AcDbDictionary
281
     1
  0
DICTIONARY
  5
D
102
{ACAD_REACTORS
330
C
102
}
330
C
100
AcDbDictionary
281
     1
  0
DICTIONARY
  5
301
102
{ACAD_REACTORS
330
C
102
}
330
C
100
AcDbDictionary
281
     1
  3
Layout1
350
33B
  3
Model
350
303
  0
DICTIONARY
  5
386
102
{ACAD_REACTORS
330
C
102
}
330
C
100
AcDbDictionary
281
     1
  3
ByBlock
350
3C3
  3
ByLayer
350
3C2
  3
Global
350
3C4
  0
DICTIONARY
  5
70A
102
{ACAD_REACTORS
330
C
102
}
330
C
100
AcDbDictionary
281
     1
  0
DICTIONARY
  5
E
102
{ACAD_REACTORS
330
C
102
}
330
C
100
AcDbDictionary
281
     1
  3
STANDARD
350
1B
  0
DICTIONARY
  5
302
102
{ACAD_REACTORS
330
C
102
}
330
C
100
AcDbDictionary
281
     1
  0
ACDBDICTIONARYWDFLT
  5
2FF
102
{ACAD_REACTORS
330
C
102
}
330
C
100
AcDbDictionary
281
     1
  3
Normal
350
300
100
AcDbDictionaryWithDefault
340
300
  0
DICTIONARY
  5
3A0
102
{ACAD_REACTORS
330
C
102
}
330
C
100
AcDbDictionary
281
     1
  3
A0
350
3A1
  3
A1
350
3A2
  3
A2
350
3A3
  3
A3
350
3A4
  3
A4
350
3A5
  3
A5
350
3A6
  3
A6
350
3A7
  3
A7
350
3A8
  3
A8
350
3A9
  3
A9
350
3AA
  3
B0
350
3AB
  3
B1
350
3AC
  3
B2
350
3AD
  3
B3
350
3AE
  3
B4
350
3AF
  3
B5
350
3B0
  3
B6
350
3B1
  3
B7
350
3B2
  3
B8
350
3B3
  3
B9
350
3B4
  3
C0
350
3B5
  3
C1
350
3B6
  3
C2
350
3B7
  3
C3
350
3B8
  3
C4
350
3B9
  3
C5
350
3BA
  3
C6
350
3BB
  3
C7
350
3BC
  3
C8
350
3BD
  3
C9
350
3BE
  3
D0
350
3BF
  3
D1
350
3C0
  3
D2
350
3C1
  0
DICTIONARY
  5
388
102
{ACAD_REACTORS
330
C
102
}
330
C
100
AcDbDictionary
281
     1
  3
Standard
350
389
  0
DICTIONARY
  5
3C5
102
{ACAD_REACTORS
330
C
102
}
330
C
100
AcDbDictionary
281
     1
  3
2dWireframe
350
3CA
  3
3D Hidden
350
3CC
  3
3dWireframe
350
3CB
  3
Basic
350
3CD
  3
Brighten
350
3D1
  3
ColorChange
350
3D5
  3
Conceptual
350
3CF
  3
Dim
350
3D0
  3
Facepattern
350
3D4
  3
Flat
350
3C6
  3
FlatWithEdges
350
3C7
  3
Gouraud
350
3C8
  3
GouraudWithEdges
350
3C9
  3
Linepattern
350
3D3
  3
Realistic
350
3CE
  3
Thicken
350
3D2
  0
DICTIONARY
  5
70B
102
{ACAD_REACTORS
330
C
102
}
330
C
100
AcDbDictionary
281
     1
  3
COLORDICT
350
70C
  3
MATERIALDICT
350
70D
  0
DICTIONARY
  5
357
102
{ACAD_REACTORS
330
C
102
}
330
C
100
AcDbDictionary
281
     1
  3
CANNOSCALE
350
70E
  3
CTABLESTYLE
350
38D
  3
DIMASSOC
350
359
  3
HIDETEXT
350
358
  3
PROJECTNAME
350
38E
  0
LAYOUT
  5
33B
102
{ACAD_REACTORS
330
301
102
}
330
301
100
AcDbPlotSettings
  1

  2
Lexmark Optra PS2
  4

  6

 40
0.0
 41
0.0
 42
0.0
 43
0.0
 44
0.0
 45
0.0
 46
0.0
 47
0.0
 48
0.0
 49
0.0
140
0.0
141
0.0
142
1.0
143
1.0
 70
   688
 72
     0
 73
     0
 74
     5
  7
monochrome.ctb
 75
    16
147
1.0
148
0.0
149
0.0
100
AcDbLayout
  1
Layout1
 70
     1
 71
     1
 10
0.0
 20
0.0
 11
12.0
 21
9.0
 12
0.0
 22
0.0
 32
0.0
 14
0.0
 24
0.0
 34
0.0
 15
0.0
 25
0.0
 35
0.0
146
0.0
 13
0.0
 23
0.0
 33
0.0
 16
1.0
 26
0.0
 36
0.0
 17
0.0
 27
1.0
 37
0.0
 76
     0
330
338
  0
LAYOUT
  5
303
102
{ACAD_REACTORS
330
301
102
}
330
301
100
AcDbPlotSettings
  1

  2
Lexmark Optra Rx
  4
A4
  6

 40
6.805083274841307
 41
5.535083293914794
 42
6.974411010742187
 43
7.14373779296875
 44
209.9733276367186
 45
296.9259948730469
 46
0.0
 47
0.0
 48
0.0
 49
0.0
140
0.0
141
0.0
142
1.0
143
2.976565420630886
 70
 11952
 72
     1
 73
     1
 74
     0
  7
monochrome.ctb
 75
     0
147
0.335957675604539
148
204.1199660668592
149
172.3933209647495
100
AcDbLayout
  1
Model
 70
     1
 71
     0
 10
0.0
 20
0.0
 11
12.0
 21
9.0
 12
0.0
 22
0.0
 32
0.0
 14
0.0
 24
0.0
 34
0.0
 15
0.0
 25
0.0
 35
0.0
146
0.0
 13
0.0
 23
0.0
 33
0.0
 16
1.0
 26
0.0
 36
0.0
 17
0.0
 27
1.0
 37
0.0
 76
     0
330
18
331
39A
  0
MATERIAL
  5
3C3
102
{ACAD_REACTORS
330
386
102
}
102
{ACAD_XDICTIONARY
360
711
102
}
330
386
100
AcDbMaterial
  1
ByBlock
  0
MATERIAL
  5
3C2
102
{ACAD_REACTORS
330
386
102
}
102
{ACAD_XDICTIONARY
360
70F
102
}
330
386
100
AcDbMaterial
  1
ByLayer
  0
MATERIAL
  5
3C4
102
{ACAD_REACTORS
330
386
102
}
102
{ACAD_XDICTIONARY
360
713
102
}
330
386
100
AcDbMaterial
  1
Global
  0
MLINESTYLE
  5
1B
102
{ACAD_REACTORS
330
E
102
}
330
E
100
AcDbMlineStyle
  2
STANDARD
 70
     0
  3

 62
     0
 51
90.0
 52
90.0
 71
     2
 49
0.5
 62
   256
  6
BYLAYER
 49
-0.5
 62
   256
  6
BYLAYER
  0
ACDBPLACEHOLDER
  5
300
102
{ACAD_REACTORS
330
2FF
102
}
330
2FF
  0
SCALE
  5
3A1
102
{ACAD_REACTORS
330
3A0
102
}
330
3A0
100
AcDbScale
 70
     0
300
1:1
140
1.0
141
1.0
290
     1
  0
SCALE
  5
3A2
102
{ACAD_REACTORS
330
3A0
102
}
330
3A0
100
AcDbScale
 70
     0
300
1:2
140
1.0
141
2.0
290
     0
  0
SCALE
  5
3A3
102
{ACAD_REACTORS
330
3A0
102
}
330
3A0
100
AcDbScale
 70
     0
300
1:4
140
1.0
141
4.0
290
     0
  0
SCALE
  5
3A4
102
{ACAD_REACTORS
330
3A0
102
}
330
3A0
100
AcDbScale
 70
     0
300
1:5
140
1.0
141
5.0
290
     0
  0
SCALE
  5
3A5
102
{ACAD_REACTORS
330
3A0
102
}
330
3A0
100
AcDbScale
 70
     0
300
1:8
140
1.0
141
8.0
290
     0
  0
SCALE
  5
3A6
102
{ACAD_REACTORS
330
3A0
102
}
330
3A0
100
AcDbScale
 70
     0
300
1:10
140
1.0
141
10.0
290
     0
  0
SCALE
  5
3A7
102
{ACAD_REACTORS
330
3A0
102
}
330
3A0
100
AcDbScale
 70
     0
300
1:16
140
1.0
141
16.0
290
     0
  0
SCALE
  5
3A8
102
{ACAD_REACTORS
330
3A0
102
}
330
3A0
100
AcDbScale
 70
     0
300
1:20
140
1.0
141
20.0
290
     0
  0
SCALE
  5
3A9
102
{ACAD_REACTORS
330
3A0
102
}
330
3A0
100
AcDbScale
 70
     0
300
1:30
140
1.0
141
30.0
290
     0
  0
SCALE
  5
3AA
102
{ACAD_REACTORS
330
3A0
102
}
330
3A0
100
AcDbScale
 70
     0
300
1:40
140
1.0
141
40.0
290
     0
  0
SCALE
  5
3AB
102
{ACAD_REACTORS
330
3A0
102
}
330
3A0
100
AcDbScale
 70
     0
300
1:50
140
1.0
141
50.0
290
     0
  0
SCALE
  5
3AC
102
{ACAD_REACTORS
330
3A0
102
}
330
3A0
100
AcDbScale
 70
     0
300
1:100
140
1.0
141
100.0
290
     0
  0
SCALE
  5
3AD
102
{ACAD_REACTORS
330
3A0
102
}
330
3A0
100
AcDbScale
 70
     0
300
2:1
140
2.0
141
1.0
290
     0
  0
SCALE
  5
3AE
102
{ACAD_REACTORS
330
3A0
102
}
330
3A0
100
AcDbScale
 70
     0
300
4:1
140
4.0
141
1.0
290
     0
  0
SCALE
  5
3AF
102
{ACAD_REACTORS
330
3A0
102
}
330
3A0
100
AcDbScale
 70
     0
300
8:1
140
8.0
141
1.0
290
     0
  0
SCALE
  5
3B0
102
{ACAD_REACTORS
330
3A0
102
}
330
3A0
100
AcDbScale
 70
     0
300
10:1
140
10.0
141
1.0
290
     0
  0
SCALE
  5
3B1
102
{ACAD_REACTORS
330
3A0
102
}
330
3A0
100
AcDbScale
 70
     0
300
100:1
140
100.0
141
1.0
290
     0
  0
SCALE
  5
3B2
102
{ACAD_REACTORS
330
3A0
102
}
330
3A0
100
AcDbScale
 70
     0
300
1/128" = 1'-0"
140
0.0078125
141
12.0
290
     0
  0
SCALE
  5
3B3
102
{ACAD_REACTORS
330
3A0
102
}
330
3A0
100
AcDbScale
 70
     0
300
1/64" = 1'-0"
140
0.015625
141
12.0
290
     0
  0
SCALE
  5
3B4
102
{ACAD_REACTORS
330
3A0
102
}
330
3A0
100
AcDbScale
 70
     0
300
1/32" = 1'-0"
140
0.03125
141
12.0
290
     0
  0
SCALE
  5
3B5
102
{ACAD_REACTORS
330
3A0
102
}
330
3A0
100
AcDbScale
 70
     0
300
1/16" = 1'-0"
140
0.0625
141
12.0
290
     0
  0
SCALE
  5
3B6
102
{ACAD_REACTORS
330
3A0
102
}
330
3A0
100
AcDbScale
 70
     0
300
3/32" = 1'-0"
140
0.09375
141
12.0
290
     0
  0
SCALE
  5
3B7
102
{ACAD_REACTORS
330
3A0
102
}
330
3A0
100
AcDbScale
 70
     0
300
1/8" = 1'-0"
140
0.125
141
12.0
290
     0
  0
SCALE
  5
3B8
102
{ACAD_REACTORS
330
3A0
102
}
330
3A0
100
AcDbScale
 70
     0
300
3/16" = 1'-0"
140
0.1875
141
12.0
290
     0
  0
SCALE
  5
3B9
102
{ACAD_REACTORS
330
3A0
102
}
330
3A0
100
AcDbScale
 70
     0
300
1/4" = 1'-0"
140
0.25
141
12.0
290
     0
  0
SCALE
  5
3BA
102
{ACAD_REACTORS
330
3A0
102
}
330
3A0
100
AcDbScale
 70
     0
300
3/8" = 1'-0"
140
0.375
141
12.0
290
     0
  0
SCALE
  5
3BB
102
{ACAD_REACTORS
330
3A0
102
}
330
3A0
100
AcDbScale
 70
     0
300
1/2" = 1'-0"
140
0.5
141
12.0
290
     0
  0
SCALE
  5
3BC
102
{ACAD_REACTORS
330
3A0
102
}
330
3A0
100
AcDbScale
 70
     0
300
3/4" = 1'-0"
140
0.75
141
12.0
290
     0
  0
SCALE
  5
3BD
102
{ACAD_REACTORS
330
3A0
102
}
330
3A0
100
AcDbScale
 70
     0
300
1" = 1'-0"
140
1.0
141
12.0
290
     0
  0
SCALE
  5
3BE
102
{ACAD_REACTORS
330
3A0
102
}
330
3A0
100
AcDbScale
 70
     0
300
1-1/2" = 1'-0"
140
1.5
141
12.0
290
     0
  0
SCALE
  5
3BF
102
{ACAD_REACTORS
330
3A0
102
}
330
3A0
100
AcDbScale
 70
     0
300
3" = 1'-0"
140
3.0
141
12.0
290
     0
  0
SCALE
  5
3C0
102
{ACAD_REACTORS
330
3A0
102
}
330
3A0
100
AcDbScale
 70
     0
300
6" = 1'-0"
140
6.0
141
12.0
290
     0
  0
SCALE
  5
3C1
102
{ACAD_REACTORS
330
3A0
102
}
330
3A0
100
AcDbScale
 70
     0
300
1'-0" = 1'-0"
140
12.0
141
12.0
290
     0
  0
TABLESTYLE
  5
389
102
{ACAD_REACTORS
330
388
102
}
330
388
100
AcDbTableStyle
  3
Standard
 70
     0
 71
     0
 40
1.5
 41
1.5
280
     0
281
     0
  7
STANDARD
140
4.5
170
     2
 62
     0
 63
   257
283
     0
274
    -2
284
     1
 64
     0
275
    -2
285
     1
 65
     0
276
    -2
286
     1
 66
     0
277
    -2
287
     1
 67
     0
278
    -2
288
     1
 68
     0
279
    -2
289
     1
 69
     0
  7
STANDARD
140
6.0
170
     5
 62
     0
 63
   257
283
     0
274
    -2
284
     1
 64
     0
275
    -2
285
     1
 65
     0
276
    -2
286
     1
 66
     0
277
    -2
287
     1
 67
     0
278
    -2
288
     1
 68
     0
279
    -2
289
     1
 69
     0
  7
STANDARD
140
4.5
170
     5
 62
     0
 63
   257
283
     0
274
    -2
284
     1
 64
     0
275
    -2
285
     1
 65
     0
276
    -2
286
     1
 66
     0
277
    -2
287
     1
 67
     0
278
    -2
288
     1
 68
     0
279
    -2
289
     1
 69
     0
  0
VISUALSTYLE
  5
3CA
102
{ACAD_REACTORS
330
3C5
102
}
102
{ACAD_XDICTIONARY
360
71D
102
}
330
3C5
100
AcDbVisualStyle
  2
2dWireframe
 70
     4
 71
     0
 72
     2
 73
     0
 90
        0
 40
-0.6
 41
-30.0
 62
     5
 63
     7
 74
     1
 91
        4
 64
     7
 65
   257
 75
     1
175
     1
 42
1.0
 92
        0
 66
   257
 43
1.0
 76
     1
 77
     6
 78
     2
 67
     7
 79
     5
170
     0
171
     0
290
     0
174
     0
 93
        1
 44
0.0
173
     0
291
     0
 45
0.0
1001
ACAD
1000
AcDbSavedByObjectVersion
1070
     0
  0
VISUALSTYLE
  5
3CC
102
{ACAD_REACTORS
330
3C5
102
}
102
{ACAD_XDICTIONARY
360
721
102
}
330
3C5
100
AcDbVisualStyle
  2
3D Hidden
 70
     6
 71
     1
 72
     2
 73
     2
 90
        0
 40
-0.6
 41
-30.0
 62
     5
 63
     7
 74
     2
 91
        2
 64
     7
 65
   257
 75
     2
175
     1
 42
40.0
 92
        0
 66
   257
 43
1.0
 76
     1
 77
     6
 78
     2
 67
     7
 79
     3
170
     0
171
     0
290
     0
174
     0
 93
        1
 44
0.0
173
     0
291
     0
 45
0.0
1001
ACAD
1000
AcDbSavedByObjectVersion
1070
     0
  0
VISUALSTYLE
  5
3CB
102
{ACAD_REACTORS
330
3C5
102
}
102
{ACAD_XDICTIONARY
360
71F
102
}
330
3C5
100
AcDbVisualStyle
  2
3dWireframe
 70
     5
 71
     0
 72
     2
 73
     0
 90
        0
 40
-0.6
 41
-30.0
 62
     5
 63
     7
 74
     1
 91
        4
 64
     7
 65
   257
 75
     1
175
     1
 42
1.0
 92
        0
 66
   257
 43
1.0
 76
     1
 77
     6
 78
     2
 67
     7
 79
     5
170
     0
171
     0
290
     0
174
     0
 93
        1
 44
0.0
173
     0
291
     0
 45
0.0
1001
ACAD
1000
AcDbSavedByObjectVersion
1070
     0
  0
VISUALSTYLE
  5
3CD
102
{ACAD_REACTORS
330
3C5
102
}
102
{ACAD_XDICTIONARY
360
723
102
}
330
3C5
100
AcDbVisualStyle
  2
Basic
 70
     7
 71
     1
 72
     0
 73
     1
 90
        0
 40
-0.6
 41
-30.0
 62
     5
 63
     7
 74
     0
 91
        4
 64
     7
 65
   257
 75
     1
175
     1
 42
1.0
 92
        8
 66
     7
 43
1.0
 76
     1
 77
     6
 78
     2
 67
     7
 79
     5
170
     0
171
     0
290
     0
174
     0
 93
        1
 44
0.0
173
     0
291
     1
 45
0.0
1001
ACAD
1000
AcDbSavedByObjectVersion
1070
     0
  0
VISUALSTYLE
  5
3D1
102
{ACAD_REACTORS
330
3C5
102
}
102
{ACAD_XDICTIONARY
360
72B
102
}
330
3C5
100
AcDbVisualStyle
  2
Brighten
 70
    12
 71
     2
 72
     2
 73
     0
 90
        0
 40
-0.6
 41
-30.0
 62
     5
 63
     7
 74
     1
 91
        4
 64
     7
 65
   257
 75
     1
175
     1
 42
1.0
 92
        8
 66
     7
 43
1.0
 76
     1
 77
     6
 78
     2
 67
     7
 79
     5
170
     0
171
     0
290
     0
174
     0
 93
        1
 44
50.0
173
     0
291
     1
 45
0.0
1001
ACAD
1000
AcDbSavedByObjectVersion
1070
     0
  0
VISUALSTYLE
  5
3D5
102
{ACAD_REACTORS
330
3C5
102
}
102
{ACAD_XDICTIONARY
360
733
102
}
330
3C5
100
AcDbVisualStyle
  2
ColorChange
 70
    16
 71
     2
 72
     2
 73
     3
 90
        0
 40
-0.6
 41
-30.0
 62
     5
 63
     8
 74
     1
 91
        4
 64
     7
 65
   257
 75
     1
175
     1
 42
1.0
 92
        8
 66
     8
 43
1.0
 76
     1
 77
     6
 78
     2
 67
     7
 79
     5
170
     0
171
     0
290
     0
174
     0
 93
        1
 44
0.0
173
     0
291
     1
 45
0.0
1001
ACAD
1000
AcDbSavedByObjectVersion
1070
     0
  0
VISUALSTYLE
  5
3CF
102
{ACAD_REACTORS
330
3C5
102
}
102
{ACAD_XDICTIONARY
360
727
102
}
330
3C5
100
AcDbVisualStyle
  2
Conceptual
 70
     9
 71
     3
 72
     2
 73
     0
 90
        0
 40
-0.6
 41
-30.0
 62
     5
 63
     7
 74
     2
 91
        2
 64
     7
 65
   257
 75
     1
175
     1
 42
40.0
 92
        8
 66
     7
 43
1.0
 76
     1
 77
     6
 78
     2
 67
     7
 79
     3
170
     0
171
     0
290
     0
174
     0
 93
        1
 44
0.0
173
     0
291
     0
 45
0.0
1001
ACAD
1000
AcDbSavedByObjectVersion
1070
     0
  0
VISUALSTYLE
  5
3D0
102
{ACAD_REACTORS
330
3C5
102
}
102
{ACAD_XDICTIONARY
360
729
102
}
330
3C5
100
AcDbVisualStyle
  2
Dim
 70
    11
 71
     2
 72
     2
 73
     0
 90
        0
 40
-0.6
 41
-30.0
 62
     5
 63
     7
 74
     1
 91
        4
 64
     7
 65
   257
 75
     1
175
     1
 42
1.0
 92
        8
 66
     7
 43
1.0
 76
     1
 77
     6
 78
     2
 67
     7
 79
     5
170
     0
171
     0
290
     0
174
     0
 93
        1
 44
-50.0
173
     0
291
     1
 45
0.0
1001
ACAD
1000
AcDbSavedByObjectVersion
1070
     0
  0
VISUALSTYLE
  5
3D4
102
{ACAD_REACTORS
330
3C5
102
}
102
{ACAD_XDICTIONARY
360
731
102
}
330
3C5
100
AcDbVisualStyle
  2
Facepattern
 70
    15
 71
     2
 72
     2
 73
     0
 90
        0
 40
-0.6
 41
-30.0
 62
     5
 63
     7
 74
     1
 91
        4
 64
     7
 65
   257
 75
     1
175
     1
 42
1.0
 92
        8
 66
     7
 43
1.0
 76
     1
 77
     6
 78
     2
 67
     7
 79
     5
170
     0
171
     0
290
     0
174
     0
 93
        1
 44
0.0
173
     0
291
     1
 45
0.0
1001
ACAD
1000
AcDbSavedByObjectVersion
1070
     0
  0
VISUALSTYLE
  5
3C6
102
{ACAD_REACTORS
330
3C5
102
}
102
{ACAD_XDICTIONARY
360
715
102
}
330
3C5
100
AcDbVisualStyle
  2
Flat
 70
     0
 71
     2
 72
     1
 73
     1
 90
        2
 40
-0.6
 41
30.0
 62
     5
 63
     7
 74
     0
 91
        4
 64
     7
 65
   257
 75
     1
175
     1
 42
1.0
 92
        8
 66
     7
 43
1.0
 76
     1
 77
     6
 78
     2
 67
     7
 79
     5
170
     0
171
     0
290
     0
174
     0
 93
       13
 44
0.0
173
     0
291
     1
 45
0.0
1001
ACAD
1000
AcDbSavedByObjectVersion
1070
     0
  0
VISUALSTYLE
  5
3C7
102
{ACAD_REACTORS
330
3C5
102
}
102
{ACAD_XDICTIONARY
360
717
102
}
330
3C5
100
AcDbVisualStyle
  2
FlatWithEdges
 70
     1
 71
     2
 72
     1
 73
     1
 90
        2
 40
-0.6
 41
30.0
 62
     5
 63
     7
 74
     1
 91
        4
 64
     7
 65
   257
 75
     1
175
     1
 42
1.0
 92
        0
 66
   257
 43
1.0
 76
     1
 77
     6
 78
     2
 67
     7
 79
     5
170
     0
171
     0
290
     0
174
     0
 93
       13
 44
0.0
173
     0
291
     1
 45
0.0
1001
ACAD
1000
AcDbSavedByObjectVersion
1070
     0
  0
VISUALSTYLE
  5
3C8
102
{ACAD_REACTORS
330
3C5
102
}
102
{ACAD_XDICTIONARY
360
719
102
}
330
3C5
100
AcDbVisualStyle
  2
Gouraud
 70
     2
 71
     2
 72
     2
 73
     1
 90
        2
 40
-0.6
 41
30.0
 62
     5
 63
     7
 74
     0
 91
        4
 64
     7
 65
   257
 75
     1
175
     1
 42
1.0
 92
        0
 66
     7
 43
1.0
 76
     1
 77
     6
 78
     2
 67
     7
 79
     5
170
     0
171
     0
290
     0
174
     0
 93
       13
 44
0.0
173
     0
291
     1
 45
0.0
1001
ACAD
1000
AcDbSavedByObjectVersion
1070
     0
  0
VISUALSTYLE
  5
3C9
102
{ACAD_REACTORS
330
3C5
102
}
102
{ACAD_XDICTIONARY
360
71B
102
}
330
3C5
100
AcDbVisualStyle
  2
GouraudWithEdges
 70
     3
 71
     2
 72
     2
 73
     1
 90
        2
 40
-0.6
 41
30.0
 62
     5
 63
     7
 74
     1
 91
        4
 64
     7
 65
   257
 75
     1
175
     1
 42
1.0
 92
        0
 66
   257
 43
1.0
 76
     1
 77
     6
 78
     2
 67
     7
 79
     5
170
     0
171
     0
290
     0
174
     0
 93
       13
 44
0.0
173
     0
291
     1
 45
0.0
1001
ACAD
1000
AcDbSavedByObjectVersion
1070
     0
  0
VISUALSTYLE
  5
3D3
102
{ACAD_REACTORS
330
3C5
102
}
102
{ACAD_XDICTIONARY
360
72F
102
}
330
3C5
100
AcDbVisualStyle
  2
Linepattern
 70
    14
 71
     2
 72
     2
 73
     0
 90
        0
 40
-0.6
 41
-30.0
 62
     5
 63
     7
 74
     1
 91
        4
 64
     7
 65
   257
 75
     7
175
     7
 42
1.0
 92
        8
 66
     7
 43
1.0
 76
     1
 77
     6
 78
     2
 67
     7
 79
     5
170
     0
171
     0
290
     0
174
     0
 93
        1
 44
0.0
173
     0
291
     1
 45
0.0
1001
ACAD
1000
AcDbSavedByObjectVersion
1070
     0
  0
VISUALSTYLE
  5
3CE
102
{ACAD_REACTORS
330
3C5
102
}
102
{ACAD_XDICTIONARY
360
725
102
}
330
3C5
100
AcDbVisualStyle
  2
Realistic
 70
     8
 71
     2
 72
     2
 73
     0
 90
        0
 40
-0.6
 41
-30.0
 62
     5
 63
     7
 74
     1
 91
        0
 64
     7
 65
   257
 75
     1
175
     1
 42
1.0
 92
        8
 66
     8
 43
1.0
 76
     1
 77
     6
 78
     2
 67
     7
 79
     5
170
     0
171
     0
290
     0
174
     0
 93
       13
 44
0.0
173
     0
291
     0
 45
0.0
1001
ACAD
1000
AcDbSavedByObjectVersion
1070
     0
  0
VISUALSTYLE
  5
3D2
102
{ACAD_REACTORS
330
3C5
102
}
102
{ACAD_XDICTIONARY
360
72D
102
}
330
3C5
100
AcDbVisualStyle
  2
Thicken
 70
    13
 71
     2
 72
     2
 73
     0
 90
        0
 40
-0.6
 41
-30.0
 62
     5
 63
     7
 74
     1
 91
        4
 64
     7
 65
   257
 75
     1
175
     1
 42
1.0
 92
       12
 66
     7
 43
1.0
 76
     1
 77
     6
 78
     2
 67
     7
 79
     5
170
     0
171
     0
290
     0
174
     0
 93
        1
 44
0.0
173
     0
291
     1
 45
0.0
1001
ACAD
1000
AcDbSavedByObjectVersion
1070
     0
  0
XRECORD
  5
70C
102
{ACAD_REACTORS
330
70B
102
}
330
70B
100
AcDbXrecord
280
     1
340
387
  0
XRECORD
  5
70D
102
{ACAD_REACTORS
330
70B
102
}
330
70B
100
AcDbXrecord
280
     1
340
386
  0
DICTIONARYVAR
  5
70E
102
{ACAD_REACTORS
330
357
102
}
330
357
100
DictionaryVariables
280
     0
  1
1:1
  0
DICTIONARYVAR
  5
38D
102
{ACAD_REACTORS
330
357
102
}
330
357
100
DictionaryVariables
280
     0
  1
Standard
  0
DICTIONARYVAR
  5
359
102
{ACAD_REACTORS
330
357
102
}
330
357
100
DictionaryVariables
280
     0
  1
2
  0
DICTIONARYVAR
  5
358
102
{ACAD_REACTORS
330
357
102
}
330
357
100
DictionaryVariables
280
     0
  1
1
  0
DICTIONARYVAR
  5
38E
102
{ACAD_REACTORS
330
357
102
}
330
357
100
DictionaryVariables
280
     0
  1

  0
DICTIONARY
  5
711
330
3C3
100
AcDbDictionary
280
     1
281
     1
  3
ACAD_XREC_ROUNDTRIP
360
712
  0
DICTIONARY
  5
70F
330
3C2
100
AcDbDictionary
280
     1
281
     1
  3
ACAD_XREC_ROUNDTRIP
360
710
  0
DICTIONARY
  5
713
330
3C4
100
AcDbDictionary
280
     1
281
     1
  3
ACAD_XREC_ROUNDTRIP
360
714
  0
DICTIONARY
  5
71D
330
3CA
100
AcDbDictionary
280
     1
281
     1
  3
ACAD_XREC_ROUNDTRIP
360
71E
  0
DICTIONARY
  5
721
330
3CC
100
AcDbDictionary
280
     1
281
     1
  3
ACAD_XREC_ROUNDTRIP
360
722
  0
DICTIONARY
  5
71F
330
3CB
100
AcDbDictionary
280
     1
281
     1
  3
ACAD_XREC_ROUNDTRIP
360
720
  0
DICTIONARY
  5
723
330
3CD
100
AcDbDictionary
280
     1
281
     1
  3
ACAD_XREC_ROUNDTRIP
360
724
  0
DICTIONARY
  5
72B
330
3D1
100
AcDbDictionary
280
     1
281
     1
  3
ACAD_XREC_ROUNDTRIP
360
72C
  0
DICTIONARY
  5
733
330
3D5
100
AcDbDictionary
280
     1
281
     1
  3
ACAD_XREC_ROUNDTRIP
360
734
  0
DICTIONARY
  5
727
330
3CF
100
AcDbDictionary
280
     1
281
     1
  3
ACAD_XREC_ROUNDTRIP
360
728
  0
DICTIONARY
  5
729
330
3D0
100
AcDbDictionary
280
     1
281
     1
  3
ACAD_XREC_ROUNDTRIP
360
72A
  0
DICTIONARY
  5
731
330
3D4
100
AcDbDictionary
280
     1
281
     1
  3
ACAD_XREC_ROUNDTRIP
360
732
  0
DICTIONARY
  5
715
330
3C6
100
AcDbDictionary
280
     1
281
     1
  3
ACAD_XREC_ROUNDTRIP
360
716
  0
DICTIONARY
  5
717
330
3C7
100
AcDbDictionary
280
     1
281
     1
  3
ACAD_XREC_ROUNDTRIP
360
718
  0
DICTIONARY
  5
719
330
3C8
100
AcDbDictionary
280
     1
281
     1
  3
ACAD_XREC_ROUNDTRIP
360
71A
  0
DICTIONARY
  5
71B
330
3C9
100
AcDbDictionary
280
     1
281
     1
  3
ACAD_XREC_ROUNDTRIP
360
71C
  0
DICTIONARY
  5
72F
330
3D3
100
AcDbDictionary
280
     1
281
     1
  3
ACAD_XREC_ROUNDTRIP
360
730
  0
DICTIONARY
  5
725
330
3CE
100
AcDbDictionary
280
     1
281
     1
  3
ACAD_XREC_ROUNDTRIP
360
726
  0
DICTIONARY
  5
72D
330
3D2
100
AcDbDictionary
280
     1
281
     1
  3
ACAD_XREC_ROUNDTRIP
360
72E
  0
XRECORD
  5
712
102
{ACAD_REACTORS
330
711
102
}
330
711
100
AcDbXrecord
280
     1
102
MATERIAL
148
0.0
149
0.0
149
0.0
 93
        0
 94
      127
282
     0
 72
     1
 77
     1
171
     1
175
     1
179
     1
273
     0
  0
XRECORD
  5
710
102
{ACAD_REACTORS
330
70F
102
}
330
70F
100
AcDbXrecord
280
     1
102
MATERIAL
148
0.0
149
0.0
149
0.0
 93
        0
 94
      127
282
     0
 72
     1
 77
     1
171
     1
175
     1
179
     1
273
     0
  0
XRECORD
  5
714
102
{ACAD_REACTORS
330
713
102
}
330
713
100
AcDbXrecord
280
     1
102
MATERIAL
148
0.0
149
0.0
149
0.0
 93
        0
 94
      127
282
     0
 72
     1
 77
     1
171
     1
175
     1
179
     1
273
     0
  0
XRECORD
  5
71E
102
{ACAD_REACTORS
330
71D
102
}
330
71D
100
AcDbXrecord
280
     1
102
RTVSPropertyOp0
 70
     1
102
RTVSPropertyOp1
 70
     1
102
RTVSPropertyOp2
 70
     1
102
RTVSPropertyOp3
 70
     1
102
RTVSPropertyOp4
 70
     1
102
RTVSPropertyOp5
 70
     1
102
RTVSPropertyOp6
 70
     1
102
RTVSPropertyOp7
 70
     1
102
RTVSPropertyOp8
 70
     1
102
RTVSPropertyOp9
 70
     1
102
RTVSPropertyOp10
 70
     1
102
RTVSPropertyOp11
 70
     1
102
RTVSPropertyOp12
 70
     1
102
RTVSPropertyOp13
 70
     1
102
RTVSPropertyOp14
 70
     1
102
RTVSPropertyOp15
 70
     1
102
RTVSPropertyOp16
 70
     1
102
RTVSPropertyOp17
 70
     1
102
RTVSPropertyOp18
 70
     1
102
RTVSPropertyOp19
 70
     1
102
RTVSPropertyOp20
 70
     1
102
RTVSPropertyOp21
 70
     1
102
RTVSPropertyOp22
 70
     1
102
RTVSPropertyOp23
 70
     1
102
RTVSPropertyOp24
 70
     1
102
RTVSPropertyOp25
 70
     1
102
RTVSPropertyOp26
 70
     1
102
RTVSPropertyOp27
 70
     1
102
RTVSPropertyOp28
 70
     1
102
RTVSPropertyOp29
 70
     1
102
RTVSPropertyOp30
 70
     1
102
RTVSPropertyOp31
 70
     1
102
RTVSPropertyOp32
 70
     1
  0
XRECORD
  5
722
102
{ACAD_REACTORS
330
721
102
}
330
721
100
AcDbXrecord
280
     1
102
RTVSPropertyOp0
 70
     1
102
RTVSPropertyOp1
 70
     1
102
RTVSPropertyOp2
 70
     1
102
RTVSPropertyOp3
 70
     1
102
RTVSPropertyOp4
 70
     1
102
RTVSPropertyOp5
 70
     1
102
RTVSPropertyOp6
 70
     1
102
RTVSPropertyOp7
 70
     1
102
RTVSPropertyOp8
 70
     1
102
RTVSPropertyOp9
 70
     1
102
RTVSPropertyOp10
 70
     1
102
RTVSPropertyOp11
 70
     1
102
RTVSPropertyOp12
 70
     1
102
RTVSPropertyOp13
 70
     1
102
RTVSPropertyOp14
 70
     1
102
RTVSPropertyOp15
 70
     1
102
RTVSPropertyOp16
 70
     1
102
RTVSPropertyOp17
 70
     1
102
RTVSPropertyOp18
 70
     1
102
RTVSPropertyOp19
 70
     1
102
RTVSPropertyOp20
 70
     1
102
RTVSPropertyOp21
 70
     1
102
RTVSPropertyOp22
 70
     1
102
RTVSPropertyOp23
 70
     1
102
RTVSPropertyOp24
 70
     1
102
RTVSPropertyOp25
 70
     1
102
RTVSPropertyOp26
 70
     1
102
RTVSPropertyOp27
 70
     1
102
RTVSPropertyOp28
 70
     1
102
RTVSPropertyOp29
 70
     1
102
RTVSPropertyOp30
 70
     1
102
RTVSPropertyOp31
 70
     1
102
RTVSPropertyOp32
 70
     1
  0
XRECORD
  5
720
102
{ACAD_REACTORS
330
71F
102
}
330
71F
100
AcDbXrecord
280
     1
102
RTVSPropertyOp0
 70
     1
102
RTVSPropertyOp1
 70
     1
102
RTVSPropertyOp2
 70
     1
102
RTVSPropertyOp3
 70
     1
102
RTVSPropertyOp4
 70
     1
102
RTVSPropertyOp5
 70
     1
102
RTVSPropertyOp6
 70
     1
102
RTVSPropertyOp7
 70
     1
102
RTVSPropertyOp8
 70
     1
102
RTVSPropertyOp9
 70
     1
102
RTVSPropertyOp10
 70
     1
102
RTVSPropertyOp11
 70
     1
102
RTVSPropertyOp12
 70
     1
102
RTVSPropertyOp13
 70
     1
102
RTVSPropertyOp14
 70
     1
102
RTVSPropertyOp15
 70
     1
102
RTVSPropertyOp16
 70
     1
102
RTVSPropertyOp17
 70
     1
102
RTVSPropertyOp18
 70
     1
102
RTVSPropertyOp19
 70
     1
102
RTVSPropertyOp20
 70
     1
102
RTVSPropertyOp21
 70
     1
102
RTVSPropertyOp22
 70
     1
102
RTVSPropertyOp23
 70
     1
102
RTVSPropertyOp24
 70
     1
102
RTVSPropertyOp25
 70
     1
102
RTVSPropertyOp26
 70
     1
102
RTVSPropertyOp27
 70
     1
102
RTVSPropertyOp28
 70
     1
102
RTVSPropertyOp29
 70
     1
102
RTVSPropertyOp30
 70
     1
102
RTVSPropertyOp31
 70
     1
102
RTVSPropertyOp32
 70
     1
  0
XRECORD
  5
724
102
{ACAD_REACTORS
330
723
102
}
330
723
100
AcDbXrecord
280
     1
102
RTVSPropertyOp0
 70
     1
102
RTVSPropertyOp1
 70
     1
102
RTVSPropertyOp2
 70
     1
102
RTVSPropertyOp3
 70
     1
102
RTVSPropertyOp4
 70
     1
102
RTVSPropertyOp5
 70
     1
102
RTVSPropertyOp6
 70
     1
102
RTVSPropertyOp7
 70
     1
102
RTVSPropertyOp8
 70
     1
102
RTVSPropertyOp9
 70
     1
102
RTVSPropertyOp10
 70
     1
102
RTVSPropertyOp11
 70
     1
102
RTVSPropertyOp12
 70
     1
102
RTVSPropertyOp13
 70
     1
102
RTVSPropertyOp14
 70
     1
102
RTVSPropertyOp15
 70
     1
102
RTVSPropertyOp16
 70
     1
102
RTVSPropertyOp17
 70
     1
102
RTVSPropertyOp18
 70
     1
102
RTVSPropertyOp19
 70
     1
102
RTVSPropertyOp20
 70
     1
102
RTVSPropertyOp21
 70
     1
102
RTVSPropertyOp22
 70
     1
102
RTVSPropertyOp23
 70
     1
102
RTVSPropertyOp24
 70
     1
102
RTVSPropertyOp25
 70
     1
102
RTVSPropertyOp26
 70
     1
102
RTVSPropertyOp27
 70
     1
102
RTVSPropertyOp28
 70
     1
102
RTVSPropertyOp29
 70
     1
102
RTVSPropertyOp30
 70
     1
102
RTVSPropertyOp31
 70
     1
102
RTVSPropertyOp32
 70
     1
  0
XRECORD
  5
72C
102
{ACAD_REACTORS
330
72B
102
}
330
72B
100
AcDbXrecord
280
     1
102
RTVSPropertyOp0
 70
     1
102
RTVSPropertyOp1
 70
     1
102
RTVSPropertyOp2
 70
     1
102
RTVSPropertyOp3
 70
     1
102
RTVSPropertyOp4
 70
     1
102
RTVSPropertyOp5
 70
     1
102
RTVSPropertyOp6
 70
     1
102
RTVSPropertyOp7
 70
     1
102
RTVSPropertyOp8
 70
     1
102
RTVSPropertyOp9
 70
     1
102
RTVSPropertyOp10
 70
     1
102
RTVSPropertyOp11
 70
     1
102
RTVSPropertyOp12
 70
     1
102
RTVSPropertyOp13
 70
     1
102
RTVSPropertyOp14
 70
     1
102
RTVSPropertyOp15
 70
     1
102
RTVSPropertyOp16
 70
     1
102
RTVSPropertyOp17
 70
     1
102
RTVSPropertyOp18
 70
     1
102
RTVSPropertyOp19
 70
     1
102
RTVSPropertyOp20
 70
     1
102
RTVSPropertyOp21
 70
     1
102
RTVSPropertyOp22
 70
     1
102
RTVSPropertyOp23
 70
     1
102
RTVSPropertyOp24
 70
     1
102
RTVSPropertyOp25
 70
     1
102
RTVSPropertyOp26
 70
     1
102
RTVSPropertyOp27
 70
     1
102
RTVSPropertyOp28
 70
     1
102
RTVSPropertyOp29
 70
     1
102
RTVSPropertyOp30
 70
     1
102
RTVSPropertyOp31
 70
     1
102
RTVSPropertyOp32
 70
     1
  0
XRECORD
  5
734
102
{ACAD_REACTORS
330
733
102
}
330
733
100
AcDbXrecord
280
     1
102
RTVSPropertyOp0
 70
     1
102
RTVSPropertyOp1
 70
     1
102
RTVSPropertyOp2
 70
     1
102
RTVSPropertyOp3
 70
     1
102
RTVSPropertyOp4
 70
     1
102
RTVSPropertyOp5
 70
     1
102
RTVSPropertyOp6
 70
     1
102
RTVSPropertyOp7
 70
     1
102
RTVSPropertyOp8
 70
     1
102
RTVSPropertyOp9
 70
     1
102
RTVSPropertyOp10
 70
     1
102
RTVSPropertyOp11
 70
     1
102
RTVSPropertyOp12
 70
     1
102
RTVSPropertyOp13
 70
     1
102
RTVSPropertyOp14
 70
     1
102
RTVSPropertyOp15
 70
     1
102
RTVSPropertyOp16
 70
     1
102
RTVSPropertyOp17
 70
     1
102
RTVSPropertyOp18
 70
     1
102
RTVSPropertyOp19
 70
     1
102
RTVSPropertyOp20
 70
     1
102
RTVSPropertyOp21
 70
     1
102
RTVSPropertyOp22
 70
     1
102
RTVSPropertyOp23
 70
     1
102
RTVSPropertyOp24
 70
     1
102
RTVSPropertyOp25
 70
     1
102
RTVSPropertyOp26
 70
     1
102
RTVSPropertyOp27
 70
     1
102
RTVSPropertyOp28
 70
     1
102
RTVSPropertyOp29
 70
     1
102
RTVSPropertyOp30
 70
     1
102
RTVSPropertyOp31
 70
     1
102
RTVSPropertyOp32
 70
     1
  0
XRECORD
  5
728
102
{ACAD_REACTORS
330
727
102
}
330
727
100
AcDbXrecord
280
     1
102
RTVSPropertyOp0
 70
     1
102
RTVSPropertyOp1
 70
     1
102
RTVSPropertyOp2
 70
     1
102
RTVSPropertyOp3
 70
     1
102
RTVSPropertyOp4
 70
     1
102
RTVSPropertyOp5
 70
     1
102
RTVSPropertyOp6
 70
     1
102
RTVSPropertyOp7
 70
     1
102
RTVSPropertyOp8
 70
     1
102
RTVSPropertyOp9
 70
     1
102
RTVSPropertyOp10
 70
     1
102
RTVSPropertyOp11
 70
     1
102
RTVSPropertyOp12
 70
     1
102
RTVSPropertyOp13
 70
     1
102
RTVSPropertyOp14
 70
     1
102
RTVSPropertyOp15
 70
     1
102
RTVSPropertyOp16
 70
     1
102
RTVSPropertyOp17
 70
     1
102
RTVSPropertyOp18
 70
     1
102
RTVSPropertyOp19
 70
     1
102
RTVSPropertyOp20
 70
     1
102
RTVSPropertyOp21
 70
     1
102
RTVSPropertyOp22
 70
     1
102
RTVSPropertyOp23
 70
     1
102
RTVSPropertyOp24
 70
     1
102
RTVSPropertyOp25
 70
     1
102
RTVSPropertyOp26
 70
     1
102
RTVSPropertyOp27
 70
     1
102
RTVSPropertyOp28
 70
     1
102
RTVSPropertyOp29
 70
     1
102
RTVSPropertyOp30
 70
     1
102
RTVSPropertyOp31
 70
     1
102
RTVSPropertyOp32
 70
     1
  0
XRECORD
  5
72A
102
{ACAD_REACTORS
330
729
102
}
330
729
100
AcDbXrecord
280
     1
102
RTVSPropertyOp0
 70
     1
102
RTVSPropertyOp1
 70
     1
102
RTVSPropertyOp2
 70
     1
102
RTVSPropertyOp3
 70
     1
102
RTVSPropertyOp4
 70
     1
102
RTVSPropertyOp5
 70
     1
102
RTVSPropertyOp6
 70
     1
102
RTVSPropertyOp7
 70
     1
102
RTVSPropertyOp8
 70
     1
102
RTVSPropertyOp9
 70
     1
102
RTVSPropertyOp10
 70
     1
102
RTVSPropertyOp11
 70
     1
102
RTVSPropertyOp12
 70
     1
102
RTVSPropertyOp13
 70
     1
102
RTVSPropertyOp14
 70
     1
102
RTVSPropertyOp15
 70
     1
102
RTVSPropertyOp16
 70
     1
102
RTVSPropertyOp17
 70
     1
102
RTVSPropertyOp18
 70
     1
102
RTVSPropertyOp19
 70
     1
102
RTVSPropertyOp20
 70
     1
102
RTVSPropertyOp21
 70
     1
102
RTVSPropertyOp22
 70
     1
102
RTVSPropertyOp23
 70
     1
102
RTVSPropertyOp24
 70
     1
102
RTVSPropertyOp25
 70
     1
102
RTVSPropertyOp26
 70
     1
102
RTVSPropertyOp27
 70
     1
102
RTVSPropertyOp28
 70
     1
102
RTVSPropertyOp29
 70
     1
102
RTVSPropertyOp30
 70
     1
102
RTVSPropertyOp31
 70
     1
102
RTVSPropertyOp32
 70
     1
  0
XRECORD
  5
732
102
{ACAD_REACTORS
330
731
102
}
330
731
100
AcDbXrecord
280
     1
102
RTVSPropertyOp0
 70
     1
102
RTVSPropertyOp1
 70
     1
102
RTVSPropertyOp2
 70
     1
102
RTVSPropertyOp3
 70
     1
102
RTVSPropertyOp4
 70
     1
102
RTVSPropertyOp5
 70
     1
102
RTVSPropertyOp6
 70
     1
102
RTVSPropertyOp7
 70
     1
102
RTVSPropertyOp8
 70
     1
102
RTVSPropertyOp9
 70
     1
102
RTVSPropertyOp10
 70
     1
102
RTVSPropertyOp11
 70
     1
102
RTVSPropertyOp12
 70
     1
102
RTVSPropertyOp13
 70
     1
102
RTVSPropertyOp14
 70
     1
102
RTVSPropertyOp15
 70
     1
102
RTVSPropertyOp16
 70
     1
102
RTVSPropertyOp17
 70
     1
102
RTVSPropertyOp18
 70
     1
102
RTVSPropertyOp19
 70
     1
102
RTVSPropertyOp20
 70
     1
102
RTVSPropertyOp21
 70
     1
102
RTVSPropertyOp22
 70
     1
102
RTVSPropertyOp23
 70
     1
102
RTVSPropertyOp24
 70
     1
102
RTVSPropertyOp25
 70
     1
102
RTVSPropertyOp26
 70
     1
102
RTVSPropertyOp27
 70
     1
102
RTVSPropertyOp28
 70
     1
102
RTVSPropertyOp29
 70
     1
102
RTVSPropertyOp30
 70
     1
102
RTVSPropertyOp31
 70
     1
102
RTVSPropertyOp32
 70
     1
  0
XRECORD
  5
716
102
{ACAD_REACTORS
330
715
102
}
330
715
100
AcDbXrecord
280
     1
102
RTVSPropertyOp0
 70
     1
102
RTVSPropertyOp1
 70
     1
102
RTVSPropertyOp2
 70
     1
102
RTVSPropertyOp3
 70
     1
102
RTVSPropertyOp4
 70
     1
102
RTVSPropertyOp5
 70
     1
102
RTVSPropertyOp6
 70
     1
102
RTVSPropertyOp7
 70
     1
102
RTVSPropertyOp8
 70
     1
102
RTVSPropertyOp9
 70
     1
102
RTVSPropertyOp10
 70
     1
102
RTVSPropertyOp11
 70
     1
102
RTVSPropertyOp12
 70
     1
102
RTVSPropertyOp13
 70
     1
102
RTVSPropertyOp14
 70
     1
102
RTVSPropertyOp15
 70
     1
102
RTVSPropertyOp16
 70
     1
102
RTVSPropertyOp17
 70
     1
102
RTVSPropertyOp18
 70
     1
102
RTVSPropertyOp19
 70
     1
102
RTVSPropertyOp20
 70
     1
102
RTVSPropertyOp21
 70
     1
102
RTVSPropertyOp22
 70
     1
102
RTVSPropertyOp23
 70
     1
102
RTVSPropertyOp24
 70
     1
102
RTVSPropertyOp25
 70
     1
102
RTVSPropertyOp26
 70
     1
102
RTVSPropertyOp27
 70
     1
102
RTVSPropertyOp28
 70
     1
102
RTVSPropertyOp29
 70
     1
102
RTVSPropertyOp30
 70
     1
102
RTVSPropertyOp31
 70
     1
102
RTVSPropertyOp32
 70
     1
  0
XRECORD
  5
718
102
{ACAD_REACTORS
330
717
102
}
330
717
100
AcDbXrecord
280
     1
102
RTVSPropertyOp0
 70
     1
102
RTVSPropertyOp1
 70
     1
102
RTVSPropertyOp2
 70
     1
102
RTVSPropertyOp3
 70
     1
102
RTVSPropertyOp4
 70
     1
102
RTVSPropertyOp5
 70
     1
102
RTVSPropertyOp6
 70
     1
102
RTVSPropertyOp7
 70
     1
102
RTVSPropertyOp8
 70
     1
102
RTVSPropertyOp9
 70
     1
102
RTVSPropertyOp10
 70
     1
102
RTVSPropertyOp11
 70
     1
102
RTVSPropertyOp12
 70
     1
102
RTVSPropertyOp13
 70
     1
102
RTVSPropertyOp14
 70
     1
102
RTVSPropertyOp15
 70
     1
102
RTVSPropertyOp16
 70
     1
102
RTVSPropertyOp17
 70
     1
102
RTVSPropertyOp18
 70
     1
102
RTVSPropertyOp19
 70
     1
102
RTVSPropertyOp20
 70
     1
102
RTVSPropertyOp21
 70
     1
102
RTVSPropertyOp22
 70
     1
102
RTVSPropertyOp23
 70
     1
102
RTVSPropertyOp24
 70
     1
102
RTVSPropertyOp25
 70
     1
102
RTVSPropertyOp26
 70
     1
102
RTVSPropertyOp27
 70
     1
102
RTVSPropertyOp28
 70
     1
102
RTVSPropertyOp29
 70
     1
102
RTVSPropertyOp30
 70
     1
102
RTVSPropertyOp31
 70
     1
102
RTVSPropertyOp32
 70
     1
  0
XRECORD
  5
71A
102
{ACAD_REACTORS
330
719
102
}
330
719
100
AcDbXrecord
280
     1
102
RTVSPropertyOp0
 70
     1
102
RTVSPropertyOp1
 70
     1
102
RTVSPropertyOp2
 70
     1
102
RTVSPropertyOp3
 70
     1
102
RTVSPropertyOp4
 70
     1
102
RTVSPropertyOp5
 70
     1
102
RTVSPropertyOp6
 70
     1
102
RTVSPropertyOp7
 70
     1
102
RTVSPropertyOp8
 70
     1
102
RTVSPropertyOp9
 70
     1
102
RTVSPropertyOp10
 70
     1
102
RTVSPropertyOp11
 70
     1
102
RTVSPropertyOp12
 70
     1
102
RTVSPropertyOp13
 70
     1
102
RTVSPropertyOp14
 70
     1
102
RTVSPropertyOp15
 70
     1
102
RTVSPropertyOp16
 70
     1
102
RTVSPropertyOp17
 70
     1
102
RTVSPropertyOp18
 70
     1
102
RTVSPropertyOp19
 70
     1
102
RTVSPropertyOp20
 70
     1
102
RTVSPropertyOp21
 70
     1
102
RTVSPropertyOp22
 70
     1
102
RTVSPropertyOp23
 70
     1
102
RTVSPropertyOp24
 70
     1
102
RTVSPropertyOp25
 70
     1
102
RTVSPropertyOp26
 70
     1
102
RTVSPropertyOp27
 70
     1
102
RTVSPropertyOp28
 70
     1
102
RTVSPropertyOp29
 70
     1
102
RTVSPropertyOp30
 70
     1
102
RTVSPropertyOp31
 70
     1
102
RTVSPropertyOp32
 70
     1
  0
XRECORD
  5
71C
102
{ACAD_REACTORS
330
71B
102
}
330
71B
100
AcDbXrecord
280
     1
102
RTVSPropertyOp0
 70
     1
102
RTVSPropertyOp1
 70
     1
102
RTVSPropertyOp2
 70
     1
102
RTVSPropertyOp3
 70
     1
102
RTVSPropertyOp4
 70
     1
102
RTVSPropertyOp5
 70
     1
102
RTVSPropertyOp6
 70
     1
102
RTVSPropertyOp7
 70
     1
102
RTVSPropertyOp8
 70
     1
102
RTVSPropertyOp9
 70
     1
102
RTVSPropertyOp10
 70
     1
102
RTVSPropertyOp11
 70
     1
102
RTVSPropertyOp12
 70
     1
102
RTVSPropertyOp13
 70
     1
102
RTVSPropertyOp14
 70
     1
102
RTVSPropertyOp15
 70
     1
102
RTVSPropertyOp16
 70
     1
102
RTVSPropertyOp17
 70
     1
102
RTVSPropertyOp18
 70
     1
102
RTVSPropertyOp19
 70
     1
102
RTVSPropertyOp20
 70
     1
102
RTVSPropertyOp21
 70
     1
102
RTVSPropertyOp22
 70
     1
102
RTVSPropertyOp23
 70
     1
102
RTVSPropertyOp24
 70
     1
102
RTVSPropertyOp25
 70
     1
102
RTVSPropertyOp26
 70
     1
102
RTVSPropertyOp27
 70
     1
102
RTVSPropertyOp28
 70
     1
102
RTVSPropertyOp29
 70
     1
102
RTVSPropertyOp30
 70
     1
102
RTVSPropertyOp31
 70
     1
102
RTVSPropertyOp32
 70
     1
  0
XRECORD
  5
730
102
{ACAD_REACTORS
330
72F
102
}
330
72F
100
AcDbXrecord
280
     1
102
RTVSPropertyOp0
 70
     1
102
RTVSPropertyOp1
 70
     1
102
RTVSPropertyOp2
 70
     1
102
RTVSPropertyOp3
 70
     1
102
RTVSPropertyOp4
 70
     1
102
RTVSPropertyOp5
 70
     1
102
RTVSPropertyOp6
 70
     1
102
RTVSPropertyOp7
 70
     1
102
RTVSPropertyOp8
 70
     1
102
RTVSPropertyOp9
 70
     1
102
RTVSPropertyOp10
 70
     1
102
RTVSPropertyOp11
 70
     1
102
RTVSPropertyOp12
 70
     1
102
RTVSPropertyOp13
 70
     1
102
RTVSPropertyOp14
 70
     1
102
RTVSPropertyOp15
 70
     1
102
RTVSPropertyOp16
 70
     1
102
RTVSPropertyOp17
 70
     1
102
RTVSPropertyOp18
 70
     1
102
RTVSPropertyOp19
 70
     1
102
RTVSPropertyOp20
 70
     1
102
RTVSPropertyOp21
 70
     1
102
RTVSPropertyOp22
 70
     1
102
RTVSPropertyOp23
 70
     1
102
RTVSPropertyOp24
 70
     1
102
RTVSPropertyOp25
 70
     1
102
RTVSPropertyOp26
 70
     1
102
RTVSPropertyOp27
 70
     1
102
RTVSPropertyOp28
 70
     1
102
RTVSPropertyOp29
 70
     1
102
RTVSPropertyOp30
 70
     1
102
RTVSPropertyOp31
 70
     1
102
RTVSPropertyOp32
 70
     1
  0
XRECORD
  5
726
102
{ACAD_REACTORS
330
725
102
}
330
725
100
AcDbXrecord
280
     1
102
RTVSPropertyOp0
 70
     1
102
RTVSPropertyOp1
 70
     1
102
RTVSPropertyOp2
 70
     1
102
RTVSPropertyOp3
 70
     1
102
RTVSPropertyOp4
 70
     1
102
RTVSPropertyOp5
 70
     1
102
RTVSPropertyOp6
 70
     1
102
RTVSPropertyOp7
 70
     1
102
RTVSPropertyOp8
 70
     1
102
RTVSPropertyOp9
 70
     1
102
RTVSPropertyOp10
 70
     1
102
RTVSPropertyOp11
 70
     1
102
RTVSPropertyOp12
 70
     1
102
RTVSPropertyOp13
 70
     1
102
RTVSPropertyOp14
 70
     1
102
RTVSPropertyOp15
 70
     1
102
RTVSPropertyOp16
 70
     1
102
RTVSPropertyOp17
 70
     1
102
RTVSPropertyOp18
 70
     1
102
RTVSPropertyOp19
 70
     1
102
RTVSPropertyOp20
 70
     1
102
RTVSPropertyOp21
 70
     1
102
RTVSPropertyOp22
 70
     1
102
RTVSPropertyOp23
 70
     1
102
RTVSPropertyOp24
 70
     1
102
RTVSPropertyOp25
 70
     1
102
RTVSPropertyOp26
 70
     1
102
RTVSPropertyOp27
 70
     1
102
RTVSPropertyOp28
 70
     1
102
RTVSPropertyOp29
 70
     1
102
RTVSPropertyOp30
 70
     1
102
RTVSPropertyOp31
 70
     1
102
RTVSPropertyOp32
 70
     1
  0
XRECORD
  5
72E
102
{ACAD_REACTORS
330
72D
102
}
330
72D
100
AcDbXrecord
280
     1
102
RTVSPropertyOp0
 70
     1
102
RTVSPropertyOp1
 70
     1
102
RTVSPropertyOp2
 70
     1
102
RTVSPropertyOp3
 70
     1
102
RTVSPropertyOp4
 70
     1
102
RTVSPropertyOp5
 70
     1
102
RTVSPropertyOp6
 70
     1
102
RTVSPropertyOp7
 70
     1
102
RTVSPropertyOp8
 70
     1
102
RTVSPropertyOp9
 70
     1
102
RTVSPropertyOp10
 70
     1
102
RTVSPropertyOp11
 70
     1
102
RTVSPropertyOp12
 70
     1
102
RTVSPropertyOp13
 70
     1
102
RTVSPropertyOp14
 70
     1
102
RTVSPropertyOp15
 70
     1
102
RTVSPropertyOp16
 70
     1
102
RTVSPropertyOp17
 70
     1
102
RTVSPropertyOp18
 70
     1
102
RTVSPropertyOp19
 70
     1
102
RTVSPropertyOp20
 70
     1
102
RTVSPropertyOp21
 70
     1
102
RTVSPropertyOp22
 70
     1
102
RTVSPropertyOp23
 70
     1
102
RTVSPropertyOp24
 70
     1
102
RTVSPropertyOp25
 70
     1
102
RTVSPropertyOp26
 70
     1
102
RTVSPropertyOp27
 70
     1
102
RTVSPropertyOp28
 70
     1
102
RTVSPropertyOp29
 70
     1
102
RTVSPropertyOp30
 70
     1
102
RTVSPropertyOp31
 70
     1
102
RTVSPropertyOp32
 70
     1
  0
ENDSEC
  0
EOF
