  0
SECTION
  2
HEADER
  9
$ACADVER
  1
AC1015
  9
$ACADMAINTVER
 70
     6
  9
$DWGCODEPAGE
  3
ANSI_1252
  9
$INSBASE
 10
0.0
 20
0.0
 30
0.0
  9
$EXTMIN
 10
1.000000000000000E+20
 20
1.000000000000000E+20
 30
1.000000000000000E+20
  9
$EXTMAX
 10
-1.000000000000000E+20
 20
-1.000000000000000E+20
 30
-1.000000000000000E+20
  9
$LIMMIN
 10
-170.0
 20
-170.0
  9
$LIMMAX
 10
519.0
 20
260.0
  9
$ORTHOMODE
 70
     0
  9
$REGENMODE
 70
     1
  9
$FILLMODE
 70
     1
  9
$QTEXTMODE
 70
     0
  9
$MIRRTEXT
 70
     0
  9
$LTSCALE
 40
1.0
  9
$ATTMODE
 70
     1
  9
$TEXTSIZE
 40
3.5
  9
$TRACEWID
 40
1.0
  9
$TEXTSTYLE
  7
SIMPLEX
  9
$CLAYER
  8
1
  9
$CELTYPE
  6
BYLAYER
  9
$CECOLOR
 62
   256
  9
$CELTSCALE
 40
1.0
  9
$DISPSILH
 70
     0
  9
$DIMSCALE
 40
1.0
  9
$DIMASZ
 40
2.5
  9
$DIMEXO
 40
0.0
  9
$DIMDLI
 40
3.75
  9
$DIMRND
 40
0.0
  9
$DIMDLE
 40
0.0
  9
$DIMEXE
 40
1.25
  9
$DIMTP
 40
0.0
  9
$DIMTM
 40
0.0
  9
$DIMTXT
 40
3.5
  9
$DIMCEN
 40
0.0
  9
$DIMTSZ
 40
0.0
  9
$DIMTOL
 70
     0
  9
$DIMLIM
 70
     0
  9
$DIMTIH
 70
     0
  9
$DIMTOH
 70
     0
  9
$DIMSE1
 70
     0
  9
$DIMSE2
 70
     0
  9
$DIMTAD
 70
     1
  9
$DIMZIN
 70
     8
  9
$DIMBLK
  1

  9
$DIMASO
 70
     1
  9
$DIMSHO
 70
     1
  9
$DIMPOST
  1

  9
$DIMAPOST
  1

  9
$DIMALT
 70
     0
  9
$DIMALTD
 70
     3
  9
$DIMALTF
 40
0.039370078
  9
$DIMLFAC
 40
1.0
  9
$DIMTOFL
 70
     0
  9
$DIMTVP
 40
0.0
  9
$DIMTIX
 70
     0
  9
$DIMSOXD
 70
     0
  9
$DIMSAH
 70
     0
  9
$DIMBLK1
  1

  9
$DIMBLK2
  1

  9
$DIMSTYLE
  2
STANDARD
  9
$DIMCLRD
 70
     0
  9
$DIMCLRE
 70
     0
  9
$DIMCLRT
 70
     0
  9
$DIMTFAC
 40
1.0
  9
$DIMGAP
 40
0.625
  9
$DIMJUST
 70
     0
  9
$DIMSD1
 70
     0
  9
$DIMSD2
 70
     0
  9
$DIMTOLJ
 70
     0
  9
$DIMTZIN
 70
     8
  9
$DIMALTZ
 70
     0
  9
$DIMALTTZ
 70
     0
  9
$DIMUPT
 70
     0
  9
$DIMDEC
 70
     2
  9
$DIMTDEC
 70
     2
  9
$DIMALTU
 70
     2
  9
$DIMALTTD
 70
     3
  9
$DIMTXSTY
  7
SIMPLEX
  9
$DIMAUNIT
 70
     0
  9
$DIMADEC
 70
     2
  9
$DIMALTRND
 40
0.0
  9
$DIMAZIN
 70
     2
  9
$DIMDSEP
 70
    46
  9
$DIMATFIT
 70
     3
  9
$DIMFRAC
 70
     0
  9
$DIMLDRBLK
  1

  9
$DIMLUNIT
 70
     2
  9
$DIMLWD
 70
    -2
  9
$DIMLWE
 70
    -2
  9
$DIMTMOVE
 70
     0
  9
$LUNITS
 70
     2
  9
$LUPREC
 70
     4
  9
$SKETCHINC
 40
1.0
  9
$FILLETRAD
 40
0.0
  9
$AUNITS
 70
     0
  9
$AUPREC
 70
     0
  9
$MENU
  1
c:\tdm21\cad\caduti13\tdm13
  9
$ELEVATION
 40
0.0
  9
$PELEVATION
 40
0.0
  9
$THICKNESS
 40
0.0
  9
$LIMCHECK
 70
     0
  9
$CHAMFERA
 40
0.0
  9
$CHAMFERB
 40
0.0
  9
$CHAMFERC
 40
0.0
  9
$CHAMFERD
 40
0.0
  9
$SKPOLY
 70
     0
  9
$TDCREATE
 40
2454957.593642639
  9
$TDUCREATE
 40
2454957.510309306
  9
$TDUPDATE
 40
2456860.665911342
  9
$TDUUPDATE
 40
2456860.582578009
  9
$TDINDWG
 40
0.0009643519
  9
$TDUSRTIMER
 40
0.0009475231
  9
$USRTIMER
 70
     1
  9
$ANGBASE
 50
0.0
  9
$ANGDIR
 70
     0
  9
$PDMODE
 70
     1
  9
$PDSIZE
 40
0.0
  9
$PLINEWID
 40
0.0
  9
$SPLFRAME
 70
     0
  9
$SPLINETYPE
 70
     6
  9
$SPLINESEGS
 70
     8
  9
$HANDSEED
  5
68E
  9
$SURFTAB1
 70
     6
  9
$SURFTAB2
 70
     6
  9
$SURFTYPE
 70
     6
  9
$SURFU
 70
     6
  9
$SURFV
 70
     6
  9
$UCSBASE
  2

  9
$UCSNAME
  2

  9
$UCSORG
 10
0.0
 20
0.0
 30
0.0
  9
$UCSXDIR
 10
1.0
 20
0.0
 30
0.0
  9
$UCSYDIR
 10
0.0
 20
1.0
 30
0.0
  9
$UCSORTHOREF
  2

  9
$UCSORTHOVIEW
 70
     0
  9
$UCSORGTOP
 10
0.0
 20
0.0
 30
0.0
  9
$UCSORGBOTTOM
 10
0.0
 20
0.0
 30
0.0
  9
$UCSORGLEFT
 10
0.0
 20
0.0
 30
0.0
  9
$UCSORGRIGHT
 10
0.0
 20
0.0
 30
0.0
  9
$UCSORGFRONT
 10
0.0
 20
0.0
 30
0.0
  9
$UCSORGBACK
 10
0.0
 20
0.0
 30
0.0
  9
$PUCSBASE
  2

  9
$PUCSNAME
  2

  9
$PUCSORG
 10
0.0
 20
0.0
 30
0.0
  9
$PUCSXDIR
 10
1.0
 20
0.0
 30
0.0
  9
$PUCSYDIR
 10
0.0
 20
1.0
 30
0.0
  9
$PUCSORTHOREF
  2

  9
$PUCSORTHOVIEW
 70
     0
  9
$PUCSORGTOP
 10
0.0
 20
0.0
 30
0.0
  9
$PUCSORGBOTTOM
 10
0.0
 20
0.0
 30
0.0
  9
$PUCSORGLEFT
 10
0.0
 20
0.0
 30
0.0
  9
$PUCSORGRIGHT
 10
0.0
 20
0.0
 30
0.0
  9
$PUCSORGFRONT
 10
0.0
 20
0.0
 30
0.0
  9
$PUCSORGBACK
 10
0.0
 20
0.0
 30
0.0
  9
$USERI1
 70
     0
  9
$USERI2
 70
     0
  9
$USERI3
 70
     0
  9
$USERI4
 70
     0
  9
$USERI5
 70
     0
  9
$USERR1
 40
0.0
  9
$USERR2
 40
0.0
  9
$USERR3
 40
0.0
  9
$USERR4
 40
0.0
  9
$USERR5
 40
0.0
  9
$WORLDVIEW
 70
     1
  9
$SHADEDGE
 70
     3
  9
$SHADEDIF
 70
    70
  9
$TILEMODE
 70
     1
  9
$MAXACTVP
 70
    64
  9
$PINSBASE
 10
0.0
 20
0.0
 30
0.0
  9
$PLIMCHECK
 70
     0
  9
$PEXTMIN
 10
0.0
 20
0.0
 30
0.0
  9
$PEXTMAX
 10
0.0
 20
0.0
 30
0.0
  9
$PLIMMIN
 10
0.0
 20
0.0
  9
$PLIMMAX
 10
12.0
 20
9.0
  9
$UNITMODE
 70
     0
  9
$VISRETAIN
 70
     0
  9
$PLINEGEN
 70
     0
  9
$PSLTSCALE
 70
     1
  9
$TREEDEPTH
 70
  3020
  9
$CMLSTYLE
  2
STANDARD
  9
$CMLJUST
 70
     0
  9
$CMLSCALE
 40
20.0
  9
$PROXYGRAPHICS
 70
     1
  9
$MEASUREMENT
 70
     1
  9
$CELWEIGHT
370
    -1
  9
$ENDCAPS
280
     0
  9
$JOINSTYLE
280
     0
  9
$LWDISPLAY
290
     0
  9
$INSUNITS
 70
     4
  9
$HYPERLINKBASE
  1

  9
$STYLESHEET
  1
MONOCHROME.CTB
  9
$XEDIT
290
     1
  9
$CEPSNTYPE
380
     0
  9
$PSTYLEMODE
290
     1
  9
$FINGERPRINTGUID
  2
{46B44192-1510-48B1-B61B-CBE2ADA013A7}
  9
$VERSIONGUID
  2
{6160D478-9A74-4C97-9D8A-D4A65CE74B12}
  9
$EXTNAMES
290
     1
  9
$PSVPSCALE
 40
0.0
  9
$OLESTARTUP
290
     0
  0
ENDSEC
  0
SECTION
  2
CLASSES
  0
CLASS
  1
ACDBDICTIONARYWDFLT
  2
AcDbDictionaryWithDefault
  3
ObjectDBX Classes
 90
        0
280
     0
281
     0
  0
CLASS
  1
ACDBPLACEHOLDER
  2
AcDbPlaceHolder
  3
ObjectDBX Classes
 90
        0
280
     0
281
     0
  0
CLASS
  1
LAYOUT
  2
AcDbLayout
  3
ObjectDBX Classes
 90
        0
280
     0
281
     0
  0
CLASS
  1
DICTIONARYVAR
  2
AcDbDictionaryVar
  3
ObjectDBX Classes
 90
        0
280
     0
281
     0
  0
CLASS
  1
TABLESTYLE
  2
AcDbTableStyle
  3
ObjectDBX Classes
 90
     4095
280
     0
281
     0
  0
CLASS
  1
SCALE
  2
AcDbScale
  3
ObjectDBX Classes
 90
     1153
280
     0
281
     0
  0
CLASS
  1
MATERIAL
  2
AcDbMaterial
  3
ObjectDBX Classes
 90
     1153
280
     0
281
     0
  0
CLASS
  1
VISUALSTYLE
  2
AcDbVisualStyle
  3
ObjectDBX Classes
 90
     4095
280
     0
281
     0
  0
ENDSEC
  0
SECTION
  2
TABLES
  0
TABLE
  2
VPORT
  5
8
330
0
100
AcDbSymbolTable
 70
     1
  0
VPORT
  5
39A
330
8
100
AcDbSymbolTableRecord
100
AcDbViewportTableRecord
  2
*Active
 70
     0
 10
0.0
 20
0.0
 11
1.0
 21
1.0
 12
218.9201881351169
 22
109.7549380673833
 13
0.0
 23
0.0
 14
5.0
 24
5.0
 15
5.0
 25
5.0
 16
0.0
 26
0.0
 36
1.0
 17
0.0
 27
0.0
 37
0.0
 40
564.6711112651689
 41
1.066073697585768
 42
50.0
 43
0.0
 44
0.0
 50
0.0
 51
0.0
 71
     0
 72
  2000
 73
     1
 74
     1
 75
     0
 76
     0
 77
     0
 78
     0
281
     0
 65
     1
110
0.0
120
0.0
130
0.0
111
1.0
121
0.0
131
0.0
112
0.0
122
1.0
132
0.0
 79
     0
146
0.0
  0
ENDTAB
  0
TABLE
  2
LTYPE
  5
5
330
0
100
AcDbSymbolTable
 70
     3
  0
LTYPE
  5
12
330
5
100
AcDbSymbolTableRecord
100
AcDbLinetypeTableRecord
  2
BYBLOCK
 70
     0
  3

 72
    65
 73
     0
 40
0.0
  0
LTYPE
  5
13
330
5
100
AcDbSymbolTableRecord
100
AcDbLinetypeTableRecord
  2
BYLAYER
 70
     0
  3

 72
    65
 73
     0
 40
0.0
  0
LTYPE
  5
14
330
5
100
AcDbSymbolTableRecord
100
AcDbLinetypeTableRecord
  2
CONTINUOUS
 70
     0
  3
Solid line
 72
    65
 73
     0
 40
0.0
  0
LTYPE
  5
20
330
5
100
AcDbSymbolTableRecord
100
AcDbLinetypeTableRecord
  2
HIDDEN
 70
     0
  3
Hidden __ __ __ __ __ __ __ __ __ __ __ __ __ _
 72
    65
 73
     2
 40
9.524999999999997
 49
6.349999999999998
 74
     0
 49
-3.174999999999998
 74
     0
  0
LTYPE
  5
351
330
5
100
AcDbSymbolTableRecord
100
AcDbLinetypeTableRecord
  2
CENTER
 70
     0
  3
Dash dot __ . __ . __ . __ . __ . __ . __ . __
 72
    65
 73
     4
 40
25.4
 49
12.7
 74
     0
 49
-6.349999999999998
 74
     0
 49
0.0
 74
     0
 49
-6.349999999999998
 74
     0
  0
ENDTAB
  0
TABLE
  2
LAYER
  5
2
330
0
100
AcDbSymbolTable
 70
    16
  0
LAYER
  5
F
330
2
100
AcDbSymbolTableRecord
100
AcDbLayerTableRecord
  2
0
 70
     0
 62
     7
  6
CONTINUOUS
370
    -3
390
300
  0
LAYER
  5
23
330
2
100
AcDbSymbolTableRecord
100
AcDbLayerTableRecord
  2
1
 70
     0
 62
     4
  6
CONTINUOUS
370
    -3
390
300
  0
LAYER
  5
24
330
2
100
AcDbSymbolTableRecord
100
AcDbLayerTableRecord
  2
SK1
 70
     0
 62
     4
  6
CONTINUOUS
370
    -3
390
300
  0
LAYER
  5
25
330
2
100
AcDbSymbolTableRecord
100
AcDbLayerTableRecord
  2
2
 70
     0
 62
     7
  6
CONTINUOUS
370
    -3
390
300
  0
LAYER
  5
26
330
2
100
AcDbSymbolTableRecord
100
AcDbLayerTableRecord
  2
2L
 70
     0
 62
     7
  6
CONTINUOUS
370
    -3
390
300
  0
LAYER
  5
27
330
2
100
AcDbSymbolTableRecord
100
AcDbLayerTableRecord
  2
SK2
 70
     0
 62
     7
  6
CONTINUOUS
370
    -3
390
300
  0
LAYER
  5
28
330
2
100
AcDbSymbolTableRecord
100
AcDbLayerTableRecord
  2
3
 70
     0
 62
     1
  6
HIDDEN
370
    -3
390
300
  0
LAYER
  5
29
330
2
100
AcDbSymbolTableRecord
100
AcDbLayerTableRecord
  2
SK3
 70
     0
 62
     1
  6
HIDDEN
370
    -3
390
300
  0
LAYER
  5
2A
330
2
100
AcDbSymbolTableRecord
100
AcDbLayerTableRecord
  2
4
 70
     0
 62
     2
  6
CENTER
370
    -3
390
300
  0
LAYER
  5
2B
330
2
100
AcDbSymbolTableRecord
100
AcDbLayerTableRecord
  2
SK4
 70
     0
 62
     2
  6
CENTER
370
    -3
390
300
  0
LAYER
  5
2C
330
2
100
AcDbSymbolTableRecord
100
AcDbLayerTableRecord
  2
5
 70
     0
 62
    -7
  6
CONTINUOUS
370
    -3
390
300
  0
LAYER
  5
2D
330
2
100
AcDbSymbolTableRecord
100
AcDbLayerTableRecord
  2
6
 70
     0
 62
     5
  6
CONTINUOUS
370
    -3
390
300
  0
LAYER
  5
2E
330
2
100
AcDbSymbolTableRecord
100
AcDbLayerTableRecord
  2
SK6
 70
     0
 62
     5
  6
CONTINUOUS
370
    -3
390
300
  0
LAYER
  5
2F
330
2
100
AcDbSymbolTableRecord
100
AcDbLayerTableRecord
  2
DEFPOINTS
 70
     0
 62
     7
  6
CONTINUOUS
290
     0
370
    -3
390
300
  0
LAYER
  5
375
330
2
100
AcDbSymbolTableRecord
100
AcDbLayerTableRecord
  2
CUT
 70
     0
 62
     1
  6
CONTINUOUS
370
    -3
390
300
  0
LAYER
  5
376
330
2
100
AcDbSymbolTableRecord
100
AcDbLayerTableRecord
  2
NOCUT
 70
     0
 62
     7
  6
CONTINUOUS
370
    -3
390
300
  0
ENDTAB
  0
TABLE
  2
STYLE
  5
3
330
0
100
AcDbSymbolTable
 70
     4
  0
STYLE
  5
10
330
3
100
AcDbSymbolTableRecord
100
AcDbTextStyleTableRecord
  2
STANDARD
 70
     0
 40
0.0
 41
1.0
 50
0.0
 71
     0
 42
5.0
  3
txt
  4

  0
STYLE
  5
1D
330
3
100
AcDbSymbolTableRecord
100
AcDbTextStyleTableRecord
  2
TXT
 70
     0
 40
8.0
 41
1.0
 50
0.0
 71
     0
 42
8.0
  3
txt
  4

  0
STYLE
  5
1E
330
3
100
AcDbSymbolTableRecord
100
AcDbTextStyleTableRecord
  2
SIMPLEX
 70
     0
 40
0.0
 41
1.0
 50
0.0
 71
     0
 42
3.5
  3
simplex
  4

  0
STYLE
  5
34C
330
3
100
AcDbSymbolTableRecord
100
AcDbTextStyleTableRecord
  2

 70
     1
 40
0.0
 41
1.0
 50
0.0
 71
     0
 42
2.5
  3
ltypeshp.shx
  4

  0
ENDTAB
  0
TABLE
  2
VIEW
  5
6
330
0
100
AcDbSymbolTable
 70
     0
  0
ENDTAB
  0
TABLE
  2
UCS
  5
7
330
0
100
AcDbSymbolTable
 70
     0
  0
ENDTAB
  0
TABLE
  2
APPID
  5
9
330
0
100
AcDbSymbolTable
 70
     1
  0
APPID
  5
11
330
9
100
AcDbSymbolTableRecord
100
AcDbRegAppTableRecord
  2
ACAD
 70
     0
  0
ENDTAB
  0
TABLE
  2
DIMSTYLE
  5
A
330
0
100
AcDbSymbolTable
 70
     1
100
AcDbDimStyleTable
  0
DIMSTYLE
105
3F
102
{ACAD_REACTORS
330
621
330
62F
330
63C
330
649
330
656
102
}
330
A
100
AcDbSymbolTableRecord
100
AcDbDimStyleTableRecord
  2
STANDARD
 70
     0
 41
2.5
 42
0.0
 43
3.75
 44
1.25
 73
     0
 74
     0
 77
     1
 78
     8
 79
     2
140
3.5
141
0.0
143
0.039370078
147
0.625
171
     3
178
     0
179
     2
271
     2
272
     2
274
     3
283
     0
284
     8
340
1E
  0
ENDTAB
  0
TABLE
  2
BLOCK_RECORD
  5
1
330
0
100
AcDbSymbolTable
 70
     5
  0
BLOCK_RECORD
  5
18
330
1
100
AcDbSymbolTableRecord
100
AcDbBlockTableRecord
  2
*MODEL_SPACE
340
303
  0
BLOCK_RECORD
  5
338
330
1
100
AcDbSymbolTableRecord
100
AcDbBlockTableRecord
  2
*Paper_Space
340
33B
  0
BLOCK_RECORD
  5
622
330
1
100
AcDbSymbolTableRecord
100
AcDbBlockTableRecord
  2
*D0
340
0
  0
BLOCK_RECORD
  5
630
330
1
100
AcDbSymbolTableRecord
100
AcDbBlockTableRecord
  2
*D1
340
0
  0
BLOCK_RECORD
  5
63D
330
1
100
AcDbSymbolTableRecord
100
AcDbBlockTableRecord
  2
*D2
340
0
  0
BLOCK_RECORD
  5
64A
330
1
100
AcDbSymbolTableRecord
100
AcDbBlockTableRecord
  2
*D3
340
0
  0
BLOCK_RECORD
  5
657
330
1
100
AcDbSymbolTableRecord
100
AcDbBlockTableRecord
  2
*D4
340
0
  0
ENDTAB
  0
ENDSEC
  0
SECTION
  2
BLOCKS
  0
BLOCK
  5
32
330
18
100
AcDbEntity
  8
0
100
AcDbBlockBegin
  2
*MODEL_SPACE
 70
     0
 10
0.0
 20
0.0
 30
0.0
  3
*MODEL_SPACE
  1

  0
ENDBLK
  5
33
330
18
100
AcDbEntity
  8
0
100
AcDbBlockEnd
  0
BLOCK
  5
339
330
338
100
AcDbEntity
 67
     1
  8
0
100
AcDbBlockBegin
  2
*Paper_Space
 70
     0
 10
0.0
 20
0.0
 30
0.0
  3
*Paper_Space
  1

  0
ENDBLK
  5
33A
330
338
100
AcDbEntity
 67
     1
  8
0
100
AcDbBlockEnd
  0
BLOCK
  5
623
330
622
100
AcDbEntity
  8
0
100
AcDbBlockBegin
  2
*D0
 70
     1
 10
0.0
 20
0.0
 30
0.0
  3
*D0
  1

  0
LINE
  5
625
330
622
100
AcDbEntity
  8
2
 62
     0
370
    -2
100
AcDbLine
 10
73.0
 20
6.0
 30
0.0
 11
89.25
 21
6.000000000000058
 31
0.0
  0
LINE
  5
626
330
622
100
AcDbEntity
  8
2
 62
     0
370
    -2
100
AcDbLine
 10
73.0
 20
-6.0
 30
0.0
 11
89.25000000000004
 21
-5.999999999999943
 31
0.0
  0
LINE
  5
627
330
622
100
AcDbEntity
  8
2
 62
     0
370
    -2
100
AcDbLine
 10
88.00000000000004
 20
-5.999999999999948
 30
0.0
 11
88.00000000000013
 21
-31.78949999999995
 31
0.0
  0
LINE
  5
628
330
622
100
AcDbEntity
  8
2
 62
     0
370
    -2
100
AcDbLine
 10
88.00000000000001
 20
3.500000000000053
 30
0.0
 11
88.00000000000003
 21
-3.499999999999948
 31
0.0
  0
SOLID
  5
629
330
622
100
AcDbEntity
  8
2
 62
     0
100
AcDbTrace
 10
88.41666666666669
 20
3.500000000000055
 30
0.0
 11
87.58333333333334
 21
3.500000000000052
 31
0.0
 12
88.0
 22
6.000000000000053
 32
0.0
 13
88.0
 23
6.000000000000053
 33
0.0
  0
SOLID
  5
62A
330
622
100
AcDbEntity
  8
2
 62
     0
100
AcDbTrace
 10
87.58333333333336
 20
-3.499999999999949
 30
0.0
 11
88.4166666666667
 21
-3.499999999999946
 31
0.0
 12
88.00000000000004
 22
-5.999999999999948
 32
0.0
 13
88.00000000000004
 23
-5.999999999999948
 33
0.0
  0
MTEXT
  5
62B
330
622
100
AcDbEntity
  8
2
 62
     0
100
AcDbMText
 10
85.6022500000001
 20
-20.14474999999996
 30
0.0
 40
3.5
 41
0.0
 71
     5
 72
     1
  1
MF12x1.5
  7
SIMPLEX
 11
-3.552713678800501E-15
 21
1.0
 31
0.0
 73
     1
 44
1.0
  0
POINT
  5
62C
330
622
100
AcDbEntity
  8
DEFPOINTS
 62
     0
100
AcDbPoint
 10
73.0
 20
6.0
 30
0.0
  0
POINT
  5
62D
330
622
100
AcDbEntity
  8
DEFPOINTS
 62
     0
100
AcDbPoint
 10
73.0
 20
-6.0
 30
0.0
  0
POINT
  5
62E
330
622
100
AcDbEntity
  8
DEFPOINTS
 62
     0
100
AcDbPoint
 10
88.00000000000004
 20
-5.999999999999948
 30
0.0
  0
ENDBLK
  5
624
330
622
100
AcDbEntity
  8
0
100
AcDbBlockEnd
  0
BLOCK
  5
631
330
630
100
AcDbEntity
  8
0
100
AcDbBlockBegin
  2
*D1
 70
     1
 10
0.0
 20
0.0
 30
0.0
  3
*D1
  1

  0
LINE
  5
633
330
630
100
AcDbEntity
  8
2
 62
     0
370
    -2
100
AcDbLine
 10
0.0
 20
0.0
 30
0.0
 11
0.0
 21
76.25
 31
0.0
  0
LINE
  5
634
330
630
100
AcDbEntity
  8
2
 62
     0
370
    -2
100
AcDbLine
 10
73.0
 20
0.0
 30
0.0
 11
73.0
 21
76.25
 31
0.0
  0
LINE
  5
635
330
630
100
AcDbEntity
  8
2
 62
     0
370
    -2
100
AcDbLine
 10
2.5
 20
75.0
 30
0.0
 11
70.5
 21
75.0
 31
0.0
  0
SOLID
  5
636
330
630
100
AcDbEntity
  8
2
 62
     0
100
AcDbTrace
 10
2.5
 20
75.41666666666667
 30
0.0
 11
2.5
 21
74.58333333333333
 31
0.0
 12
0.0
 22
75.0
 32
0.0
 13
0.0
 23
75.0
 33
0.0
  0
SOLID
  5
637
330
630
100
AcDbEntity
  8
2
 62
     0
100
AcDbTrace
 10
70.5
 20
74.58333333333333
 30
0.0
 11
70.5
 21
75.41666666666667
 31
0.0
 12
73.0
 22
75.0
 32
0.0
 13
73.0
 23
75.0
 33
0.0
  0
MTEXT
  5
638
330
630
100
AcDbEntity
  8
2
 62
     0
100
AcDbMText
 10
36.5
 20
77.39075
 30
0.0
 40
3.5
 41
0.0
 71
     5
 72
     1
  1
73
  7
SIMPLEX
 73
     1
 44
1.0
  0
POINT
  5
639
330
630
100
AcDbEntity
  8
DEFPOINTS
 62
     0
100
AcDbPoint
 10
0.0
 20
0.0
 30
0.0
  0
POINT
  5
63A
330
630
100
AcDbEntity
  8
DEFPOINTS
 62
     0
100
AcDbPoint
 10
73.0
 20
0.0
 30
0.0
  0
POINT
  5
63B
330
630
100
AcDbEntity
  8
DEFPOINTS
 62
     0
100
AcDbPoint
 10
73.0
 20
75.0
 30
0.0
  0
ENDBLK
  5
632
330
630
100
AcDbEntity
  8
0
100
AcDbBlockEnd
  0
BLOCK
  5
63E
330
63D
100
AcDbEntity
  8
0
100
AcDbBlockBegin
  2
*D2
 70
     1
 10
0.0
 20
0.0
 30
0.0
  3
*D2
  1

  0
LINE
  5
640
330
63D
100
AcDbEntity
  8
SK2
 62
     0
370
    -2
100
AcDbLine
 10
-17.00000000000001
 20
4.5
 30
0.0
 11
-43.25000000002297
 21
4.499999999866036
 31
0.0
  0
LINE
  5
641
330
63D
100
AcDbEntity
  8
SK2
 62
     0
370
    -2
100
AcDbLine
 10
-17.00000000000001
 20
-4.5
 30
0.0
 11
-43.24999999997704
 21
-4.500000000133964
 31
0.0
  0
LINE
  5
642
330
63D
100
AcDbEntity
  8
SK2
 62
     0
370
    -2
100
AcDbLine
 10
-42.00000000001021
 20
1.999999999872415
 30
0.0
 11
-41.9999999999898
 21
-2.000000000127585
 31
0.0
  0
SOLID
  5
643
330
63D
100
AcDbEntity
  8
SK2
 62
     0
100
AcDbTrace
 10
-41.58333333334355
 20
1.999999999874541
 30
0.0
 11
-42.41666666667687
 21
1.999999999870289
 31
0.0
 12
-42.00000000002297
 22
4.499999999872415
 32
0.0
 13
-42.00000000002297
 23
4.499999999872415
 33
0.0
  0
SOLID
  5
644
330
63D
100
AcDbEntity
  8
SK2
 62
     0
100
AcDbTrace
 10
-42.41666666665647
 20
-2.000000000129711
 30
0.0
 11
-41.58333333332314
 21
-2.000000000125459
 31
0.0
 12
-41.99999999997704
 22
-4.500000000127585
 32
0.0
 13
-41.99999999997704
 23
-4.500000000127585
 33
0.0
  0
MTEXT
  5
645
330
63D
100
AcDbEntity
  8
SK2
 62
     0
100
AcDbMText
 10
-44.39075
 20
-0.0000000001397857
 30
0.0
 40
3.5
 41
0.0
 71
     5
 72
     1
  1
%%c9
  7
SIMPLEX
 11
-5.103275826614764E-12
 21
1.0
 31
0.0
 73
     1
 44
1.0
  0
POINT
  5
646
330
63D
100
AcDbEntity
  8
DEFPOINTS
 62
     0
100
AcDbPoint
 10
-17.00000000000001
 20
4.5
 30
0.0
  0
POINT
  5
647
330
63D
100
AcDbEntity
  8
DEFPOINTS
 62
     0
100
AcDbPoint
 10
-17.00000000000001
 20
-4.5
 30
0.0
  0
POINT
  5
648
330
63D
100
AcDbEntity
  8
DEFPOINTS
 62
     0
100
AcDbPoint
 10
-41.99999999997704
 20
-4.500000000127585
 30
0.0
  0
ENDBLK
  5
63F
330
63D
100
AcDbEntity
  8
0
100
AcDbBlockEnd
  0
BLOCK
  5
64B
330
64A
100
AcDbEntity
  8
0
100
AcDbBlockBegin
  2
*D3
 70
     1
 10
0.0
 20
0.0
 30
0.0
  3
*D3
  1

  0
LINE
  5
64D
330
64A
100
AcDbEntity
  8
2
 62
     0
370
    -2
100
AcDbLine
 10
49.05551363
 20
4.3
 30
0.0
 11
49.05551363
 21
61.25
 31
0.0
  0
LINE
  5
64E
330
64A
100
AcDbEntity
  8
2
 62
     0
370
    -2
100
AcDbLine
 10
73.0
 20
6.0
 30
0.0
 11
73.0
 21
61.25
 31
0.0
  0
LINE
  5
64F
330
64A
100
AcDbEntity
  8
2
 62
     0
370
    -2
100
AcDbLine
 10
51.55551363
 20
60.0
 30
0.0
 11
70.5
 21
60.0
 31
0.0
  0
SOLID
  5
650
330
64A
100
AcDbEntity
  8
2
 62
     0
100
AcDbTrace
 10
51.55551363
 20
60.41666666666666
 30
0.0
 11
51.55551363
 21
59.58333333333334
 31
0.0
 12
49.05551363
 22
60.0
 32
0.0
 13
49.05551363
 23
60.0
 33
0.0
  0
SOLID
  5
651
330
64A
100
AcDbEntity
  8
2
 62
     0
100
AcDbTrace
 10
70.5
 20
59.58333333333334
 30
0.0
 11
70.5
 21
60.41666666666666
 31
0.0
 12
73.0
 22
60.0
 32
0.0
 13
73.0
 23
60.0
 33
0.0
  0
MTEXT
  5
652
330
64A
100
AcDbEntity
  8
2
 62
     0
100
AcDbMText
 10
61.027756815
 20
62.438
 30
0.0
 40
3.5
 41
0.0
 71
     5
 72
     1
  1
23.94
  7
SIMPLEX
 73
     1
 44
1.0
  0
POINT
  5
653
330
64A
100
AcDbEntity
  8
DEFPOINTS
 62
     0
100
AcDbPoint
 10
49.05551363
 20
4.3
 30
0.0
  0
POINT
  5
654
330
64A
100
AcDbEntity
  8
DEFPOINTS
 62
     0
100
AcDbPoint
 10
73.0
 20
6.0
 30
0.0
  0
POINT
  5
655
330
64A
100
AcDbEntity
  8
DEFPOINTS
 62
     0
100
AcDbPoint
 10
73.0
 20
60.0
 30
0.0
  0
ENDBLK
  5
64C
330
64A
100
AcDbEntity
  8
0
100
AcDbBlockEnd
  0
BLOCK
  5
658
330
657
100
AcDbEntity
  8
0
100
AcDbBlockBegin
  2
*D4
 70
     1
 10
0.0
 20
0.0
 30
0.0
  3
*D4
  1

  0
LINE
  5
65A
330
657
100
AcDbEntity
  8
SK2
 62
     0
370
    -2
100
AcDbLine
 10
-27.0
 20
6.0
 30
0.0
 11
-27.0
 21
91.25
 31
0.0
  0
LINE
  5
65B
330
657
100
AcDbEntity
  8
SK2
 62
     0
370
    -2
100
AcDbLine
 10
73.0
 20
6.0
 30
0.0
 11
73.0
 21
91.25
 31
0.0
  0
LINE
  5
65C
330
657
100
AcDbEntity
  8
SK2
 62
     0
370
    -2
100
AcDbLine
 10
-24.5
 20
90.0
 30
0.0
 11
70.5
 21
90.0
 31
0.0
  0
SOLID
  5
65D
330
657
100
AcDbEntity
  8
SK2
 62
     0
100
AcDbTrace
 10
-24.5
 20
90.41666666666667
 30
0.0
 11
-24.5
 21
89.58333333333333
 31
0.0
 12
-27.0
 22
90.0
 32
0.0
 13
-27.0
 23
90.0
 33
0.0
  0
SOLID
  5
65E
330
657
100
AcDbEntity
  8
SK2
 62
     0
100
AcDbTrace
 10
70.5
 20
89.58333333333333
 30
0.0
 11
70.5
 21
90.41666666666667
 31
0.0
 12
73.0
 22
90.0
 32
0.0
 13
73.0
 23
90.0
 33
0.0
  0
MTEXT
  5
65F
330
657
100
AcDbEntity
  8
SK2
 62
     0
100
AcDbMText
 10
23.0
 20
92.39075
 30
0.0
 40
3.5
 41
0.0
 71
     5
 72
     1
  1
100
  7
SIMPLEX
 73
     1
 44
1.0
  0
POINT
  5
660
330
657
100
AcDbEntity
  8
DEFPOINTS
 62
     0
100
AcDbPoint
 10
-27.0
 20
6.0
 30
0.0
  0
POINT
  5
661
330
657
100
AcDbEntity
  8
DEFPOINTS
 62
     0
100
AcDbPoint
 10
73.0
 20
6.0
 30
0.0
  0
POINT
  5
662
330
657
100
AcDbEntity
  8
DEFPOINTS
 62
     0
100
AcDbPoint
 10
73.0
 20
90.0
 30
0.0
  0
ENDBLK
  5
659
330
657
100
AcDbEntity
  8
0
100
AcDbBlockEnd
  0
ENDSEC
  0
SECTION
  2
ENTITIES
  0
LINE
  5
3D6
330
18
100
AcDbEntity
  8
SK4
100
AcDbLine
 10
-29.00000000000001
 20
0.0
 30
0.0
 11
49.05551363
 21
0.0
 31
0.0
  0
LINE
  5
3D7
330
18
100
AcDbEntity
  8
4
100
AcDbLine
 10
47.05551363
 20
0.0
 30
0.0
 11
75.0
 21
0.0
 31
0.0
  0
LINE
  5
3D8
330
18
100
AcDbEntity
  8
SK4
100
AcDbLine
 10
47.05551363
 20
0.0
 30
0.0
 11
75.0
 21
0.0
 31
0.0
  0
LINE
  5
3D9
330
18
100
AcDbEntity
  8
1
100
AcDbLine
 10
26.3
 20
-2.840785234988582
 30
0.0
 11
49.05551363
 21
-2.840785234988581
 31
0.0
  0
LINE
  5
3DA
330
18
100
AcDbEntity
  8
1
100
AcDbLine
 10
26.3
 20
3.489976969647632
 30
0.0
 11
49.05551363
 21
3.489976969647632
 31
0.0
  0
LINE
  5
3DB
330
18
100
AcDbEntity
  8
1
100
AcDbLine
 10
26.29999999999999
 20
4.481912584077191
 30
0.0
 11
49.05551363
 21
4.481912584077224
 31
0.0
  0
LINE
  5
3DC
330
18
100
AcDbEntity
  8
1
100
AcDbLine
 10
49.05551363
 20
4.5
 30
0.0
 11
-0.0000000000000053
 21
4.5
 31
0.0
  0
LINE
  5
3DD
330
18
100
AcDbEntity
  8
1
100
AcDbLine
 10
26.30000000000001
 20
-0.403062760237818
 30
0.0
 11
26.30000000000001
 21
-2.840785234988669
 31
0.0
  0
LINE
  5
3DE
330
18
100
AcDbEntity
  8
1
100
AcDbLine
 10
26.30000000000001
 20
4.481912584077191
 30
0.0
 11
26.30000000000001
 21
3.489976969647576
 31
0.0
  0
LINE
  5
3DF
330
18
100
AcDbEntity
  8
1
100
AcDbLine
 10
26.29999999999999
 20
-0.4030627602377925
 30
0.0
 11
49.05551363000001
 21
-0.4030627602378222
 31
0.0
  0
LINE
  5
3E0
330
18
100
AcDbEntity
  8
1
100
AcDbLine
 10
49.05551363
 20
4.5
 30
0.0
 11
49.05551363000001
 21
4.499995732821501
 31
0.0
  0
LINE
  5
3E1
330
18
100
AcDbEntity
  8
1
100
AcDbLine
 10
49.05551363000001
 20
4.499995732821501
 30
0.0
 11
49.05551362999999
 21
4.498755623949863
 31
0.0
  0
LINE
  5
3E2
330
18
100
AcDbEntity
  8
1
100
AcDbLine
 10
49.05551362999999
 20
4.498755623949863
 30
0.0
 11
49.05551362999999
 21
4.481912584077189
 31
0.0
  0
LINE
  5
3E3
330
18
100
AcDbEntity
  8
1
100
AcDbLine
 10
49.05551363
 20
4.481912584077195
 30
0.0
 11
49.05551363000001
 21
3.489976969648143
 31
0.0
  0
LINE
  5
3E4
330
18
100
AcDbEntity
  8
1
100
AcDbLine
 10
49.05551362999999
 20
3.489976969647628
 30
0.0
 11
49.05551363
 21
-0.4030627602378242
 31
0.0
  0
LINE
  5
3E5
330
18
100
AcDbEntity
  8
1
100
AcDbLine
 10
49.05551363
 20
-1.259522968263013
 30
0.0
 11
49.05551363
 21
-2.840785234988585
 31
0.0
  0
LINE
  5
3E6
330
18
100
AcDbEntity
  8
1
100
AcDbLine
 10
49.05551362999999
 20
-2.840785234988585
 30
0.0
 11
49.05551363
 21
-4.5
 31
0.0
  0
LINE
  5
3E7
330
18
100
AcDbEntity
  8
1
100
AcDbLine
 10
-0.0000000000000036
 20
-4.5
 30
0.0
 11
49.05551363
 21
-4.5
 31
0.0
  0
LINE
  5
3E8
330
18
100
AcDbEntity
  8
1
100
AcDbLine
 10
49.05551363
 20
-0.4030627602378242
 30
0.0
 11
49.05551363
 21
-1.259522968263018
 31
0.0
  0
LINE
  5
3E9
330
18
100
AcDbEntity
  8
1
 62
     1
100
AcDbLine
 10
70.40352409875136
 20
5.449886415242283
 30
0.0
 11
71.1576636833214
 21
5.343906117303166
 31
0.0
  0
LINE
  5
3EA
330
18
100
AcDbEntity
  8
1
 62
     1
100
AcDbLine
 10
52.72113247308103
 20
6.0
 30
0.0
 11
52.77886752691896
 21
6.000000000000001
 31
0.0
  0
LINE
  5
3EB
330
18
100
AcDbEntity
  8
1
 62
     1
100
AcDbLine
 10
54.22113247308103
 20
6.0
 30
0.0
 11
54.27886752691895
 21
6.0
 31
0.0
  0
LINE
  5
3EC
330
18
100
AcDbEntity
  8
1
 62
     1
100
AcDbLine
 10
55.72113247308103
 20
6.0
 30
0.0
 11
55.77886752691895
 21
5.999999999999999
 31
0.0
  0
LINE
  5
3ED
330
18
100
AcDbEntity
  8
1
 62
     1
100
AcDbLine
 10
58.72113247308103
 20
6.0
 30
0.0
 11
58.77886752691896
 21
6.0
 31
0.0
  0
LINE
  5
3EE
330
18
100
AcDbEntity
  8
1
 62
     1
100
AcDbLine
 10
60.22113247308103
 20
6.0
 30
0.0
 11
60.27886752691897
 21
6.0
 31
0.0
  0
LINE
  5
3EF
330
18
100
AcDbEntity
  8
1
 62
     1
100
AcDbLine
 10
68.5
 20
-4.7509625
 30
0.0
 11
67.89276308625716
 21
-5.802727196448282
 31
0.0
  0
LINE
  5
3F0
330
18
100
AcDbEntity
  8
1
 62
     1
100
AcDbLine
 10
56.5
 20
-4.7509625
 30
0.0
 11
55.77886752691896
 21
-6.000000000000019
 31
0.0
  0
LINE
  5
3F1
330
18
100
AcDbEntity
  8
1
 62
     1
100
AcDbLine
 10
58.00000000000001
 20
-4.7509625
 30
0.0
 11
57.27886752691897
 21
-6.000000000000019
 31
0.0
  0
LINE
  5
3F2
330
18
100
AcDbEntity
  8
1
 62
     1
100
AcDbLine
 10
58.72113247308103
 20
-5.999999999999994
 30
0.0
 11
58.00000000000001
 21
-4.7509625
 31
0.0
  0
LINE
  5
3F3
330
18
100
AcDbEntity
  8
1
 62
     1
100
AcDbLine
 10
64.72113247308103
 20
-5.999999999999994
 30
0.0
 11
64.0
 21
-4.7509625
 31
0.0
  0
LINE
  5
3F4
330
18
100
AcDbEntity
  8
1
 62
     1
100
AcDbLine
 10
66.22113247308103
 20
-5.999999999999994
 30
0.0
 11
65.5
 21
-4.7509625
 31
0.0
  0
LINE
  5
3F5
330
18
100
AcDbEntity
  8
1
 62
     1
100
AcDbLine
 10
50.5
 20
-4.7509625
 30
0.0
 11
50.28367054396247
 21
-5.1256559343298
 31
0.0
  0
LINE
  5
3F6
330
18
100
AcDbEntity
  8
1
 62
     1
100
AcDbLine
 10
50.89660412205934
 20
-5.437900669612887
 30
0.0
 11
50.5
 21
-4.7509625
 31
0.0
  0
LINE
  5
3F7
330
18
100
AcDbEntity
  8
1
 62
     1
100
AcDbLine
 10
72.79011398185352
 20
3.520336254568101
 30
0.0
 11
71.79095376582228
 21
3.526811768037857
 31
0.0
  0
LINE
  5
3F8
330
18
100
AcDbEntity
  8
1
 62
     1
100
AcDbLine
 10
72.79011398185352
 20
-0.6139234700428691
 30
0.0
 11
71.79095376582231
 21
-0.6631963657973012
 31
0.0
  0
LINE
  5
3F9
330
18
100
AcDbEntity
  8
1
 62
     1
100
AcDbLine
 10
72.79011398185351
 20
3.520336254568103
 30
0.0
 11
72.79011398185351
 21
-0.6139234700429189
 31
0.0
  0
LINE
  5
3FA
330
18
100
AcDbEntity
  8
1
 62
     1
100
AcDbLine
 10
71.15766368332137
 20
3.530851770086688
 30
0.0
 11
70.40352409875136
 21
3.535604278814959
 31
0.0
  0
LINE
  5
3FB
330
18
100
AcDbEntity
  8
1
 62
     1
100
AcDbLine
 10
71.15766368467261
 20
-0.6943913741465755
 30
0.0
 11
70.40352409965814
 21
-0.7315058788139979
 31
0.0
  0
LINE
  5
3FC
330
18
100
AcDbEntity
  8
1
 62
     1
100
AcDbLine
 10
69.5252133847893
 20
3.541066616992506
 30
0.0
 11
69.0160944316804
 21
3.544200121511127
 31
0.0
  0
LINE
  5
3FD
330
18
100
AcDbEntity
  8
1
 62
     1
100
AcDbLine
 10
69.52521338478928
 20
-0.774688379318639
 30
0.0
 11
69.01609443168039
 21
-0.7996994124399679
 31
0.0
  0
LINE
  5
3FE
330
18
100
AcDbEntity
  8
1
 62
     1
100
AcDbLine
 10
67.89276308625718
 20
3.55103685283918
 30
0.0
 11
67.62866476460943
 21
3.552629853377845
 31
0.0
  0
LINE
  5
3FF
330
18
100
AcDbEntity
  8
1
 62
     1
100
AcDbLine
 10
67.62866476460941
 20
3.552629853377845
 30
0.0
 11
67.62866476460943
 21
-0.8677890937677681
 31
0.0
  0
LINE
  5
400
330
18
100
AcDbEntity
  8
1
 62
     1
100
AcDbLine
 10
67.892763086348
 20
-0.8548356654973641
 30
0.0
 11
67.62866476460943
 21
-0.8677890937677682
 31
0.0
  0
ARC
  5
401
330
18
100
AcDbEntity
  8
1
 62
     1
100
AcDbCircle
 10
48.10822868047732
 20
6.309115255120973
 30
0.0
 40
25.25443008078579
100
AcDbArc
 50
335.8795157198778
 51
337.8572892928133
  0
LINE
  5
402
330
18
100
AcDbEntity
  8
1
 62
     1
100
AcDbLine
 10
71.15766368332139
 20
-4.011286373250573
 30
0.0
 11
71.1576636833214
 21
-5.343906117303167
 31
0.0
  0
LINE
  5
403
330
18
100
AcDbEntity
  8
1
 62
     1
100
AcDbLine
 10
71.5
 20
-4.7509625
 30
0.0
 11
71.1576636833214
 21
-5.343906117303165
 31
0.0
  0
ARC
  5
404
330
18
100
AcDbEntity
  8
1
 62
     1
100
AcDbCircle
 10
93.42329717007465
 20
5.686729479964857
 30
0.0
 40
23.65959582235633
100
AcDbArc
 50
202.0870271297536
 51
203.8915650998405
  0
LINE
  5
405
330
18
100
AcDbEntity
  8
1
 62
     1
100
AcDbLine
 10
71.5
 20
-4.7509625
 30
0.0
 11
71.49999999999999
 21
-4.750639607560279
 31
0.0
  0
LINE
  5
406
330
18
100
AcDbEntity
  8
1
 62
     1
100
AcDbLine
 10
71.49999999999999
 20
-4.750639607560279
 30
0.0
 11
71.5
 21
-4.651053921325935
 31
0.0
  0
LINE
  5
407
330
18
100
AcDbEntity
  8
1
 62
     1
100
AcDbLine
 10
71.5
 20
-4.651053921325935
 30
0.0
 11
71.49999999999999
 21
-3.209616582407125
 31
0.0
  0
LINE
  5
408
330
18
100
AcDbEntity
  8
1
 62
     1
100
AcDbLine
 10
71.79095376582232
 20
-5.254908970092554
 30
0.0
 11
71.5
 21
-4.7509625
 31
0.0
  0
LINE
  5
409
330
18
100
AcDbEntity
  8
1
 62
     1
100
AcDbLine
 10
71.79095376582232
 20
-3.895595851315814
 30
0.0
 11
71.79095376582232
 21
-5.254908970092547
 31
0.0
  0
ARC
  5
40A
330
18
100
AcDbEntity
  8
1
 62
     1
100
AcDbCircle
 10
51.4379224236323
 20
5.53879533541641
 30
0.0
 40
23.26927296005075
100
AcDbArc
 50
336.5795752896414
 51
337.916060650351
  0
LINE
  5
40B
330
18
100
AcDbEntity
  8
1
 62
     1
100
AcDbLine
 10
72.79011398185354
 20
-3.710161407459173
 30
0.0
 11
72.79011398185352
 21
-5.114495577730613
 31
0.0
  0
LINE
  5
40C
330
18
100
AcDbEntity
  8
1
 62
     1
100
AcDbLine
 10
73.0
 20
-4.7509625
 30
0.0
 11
72.79011398185352
 21
-5.114495577730606
 31
0.0
  0
LINE
  5
40D
330
18
100
AcDbEntity
  8
1
 62
     1
100
AcDbLine
 10
66.27886752691897
 20
3.559447072901633
 30
0.0
 11
66.22113247308106
 21
3.559447072901634
 31
0.0
  0
LINE
  5
40E
330
18
100
AcDbEntity
  8
1
 62
     1
100
AcDbLine
 10
66.27886752691897
 20
-0.9236491541882049
 30
0.0
 11
66.22113247308106
 21
-0.9236491541882049
 31
0.0
  0
LINE
  5
40F
330
18
100
AcDbEntity
  8
1
 62
     1
100
AcDbLine
 10
64.77886752691896
 20
3.559447072901632
 30
0.0
 11
64.77886752691896
 21
-0.9236491541882109
 31
0.0
  0
LINE
  5
410
330
18
100
AcDbEntity
  8
1
 62
     1
100
AcDbLine
 10
63.27886752691898
 20
-0.9236491541882046
 30
0.0
 11
63.22113247308105
 21
-0.9236491541882049
 31
0.0
  0
LINE
  5
411
330
18
100
AcDbEntity
  8
1
 62
     1
100
AcDbLine
 10
61.77886752691896
 20
3.559447072901633
 30
0.0
 11
61.72113247308102
 21
3.559447072901633
 31
0.0
  0
LINE
  5
412
330
18
100
AcDbEntity
  8
1
 62
     1
100
AcDbLine
 10
60.27886752691898
 20
3.559447072901633
 30
0.0
 11
60.22113247308102
 21
3.559447072901633
 31
0.0
  0
LINE
  5
413
330
18
100
AcDbEntity
  8
1
 62
     1
100
AcDbLine
 10
60.22113247308103
 20
3.559447072901633
 30
0.0
 11
60.22113247308103
 21
-0.9236491541882109
 31
0.0
  0
LINE
  5
414
330
18
100
AcDbEntity
  8
1
 62
     1
100
AcDbLine
 10
60.27886752691898
 20
-0.9236491541882046
 30
0.0
 11
60.22113247308105
 21
-0.9236491541882049
 31
0.0
  0
LINE
  5
415
330
18
100
AcDbEntity
  8
1
 62
     1
100
AcDbLine
 10
58.77886752691899
 20
-0.9236491541882046
 30
0.0
 11
58.72113247308103
 21
-0.9236491541882046
 31
0.0
  0
LINE
  5
416
330
18
100
AcDbEntity
  8
1
 62
     1
100
AcDbLine
 10
57.27886752691897
 20
3.559447072901633
 30
0.0
 11
57.22113247308105
 21
3.559447072901633
 31
0.0
  0
LINE
  5
417
330
18
100
AcDbEntity
  8
1
 62
     1
100
AcDbLine
 10
55.77886752691895
 20
3.559447072901633
 30
0.0
 11
55.72113247308103
 21
3.559447072901633
 31
0.0
  0
LINE
  5
418
330
18
100
AcDbEntity
  8
1
 62
     1
100
AcDbLine
 10
55.77886752691897
 20
-0.9236491541882046
 30
0.0
 11
55.72113247308103
 21
-0.9236491541882046
 31
0.0
  0
LINE
  5
419
330
18
100
AcDbEntity
  8
1
 62
     1
100
AcDbLine
 10
54.27886752691896
 20
3.559447072901633
 30
0.0
 11
54.22113247308105
 21
3.559447072901634
 31
0.0
  0
LINE
  5
41A
330
18
100
AcDbEntity
  8
1
 62
     1
100
AcDbLine
 10
54.27886752691896
 20
-0.9236491541882046
 30
0.0
 11
54.22113247308106
 21
-0.9236491541882046
 31
0.0
  0
LINE
  5
41B
330
18
100
AcDbEntity
  8
1
 62
     1
100
AcDbLine
 10
52.77886752691897
 20
3.559447072901633
 30
0.0
 11
52.72113247308103
 21
3.559447072901633
 31
0.0
  0
LINE
  5
41C
330
18
100
AcDbEntity
  8
1
 62
     1
100
AcDbLine
 10
52.72113247308103
 20
3.559447072901632
 30
0.0
 11
52.72113247308103
 21
-0.9236491541882051
 31
0.0
  0
LINE
  5
41D
330
18
100
AcDbEntity
  8
1
 62
     1
100
AcDbLine
 10
52.77886752691897
 20
-0.9236491541882046
 30
0.0
 11
52.72113247308103
 21
-0.9236491541882046
 31
0.0
  0
LINE
  5
41E
330
18
100
AcDbEntity
  8
1
 62
     1
100
AcDbLine
 10
52.77886752691896
 20
3.559447072901633
 30
0.0
 11
52.77886752691897
 21
-0.9236491541882109
 31
0.0
  0
ARC
  5
41F
330
18
100
AcDbEntity
  8
1
 62
     1
100
AcDbCircle
 10
92.22511499275288
 20
7.72462362638349
 30
0.0
 40
28.87552912504832
100
AcDbArc
 50
202.2512983947519
 51
205.7713389239642
  0
LINE
  5
420
330
18
100
AcDbEntity
  8
1
 62
     1
100
AcDbLine
 10
66.22113247308103
 20
-4.830148707360054
 30
0.0
 11
66.22113247308103
 21
-6.0
 31
0.0
  0
ARC
  5
421
330
18
100
AcDbEntity
  8
1
 62
     1
100
AcDbCircle
 10
36.62555516879659
 20
8.684444215953889
 30
0.0
 40
31.22892091836234
100
AcDbArc
 50
334.3573352077635
 51
337.6120888002108
  0
LINE
  5
422
330
18
100
AcDbEntity
  8
1
 62
     1
100
AcDbLine
 10
64.77886752691896
 20
-4.830148707360054
 30
0.0
 11
64.77886752691896
 21
-6.0
 31
0.0
  0
LINE
  5
423
330
18
100
AcDbEntity
  8
1
 62
     1
100
AcDbLine
 10
65.5
 20
-4.7509625
 30
0.0
 11
64.77886752691896
 21
-6.000000000000019
 31
0.0
  0
LINE
  5
424
330
18
100
AcDbEntity
  8
1
 62
     1
100
AcDbLine
 10
65.5
 20
-4.7509625
 30
0.0
 11
65.50000000000001
 21
-4.750639607560279
 31
0.0
  0
LINE
  5
425
330
18
100
AcDbEntity
  8
1
 62
     1
100
AcDbLine
 10
65.50000000000001
 20
-4.750639607560279
 30
0.0
 11
65.5
 21
-4.651053921325935
 31
0.0
  0
LINE
  5
426
330
18
100
AcDbEntity
  8
1
 62
     1
100
AcDbLine
 10
65.5
 20
-4.651053921325935
 30
0.0
 11
65.5
 21
-3.209616582407125
 31
0.0
  0
ARC
  5
427
330
18
100
AcDbEntity
  8
1
 62
     1
100
AcDbCircle
 10
90.72511499276888
 20
7.724623626390277
 30
0.0
 40
28.8755291250657
100
AcDbArc
 50
202.2512983947524
 51
205.7713389239625
  0
LINE
  5
428
330
18
100
AcDbEntity
  8
1
 62
     1
100
AcDbLine
 10
64.72113247308103
 20
-4.830148707360054
 30
0.0
 11
64.72113247308103
 21
-6.0
 31
0.0
  0
ARC
  5
429
330
18
100
AcDbEntity
  8
1
 62
     1
100
AcDbCircle
 10
35.12555516887242
 20
8.684444215919786
 30
0.0
 40
31.22892091827921
100
AcDbArc
 50
334.3573352077597
 51
337.6120888002156
  0
LINE
  5
42A
330
18
100
AcDbEntity
  8
1
 62
     1
100
AcDbLine
 10
63.27886752691898
 20
-4.830148707360054
 30
0.0
 11
63.27886752691898
 21
-6.0
 31
0.0
  0
LINE
  5
42B
330
18
100
AcDbEntity
  8
1
 62
     1
100
AcDbLine
 10
64.0
 20
-4.7509625
 30
0.0
 11
63.27886752691898
 21
-5.999999999999993
 31
0.0
  0
LINE
  5
42C
330
18
100
AcDbEntity
  8
1
 62
     1
100
AcDbLine
 10
64.0
 20
-4.7509625
 30
0.0
 11
64.0
 21
-4.750639607560279
 31
0.0
  0
LINE
  5
42D
330
18
100
AcDbEntity
  8
1
 62
     1
100
AcDbLine
 10
64.0
 20
-4.750639607560279
 30
0.0
 11
64.0
 21
-4.651053921325935
 31
0.0
  0
LINE
  5
42E
330
18
100
AcDbEntity
  8
1
 62
     1
100
AcDbLine
 10
64.0
 20
-4.651053921325935
 30
0.0
 11
64.0
 21
-3.209616582407125
 31
0.0
  0
ARC
  5
42F
330
18
100
AcDbEntity
  8
1
 62
     1
100
AcDbCircle
 10
38.12555516874267
 20
8.684444215978377
 30
0.0
 40
31.22892091842154
100
AcDbArc
 50
334.3573352077658
 51
337.6120888002069
  0
LINE
  5
430
330
18
100
AcDbEntity
  8
1
 62
     1
100
AcDbLine
 10
66.27886752691896
 20
-4.830148707360054
 30
0.0
 11
66.27886752691896
 21
-6.0
 31
0.0
  0
LINE
  5
431
330
18
100
AcDbEntity
  8
1
 62
     1
100
AcDbLine
 10
67.0
 20
-4.7509625
 30
0.0
 11
66.27886752691896
 21
-6.000000000000019
 31
0.0
  0
ARC
  5
432
330
18
100
AcDbEntity
  8
1
 62
     1
100
AcDbCircle
 10
92.67024034374069
 20
7.271228762967116
 30
0.0
 40
27.72749594056067
100
AcDbArc
 50
202.2095934444253
 51
205.4290137736292
  0
LINE
  5
433
330
18
100
AcDbEntity
  8
1
 62
     1
100
AcDbLine
 10
67.0
 20
-4.7509625
 30
0.0
 11
67.0
 21
-4.750639607560279
 31
0.0
  0
LINE
  5
434
330
18
100
AcDbEntity
  8
1
 62
     1
100
AcDbLine
 10
67.0
 20
-4.750639607560279
 30
0.0
 11
67.0
 21
-4.651053921325935
 31
0.0
  0
LINE
  5
435
330
18
100
AcDbEntity
  8
1
 62
     1
100
AcDbLine
 10
67.0
 20
-4.651053921325935
 30
0.0
 11
67.0
 21
-3.209616582407125
 31
0.0
  0
LINE
  5
436
330
18
100
AcDbEntity
  8
1
 62
     1
100
AcDbLine
 10
67.62866476460943
 20
-5.839841305541754
 30
0.0
 11
67.0
 21
-4.7509625
 31
0.0
  0
LINE
  5
437
330
18
100
AcDbEntity
  8
1
 62
     1
100
AcDbLine
 10
67.62866476460941
 20
-4.634929082391678
 30
0.0
 11
67.62866476460943
 21
-5.839841305541757
 31
0.0
  0
ARC
  5
438
330
18
100
AcDbEntity
  8
1
 62
     1
100
AcDbCircle
 10
41.32521433595284
 20
7.938435648736056
 30
0.0
 40
29.37302109434963
100
AcDbArc
 50
334.7540971013548
 51
337.6948376650921
  0
LINE
  5
439
330
18
100
AcDbEntity
  8
1
 62
     1
100
AcDbLine
 10
67.89276308625716
 20
-4.589311515486656
 30
0.0
 11
67.89276308625716
 21
-5.802727196448272
 31
0.0
  0
ARC
  5
43A
330
18
100
AcDbEntity
  8
1
 62
     1
100
AcDbCircle
 10
92.90389260573647
 20
6.730980416851155
 30
0.0
 40
26.35086631014243
100
AcDbArc
 50
202.1628629858476
 51
204.9713283853833
  0
LINE
  5
43B
330
18
100
AcDbEntity
  8
1
 62
     1
100
AcDbLine
 10
68.5
 20
-4.7509625
 30
0.0
 11
68.49999999999999
 21
-4.750639607560279
 31
0.0
  0
LINE
  5
43C
330
18
100
AcDbEntity
  8
1
 62
     1
100
AcDbLine
 10
68.49999999999999
 20
-4.750639607560279
 30
0.0
 11
68.5
 21
-4.651053921325935
 31
0.0
  0
LINE
  5
43D
330
18
100
AcDbEntity
  8
1
 62
     1
100
AcDbLine
 10
68.5
 20
-4.651053921325935
 30
0.0
 11
68.49999999999999
 21
-3.209616582407125
 31
0.0
  0
LINE
  5
43E
330
18
100
AcDbEntity
  8
1
 62
     1
100
AcDbLine
 10
69.0160944316804
 20
-5.644863860392038
 30
0.0
 11
68.5
 21
-4.7509625
 31
0.0
  0
LINE
  5
43F
330
18
100
AcDbEntity
  8
1
 62
     1
100
AcDbLine
 10
69.0160944316804
 20
-4.393533145549308
 30
0.0
 11
69.0160944316804
 21
-5.644863860392019
 31
0.0
  0
ARC
  5
440
330
18
100
AcDbEntity
  8
1
 62
     1
100
AcDbCircle
 10
44.74478025524297
 20
7.105955434398084
 30
0.0
 40
27.28094710331183
100
AcDbArc
 50
335.2770442273969
 51
337.7822896039999
  0
LINE
  5
441
330
18
100
AcDbEntity
  8
1
 62
     1
100
AcDbLine
 10
69.5252133847893
 20
-4.303801316490991
 30
0.0
 11
69.52521338478928
 21
-5.573316656875719
 31
0.0
  0
LINE
  5
442
330
18
100
AcDbEntity
  8
1
 62
     1
100
AcDbLine
 10
70.0
 20
-4.7509625
 30
0.0
 11
69.52521338478928
 21
-5.573316656875724
 31
0.0
  0
ARC
  5
443
330
18
100
AcDbEntity
  8
1
 62
     1
100
AcDbCircle
 10
93.15433663837483
 20
6.202508650918388
 30
0.0
 40
24.99425473464014
100
AcDbArc
 50
202.1215029511486
 51
204.4619241058664
  0
LINE
  5
444
330
18
100
AcDbEntity
  8
1
 62
     1
100
AcDbLine
 10
70.0
 20
-4.7509625
 30
0.0
 11
69.99999999999999
 21
-4.750639607560279
 31
0.0
  0
LINE
  5
445
330
18
100
AcDbEntity
  8
1
 62
     1
100
AcDbLine
 10
69.99999999999999
 20
-4.750639607560279
 30
0.0
 11
70.00000000000001
 21
-4.651053921325935
 31
0.0
  0
LINE
  5
446
330
18
100
AcDbEntity
  8
1
 62
     1
100
AcDbLine
 10
70.00000000000001
 20
-4.651053921325935
 30
0.0
 11
69.99999999999999
 21
-3.209616582407125
 31
0.0
  0
LINE
  5
447
330
18
100
AcDbEntity
  8
1
 62
     1
100
AcDbLine
 10
70.40352409875136
 20
-5.449886415242296
 30
0.0
 11
70.0
 21
-4.7509625
 31
0.0
  0
LINE
  5
448
330
18
100
AcDbEntity
  8
1
 62
     1
100
AcDbLine
 10
70.40352409875136
 20
-4.147380416921957
 30
0.0
 11
70.40352409875136
 21
-5.449886415242283
 31
0.0
  0
ARC
  5
449
330
18
100
AcDbEntity
  8
1
 62
     1
100
AcDbCircle
 10
32.12555516884393
 20
8.68444421593265
 30
0.0
 40
31.22892091831046
100
AcDbArc
 50
334.3573352077611
 51
337.6120888002138
  0
LINE
  5
44A
330
18
100
AcDbEntity
  8
1
 62
     1
100
AcDbLine
 10
60.27886752691898
 20
-4.830148707360054
 30
0.0
 11
60.27886752691897
 21
-6.0
 31
0.0
  0
LINE
  5
44B
330
18
100
AcDbEntity
  8
1
 62
     1
100
AcDbLine
 10
61.00000000000001
 20
-4.7509625
 30
0.0
 11
60.27886752691897
 21
-6.000000000000007
 31
0.0
  0
ARC
  5
44C
330
18
100
AcDbEntity
  8
1
 62
     1
100
AcDbCircle
 10
87.72511499276652
 20
7.724623626389207
 30
0.0
 40
28.87552912506312
100
AcDbArc
 50
202.2512983947522
 51
205.7713389239627
  0
LINE
  5
44D
330
18
100
AcDbEntity
  8
1
 62
     1
100
AcDbLine
 10
61.00000000000001
 20
-4.7509625
 30
0.0
 11
61.00000000000001
 21
-4.750639607560279
 31
0.0
  0
LINE
  5
44E
330
18
100
AcDbEntity
  8
1
 62
     1
100
AcDbLine
 10
61.00000000000001
 20
-4.750639607560279
 30
0.0
 11
61.00000000000001
 21
-4.651053921325935
 31
0.0
  0
LINE
  5
44F
330
18
100
AcDbEntity
  8
1
 62
     1
100
AcDbLine
 10
61.00000000000001
 20
-4.651053921325935
 30
0.0
 11
61.00000000000001
 21
-3.209616582407125
 31
0.0
  0
LINE
  5
450
330
18
100
AcDbEntity
  8
1
 62
     1
100
AcDbLine
 10
61.72113247308104
 20
-6.000000000000006
 30
0.0
 11
61.00000000000001
 21
-4.7509625
 31
0.0
  0
LINE
  5
451
330
18
100
AcDbEntity
  8
1
 62
     1
100
AcDbLine
 10
61.72113247308104
 20
-4.830148707360054
 30
0.0
 11
61.72113247308104
 21
-6.0
 31
0.0
  0
ARC
  5
452
330
18
100
AcDbEntity
  8
1
 62
     1
100
AcDbCircle
 10
33.62555516875329
 20
8.68444421597352
 30
0.0
 40
31.22892091840987
100
AcDbArc
 50
334.3573352077655
 51
337.6120888002077
  0
LINE
  5
453
330
18
100
AcDbEntity
  8
1
 62
     1
100
AcDbLine
 10
61.77886752691897
 20
-4.830148707360054
 30
0.0
 11
61.77886752691897
 21
-6.0
 31
0.0
  0
LINE
  5
454
330
18
100
AcDbEntity
  8
1
 62
     1
100
AcDbLine
 10
62.50000000000001
 20
-4.7509625
 30
0.0
 11
61.77886752691897
 21
-6.000000000000007
 31
0.0
  0
ARC
  5
455
330
18
100
AcDbEntity
  8
1
 62
     1
100
AcDbCircle
 10
89.22511499277608
 20
7.724623626393543
 30
0.0
 40
28.87552912507362
100
AcDbArc
 50
202.251298394753
 51
205.7713389239622
  0
LINE
  5
456
330
18
100
AcDbEntity
  8
1
 62
     1
100
AcDbLine
 10
62.50000000000001
 20
-4.7509625
 30
0.0
 11
62.5
 21
-4.750639607560279
 31
0.0
  0
LINE
  5
457
330
18
100
AcDbEntity
  8
1
 62
     1
100
AcDbLine
 10
62.5
 20
-4.750639607560279
 30
0.0
 11
62.50000000000001
 21
-4.651053921325935
 31
0.0
  0
LINE
  5
458
330
18
100
AcDbEntity
  8
1
 62
     1
100
AcDbLine
 10
62.50000000000001
 20
-4.651053921325935
 30
0.0
 11
62.50000000000001
 21
-3.209616582407125
 31
0.0
  0
LINE
  5
459
330
18
100
AcDbEntity
  8
1
 62
     1
100
AcDbLine
 10
63.22113247308104
 20
-6.000000000000006
 30
0.0
 11
62.50000000000001
 21
-4.7509625
 31
0.0
  0
LINE
  5
45A
330
18
100
AcDbEntity
  8
1
 62
     1
100
AcDbLine
 10
63.22113247308103
 20
-4.830148707360054
 30
0.0
 11
63.22113247308104
 21
-6.0
 31
0.0
  0
ARC
  5
45B
330
18
100
AcDbEntity
  8
1
 62
     1
100
AcDbCircle
 10
86.22511499275987
 20
7.72462362638612
 30
0.0
 40
28.87552912505578
100
AcDbArc
 50
202.2512983947515
 51
205.7713389239629
  0
LINE
  5
45C
330
18
100
AcDbEntity
  8
1
 62
     1
100
AcDbLine
 10
60.22113247308104
 20
-6.000000000000006
 30
0.0
 11
59.50000000000001
 21
-4.7509625
 31
0.0
  0
LINE
  5
45D
330
18
100
AcDbEntity
  8
1
 62
     1
100
AcDbLine
 10
60.22113247308103
 20
-4.830148707360054
 30
0.0
 11
60.22113247308104
 21
-6.0
 31
0.0
  0
ARC
  5
45E
330
18
100
AcDbEntity
  8
1
 62
     1
100
AcDbCircle
 10
30.62555516882173
 20
8.68444421594263
 30
0.0
 40
31.2289209183348
100
AcDbArc
 50
334.3573352077622
 51
337.6120888002123
  0
LINE
  5
45F
330
18
100
AcDbEntity
  8
1
 62
     1
100
AcDbLine
 10
58.77886752691897
 20
-4.830148707360054
 30
0.0
 11
58.77886752691897
 21
-6.0
 31
0.0
  0
LINE
  5
460
330
18
100
AcDbEntity
  8
1
 62
     1
100
AcDbLine
 10
59.50000000000001
 20
-4.7509625
 30
0.0
 11
58.77886752691897
 21
-6.000000000000007
 31
0.0
  0
LINE
  5
461
330
18
100
AcDbEntity
  8
1
 62
     1
100
AcDbLine
 10
59.50000000000001
 20
-4.7509625
 30
0.0
 11
59.5
 21
-4.750639607560279
 31
0.0
  0
LINE
  5
462
330
18
100
AcDbEntity
  8
1
 62
     1
100
AcDbLine
 10
59.5
 20
-4.750639607560279
 30
0.0
 11
59.50000000000001
 21
-4.651053921325935
 31
0.0
  0
LINE
  5
463
330
18
100
AcDbEntity
  8
1
 62
     1
100
AcDbLine
 10
59.50000000000001
 20
-4.651053921325935
 30
0.0
 11
59.50000000000001
 21
-3.209616582407125
 31
0.0
  0
ARC
  5
464
330
18
100
AcDbEntity
  8
1
 62
     1
100
AcDbCircle
 10
27.62555516877196
 20
8.684444215965271
 30
0.0
 40
31.22892091838946
100
AcDbArc
 50
334.3573352077643
 51
337.6120888002087
  0
LINE
  5
465
330
18
100
AcDbEntity
  8
1
 62
     1
100
AcDbLine
 10
55.77886752691896
 20
-4.830148707360054
 30
0.0
 11
55.77886752691896
 21
-6.0
 31
0.0
  0
ARC
  5
466
330
18
100
AcDbEntity
  8
1
 62
     1
100
AcDbCircle
 10
83.22511499275953
 20
7.724623626386129
 30
0.0
 40
28.87552912505548
100
AcDbArc
 50
202.2512983947518
 51
205.7713389239633
  0
LINE
  5
467
330
18
100
AcDbEntity
  8
1
 62
     1
100
AcDbLine
 10
56.5
 20
-4.7509625
 30
0.0
 11
56.49999999999999
 21
-4.750639607560279
 31
0.0
  0
LINE
  5
468
330
18
100
AcDbEntity
  8
1
 62
     1
100
AcDbLine
 10
56.49999999999999
 20
-4.750639607560279
 30
0.0
 11
56.50000000000001
 21
-4.651053921325935
 31
0.0
  0
LINE
  5
469
330
18
100
AcDbEntity
  8
1
 62
     1
100
AcDbLine
 10
56.50000000000001
 20
-4.651053921325935
 30
0.0
 11
56.5
 21
-3.209616582407125
 31
0.0
  0
LINE
  5
46A
330
18
100
AcDbEntity
  8
1
 62
     1
100
AcDbLine
 10
57.22113247308105
 20
-6.000000000000019
 30
0.0
 11
56.5
 21
-4.7509625
 31
0.0
  0
LINE
  5
46B
330
18
100
AcDbEntity
  8
1
 62
     1
100
AcDbLine
 10
57.22113247308106
 20
-4.830148707360054
 30
0.0
 11
57.22113247308105
 21
-6.0
 31
0.0
  0
ARC
  5
46C
330
18
100
AcDbEntity
  8
1
 62
     1
100
AcDbCircle
 10
29.12555516872694
 20
8.684444215985344
 30
0.0
 40
31.22892091843875
100
AcDbArc
 50
334.3573352077669
 51
337.612088800206
  0
LINE
  5
46D
330
18
100
AcDbEntity
  8
1
 62
     1
100
AcDbLine
 10
57.27886752691897
 20
-4.830148707360054
 30
0.0
 11
57.27886752691897
 21
-6.0
 31
0.0
  0
ARC
  5
46E
330
18
100
AcDbEntity
  8
1
 62
     1
100
AcDbCircle
 10
84.72511499272261
 20
7.724623626369853
 30
0.0
 40
28.87552912501513
100
AcDbArc
 50
202.2512983947496
 51
205.7713389239659
  0
LINE
  5
46F
330
18
100
AcDbEntity
  8
1
 62
     1
100
AcDbLine
 10
58.00000000000001
 20
-4.7509625
 30
0.0
 11
58.00000000000001
 21
-4.750639607560279
 31
0.0
  0
LINE
  5
470
330
18
100
AcDbEntity
  8
1
 62
     1
100
AcDbLine
 10
58.00000000000001
 20
-4.750639607560279
 30
0.0
 11
58.00000000000001
 21
-4.651053921325935
 31
0.0
  0
LINE
  5
471
330
18
100
AcDbEntity
  8
1
 62
     1
100
AcDbLine
 10
58.00000000000001
 20
-4.651053921325935
 30
0.0
 11
58.0
 21
-3.209616582407125
 31
0.0
  0
LINE
  5
472
330
18
100
AcDbEntity
  8
1
 62
     1
100
AcDbLine
 10
58.72113247308103
 20
-4.830148707360054
 30
0.0
 11
58.72113247308103
 21
-6.0
 31
0.0
  0
LINE
  5
473
330
18
100
AcDbEntity
  8
1
 62
     1
100
AcDbLine
 10
51.44276132997268
 20
3.547299042307942
 30
0.0
 11
50.89660412205937
 21
3.535069807552275
 31
0.0
  0
LINE
  5
474
330
18
100
AcDbEntity
  8
1
 62
     1
100
AcDbLine
 10
50.89660412205934
 20
-0.7273102009288519
 30
0.0
 11
51.44276132997268
 21
-0.8245975160802707
 31
0.0
  0
LINE
  5
475
330
18
100
AcDbEntity
  8
1
 62
     1
100
AcDbLine
 10
51.44276132997268
 20
3.547299042307944
 30
0.0
 11
51.44276132997268
 21
-0.8245975160802707
 31
0.0
  0
ARC
  5
476
330
18
100
AcDbEntity
  8
1
 62
     1
100
AcDbCircle
 10
59.52505448091718
 20
-388.8722989050592
 30
0.0
 40
392.501958438757
100
AcDbArc
 50
91.34914288281614
 51
91.52848078092501
  0
LINE
  5
477
330
18
100
AcDbEntity
  8
1
 62
     1
100
AcDbLine
 10
49.24262842868195
 20
-0.431044806977235
 30
0.0
 11
50.28367054396247
 21
-0.6178423878999326
 31
0.0
  0
LINE
  5
478
330
18
100
AcDbEntity
  8
1
 62
     1
100
AcDbLine
 10
50.28367054396248
 20
3.520855826490146
 30
0.0
 11
50.28367054396247
 21
-0.6178423878999317
 31
0.0
  0
ARC
  5
479
330
18
100
AcDbEntity
  8
1
 62
     1
100
AcDbCircle
 10
73.57809944292154
 20
6.170422668519246
 30
0.0
 40
24.91154569646028
100
AcDbArc
 50
202.1191678853112
 51
204.4287270305684
  0
LINE
  5
47A
330
18
100
AcDbEntity
  8
1
 62
     1
100
AcDbLine
 10
50.89660412205935
 20
-4.132075162470873
 30
0.0
 11
50.89660412205934
 21
-5.437900669612886
 31
0.0
  0
ARC
  5
47B
330
18
100
AcDbEntity
  8
1
 62
     1
100
AcDbCircle
 10
28.84969708582008
 20
5.575638982921823
 30
0.0
 40
23.36487975672627
100
AcDbArc
 50
336.5429030187026
 51
337.9136795913698
  0
LINE
  5
47C
330
18
100
AcDbEntity
  8
1
 62
     1
100
AcDbLine
 10
50.28367054396247
 20
-3.725040000617535
 30
0.0
 11
50.28367054396247
 21
-5.125655934329799
 31
0.0
  0
LINE
  5
47D
330
18
100
AcDbEntity
  8
1
 62
     1
100
AcDbLine
 10
50.5
 20
-4.7509625
 30
0.0
 11
50.5
 21
-4.750639607560279
 31
0.0
  0
LINE
  5
47E
330
18
100
AcDbEntity
  8
1
 62
     1
100
AcDbLine
 10
50.5
 20
-4.750639607560279
 30
0.0
 11
50.50000000000001
 21
-4.651053921325935
 31
0.0
  0
LINE
  5
47F
330
18
100
AcDbEntity
  8
1
 62
     1
100
AcDbLine
 10
50.50000000000001
 20
-4.651053921325935
 30
0.0
 11
50.5
 21
-3.209616582407125
 31
0.0
  0
ARC
  5
480
330
18
100
AcDbEntity
  8
1
 62
     1
100
AcDbCircle
 10
81.72511499275959
 20
7.724623626385787
 30
0.0
 40
28.8755291250554
100
AcDbArc
 50
202.2512983947511
 51
205.7713389239625
  0
LINE
  5
481
330
18
100
AcDbEntity
  8
1
 62
     1
100
AcDbLine
 10
55.0
 20
-4.7509625
 30
0.0
 11
55.0
 21
-4.750639607560279
 31
0.0
  0
LINE
  5
482
330
18
100
AcDbEntity
  8
1
 62
     1
100
AcDbLine
 10
55.0
 20
-4.750639607560279
 30
0.0
 11
55.0
 21
-4.651053921325935
 31
0.0
  0
LINE
  5
483
330
18
100
AcDbEntity
  8
1
 62
     1
100
AcDbLine
 10
55.0
 20
-4.651053921325935
 30
0.0
 11
54.99999999999999
 21
-3.209616582407125
 31
0.0
  0
LINE
  5
484
330
18
100
AcDbEntity
  8
1
 62
     1
100
AcDbLine
 10
55.72113247308103
 20
-5.999999999999994
 30
0.0
 11
55.0
 21
-4.7509625
 31
0.0
  0
LINE
  5
485
330
18
100
AcDbEntity
  8
1
 62
     1
100
AcDbLine
 10
55.72113247308103
 20
-4.830148707360054
 30
0.0
 11
55.72113247308103
 21
-6.0
 31
0.0
  0
ARC
  5
486
330
18
100
AcDbEntity
  8
1
 62
     1
100
AcDbCircle
 10
26.1255551687953
 20
8.684444215954755
 30
0.0
 40
31.22892091836386
100
AcDbArc
 50
334.3573352077631
 51
337.6120888002102
  0
LINE
  5
487
330
18
100
AcDbEntity
  8
1
 62
     1
100
AcDbLine
 10
54.27886752691895
 20
-4.830148707360054
 30
0.0
 11
54.27886752691896
 21
-6.0
 31
0.0
  0
LINE
  5
488
330
18
100
AcDbEntity
  8
1
 62
     1
100
AcDbLine
 10
55.0
 20
-4.7509625
 30
0.0
 11
54.27886752691896
 21
-6.000000000000019
 31
0.0
  0
ARC
  5
489
330
18
100
AcDbEntity
  8
1
 62
     1
100
AcDbCircle
 10
80.22511499270387
 20
7.724623626361502
 30
0.0
 40
28.87552912499462
100
AcDbArc
 50
202.2512983947484
 51
205.7713389239672
  0
LINE
  5
48A
330
18
100
AcDbEntity
  8
1
 62
     1
100
AcDbLine
 10
54.22113247308103
 20
-6.000000000000006
 30
0.0
 11
53.5
 21
-4.7509625
 31
0.0
  0
LINE
  5
48B
330
18
100
AcDbEntity
  8
1
 62
     1
100
AcDbLine
 10
54.22113247308103
 20
-4.830148707360054
 30
0.0
 11
54.22113247308103
 21
-6.0
 31
0.0
  0
ARC
  5
48C
330
18
100
AcDbEntity
  8
1
 62
     1
100
AcDbCircle
 10
24.62555516879188
 20
8.684444215956152
 30
0.0
 40
31.22892091836756
100
AcDbArc
 50
334.3573352077636
 51
337.6120888002102
  0
LINE
  5
48D
330
18
100
AcDbEntity
  8
1
 62
     1
100
AcDbLine
 10
52.77886752691896
 20
-4.830148707360054
 30
0.0
 11
52.77886752691897
 21
-6.0
 31
0.0
  0
LINE
  5
48E
330
18
100
AcDbEntity
  8
1
 62
     1
100
AcDbLine
 10
53.5
 20
-4.7509625
 30
0.0
 11
52.77886752691897
 21
-6.000000000000007
 31
0.0
  0
LINE
  5
48F
330
18
100
AcDbEntity
  8
1
 62
     1
100
AcDbLine
 10
53.5
 20
-4.7509625
 30
0.0
 11
53.5
 21
-4.750639607560279
 31
0.0
  0
LINE
  5
490
330
18
100
AcDbEntity
  8
1
 62
     1
100
AcDbLine
 10
53.5
 20
-4.750639607560279
 30
0.0
 11
53.50000000000001
 21
-4.651053921325935
 31
0.0
  0
LINE
  5
491
330
18
100
AcDbEntity
  8
1
 62
     1
100
AcDbLine
 10
53.50000000000001
 20
-4.651053921325935
 30
0.0
 11
53.5
 21
-3.209616582407125
 31
0.0
  0
ARC
  5
492
330
18
100
AcDbEntity
  8
1
 62
     1
100
AcDbCircle
 10
25.55671032925174
 20
7.619892443847026
 30
0.0
 40
28.57527570851115
100
AcDbArc
 50
334.9431151758328
 51
337.7290783660384
  0
LINE
  5
493
330
18
100
AcDbEntity
  8
1
 62
     1
100
AcDbLine
 10
51.44276132997268
 20
-4.482274626390607
 30
0.0
 11
51.44276132997268
 21
-5.716127738420818
 31
0.0
  0
LINE
  5
494
330
18
100
AcDbEntity
  8
1
 62
     1
100
AcDbLine
 10
52.0
 20
-4.7509625
 30
0.0
 11
51.44276132997268
 21
-5.716127738420814
 31
0.0
  0
ARC
  5
495
330
18
100
AcDbEntity
  8
1
 62
     1
100
AcDbCircle
 10
78.72511499273618
 20
7.724623626375799
 30
0.0
 40
28.87552912502996
100
AcDbArc
 50
202.2512983947504
 51
205.7713389239649
  0
LINE
  5
496
330
18
100
AcDbEntity
  8
1
 62
     1
100
AcDbLine
 10
52.0
 20
-4.7509625
 30
0.0
 11
52.0
 21
-4.750639607560279
 31
0.0
  0
LINE
  5
497
330
18
100
AcDbEntity
  8
1
 62
     1
100
AcDbLine
 10
52.0
 20
-4.750639607560279
 30
0.0
 11
52.0
 21
-4.651053921325935
 31
0.0
  0
LINE
  5
498
330
18
100
AcDbEntity
  8
1
 62
     1
100
AcDbLine
 10
52.0
 20
-4.651053921325935
 30
0.0
 11
52.0
 21
-3.209616582407125
 31
0.0
  0
LINE
  5
499
330
18
100
AcDbEntity
  8
1
 62
     1
100
AcDbLine
 10
52.72113247308103
 20
-6.000000000000006
 30
0.0
 11
52.0
 21
-4.7509625
 31
0.0
  0
LINE
  5
49A
330
18
100
AcDbEntity
  8
1
 62
     1
100
AcDbLine
 10
52.72113247308103
 20
-4.830148707360054
 30
0.0
 11
52.72113247308103
 21
-6.0
 31
0.0
  0
ARC
  5
49B
330
18
100
AcDbEntity
  8
1
 62
     1
100
AcDbCircle
 10
48.67625161183282
 20
-3.57920712672411
 30
0.0
 40
3.198704822719971
100
AcDbArc
 50
79.80118097319847
 51
83.19057810054188
  0
LINE
  5
49C
330
18
100
AcDbEntity
  8
1
 62
     1
100
AcDbLine
 10
64.77886752691894
 20
-0.9236491541882046
 30
0.0
 11
64.72113247308103
 21
-0.9236491541882043
 31
0.0
  0
LINE
  5
49D
330
18
100
AcDbEntity
  8
1
 62
     1
100
AcDbLine
 10
61.77886752691896
 20
-0.9236491541882046
 30
0.0
 11
61.72113247308103
 21
-0.9236491541882046
 31
0.0
  0
LINE
  5
49E
330
18
100
AcDbEntity
  8
1
 62
     1
100
AcDbLine
 10
57.27886752691897
 20
-0.9236491541882046
 30
0.0
 11
57.22113247308104
 21
-0.9236491541882046
 31
0.0
  0
ARC
  5
49F
330
18
100
AcDbEntity
  8
1
 62
     1
100
AcDbCircle
 10
69.63729935616786
 20
-35.61631440515863
 30
0.0
 40
39.26343858463029
100
AcDbArc
 50
85.08690787001572
 51
85.39424795241891
  0
LINE
  5
4A0
330
18
100
AcDbEntity
  8
1
 62
     1
100
AcDbLine
 10
72.79011398185352
 20
-0.613923470042869
 30
0.0
 11
73.0
 21
-0.4859967859695035
 31
0.0
  0
ARC
  5
4A1
330
18
100
AcDbEntity
  8
1
 62
     1
100
AcDbCircle
 10
74.95182209526925
 20
-36.66099594395222
 30
0.0
 40
40.31191241505348
100
AcDbArc
 50
94.49719344349938
 51
94.91212944541941
  0
LINE
  5
4A2
330
18
100
AcDbEntity
  8
1
 62
     1
100
AcDbLine
 10
71.5
 20
-0.4859967859695035
 30
0.0
 11
71.79095376582232
 21
-0.6631963657973066
 31
0.0
  0
LINE
  5
4A3
330
18
100
AcDbEntity
  8
1
 62
     1
100
AcDbLine
 10
71.79095376582232
 20
3.526811768037844
 30
0.0
 11
71.79095376582231
 21
-0.6631963657973009
 31
0.0
  0
ARC
  5
4A4
330
18
100
AcDbEntity
  8
1
 62
     1
100
AcDbCircle
 10
67.67945320777524
 20
-41.13614621242618
 30
0.0
 40
44.80221455236887
100
AcDbArc
 50
85.10811113355608
 51
85.54737405378543
  0
LINE
  5
4A5
330
18
100
AcDbEntity
  8
1
 62
     1
100
AcDbLine
 10
71.15766368332139
 20
3.530851770086687
 30
0.0
 11
71.15766368332142
 21
-0.6943913728972259
 31
0.0
  0
LINE
  5
4A6
330
18
100
AcDbEntity
  8
1
 62
     1
100
AcDbLine
 10
71.1576636833214
 20
-0.694391370777843
 30
0.0
 11
71.5
 21
-0.4859967859695035
 31
0.0
  0
LINE
  5
4A7
330
18
100
AcDbEntity
  8
1
 62
     1
100
AcDbLine
 10
71.5
 20
-0.4859967859695037
 30
0.0
 11
71.49999999999999
 21
3.502856844112168
 31
0.0
  0
LINE
  5
4A8
330
18
100
AcDbEntity
  8
1
 62
     1
100
AcDbLine
 10
72.79011398185352
 20
5.077515434497125
 30
0.0
 11
71.79095376582231
 21
5.212891602973539
 31
0.0
  0
LINE
  5
4A9
330
18
100
AcDbEntity
  8
1
 62
     1
100
AcDbLine
 10
71.79095376582232
 20
5.254908970092546
 30
0.0
 11
72.79011398185352
 21
5.114495577730613
 31
0.0
  0
LINE
  5
4AA
330
18
100
AcDbEntity
  8
1
 62
     1
100
AcDbLine
 10
71.15766368473798
 20
5.298599184004002
 30
0.0
 11
70.40352409965816
 21
5.400570447520813
 31
0.0
  0
LINE
  5
4AB
330
18
100
AcDbEntity
  8
1
 62
     1
100
AcDbLine
 10
69.52521338478928
 20
5.519213392572988
 30
0.0
 11
69.01609443168039
 21
5.587930641311067
 31
0.0
  0
LINE
  5
4AC
330
18
100
AcDbEntity
  8
1
 62
     1
100
AcDbLine
 10
69.0160944316804
 20
5.644863860392019
 30
0.0
 11
69.52521338478928
 21
5.573316656875719
 31
0.0
  0
LINE
  5
4AD
330
18
100
AcDbEntity
  8
1
 62
     1
100
AcDbLine
 10
67.892763086348
 20
5.739416251579593
 30
0.0
 11
67.62866476460943
 21
5.775005503257063
 31
0.0
  0
LINE
  5
4AE
330
18
100
AcDbEntity
  8
1
 62
     1
100
AcDbLine
 10
67.62866476460943
 20
5.839841305541757
 30
0.0
 11
67.89276308625716
 21
5.802727196448272
 31
0.0
  0
LINE
  5
4AF
330
18
100
AcDbEntity
  8
1
 62
     1
100
AcDbLine
 10
66.27886752691894
 20
5.928479757911586
 30
0.0
 11
66.22113247308106
 21
5.928479757911586
 31
0.0
  0
LINE
  5
4B0
330
18
100
AcDbEntity
  8
1
 62
     1
100
AcDbLine
 10
66.22113247308103
 20
6.0
 30
0.0
 11
66.27886752691896
 21
6.0
 31
0.0
  0
LINE
  5
4B1
330
18
100
AcDbEntity
  8
1
 62
     1
100
AcDbLine
 10
64.72113247308103
 20
6.0
 30
0.0
 11
64.77886752691896
 21
6.000000000000001
 31
0.0
  0
LINE
  5
4B2
330
18
100
AcDbEntity
  8
1
 62
     1
100
AcDbLine
 10
63.27886752691899
 20
5.928479757911586
 30
0.0
 11
63.22113247308104
 21
5.928479757911586
 31
0.0
  0
LINE
  5
4B3
330
18
100
AcDbEntity
  8
1
 62
     1
100
AcDbLine
 10
63.22113247308104
 20
6.0
 30
0.0
 11
63.27886752691899
 21
6.000000000000001
 31
0.0
  0
LINE
  5
4B4
330
18
100
AcDbEntity
  8
1
 62
     1
100
AcDbLine
 10
61.77886752691899
 20
5.928479757911587
 30
0.0
 11
61.72113247308104
 21
5.928479757911587
 31
0.0
  0
LINE
  5
4B5
330
18
100
AcDbEntity
  8
1
 62
     1
100
AcDbLine
 10
61.72113247308104
 20
6.0
 30
0.0
 11
61.77886752691897
 21
6.0
 31
0.0
  0
LINE
  5
4B6
330
18
100
AcDbEntity
  8
1
 62
     1
100
AcDbLine
 10
60.27886752691899
 20
5.928479757911586
 30
0.0
 11
60.22113247308104
 21
5.928479757911586
 31
0.0
  0
LINE
  5
4B7
330
18
100
AcDbEntity
  8
1
 62
     1
100
AcDbLine
 10
58.77886752691899
 20
5.928479757911586
 30
0.0
 11
58.72113247308104
 21
5.928479757911586
 31
0.0
  0
LINE
  5
4B8
330
18
100
AcDbEntity
  8
1
 62
     1
100
AcDbLine
 10
57.27886752691897
 20
5.928479757911586
 30
0.0
 11
57.22113247308107
 21
5.928479757911586
 31
0.0
  0
LINE
  5
4B9
330
18
100
AcDbEntity
  8
1
 62
     1
100
AcDbLine
 10
57.22113247308105
 20
6.0
 30
0.0
 11
57.27886752691897
 21
6.0
 31
0.0
  0
LINE
  5
4BA
330
18
100
AcDbEntity
  8
1
 62
     1
100
AcDbLine
 10
55.77886752691896
 20
5.928479757911586
 30
0.0
 11
55.72113247308102
 21
5.928479757911586
 31
0.0
  0
LINE
  5
4BB
330
18
100
AcDbEntity
  8
1
 62
     1
100
AcDbLine
 10
54.27886752691896
 20
5.928479757911586
 30
0.0
 11
54.22113247308103
 21
5.928479757911584
 31
0.0
  0
LINE
  5
4BC
330
18
100
AcDbEntity
  8
1
 62
     1
100
AcDbLine
 10
52.77886752691897
 20
5.928479757911586
 30
0.0
 11
52.72113247308103
 21
5.928479757911586
 31
0.0
  0
ARC
  5
4BD
330
18
100
AcDbEntity
  8
1
 62
     1
100
AcDbCircle
 10
67.15774939140103
 20
-51.31693433680975
 30
0.0
 40
55.01732311648186
100
AcDbArc
 50
94.10314635151963
 51
94.85645724561184
  0
LINE
  5
4BE
330
18
100
AcDbEntity
  8
1
 62
     1
100
AcDbLine
 10
62.50000000000001
 20
-0.4859967859695035
 30
0.0
 11
63.22113247308104
 21
-0.9236491541882064
 31
0.0
  0
LINE
  5
4BF
330
18
100
AcDbEntity
  8
1
 62
     1
100
AcDbLine
 10
63.22113247308103
 20
3.559447072901633
 30
0.0
 11
63.22113247308102
 21
-0.9236491541882109
 31
0.0
  0
ARC
  5
4C0
330
18
100
AcDbEntity
  8
1
 62
     1
100
AcDbCircle
 10
57.30241856774529
 20
-58.22031595877977
 30
0.0
 40
61.94171274699669
100
AcDbArc
 50
85.18659606327743
 51
85.8556949750779
  0
LINE
  5
4C1
330
18
100
AcDbEntity
  8
1
 62
     1
100
AcDbLine
 10
61.77886752691897
 20
3.559447072901633
 30
0.0
 11
61.77886752691896
 21
-0.9236491541882109
 31
0.0
  0
LINE
  5
4C2
330
18
100
AcDbEntity
  8
1
 62
     1
100
AcDbLine
 10
61.77886752691898
 20
-0.923649154188207
 30
0.0
 11
62.50000000000001
 21
-0.4859967859695035
 31
0.0
  0
LINE
  5
4C3
330
18
100
AcDbEntity
  8
1
 62
     1
100
AcDbLine
 10
62.50000000000001
 20
-0.4859967859695037
 30
0.0
 11
62.50000000000001
 21
3.502856844112168
 31
0.0
  0
ARC
  5
4C4
330
18
100
AcDbEntity
  8
1
 62
     1
100
AcDbCircle
 10
65.65774939139561
 20
-51.3169343367416
 30
0.0
 40
55.0173231164135
100
AcDbArc
 50
94.10314635151906
 51
94.8564572456122
  0
LINE
  5
4C5
330
18
100
AcDbEntity
  8
1
 62
     1
100
AcDbLine
 10
61.00000000000001
 20
-0.4859967859695035
 30
0.0
 11
61.72113247308104
 21
-0.9236491541882064
 31
0.0
  0
LINE
  5
4C6
330
18
100
AcDbEntity
  8
1
 62
     1
100
AcDbLine
 10
61.72113247308104
 20
3.559447072901633
 30
0.0
 11
61.72113247308103
 21
-0.9236491541882109
 31
0.0
  0
ARC
  5
4C7
330
18
100
AcDbEntity
  8
1
 62
     1
100
AcDbCircle
 10
55.80241856776178
 20
-58.22031595856501
 30
0.0
 40
61.9417127467813
100
AcDbArc
 50
85.18659606327597
 51
85.85569497507876
  0
LINE
  5
4C8
330
18
100
AcDbEntity
  8
1
 62
     1
100
AcDbLine
 10
60.27886752691897
 20
3.559447072901633
 30
0.0
 11
60.27886752691897
 21
-0.9236491541882109
 31
0.0
  0
LINE
  5
4C9
330
18
100
AcDbEntity
  8
1
 62
     1
100
AcDbLine
 10
60.27886752691897
 20
-0.923649154188207
 30
0.0
 11
61.00000000000001
 21
-0.4859967859695035
 31
0.0
  0
LINE
  5
4CA
330
18
100
AcDbEntity
  8
1
 62
     1
100
AcDbLine
 10
61.0
 20
-0.4859967859695037
 30
0.0
 11
61.00000000000001
 21
3.502856844112168
 31
0.0
  0
ARC
  5
4CB
330
18
100
AcDbEntity
  8
1
 62
     1
100
AcDbCircle
 10
65.71129217638098
 20
-46.86898232560506
 30
0.0
 40
50.55411399153947
100
AcDbArc
 50
85.13351747751399
 51
85.67336134355544
  0
LINE
  5
4CC
330
18
100
AcDbEntity
  8
1
 62
     1
100
AcDbLine
 10
69.5252133847893
 20
3.541066616992506
 30
0.0
 11
69.52521338478928
 21
-0.7746883793186405
 31
0.0
  0
LINE
  5
4CD
330
18
100
AcDbEntity
  8
1
 62
     1
100
AcDbLine
 10
69.52521338478928
 20
-0.7746883793186706
 30
0.0
 11
70.0
 21
-0.4859967859695035
 31
0.0
  0
ARC
  5
4CE
330
18
100
AcDbEntity
  8
1
 62
     1
100
AcDbCircle
 10
72.57477521593773
 20
-44.17065774951561
 30
0.0
 40
47.84734546258635
100
AcDbArc
 50
94.26535035466284
 51
94.8853407898929
  0
LINE
  5
4CF
330
18
100
AcDbEntity
  8
1
 62
     1
100
AcDbLine
 10
68.5
 20
-0.4859967859695035
 30
0.0
 11
69.0160944316804
 21
-0.7996994124399729
 31
0.0
  0
LINE
  5
4D0
330
18
100
AcDbEntity
  8
1
 62
     1
100
AcDbLine
 10
69.0160944316804
 20
3.544200121511126
 30
0.0
 11
69.01609443168039
 21
-0.7996994124399666
 31
0.0
  0
ARC
  5
4D1
330
18
100
AcDbEntity
  8
1
 62
     1
100
AcDbCircle
 10
63.72911400465954
 20
-52.85722562708977
 30
0.0
 40
56.56170844551713
100
AcDbArc
 50
85.16144228253776
 51
85.77849644073547
  0
LINE
  5
4D2
330
18
100
AcDbEntity
  8
1
 62
     1
100
AcDbLine
 10
67.89276308625716
 20
3.55103685283918
 30
0.0
 11
67.89276308625716
 21
-0.8548356654021755
 31
0.0
  0
LINE
  5
4D3
330
18
100
AcDbEntity
  8
1
 62
     1
100
AcDbLine
 10
67.89276308625716
 20
-0.8548356652717282
 30
0.0
 11
68.5
 21
-0.4859967859695035
 31
0.0
  0
LINE
  5
4D4
330
18
100
AcDbEntity
  8
1
 62
     1
100
AcDbLine
 10
68.49999999999999
 20
-0.4859967859695037
 30
0.0
 11
68.5
 21
3.502856844112168
 31
0.0
  0
ARC
  5
4D5
330
18
100
AcDbEntity
  8
1
 62
     1
100
AcDbCircle
 10
71.39283607697064
 20
-48.05634868814801
 30
0.0
 40
51.74601296305755
100
AcDbArc
 50
94.17155920345209
 51
94.8698305996477
  0
LINE
  5
4D6
330
18
100
AcDbEntity
  8
1
 62
     1
100
AcDbLine
 10
67.0
 20
-0.4859967859695035
 30
0.0
 11
67.62866476460943
 21
-0.8677890937677688
 31
0.0
  0
ARC
  5
4D7
330
18
100
AcDbEntity
  8
1
 62
     1
100
AcDbCircle
 10
61.80241856772963
 20
-58.22031595898443
 30
0.0
 40
61.94171274720194
100
AcDbArc
 50
85.18659606327888
 51
85.85569497507714
  0
LINE
  5
4D8
330
18
100
AcDbEntity
  8
1
 62
     1
100
AcDbLine
 10
66.27886752691894
 20
3.559447072901633
 30
0.0
 11
66.27886752691896
 21
-0.923649154188213
 31
0.0
  0
LINE
  5
4D9
330
18
100
AcDbEntity
  8
1
 62
     1
100
AcDbLine
 10
66.27886752691896
 20
-0.9236491541882111
 30
0.0
 11
67.0
 21
-0.4859967859695035
 31
0.0
  0
LINE
  5
4DA
330
18
100
AcDbEntity
  8
1
 62
     1
100
AcDbLine
 10
67.0
 20
-0.4859967859695037
 30
0.0
 11
67.0
 21
3.502856844112168
 31
0.0
  0
ARC
  5
4DB
330
18
100
AcDbEntity
  8
1
 62
     1
100
AcDbCircle
 10
70.15774939139195
 20
-51.31693433669545
 30
0.0
 40
55.01732311636721
100
AcDbArc
 50
94.1031463515187
 51
94.85645724561249
  0
LINE
  5
4DC
330
18
100
AcDbEntity
  8
1
 62
     1
100
AcDbLine
 10
65.5
 20
-0.4859967859695035
 30
0.0
 11
66.22113247308104
 21
-0.9236491541882046
 31
0.0
  0
LINE
  5
4DD
330
18
100
AcDbEntity
  8
1
 62
     1
100
AcDbLine
 10
66.22113247308103
 20
3.559447072901633
 30
0.0
 11
66.22113247308101
 21
-0.9236491541882109
 31
0.0
  0
ARC
  5
4DE
330
18
100
AcDbEntity
  8
1
 62
     1
100
AcDbCircle
 10
60.30241856774467
 20
-58.22031595878807
 30
0.0
 40
61.94171274700501
100
AcDbArc
 50
85.18659606327752
 51
85.8556949750779
  0
LINE
  5
4DF
330
18
100
AcDbEntity
  8
1
 62
     1
100
AcDbLine
 10
64.77886752691896
 20
-0.9236491541882111
 30
0.0
 11
65.5
 21
-0.4859967859695035
 31
0.0
  0
LINE
  5
4E0
330
18
100
AcDbEntity
  8
1
 62
     1
100
AcDbLine
 10
65.49999999999999
 20
-0.4859967859695037
 30
0.0
 11
65.5
 21
3.502856844112168
 31
0.0
  0
ARC
  5
4E1
330
18
100
AcDbEntity
  8
1
 62
     1
100
AcDbCircle
 10
68.65774939140081
 20
-51.31693433680821
 30
0.0
 40
55.01732311648031
100
AcDbArc
 50
94.10314635151953
 51
94.85645724561175
  0
LINE
  5
4E2
330
18
100
AcDbEntity
  8
1
 62
     1
100
AcDbLine
 10
64.0
 20
-0.4859967859695037
 30
0.0
 11
64.0
 21
3.502856844112168
 31
0.0
  0
LINE
  5
4E3
330
18
100
AcDbEntity
  8
1
 62
     1
100
AcDbLine
 10
64.0
 20
-0.4859967859695035
 30
0.0
 11
64.72113247308104
 21
-0.9236491541882046
 31
0.0
  0
LINE
  5
4E4
330
18
100
AcDbEntity
  8
1
 62
     1
100
AcDbLine
 10
64.72113247308103
 20
3.559447072901633
 30
0.0
 11
64.72113247308103
 21
-0.9236491541882109
 31
0.0
  0
ARC
  5
4E5
330
18
100
AcDbEntity
  8
1
 62
     1
100
AcDbCircle
 10
58.80241856775446
 20
-58.22031595866027
 30
0.0
 40
61.94171274687684
100
AcDbArc
 50
85.18659606327661
 51
85.85569497507836
  0
LINE
  5
4E6
330
18
100
AcDbEntity
  8
1
 62
     1
100
AcDbLine
 10
63.27886752691898
 20
3.559447072901633
 30
0.0
 11
63.27886752691897
 21
-0.923649154188213
 31
0.0
  0
LINE
  5
4E7
330
18
100
AcDbEntity
  8
1
 62
     1
100
AcDbLine
 10
63.27886752691899
 20
-0.9236491541882033
 30
0.0
 11
64.0
 21
-0.4859967859695035
 31
0.0
  0
ARC
  5
4E8
330
18
100
AcDbEntity
  8
1
 62
     1
100
AcDbCircle
 10
73.76105542302852
 20
-40.37119137997386
 30
0.0
 40
44.03496324331321
100
AcDbArc
 50
94.37287008419987
 51
94.8996404610932
  0
LINE
  5
4E9
330
18
100
AcDbEntity
  8
1
 62
     1
100
AcDbLine
 10
70.0
 20
-0.4859967859695037
 30
0.0
 11
69.99999999999999
 21
3.502856844112168
 31
0.0
  0
LINE
  5
4EA
330
18
100
AcDbEntity
  8
1
 62
     1
100
AcDbLine
 10
70.0
 20
-0.4859967859695035
 30
0.0
 11
70.40352409875138
 21
-0.7315058765553288
 31
0.0
  0
LINE
  5
4EB
330
18
100
AcDbEntity
  8
1
 62
     1
100
AcDbLine
 10
70.40352409875136
 20
3.535604278814961
 30
0.0
 11
70.40352409875136
 21
-0.7315058779478999
 31
0.0
  0
ARC
  5
4EC
330
18
100
AcDbEntity
  8
1
 62
     1
100
AcDbCircle
 10
62.65774939139065
 20
-51.31693433667747
 30
0.0
 40
55.01732311634917
100
AcDbArc
 50
94.1031463515187
 51
94.85645724561272
  0
LINE
  5
4ED
330
18
100
AcDbEntity
  8
1
 62
     1
100
AcDbLine
 10
58.0
 20
-0.4859967859695035
 30
0.0
 11
58.72113247308103
 21
-0.9236491541882046
 31
0.0
  0
LINE
  5
4EE
330
18
100
AcDbEntity
  8
1
 62
     1
100
AcDbLine
 10
58.72113247308103
 20
3.559447072901633
 30
0.0
 11
58.72113247308103
 21
-0.9236491541882109
 31
0.0
  0
ARC
  5
4EF
330
18
100
AcDbEntity
  8
1
 62
     1
100
AcDbCircle
 10
52.80241856774585
 20
-58.22031595877092
 30
0.0
 40
61.94171274698782
100
AcDbArc
 50
85.18659606327725
 51
85.85569497507782
  0
LINE
  5
4F0
330
18
100
AcDbEntity
  8
1
 62
     1
100
AcDbLine
 10
57.27886752691896
 20
3.559447072901633
 30
0.0
 11
57.27886752691897
 21
-0.9236491541882109
 31
0.0
  0
LINE
  5
4F1
330
18
100
AcDbEntity
  8
1
 62
     1
100
AcDbLine
 10
57.27886752691897
 20
-0.9236491541882111
 30
0.0
 11
58.0
 21
-0.4859967859695035
 31
0.0
  0
LINE
  5
4F2
330
18
100
AcDbEntity
  8
1
 62
     1
100
AcDbLine
 10
58.00000000000001
 20
-0.4859967859695037
 30
0.0
 11
58.0
 21
3.502856844112168
 31
0.0
  0
ARC
  5
4F3
330
18
100
AcDbEntity
  8
1
 62
     1
100
AcDbCircle
 10
61.15774939139791
 20
-51.31693433677056
 30
0.0
 40
55.01732311644255
100
AcDbArc
 50
94.1031463515193
 51
94.85645724561203
  0
LINE
  5
4F4
330
18
100
AcDbEntity
  8
1
 62
     1
100
AcDbLine
 10
56.5
 20
-0.4859967859695037
 30
0.0
 11
56.5
 21
3.502856844112168
 31
0.0
  0
LINE
  5
4F5
330
18
100
AcDbEntity
  8
1
 62
     1
100
AcDbLine
 10
56.5
 20
-0.4859967859695035
 30
0.0
 11
57.22113247308104
 21
-0.9236491541882108
 31
0.0
  0
LINE
  5
4F6
330
18
100
AcDbEntity
  8
1
 62
     1
100
AcDbLine
 10
57.22113247308106
 20
3.559447072901633
 30
0.0
 11
57.22113247308104
 21
-0.9236491541882109
 31
0.0
  0
ARC
  5
4F7
330
18
100
AcDbEntity
  8
1
 62
     1
100
AcDbCircle
 10
51.30241856774975
 20
-58.22031595872033
 30
0.0
 40
61.94171274693709
100
AcDbArc
 50
85.18659606327691
 51
85.85569497507804
  0
LINE
  5
4F8
330
18
100
AcDbEntity
  8
1
 62
     1
100
AcDbLine
 10
55.77886752691896
 20
3.559447072901633
 30
0.0
 11
55.77886752691896
 21
-0.9236491541882109
 31
0.0
  0
LINE
  5
4F9
330
18
100
AcDbEntity
  8
1
 62
     1
100
AcDbLine
 10
55.77886752691896
 20
-0.9236491541882111
 30
0.0
 11
56.5
 21
-0.4859967859695035
 31
0.0
  0
ARC
  5
4FA
330
18
100
AcDbEntity
  8
1
 62
     1
100
AcDbCircle
 10
54.30241856774632
 20
-58.22031595876689
 30
0.0
 40
61.94171274698376
100
AcDbArc
 50
85.18659606327738
 51
85.85569497507798
  0
LINE
  5
4FB
330
18
100
AcDbEntity
  8
1
 62
     1
100
AcDbLine
 10
58.77886752691897
 20
3.559447072901632
 30
0.0
 11
58.77886752691897
 21
-0.9236491541882109
 31
0.0
  0
LINE
  5
4FC
330
18
100
AcDbEntity
  8
1
 62
     1
100
AcDbLine
 10
58.77886752691897
 20
-0.923649154188207
 30
0.0
 11
59.50000000000001
 21
-0.4859967859695035
 31
0.0
  0
LINE
  5
4FD
330
18
100
AcDbEntity
  8
1
 62
     1
100
AcDbLine
 10
59.5
 20
-0.4859967859695037
 30
0.0
 11
59.50000000000001
 21
3.502856844112168
 31
0.0
  0
ARC
  5
4FE
330
18
100
AcDbEntity
  8
1
 62
     1
100
AcDbCircle
 10
64.1577493913961
 20
-51.3169343367485
 30
0.0
 40
55.01732311642043
100
AcDbArc
 50
94.10314635151904
 51
94.8564572456121
  0
LINE
  5
4FF
330
18
100
AcDbEntity
  8
1
 62
     1
100
AcDbLine
 10
59.50000000000001
 20
-0.4859967859695035
 30
0.0
 11
60.22113247308104
 21
-0.9236491541882064
 31
0.0
  0
ARC
  5
500
330
18
100
AcDbEntity
  8
1
 62
     1
100
AcDbCircle
 10
56.65774939139588
 20
-51.31693433674448
 30
0.0
 40
55.01732311641639
100
AcDbArc
 50
94.10314635151917
 51
94.85645724561225
  0
LINE
  5
501
330
18
100
AcDbEntity
  8
1
 62
     1
100
AcDbLine
 10
51.99999999999999
 20
-0.4859967859695037
 30
0.0
 11
52.00000000000001
 21
3.502856844112168
 31
0.0
  0
LINE
  5
502
330
18
100
AcDbEntity
  8
1
 62
     1
100
AcDbLine
 10
52.0
 20
-0.4859967859695035
 30
0.0
 11
52.72113247308102
 21
-0.9236491541882064
 31
0.0
  0
ARC
  5
503
330
18
100
AcDbEntity
  8
1
 62
     1
100
AcDbCircle
 10
47.41283604815171
 20
-50.56614486441573
 30
0.0
 40
54.26328574119756
100
AcDbArc
 50
85.15069153607809
 51
85.74094250947758
  0
LINE
  5
504
330
18
100
AcDbEntity
  8
1
 62
     1
100
AcDbLine
 10
51.44276132997268
 20
-0.8245975160802703
 30
0.0
 11
52.0
 21
-0.4859967859695035
 31
0.0
  0
ARC
  5
505
330
18
100
AcDbEntity
  8
1
 62
     1
100
AcDbCircle
 10
48.30241856774831
 20
-58.22031595873921
 30
0.0
 40
61.94171274695602
100
AcDbArc
 50
85.18659606327708
 51
85.85569497507798
  0
LINE
  5
506
330
18
100
AcDbEntity
  8
1
 62
     1
100
AcDbLine
 10
52.77886752691897
 20
-0.923649154188207
 30
0.0
 11
53.5
 21
-0.4859967859695035
 31
0.0
  0
LINE
  5
507
330
18
100
AcDbEntity
  8
1
 62
     1
100
AcDbLine
 10
53.5
 20
-0.4859967859695037
 30
0.0
 11
53.50000000000001
 21
3.502856844112168
 31
0.0
  0
ARC
  5
508
330
18
100
AcDbEntity
  8
1
 62
     1
100
AcDbCircle
 10
58.15774939140145
 20
-51.31693433681545
 30
0.0
 40
55.01732311648758
100
AcDbArc
 50
94.10314635151963
 51
94.85645724561175
  0
LINE
  5
509
330
18
100
AcDbEntity
  8
1
 62
     1
100
AcDbLine
 10
53.5
 20
-0.4859967859695035
 30
0.0
 11
54.22113247308103
 21
-0.9236491541882064
 31
0.0
  0
LINE
  5
50A
330
18
100
AcDbEntity
  8
1
 62
     1
100
AcDbLine
 10
54.22113247308104
 20
3.559447072901633
 30
0.0
 11
54.22113247308103
 21
-0.9236491541882109
 31
0.0
  0
ARC
  5
50B
330
18
100
AcDbEntity
  8
1
 62
     1
100
AcDbCircle
 10
49.80241856775589
 20
-58.22031595864343
 30
0.0
 40
61.94171274685995
100
AcDbArc
 50
85.18659606327664
 51
85.85569497507858
  0
LINE
  5
50C
330
18
100
AcDbEntity
  8
1
 62
     1
100
AcDbLine
 10
54.27886752691895
 20
3.559447072901633
 30
0.0
 11
54.27886752691896
 21
-0.9236491541882109
 31
0.0
  0
LINE
  5
50D
330
18
100
AcDbEntity
  8
1
 62
     1
100
AcDbLine
 10
54.27886752691896
 20
-0.9236491541882111
 30
0.0
 11
55.0
 21
-0.4859967859695035
 31
0.0
  0
LINE
  5
50E
330
18
100
AcDbEntity
  8
1
 62
     1
100
AcDbLine
 10
55.0
 20
-0.4859967859695037
 30
0.0
 11
54.99999999999999
 21
3.502856844112168
 31
0.0
  0
ARC
  5
50F
330
18
100
AcDbEntity
  8
1
 62
     1
100
AcDbCircle
 10
59.65774939140117
 20
-51.3169343368126
 30
0.0
 40
55.01732311648472
100
AcDbArc
 50
94.10314635151958
 51
94.85645724561174
  0
LINE
  5
510
330
18
100
AcDbEntity
  8
1
 62
     1
100
AcDbLine
 10
55.0
 20
-0.4859967859695035
 30
0.0
 11
55.72113247308103
 21
-0.9236491541882046
 31
0.0
  0
LINE
  5
511
330
18
100
AcDbEntity
  8
1
 62
     1
100
AcDbLine
 10
55.72113247308102
 20
3.559447072901633
 30
0.0
 11
55.72113247308103
 21
-0.9236491541882109
 31
0.0
  0
ARC
  5
512
330
18
100
AcDbEntity
  8
1
 62
     1
100
AcDbCircle
 10
47.11526553644723
 20
-35.87981850413872
 30
0.0
 40
39.52786191294303
100
AcDbArc
 50
85.08779907945568
 51
85.40245329828002
  0
LINE
  5
513
330
18
100
AcDbEntity
  8
1
 62
     1
100
AcDbLine
 10
50.28367054396247
 20
-0.6178423878999326
 30
0.0
 11
50.5
 21
-0.4859967859695035
 31
0.0
  0
LINE
  5
514
330
18
100
AcDbEntity
  8
1
 62
     1
100
AcDbLine
 10
50.5
 20
-0.4859967859695037
 30
0.0
 11
50.50000000000001
 21
3.502856844112168
 31
0.0
  0
ARC
  5
515
330
18
100
AcDbEntity
  8
1
 62
     1
100
AcDbCircle
 10
54.24191399642255
 20
-40.14049586214679
 30
0.0
 40
43.80347568362653
100
AcDbArc
 50
94.3799918510211
 51
94.90046762405979
  0
LINE
  5
516
330
18
100
AcDbEntity
  8
1
 62
     1
100
AcDbLine
 10
50.5
 20
-0.4859967859695035
 30
0.0
 11
50.89660412205934
 21
-0.7273102009288648
 31
0.0
  0
LINE
  5
517
330
18
100
AcDbEntity
  8
1
 62
     1
100
AcDbLine
 10
50.89660412205934
 20
3.535069807552264
 30
0.0
 11
50.89660412205934
 21
-0.7273102009288498
 31
0.0
  0
LINE
  5
518
330
18
100
AcDbEntity
  8
1
 62
     1
100
AcDbLine
 10
50.89660410771204
 20
5.389042943128509
 30
0.0
 11
51.44276132997268
 21
5.65633761885004
 31
0.0
  0
LINE
  5
519
330
18
100
AcDbEntity
  8
1
 62
     1
100
AcDbLine
 10
50.89660412205934
 20
5.437900669612886
 30
0.0
 11
51.44276132997268
 21
5.716127738420818
 31
0.0
  0
LINE
  5
51A
330
18
100
AcDbEntity
  8
1
 62
     1
100
AcDbLine
 10
49.24262842868195
 20
4.575060437224234
 30
0.0
 11
50.28367051830288
 21
5.08828261892263
 31
0.0
  0
LINE
  5
51B
330
18
100
AcDbEntity
  8
1
 62
     1
100
AcDbLine
 10
49.05551363
 20
4.5
 30
0.0
 11
50.28367054396247
 21
5.125655934329799
 31
0.0
  0
LINE
  5
51C
330
18
100
AcDbEntity
  8
1
 62
     1
100
AcDbLine
 10
58.77886752691899
 20
3.559447072901633
 30
0.0
 11
58.72113247308103
 21
3.559447072901633
 31
0.0
  0
LINE
  5
51D
330
18
100
AcDbEntity
  8
1
 62
     1
100
AcDbLine
 10
63.27886752691896
 20
3.559447072901632
 30
0.0
 11
63.22113247308103
 21
3.559447072901632
 31
0.0
  0
LINE
  5
51E
330
18
100
AcDbEntity
  8
1
 62
     1
100
AcDbLine
 10
64.77886752691894
 20
3.559447072901633
 30
0.0
 11
64.72113247308103
 21
3.559447072901633
 31
0.0
  0
LINE
  5
51F
330
18
100
AcDbEntity
  8
1
 62
     1
100
AcDbLine
 10
49.24262842868194
 20
4.575060437224233
 30
0.0
 11
49.05551363000001
 21
4.481912584077225
 31
0.0
  0
LINE
  5
520
330
18
100
AcDbEntity
  8
1
 62
     1
100
AcDbLine
 10
64.77886752691894
 20
5.928479757911589
 30
0.0
 11
64.72113247308103
 21
5.928479757911589
 31
0.0
  0
LINE
  5
521
330
18
100
AcDbEntity
  8
1
 62
     1
100
AcDbLine
 10
71.1576636833214
 20
5.343906117303167
 30
0.0
 11
71.15766368332139
 21
5.343895577233069
 31
0.0
  0
LINE
  5
522
330
18
100
AcDbEntity
  8
1
 62
     1
100
AcDbLine
 10
71.15766368332139
 20
5.343895577233069
 30
0.0
 11
71.1576636833214
 21
5.340820430524884
 31
0.0
  0
LINE
  5
523
330
18
100
AcDbEntity
  8
1
 62
     1
100
AcDbLine
 10
71.1576636833214
 20
5.340820430524884
 30
0.0
 11
71.15766368332139
 21
5.298599174757303
 31
0.0
  0
LINE
  5
524
330
18
100
AcDbEntity
  8
1
 62
     1
100
AcDbLine
 10
71.1576636833214
 20
5.298599174757376
 30
0.0
 11
71.5
 21
4.72603975865984
 31
0.0
  0
LINE
  5
525
330
18
100
AcDbEntity
  8
1
 62
     1
100
AcDbLine
 10
71.5
 20
4.72603975865984
 30
0.0
 11
71.5
 21
4.7509625
 31
0.0
  0
LINE
  5
526
330
18
100
AcDbEntity
  8
1
 62
     1
100
AcDbLine
 10
71.5
 20
4.72603975865984
 30
0.0
 11
71.79095376582232
 21
5.212891602973579
 31
0.0
  0
LINE
  5
527
330
18
100
AcDbEntity
  8
1
 62
     1
100
AcDbLine
 10
71.79095376582232
 20
5.254908970092547
 30
0.0
 11
71.79095376582231
 21
5.254899182969055
 31
0.0
  0
LINE
  5
528
330
18
100
AcDbEntity
  8
1
 62
     1
100
AcDbLine
 10
71.79095376582231
 20
5.254899182969055
 30
0.0
 11
71.79095376582232
 21
5.252044740410448
 31
0.0
  0
LINE
  5
529
330
18
100
AcDbEntity
  8
1
 62
     1
100
AcDbLine
 10
71.79095376582232
 20
5.252044740410448
 30
0.0
 11
71.79095376582232
 21
5.212891602973541
 31
0.0
  0
LINE
  5
52A
330
18
100
AcDbEntity
  8
1
 62
     1
100
AcDbLine
 10
72.79011398185352
 20
5.114495577730613
 30
0.0
 11
72.79011398185354
 21
5.114486945840983
 31
0.0
  0
LINE
  5
52B
330
18
100
AcDbEntity
  8
1
 62
     1
100
AcDbLine
 10
72.79011398185354
 20
5.114486945840983
 30
0.0
 11
72.79011398185352
 21
5.111970928218914
 31
0.0
  0
LINE
  5
52C
330
18
100
AcDbEntity
  8
1
 62
     1
100
AcDbLine
 10
72.79011398185352
 20
5.111970928218914
 30
0.0
 11
72.79011398185352
 21
5.077515434497118
 31
0.0
  0
LINE
  5
52D
330
18
100
AcDbEntity
  8
1
 62
     1
100
AcDbLine
 10
72.79011398185352
 20
5.077515434497124
 30
0.0
 11
73.0
 21
4.72603975865984
 31
0.0
  0
LINE
  5
52E
330
18
100
AcDbEntity
  8
1
 62
     1
100
AcDbLine
 10
62.50000000000001
 20
4.72603975865984
 30
0.0
 11
62.50000000000001
 21
4.7509625
 31
0.0
  0
LINE
  5
52F
330
18
100
AcDbEntity
  8
1
 62
     1
100
AcDbLine
 10
62.50000000000001
 20
4.72603975865984
 30
0.0
 11
63.22113247308104
 21
5.928479757911592
 31
0.0
  0
LINE
  5
530
330
18
100
AcDbEntity
  8
1
 62
     1
100
AcDbLine
 10
63.22113247308104
 20
6.0
 30
0.0
 11
63.22113247308103
 21
5.999983493112263
 31
0.0
  0
LINE
  5
531
330
18
100
AcDbEntity
  8
1
 62
     1
100
AcDbLine
 10
63.22113247308103
 20
5.999983493112263
 30
0.0
 11
63.22113247308104
 21
5.995156423166261
 31
0.0
  0
LINE
  5
532
330
18
100
AcDbEntity
  8
1
 62
     1
100
AcDbLine
 10
63.22113247308104
 20
5.995156423166261
 30
0.0
 11
63.22113247308103
 21
5.928479757911584
 31
0.0
  0
LINE
  5
533
330
18
100
AcDbEntity
  8
1
 62
     1
100
AcDbLine
 10
61.77886752691897
 20
6.0
 30
0.0
 11
61.77886752691897
 21
5.999983493112263
 31
0.0
  0
LINE
  5
534
330
18
100
AcDbEntity
  8
1
 62
     1
100
AcDbLine
 10
61.77886752691897
 20
5.999983493112263
 30
0.0
 11
61.77886752691897
 21
5.995156423166261
 31
0.0
  0
LINE
  5
535
330
18
100
AcDbEntity
  8
1
 62
     1
100
AcDbLine
 10
61.77886752691897
 20
5.995156423166261
 30
0.0
 11
61.77886752691896
 21
5.928479757911584
 31
0.0
  0
LINE
  5
536
330
18
100
AcDbEntity
  8
1
 62
     1
100
AcDbLine
 10
61.77886752691898
 20
5.928479757911594
 30
0.0
 11
62.50000000000001
 21
4.72603975865984
 31
0.0
  0
LINE
  5
537
330
18
100
AcDbEntity
  8
1
 62
     1
100
AcDbLine
 10
61.00000000000001
 20
4.72603975865984
 30
0.0
 11
61.00000000000001
 21
4.7509625
 31
0.0
  0
LINE
  5
538
330
18
100
AcDbEntity
  8
1
 62
     1
100
AcDbLine
 10
61.00000000000001
 20
4.72603975865984
 30
0.0
 11
61.72113247308104
 21
5.928479757911592
 31
0.0
  0
LINE
  5
539
330
18
100
AcDbEntity
  8
1
 62
     1
100
AcDbLine
 10
61.72113247308104
 20
6.0
 30
0.0
 11
61.72113247308104
 21
5.999983493112263
 31
0.0
  0
LINE
  5
53A
330
18
100
AcDbEntity
  8
1
 62
     1
100
AcDbLine
 10
61.72113247308104
 20
5.999983493112263
 30
0.0
 11
61.72113247308104
 21
5.995156423166261
 31
0.0
  0
LINE
  5
53B
330
18
100
AcDbEntity
  8
1
 62
     1
100
AcDbLine
 10
61.72113247308104
 20
5.995156423166261
 30
0.0
 11
61.72113247308103
 21
5.928479757911584
 31
0.0
  0
LINE
  5
53C
330
18
100
AcDbEntity
  8
1
 62
     1
100
AcDbLine
 10
60.27886752691897
 20
6.0
 30
0.0
 11
60.27886752691897
 21
5.999983493112263
 31
0.0
  0
LINE
  5
53D
330
18
100
AcDbEntity
  8
1
 62
     1
100
AcDbLine
 10
60.27886752691897
 20
5.999983493112263
 30
0.0
 11
60.27886752691897
 21
5.995156423166261
 31
0.0
  0
LINE
  5
53E
330
18
100
AcDbEntity
  8
1
 62
     1
100
AcDbLine
 10
60.27886752691897
 20
5.995156423166261
 30
0.0
 11
60.27886752691897
 21
5.928479757911584
 31
0.0
  0
LINE
  5
53F
330
18
100
AcDbEntity
  8
1
 62
     1
100
AcDbLine
 10
60.27886752691897
 20
5.928479757911594
 30
0.0
 11
61.00000000000001
 21
4.72603975865984
 31
0.0
  0
LINE
  5
540
330
18
100
AcDbEntity
  8
1
 62
     1
100
AcDbLine
 10
69.52521338478928
 20
5.573316656875719
 30
0.0
 11
69.52521338478928
 21
5.573304108495191
 31
0.0
  0
LINE
  5
541
330
18
100
AcDbEntity
  8
1
 62
     1
100
AcDbLine
 10
69.52521338478928
 20
5.573304108495191
 30
0.0
 11
69.5252133847893
 21
5.569639839564653
 31
0.0
  0
LINE
  5
542
330
18
100
AcDbEntity
  8
1
 62
     1
100
AcDbLine
 10
69.5252133847893
 20
5.569639839564653
 30
0.0
 11
69.5252133847893
 21
5.519213392572984
 31
0.0
  0
LINE
  5
543
330
18
100
AcDbEntity
  8
1
 62
     1
100
AcDbLine
 10
69.52521338478928
 20
5.519213392573018
 30
0.0
 11
70.0
 21
4.72603975865984
 31
0.0
  0
LINE
  5
544
330
18
100
AcDbEntity
  8
1
 62
     1
100
AcDbLine
 10
69.99999999999999
 20
4.72603975865984
 30
0.0
 11
70.0
 21
4.744849976947121
 31
0.0
  0
LINE
  5
545
330
18
100
AcDbEntity
  8
1
 62
     1
100
AcDbLine
 10
70.0
 20
4.744849976947121
 30
0.0
 11
70.0
 21
4.749449570448952
 31
0.0
  0
LINE
  5
546
330
18
100
AcDbEntity
  8
1
 62
     1
100
AcDbLine
 10
70.0
 20
4.749449570448952
 30
0.0
 11
70.0
 21
4.750586191938556
 31
0.0
  0
LINE
  5
547
330
18
100
AcDbEntity
  8
1
 62
     1
100
AcDbLine
 10
70.0
 20
4.750586191938556
 30
0.0
 11
70.0
 21
4.750868664951442
 31
0.0
  0
LINE
  5
548
330
18
100
AcDbEntity
  8
1
 62
     1
100
AcDbLine
 10
70.0
 20
4.750868664951442
 30
0.0
 11
70.0
 21
4.750939071570206
 31
0.0
  0
LINE
  5
549
330
18
100
AcDbEntity
  8
1
 62
     1
100
AcDbLine
 10
70.0
 20
4.750939071570206
 30
0.0
 11
70.0
 21
4.750956646689419
 31
0.0
  0
LINE
  5
54A
330
18
100
AcDbEntity
  8
1
 62
     1
100
AcDbLine
 10
70.0
 20
4.750956646689419
 30
0.0
 11
69.99999999999999
 21
4.750961037147293
 31
0.0
  0
LINE
  5
54B
330
18
100
AcDbEntity
  8
1
 62
     1
100
AcDbLine
 10
69.99999999999999
 20
4.750961037147293
 30
0.0
 11
70.00000000000001
 21
4.750962134346212
 31
0.0
  0
LINE
  5
54C
330
18
100
AcDbEntity
  8
1
 62
     1
100
AcDbLine
 10
70.00000000000001
 20
4.750962134346212
 30
0.0
 11
70.0
 21
4.750962408593978
 31
0.0
  0
LINE
  5
54D
330
18
100
AcDbEntity
  8
1
 62
     1
100
AcDbLine
 10
70.0
 20
4.750962408593978
 30
0.0
 11
70.0
 21
4.750962477149423
 31
0.0
  0
LINE
  5
54E
330
18
100
AcDbEntity
  8
1
 62
     1
100
AcDbLine
 10
70.0
 20
4.750962477149423
 30
0.0
 11
70.0
 21
4.750962494287472
 31
0.0
  0
LINE
  5
54F
330
18
100
AcDbEntity
  8
1
 62
     1
100
AcDbLine
 10
70.0
 20
4.750962494287472
 30
0.0
 11
69.99999999999999
 21
4.750962498571882
 31
0.0
  0
LINE
  5
550
330
18
100
AcDbEntity
  8
1
 62
     1
100
AcDbLine
 10
69.99999999999999
 20
4.750962498571882
 30
0.0
 11
70.0
 21
4.750962499642973
 31
0.0
  0
LINE
  5
551
330
18
100
AcDbEntity
  8
1
 62
     1
100
AcDbLine
 10
70.0
 20
4.750962499642973
 30
0.0
 11
70.0
 21
4.750962499910742
 31
0.0
  0
LINE
  5
552
330
18
100
AcDbEntity
  8
1
 62
     1
100
AcDbLine
 10
70.0
 20
4.750962499910742
 30
0.0
 11
70.0
 21
4.750962499977686
 31
0.0
  0
LINE
  5
553
330
18
100
AcDbEntity
  8
1
 62
     1
100
AcDbLine
 10
70.0
 20
4.750962499977686
 30
0.0
 11
70.0
 21
4.750962499994421
 31
0.0
  0
LINE
  5
554
330
18
100
AcDbEntity
  8
1
 62
     1
100
AcDbLine
 10
70.0
 20
4.750962499994421
 30
0.0
 11
70.0
 21
4.750962499999337
 31
0.0
  0
LINE
  5
555
330
18
100
AcDbEntity
  8
1
 62
     1
100
AcDbLine
 10
70.0
 20
4.750962499999337
 30
0.0
 11
70.0
 21
4.7509625
 31
0.0
  0
LINE
  5
556
330
18
100
AcDbEntity
  8
1
 62
     1
100
AcDbLine
 10
68.5
 20
4.72603975865984
 30
0.0
 11
69.0160944316804
 21
5.58793064131108
 31
0.0
  0
LINE
  5
557
330
18
100
AcDbEntity
  8
1
 62
     1
100
AcDbLine
 10
69.0160944316804
 20
5.644863860392019
 30
0.0
 11
69.0160944316804
 21
5.644850667312673
 31
0.0
  0
LINE
  5
558
330
18
100
AcDbEntity
  8
1
 62
     1
100
AcDbLine
 10
69.0160944316804
 20
5.644850667312673
 30
0.0
 11
69.01609443168039
 21
5.640997155611776
 31
0.0
  0
LINE
  5
559
330
18
100
AcDbEntity
  8
1
 62
     1
100
AcDbLine
 10
69.01609443168039
 20
5.640997155611776
 30
0.0
 11
69.01609443168039
 21
5.58793064131106
 31
0.0
  0
LINE
  5
55A
330
18
100
AcDbEntity
  8
1
 62
     1
100
AcDbLine
 10
67.89276308625716
 20
5.802727196448272
 30
0.0
 11
67.89276308625716
 21
5.802712552694701
 31
0.0
  0
LINE
  5
55B
330
18
100
AcDbEntity
  8
1
 62
     1
100
AcDbLine
 10
67.89276308625716
 20
5.802712552694701
 30
0.0
 11
67.89276308625718
 21
5.798433013532351
 31
0.0
  0
LINE
  5
55C
330
18
100
AcDbEntity
  8
1
 62
     1
100
AcDbLine
 10
67.89276308625718
 20
5.798433013532351
 30
0.0
 11
67.89276308625718
 21
5.739416250940239
 31
0.0
  0
LINE
  5
55D
330
18
100
AcDbEntity
  8
1
 62
     1
100
AcDbLine
 10
67.89276308625716
 20
5.739416250959673
 30
0.0
 11
68.5
 21
4.72603975865984
 31
0.0
  0
LINE
  5
55E
330
18
100
AcDbEntity
  8
1
 62
     1
100
AcDbLine
 10
68.5
 20
4.72603975865984
 30
0.0
 11
68.5
 21
4.7509625
 31
0.0
  0
LINE
  5
55F
330
18
100
AcDbEntity
  8
1
 62
     1
100
AcDbLine
 10
67.0
 20
4.72603975865984
 30
0.0
 11
67.62866476460943
 21
5.775005503257064
 31
0.0
  0
LINE
  5
560
330
18
100
AcDbEntity
  8
1
 62
     1
100
AcDbLine
 10
67.62866476460943
 20
5.839841305541757
 30
0.0
 11
67.62866476460944
 21
5.839826315378255
 31
0.0
  0
LINE
  5
561
330
18
100
AcDbEntity
  8
1
 62
     1
100
AcDbLine
 10
67.62866476460944
 20
5.839826315378255
 30
0.0
 11
67.62866476460943
 21
5.835445005150179
 31
0.0
  0
LINE
  5
562
330
18
100
AcDbEntity
  8
1
 62
     1
100
AcDbLine
 10
67.62866476460943
 20
5.835445005150179
 30
0.0
 11
67.62866476460943
 21
5.775005503257064
 31
0.0
  0
LINE
  5
563
330
18
100
AcDbEntity
  8
1
 62
     1
100
AcDbLine
 10
66.27886752691896
 20
6.0
 30
0.0
 11
66.27886752691896
 21
5.999983493112263
 31
0.0
  0
LINE
  5
564
330
18
100
AcDbEntity
  8
1
 62
     1
100
AcDbLine
 10
66.27886752691896
 20
5.999983493112263
 30
0.0
 11
66.27886752691896
 21
5.995156423166261
 31
0.0
  0
LINE
  5
565
330
18
100
AcDbEntity
  8
1
 62
     1
100
AcDbLine
 10
66.27886752691896
 20
5.995156423166261
 30
0.0
 11
66.27886752691896
 21
5.928479757911584
 31
0.0
  0
LINE
  5
566
330
18
100
AcDbEntity
  8
1
 62
     1
100
AcDbLine
 10
66.27886752691896
 20
5.928479757911603
 30
0.0
 11
67.0
 21
4.72603975865984
 31
0.0
  0
LINE
  5
567
330
18
100
AcDbEntity
  8
1
 62
     1
100
AcDbLine
 10
67.0
 20
4.72603975865984
 30
0.0
 11
67.0
 21
4.7509625
 31
0.0
  0
LINE
  5
568
330
18
100
AcDbEntity
  8
1
 62
     1
100
AcDbLine
 10
65.5
 20
4.72603975865984
 30
0.0
 11
65.5
 21
4.7509625
 31
0.0
  0
LINE
  5
569
330
18
100
AcDbEntity
  8
1
 62
     1
100
AcDbLine
 10
65.5
 20
4.72603975865984
 30
0.0
 11
66.22113247308104
 21
5.928479757911585
 31
0.0
  0
LINE
  5
56A
330
18
100
AcDbEntity
  8
1
 62
     1
100
AcDbLine
 10
66.22113247308103
 20
6.0
 30
0.0
 11
66.22113247308101
 21
5.999983493112263
 31
0.0
  0
LINE
  5
56B
330
18
100
AcDbEntity
  8
1
 62
     1
100
AcDbLine
 10
66.22113247308101
 20
5.999983493112263
 30
0.0
 11
66.22113247308103
 21
5.995156423166261
 31
0.0
  0
LINE
  5
56C
330
18
100
AcDbEntity
  8
1
 62
     1
100
AcDbLine
 10
66.22113247308103
 20
5.995156423166261
 30
0.0
 11
66.22113247308101
 21
5.928479757911584
 31
0.0
  0
LINE
  5
56D
330
18
100
AcDbEntity
  8
1
 62
     1
100
AcDbLine
 10
64.77886752691896
 20
6.0
 30
0.0
 11
64.77886752691896
 21
5.999983493112263
 31
0.0
  0
LINE
  5
56E
330
18
100
AcDbEntity
  8
1
 62
     1
100
AcDbLine
 10
64.77886752691896
 20
5.999983493112263
 30
0.0
 11
64.77886752691896
 21
5.995156423166261
 31
0.0
  0
LINE
  5
56F
330
18
100
AcDbEntity
  8
1
 62
     1
100
AcDbLine
 10
64.77886752691896
 20
5.995156423166261
 30
0.0
 11
64.77886752691896
 21
5.928479757911584
 31
0.0
  0
LINE
  5
570
330
18
100
AcDbEntity
  8
1
 62
     1
100
AcDbLine
 10
64.77886752691896
 20
5.928479757911603
 30
0.0
 11
65.5
 21
4.72603975865984
 31
0.0
  0
LINE
  5
571
330
18
100
AcDbEntity
  8
1
 62
     1
100
AcDbLine
 10
64.0
 20
4.72603975865984
 30
0.0
 11
64.0
 21
4.7509625
 31
0.0
  0
LINE
  5
572
330
18
100
AcDbEntity
  8
1
 62
     1
100
AcDbLine
 10
64.0
 20
4.72603975865984
 30
0.0
 11
64.72113247308104
 21
5.928479757911585
 31
0.0
  0
LINE
  5
573
330
18
100
AcDbEntity
  8
1
 62
     1
100
AcDbLine
 10
64.72113247308103
 20
6.0
 30
0.0
 11
64.72113247308103
 21
5.999983493112263
 31
0.0
  0
LINE
  5
574
330
18
100
AcDbEntity
  8
1
 62
     1
100
AcDbLine
 10
64.72113247308103
 20
5.999983493112263
 30
0.0
 11
64.72113247308103
 21
5.995156423166261
 31
0.0
  0
LINE
  5
575
330
18
100
AcDbEntity
  8
1
 62
     1
100
AcDbLine
 10
64.72113247308103
 20
5.995156423166261
 30
0.0
 11
64.72113247308103
 21
5.928479757911584
 31
0.0
  0
LINE
  5
576
330
18
100
AcDbEntity
  8
1
 62
     1
100
AcDbLine
 10
63.27886752691898
 20
6.0
 30
0.0
 11
63.27886752691898
 21
5.999983493112263
 31
0.0
  0
LINE
  5
577
330
18
100
AcDbEntity
  8
1
 62
     1
100
AcDbLine
 10
63.27886752691898
 20
5.999983493112263
 30
0.0
 11
63.27886752691899
 21
5.995156423166261
 31
0.0
  0
LINE
  5
578
330
18
100
AcDbEntity
  8
1
 62
     1
100
AcDbLine
 10
63.27886752691899
 20
5.995156423166261
 30
0.0
 11
63.27886752691897
 21
5.928479757911584
 31
0.0
  0
LINE
  5
579
330
18
100
AcDbEntity
  8
1
 62
     1
100
AcDbLine
 10
63.27886752691899
 20
5.928479757911584
 30
0.0
 11
64.0
 21
4.72603975865984
 31
0.0
  0
LINE
  5
57A
330
18
100
AcDbEntity
  8
1
 62
     1
100
AcDbLine
 10
70.0
 20
4.72603975865984
 30
0.0
 11
70.40352409875138
 21
5.400570441315223
 31
0.0
  0
LINE
  5
57B
330
18
100
AcDbEntity
  8
1
 62
     1
100
AcDbLine
 10
70.40352409875136
 20
5.449886415242283
 30
0.0
 11
70.40352409875136
 21
5.449874958991839
 31
0.0
  0
LINE
  5
57C
330
18
100
AcDbEntity
  8
1
 62
     1
100
AcDbLine
 10
70.40352409875136
 20
5.449874958991839
 30
0.0
 11
70.40352409875136
 21
5.446531134603226
 31
0.0
  0
LINE
  5
57D
330
18
100
AcDbEntity
  8
1
 62
     1
100
AcDbLine
 10
70.40352409875136
 20
5.446531134603226
 30
0.0
 11
70.40352409875138
 21
5.400570441126572
 31
0.0
  0
LINE
  5
57E
330
18
100
AcDbEntity
  8
1
 62
     1
100
AcDbLine
 10
58.00000000000001
 20
4.72603975865984
 30
0.0
 11
58.00000000000001
 21
4.7509625
 31
0.0
  0
LINE
  5
57F
330
18
100
AcDbEntity
  8
1
 62
     1
100
AcDbLine
 10
58.00000000000001
 20
4.72603975865984
 30
0.0
 11
58.72113247308104
 21
5.928479757911585
 31
0.0
  0
LINE
  5
580
330
18
100
AcDbEntity
  8
1
 62
     1
100
AcDbLine
 10
58.72113247308103
 20
6.0
 30
0.0
 11
58.72113247308103
 21
5.999983493112263
 31
0.0
  0
LINE
  5
581
330
18
100
AcDbEntity
  8
1
 62
     1
100
AcDbLine
 10
58.72113247308103
 20
5.999983493112263
 30
0.0
 11
58.72113247308104
 21
5.995156423166261
 31
0.0
  0
LINE
  5
582
330
18
100
AcDbEntity
  8
1
 62
     1
100
AcDbLine
 10
58.72113247308104
 20
5.995156423166261
 30
0.0
 11
58.72113247308103
 21
5.928479757911584
 31
0.0
  0
LINE
  5
583
330
18
100
AcDbEntity
  8
1
 62
     1
100
AcDbLine
 10
57.27886752691897
 20
6.0
 30
0.0
 11
57.27886752691897
 21
5.999983493112263
 31
0.0
  0
LINE
  5
584
330
18
100
AcDbEntity
  8
1
 62
     1
100
AcDbLine
 10
57.27886752691897
 20
5.999983493112263
 30
0.0
 11
57.27886752691896
 21
5.995156423166261
 31
0.0
  0
LINE
  5
585
330
18
100
AcDbEntity
  8
1
 62
     1
100
AcDbLine
 10
57.27886752691896
 20
5.995156423166261
 30
0.0
 11
57.27886752691896
 21
5.928479757911584
 31
0.0
  0
LINE
  5
586
330
18
100
AcDbEntity
  8
1
 62
     1
100
AcDbLine
 10
57.27886752691897
 20
5.928479757911603
 30
0.0
 11
58.00000000000001
 21
4.72603975865984
 31
0.0
  0
LINE
  5
587
330
18
100
AcDbEntity
  8
1
 62
     1
100
AcDbLine
 10
56.5
 20
4.72603975865984
 30
0.0
 11
56.5
 21
4.7509625
 31
0.0
  0
LINE
  5
588
330
18
100
AcDbEntity
  8
1
 62
     1
100
AcDbLine
 10
56.50000000000001
 20
4.72603975865984
 30
0.0
 11
57.22113247308105
 21
5.928479757911603
 31
0.0
  0
LINE
  5
589
330
18
100
AcDbEntity
  8
1
 62
     1
100
AcDbLine
 10
57.22113247308105
 20
6.0
 30
0.0
 11
57.22113247308104
 21
5.999983493112263
 31
0.0
  0
LINE
  5
58A
330
18
100
AcDbEntity
  8
1
 62
     1
100
AcDbLine
 10
57.22113247308104
 20
5.999983493112263
 30
0.0
 11
57.22113247308104
 21
5.995156423166261
 31
0.0
  0
LINE
  5
58B
330
18
100
AcDbEntity
  8
1
 62
     1
100
AcDbLine
 10
57.22113247308104
 20
5.995156423166261
 30
0.0
 11
57.22113247308105
 21
5.928479757911584
 31
0.0
  0
LINE
  5
58C
330
18
100
AcDbEntity
  8
1
 62
     1
100
AcDbLine
 10
55.77886752691896
 20
6.0
 30
0.0
 11
55.77886752691895
 21
5.999983493112263
 31
0.0
  0
LINE
  5
58D
330
18
100
AcDbEntity
  8
1
 62
     1
100
AcDbLine
 10
55.77886752691895
 20
5.999983493112263
 30
0.0
 11
55.77886752691897
 21
5.995156423166261
 31
0.0
  0
LINE
  5
58E
330
18
100
AcDbEntity
  8
1
 62
     1
100
AcDbLine
 10
55.77886752691897
 20
5.995156423166261
 30
0.0
 11
55.77886752691896
 21
5.928479757911584
 31
0.0
  0
LINE
  5
58F
330
18
100
AcDbEntity
  8
1
 62
     1
100
AcDbLine
 10
55.77886752691896
 20
5.928479757911603
 30
0.0
 11
56.50000000000001
 21
4.72603975865984
 31
0.0
  0
LINE
  5
590
330
18
100
AcDbEntity
  8
1
 62
     1
100
AcDbLine
 10
58.77886752691897
 20
6.0
 30
0.0
 11
58.77886752691897
 21
5.999983493112263
 31
0.0
  0
LINE
  5
591
330
18
100
AcDbEntity
  8
1
 62
     1
100
AcDbLine
 10
58.77886752691897
 20
5.999983493112263
 30
0.0
 11
58.77886752691897
 21
5.99515642316626
 31
0.0
  0
LINE
  5
592
330
18
100
AcDbEntity
  8
1
 62
     1
100
AcDbLine
 10
58.77886752691897
 20
5.99515642316626
 30
0.0
 11
58.77886752691897
 21
5.928479757911584
 31
0.0
  0
LINE
  5
593
330
18
100
AcDbEntity
  8
1
 62
     1
100
AcDbLine
 10
58.77886752691897
 20
5.928479757911594
 30
0.0
 11
59.50000000000001
 21
4.72603975865984
 31
0.0
  0
LINE
  5
594
330
18
100
AcDbEntity
  8
1
 62
     1
100
AcDbLine
 10
59.5
 20
4.72603975865984
 30
0.0
 11
59.50000000000001
 21
4.7509625
 31
0.0
  0
LINE
  5
595
330
18
100
AcDbEntity
  8
1
 62
     1
100
AcDbLine
 10
59.50000000000001
 20
4.72603975865984
 30
0.0
 11
60.22113247308104
 21
5.928479757911592
 31
0.0
  0
LINE
  5
596
330
18
100
AcDbEntity
  8
1
 62
     1
100
AcDbLine
 10
60.22113247308104
 20
6.0
 30
0.0
 11
60.22113247308104
 21
5.999983493112263
 31
0.0
  0
LINE
  5
597
330
18
100
AcDbEntity
  8
1
 62
     1
100
AcDbLine
 10
60.22113247308104
 20
5.999983493112263
 30
0.0
 11
60.22113247308104
 21
5.995156423166261
 31
0.0
  0
LINE
  5
598
330
18
100
AcDbEntity
  8
1
 62
     1
100
AcDbLine
 10
60.22113247308104
 20
5.995156423166261
 30
0.0
 11
60.22113247308103
 21
5.928479757911584
 31
0.0
  0
LINE
  5
599
330
18
100
AcDbEntity
  8
1
 62
     1
100
AcDbLine
 10
52.00000000000001
 20
4.72603975865984
 30
0.0
 11
52.0
 21
4.7509625
 31
0.0
  0
LINE
  5
59A
330
18
100
AcDbEntity
  8
1
 62
     1
100
AcDbLine
 10
52.0
 20
4.72603975865984
 30
0.0
 11
52.72113247308103
 21
5.928479757911592
 31
0.0
  0
LINE
  5
59B
330
18
100
AcDbEntity
  8
1
 62
     1
100
AcDbLine
 10
52.72113247308103
 20
6.0
 30
0.0
 11
52.72113247308103
 21
5.999983493112263
 31
0.0
  0
LINE
  5
59C
330
18
100
AcDbEntity
  8
1
 62
     1
100
AcDbLine
 10
52.72113247308103
 20
5.999983493112263
 30
0.0
 11
52.72113247308104
 21
5.995156423166261
 31
0.0
  0
LINE
  5
59D
330
18
100
AcDbEntity
  8
1
 62
     1
100
AcDbLine
 10
52.72113247308104
 20
5.995156423166261
 30
0.0
 11
52.72113247308103
 21
5.928479757911586
 31
0.0
  0
LINE
  5
59E
330
18
100
AcDbEntity
  8
1
 62
     1
100
AcDbLine
 10
51.44276132997268
 20
5.716127738420818
 30
0.0
 11
51.44276132997268
 21
5.716113895140054
 31
0.0
  0
LINE
  5
59F
330
18
100
AcDbEntity
  8
1
 62
     1
100
AcDbLine
 10
51.44276132997268
 20
5.716113895140054
 30
0.0
 11
51.44276132997268
 21
5.712069468649016
 31
0.0
  0
LINE
  5
5A0
330
18
100
AcDbEntity
  8
1
 62
     1
100
AcDbLine
 10
51.44276132997268
 20
5.712069468649016
 30
0.0
 11
51.44276132997268
 21
5.65633761885004
 31
0.0
  0
LINE
  5
5A1
330
18
100
AcDbEntity
  8
1
 62
     1
100
AcDbLine
 10
51.44276132997268
 20
5.656337618850039
 30
0.0
 11
52.0
 21
4.72603975865984
 31
0.0
  0
LINE
  5
5A2
330
18
100
AcDbEntity
  8
1
 62
     1
100
AcDbLine
 10
52.77886752691897
 20
6.0
 30
0.0
 11
52.77886752691897
 21
5.999983493112263
 31
0.0
  0
LINE
  5
5A3
330
18
100
AcDbEntity
  8
1
 62
     1
100
AcDbLine
 10
52.77886752691897
 20
5.999983493112263
 30
0.0
 11
52.77886752691897
 21
5.995156423166261
 31
0.0
  0
LINE
  5
5A4
330
18
100
AcDbEntity
  8
1
 62
     1
100
AcDbLine
 10
52.77886752691897
 20
5.995156423166261
 30
0.0
 11
52.77886752691896
 21
5.928479757911584
 31
0.0
  0
LINE
  5
5A5
330
18
100
AcDbEntity
  8
1
 62
     1
100
AcDbLine
 10
52.77886752691897
 20
5.928479757911594
 30
0.0
 11
53.5
 21
4.72603975865984
 31
0.0
  0
LINE
  5
5A6
330
18
100
AcDbEntity
  8
1
 62
     1
100
AcDbLine
 10
53.5
 20
4.72603975865984
 30
0.0
 11
53.5
 21
4.750962498718817
 31
0.0
  0
LINE
  5
5A7
330
18
100
AcDbEntity
  8
1
 62
     1
100
AcDbLine
 10
53.5
 20
4.72603975865984
 30
0.0
 11
54.22113247308103
 21
5.928479757911592
 31
0.0
  0
LINE
  5
5A8
330
18
100
AcDbEntity
  8
1
 62
     1
100
AcDbLine
 10
54.22113247308103
 20
6.0
 30
0.0
 11
54.22113247308103
 21
5.999983493112263
 31
0.0
  0
LINE
  5
5A9
330
18
100
AcDbEntity
  8
1
 62
     1
100
AcDbLine
 10
54.22113247308103
 20
5.999983493112263
 30
0.0
 11
54.22113247308103
 21
5.995156423166261
 31
0.0
  0
LINE
  5
5AA
330
18
100
AcDbEntity
  8
1
 62
     1
100
AcDbLine
 10
54.22113247308103
 20
5.995156423166261
 30
0.0
 11
54.22113247308103
 21
5.928479757911584
 31
0.0
  0
LINE
  5
5AB
330
18
100
AcDbEntity
  8
1
 62
     1
100
AcDbLine
 10
54.27886752691896
 20
6.0
 30
0.0
 11
54.27886752691895
 21
5.999983493112263
 31
0.0
  0
LINE
  5
5AC
330
18
100
AcDbEntity
  8
1
 62
     1
100
AcDbLine
 10
54.27886752691895
 20
5.999983493112263
 30
0.0
 11
54.27886752691896
 21
5.995156423166261
 31
0.0
  0
LINE
  5
5AD
330
18
100
AcDbEntity
  8
1
 62
     1
100
AcDbLine
 10
54.27886752691896
 20
5.995156423166261
 30
0.0
 11
54.27886752691894
 21
5.928479757911584
 31
0.0
  0
LINE
  5
5AE
330
18
100
AcDbEntity
  8
1
 62
     1
100
AcDbLine
 10
54.27886752691896
 20
5.928479757911603
 30
0.0
 11
55.0
 21
4.72603975865984
 31
0.0
  0
LINE
  5
5AF
330
18
100
AcDbEntity
  8
1
 62
     1
100
AcDbLine
 10
55.0
 20
4.72603975865984
 30
0.0
 11
55.0
 21
4.7509625
 31
0.0
  0
LINE
  5
5B0
330
18
100
AcDbEntity
  8
1
 62
     1
100
AcDbLine
 10
55.0
 20
4.72603975865984
 30
0.0
 11
55.72113247308104
 21
5.928479757911585
 31
0.0
  0
LINE
  5
5B1
330
18
100
AcDbEntity
  8
1
 62
     1
100
AcDbLine
 10
55.72113247308103
 20
6.0
 30
0.0
 11
55.72113247308103
 21
5.999983493112263
 31
0.0
  0
LINE
  5
5B2
330
18
100
AcDbEntity
  8
1
 62
     1
100
AcDbLine
 10
55.72113247308103
 20
5.999983493112263
 30
0.0
 11
55.72113247308103
 21
5.995156423166261
 31
0.0
  0
LINE
  5
5B3
330
18
100
AcDbEntity
  8
1
 62
     1
100
AcDbLine
 10
55.72113247308103
 20
5.995156423166261
 30
0.0
 11
55.72113247308103
 21
5.928479757911584
 31
0.0
  0
LINE
  5
5B4
330
18
100
AcDbEntity
  8
1
 62
     1
100
AcDbLine
 10
50.28367054396247
 20
5.125655934329799
 30
0.0
 11
50.28367054396247
 21
5.125647212154441
 31
0.0
  0
LINE
  5
5B5
330
18
100
AcDbEntity
  8
1
 62
     1
100
AcDbLine
 10
50.28367054396247
 20
5.125647212154441
 30
0.0
 11
50.28367054396247
 21
5.123104754518446
 31
0.0
  0
LINE
  5
5B6
330
18
100
AcDbEntity
  8
1
 62
     1
100
AcDbLine
 10
50.28367054396247
 20
5.123104754518446
 30
0.0
 11
50.28367054396247
 21
5.088282572818094
 31
0.0
  0
LINE
  5
5B7
330
18
100
AcDbEntity
  8
1
 62
     1
100
AcDbLine
 10
50.28367054396247
 20
5.088282572818103
 30
0.0
 11
50.5
 21
4.72603975865984
 31
0.0
  0
LINE
  5
5B8
330
18
100
AcDbEntity
  8
1
 62
     1
100
AcDbLine
 10
50.5
 20
4.72603975865984
 30
0.0
 11
50.5
 21
4.7509625
 31
0.0
  0
LINE
  5
5B9
330
18
100
AcDbEntity
  8
1
 62
     1
100
AcDbLine
 10
50.5
 20
4.72603975865984
 30
0.0
 11
50.89660412205934
 21
5.389042917272161
 31
0.0
  0
LINE
  5
5BA
330
18
100
AcDbEntity
  8
1
 62
     1
100
AcDbLine
 10
50.89660412205934
 20
5.437900669612886
 30
0.0
 11
50.89660412205934
 21
5.437889318003176
 31
0.0
  0
LINE
  5
5BB
330
18
100
AcDbEntity
  8
1
 62
     1
100
AcDbLine
 10
50.89660412205934
 20
5.437889318003176
 30
0.0
 11
50.89660412205934
 21
5.434576187115824
 31
0.0
  0
LINE
  5
5BC
330
18
100
AcDbEntity
  8
1
 62
     1
100
AcDbLine
 10
50.89660412205934
 20
5.434576187115824
 30
0.0
 11
50.89660412205934
 21
5.389042917272146
 31
0.0
  0
LINE
  5
5BD
330
18
100
AcDbEntity
  8
1
 62
     1
100
AcDbLine
 10
73.0
 20
4.72603975865984
 30
0.0
 11
73.0
 21
4.7509625
 31
0.0
  0
LINE
  5
5BE
330
18
100
AcDbEntity
  8
1
 62
     1
100
AcDbLine
 10
73.0
 20
4.575060437224234
 30
0.0
 11
73.0
 21
4.726039758659838
 31
0.0
  0
LINE
  5
5BF
330
18
100
AcDbEntity
  8
1
 62
     1
100
AcDbLine
 10
73.0
 20
4.575060437224233
 30
0.0
 11
73.0
 21
3.502856844112169
 31
0.0
  0
LINE
  5
5C0
330
18
100
AcDbEntity
  8
1
 62
     1
100
AcDbLine
 10
73.0
 20
-0.4859967859695039
 30
0.0
 11
73.0
 21
3.502856844112168
 31
0.0
  0
LINE
  5
5C1
330
18
100
AcDbEntity
  8
1
 62
     1
100
AcDbLine
 10
73.0
 20
-3.209616582407125
 30
0.0
 11
73.0
 21
-1.259522968263017
 31
0.0
  0
LINE
  5
5C2
330
18
100
AcDbEntity
  8
1
 62
     1
100
AcDbLine
 10
73.0
 20
-4.7509625
 30
0.0
 11
73.0
 21
-4.750639607560279
 31
0.0
  0
LINE
  5
5C3
330
18
100
AcDbEntity
  8
1
 62
     1
100
AcDbLine
 10
73.0
 20
-4.750639607560279
 30
0.0
 11
73.0
 21
-4.651053921325933
 31
0.0
  0
LINE
  5
5C4
330
18
100
AcDbEntity
  8
1
 62
     1
100
AcDbLine
 10
73.0
 20
-4.651053921325933
 30
0.0
 11
73.0
 21
-3.209616582407126
 31
0.0
  0
LINE
  5
5C5
330
18
100
AcDbEntity
  8
1
 62
     1
100
AcDbLine
 10
72.79011398185352
 20
-3.710161407459174
 30
0.0
 11
71.79095376582231
 21
-3.895595851315815
 31
0.0
  0
LINE
  5
5C6
330
18
100
AcDbEntity
  8
1
 62
     1
100
AcDbLine
 10
71.15766368332142
 20
-4.011286373250572
 30
0.0
 11
70.40352409875135
 21
-4.147380416921958
 31
0.0
  0
LINE
  5
5C7
330
18
100
AcDbEntity
  8
1
 62
     1
100
AcDbLine
 10
69.52521338478927
 20
-4.303801316490991
 30
0.0
 11
69.0160944316804
 21
-4.393533145549312
 31
0.0
  0
LINE
  5
5C8
330
18
100
AcDbEntity
  8
1
 62
     1
100
AcDbLine
 10
67.89276308625718
 20
-4.589311515486658
 30
0.0
 11
67.62866476460943
 21
-4.63492908239168
 31
0.0
  0
LINE
  5
5C9
330
18
100
AcDbEntity
  8
1
 62
     1
100
AcDbLine
 10
66.27886752691897
 20
-4.830148707360054
 30
0.0
 11
66.22113247308106
 21
-4.830148707360054
 31
0.0
  0
LINE
  5
5CA
330
18
100
AcDbEntity
  8
1
 62
     1
100
AcDbLine
 10
64.77886752691894
 20
-4.830148707360054
 30
0.0
 11
64.72113247308103
 21
-4.830148707360054
 31
0.0
  0
LINE
  5
5CB
330
18
100
AcDbEntity
  8
1
 62
     1
100
AcDbLine
 10
63.27886752691898
 20
-4.830148707360054
 30
0.0
 11
63.22113247308105
 21
-4.830148707360054
 31
0.0
  0
LINE
  5
5CC
330
18
100
AcDbEntity
  8
1
 62
     1
100
AcDbLine
 10
61.77886752691899
 20
-4.830148707360054
 30
0.0
 11
61.72113247308106
 21
-4.830148707360054
 31
0.0
  0
LINE
  5
5CD
330
18
100
AcDbEntity
  8
1
 62
     1
100
AcDbLine
 10
60.27886752691898
 20
-4.830148707360054
 30
0.0
 11
60.22113247308102
 21
-4.830148707360054
 31
0.0
  0
LINE
  5
5CE
330
18
100
AcDbEntity
  8
1
 62
     1
100
AcDbLine
 10
58.77886752691899
 20
-4.830148707360054
 30
0.0
 11
58.72113247308104
 21
-4.830148707360054
 31
0.0
  0
LINE
  5
5CF
330
18
100
AcDbEntity
  8
1
 62
     1
100
AcDbLine
 10
57.27886752691897
 20
-4.830148707360054
 30
0.0
 11
57.22113247308105
 21
-4.830148707360054
 31
0.0
  0
LINE
  5
5D0
330
18
100
AcDbEntity
  8
1
 62
     1
100
AcDbLine
 10
55.77886752691897
 20
-4.830148707360054
 30
0.0
 11
55.72113247308101
 21
-4.830148707360054
 31
0.0
  0
LINE
  5
5D1
330
18
100
AcDbEntity
  8
1
 62
     1
100
AcDbLine
 10
54.27886752691896
 20
-4.830148707360054
 30
0.0
 11
54.22113247308106
 21
-4.830148707360054
 31
0.0
  0
LINE
  5
5D2
330
18
100
AcDbEntity
  8
1
 62
     1
100
AcDbLine
 10
52.77886752691897
 20
-4.830148707360054
 30
0.0
 11
52.72113247308103
 21
-4.830148707360054
 31
0.0
  0
LINE
  5
5D3
330
18
100
AcDbEntity
  8
1
 62
     1
100
AcDbLine
 10
51.44276132997268
 20
-4.482274626390607
 30
0.0
 11
50.89660412205934
 21
-4.132075162470867
 31
0.0
  0
ARC
  5
5D4
330
18
100
AcDbEntity
  8
1
 62
     1
100
AcDbCircle
 10
64.52052257602035
 20
17.36105855928335
 30
0.0
 40
25.44222624713416
100
AcDbArc
 50
232.5650542403834
 51
235.973677479448
  0
LINE
  5
5D5
330
18
100
AcDbEntity
  8
1
 62
     1
100
AcDbLine
 10
49.05551363
 20
-1.259522968263013
 30
0.0
 11
49.05551363
 21
-2.840785234988585
 31
0.0
  0
LINE
  5
5D6
330
18
100
AcDbEntity
  8
1
 62
     1
100
AcDbLine
 10
49.05551362999999
 20
3.489976969647628
 30
0.0
 11
49.05551363
 21
-0.4030627602378242
 31
0.0
  0
LINE
  5
5D7
330
18
100
AcDbEntity
  8
1
 62
     1
100
AcDbLine
 10
49.05551363
 20
4.481912584077195
 30
0.0
 11
49.05551363000001
 21
3.489976969648143
 31
0.0
  0
LINE
  5
5D8
330
18
100
AcDbEntity
  8
1
 62
     1
100
AcDbLine
 10
49.05551363
 20
4.5
 30
0.0
 11
49.05551363000001
 21
4.499995732821501
 31
0.0
  0
LINE
  5
5D9
330
18
100
AcDbEntity
  8
1
 62
     1
100
AcDbLine
 10
49.05551363000001
 20
4.499995732821501
 30
0.0
 11
49.05551362999999
 21
4.498755623949863
 31
0.0
  0
LINE
  5
5DA
330
18
100
AcDbEntity
  8
1
 62
     1
100
AcDbLine
 10
49.05551362999999
 20
4.498755623949863
 30
0.0
 11
49.05551362999999
 21
4.481912584077189
 31
0.0
  0
LINE
  5
5DB
330
18
100
AcDbEntity
  8
1
 62
     1
100
AcDbLine
 10
49.05551362999999
 20
-2.840785234988585
 30
0.0
 11
49.05551363
 21
-4.5
 31
0.0
  0
LINE
  5
5DC
330
18
100
AcDbEntity
  8
1
 62
     1
100
AcDbLine
 10
73.00000000000001
 20
-0.4859967859695039
 30
0.0
 11
73.0
 21
-1.259522968263018
 31
0.0
  0
LINE
  5
5DD
330
18
100
AcDbEntity
  8
1
 62
     1
100
AcDbLine
 10
49.05551363
 20
-0.4030627602378242
 30
0.0
 11
49.05551363
 21
-1.259522968263018
 31
0.0
  0
LINE
  5
5DE
330
18
100
AcDbEntity
  8
1
 62
     1
100
AcDbLine
 10
71.5
 20
4.750962499999999
 30
0.0
 11
71.1576636833214
 21
5.343906117303167
 31
0.0
  0
LINE
  5
5DF
330
18
100
AcDbEntity
  8
1
 62
     1
100
AcDbLine
 10
71.79095376582232
 20
5.254908970092553
 30
0.0
 11
71.5
 21
4.7509625
 31
0.0
  0
LINE
  5
5E0
330
18
100
AcDbEntity
  8
1
 62
     1
100
AcDbLine
 10
72.99999999999999
 20
4.7509625
 30
0.0
 11
72.79011398185352
 21
5.114495577730612
 31
0.0
  0
LINE
  5
5E1
330
18
100
AcDbEntity
  8
1
 62
     1
100
AcDbLine
 10
63.22113247308103
 20
6.000000000000006
 30
0.0
 11
62.50000000000001
 21
4.7509625
 31
0.0
  0
LINE
  5
5E2
330
18
100
AcDbEntity
  8
1
 62
     1
100
AcDbLine
 10
62.5
 20
4.7509625
 30
0.0
 11
61.77886752691897
 21
6.000000000000006
 31
0.0
  0
LINE
  5
5E3
330
18
100
AcDbEntity
  8
1
 62
     1
100
AcDbLine
 10
61.72113247308105
 20
6.000000000000006
 30
0.0
 11
61.00000000000001
 21
4.7509625
 31
0.0
  0
LINE
  5
5E4
330
18
100
AcDbEntity
  8
1
 62
     1
100
AcDbLine
 10
61.00000000000001
 20
4.7509625
 30
0.0
 11
60.27886752691897
 21
6.000000000000006
 31
0.0
  0
LINE
  5
5E5
330
18
100
AcDbEntity
  8
1
 62
     1
100
AcDbLine
 10
70.0
 20
4.7509625
 30
0.0
 11
69.52521338478928
 21
5.573316656875724
 31
0.0
  0
LINE
  5
5E6
330
18
100
AcDbEntity
  8
1
 62
     1
100
AcDbLine
 10
69.0160944316804
 20
5.644863860392038
 30
0.0
 11
68.5
 21
4.7509625
 31
0.0
  0
LINE
  5
5E7
330
18
100
AcDbEntity
  8
1
 62
     1
100
AcDbLine
 10
68.5
 20
4.7509625
 30
0.0
 11
67.89276308625716
 21
5.802727196448282
 31
0.0
  0
LINE
  5
5E8
330
18
100
AcDbEntity
  8
1
 62
     1
100
AcDbLine
 10
67.62866476460943
 20
5.839841305541757
 30
0.0
 11
67.0
 21
4.7509625
 31
0.0
  0
LINE
  5
5E9
330
18
100
AcDbEntity
  8
1
 62
     1
100
AcDbLine
 10
67.0
 20
4.7509625
 30
0.0
 11
66.27886752691896
 21
6.000000000000019
 31
0.0
  0
LINE
  5
5EA
330
18
100
AcDbEntity
  8
1
 62
     1
100
AcDbLine
 10
66.22113247308104
 20
6.0
 30
0.0
 11
65.50000000000001
 21
4.750962500000001
 31
0.0
  0
LINE
  5
5EB
330
18
100
AcDbEntity
  8
1
 62
     1
100
AcDbLine
 10
65.49999999999999
 20
4.7509625
 30
0.0
 11
64.77886752691896
 21
6.000000000000019
 31
0.0
  0
LINE
  5
5EC
330
18
100
AcDbEntity
  8
1
 62
     1
100
AcDbLine
 10
64.72113247308104
 20
6.0
 30
0.0
 11
64.0
 21
4.750962500000001
 31
0.0
  0
LINE
  5
5ED
330
18
100
AcDbEntity
  8
1
 62
     1
100
AcDbLine
 10
64.0
 20
4.7509625
 30
0.0
 11
63.27886752691898
 21
5.999999999999997
 31
0.0
  0
LINE
  5
5EE
330
18
100
AcDbEntity
  8
1
 62
     1
100
AcDbLine
 10
70.40352409875136
 20
5.449886415242296
 30
0.0
 11
70.0
 21
4.750962500000001
 31
0.0
  0
LINE
  5
5EF
330
18
100
AcDbEntity
  8
1
 62
     1
100
AcDbLine
 10
58.72113247308103
 20
6.0
 30
0.0
 11
58.00000000000001
 21
4.750962500000001
 31
0.0
  0
LINE
  5
5F0
330
18
100
AcDbEntity
  8
1
 62
     1
100
AcDbLine
 10
58.0
 20
4.7509625
 30
0.0
 11
57.27886752691897
 21
6.000000000000019
 31
0.0
  0
LINE
  5
5F1
330
18
100
AcDbEntity
  8
1
 62
     1
100
AcDbLine
 10
57.22113247308104
 20
6.000000000000019
 30
0.0
 11
56.5
 21
4.750962500000001
 31
0.0
  0
LINE
  5
5F2
330
18
100
AcDbEntity
  8
1
 62
     1
100
AcDbLine
 10
56.5
 20
4.750962500000001
 30
0.0
 11
55.77886752691896
 21
6.000000000000019
 31
0.0
  0
LINE
  5
5F3
330
18
100
AcDbEntity
  8
1
 62
     1
100
AcDbLine
 10
59.50000000000001
 20
4.750962500000001
 30
0.0
 11
58.77886752691897
 21
6.000000000000006
 31
0.0
  0
LINE
  5
5F4
330
18
100
AcDbEntity
  8
1
 62
     1
100
AcDbLine
 10
60.22113247308105
 20
6.000000000000007
 30
0.0
 11
59.50000000000001
 21
4.7509625
 31
0.0
  0
LINE
  5
5F5
330
18
100
AcDbEntity
  8
1
 62
     1
100
AcDbLine
 10
52.72113247308103
 20
6.000000000000006
 30
0.0
 11
52.0
 21
4.7509625
 31
0.0
  0
LINE
  5
5F6
330
18
100
AcDbEntity
  8
1
 62
     1
100
AcDbLine
 10
52.0
 20
4.7509625
 30
0.0
 11
51.44276132997268
 21
5.716127738420817
 31
0.0
  0
LINE
  5
5F7
330
18
100
AcDbEntity
  8
1
 62
     1
100
AcDbLine
 10
53.5
 20
4.7509625
 30
0.0
 11
52.77886752691897
 21
6.000000000000006
 31
0.0
  0
LINE
  5
5F8
330
18
100
AcDbEntity
  8
1
 62
     1
100
AcDbLine
 10
54.22113247308104
 20
6.000000000000007
 30
0.0
 11
53.5
 21
4.7509625
 31
0.0
  0
LINE
  5
5F9
330
18
100
AcDbEntity
  8
1
 62
     1
100
AcDbLine
 10
55.0
 20
4.7509625
 30
0.0
 11
54.27886752691896
 21
6.000000000000019
 31
0.0
  0
LINE
  5
5FA
330
18
100
AcDbEntity
  8
1
 62
     1
100
AcDbLine
 10
55.72113247308103
 20
6.0
 30
0.0
 11
55.0
 21
4.7509625
 31
0.0
  0
LINE
  5
5FB
330
18
100
AcDbEntity
  8
1
 62
     1
100
AcDbLine
 10
50.5
 20
4.7509625
 30
0.0
 11
50.28367054396247
 21
5.1256559343298
 31
0.0
  0
LINE
  5
5FC
330
18
100
AcDbEntity
  8
1
 62
     1
100
AcDbLine
 10
50.89660412205935
 20
5.437900669612888
 30
0.0
 11
50.5
 21
4.7509625
 31
0.0
  0
LINE
  5
5FD
330
18
100
AcDbEntity
  8
1
 62
     1
100
AcDbLine
 10
71.79095376582232
 20
-5.254908970092547
 30
0.0
 11
72.79011398185352
 21
-5.114495577730613
 31
0.0
  0
LINE
  5
5FE
330
18
100
AcDbEntity
  8
1
 62
     1
100
AcDbLine
 10
70.40352409875136
 20
-5.449886415242283
 30
0.0
 11
71.1576636833214
 21
-5.343906117303166
 31
0.0
  0
LINE
  5
5FF
330
18
100
AcDbEntity
  8
1
 62
     1
100
AcDbLine
 10
69.0160944316804
 20
-5.644863860392019
 30
0.0
 11
69.52521338478928
 21
-5.573316656875719
 31
0.0
  0
LINE
  5
600
330
18
100
AcDbEntity
  8
1
 62
     1
100
AcDbLine
 10
67.62866476460943
 20
-5.839841305541756
 30
0.0
 11
67.89276308625716
 21
-5.802727196448272
 31
0.0
  0
LINE
  5
601
330
18
100
AcDbEntity
  8
1
 62
     1
100
AcDbLine
 10
66.22113247308103
 20
-6.0
 30
0.0
 11
66.27886752691896
 21
-6.0
 31
0.0
  0
LINE
  5
602
330
18
100
AcDbEntity
  8
1
 62
     1
100
AcDbLine
 10
64.72113247308103
 20
-6.0
 30
0.0
 11
64.77886752691896
 21
-5.999999999999999
 31
0.0
  0
LINE
  5
603
330
18
100
AcDbEntity
  8
1
 62
     1
100
AcDbLine
 10
63.22113247308104
 20
-6.0
 30
0.0
 11
63.27886752691899
 21
-6.0
 31
0.0
  0
LINE
  5
604
330
18
100
AcDbEntity
  8
1
 62
     1
100
AcDbLine
 10
61.72113247308103
 20
-6.0
 30
0.0
 11
61.77886752691898
 21
-6.000000000000001
 31
0.0
  0
LINE
  5
605
330
18
100
AcDbEntity
  8
1
 62
     1
100
AcDbLine
 10
60.22113247308103
 20
-6.0
 30
0.0
 11
60.27886752691899
 21
-6.0
 31
0.0
  0
LINE
  5
606
330
18
100
AcDbEntity
  8
1
 62
     1
100
AcDbLine
 10
58.72113247308101
 20
-6.0
 30
0.0
 11
58.77886752691898
 21
-6.000000000000001
 31
0.0
  0
LINE
  5
607
330
18
100
AcDbEntity
  8
1
 62
     1
100
AcDbLine
 10
57.22113247308104
 20
-6.0
 30
0.0
 11
57.27886752691897
 21
-6.0
 31
0.0
  0
LINE
  5
608
330
18
100
AcDbEntity
  8
1
 62
     1
100
AcDbLine
 10
55.72113247308102
 20
-6.0
 30
0.0
 11
55.77886752691896
 21
-6.0
 31
0.0
  0
LINE
  5
609
330
18
100
AcDbEntity
  8
1
 62
     1
100
AcDbLine
 10
54.22113247308103
 20
-6.0
 30
0.0
 11
54.27886752691896
 21
-6.0
 31
0.0
  0
LINE
  5
60A
330
18
100
AcDbEntity
  8
1
 62
     1
100
AcDbLine
 10
52.72113247308103
 20
-6.0
 30
0.0
 11
52.77886752691898
 21
-6.0
 31
0.0
  0
LINE
  5
60B
330
18
100
AcDbEntity
  8
1
 62
     1
100
AcDbLine
 10
50.89660412205934
 20
-5.437900669612886
 30
0.0
 11
51.44276132997268
 21
-5.716127738420818
 31
0.0
  0
LINE
  5
60C
330
18
100
AcDbEntity
  8
1
 62
     1
100
AcDbLine
 10
49.05551363
 20
-4.5
 30
0.0
 11
50.28367054396247
 21
-5.125655934329799
 31
0.0
  0
LINE
  5
60D
330
18
100
AcDbEntity
  8
SK1
100
AcDbLine
 10
0.0000000000000089
 20
4.5
 30
0.0
 11
-17.00000000000001
 21
4.5
 31
0.0
  0
LINE
  5
60E
330
18
100
AcDbEntity
  8
SK1
100
AcDbLine
 10
-26.55
 20
-3.5
 30
0.0
 11
-17.00000000000001
 21
-3.5
 31
0.0
  0
LINE
  5
60F
330
18
100
AcDbEntity
  8
SK1
100
AcDbLine
 10
-17.00000000000001
 20
-3.499999999999964
 30
0.0
 11
-17.00000000000001
 21
-4.5
 31
0.0
  0
LINE
  5
610
330
18
100
AcDbEntity
  8
SK1
100
AcDbLine
 10
-26.55
 20
2.828427124746192
 30
0.0
 11
-17.00000000000001
 21
2.828427124746192
 31
0.0
  0
ARC
  5
611
330
18
100
AcDbEntity
  8
SK1
100
AcDbCircle
 10
-18.60494415542276
 20
-2.221132645441988
 30
0.0
 40
9.413623874698459
100
AcDbArc
 50
147.5615924265913
 51
153.1008352577507
  0
LINE
  5
612
330
18
100
AcDbEntity
  8
SK1
100
AcDbLine
 10
-26.55
 20
3.499999999999965
 30
0.0
 11
-26.55
 21
2.828427124746192
 31
0.0
  0
LINE
  5
613
330
18
100
AcDbEntity
  8
SK1
100
AcDbLine
 10
-27.0
 20
3.5
 30
0.0
 11
-26.55
 21
3.500000000000001
 31
0.0
  0
LINE
  5
614
330
18
100
AcDbEntity
  8
SK1
100
AcDbLine
 10
-17.00000000000001
 20
4.5
 30
0.0
 11
-17.00000000000001
 21
4.499790197742024
 31
0.0
  0
LINE
  5
615
330
18
100
AcDbEntity
  8
SK1
100
AcDbLine
 10
-17.00000000000001
 20
4.499790197742024
 30
0.0
 11
-17.00000000000001
 21
4.435752692613256
 31
0.0
  0
LINE
  5
616
330
18
100
AcDbEntity
  8
SK1
100
AcDbLine
 10
-17.00000000000001
 20
4.435752692613256
 30
0.0
 11
-17.00000000000001
 21
3.499999999999965
 31
0.0
  0
LINE
  5
617
330
18
100
AcDbEntity
  8
SK1
100
AcDbLine
 10
-26.55
 20
3.5
 30
0.0
 11
-17.00000000000001
 21
3.5
 31
0.0
  0
LINE
  5
618
330
18
100
AcDbEntity
  8
SK1
100
AcDbLine
 10
-27.00000000000001
 20
3.499999999999999
 30
0.0
 11
-27.00000000000001
 21
2.037768387231484
 31
0.0
  0
LINE
  5
619
330
18
100
AcDbEntity
  8
SK1
100
AcDbLine
 10
-27.0
 20
-2.037768387231483
 30
0.0
 11
-27.0
 21
-3.499999999999998
 31
0.0
  0
ARC
  5
61A
330
18
100
AcDbEntity
  8
SK1
100
AcDbCircle
 10
-18.60494415542368
 20
2.22113264544174
 30
0.0
 40
9.413623874697517
100
AcDbArc
 50
206.8991647422505
 51
212.4384075734103
  0
LINE
  5
61B
330
18
100
AcDbEntity
  8
SK1
100
AcDbLine
 10
-27.00000000000001
 20
-3.5
 30
0.0
 11
-26.55
 21
-3.5
 31
0.0
  0
LINE
  5
61C
330
18
100
AcDbEntity
  8
SK1
100
AcDbLine
 10
-26.55
 20
-2.828427124746232
 30
0.0
 11
-26.55
 21
-3.499999999999964
 31
0.0
  0
LINE
  5
61D
330
18
100
AcDbEntity
  8
SK1
100
AcDbLine
 10
-17.00000000000001
 20
2.828427124746515
 30
0.0
 11
-17.00000000000001
 21
-2.828427124746513
 31
0.0
  0
LINE
  5
61E
330
18
100
AcDbEntity
  8
SK1
100
AcDbLine
 10
-27.00000000000001
 20
2.037768387231484
 30
0.0
 11
-27.00000000000001
 21
-2.037768387231482
 31
0.0
  0
LINE
  5
61F
330
18
100
AcDbEntity
  8
SK1
100
AcDbLine
 10
-26.55
 20
-2.828427124746188
 30
0.0
 11
-17.00000000000001
 21
-2.828427124746188
 31
0.0
  0
LINE
  5
620
330
18
100
AcDbEntity
  8
SK1
100
AcDbLine
 10
-17.00000000000001
 20
-4.5
 30
0.0
 11
0.0000000000000018
 21
-4.5
 31
0.0
  0
DIMENSION
  5
621
330
18
100
AcDbEntity
  8
2
100
AcDbDimension
  2
*D0
 10
88.00000000000004
 20
-5.999999999999948
 30
0.0
 11
85.6022500000001
 21
-20.14474999999996
 31
0.0
 70
    32
  1
MF12x1.5
 71
     5
 42
12.0
  3
STANDARD
100
AcDbAlignedDimension
 13
73.0
 23
6.0
 33
0.0
 14
73.0
 24
-6.0
 34
0.0
 50
90.0000000000002
100
AcDbRotatedDimension
  0
DIMENSION
  5
62F
330
18
100
AcDbEntity
  8
2
100
AcDbDimension
  2
*D1
 10
73.0
 20
75.0
 30
0.0
 11
36.5
 21
77.39075
 31
0.0
 70
    32
  1
<>
 71
     5
 42
73.0
  3
STANDARD
100
AcDbAlignedDimension
 13
0.0
 23
0.0
 33
0.0
 14
73.0
 24
0.0
 34
0.0
100
AcDbRotatedDimension
  0
DIMENSION
  5
63C
330
18
100
AcDbEntity
  8
SK2
100
AcDbDimension
  2
*D2
 10
-41.99999999997704
 20
-4.500000000127585
 30
0.0
 11
-44.39075
 21
-0.0000000001397857
 31
0.0
 70
    32
  1
%%c<>
 71
     5
 42
9.0
  3
STANDARD
100
AcDbAlignedDimension
 13
-17.00000000000001
 23
4.5
 33
0.0
 14
-17.00000000000001
 24
-4.5
 34
0.0
 50
90.0000000002924
100
AcDbRotatedDimension
  0
DIMENSION
  5
649
330
18
100
AcDbEntity
  8
2
100
AcDbDimension
  2
*D3
 10
73.0
 20
60.0
 30
0.0
 11
61.027756815
 21
62.438
 31
0.0
 70
    32
  1
<>
 71
     5
 42
23.94448637
  3
STANDARD
100
AcDbAlignedDimension
 13
49.05551363
 23
4.3
 33
0.0
 14
73.0
 24
6.0
 34
0.0
100
AcDbRotatedDimension
  0
DIMENSION
  5
656
330
18
100
AcDbEntity
  8
SK2
100
AcDbDimension
  2
*D4
 10
73.0
 20
90.0
 30
0.0
 11
23.0
 21
92.39075
 31
0.0
 70
    32
  1
<>
 71
     5
 42
100.0
  3
STANDARD
100
AcDbAlignedDimension
 13
-27.0
 23
6.0
 33
0.0
 14
73.0
 24
6.0
 34
0.0
100
AcDbRotatedDimension
  0
ENDSEC
  0
SECTION
  2
OBJECTS
  0
DICTIONARY
  5
C
330
0
100
AcDbDictionary
281
     1
  3
ACAD_COLOR
350
387
  3
ACAD_GROUP
350
D
  3
ACAD_LAYOUT
350
301
  3
ACAD_MATERIAL
350
386
  3
ACAD_MLEADERSTYLE
350
663
  3
ACAD_MLINESTYLE
350
E
  3
ACAD_PLOTSETTINGS
350
302
  3
ACAD_PLOTSTYLENAME
350
2FF
  3
ACAD_SCALELIST
350
3A0
  3
ACAD_TABLESTYLE
350
388
  3
ACAD_VISUALSTYLE
350
3C5
  3
ACDBHEADERROUNDTRIPXREC
350
664
  3
AcDbVariableDictionary
350
357
  0
DICTIONARY
  5
387
102
{ACAD_REACTORS
330
C
102
}
330
C
100
AcDbDictionary
281
     1
  0
DICTIONARY
  5
D
102
{ACAD_REACTORS
330
C
102
}
330
C
100
AcDbDictionary
281
     1
  0
DICTIONARY
  5
301
102
{ACAD_REACTORS
330
C
102
}
330
C
100
AcDbDictionary
281
     1
  3
Layout1
350
33B
  3
Model
350
303
  0
DICTIONARY
  5
386
102
{ACAD_REACTORS
330
C
102
}
330
C
100
AcDbDictionary
281
     1
  3
ByBlock
350
3C3
  3
ByLayer
350
3C2
  3
Global
350
3C4
  0
DICTIONARY
  5
663
102
{ACAD_REACTORS
330
C
102
}
330
C
100
AcDbDictionary
281
     1
  0
DICTIONARY
  5
E
102
{ACAD_REACTORS
330
C
102
}
330
C
100
AcDbDictionary
281
     1
  3
STANDARD
350
1B
  0
DICTIONARY
  5
302
102
{ACAD_REACTORS
330
C
102
}
330
C
100
AcDbDictionary
281
     1
  0
ACDBDICTIONARYWDFLT
  5
2FF
102
{ACAD_REACTORS
330
C
102
}
330
C
100
AcDbDictionary
281
     1
  3
Normal
350
300
100
AcDbDictionaryWithDefault
340
300
  0
DICTIONARY
  5
3A0
102
{ACAD_REACTORS
330
C
102
}
330
C
100
AcDbDictionary
281
     1
  3
A0
350
3A1
  3
A1
350
3A2
  3
A2
350
3A3
  3
A3
350
3A4
  3
A4
350
3A5
  3
A5
350
3A6
  3
A6
350
3A7
  3
A7
350
3A8
  3
A8
350
3A9
  3
A9
350
3AA
  3
B0
350
3AB
  3
B1
350
3AC
  3
B2
350
3AD
  3
B3
350
3AE
  3
B4
350
3AF
  3
B5
350
3B0
  3
B6
350
3B1
  3
B7
350
3B2
  3
B8
350
3B3
  3
B9
350
3B4
  3
C0
350
3B5
  3
C1
350
3B6
  3
C2
350
3B7
  3
C3
350
3B8
  3
C4
350
3B9
  3
C5
350
3BA
  3
C6
350
3BB
  3
C7
350
3BC
  3
C8
350
3BD
  3
C9
350
3BE
  3
D0
350
3BF
  3
D1
350
3C0
  3
D2
350
3C1
  0
DICTIONARY
  5
388
102
{ACAD_REACTORS
330
C
102
}
330
C
100
AcDbDictionary
281
     1
  3
Standard
350
389
  0
DICTIONARY
  5
3C5
102
{ACAD_REACTORS
330
C
102
}
330
C
100
AcDbDictionary
281
     1
  3
2dWireframe
350
3CA
  3
3D Hidden
350
3CC
  3
3dWireframe
350
3CB
  3
Basic
350
3CD
  3
Brighten
350
3D1
  3
ColorChange
350
3D5
  3
Conceptual
350
3CF
  3
Dim
350
3D0
  3
Facepattern
350
3D4
  3
Flat
350
3C6
  3
FlatWithEdges
350
3C7
  3
Gouraud
350
3C8
  3
GouraudWithEdges
350
3C9
  3
Linepattern
350
3D3
  3
Realistic
350
3CE
  3
Thicken
350
3D2
  0
DICTIONARY
  5
664
102
{ACAD_REACTORS
330
C
102
}
330
C
100
AcDbDictionary
281
     1
  3
COLORDICT
350
665
  3
MATERIALDICT
350
666
  0
DICTIONARY
  5
357
102
{ACAD_REACTORS
330
C
102
}
330
C
100
AcDbDictionary
281
     1
  3
CANNOSCALE
350
667
  3
CTABLESTYLE
350
38D
  3
DIMASSOC
350
359
  3
HIDETEXT
350
358
  3
PROJECTNAME
350
38E
  0
LAYOUT
  5
33B
102
{ACAD_REACTORS
330
301
102
}
330
301
100
AcDbPlotSettings
  1

  2
Lexmark Optra PS2
  4

  6

 40
0.0
 41
0.0
 42
0.0
 43
0.0
 44
0.0
 45
0.0
 46
0.0
 47
0.0
 48
0.0
 49
0.0
140
0.0
141
0.0
142
1.0
143
1.0
 70
   688
 72
     0
 73
     0
 74
     5
  7
monochrome.ctb
 75
    16
147
1.0
148
0.0
149
0.0
100
AcDbLayout
  1
Layout1
 70
     1
 71
     1
 10
0.0
 20
0.0
 11
12.0
 21
9.0
 12
0.0
 22
0.0
 32
0.0
 14
0.0
 24
0.0
 34
0.0
 15
0.0
 25
0.0
 35
0.0
146
0.0
 13
0.0
 23
0.0
 33
0.0
 16
1.0
 26
0.0
 36
0.0
 17
0.0
 27
1.0
 37
0.0
 76
     0
330
338
  0
LAYOUT
  5
303
102
{ACAD_REACTORS
330
301
102
}
330
301
100
AcDbPlotSettings
  1

  2
Lexmark Optra Rx
  4
A4
  6

 40
6.805083274841307
 41
5.535083293914794
 42
6.974411010742187
 43
7.14373779296875
 44
209.9733276367186
 45
296.9259948730469
 46
0.0
 47
0.0
 48
0.0
 49
0.0
140
0.0
141
0.0
142
1.0
143
2.976565420630886
 70
 11952
 72
     1
 73
     1
 74
     0
  7
monochrome.ctb
 75
     0
147
0.335957675604539
148
204.1199660668592
149
172.3933209647495
100
AcDbLayout
  1
Model
 70
     1
 71
     0
 10
0.0
 20
0.0
 11
12.0
 21
9.0
 12
0.0
 22
0.0
 32
0.0
 14
0.0
 24
0.0
 34
0.0
 15
0.0
 25
0.0
 35
0.0
146
0.0
 13
0.0
 23
0.0
 33
0.0
 16
1.0
 26
0.0
 36
0.0
 17
0.0
 27
1.0
 37
0.0
 76
     0
330
18
331
39A
  0
MATERIAL
  5
3C3
102
{ACAD_REACTORS
330
386
102
}
102
{ACAD_XDICTIONARY
360
66A
102
}
330
386
100
AcDbMaterial
  1
ByBlock
  0
MATERIAL
  5
3C2
102
{ACAD_REACTORS
330
386
102
}
102
{ACAD_XDICTIONARY
360
668
102
}
330
386
100
AcDbMaterial
  1
ByLayer
  0
MATERIAL
  5
3C4
102
{ACAD_REACTORS
330
386
102
}
102
{ACAD_XDICTIONARY
360
66C
102
}
330
386
100
AcDbMaterial
  1
Global
  0
MLINESTYLE
  5
1B
102
{ACAD_REACTORS
330
E
102
}
330
E
100
AcDbMlineStyle
  2
STANDARD
 70
     0
  3

 62
     0
 51
90.0
 52
90.0
 71
     2
 49
0.5
 62
   256
  6
BYLAYER
 49
-0.5
 62
   256
  6
BYLAYER
  0
ACDBPLACEHOLDER
  5
300
102
{ACAD_REACTORS
330
2FF
102
}
330
2FF
  0
SCALE
  5
3A1
102
{ACAD_REACTORS
330
3A0
102
}
330
3A0
100
AcDbScale
 70
     0
300
1:1
140
1.0
141
1.0
290
     1
  0
SCALE
  5
3A2
102
{ACAD_REACTORS
330
3A0
102
}
330
3A0
100
AcDbScale
 70
     0
300
1:2
140
1.0
141
2.0
290
     0
  0
SCALE
  5
3A3
102
{ACAD_REACTORS
330
3A0
102
}
330
3A0
100
AcDbScale
 70
     0
300
1:4
140
1.0
141
4.0
290
     0
  0
SCALE
  5
3A4
102
{ACAD_REACTORS
330
3A0
102
}
330
3A0
100
AcDbScale
 70
     0
300
1:5
140
1.0
141
5.0
290
     0
  0
SCALE
  5
3A5
102
{ACAD_REACTORS
330
3A0
102
}
330
3A0
100
AcDbScale
 70
     0
300
1:8
140
1.0
141
8.0
290
     0
  0
SCALE
  5
3A6
102
{ACAD_REACTORS
330
3A0
102
}
330
3A0
100
AcDbScale
 70
     0
300
1:10
140
1.0
141
10.0
290
     0
  0
SCALE
  5
3A7
102
{ACAD_REACTORS
330
3A0
102
}
330
3A0
100
AcDbScale
 70
     0
300
1:16
140
1.0
141
16.0
290
     0
  0
SCALE
  5
3A8
102
{ACAD_REACTORS
330
3A0
102
}
330
3A0
100
AcDbScale
 70
     0
300
1:20
140
1.0
141
20.0
290
     0
  0
SCALE
  5
3A9
102
{ACAD_REACTORS
330
3A0
102
}
330
3A0
100
AcDbScale
 70
     0
300
1:30
140
1.0
141
30.0
290
     0
  0
SCALE
  5
3AA
102
{ACAD_REACTORS
330
3A0
102
}
330
3A0
100
AcDbScale
 70
     0
300
1:40
140
1.0
141
40.0
290
     0
  0
SCALE
  5
3AB
102
{ACAD_REACTORS
330
3A0
102
}
330
3A0
100
AcDbScale
 70
     0
300
1:50
140
1.0
141
50.0
290
     0
  0
SCALE
  5
3AC
102
{ACAD_REACTORS
330
3A0
102
}
330
3A0
100
AcDbScale
 70
     0
300
1:100
140
1.0
141
100.0
290
     0
  0
SCALE
  5
3AD
102
{ACAD_REACTORS
330
3A0
102
}
330
3A0
100
AcDbScale
 70
     0
300
2:1
140
2.0
141
1.0
290
     0
  0
SCALE
  5
3AE
102
{ACAD_REACTORS
330
3A0
102
}
330
3A0
100
AcDbScale
 70
     0
300
4:1
140
4.0
141
1.0
290
     0
  0
SCALE
  5
3AF
102
{ACAD_REACTORS
330
3A0
102
}
330
3A0
100
AcDbScale
 70
     0
300
8:1
140
8.0
141
1.0
290
     0
  0
SCALE
  5
3B0
102
{ACAD_REACTORS
330
3A0
102
}
330
3A0
100
AcDbScale
 70
     0
300
10:1
140
10.0
141
1.0
290
     0
  0
SCALE
  5
3B1
102
{ACAD_REACTORS
330
3A0
102
}
330
3A0
100
AcDbScale
 70
     0
300
100:1
140
100.0
141
1.0
290
     0
  0
SCALE
  5
3B2
102
{ACAD_REACTORS
330
3A0
102
}
330
3A0
100
AcDbScale
 70
     0
300
1/128" = 1'-0"
140
0.0078125
141
12.0
290
     0
  0
SCALE
  5
3B3
102
{ACAD_REACTORS
330
3A0
102
}
330
3A0
100
AcDbScale
 70
     0
300
1/64" = 1'-0"
140
0.015625
141
12.0
290
     0
  0
SCALE
  5
3B4
102
{ACAD_REACTORS
330
3A0
102
}
330
3A0
100
AcDbScale
 70
     0
300
1/32" = 1'-0"
140
0.03125
141
12.0
290
     0
  0
SCALE
  5
3B5
102
{ACAD_REACTORS
330
3A0
102
}
330
3A0
100
AcDbScale
 70
     0
300
1/16" = 1'-0"
140
0.0625
141
12.0
290
     0
  0
SCALE
  5
3B6
102
{ACAD_REACTORS
330
3A0
102
}
330
3A0
100
AcDbScale
 70
     0
300
3/32" = 1'-0"
140
0.09375
141
12.0
290
     0
  0
SCALE
  5
3B7
102
{ACAD_REACTORS
330
3A0
102
}
330
3A0
100
AcDbScale
 70
     0
300
1/8" = 1'-0"
140
0.125
141
12.0
290
     0
  0
SCALE
  5
3B8
102
{ACAD_REACTORS
330
3A0
102
}
330
3A0
100
AcDbScale
 70
     0
300
3/16" = 1'-0"
140
0.1875
141
12.0
290
     0
  0
SCALE
  5
3B9
102
{ACAD_REACTORS
330
3A0
102
}
330
3A0
100
AcDbScale
 70
     0
300
1/4" = 1'-0"
140
0.25
141
12.0
290
     0
  0
SCALE
  5
3BA
102
{ACAD_REACTORS
330
3A0
102
}
330
3A0
100
AcDbScale
 70
     0
300
3/8" = 1'-0"
140
0.375
141
12.0
290
     0
  0
SCALE
  5
3BB
102
{ACAD_REACTORS
330
3A0
102
}
330
3A0
100
AcDbScale
 70
     0
300
1/2" = 1'-0"
140
0.5
141
12.0
290
     0
  0
SCALE
  5
3BC
102
{ACAD_REACTORS
330
3A0
102
}
330
3A0
100
AcDbScale
 70
     0
300
3/4" = 1'-0"
140
0.75
141
12.0
290
     0
  0
SCALE
  5
3BD
102
{ACAD_REACTORS
330
3A0
102
}
330
3A0
100
AcDbScale
 70
     0
300
1" = 1'-0"
140
1.0
141
12.0
290
     0
  0
SCALE
  5
3BE
102
{ACAD_REACTORS
330
3A0
102
}
330
3A0
100
AcDbScale
 70
     0
300
1-1/2" = 1'-0"
140
1.5
141
12.0
290
     0
  0
SCALE
  5
3BF
102
{ACAD_REACTORS
330
3A0
102
}
330
3A0
100
AcDbScale
 70
     0
300
3" = 1'-0"
140
3.0
141
12.0
290
     0
  0
SCALE
  5
3C0
102
{ACAD_REACTORS
330
3A0
102
}
330
3A0
100
AcDbScale
 70
     0
300
6" = 1'-0"
140
6.0
141
12.0
290
     0
  0
SCALE
  5
3C1
102
{ACAD_REACTORS
330
3A0
102
}
330
3A0
100
AcDbScale
 70
     0
300
1'-0" = 1'-0"
140
12.0
141
12.0
290
     0
  0
TABLESTYLE
  5
389
102
{ACAD_REACTORS
330
388
102
}
330
388
100
AcDbTableStyle
  3
Standard
 70
     0
 71
     0
 40
1.5
 41
1.5
280
     0
281
     0
  7
STANDARD
140
4.5
170
     2
 62
     0
 63
   257
283
     0
274
    -2
284
     1
 64
     0
275
    -2
285
     1
 65
     0
276
    -2
286
     1
 66
     0
277
    -2
287
     1
 67
     0
278
    -2
288
     1
 68
     0
279
    -2
289
     1
 69
     0
  7
STANDARD
140
6.0
170
     5
 62
     0
 63
   257
283
     0
274
    -2
284
     1
 64
     0
275
    -2
285
     1
 65
     0
276
    -2
286
     1
 66
     0
277
    -2
287
     1
 67
     0
278
    -2
288
     1
 68
     0
279
    -2
289
     1
 69
     0
  7
STANDARD
140
4.5
170
     5
 62
     0
 63
   257
283
     0
274
    -2
284
     1
 64
     0
275
    -2
285
     1
 65
     0
276
    -2
286
     1
 66
     0
277
    -2
287
     1
 67
     0
278
    -2
288
     1
 68
     0
279
    -2
289
     1
 69
     0
  0
VISUALSTYLE
  5
3CA
102
{ACAD_REACTORS
330
3C5
102
}
102
{ACAD_XDICTIONARY
360
676
102
}
330
3C5
100
AcDbVisualStyle
  2
2dWireframe
 70
     4
 71
     0
 72
     2
 73
     0
 90
        0
 40
-0.6
 41
-30.0
 62
     5
 63
     7
 74
     1
 91
        4
 64
     7
 65
   257
 75
     1
175
     1
 42
1.0
 92
        0
 66
   257
 43
1.0
 76
     1
 77
     6
 78
     2
 67
     7
 79
     5
170
     0
171
     0
290
     0
174
     0
 93
        1
 44
0.0
173
     0
291
     0
 45
0.0
1001
ACAD
1000
AcDbSavedByObjectVersion
1070
     0
  0
VISUALSTYLE
  5
3CC
102
{ACAD_REACTORS
330
3C5
102
}
102
{ACAD_XDICTIONARY
360
67A
102
}
330
3C5
100
AcDbVisualStyle
  2
3D Hidden
 70
     6
 71
     1
 72
     2
 73
     2
 90
        0
 40
-0.6
 41
-30.0
 62
     5
 63
     7
 74
     2
 91
        2
 64
     7
 65
   257
 75
     2
175
     1
 42
40.0
 92
        0
 66
   257
 43
1.0
 76
     1
 77
     6
 78
     2
 67
     7
 79
     3
170
     0
171
     0
290
     0
174
     0
 93
        1
 44
0.0
173
     0
291
     0
 45
0.0
1001
ACAD
1000
AcDbSavedByObjectVersion
1070
     0
  0
VISUALSTYLE
  5
3CB
102
{ACAD_REACTORS
330
3C5
102
}
102
{ACAD_XDICTIONARY
360
678
102
}
330
3C5
100
AcDbVisualStyle
  2
3dWireframe
 70
     5
 71
     0
 72
     2
 73
     0
 90
        0
 40
-0.6
 41
-30.0
 62
     5
 63
     7
 74
     1
 91
        4
 64
     7
 65
   257
 75
     1
175
     1
 42
1.0
 92
        0
 66
   257
 43
1.0
 76
     1
 77
     6
 78
     2
 67
     7
 79
     5
170
     0
171
     0
290
     0
174
     0
 93
        1
 44
0.0
173
     0
291
     0
 45
0.0
1001
ACAD
1000
AcDbSavedByObjectVersion
1070
     0
  0
VISUALSTYLE
  5
3CD
102
{ACAD_REACTORS
330
3C5
102
}
102
{ACAD_XDICTIONARY
360
67C
102
}
330
3C5
100
AcDbVisualStyle
  2
Basic
 70
     7
 71
     1
 72
     0
 73
     1
 90
        0
 40
-0.6
 41
-30.0
 62
     5
 63
     7
 74
     0
 91
        4
 64
     7
 65
   257
 75
     1
175
     1
 42
1.0
 92
        8
 66
     7
 43
1.0
 76
     1
 77
     6
 78
     2
 67
     7
 79
     5
170
     0
171
     0
290
     0
174
     0
 93
        1
 44
0.0
173
     0
291
     1
 45
0.0
1001
ACAD
1000
AcDbSavedByObjectVersion
1070
     0
  0
VISUALSTYLE
  5
3D1
102
{ACAD_REACTORS
330
3C5
102
}
102
{ACAD_XDICTIONARY
360
684
102
}
330
3C5
100
AcDbVisualStyle
  2
Brighten
 70
    12
 71
     2
 72
     2
 73
     0
 90
        0
 40
-0.6
 41
-30.0
 62
     5
 63
     7
 74
     1
 91
        4
 64
     7
 65
   257
 75
     1
175
     1
 42
1.0
 92
        8
 66
     7
 43
1.0
 76
     1
 77
     6
 78
     2
 67
     7
 79
     5
170
     0
171
     0
290
     0
174
     0
 93
        1
 44
50.0
173
     0
291
     1
 45
0.0
1001
ACAD
1000
AcDbSavedByObjectVersion
1070
     0
  0
VISUALSTYLE
  5
3D5
102
{ACAD_REACTORS
330
3C5
102
}
102
{ACAD_XDICTIONARY
360
68C
102
}
330
3C5
100
AcDbVisualStyle
  2
ColorChange
 70
    16
 71
     2
 72
     2
 73
     3
 90
        0
 40
-0.6
 41
-30.0
 62
     5
 63
     8
 74
     1
 91
        4
 64
     7
 65
   257
 75
     1
175
     1
 42
1.0
 92
        8
 66
     8
 43
1.0
 76
     1
 77
     6
 78
     2
 67
     7
 79
     5
170
     0
171
     0
290
     0
174
     0
 93
        1
 44
0.0
173
     0
291
     1
 45
0.0
1001
ACAD
1000
AcDbSavedByObjectVersion
1070
     0
  0
VISUALSTYLE
  5
3CF
102
{ACAD_REACTORS
330
3C5
102
}
102
{ACAD_XDICTIONARY
360
680
102
}
330
3C5
100
AcDbVisualStyle
  2
Conceptual
 70
     9
 71
     3
 72
     2
 73
     0
 90
        0
 40
-0.6
 41
-30.0
 62
     5
 63
     7
 74
     2
 91
        2
 64
     7
 65
   257
 75
     1
175
     1
 42
40.0
 92
        8
 66
     7
 43
1.0
 76
     1
 77
     6
 78
     2
 67
     7
 79
     3
170
     0
171
     0
290
     0
174
     0
 93
        1
 44
0.0
173
     0
291
     0
 45
0.0
1001
ACAD
1000
AcDbSavedByObjectVersion
1070
     0
  0
VISUALSTYLE
  5
3D0
102
{ACAD_REACTORS
330
3C5
102
}
102
{ACAD_XDICTIONARY
360
682
102
}
330
3C5
100
AcDbVisualStyle
  2
Dim
 70
    11
 71
     2
 72
     2
 73
     0
 90
        0
 40
-0.6
 41
-30.0
 62
     5
 63
     7
 74
     1
 91
        4
 64
     7
 65
   257
 75
     1
175
     1
 42
1.0
 92
        8
 66
     7
 43
1.0
 76
     1
 77
     6
 78
     2
 67
     7
 79
     5
170
     0
171
     0
290
     0
174
     0
 93
        1
 44
-50.0
173
     0
291
     1
 45
0.0
1001
ACAD
1000
AcDbSavedByObjectVersion
1070
     0
  0
VISUALSTYLE
  5
3D4
102
{ACAD_REACTORS
330
3C5
102
}
102
{ACAD_XDICTIONARY
360
68A
102
}
330
3C5
100
AcDbVisualStyle
  2
Facepattern
 70
    15
 71
     2
 72
     2
 73
     0
 90
        0
 40
-0.6
 41
-30.0
 62
     5
 63
     7
 74
     1
 91
        4
 64
     7
 65
   257
 75
     1
175
     1
 42
1.0
 92
        8
 66
     7
 43
1.0
 76
     1
 77
     6
 78
     2
 67
     7
 79
     5
170
     0
171
     0
290
     0
174
     0
 93
        1
 44
0.0
173
     0
291
     1
 45
0.0
1001
ACAD
1000
AcDbSavedByObjectVersion
1070
     0
  0
VISUALSTYLE
  5
3C6
102
{ACAD_REACTORS
330
3C5
102
}
102
{ACAD_XDICTIONARY
360
66E
102
}
330
3C5
100
AcDbVisualStyle
  2
Flat
 70
     0
 71
     2
 72
     1
 73
     1
 90
        2
 40
-0.6
 41
30.0
 62
     5
 63
     7
 74
     0
 91
        4
 64
     7
 65
   257
 75
     1
175
     1
 42
1.0
 92
        8
 66
     7
 43
1.0
 76
     1
 77
     6
 78
     2
 67
     7
 79
     5
170
     0
171
     0
290
     0
174
     0
 93
       13
 44
0.0
173
     0
291
     1
 45
0.0
1001
ACAD
1000
AcDbSavedByObjectVersion
1070
     0
  0
VISUALSTYLE
  5
3C7
102
{ACAD_REACTORS
330
3C5
102
}
102
{ACAD_XDICTIONARY
360
670
102
}
330
3C5
100
AcDbVisualStyle
  2
FlatWithEdges
 70
     1
 71
     2
 72
     1
 73
     1
 90
        2
 40
-0.6
 41
30.0
 62
     5
 63
     7
 74
     1
 91
        4
 64
     7
 65
   257
 75
     1
175
     1
 42
1.0
 92
        0
 66
   257
 43
1.0
 76
     1
 77
     6
 78
     2
 67
     7
 79
     5
170
     0
171
     0
290
     0
174
     0
 93
       13
 44
0.0
173
     0
291
     1
 45
0.0
1001
ACAD
1000
AcDbSavedByObjectVersion
1070
     0
  0
VISUALSTYLE
  5
3C8
102
{ACAD_REACTORS
330
3C5
102
}
102
{ACAD_XDICTIONARY
360
672
102
}
330
3C5
100
AcDbVisualStyle
  2
Gouraud
 70
     2
 71
     2
 72
     2
 73
     1
 90
        2
 40
-0.6
 41
30.0
 62
     5
 63
     7
 74
     0
 91
        4
 64
     7
 65
   257
 75
     1
175
     1
 42
1.0
 92
        0
 66
     7
 43
1.0
 76
     1
 77
     6
 78
     2
 67
     7
 79
     5
170
     0
171
     0
290
     0
174
     0
 93
       13
 44
0.0
173
     0
291
     1
 45
0.0
1001
ACAD
1000
AcDbSavedByObjectVersion
1070
     0
  0
VISUALSTYLE
  5
3C9
102
{ACAD_REACTORS
330
3C5
102
}
102
{ACAD_XDICTIONARY
360
674
102
}
330
3C5
100
AcDbVisualStyle
  2
GouraudWithEdges
 70
     3
 71
     2
 72
     2
 73
     1
 90
        2
 40
-0.6
 41
30.0
 62
     5
 63
     7
 74
     1
 91
        4
 64
     7
 65
   257
 75
     1
175
     1
 42
1.0
 92
        0
 66
   257
 43
1.0
 76
     1
 77
     6
 78
     2
 67
     7
 79
     5
170
     0
171
     0
290
     0
174
     0
 93
       13
 44
0.0
173
     0
291
     1
 45
0.0
1001
ACAD
1000
AcDbSavedByObjectVersion
1070
     0
  0
VISUALSTYLE
  5
3D3
102
{ACAD_REACTORS
330
3C5
102
}
102
{ACAD_XDICTIONARY
360
688
102
}
330
3C5
100
AcDbVisualStyle
  2
Linepattern
 70
    14
 71
     2
 72
     2
 73
     0
 90
        0
 40
-0.6
 41
-30.0
 62
     5
 63
     7
 74
     1
 91
        4
 64
     7
 65
   257
 75
     7
175
     7
 42
1.0
 92
        8
 66
     7
 43
1.0
 76
     1
 77
     6
 78
     2
 67
     7
 79
     5
170
     0
171
     0
290
     0
174
     0
 93
        1
 44
0.0
173
     0
291
     1
 45
0.0
1001
ACAD
1000
AcDbSavedByObjectVersion
1070
     0
  0
VISUALSTYLE
  5
3CE
102
{ACAD_REACTORS
330
3C5
102
}
102
{ACAD_XDICTIONARY
360
67E
102
}
330
3C5
100
AcDbVisualStyle
  2
Realistic
 70
     8
 71
     2
 72
     2
 73
     0
 90
        0
 40
-0.6
 41
-30.0
 62
     5
 63
     7
 74
     1
 91
        0
 64
     7
 65
   257
 75
     1
175
     1
 42
1.0
 92
        8
 66
     8
 43
1.0
 76
     1
 77
     6
 78
     2
 67
     7
 79
     5
170
     0
171
     0
290
     0
174
     0
 93
       13
 44
0.0
173
     0
291
     0
 45
0.0
1001
ACAD
1000
AcDbSavedByObjectVersion
1070
     0
  0
VISUALSTYLE
  5
3D2
102
{ACAD_REACTORS
330
3C5
102
}
102
{ACAD_XDICTIONARY
360
686
102
}
330
3C5
100
AcDbVisualStyle
  2
Thicken
 70
    13
 71
     2
 72
     2
 73
     0
 90
        0
 40
-0.6
 41
-30.0
 62
     5
 63
     7
 74
     1
 91
        4
 64
     7
 65
   257
 75
     1
175
     1
 42
1.0
 92
       12
 66
     7
 43
1.0
 76
     1
 77
     6
 78
     2
 67
     7
 79
     5
170
     0
171
     0
290
     0
174
     0
 93
        1
 44
0.0
173
     0
291
     1
 45
0.0
1001
ACAD
1000
AcDbSavedByObjectVersion
1070
     0
  0
XRECORD
  5
665
102
{ACAD_REACTORS
330
664
102
}
330
664
100
AcDbXrecord
280
     1
340
387
  0
XRECORD
  5
666
102
{ACAD_REACTORS
330
664
102
}
330
664
100
AcDbXrecord
280
     1
340
386
  0
DICTIONARYVAR
  5
667
102
{ACAD_REACTORS
330
357
102
}
330
357
100
DictionaryVariables
280
     0
  1
1:1
  0
DICTIONARYVAR
  5
38D
102
{ACAD_REACTORS
330
357
102
}
330
357
100
DictionaryVariables
280
     0
  1
Standard
  0
DICTIONARYVAR
  5
359
102
{ACAD_REACTORS
330
357
102
}
330
357
100
DictionaryVariables
280
     0
  1
2
  0
DICTIONARYVAR
  5
358
102
{ACAD_REACTORS
330
357
102
}
330
357
100
DictionaryVariables
280
     0
  1
1
  0
DICTIONARYVAR
  5
38E
102
{ACAD_REACTORS
330
357
102
}
330
357
100
DictionaryVariables
280
     0
  1

  0
DICTIONARY
  5
66A
330
3C3
100
AcDbDictionary
280
     1
281
     1
  3
ACAD_XREC_ROUNDTRIP
360
66B
  0
DICTIONARY
  5
668
330
3C2
100
AcDbDictionary
280
     1
281
     1
  3
ACAD_XREC_ROUNDTRIP
360
669
  0
DICTIONARY
  5
66C
330
3C4
100
AcDbDictionary
280
     1
281
     1
  3
ACAD_XREC_ROUNDTRIP
360
66D
  0
DICTIONARY
  5
676
330
3CA
100
AcDbDictionary
280
     1
281
     1
  3
ACAD_XREC_ROUNDTRIP
360
677
  0
DICTIONARY
  5
67A
330
3CC
100
AcDbDictionary
280
     1
281
     1
  3
ACAD_XREC_ROUNDTRIP
360
67B
  0
DICTIONARY
  5
678
330
3CB
100
AcDbDictionary
280
     1
281
     1
  3
ACAD_XREC_ROUNDTRIP
360
679
  0
DICTIONARY
  5
67C
330
3CD
100
AcDbDictionary
280
     1
281
     1
  3
ACAD_XREC_ROUNDTRIP
360
67D
  0
DICTIONARY
  5
684
330
3D1
100
AcDbDictionary
280
     1
281
     1
  3
ACAD_XREC_ROUNDTRIP
360
685
  0
DICTIONARY
  5
68C
330
3D5
100
AcDbDictionary
280
     1
281
     1
  3
ACAD_XREC_ROUNDTRIP
360
68D
  0
DICTIONARY
  5
680
330
3CF
100
AcDbDictionary
280
     1
281
     1
  3
ACAD_XREC_ROUNDTRIP
360
681
  0
DICTIONARY
  5
682
330
3D0
100
AcDbDictionary
280
     1
281
     1
  3
ACAD_XREC_ROUNDTRIP
360
683
  0
DICTIONARY
  5
68A
330
3D4
100
AcDbDictionary
280
     1
281
     1
  3
ACAD_XREC_ROUNDTRIP
360
68B
  0
DICTIONARY
  5
66E
330
3C6
100
AcDbDictionary
280
     1
281
     1
  3
ACAD_XREC_ROUNDTRIP
360
66F
  0
DICTIONARY
  5
670
330
3C7
100
AcDbDictionary
280
     1
281
     1
  3
ACAD_XREC_ROUNDTRIP
360
671
  0
DICTIONARY
  5
672
330
3C8
100
AcDbDictionary
280
     1
281
     1
  3
ACAD_XREC_ROUNDTRIP
360
673
  0
DICTIONARY
  5
674
330
3C9
100
AcDbDictionary
280
     1
281
     1
  3
ACAD_XREC_ROUNDTRIP
360
675
  0
DICTIONARY
  5
688
330
3D3
100
AcDbDictionary
280
     1
281
     1
  3
ACAD_XREC_ROUNDTRIP
360
689
  0
DICTIONARY
  5
67E
330
3CE
100
AcDbDictionary
280
     1
281
     1
  3
ACAD_XREC_ROUNDTRIP
360
67F
  0
DICTIONARY
  5
686
330
3D2
100
AcDbDictionary
280
     1
281
     1
  3
ACAD_XREC_ROUNDTRIP
360
687
  0
XRECORD
  5
66B
102
{ACAD_REACTORS
330
66A
102
}
330
66A
100
AcDbXrecord
280
     1
102
MATERIAL
148
0.0
149
0.0
149
0.0
 93
        0
 94
      127
282
     0
 72
     1
 77
     1
171
     1
175
     1
179
     1
273
     0
  0
XRECORD
  5
669
102
{ACAD_REACTORS
330
668
102
}
330
668
100
AcDbXrecord
280
     1
102
MATERIAL
148
0.0
149
0.0
149
0.0
 93
        0
 94
      127
282
     0
 72
     1
 77
     1
171
     1
175
     1
179
     1
273
     0
  0
XRECORD
  5
66D
102
{ACAD_REACTORS
330
66C
102
}
330
66C
100
AcDbXrecord
280
     1
102
MATERIAL
148
0.0
149
0.0
149
0.0
 93
        0
 94
      127
282
     0
 72
     1
 77
     1
171
     1
175
     1
179
     1
273
     0
  0
XRECORD
  5
677
102
{ACAD_REACTORS
330
676
102
}
330
676
100
AcDbXrecord
280
     1
102
RTVSPropertyOp0
 70
     1
102
RTVSPropertyOp1
 70
     1
102
RTVSPropertyOp2
 70
     1
102
RTVSPropertyOp3
 70
     1
102
RTVSPropertyOp4
 70
     1
102
RTVSPropertyOp5
 70
     1
102
RTVSPropertyOp6
 70
     1
102
RTVSPropertyOp7
 70
     1
102
RTVSPropertyOp8
 70
     1
102
RTVSPropertyOp9
 70
     1
102
RTVSPropertyOp10
 70
     1
102
RTVSPropertyOp11
 70
     1
102
RTVSPropertyOp12
 70
     1
102
RTVSPropertyOp13
 70
     1
102
RTVSPropertyOp14
 70
     1
102
RTVSPropertyOp15
 70
     1
102
RTVSPropertyOp16
 70
     1
102
RTVSPropertyOp17
 70
     1
102
RTVSPropertyOp18
 70
     1
102
RTVSPropertyOp19
 70
     1
102
RTVSPropertyOp20
 70
     1
102
RTVSPropertyOp21
 70
     1
102
RTVSPropertyOp22
 70
     1
102
RTVSPropertyOp23
 70
     1
102
RTVSPropertyOp24
 70
     1
102
RTVSPropertyOp25
 70
     1
102
RTVSPropertyOp26
 70
     1
102
RTVSPropertyOp27
 70
     1
102
RTVSPropertyOp28
 70
     1
102
RTVSPropertyOp29
 70
     1
102
RTVSPropertyOp30
 70
     1
102
RTVSPropertyOp31
 70
     1
102
RTVSPropertyOp32
 70
     1
  0
XRECORD
  5
67B
102
{ACAD_REACTORS
330
67A
102
}
330
67A
100
AcDbXrecord
280
     1
102
RTVSPropertyOp0
 70
     1
102
RTVSPropertyOp1
 70
     1
102
RTVSPropertyOp2
 70
     1
102
RTVSPropertyOp3
 70
     1
102
RTVSPropertyOp4
 70
     1
102
RTVSPropertyOp5
 70
     1
102
RTVSPropertyOp6
 70
     1
102
RTVSPropertyOp7
 70
     1
102
RTVSPropertyOp8
 70
     1
102
RTVSPropertyOp9
 70
     1
102
RTVSPropertyOp10
 70
     1
102
RTVSPropertyOp11
 70
     1
102
RTVSPropertyOp12
 70
     1
102
RTVSPropertyOp13
 70
     1
102
RTVSPropertyOp14
 70
     1
102
RTVSPropertyOp15
 70
     1
102
RTVSPropertyOp16
 70
     1
102
RTVSPropertyOp17
 70
     1
102
RTVSPropertyOp18
 70
     1
102
RTVSPropertyOp19
 70
     1
102
RTVSPropertyOp20
 70
     1
102
RTVSPropertyOp21
 70
     1
102
RTVSPropertyOp22
 70
     1
102
RTVSPropertyOp23
 70
     1
102
RTVSPropertyOp24
 70
     1
102
RTVSPropertyOp25
 70
     1
102
RTVSPropertyOp26
 70
     1
102
RTVSPropertyOp27
 70
     1
102
RTVSPropertyOp28
 70
     1
102
RTVSPropertyOp29
 70
     1
102
RTVSPropertyOp30
 70
     1
102
RTVSPropertyOp31
 70
     1
102
RTVSPropertyOp32
 70
     1
  0
XRECORD
  5
679
102
{ACAD_REACTORS
330
678
102
}
330
678
100
AcDbXrecord
280
     1
102
RTVSPropertyOp0
 70
     1
102
RTVSPropertyOp1
 70
     1
102
RTVSPropertyOp2
 70
     1
102
RTVSPropertyOp3
 70
     1
102
RTVSPropertyOp4
 70
     1
102
RTVSPropertyOp5
 70
     1
102
RTVSPropertyOp6
 70
     1
102
RTVSPropertyOp7
 70
     1
102
RTVSPropertyOp8
 70
     1
102
RTVSPropertyOp9
 70
     1
102
RTVSPropertyOp10
 70
     1
102
RTVSPropertyOp11
 70
     1
102
RTVSPropertyOp12
 70
     1
102
RTVSPropertyOp13
 70
     1
102
RTVSPropertyOp14
 70
     1
102
RTVSPropertyOp15
 70
     1
102
RTVSPropertyOp16
 70
     1
102
RTVSPropertyOp17
 70
     1
102
RTVSPropertyOp18
 70
     1
102
RTVSPropertyOp19
 70
     1
102
RTVSPropertyOp20
 70
     1
102
RTVSPropertyOp21
 70
     1
102
RTVSPropertyOp22
 70
     1
102
RTVSPropertyOp23
 70
     1
102
RTVSPropertyOp24
 70
     1
102
RTVSPropertyOp25
 70
     1
102
RTVSPropertyOp26
 70
     1
102
RTVSPropertyOp27
 70
     1
102
RTVSPropertyOp28
 70
     1
102
RTVSPropertyOp29
 70
     1
102
RTVSPropertyOp30
 70
     1
102
RTVSPropertyOp31
 70
     1
102
RTVSPropertyOp32
 70
     1
  0
XRECORD
  5
67D
102
{ACAD_REACTORS
330
67C
102
}
330
67C
100
AcDbXrecord
280
     1
102
RTVSPropertyOp0
 70
     1
102
RTVSPropertyOp1
 70
     1
102
RTVSPropertyOp2
 70
     1
102
RTVSPropertyOp3
 70
     1
102
RTVSPropertyOp4
 70
     1
102
RTVSPropertyOp5
 70
     1
102
RTVSPropertyOp6
 70
     1
102
RTVSPropertyOp7
 70
     1
102
RTVSPropertyOp8
 70
     1
102
RTVSPropertyOp9
 70
     1
102
RTVSPropertyOp10
 70
     1
102
RTVSPropertyOp11
 70
     1
102
RTVSPropertyOp12
 70
     1
102
RTVSPropertyOp13
 70
     1
102
RTVSPropertyOp14
 70
     1
102
RTVSPropertyOp15
 70
     1
102
RTVSPropertyOp16
 70
     1
102
RTVSPropertyOp17
 70
     1
102
RTVSPropertyOp18
 70
     1
102
RTVSPropertyOp19
 70
     1
102
RTVSPropertyOp20
 70
     1
102
RTVSPropertyOp21
 70
     1
102
RTVSPropertyOp22
 70
     1
102
RTVSPropertyOp23
 70
     1
102
RTVSPropertyOp24
 70
     1
102
RTVSPropertyOp25
 70
     1
102
RTVSPropertyOp26
 70
     1
102
RTVSPropertyOp27
 70
     1
102
RTVSPropertyOp28
 70
     1
102
RTVSPropertyOp29
 70
     1
102
RTVSPropertyOp30
 70
     1
102
RTVSPropertyOp31
 70
     1
102
RTVSPropertyOp32
 70
     1
  0
XRECORD
  5
685
102
{ACAD_REACTORS
330
684
102
}
330
684
100
AcDbXrecord
280
     1
102
RTVSPropertyOp0
 70
     1
102
RTVSPropertyOp1
 70
     1
102
RTVSPropertyOp2
 70
     1
102
RTVSPropertyOp3
 70
     1
102
RTVSPropertyOp4
 70
     1
102
RTVSPropertyOp5
 70
     1
102
RTVSPropertyOp6
 70
     1
102
RTVSPropertyOp7
 70
     1
102
RTVSPropertyOp8
 70
     1
102
RTVSPropertyOp9
 70
     1
102
RTVSPropertyOp10
 70
     1
102
RTVSPropertyOp11
 70
     1
102
RTVSPropertyOp12
 70
     1
102
RTVSPropertyOp13
 70
     1
102
RTVSPropertyOp14
 70
     1
102
RTVSPropertyOp15
 70
     1
102
RTVSPropertyOp16
 70
     1
102
RTVSPropertyOp17
 70
     1
102
RTVSPropertyOp18
 70
     1
102
RTVSPropertyOp19
 70
     1
102
RTVSPropertyOp20
 70
     1
102
RTVSPropertyOp21
 70
     1
102
RTVSPropertyOp22
 70
     1
102
RTVSPropertyOp23
 70
     1
102
RTVSPropertyOp24
 70
     1
102
RTVSPropertyOp25
 70
     1
102
RTVSPropertyOp26
 70
     1
102
RTVSPropertyOp27
 70
     1
102
RTVSPropertyOp28
 70
     1
102
RTVSPropertyOp29
 70
     1
102
RTVSPropertyOp30
 70
     1
102
RTVSPropertyOp31
 70
     1
102
RTVSPropertyOp32
 70
     1
  0
XRECORD
  5
68D
102
{ACAD_REACTORS
330
68C
102
}
330
68C
100
AcDbXrecord
280
     1
102
RTVSPropertyOp0
 70
     1
102
RTVSPropertyOp1
 70
     1
102
RTVSPropertyOp2
 70
     1
102
RTVSPropertyOp3
 70
     1
102
RTVSPropertyOp4
 70
     1
102
RTVSPropertyOp5
 70
     1
102
RTVSPropertyOp6
 70
     1
102
RTVSPropertyOp7
 70
     1
102
RTVSPropertyOp8
 70
     1
102
RTVSPropertyOp9
 70
     1
102
RTVSPropertyOp10
 70
     1
102
RTVSPropertyOp11
 70
     1
102
RTVSPropertyOp12
 70
     1
102
RTVSPropertyOp13
 70
     1
102
RTVSPropertyOp14
 70
     1
102
RTVSPropertyOp15
 70
     1
102
RTVSPropertyOp16
 70
     1
102
RTVSPropertyOp17
 70
     1
102
RTVSPropertyOp18
 70
     1
102
RTVSPropertyOp19
 70
     1
102
RTVSPropertyOp20
 70
     1
102
RTVSPropertyOp21
 70
     1
102
RTVSPropertyOp22
 70
     1
102
RTVSPropertyOp23
 70
     1
102
RTVSPropertyOp24
 70
     1
102
RTVSPropertyOp25
 70
     1
102
RTVSPropertyOp26
 70
     1
102
RTVSPropertyOp27
 70
     1
102
RTVSPropertyOp28
 70
     1
102
RTVSPropertyOp29
 70
     1
102
RTVSPropertyOp30
 70
     1
102
RTVSPropertyOp31
 70
     1
102
RTVSPropertyOp32
 70
     1
  0
XRECORD
  5
681
102
{ACAD_REACTORS
330
680
102
}
330
680
100
AcDbXrecord
280
     1
102
RTVSPropertyOp0
 70
     1
102
RTVSPropertyOp1
 70
     1
102
RTVSPropertyOp2
 70
     1
102
RTVSPropertyOp3
 70
     1
102
RTVSPropertyOp4
 70
     1
102
RTVSPropertyOp5
 70
     1
102
RTVSPropertyOp6
 70
     1
102
RTVSPropertyOp7
 70
     1
102
RTVSPropertyOp8
 70
     1
102
RTVSPropertyOp9
 70
     1
102
RTVSPropertyOp10
 70
     1
102
RTVSPropertyOp11
 70
     1
102
RTVSPropertyOp12
 70
     1
102
RTVSPropertyOp13
 70
     1
102
RTVSPropertyOp14
 70
     1
102
RTVSPropertyOp15
 70
     1
102
RTVSPropertyOp16
 70
     1
102
RTVSPropertyOp17
 70
     1
102
RTVSPropertyOp18
 70
     1
102
RTVSPropertyOp19
 70
     1
102
RTVSPropertyOp20
 70
     1
102
RTVSPropertyOp21
 70
     1
102
RTVSPropertyOp22
 70
     1
102
RTVSPropertyOp23
 70
     1
102
RTVSPropertyOp24
 70
     1
102
RTVSPropertyOp25
 70
     1
102
RTVSPropertyOp26
 70
     1
102
RTVSPropertyOp27
 70
     1
102
RTVSPropertyOp28
 70
     1
102
RTVSPropertyOp29
 70
     1
102
RTVSPropertyOp30
 70
     1
102
RTVSPropertyOp31
 70
     1
102
RTVSPropertyOp32
 70
     1
  0
XRECORD
  5
683
102
{ACAD_REACTORS
330
682
102
}
330
682
100
AcDbXrecord
280
     1
102
RTVSPropertyOp0
 70
     1
102
RTVSPropertyOp1
 70
     1
102
RTVSPropertyOp2
 70
     1
102
RTVSPropertyOp3
 70
     1
102
RTVSPropertyOp4
 70
     1
102
RTVSPropertyOp5
 70
     1
102
RTVSPropertyOp6
 70
     1
102
RTVSPropertyOp7
 70
     1
102
RTVSPropertyOp8
 70
     1
102
RTVSPropertyOp9
 70
     1
102
RTVSPropertyOp10
 70
     1
102
RTVSPropertyOp11
 70
     1
102
RTVSPropertyOp12
 70
     1
102
RTVSPropertyOp13
 70
     1
102
RTVSPropertyOp14
 70
     1
102
RTVSPropertyOp15
 70
     1
102
RTVSPropertyOp16
 70
     1
102
RTVSPropertyOp17
 70
     1
102
RTVSPropertyOp18
 70
     1
102
RTVSPropertyOp19
 70
     1
102
RTVSPropertyOp20
 70
     1
102
RTVSPropertyOp21
 70
     1
102
RTVSPropertyOp22
 70
     1
102
RTVSPropertyOp23
 70
     1
102
RTVSPropertyOp24
 70
     1
102
RTVSPropertyOp25
 70
     1
102
RTVSPropertyOp26
 70
     1
102
RTVSPropertyOp27
 70
     1
102
RTVSPropertyOp28
 70
     1
102
RTVSPropertyOp29
 70
     1
102
RTVSPropertyOp30
 70
     1
102
RTVSPropertyOp31
 70
     1
102
RTVSPropertyOp32
 70
     1
  0
XRECORD
  5
68B
102
{ACAD_REACTORS
330
68A
102
}
330
68A
100
AcDbXrecord
280
     1
102
RTVSPropertyOp0
 70
     1
102
RTVSPropertyOp1
 70
     1
102
RTVSPropertyOp2
 70
     1
102
RTVSPropertyOp3
 70
     1
102
RTVSPropertyOp4
 70
     1
102
RTVSPropertyOp5
 70
     1
102
RTVSPropertyOp6
 70
     1
102
RTVSPropertyOp7
 70
     1
102
RTVSPropertyOp8
 70
     1
102
RTVSPropertyOp9
 70
     1
102
RTVSPropertyOp10
 70
     1
102
RTVSPropertyOp11
 70
     1
102
RTVSPropertyOp12
 70
     1
102
RTVSPropertyOp13
 70
     1
102
RTVSPropertyOp14
 70
     1
102
RTVSPropertyOp15
 70
     1
102
RTVSPropertyOp16
 70
     1
102
RTVSPropertyOp17
 70
     1
102
RTVSPropertyOp18
 70
     1
102
RTVSPropertyOp19
 70
     1
102
RTVSPropertyOp20
 70
     1
102
RTVSPropertyOp21
 70
     1
102
RTVSPropertyOp22
 70
     1
102
RTVSPropertyOp23
 70
     1
102
RTVSPropertyOp24
 70
     1
102
RTVSPropertyOp25
 70
     1
102
RTVSPropertyOp26
 70
     1
102
RTVSPropertyOp27
 70
     1
102
RTVSPropertyOp28
 70
     1
102
RTVSPropertyOp29
 70
     1
102
RTVSPropertyOp30
 70
     1
102
RTVSPropertyOp31
 70
     1
102
RTVSPropertyOp32
 70
     1
  0
XRECORD
  5
66F
102
{ACAD_REACTORS
330
66E
102
}
330
66E
100
AcDbXrecord
280
     1
102
RTVSPropertyOp0
 70
     1
102
RTVSPropertyOp1
 70
     1
102
RTVSPropertyOp2
 70
     1
102
RTVSPropertyOp3
 70
     1
102
RTVSPropertyOp4
 70
     1
102
RTVSPropertyOp5
 70
     1
102
RTVSPropertyOp6
 70
     1
102
RTVSPropertyOp7
 70
     1
102
RTVSPropertyOp8
 70
     1
102
RTVSPropertyOp9
 70
     1
102
RTVSPropertyOp10
 70
     1
102
RTVSPropertyOp11
 70
     1
102
RTVSPropertyOp12
 70
     1
102
RTVSPropertyOp13
 70
     1
102
RTVSPropertyOp14
 70
     1
102
RTVSPropertyOp15
 70
     1
102
RTVSPropertyOp16
 70
     1
102
RTVSPropertyOp17
 70
     1
102
RTVSPropertyOp18
 70
     1
102
RTVSPropertyOp19
 70
     1
102
RTVSPropertyOp20
 70
     1
102
RTVSPropertyOp21
 70
     1
102
RTVSPropertyOp22
 70
     1
102
RTVSPropertyOp23
 70
     1
102
RTVSPropertyOp24
 70
     1
102
RTVSPropertyOp25
 70
     1
102
RTVSPropertyOp26
 70
     1
102
RTVSPropertyOp27
 70
     1
102
RTVSPropertyOp28
 70
     1
102
RTVSPropertyOp29
 70
     1
102
RTVSPropertyOp30
 70
     1
102
RTVSPropertyOp31
 70
     1
102
RTVSPropertyOp32
 70
     1
  0
XRECORD
  5
671
102
{ACAD_REACTORS
330
670
102
}
330
670
100
AcDbXrecord
280
     1
102
RTVSPropertyOp0
 70
     1
102
RTVSPropertyOp1
 70
     1
102
RTVSPropertyOp2
 70
     1
102
RTVSPropertyOp3
 70
     1
102
RTVSPropertyOp4
 70
     1
102
RTVSPropertyOp5
 70
     1
102
RTVSPropertyOp6
 70
     1
102
RTVSPropertyOp7
 70
     1
102
RTVSPropertyOp8
 70
     1
102
RTVSPropertyOp9
 70
     1
102
RTVSPropertyOp10
 70
     1
102
RTVSPropertyOp11
 70
     1
102
RTVSPropertyOp12
 70
     1
102
RTVSPropertyOp13
 70
     1
102
RTVSPropertyOp14
 70
     1
102
RTVSPropertyOp15
 70
     1
102
RTVSPropertyOp16
 70
     1
102
RTVSPropertyOp17
 70
     1
102
RTVSPropertyOp18
 70
     1
102
RTVSPropertyOp19
 70
     1
102
RTVSPropertyOp20
 70
     1
102
RTVSPropertyOp21
 70
     1
102
RTVSPropertyOp22
 70
     1
102
RTVSPropertyOp23
 70
     1
102
RTVSPropertyOp24
 70
     1
102
RTVSPropertyOp25
 70
     1
102
RTVSPropertyOp26
 70
     1
102
RTVSPropertyOp27
 70
     1
102
RTVSPropertyOp28
 70
     1
102
RTVSPropertyOp29
 70
     1
102
RTVSPropertyOp30
 70
     1
102
RTVSPropertyOp31
 70
     1
102
RTVSPropertyOp32
 70
     1
  0
XRECORD
  5
673
102
{ACAD_REACTORS
330
672
102
}
330
672
100
AcDbXrecord
280
     1
102
RTVSPropertyOp0
 70
     1
102
RTVSPropertyOp1
 70
     1
102
RTVSPropertyOp2
 70
     1
102
RTVSPropertyOp3
 70
     1
102
RTVSPropertyOp4
 70
     1
102
RTVSPropertyOp5
 70
     1
102
RTVSPropertyOp6
 70
     1
102
RTVSPropertyOp7
 70
     1
102
RTVSPropertyOp8
 70
     1
102
RTVSPropertyOp9
 70
     1
102
RTVSPropertyOp10
 70
     1
102
RTVSPropertyOp11
 70
     1
102
RTVSPropertyOp12
 70
     1
102
RTVSPropertyOp13
 70
     1
102
RTVSPropertyOp14
 70
     1
102
RTVSPropertyOp15
 70
     1
102
RTVSPropertyOp16
 70
     1
102
RTVSPropertyOp17
 70
     1
102
RTVSPropertyOp18
 70
     1
102
RTVSPropertyOp19
 70
     1
102
RTVSPropertyOp20
 70
     1
102
RTVSPropertyOp21
 70
     1
102
RTVSPropertyOp22
 70
     1
102
RTVSPropertyOp23
 70
     1
102
RTVSPropertyOp24
 70
     1
102
RTVSPropertyOp25
 70
     1
102
RTVSPropertyOp26
 70
     1
102
RTVSPropertyOp27
 70
     1
102
RTVSPropertyOp28
 70
     1
102
RTVSPropertyOp29
 70
     1
102
RTVSPropertyOp30
 70
     1
102
RTVSPropertyOp31
 70
     1
102
RTVSPropertyOp32
 70
     1
  0
XRECORD
  5
675
102
{ACAD_REACTORS
330
674
102
}
330
674
100
AcDbXrecord
280
     1
102
RTVSPropertyOp0
 70
     1
102
RTVSPropertyOp1
 70
     1
102
RTVSPropertyOp2
 70
     1
102
RTVSPropertyOp3
 70
     1
102
RTVSPropertyOp4
 70
     1
102
RTVSPropertyOp5
 70
     1
102
RTVSPropertyOp6
 70
     1
102
RTVSPropertyOp7
 70
     1
102
RTVSPropertyOp8
 70
     1
102
RTVSPropertyOp9
 70
     1
102
RTVSPropertyOp10
 70
     1
102
RTVSPropertyOp11
 70
     1
102
RTVSPropertyOp12
 70
     1
102
RTVSPropertyOp13
 70
     1
102
RTVSPropertyOp14
 70
     1
102
RTVSPropertyOp15
 70
     1
102
RTVSPropertyOp16
 70
     1
102
RTVSPropertyOp17
 70
     1
102
RTVSPropertyOp18
 70
     1
102
RTVSPropertyOp19
 70
     1
102
RTVSPropertyOp20
 70
     1
102
RTVSPropertyOp21
 70
     1
102
RTVSPropertyOp22
 70
     1
102
RTVSPropertyOp23
 70
     1
102
RTVSPropertyOp24
 70
     1
102
RTVSPropertyOp25
 70
     1
102
RTVSPropertyOp26
 70
     1
102
RTVSPropertyOp27
 70
     1
102
RTVSPropertyOp28
 70
     1
102
RTVSPropertyOp29
 70
     1
102
RTVSPropertyOp30
 70
     1
102
RTVSPropertyOp31
 70
     1
102
RTVSPropertyOp32
 70
     1
  0
XRECORD
  5
689
102
{ACAD_REACTORS
330
688
102
}
330
688
100
AcDbXrecord
280
     1
102
RTVSPropertyOp0
 70
     1
102
RTVSPropertyOp1
 70
     1
102
RTVSPropertyOp2
 70
     1
102
RTVSPropertyOp3
 70
     1
102
RTVSPropertyOp4
 70
     1
102
RTVSPropertyOp5
 70
     1
102
RTVSPropertyOp6
 70
     1
102
RTVSPropertyOp7
 70
     1
102
RTVSPropertyOp8
 70
     1
102
RTVSPropertyOp9
 70
     1
102
RTVSPropertyOp10
 70
     1
102
RTVSPropertyOp11
 70
     1
102
RTVSPropertyOp12
 70
     1
102
RTVSPropertyOp13
 70
     1
102
RTVSPropertyOp14
 70
     1
102
RTVSPropertyOp15
 70
     1
102
RTVSPropertyOp16
 70
     1
102
RTVSPropertyOp17
 70
     1
102
RTVSPropertyOp18
 70
     1
102
RTVSPropertyOp19
 70
     1
102
RTVSPropertyOp20
 70
     1
102
RTVSPropertyOp21
 70
     1
102
RTVSPropertyOp22
 70
     1
102
RTVSPropertyOp23
 70
     1
102
RTVSPropertyOp24
 70
     1
102
RTVSPropertyOp25
 70
     1
102
RTVSPropertyOp26
 70
     1
102
RTVSPropertyOp27
 70
     1
102
RTVSPropertyOp28
 70
     1
102
RTVSPropertyOp29
 70
     1
102
RTVSPropertyOp30
 70
     1
102
RTVSPropertyOp31
 70
     1
102
RTVSPropertyOp32
 70
     1
  0
XRECORD
  5
67F
102
{ACAD_REACTORS
330
67E
102
}
330
67E
100
AcDbXrecord
280
     1
102
RTVSPropertyOp0
 70
     1
102
RTVSPropertyOp1
 70
     1
102
RTVSPropertyOp2
 70
     1
102
RTVSPropertyOp3
 70
     1
102
RTVSPropertyOp4
 70
     1
102
RTVSPropertyOp5
 70
     1
102
RTVSPropertyOp6
 70
     1
102
RTVSPropertyOp7
 70
     1
102
RTVSPropertyOp8
 70
     1
102
RTVSPropertyOp9
 70
     1
102
RTVSPropertyOp10
 70
     1
102
RTVSPropertyOp11
 70
     1
102
RTVSPropertyOp12
 70
     1
102
RTVSPropertyOp13
 70
     1
102
RTVSPropertyOp14
 70
     1
102
RTVSPropertyOp15
 70
     1
102
RTVSPropertyOp16
 70
     1
102
RTVSPropertyOp17
 70
     1
102
RTVSPropertyOp18
 70
     1
102
RTVSPropertyOp19
 70
     1
102
RTVSPropertyOp20
 70
     1
102
RTVSPropertyOp21
 70
     1
102
RTVSPropertyOp22
 70
     1
102
RTVSPropertyOp23
 70
     1
102
RTVSPropertyOp24
 70
     1
102
RTVSPropertyOp25
 70
     1
102
RTVSPropertyOp26
 70
     1
102
RTVSPropertyOp27
 70
     1
102
RTVSPropertyOp28
 70
     1
102
RTVSPropertyOp29
 70
     1
102
RTVSPropertyOp30
 70
     1
102
RTVSPropertyOp31
 70
     1
102
RTVSPropertyOp32
 70
     1
  0
XRECORD
  5
687
102
{ACAD_REACTORS
330
686
102
}
330
686
100
AcDbXrecord
280
     1
102
RTVSPropertyOp0
 70
     1
102
RTVSPropertyOp1
 70
     1
102
RTVSPropertyOp2
 70
     1
102
RTVSPropertyOp3
 70
     1
102
RTVSPropertyOp4
 70
     1
102
RTVSPropertyOp5
 70
     1
102
RTVSPropertyOp6
 70
     1
102
RTVSPropertyOp7
 70
     1
102
RTVSPropertyOp8
 70
     1
102
RTVSPropertyOp9
 70
     1
102
RTVSPropertyOp10
 70
     1
102
RTVSPropertyOp11
 70
     1
102
RTVSPropertyOp12
 70
     1
102
RTVSPropertyOp13
 70
     1
102
RTVSPropertyOp14
 70
     1
102
RTVSPropertyOp15
 70
     1
102
RTVSPropertyOp16
 70
     1
102
RTVSPropertyOp17
 70
     1
102
RTVSPropertyOp18
 70
     1
102
RTVSPropertyOp19
 70
     1
102
RTVSPropertyOp20
 70
     1
102
RTVSPropertyOp21
 70
     1
102
RTVSPropertyOp22
 70
     1
102
RTVSPropertyOp23
 70
     1
102
RTVSPropertyOp24
 70
     1
102
RTVSPropertyOp25
 70
     1
102
RTVSPropertyOp26
 70
     1
102
RTVSPropertyOp27
 70
     1
102
RTVSPropertyOp28
 70
     1
102
RTVSPropertyOp29
 70
     1
102
RTVSPropertyOp30
 70
     1
102
RTVSPropertyOp31
 70
     1
102
RTVSPropertyOp32
 70
     1
  0
ENDSEC
  0
EOF
