  0
SECTION
  2
HEADER
  9
$ACADVER
  1
AC1015
  9
$ACADMAINTVER
 70
     6
  9
$DWGCODEPAGE
  3
ANSI_1252
  9
$INSBASE
 10
0.0
 20
0.0
 30
0.0
  9
$EXTMIN
 10
1.000000000000000E+20
 20
1.000000000000000E+20
 30
1.000000000000000E+20
  9
$EXTMAX
 10
-1.000000000000000E+20
 20
-1.000000000000000E+20
 30
-1.000000000000000E+20
  9
$LIMMIN
 10
-170.0
 20
-170.0
  9
$LIMMAX
 10
519.0
 20
260.0
  9
$ORTHOMODE
 70
     0
  9
$REGENMODE
 70
     1
  9
$FILLMODE
 70
     1
  9
$QTEXTMODE
 70
     0
  9
$MIRRTEXT
 70
     0
  9
$LTSCALE
 40
1.0
  9
$ATTMODE
 70
     1
  9
$TEXTSIZE
 40
3.5
  9
$TRACEWID
 40
1.0
  9
$TEXTSTYLE
  7
SIMPLEX
  9
$CLAYER
  8
1
  9
$CELTYPE
  6
BYLAYER
  9
$CECOLOR
 62
   256
  9
$CELTSCALE
 40
1.0
  9
$DISPSILH
 70
     0
  9
$DIMSCALE
 40
1.0
  9
$DIMASZ
 40
2.5
  9
$DIMEXO
 40
0.0
  9
$DIMDLI
 40
3.75
  9
$DIMRND
 40
0.0
  9
$DIMDLE
 40
0.0
  9
$DIMEXE
 40
1.25
  9
$DIMTP
 40
0.0
  9
$DIMTM
 40
0.0
  9
$DIMTXT
 40
3.5
  9
$DIMCEN
 40
0.0
  9
$DIMTSZ
 40
0.0
  9
$DIMTOL
 70
     0
  9
$DIMLIM
 70
     0
  9
$DIMTIH
 70
     0
  9
$DIMTOH
 70
     0
  9
$DIMSE1
 70
     0
  9
$DIMSE2
 70
     0
  9
$DIMTAD
 70
     1
  9
$DIMZIN
 70
     8
  9
$DIMBLK
  1

  9
$DIMASO
 70
     1
  9
$DIMSHO
 70
     1
  9
$DIMPOST
  1

  9
$DIMAPOST
  1

  9
$DIMALT
 70
     0
  9
$DIMALTD
 70
     3
  9
$DIMALTF
 40
0.039370078
  9
$DIMLFAC
 40
1.0
  9
$DIMTOFL
 70
     0
  9
$DIMTVP
 40
0.0
  9
$DIMTIX
 70
     0
  9
$DIMSOXD
 70
     0
  9
$DIMSAH
 70
     0
  9
$DIMBLK1
  1

  9
$DIMBLK2
  1

  9
$DIMSTYLE
  2
STANDARD
  9
$DIMCLRD
 70
     0
  9
$DIMCLRE
 70
     0
  9
$DIMCLRT
 70
     0
  9
$DIMTFAC
 40
1.0
  9
$DIMGAP
 40
0.625
  9
$DIMJUST
 70
     0
  9
$DIMSD1
 70
     0
  9
$DIMSD2
 70
     0
  9
$DIMTOLJ
 70
     0
  9
$DIMTZIN
 70
     8
  9
$DIMALTZ
 70
     0
  9
$DIMALTTZ
 70
     0
  9
$DIMUPT
 70
     0
  9
$DIMDEC
 70
     2
  9
$DIMTDEC
 70
     2
  9
$DIMALTU
 70
     2
  9
$DIMALTTD
 70
     3
  9
$DIMTXSTY
  7
SIMPLEX
  9
$DIMAUNIT
 70
     0
  9
$DIMADEC
 70
     2
  9
$DIMALTRND
 40
0.0
  9
$DIMAZIN
 70
     2
  9
$DIMDSEP
 70
    46
  9
$DIMATFIT
 70
     3
  9
$DIMFRAC
 70
     0
  9
$DIMLDRBLK
  1

  9
$DIMLUNIT
 70
     2
  9
$DIMLWD
 70
    -2
  9
$DIMLWE
 70
    -2
  9
$DIMTMOVE
 70
     0
  9
$LUNITS
 70
     2
  9
$LUPREC
 70
     4
  9
$SKETCHINC
 40
1.0
  9
$FILLETRAD
 40
0.0
  9
$AUNITS
 70
     0
  9
$AUPREC
 70
     0
  9
$MENU
  1
c:\tdm21\cad\caduti13\tdm13
  9
$ELEVATION
 40
0.0
  9
$PELEVATION
 40
0.0
  9
$THICKNESS
 40
0.0
  9
$LIMCHECK
 70
     0
  9
$CHAMFERA
 40
0.0
  9
$CHAMFERB
 40
0.0
  9
$CHAMFERC
 40
0.0
  9
$CHAMFERD
 40
0.0
  9
$SKPOLY
 70
     0
  9
$TDCREATE
 40
2454957.593642639
  9
$TDUCREATE
 40
2454957.510309306
  9
$TDUPDATE
 40
2456860.739639676
  9
$TDUUPDATE
 40
2456860.656306343
  9
$TDINDWG
 40
0.0009643519
  9
$TDUSRTIMER
 40
0.0009475231
  9
$USRTIMER
 70
     1
  9
$ANGBASE
 50
0.0
  9
$ANGDIR
 70
     0
  9
$PDMODE
 70
     1
  9
$PDSIZE
 40
0.0
  9
$PLINEWID
 40
0.0
  9
$SPLFRAME
 70
     0
  9
$SPLINETYPE
 70
     6
  9
$SPLINESEGS
 70
     8
  9
$HANDSEED
  5
626
  9
$SURFTAB1
 70
     6
  9
$SURFTAB2
 70
     6
  9
$SURFTYPE
 70
     6
  9
$SURFU
 70
     6
  9
$SURFV
 70
     6
  9
$UCSBASE
  2

  9
$UCSNAME
  2

  9
$UCSORG
 10
0.0
 20
0.0
 30
0.0
  9
$UCSXDIR
 10
1.0
 20
0.0
 30
0.0
  9
$UCSYDIR
 10
0.0
 20
1.0
 30
0.0
  9
$UCSORTHOREF
  2

  9
$UCSORTHOVIEW
 70
     0
  9
$UCSORGTOP
 10
0.0
 20
0.0
 30
0.0
  9
$UCSORGBOTTOM
 10
0.0
 20
0.0
 30
0.0
  9
$UCSORGLEFT
 10
0.0
 20
0.0
 30
0.0
  9
$UCSORGRIGHT
 10
0.0
 20
0.0
 30
0.0
  9
$UCSORGFRONT
 10
0.0
 20
0.0
 30
0.0
  9
$UCSORGBACK
 10
0.0
 20
0.0
 30
0.0
  9
$PUCSBASE
  2

  9
$PUCSNAME
  2

  9
$PUCSORG
 10
0.0
 20
0.0
 30
0.0
  9
$PUCSXDIR
 10
1.0
 20
0.0
 30
0.0
  9
$PUCSYDIR
 10
0.0
 20
1.0
 30
0.0
  9
$PUCSORTHOREF
  2

  9
$PUCSORTHOVIEW
 70
     0
  9
$PUCSORGTOP
 10
0.0
 20
0.0
 30
0.0
  9
$PUCSORGBOTTOM
 10
0.0
 20
0.0
 30
0.0
  9
$PUCSORGLEFT
 10
0.0
 20
0.0
 30
0.0
  9
$PUCSORGRIGHT
 10
0.0
 20
0.0
 30
0.0
  9
$PUCSORGFRONT
 10
0.0
 20
0.0
 30
0.0
  9
$PUCSORGBACK
 10
0.0
 20
0.0
 30
0.0
  9
$USERI1
 70
     0
  9
$USERI2
 70
     0
  9
$USERI3
 70
     0
  9
$USERI4
 70
     0
  9
$USERI5
 70
     0
  9
$USERR1
 40
0.0
  9
$USERR2
 40
0.0
  9
$USERR3
 40
0.0
  9
$USERR4
 40
0.0
  9
$USERR5
 40
0.0
  9
$WORLDVIEW
 70
     1
  9
$SHADEDGE
 70
     3
  9
$SHADEDIF
 70
    70
  9
$TILEMODE
 70
     1
  9
$MAXACTVP
 70
    64
  9
$PINSBASE
 10
0.0
 20
0.0
 30
0.0
  9
$PLIMCHECK
 70
     0
  9
$PEXTMIN
 10
0.0
 20
0.0
 30
0.0
  9
$PEXTMAX
 10
0.0
 20
0.0
 30
0.0
  9
$PLIMMIN
 10
0.0
 20
0.0
  9
$PLIMMAX
 10
12.0
 20
9.0
  9
$UNITMODE
 70
     0
  9
$VISRETAIN
 70
     0
  9
$PLINEGEN
 70
     0
  9
$PSLTSCALE
 70
     1
  9
$TREEDEPTH
 70
  3020
  9
$CMLSTYLE
  2
STANDARD
  9
$CMLJUST
 70
     0
  9
$CMLSCALE
 40
20.0
  9
$PROXYGRAPHICS
 70
     1
  9
$MEASUREMENT
 70
     1
  9
$CELWEIGHT
370
    -1
  9
$ENDCAPS
280
     0
  9
$JOINSTYLE
280
     0
  9
$LWDISPLAY
290
     0
  9
$INSUNITS
 70
     4
  9
$HYPERLINKBASE
  1

  9
$STYLESHEET
  1
MONOCHROME.CTB
  9
$XEDIT
290
     1
  9
$CEPSNTYPE
380
     0
  9
$PSTYLEMODE
290
     1
  9
$FINGERPRINTGUID
  2
{46B44192-1510-48B1-B61B-CBE2ADA013A7}
  9
$VERSIONGUID
  2
{6160D478-9A74-4C97-9D8A-D4A65CE74B12}
  9
$EXTNAMES
290
     1
  9
$PSVPSCALE
 40
0.0
  9
$OLESTARTUP
290
     0
  0
ENDSEC
  0
SECTION
  2
CLASSES
  0
CLASS
  1
ACDBDICTIONARYWDFLT
  2
AcDbDictionaryWithDefault
  3
ObjectDBX Classes
 90
        0
280
     0
281
     0
  0
CLASS
  1
ACDBPLACEHOLDER
  2
AcDbPlaceHolder
  3
ObjectDBX Classes
 90
        0
280
     0
281
     0
  0
CLASS
  1
LAYOUT
  2
AcDbLayout
  3
ObjectDBX Classes
 90
        0
280
     0
281
     0
  0
CLASS
  1
DICTIONARYVAR
  2
AcDbDictionaryVar
  3
ObjectDBX Classes
 90
        0
280
     0
281
     0
  0
CLASS
  1
TABLESTYLE
  2
AcDbTableStyle
  3
ObjectDBX Classes
 90
     4095
280
     0
281
     0
  0
CLASS
  1
SCALE
  2
AcDbScale
  3
ObjectDBX Classes
 90
     1153
280
     0
281
     0
  0
CLASS
  1
MATERIAL
  2
AcDbMaterial
  3
ObjectDBX Classes
 90
     1153
280
     0
281
     0
  0
CLASS
  1
VISUALSTYLE
  2
AcDbVisualStyle
  3
ObjectDBX Classes
 90
     4095
280
     0
281
     0
  0
ENDSEC
  0
SECTION
  2
TABLES
  0
TABLE
  2
VPORT
  5
8
330
0
100
AcDbSymbolTable
 70
     1
  0
VPORT
  5
39A
330
8
100
AcDbSymbolTableRecord
100
AcDbViewportTableRecord
  2
*Active
 70
     0
 10
0.0
 20
0.0
 11
1.0
 21
1.0
 12
218.9201881351169
 22
109.7549380673833
 13
0.0
 23
0.0
 14
5.0
 24
5.0
 15
5.0
 25
5.0
 16
0.0
 26
0.0
 36
1.0
 17
0.0
 27
0.0
 37
0.0
 40
564.6711112651689
 41
1.066073697585768
 42
50.0
 43
0.0
 44
0.0
 50
0.0
 51
0.0
 71
     0
 72
  2000
 73
     1
 74
     1
 75
     0
 76
     0
 77
     0
 78
     0
281
     0
 65
     1
110
0.0
120
0.0
130
0.0
111
1.0
121
0.0
131
0.0
112
0.0
122
1.0
132
0.0
 79
     0
146
0.0
  0
ENDTAB
  0
TABLE
  2
LTYPE
  5
5
330
0
100
AcDbSymbolTable
 70
     3
  0
LTYPE
  5
12
330
5
100
AcDbSymbolTableRecord
100
AcDbLinetypeTableRecord
  2
BYBLOCK
 70
     0
  3

 72
    65
 73
     0
 40
0.0
  0
LTYPE
  5
13
330
5
100
AcDbSymbolTableRecord
100
AcDbLinetypeTableRecord
  2
BYLAYER
 70
     0
  3

 72
    65
 73
     0
 40
0.0
  0
LTYPE
  5
14
330
5
100
AcDbSymbolTableRecord
100
AcDbLinetypeTableRecord
  2
CONTINUOUS
 70
     0
  3
Solid line
 72
    65
 73
     0
 40
0.0
  0
LTYPE
  5
20
330
5
100
AcDbSymbolTableRecord
100
AcDbLinetypeTableRecord
  2
HIDDEN
 70
     0
  3
Hidden __ __ __ __ __ __ __ __ __ __ __ __ __ _
 72
    65
 73
     2
 40
9.524999999999997
 49
6.349999999999998
 74
     0
 49
-3.174999999999998
 74
     0
  0
LTYPE
  5
351
330
5
100
AcDbSymbolTableRecord
100
AcDbLinetypeTableRecord
  2
CENTER
 70
     0
  3
Dash dot __ . __ . __ . __ . __ . __ . __ . __
 72
    65
 73
     4
 40
25.4
 49
12.7
 74
     0
 49
-6.349999999999998
 74
     0
 49
0.0
 74
     0
 49
-6.349999999999998
 74
     0
  0
ENDTAB
  0
TABLE
  2
LAYER
  5
2
330
0
100
AcDbSymbolTable
 70
    16
  0
LAYER
  5
F
330
2
100
AcDbSymbolTableRecord
100
AcDbLayerTableRecord
  2
0
 70
     0
 62
     7
  6
CONTINUOUS
370
    -3
390
300
  0
LAYER
  5
23
330
2
100
AcDbSymbolTableRecord
100
AcDbLayerTableRecord
  2
1
 70
     0
 62
     4
  6
CONTINUOUS
370
    -3
390
300
  0
LAYER
  5
24
330
2
100
AcDbSymbolTableRecord
100
AcDbLayerTableRecord
  2
SK1
 70
     0
 62
     4
  6
CONTINUOUS
370
    -3
390
300
  0
LAYER
  5
25
330
2
100
AcDbSymbolTableRecord
100
AcDbLayerTableRecord
  2
2
 70
     0
 62
     7
  6
CONTINUOUS
370
    -3
390
300
  0
LAYER
  5
26
330
2
100
AcDbSymbolTableRecord
100
AcDbLayerTableRecord
  2
2L
 70
     0
 62
     7
  6
CONTINUOUS
370
    -3
390
300
  0
LAYER
  5
27
330
2
100
AcDbSymbolTableRecord
100
AcDbLayerTableRecord
  2
SK2
 70
     0
 62
     7
  6
CONTINUOUS
370
    -3
390
300
  0
LAYER
  5
28
330
2
100
AcDbSymbolTableRecord
100
AcDbLayerTableRecord
  2
3
 70
     0
 62
     1
  6
HIDDEN
370
    -3
390
300
  0
LAYER
  5
29
330
2
100
AcDbSymbolTableRecord
100
AcDbLayerTableRecord
  2
SK3
 70
     0
 62
     1
  6
HIDDEN
370
    -3
390
300
  0
LAYER
  5
2A
330
2
100
AcDbSymbolTableRecord
100
AcDbLayerTableRecord
  2
4
 70
     0
 62
     2
  6
CENTER
370
    -3
390
300
  0
LAYER
  5
2B
330
2
100
AcDbSymbolTableRecord
100
AcDbLayerTableRecord
  2
SK4
 70
     0
 62
     2
  6
CENTER
370
    -3
390
300
  0
LAYER
  5
2C
330
2
100
AcDbSymbolTableRecord
100
AcDbLayerTableRecord
  2
5
 70
     0
 62
    -7
  6
CONTINUOUS
370
    -3
390
300
  0
LAYER
  5
2D
330
2
100
AcDbSymbolTableRecord
100
AcDbLayerTableRecord
  2
6
 70
     0
 62
     5
  6
CONTINUOUS
370
    -3
390
300
  0
LAYER
  5
2E
330
2
100
AcDbSymbolTableRecord
100
AcDbLayerTableRecord
  2
SK6
 70
     0
 62
     5
  6
CONTINUOUS
370
    -3
390
300
  0
LAYER
  5
2F
330
2
100
AcDbSymbolTableRecord
100
AcDbLayerTableRecord
  2
DEFPOINTS
 70
     0
 62
     7
  6
CONTINUOUS
290
     0
370
    -3
390
300
  0
LAYER
  5
375
330
2
100
AcDbSymbolTableRecord
100
AcDbLayerTableRecord
  2
CUT
 70
     0
 62
     1
  6
CONTINUOUS
370
    -3
390
300
  0
LAYER
  5
376
330
2
100
AcDbSymbolTableRecord
100
AcDbLayerTableRecord
  2
NOCUT
 70
     0
 62
     7
  6
CONTINUOUS
370
    -3
390
300
  0
ENDTAB
  0
TABLE
  2
STYLE
  5
3
330
0
100
AcDbSymbolTable
 70
     4
  0
STYLE
  5
10
330
3
100
AcDbSymbolTableRecord
100
AcDbTextStyleTableRecord
  2
STANDARD
 70
     0
 40
0.0
 41
1.0
 50
0.0
 71
     0
 42
5.0
  3
txt
  4

  0
STYLE
  5
1D
330
3
100
AcDbSymbolTableRecord
100
AcDbTextStyleTableRecord
  2
TXT
 70
     0
 40
8.0
 41
1.0
 50
0.0
 71
     0
 42
8.0
  3
txt
  4

  0
STYLE
  5
1E
330
3
100
AcDbSymbolTableRecord
100
AcDbTextStyleTableRecord
  2
SIMPLEX
 70
     0
 40
0.0
 41
1.0
 50
0.0
 71
     0
 42
3.5
  3
simplex
  4

  0
STYLE
  5
34C
330
3
100
AcDbSymbolTableRecord
100
AcDbTextStyleTableRecord
  2

 70
     1
 40
0.0
 41
1.0
 50
0.0
 71
     0
 42
2.5
  3
ltypeshp.shx
  4

  0
ENDTAB
  0
TABLE
  2
VIEW
  5
6
330
0
100
AcDbSymbolTable
 70
     0
  0
ENDTAB
  0
TABLE
  2
UCS
  5
7
330
0
100
AcDbSymbolTable
 70
     0
  0
ENDTAB
  0
TABLE
  2
APPID
  5
9
330
0
100
AcDbSymbolTable
 70
     1
  0
APPID
  5
11
330
9
100
AcDbSymbolTableRecord
100
AcDbRegAppTableRecord
  2
ACAD
 70
     0
  0
ENDTAB
  0
TABLE
  2
DIMSTYLE
  5
A
330
0
100
AcDbSymbolTable
 70
     1
100
AcDbDimStyleTable
  0
DIMSTYLE
105
3F
102
{ACAD_REACTORS
330
5B8
330
5C6
330
5D3
330
5E1
330
5EE
102
}
330
A
100
AcDbSymbolTableRecord
100
AcDbDimStyleTableRecord
  2
STANDARD
 70
     0
 41
2.5
 42
0.0
 43
3.75
 44
1.25
 73
     0
 74
     0
 77
     1
 78
     8
 79
     2
140
3.5
141
0.0
143
0.039370078
147
0.625
171
     3
178
     0
179
     2
271
     2
272
     2
274
     3
283
     0
284
     8
340
1E
  0
ENDTAB
  0
TABLE
  2
BLOCK_RECORD
  5
1
330
0
100
AcDbSymbolTable
 70
     5
  0
BLOCK_RECORD
  5
18
330
1
100
AcDbSymbolTableRecord
100
AcDbBlockTableRecord
  2
*MODEL_SPACE
340
303
  0
BLOCK_RECORD
  5
338
330
1
100
AcDbSymbolTableRecord
100
AcDbBlockTableRecord
  2
*Paper_Space
340
33B
  0
BLOCK_RECORD
  5
5B9
330
1
100
AcDbSymbolTableRecord
100
AcDbBlockTableRecord
  2
*D0
340
0
  0
BLOCK_RECORD
  5
5C7
330
1
100
AcDbSymbolTableRecord
100
AcDbBlockTableRecord
  2
*D1
340
0
  0
BLOCK_RECORD
  5
5D4
330
1
100
AcDbSymbolTableRecord
100
AcDbBlockTableRecord
  2
*D2
340
0
  0
BLOCK_RECORD
  5
5E2
330
1
100
AcDbSymbolTableRecord
100
AcDbBlockTableRecord
  2
*D3
340
0
  0
BLOCK_RECORD
  5
5EF
330
1
100
AcDbSymbolTableRecord
100
AcDbBlockTableRecord
  2
*D4
340
0
  0
ENDTAB
  0
ENDSEC
  0
SECTION
  2
BLOCKS
  0
BLOCK
  5
32
330
18
100
AcDbEntity
  8
0
100
AcDbBlockBegin
  2
*MODEL_SPACE
 70
     0
 10
0.0
 20
0.0
 30
0.0
  3
*MODEL_SPACE
  1

  0
ENDBLK
  5
33
330
18
100
AcDbEntity
  8
0
100
AcDbBlockEnd
  0
BLOCK
  5
339
330
338
100
AcDbEntity
 67
     1
  8
0
100
AcDbBlockBegin
  2
*Paper_Space
 70
     0
 10
0.0
 20
0.0
 30
0.0
  3
*Paper_Space
  1

  0
ENDBLK
  5
33A
330
338
100
AcDbEntity
 67
     1
  8
0
100
AcDbBlockEnd
  0
BLOCK
  5
5BA
330
5B9
100
AcDbEntity
  8
0
100
AcDbBlockBegin
  2
*D0
 70
     1
 10
0.0
 20
0.0
 30
0.0
  3
*D0
  1

  0
LINE
  5
5BC
330
5B9
100
AcDbEntity
  8
2
 62
     0
370
    -2
100
AcDbLine
 10
57.0
 20
3.0
 30
0.0
 11
73.25000000000001
 21
3.000000000000057
 31
0.0
  0
LINE
  5
5BD
330
5B9
100
AcDbEntity
  8
2
 62
     0
370
    -2
100
AcDbLine
 10
57.0
 20
-3.0
 30
0.0
 11
73.25000000000003
 21
-2.999999999999943
 31
0.0
  0
LINE
  5
5BE
330
5B9
100
AcDbEntity
  8
2
 62
     0
370
    -2
100
AcDbLine
 10
72.00000000000003
 20
-5.499999999999948
 30
0.0
 11
72.00000000000006
 21
-15.40299999999994
 31
0.0
  0
LINE
  5
5BF
330
5B9
100
AcDbEntity
  8
2
 62
     0
370
    -2
100
AcDbLine
 10
72.00000000000001
 20
5.500000000000052
 30
0.0
 11
72.00000000000001
 21
8.000000000000053
 31
0.0
  0
SOLID
  5
5C0
330
5B9
100
AcDbEntity
  8
2
 62
     0
100
AcDbTrace
 10
71.58333333333334
 20
5.500000000000052
 30
0.0
 11
72.41666666666669
 21
5.500000000000053
 31
0.0
 12
72.00000000000001
 22
3.000000000000052
 32
0.0
 13
72.00000000000001
 23
3.000000000000052
 33
0.0
  0
SOLID
  5
5C1
330
5B9
100
AcDbEntity
  8
2
 62
     0
100
AcDbTrace
 10
72.4166666666667
 20
-5.499999999999947
 30
0.0
 11
71.58333333333336
 21
-5.499999999999948
 31
0.0
 12
72.00000000000003
 22
-2.999999999999948
 32
0.0
 13
72.00000000000003
 23
-2.999999999999948
 33
0.0
  0
MTEXT
  5
5C2
330
5B9
100
AcDbEntity
  8
2
 62
     0
100
AcDbMText
 10
69.60925000000005
 20
-11.70149999999995
 30
0.0
 40
3.5
 41
0.0
 71
     5
 72
     1
  1
M6
  7
SIMPLEX
 11
-2.368475785867000E-15
 21
1.0
 31
0.0
 73
     1
 44
1.0
  0
POINT
  5
5C3
330
5B9
100
AcDbEntity
  8
DEFPOINTS
 62
     0
100
AcDbPoint
 10
57.0
 20
3.0
 30
0.0
  0
POINT
  5
5C4
330
5B9
100
AcDbEntity
  8
DEFPOINTS
 62
     0
100
AcDbPoint
 10
57.0
 20
-3.0
 30
0.0
  0
POINT
  5
5C5
330
5B9
100
AcDbEntity
  8
DEFPOINTS
 62
     0
100
AcDbPoint
 10
72.00000000000003
 20
-2.999999999999948
 30
0.0
  0
ENDBLK
  5
5BB
330
5B9
100
AcDbEntity
  8
0
100
AcDbBlockEnd
  0
BLOCK
  5
5C8
330
5C7
100
AcDbEntity
  8
0
100
AcDbBlockBegin
  2
*D1
 70
     1
 10
0.0
 20
0.0
 30
0.0
  3
*D1
  1

  0
LINE
  5
5CA
330
5C7
100
AcDbEntity
  8
2
 62
     0
370
    -2
100
AcDbLine
 10
0.0
 20
0.0
 30
0.0
 11
0.0
 21
76.25
 31
0.0
  0
LINE
  5
5CB
330
5C7
100
AcDbEntity
  8
2
 62
     0
370
    -2
100
AcDbLine
 10
57.0
 20
0.0
 30
0.0
 11
57.0
 21
76.25
 31
0.0
  0
LINE
  5
5CC
330
5C7
100
AcDbEntity
  8
2
 62
     0
370
    -2
100
AcDbLine
 10
2.5
 20
75.0
 30
0.0
 11
54.5
 21
75.0
 31
0.0
  0
SOLID
  5
5CD
330
5C7
100
AcDbEntity
  8
2
 62
     0
100
AcDbTrace
 10
2.5
 20
75.41666666666667
 30
0.0
 11
2.5
 21
74.58333333333333
 31
0.0
 12
0.0
 22
75.0
 32
0.0
 13
0.0
 23
75.0
 33
0.0
  0
SOLID
  5
5CE
330
5C7
100
AcDbEntity
  8
2
 62
     0
100
AcDbTrace
 10
54.5
 20
74.58333333333333
 30
0.0
 11
54.5
 21
75.41666666666667
 31
0.0
 12
57.0
 22
75.0
 32
0.0
 13
57.0
 23
75.0
 33
0.0
  0
MTEXT
  5
5CF
330
5C7
100
AcDbEntity
  8
2
 62
     0
100
AcDbMText
 10
28.5
 20
77.39075
 30
0.0
 40
3.5
 41
0.0
 71
     5
 72
     1
  1
57
  7
SIMPLEX
 73
     1
 44
1.0
  0
POINT
  5
5D0
330
5C7
100
AcDbEntity
  8
DEFPOINTS
 62
     0
100
AcDbPoint
 10
0.0
 20
0.0
 30
0.0
  0
POINT
  5
5D1
330
5C7
100
AcDbEntity
  8
DEFPOINTS
 62
     0
100
AcDbPoint
 10
57.0
 20
0.0
 30
0.0
  0
POINT
  5
5D2
330
5C7
100
AcDbEntity
  8
DEFPOINTS
 62
     0
100
AcDbPoint
 10
57.0
 20
75.0
 30
0.0
  0
ENDBLK
  5
5C9
330
5C7
100
AcDbEntity
  8
0
100
AcDbBlockEnd
  0
BLOCK
  5
5D5
330
5D4
100
AcDbEntity
  8
0
100
AcDbBlockBegin
  2
*D2
 70
     1
 10
0.0
 20
0.0
 30
0.0
  3
*D2
  1

  0
LINE
  5
5D7
330
5D4
100
AcDbEntity
  8
SK2
 62
     0
370
    -2
100
AcDbLine
 10
-15.01000000000001
 20
3.0
 30
0.0
 11
-39.26000000001531
 21
2.999999999876242
 31
0.0
  0
LINE
  5
5D8
330
5D4
100
AcDbEntity
  8
SK2
 62
     0
370
    -2
100
AcDbLine
 10
-15.01000000000001
 20
-3.0
 30
0.0
 11
-39.25999999998469
 21
-3.000000000123758
 31
0.0
  0
LINE
  5
5D9
330
5D4
100
AcDbEntity
  8
SK2
 62
     0
370
    -2
100
AcDbLine
 10
-38.00999999997194
 20
-5.500000000117378
 30
0.0
 11
-38.00999999992224
 21
-15.23850000011738
 31
0.0
  0
LINE
  5
5DA
330
5D4
100
AcDbEntity
  8
SK2
 62
     0
370
    -2
100
AcDbLine
 10
-38.01000000002806
 20
5.499999999882622
 30
0.0
 11
-38.01000000004082
 21
7.999999999882622
 31
0.0
  0
SOLID
  5
5DB
330
5D4
100
AcDbEntity
  8
SK2
 62
     0
100
AcDbTrace
 10
-38.42666666669473
 20
5.499999999880496
 30
0.0
 11
-37.5933333333614
 21
5.499999999884748
 31
0.0
 12
-38.01000000001531
 22
2.999999999882621
 32
0.0
 13
-38.01000000001531
 23
2.999999999882621
 33
0.0
  0
SOLID
  5
5DC
330
5D4
100
AcDbEntity
  8
SK2
 62
     0
100
AcDbTrace
 10
-37.59333333330527
 20
-5.500000000115252
 30
0.0
 11
-38.4266666666386
 21
-5.500000000119504
 31
0.0
 12
-38.00999999998469
 22
-3.000000000117379
 32
0.0
 13
-38.00999999998469
 23
-3.000000000117379
 33
0.0
  0
MTEXT
  5
5DD
330
5D4
100
AcDbEntity
  8
SK2
 62
     0
100
AcDbMText
 10
-40.40074999994071
 20
-11.61925000012958
 30
0.0
 40
3.5
 41
0.0
 71
     5
 72
     1
  1
%%c6
  7
SIMPLEX
 11
-5.102881080650453E-12
 21
1.0
 31
0.0
 73
     1
 44
1.0
  0
POINT
  5
5DE
330
5D4
100
AcDbEntity
  8
DEFPOINTS
 62
     0
100
AcDbPoint
 10
-15.01000000000001
 20
3.0
 30
0.0
  0
POINT
  5
5DF
330
5D4
100
AcDbEntity
  8
DEFPOINTS
 62
     0
100
AcDbPoint
 10
-15.01000000000001
 20
-3.0
 30
0.0
  0
POINT
  5
5E0
330
5D4
100
AcDbEntity
  8
DEFPOINTS
 62
     0
100
AcDbPoint
 10
-38.00999999998469
 20
-3.000000000117379
 30
0.0
  0
ENDBLK
  5
5D6
330
5D4
100
AcDbEntity
  8
0
100
AcDbBlockEnd
  0
BLOCK
  5
5E3
330
5E2
100
AcDbEntity
  8
0
100
AcDbBlockBegin
  2
*D3
 70
     1
 10
0.0
 20
0.0
 30
0.0
  3
*D3
  1

  0
LINE
  5
5E5
330
5E2
100
AcDbEntity
  8
2
 62
     0
370
    -2
100
AcDbLine
 10
41.25292342
 20
2.28
 30
0.0
 11
41.25292342
 21
61.25
 31
0.0
  0
LINE
  5
5E6
330
5E2
100
AcDbEntity
  8
2
 62
     0
370
    -2
100
AcDbLine
 10
57.0
 20
3.0
 30
0.0
 11
57.0
 21
61.25
 31
0.0
  0
LINE
  5
5E7
330
5E2
100
AcDbEntity
  8
2
 62
     0
370
    -2
100
AcDbLine
 10
43.75292342
 20
60.0
 30
0.0
 11
54.5
 21
60.0
 31
0.0
  0
SOLID
  5
5E8
330
5E2
100
AcDbEntity
  8
2
 62
     0
100
AcDbTrace
 10
43.75292342
 20
60.41666666666666
 30
0.0
 11
43.75292342
 21
59.58333333333334
 31
0.0
 12
41.25292342
 22
60.0
 32
0.0
 13
41.25292342
 23
60.0
 33
0.0
  0
SOLID
  5
5E9
330
5E2
100
AcDbEntity
  8
2
 62
     0
100
AcDbTrace
 10
54.5
 20
59.58333333333334
 30
0.0
 11
54.5
 21
60.41666666666666
 31
0.0
 12
57.0
 22
60.0
 32
0.0
 13
57.0
 23
60.0
 33
0.0
  0
MTEXT
  5
5EA
330
5E2
100
AcDbEntity
  8
2
 62
     0
100
AcDbMText
 10
49.12646171
 20
62.39775
 30
0.0
 40
3.5
 41
0.0
 71
     5
 72
     1
  1
15.75
  7
SIMPLEX
 73
     1
 44
1.0
  0
POINT
  5
5EB
330
5E2
100
AcDbEntity
  8
DEFPOINTS
 62
     0
100
AcDbPoint
 10
41.25292342
 20
2.28
 30
0.0
  0
POINT
  5
5EC
330
5E2
100
AcDbEntity
  8
DEFPOINTS
 62
     0
100
AcDbPoint
 10
57.0
 20
3.0
 30
0.0
  0
POINT
  5
5ED
330
5E2
100
AcDbEntity
  8
DEFPOINTS
 62
     0
100
AcDbPoint
 10
57.0
 20
60.0
 30
0.0
  0
ENDBLK
  5
5E4
330
5E2
100
AcDbEntity
  8
0
100
AcDbBlockEnd
  0
BLOCK
  5
5F0
330
5EF
100
AcDbEntity
  8
0
100
AcDbBlockBegin
  2
*D4
 70
     1
 10
0.0
 20
0.0
 30
0.0
  3
*D4
  1

  0
LINE
  5
5F2
330
5EF
100
AcDbEntity
  8
SK2
 62
     0
370
    -2
100
AcDbLine
 10
-23.01000000000001
 20
3.0
 30
0.0
 11
-23.01000000000001
 21
91.25
 31
0.0
  0
LINE
  5
5F3
330
5EF
100
AcDbEntity
  8
SK2
 62
     0
370
    -2
100
AcDbLine
 10
59.39
 20
3.0
 30
0.0
 11
59.39
 21
91.25
 31
0.0
  0
LINE
  5
5F4
330
5EF
100
AcDbEntity
  8
SK2
 62
     0
370
    -2
100
AcDbLine
 10
-20.51000000000001
 20
90.0
 30
0.0
 11
56.89
 21
90.0
 31
0.0
  0
SOLID
  5
5F5
330
5EF
100
AcDbEntity
  8
SK2
 62
     0
100
AcDbTrace
 10
-20.51000000000001
 20
90.41666666666667
 30
0.0
 11
-20.51000000000001
 21
89.58333333333333
 31
0.0
 12
-23.01000000000001
 22
90.0
 32
0.0
 13
-23.01000000000001
 23
90.0
 33
0.0
  0
SOLID
  5
5F6
330
5EF
100
AcDbEntity
  8
SK2
 62
     0
100
AcDbTrace
 10
56.89
 20
89.58333333333333
 30
0.0
 11
56.89
 21
90.41666666666667
 31
0.0
 12
59.39
 22
90.0
 32
0.0
 13
59.39
 23
90.0
 33
0.0
  0
MTEXT
  5
5F7
330
5EF
100
AcDbEntity
  8
SK2
 62
     0
100
AcDbMText
 10
18.19
 20
92.438
 30
0.0
 40
3.5
 41
0.0
 71
     5
 72
     1
  1
82.4
  7
SIMPLEX
 73
     1
 44
1.0
  0
POINT
  5
5F8
330
5EF
100
AcDbEntity
  8
DEFPOINTS
 62
     0
100
AcDbPoint
 10
-23.01000000000001
 20
3.0
 30
0.0
  0
POINT
  5
5F9
330
5EF
100
AcDbEntity
  8
DEFPOINTS
 62
     0
100
AcDbPoint
 10
59.39
 20
3.0
 30
0.0
  0
POINT
  5
5FA
330
5EF
100
AcDbEntity
  8
DEFPOINTS
 62
     0
100
AcDbPoint
 10
59.39
 20
90.0
 30
0.0
  0
ENDBLK
  5
5F1
330
5EF
100
AcDbEntity
  8
0
100
AcDbBlockEnd
  0
ENDSEC
  0
SECTION
  2
ENTITIES
  0
LINE
  5
3D6
330
18
100
AcDbEntity
  8
SK4
100
AcDbLine
 10
-25.01000000000001
 20
0.0
 30
0.0
 11
22.1
 21
0.0
 31
0.0
  0
LINE
  5
3D7
330
18
100
AcDbEntity
  8
4
100
AcDbLine
 10
20.1
 20
0.0
 30
0.0
 11
61.39
 21
0.0
 31
0.0
  0
LINE
  5
3D8
330
18
100
AcDbEntity
  8
SK4
100
AcDbLine
 10
20.1
 20
0.0
 30
0.0
 11
61.39
 21
0.0
 31
0.0
  0
LINE
  5
3D9
330
18
100
AcDbEntity
  8
1
100
AcDbLine
 10
22.1
 20
3.0
 30
0.0
 11
-0.0000000000000018
 21
3.0
 31
0.0
  0
LINE
  5
3DA
330
18
100
AcDbEntity
  8
1
100
AcDbLine
 10
22.1
 20
3.0
 30
0.0
 11
22.1
 21
2.99701742011701
 31
0.0
  0
LINE
  5
3DB
330
18
100
AcDbEntity
  8
1
100
AcDbLine
 10
22.1
 20
2.99701742011701
 30
0.0
 11
22.1
 21
2.73082016327026
 31
0.0
  0
LINE
  5
3DC
330
18
100
AcDbEntity
  8
1
100
AcDbLine
 10
22.1
 20
2.73082016327026
 30
0.0
 11
22.1
 21
-3.0
 31
0.0
  0
LINE
  5
3DD
330
18
100
AcDbEntity
  8
1
100
AcDbLine
 10
22.1
 20
3.0
 30
0.0
 11
26.18332291
 21
2.28
 31
0.0
  0
LINE
  5
3DE
330
18
100
AcDbEntity
  8
1
100
AcDbLine
 10
29.5
 20
-0.5741840557066615
 30
0.0
 11
41.25292342
 21
-0.5741840557066618
 31
0.0
  0
LINE
  5
3DF
330
18
100
AcDbEntity
  8
1
100
AcDbLine
 10
29.5
 20
2.024439822395284
 30
0.0
 11
41.25292342000001
 21
2.024439822395283
 31
0.0
  0
LINE
  5
3E0
330
18
100
AcDbEntity
  8
1
100
AcDbLine
 10
26.18332291
 20
2.28
 30
0.0
 11
41.25292342
 21
2.28
 31
0.0
  0
LINE
  5
3E1
330
18
100
AcDbEntity
  8
1
100
AcDbLine
 10
26.18332291
 20
2.28
 30
0.0
 11
26.18332291
 21
2.277733239288927
 31
0.0
  0
LINE
  5
3E2
330
18
100
AcDbEntity
  8
1
100
AcDbLine
 10
26.18332291
 20
2.277733239288927
 30
0.0
 11
26.18332291
 21
2.075423324085397
 31
0.0
  0
LINE
  5
3E3
330
18
100
AcDbEntity
  8
1
100
AcDbLine
 10
26.18332291
 20
2.075423324085397
 30
0.0
 11
26.18332291
 21
-2.28
 31
0.0
  0
LINE
  5
3E4
330
18
100
AcDbEntity
  8
1
100
AcDbLine
 10
29.5
 20
-1.920532937706187
 30
0.0
 11
29.5
 21
-2.28
 31
0.0
  0
LINE
  5
3E5
330
18
100
AcDbEntity
  8
1
100
AcDbLine
 10
29.5
 20
2.024439822395283
 30
0.0
 11
29.5
 21
-0.574184055706661
 31
0.0
  0
LINE
  5
3E6
330
18
100
AcDbEntity
  8
1
100
AcDbLine
 10
29.5
 20
-1.920532937706188
 30
0.0
 11
41.25292342
 21
-1.920532937706188
 31
0.0
  0
LINE
  5
3E7
330
18
100
AcDbEntity
  8
1
100
AcDbLine
 10
41.25292342
 20
2.28
 30
0.0
 11
41.25292341999999
 21
2.279945310581045
 31
0.0
  0
LINE
  5
3E8
330
18
100
AcDbEntity
  8
1
100
AcDbLine
 10
41.25292341999999
 20
2.279945310581045
 30
0.0
 11
41.25292342
 21
2.263503175772035
 31
0.0
  0
LINE
  5
3E9
330
18
100
AcDbEntity
  8
1
100
AcDbLine
 10
41.25292342
 20
2.263503175772035
 30
0.0
 11
41.25292341999999
 21
2.024439822395277
 31
0.0
  0
LINE
  5
3EA
330
18
100
AcDbEntity
  8
1
100
AcDbLine
 10
41.25292341999999
 20
2.024439822395283
 30
0.0
 11
41.25292342
 21
-0.3238401416167876
 31
0.0
  0
LINE
  5
3EB
330
18
100
AcDbEntity
  8
1
100
AcDbLine
 10
41.25292342
 20
-0.3238401416167989
 30
0.0
 11
41.25292342
 21
-0.5741840557066744
 31
0.0
  0
LINE
  5
3EC
330
18
100
AcDbEntity
  8
1
100
AcDbLine
 10
41.25292342
 20
-0.5741840557066618
 30
0.0
 11
41.25292342
 21
-1.920532937706063
 31
0.0
  0
LINE
  5
3ED
330
18
100
AcDbEntity
  8
1
100
AcDbLine
 10
0.0
 20
-3.0
 30
0.0
 11
22.1
 21
-3.0
 31
0.0
  0
LINE
  5
3EE
330
18
100
AcDbEntity
  8
1
100
AcDbLine
 10
22.1
 20
-3.0
 30
0.0
 11
26.18332291
 21
-2.28
 31
0.0
  0
LINE
  5
3EF
330
18
100
AcDbEntity
  8
1
100
AcDbLine
 10
26.18332291
 20
-2.28
 30
0.0
 11
29.5
 21
-2.28
 31
0.0
  0
LINE
  5
3F0
330
18
100
AcDbEntity
  8
1
 62
     1
100
AcDbLine
 10
54.35075666860154
 20
2.761503087851279
 30
0.0
 11
54.67553823119418
 21
2.715959006660126
 31
0.0
  0
LINE
  5
3F1
330
18
100
AcDbEntity
  8
1
 62
     1
100
AcDbLine
 10
56.20096081150063
 20
2.502049173559681
 30
0.0
 11
56.85172633654744
 21
2.410792398783002
 31
0.0
  0
LINE
  5
3F2
330
18
100
AcDbEntity
  8
1
 62
     1
100
AcDbLine
 10
51.48845298923241
 20
3.0
 30
0.0
 11
51.5115470107676
 21
3.0
 31
0.0
  0
LINE
  5
3F3
330
18
100
AcDbEntity
  8
1
 62
     1
100
AcDbLine
 10
42.5
 20
3.0
 30
0.0
 11
42.51154701076759
 21
3.0
 31
0.0
  0
LINE
  5
3F4
330
18
100
AcDbEntity
  8
1
 62
     1
100
AcDbLine
 10
43.48845298923241
 20
3.0
 30
0.0
 11
43.51154701076759
 21
3.0
 31
0.0
  0
LINE
  5
3F5
330
18
100
AcDbEntity
  8
1
 62
     1
100
AcDbLine
 10
44.48845298923241
 20
3.0
 30
0.0
 11
44.5115470107676
 21
3.0
 31
0.0
  0
LINE
  5
3F6
330
18
100
AcDbEntity
  8
1
 62
     1
100
AcDbLine
 10
49.48845298923241
 20
3.0
 30
0.0
 11
49.5115470107676
 21
3.0
 31
0.0
  0
LINE
  5
3F7
330
18
100
AcDbEntity
  8
1
 62
     1
100
AcDbLine
 10
48.48845298923241
 20
3.0
 30
0.0
 11
48.5115470107676
 21
3.0
 31
0.0
  0
LINE
  5
3F8
330
18
100
AcDbEntity
  8
1
 62
     1
100
AcDbLine
 10
46.48845298923242
 20
3.0
 30
0.0
 11
46.51154701076759
 21
3.0
 31
0.0
  0
LINE
  5
3F9
330
18
100
AcDbEntity
  8
1
 62
     1
100
AcDbLine
 10
52.5115470107676
 20
-0.944266887768102
 30
0.0
 11
52.48845298923241
 21
-0.944266887768102
 31
0.0
  0
LINE
  5
3FA
330
18
100
AcDbEntity
  8
1
 62
     1
100
AcDbLine
 10
51.51154701076761
 20
-0.944266887768102
 30
0.0
 11
51.48845298923241
 21
-0.944266887768102
 31
0.0
  0
LINE
  5
3FB
330
18
100
AcDbEntity
  8
1
 62
     1
100
AcDbLine
 10
51.5115470107676
 20
-2.592746295640142
 30
0.0
 11
51.48845298923242
 21
-2.592746295640142
 31
0.0
  0
LINE
  5
3FC
330
18
100
AcDbEntity
  8
1
 62
     1
100
AcDbLine
 10
49.51154701076759
 20
-0.944266887768102
 30
0.0
 11
49.48845298923243
 21
-0.944266887768102
 31
0.0
  0
LINE
  5
3FD
330
18
100
AcDbEntity
  8
1
 62
     1
100
AcDbLine
 10
48.5115470107676
 20
-0.944266887768102
 30
0.0
 11
48.48845298923242
 21
-0.9442668877681023
 31
0.0
  0
LINE
  5
3FE
330
18
100
AcDbEntity
  8
1
 62
     1
100
AcDbLine
 10
48.5115470107676
 20
-2.592746295640142
 30
0.0
 11
48.48845298923241
 21
-2.592746295640142
 31
0.0
  0
LINE
  5
3FF
330
18
100
AcDbEntity
  8
1
 62
     1
100
AcDbLine
 10
47.5115470107676
 20
-0.944266887768102
 30
0.0
 11
47.48845298923244
 21
-0.9442668877681023
 31
0.0
  0
LINE
  5
400
330
18
100
AcDbEntity
  8
1
 62
     1
100
AcDbLine
 10
47.51154701076759
 20
-2.592746295640142
 30
0.0
 11
47.48845298923242
 21
-2.592746295640142
 31
0.0
  0
LINE
  5
401
330
18
100
AcDbEntity
  8
1
 62
     1
100
AcDbLine
 10
45.5115470107676
 20
-0.944266887768102
 30
0.0
 11
45.48845298923241
 21
-0.944266887768102
 31
0.0
  0
LINE
  5
402
330
18
100
AcDbEntity
  8
1
 62
     1
100
AcDbLine
 10
44.5115470107676
 20
-0.944266887768102
 30
0.0
 11
44.48845298923241
 21
-0.944266887768102
 31
0.0
  0
LINE
  5
403
330
18
100
AcDbEntity
  8
1
 62
     1
100
AcDbLine
 10
43.51154701076759
 20
-0.944266887768102
 30
0.0
 11
43.48845298923244
 21
-0.944266887768102
 31
0.0
  0
LINE
  5
404
330
18
100
AcDbEntity
  8
1
 62
     1
100
AcDbLine
 10
42.5115470107676
 20
-0.944266887768102
 30
0.0
 11
42.5
 21
-0.944266887768102
 31
0.0
  0
LINE
  5
405
330
18
100
AcDbEntity
  8
1
 62
     1
100
AcDbLine
 10
42.5
 20
-0.9442668877681313
 30
0.0
 11
42.50000000000001
 21
-2.59274629564014
 31
0.0
  0
LINE
  5
406
330
18
100
AcDbEntity
  8
1
 62
     1
100
AcDbLine
 10
42.51154701076759
 20
-2.592746295640142
 30
0.0
 11
42.49999999999999
 21
-2.592746295640142
 31
0.0
  0
LINE
  5
407
330
18
100
AcDbEntity
  8
1
 62
     1
100
AcDbLine
 10
56.85172633654745
 20
-0.6418809372894194
 30
0.0
 11
56.20096081150051
 21
-0.6889651567065306
 31
0.0
  0
LINE
  5
408
330
18
100
AcDbEntity
  8
1
 62
     1
100
AcDbLine
 10
56.85172633654745
 20
-2.031212855723167
 30
0.0
 11
56.20096081150061
 21
-2.111459632045469
 31
0.0
  0
LINE
  5
409
330
18
100
AcDbEntity
  8
1
 62
     1
100
AcDbLine
 10
55.7636322872041
 20
-0.7205458942359917
 30
0.0
 11
55.2758587403484
 21
-0.7557167788273127
 31
0.0
  0
LINE
  5
40A
330
18
100
AcDbEntity
  8
1
 62
     1
100
AcDbLine
 10
55.76363228509673
 20
-2.166780727120109
 30
0.0
 11
55.27585874005108
 21
-2.229801349954937
 31
0.0
  0
LINE
  5
40B
330
18
100
AcDbEntity
  8
1
 62
     1
100
AcDbLine
 10
54.67553823119419
 20
-0.7989330411644532
 30
0.0
 11
54.35075667025465
 21
-0.8222839402946358
 31
0.0
  0
LINE
  5
40C
330
18
100
AcDbEntity
  8
1
 62
     1
100
AcDbLine
 10
54.67553823119419
 20
-2.309265759994122
 30
0.0
 11
54.35075666860154
 21
-2.353129306229788
 31
0.0
  0
LINE
  5
40D
330
18
100
AcDbEntity
  8
1
 62
     1
100
AcDbLine
 10
53.58744417866507
 20
-0.8770890113145781
 30
0.0
 11
53.42565459715199
 21
-0.8886926885244331
 31
0.0
  0
LINE
  5
40E
330
18
100
AcDbEntity
  8
1
 62
     1
100
AcDbLine
 10
42.5
 20
-0.9442668877681024
 30
0.0
 11
42.48267947789924
 21
-0.9391612807489972
 31
0.0
  0
LINE
  5
40F
330
18
100
AcDbEntity
  8
1
 62
     1
100
AcDbLine
 10
42.49999999999999
 20
-2.592746295640142
 30
0.0
 11
42.48267947314943
 21
-2.582367098703232
 31
0.0
  0
LINE
  5
410
330
18
100
AcDbEntity
  8
1
 62
     1
100
AcDbLine
 10
41.75866033998081
 20
-0.7249768844174671
 30
0.0
 11
41.25292342
 21
-0.5741840557066618
 31
0.0
  0
ARC
  5
411
330
18
100
AcDbEntity
  8
1
 62
     1
100
AcDbCircle
 10
35.15505604034664
 20
-14.68648239401556
 30
0.0
 40
14.14757092587336
100
AcDbArc
 50
62.17543371630601
 51
64.46775306762005
  0
ARC
  5
412
330
18
100
AcDbEntity
  8
1
 62
     1
100
AcDbCircle
 10
61.86063471276166
 20
-5.367761352626331
 30
0.0
 40
6.018445255140331
100
AcDbArc
 50
143.8645408401656
 51
146.3315077102143
  0
ARC
  5
413
330
18
100
AcDbEntity
  8
1
 62
     1
100
AcDbCircle
 10
60.50467505738074
 20
-5.809633034723776
 30
0.0
 40
6.79933823099509
100
AcDbArc
 50
144.0576979758143
 51
149.0153958040396
  0
LINE
  5
414
330
18
100
AcDbEntity
  8
1
 62
     1
100
AcDbLine
 10
53.58744417938743
 20
-2.458618354433875
 30
0.0
 11
53.42565459715199
 21
-2.481408153652549
 31
0.0
  0
LINE
  5
415
330
18
100
AcDbEntity
  8
1
 62
     1
100
AcDbLine
 10
52.51154701076759
 20
-2.592746295640142
 30
0.0
 11
52.4884529892324
 21
-2.592746295640142
 31
0.0
  0
LINE
  5
416
330
18
100
AcDbEntity
  8
1
 62
     1
100
AcDbLine
 10
50.51154701076759
 20
-2.592746295640142
 30
0.0
 11
50.48845298923241
 21
-2.592746295640142
 31
0.0
  0
LINE
  5
417
330
18
100
AcDbEntity
  8
1
 62
     1
100
AcDbLine
 10
49.5115470107676
 20
-2.592746295640142
 30
0.0
 11
49.48845298923243
 21
-2.592746295640143
 31
0.0
  0
LINE
  5
418
330
18
100
AcDbEntity
  8
1
 62
     1
100
AcDbLine
 10
46.5115470107676
 20
-2.592746295640142
 30
0.0
 11
46.48845298923242
 21
-2.59274629564014
 31
0.0
  0
LINE
  5
419
330
18
100
AcDbEntity
  8
1
 62
     1
100
AcDbLine
 10
45.5115470107676
 20
-2.592746295640142
 30
0.0
 11
45.48845298923242
 21
-2.592746295640142
 31
0.0
  0
LINE
  5
41A
330
18
100
AcDbEntity
  8
1
 62
     1
100
AcDbLine
 10
44.51154701076759
 20
-2.592746295640142
 30
0.0
 11
44.4884529892324
 21
-2.59274629564014
 31
0.0
  0
LINE
  5
41B
330
18
100
AcDbEntity
  8
1
 62
     1
100
AcDbLine
 10
43.51154701076759
 20
-2.592746295640142
 30
0.0
 11
43.48845298923241
 21
-2.592746295640141
 31
0.0
  0
ARC
  5
41C
330
18
100
AcDbEntity
  8
1
 62
     1
100
AcDbCircle
 10
47.18706539710611
 20
-5.594270528257016
 30
0.0
 40
6.415707362550533
100
AcDbArc
 50
143.9499219872484
 51
147.7910616065271
  0
LINE
  5
41D
330
18
100
AcDbEntity
  8
1
 62
     1
100
AcDbLine
 10
52.48845298923241
 20
3.0
 30
0.0
 11
52.5115470107676
 21
3.0
 31
0.0
  0
LINE
  5
41E
330
18
100
AcDbEntity
  8
1
 62
     1
100
AcDbLine
 10
50.5115470107676
 20
2.603373524573361
 30
0.0
 11
50.48845298923242
 21
2.603373524573361
 31
0.0
  0
LINE
  5
41F
330
18
100
AcDbEntity
  8
1
 62
     1
100
AcDbLine
 10
50.51154701076759
 20
3.0
 30
0.0
 11
50.51154701076759
 21
2.999915615759083
 31
0.0
  0
LINE
  5
420
330
18
100
AcDbEntity
  8
1
 62
     1
100
AcDbLine
 10
50.51154701076759
 20
2.999915615759083
 30
0.0
 11
50.51154701076759
 21
2.974462761594916
 31
0.0
  0
LINE
  5
421
330
18
100
AcDbEntity
  8
1
 62
     1
100
AcDbLine
 10
50.51154701076759
 20
2.974462761594916
 30
0.0
 11
50.51154701076759
 21
2.603373524573361
 31
0.0
  0
LINE
  5
422
330
18
100
AcDbEntity
  8
1
 62
     1
100
AcDbLine
 10
50.48845298923242
 20
3.0
 30
0.0
 11
50.5115470107676
 21
3.0
 31
0.0
  0
LINE
  5
423
330
18
100
AcDbEntity
  8
1
 62
     1
100
AcDbLine
 10
47.5115470107676
 20
2.603373524573361
 30
0.0
 11
47.48845298923241
 21
2.603373524573361
 31
0.0
  0
LINE
  5
424
330
18
100
AcDbEntity
  8
1
 62
     1
100
AcDbLine
 10
47.48845298923241
 20
3.0
 30
0.0
 11
47.5115470107676
 21
3.0
 31
0.0
  0
LINE
  5
425
330
18
100
AcDbEntity
  8
1
 62
     1
100
AcDbLine
 10
45.48845298923241
 20
3.0
 30
0.0
 11
45.5115470107676
 21
3.0
 31
0.0
  0
LINE
  5
426
330
18
100
AcDbEntity
  8
1
 62
     1
100
AcDbLine
 10
54.67553823119418
 20
-0.7989330411644573
 30
0.0
 11
55.0
 21
-0.5086744906268997
 31
0.0
  0
LINE
  5
427
330
18
100
AcDbEntity
  8
1
 62
     1
100
AcDbLine
 10
54.67553823119418
 20
-0.7989330411644543
 30
0.0
 11
54.67553823119418
 21
-2.309265759994121
 31
0.0
  0
LINE
  5
428
330
18
100
AcDbEntity
  8
1
 62
     1
100
AcDbLine
 10
54.99999999999999
 20
-1.818715746604236
 30
0.0
 11
55.00000000000001
 21
-0.5086744906268996
 31
0.0
  0
LINE
  5
429
330
18
100
AcDbEntity
  8
1
 62
     1
100
AcDbLine
 10
54.0
 20
-0.5086744906268996
 30
0.0
 11
54.35075666860153
 21
-0.8222839345439599
 31
0.0
  0
ARC
  5
42A
330
18
100
AcDbEntity
  8
1
 62
     1
100
AcDbCircle
 10
48.64098213556744
 20
-5.715221892603623
 30
0.0
 40
6.625885433597975
100
AcDbArc
 50
30.49089812460616
 51
36.02064999161039
  0
LINE
  5
42B
330
18
100
AcDbEntity
  8
1
 62
     1
100
AcDbLine
 10
54.35075666860153
 20
-0.8222839345439545
 30
0.0
 11
54.35075666860153
 21
-2.353129306229789
 31
0.0
  0
LINE
  5
42C
330
18
100
AcDbEntity
  8
1
 62
     1
100
AcDbLine
 10
55.76363228387081
 20
-0.7205458826876123
 30
0.0
 11
56.0
 21
-0.5086744906269001
 31
0.0
  0
LINE
  5
42D
330
18
100
AcDbEntity
  8
1
 62
     1
100
AcDbLine
 10
55.76363228387083
 20
-0.7205458826876138
 30
0.0
 11
55.76363228387083
 21
-2.166780725070065
 31
0.0
  0
ARC
  5
42E
330
18
100
AcDbEntity
  8
1
 62
     1
100
AcDbCircle
 10
61.1687718267414
 20
-5.581722319776524
 30
0.0
 40
6.393528527032444
100
AcDbArc
 50
143.9443625727465
 51
147.7154964306606
  0
LINE
  5
42F
330
18
100
AcDbEntity
  8
1
 62
     1
100
AcDbLine
 10
56.00000000000001
 20
-1.818715746604321
 30
0.0
 11
56.00000000000001
 21
-0.5086744906269002
 31
0.0
  0
LINE
  5
430
330
18
100
AcDbEntity
  8
1
 62
     1
100
AcDbLine
 10
55.0
 20
-0.5086744906268998
 30
0.0
 11
55.27585874005108
 21
-0.7557167777955515
 31
0.0
  0
ARC
  5
431
330
18
100
AcDbEntity
  8
1
 62
     1
100
AcDbCircle
 10
49.86986230305192
 20
-5.557462983137692
 30
0.0
 40
6.347975402439568
100
AcDbArc
 50
31.61437881932241
 51
36.08385726026086
  0
LINE
  5
432
330
18
100
AcDbEntity
  8
1
 62
     1
100
AcDbLine
 10
55.27585874005108
 20
-0.7557167777955416
 30
0.0
 11
55.27585874005109
 21
-2.229801349954938
 31
0.0
  0
LINE
  5
433
330
18
100
AcDbEntity
  8
1
 62
     1
100
AcDbLine
 10
56.99999999999999
 20
-0.5086744906268975
 30
0.0
 11
56.99999999999999
 21
-0.631136701027178
 31
0.0
  0
LINE
  5
434
330
18
100
AcDbEntity
  8
1
 62
     1
100
AcDbLine
 10
57.0
 20
-0.63113670102718
 30
0.0
 11
57.0
 21
-2.013276442482356
 31
0.0
  0
LINE
  5
435
330
18
100
AcDbEntity
  8
1
 62
     1
100
AcDbLine
 10
56.85172633654744
 20
-0.6418809372894179
 30
0.0
 11
57.0
 21
-0.5086744906269
 31
0.0
  0
LINE
  5
436
330
18
100
AcDbEntity
  8
1
 62
     1
100
AcDbLine
 10
56.85172633654745
 20
-0.6418809372894194
 30
0.0
 11
56.85172633654745
 21
-2.031212855723039
 31
0.0
  0
LINE
  5
437
330
18
100
AcDbEntity
  8
1
 62
     1
100
AcDbLine
 10
53.0
 20
-0.5086744906269
 30
0.0
 11
53.42565459715198
 21
-0.8886926885244437
 31
0.0
  0
ARC
  5
438
330
18
100
AcDbEntity
  8
1
 62
     1
100
AcDbCircle
 10
47.39954995291118
 20
-5.879340892085935
 30
0.0
 40
6.917707877815826
100
AcDbArc
 50
29.41729736364218
 51
35.94411593099955
  0
LINE
  5
439
330
18
100
AcDbEntity
  8
1
 62
     1
100
AcDbLine
 10
53.42565459715198
 20
-0.8886926885244387
 30
0.0
 11
53.42565459715199
 21
-2.481408153652543
 31
0.0
  0
LINE
  5
43A
330
18
100
AcDbEntity
  8
1
 62
     1
100
AcDbLine
 10
52.51154701076759
 20
-0.9442668877681004
 30
0.0
 11
53.0
 21
-0.5086744906269001
 31
0.0
  0
LINE
  5
43B
330
18
100
AcDbEntity
  8
1
 62
     1
100
AcDbLine
 10
52.51154701076759
 20
-0.9442668877681014
 30
0.0
 11
52.51154701076759
 21
-2.592746295640142
 31
0.0
  0
ARC
  5
43C
330
18
100
AcDbEntity
  8
1
 62
     1
100
AcDbCircle
 10
59.19978858435346
 20
-6.266176168882097
 30
0.0
 40
7.630541758529112
100
AcDbArc
 50
144.3459776160059
 51
151.2227798445184
  0
LINE
  5
43D
330
18
100
AcDbEntity
  8
1
 62
     1
100
AcDbLine
 10
52.99999999999999
 20
-1.818715746604236
 30
0.0
 11
53.00000000000001
 21
-0.5086744906269
 31
0.0
  0
LINE
  5
43E
330
18
100
AcDbEntity
  8
1
 62
     1
100
AcDbLine
 10
53.58744417851754
 20
-0.8770890108004281
 30
0.0
 11
54.0
 21
-0.5086744906269487
 31
0.0
  0
LINE
  5
43F
330
18
100
AcDbEntity
  8
1
 62
     1
100
AcDbLine
 10
53.58744417851754
 20
-0.877089010800427
 30
0.0
 11
53.58744417851756
 21
-2.458618352646607
 31
0.0
  0
ARC
  5
440
330
18
100
AcDbEntity
  8
1
 62
     1
100
AcDbCircle
 10
59.86587034291436
 20
-6.049228194353319
 30
0.0
 40
7.232581991202404
100
AcDbArc
 50
144.200556897466
 51
150.2349126484289
  0
LINE
  5
441
330
18
100
AcDbEntity
  8
1
 62
     1
100
AcDbLine
 10
54.0
 20
-1.818715746604236
 30
0.0
 11
54.00000000000001
 21
-0.5086744906268996
 31
0.0
  0
LINE
  5
442
330
18
100
AcDbEntity
  8
1
 62
     1
100
AcDbLine
 10
56.0
 20
-0.5086744906268996
 30
0.0
 11
56.20096081150064
 21
-0.688965156706282
 31
0.0
  0
ARC
  5
443
330
18
100
AcDbEntity
  8
1
 62
     1
100
AcDbCircle
 10
51.0861060967184
 20
-5.406310363089139
 30
0.0
 40
6.08418287002142
100
AcDbArc
 50
32.78853650642212
 51
36.13288262636388
  0
LINE
  5
444
330
18
100
AcDbEntity
  8
1
 62
     1
100
AcDbLine
 10
56.20096081150064
 20
-0.6889651567062821
 30
0.0
 11
56.20096081150063
 21
-2.111459632045477
 31
0.0
  0
LINE
  5
445
330
18
100
AcDbEntity
  8
1
 62
     1
100
AcDbLine
 10
56.85172633654744
 20
2.140137771836097
 30
0.0
 11
56.20096081150061
 21
2.218266360336315
 31
0.0
  0
LINE
  5
446
330
18
100
AcDbEntity
  8
1
 62
     1
100
AcDbLine
 10
55.76363228509672
 20
2.269546864581454
 30
0.0
 11
55.27585874005108
 21
2.325550771585711
 31
0.0
  0
LINE
  5
447
330
18
100
AcDbEntity
  8
1
 62
     1
100
AcDbLine
 10
55.27585874005108
 20
2.63177613070548
 30
0.0
 11
55.76363228387082
 21
2.563375702721563
 31
0.0
  0
LINE
  5
448
330
18
100
AcDbEntity
  8
1
 62
     1
100
AcDbLine
 10
54.67553823119419
 20
2.392693351736097
 30
0.0
 11
54.35075666860153
 21
2.42816815633823
 31
0.0
  0
LINE
  5
449
330
18
100
AcDbEntity
  8
1
 62
     1
100
AcDbLine
 10
53.58744417851755
 20
2.868542310598688
 30
0.0
 11
53.58744417851756
 21
2.86846569059806
 31
0.0
  0
LINE
  5
44A
330
18
100
AcDbEntity
  8
1
 62
     1
100
AcDbLine
 10
53.58744417851756
 20
2.86846569059806
 30
0.0
 11
53.58744417851754
 21
2.845379835885994
 31
0.0
  0
LINE
  5
44B
330
18
100
AcDbEntity
  8
1
 62
     1
100
AcDbLine
 10
53.58744417851754
 20
2.845379835885994
 30
0.0
 11
53.58744417851755
 21
2.509074032768843
 31
0.0
  0
LINE
  5
44C
330
18
100
AcDbEntity
  8
1
 62
     1
100
AcDbLine
 10
53.42565459715199
 20
2.891230044997078
 30
0.0
 11
53.58744417851756
 21
2.868542310598688
 31
0.0
  0
LINE
  5
44D
330
18
100
AcDbEntity
  8
1
 62
     1
100
AcDbLine
 10
50.0
 20
-0.5086744906268998
 30
0.0
 11
50.48845298923242
 21
-0.9442668877681112
 31
0.0
  0
ARC
  5
44E
330
18
100
AcDbEntity
  8
1
 62
     1
100
AcDbCircle
 10
44.18640780812777
 20
-6.022404251012967
 30
0.0
 40
7.174282897590382
100
AcDbArc
 50
28.55562835340595
 51
35.86991509514686
  0
LINE
  5
44F
330
18
100
AcDbEntity
  8
1
 62
     1
100
AcDbLine
 10
50.48845298923242
 20
-0.9442668877681024
 30
0.0
 11
50.48845298923242
 21
-2.592746295640142
 31
0.0
  0
LINE
  5
450
330
18
100
AcDbEntity
  8
1
 62
     1
100
AcDbLine
 10
49.5115470107676
 20
-0.9442668877681004
 30
0.0
 11
50.0
 21
-0.5086744906268998
 31
0.0
  0
LINE
  5
451
330
18
100
AcDbEntity
  8
1
 62
     1
100
AcDbLine
 10
49.51154701076761
 20
-0.9442668877681024
 30
0.0
 11
49.5115470107676
 21
-2.592746295640142
 31
0.0
  0
ARC
  5
452
330
18
100
AcDbEntity
  8
1
 62
     1
100
AcDbCircle
 10
56.19978858435462
 20
-6.266176168882639
 30
0.0
 40
7.630541758530382
100
AcDbArc
 50
144.3459776160077
 51
151.222779844519
  0
LINE
  5
453
330
18
100
AcDbEntity
  8
1
 62
     1
100
AcDbLine
 10
49.99999999999999
 20
-1.818715746604236
 30
0.0
 11
50.00000000000001
 21
-0.5086744906269
 31
0.0
  0
LINE
  5
454
330
18
100
AcDbEntity
  8
1
 62
     1
100
AcDbLine
 10
50.51154701076759
 20
-0.9442668877681022
 30
0.0
 11
51.0
 21
-0.5086744906269001
 31
0.0
  0
LINE
  5
455
330
18
100
AcDbEntity
  8
1
 62
     1
100
AcDbLine
 10
50.51154701076759
 20
-0.9442668877681024
 30
0.0
 11
50.51154701076759
 21
-2.592746295640142
 31
0.0
  0
ARC
  5
456
330
18
100
AcDbEntity
  8
1
 62
     1
100
AcDbCircle
 10
57.19978858435476
 20
-6.266176168882853
 30
0.0
 40
7.630541758530616
100
AcDbArc
 50
144.345977616007
 51
151.2227798445182
  0
LINE
  5
457
330
18
100
AcDbEntity
  8
1
 62
     1
100
AcDbLine
 10
51.0
 20
-1.818715746604236
 30
0.0
 11
50.99999999999999
 21
-0.5086744906269
 31
0.0
  0
LINE
  5
458
330
18
100
AcDbEntity
  8
1
 62
     1
100
AcDbLine
 10
51.0
 20
-0.5086744906269001
 30
0.0
 11
51.48845298923241
 21
-0.9442668877681064
 31
0.0
  0
ARC
  5
459
330
18
100
AcDbEntity
  8
1
 62
     1
100
AcDbCircle
 10
45.1864078081176
 20
-6.022404251019521
 30
0.0
 40
7.17428289760247
100
AcDbArc
 50
28.55562835341317
 51
35.86991509514164
  0
LINE
  5
45A
330
18
100
AcDbEntity
  8
1
 62
     1
100
AcDbLine
 10
51.48845298923242
 20
-0.9442668877681024
 30
0.0
 11
51.48845298923241
 21
-2.592746295640142
 31
0.0
  0
LINE
  5
45B
330
18
100
AcDbEntity
  8
1
 62
     1
100
AcDbLine
 10
52.0
 20
-0.5086744906269
 30
0.0
 11
52.48845298923243
 21
-0.9442668877681066
 31
0.0
  0
ARC
  5
45C
330
18
100
AcDbEntity
  8
1
 62
     1
100
AcDbCircle
 10
46.18640780812368
 20
-6.022404251015616
 30
0.0
 40
7.174282897595253
100
AcDbArc
 50
28.555628353409
 51
35.86991509514485
  0
LINE
  5
45D
330
18
100
AcDbEntity
  8
1
 62
     1
100
AcDbLine
 10
52.48845298923241
 20
-0.9442668877681024
 30
0.0
 11
52.48845298923241
 21
-2.592746295640142
 31
0.0
  0
LINE
  5
45E
330
18
100
AcDbEntity
  8
1
 62
     1
100
AcDbLine
 10
51.51154701076759
 20
-0.9442668877681005
 30
0.0
 11
52.0
 21
-0.5086744906269001
 31
0.0
  0
LINE
  5
45F
330
18
100
AcDbEntity
  8
1
 62
     1
100
AcDbLine
 10
51.5115470107676
 20
-0.9442668877681024
 30
0.0
 11
51.51154701076759
 21
-2.592746295640142
 31
0.0
  0
ARC
  5
460
330
18
100
AcDbEntity
  8
1
 62
     1
100
AcDbCircle
 10
58.19978858436042
 20
-6.266176168886392
 30
0.0
 40
7.630541758537286
100
AcDbArc
 50
144.3459776160102
 51
151.2227798445153
  0
LINE
  5
461
330
18
100
AcDbEntity
  8
1
 62
     1
100
AcDbLine
 10
51.99999999999999
 20
-1.818715746604236
 30
0.0
 11
52.0
 21
-0.5086744906269
 31
0.0
  0
LINE
  5
462
330
18
100
AcDbEntity
  8
1
 62
     1
100
AcDbLine
 10
49.0
 20
-0.5086744906269001
 30
0.0
 11
49.48845298923241
 21
-0.9442668877681064
 31
0.0
  0
ARC
  5
463
330
18
100
AcDbEntity
  8
1
 62
     1
100
AcDbCircle
 10
43.18640780812049
 20
-6.022404251017782
 30
0.0
 40
7.174282897599096
100
AcDbArc
 50
28.55562835341198
 51
35.86991509514393
  0
LINE
  5
464
330
18
100
AcDbEntity
  8
1
 62
     1
100
AcDbLine
 10
49.48845298923241
 20
-0.9442668877681024
 30
0.0
 11
49.48845298923241
 21
-2.592746295640142
 31
0.0
  0
LINE
  5
465
330
18
100
AcDbEntity
  8
1
 62
     1
100
AcDbLine
 10
45.0
 20
-0.5086744906268997
 30
0.0
 11
45.48845298923241
 21
-0.9442668877681053
 31
0.0
  0
LINE
  5
466
330
18
100
AcDbEntity
  8
1
 62
     1
100
AcDbLine
 10
45.0
 20
-1.818715746604236
 30
0.0
 11
45.00000000000001
 21
-0.5086744906268996
 31
0.0
  0
ARC
  5
467
330
18
100
AcDbEntity
  8
1
 62
     1
100
AcDbCircle
 10
39.18640780812208
 20
-6.022404251016605
 30
0.0
 40
7.174282897597122
100
AcDbArc
 50
28.55562835340988
 51
35.8699150951438
  0
LINE
  5
468
330
18
100
AcDbEntity
  8
1
 62
     1
100
AcDbLine
 10
45.48845298923241
 20
-0.9442668877681024
 30
0.0
 11
45.48845298923242
 21
-2.592746295640142
 31
0.0
  0
LINE
  5
469
330
18
100
AcDbEntity
  8
1
 62
     1
100
AcDbLine
 10
48.51154701076759
 20
-0.9442668877681004
 30
0.0
 11
49.0
 21
-0.5086744906269
 31
0.0
  0
LINE
  5
46A
330
18
100
AcDbEntity
  8
1
 62
     1
100
AcDbLine
 10
48.51154701076759
 20
-0.9442668877681024
 30
0.0
 11
48.51154701076761
 21
-2.592746295640142
 31
0.0
  0
ARC
  5
46B
330
18
100
AcDbEntity
  8
1
 62
     1
100
AcDbCircle
 10
55.19978858435885
 20
-6.266176168885334
 30
0.0
 40
7.630541758535395
100
AcDbArc
 50
144.3459776160098
 51
151.2227798445166
  0
LINE
  5
46C
330
18
100
AcDbEntity
  8
1
 62
     1
100
AcDbLine
 10
49.00000000000001
 20
-1.818715746604236
 30
0.0
 11
49.00000000000001
 21
-0.5086744906269
 31
0.0
  0
LINE
  5
46D
330
18
100
AcDbEntity
  8
1
 62
     1
100
AcDbLine
 10
48.0
 20
-0.5086744906269
 30
0.0
 11
48.48845298923243
 21
-0.9442668877681066
 31
0.0
  0
ARC
  5
46E
330
18
100
AcDbEntity
  8
1
 62
     1
100
AcDbCircle
 10
42.18640780812132
 20
-6.02240425101712
 30
0.0
 40
7.174282897598043
100
AcDbArc
 50
28.55562835341054
 51
35.86991509514355
  0
LINE
  5
46F
330
18
100
AcDbEntity
  8
1
 62
     1
100
AcDbLine
 10
48.48845298923241
 20
-0.9442668877681024
 30
0.0
 11
48.48845298923241
 21
-2.592746295640142
 31
0.0
  0
LINE
  5
470
330
18
100
AcDbEntity
  8
1
 62
     1
100
AcDbLine
 10
47.51154701076759
 20
-0.9442668877681005
 30
0.0
 11
48.0
 21
-0.5086744906269001
 31
0.0
  0
LINE
  5
471
330
18
100
AcDbEntity
  8
1
 62
     1
100
AcDbLine
 10
47.51154701076759
 20
-0.9442668877681014
 30
0.0
 11
47.5115470107676
 21
-2.592746295640142
 31
0.0
  0
ARC
  5
472
330
18
100
AcDbEntity
  8
1
 62
     1
100
AcDbCircle
 10
54.19978858436161
 20
-6.266176168887121
 30
0.0
 40
7.630541758538686
100
AcDbArc
 50
144.345977616011
 51
151.2227798445149
  0
LINE
  5
473
330
18
100
AcDbEntity
  8
1
 62
     1
100
AcDbLine
 10
48.0
 20
-1.818715746604236
 30
0.0
 11
48.00000000000001
 21
-0.5086744906269
 31
0.0
  0
LINE
  5
474
330
18
100
AcDbEntity
  8
1
 62
     1
100
AcDbLine
 10
47.0
 20
-0.5086744906269001
 30
0.0
 11
47.48845298923241
 21
-0.9442668877681053
 31
0.0
  0
ARC
  5
475
330
18
100
AcDbEntity
  8
1
 62
     1
100
AcDbCircle
 10
41.18640780812014
 20
-6.022404251017788
 30
0.0
 40
7.174282897599397
100
AcDbArc
 50
28.55562835341079
 51
35.86991509514235
  0
LINE
  5
476
330
18
100
AcDbEntity
  8
1
 62
     1
100
AcDbLine
 10
47.48845298923241
 20
-0.9442668877681024
 30
0.0
 11
47.48845298923241
 21
-2.592746295640142
 31
0.0
  0
LINE
  5
477
330
18
100
AcDbEntity
  8
1
 62
     1
100
AcDbLine
 10
46.51154701076759
 20
-0.9442668877681023
 30
0.0
 11
47.0
 21
-0.5086744906268997
 31
0.0
  0
LINE
  5
478
330
18
100
AcDbEntity
  8
1
 62
     1
100
AcDbLine
 10
46.51154701076759
 20
-0.9442668877681024
 30
0.0
 11
46.51154701076759
 21
-2.592746295640142
 31
0.0
  0
ARC
  5
479
330
18
100
AcDbEntity
  8
1
 62
     1
100
AcDbCircle
 10
53.19978858436419
 20
-6.266176168888783
 30
0.0
 40
7.630541758541737
100
AcDbArc
 50
144.3459776160121
 51
151.2227798445132
  0
LINE
  5
47A
330
18
100
AcDbEntity
  8
1
 62
     1
100
AcDbLine
 10
47.0
 20
-1.818715746604236
 30
0.0
 11
47.0
 21
-0.5086744906269
 31
0.0
  0
LINE
  5
47B
330
18
100
AcDbEntity
  8
1
 62
     1
100
AcDbLine
 10
46.0
 20
-0.5086744906269001
 30
0.0
 11
46.48845298923242
 21
-0.9442668877681109
 31
0.0
  0
LINE
  5
47C
330
18
100
AcDbEntity
  8
1
 62
     1
100
AcDbLine
 10
46.0
 20
-1.818715746604235
 30
0.0
 11
46.0
 21
-0.5086744906268996
 31
0.0
  0
ARC
  5
47D
330
18
100
AcDbEntity
  8
1
 62
     1
100
AcDbCircle
 10
40.18640780811739
 20
-6.022404251019609
 30
0.0
 40
7.174282897602685
100
AcDbArc
 50
28.55562835341294
 51
35.86991509514127
  0
LINE
  5
47E
330
18
100
AcDbEntity
  8
1
 62
     1
100
AcDbLine
 10
46.48845298923242
 20
-0.9442668877681014
 30
0.0
 11
46.48845298923241
 21
-2.592746295640142
 31
0.0
  0
LINE
  5
47F
330
18
100
AcDbEntity
  8
1
 62
     1
100
AcDbLine
 10
45.51154701076759
 20
-0.9442668877681004
 30
0.0
 11
46.0
 21
-0.5086744906269
 31
0.0
  0
LINE
  5
480
330
18
100
AcDbEntity
  8
1
 62
     1
100
AcDbLine
 10
45.5115470107676
 20
-0.9442668877681014
 30
0.0
 11
45.51154701076759
 21
-2.592746295640142
 31
0.0
  0
ARC
  5
481
330
18
100
AcDbEntity
  8
1
 62
     1
100
AcDbCircle
 10
52.19978858435147
 20
-6.26617616888074
 30
0.0
 40
7.630541758526711
100
AcDbArc
 50
144.3459776160055
 51
151.2227798445201
  0
LINE
  5
482
330
18
100
AcDbEntity
  8
1
 62
     1
100
AcDbLine
 10
42.5
 20
3.0
 30
0.0
 11
42.5
 21
2.999915615759083
 31
0.0
  0
LINE
  5
483
330
18
100
AcDbEntity
  8
1
 62
     1
100
AcDbLine
 10
42.5
 20
2.999915615759083
 30
0.0
 11
42.49999999999999
 21
2.974462761594916
 31
0.0
  0
LINE
  5
484
330
18
100
AcDbEntity
  8
1
 62
     1
100
AcDbLine
 10
42.49999999999999
 20
2.974462761594916
 30
0.0
 11
42.5
 21
2.603373524573361
 31
0.0
  0
LINE
  5
485
330
18
100
AcDbEntity
  8
1
 62
     1
100
AcDbLine
 10
42.48267947980069
 20
2.989999992988802
 30
0.0
 11
42.5
 21
3.0
 31
0.0
  0
ARC
  5
486
330
18
100
AcDbEntity
  8
1
 62
     1
100
AcDbCircle
 10
48.71598769888328
 20
-12.30539412352432
 30
0.0
 40
16.15676405189556
100
AcDbArc
 50
115.506531834838
 51
117.5107731578395
  0
LINE
  5
487
330
18
100
AcDbEntity
  8
1
 62
     1
100
AcDbLine
 10
41.25292342
 20
2.28
 30
0.0
 11
41.75866034470359
 21
2.571987349956156
 31
0.0
  0
LINE
  5
488
330
18
100
AcDbEntity
  8
1
 62
     1
100
AcDbLine
 10
42.51154701076759
 20
-0.9442668877681023
 30
0.0
 11
43.0
 21
-0.5086744906268997
 31
0.0
  0
LINE
  5
489
330
18
100
AcDbEntity
  8
1
 62
     1
100
AcDbLine
 10
42.51154701076759
 20
-0.9442668877681024
 30
0.0
 11
42.51154701076759
 21
-2.592746295640142
 31
0.0
  0
ARC
  5
48A
330
18
100
AcDbEntity
  8
1
 62
     1
100
AcDbCircle
 10
49.19978858435152
 20
-6.266176168880746
 30
0.0
 40
7.630541758526762
100
AcDbArc
 50
144.3459776160057
 51
151.2227798445203
  0
LINE
  5
48B
330
18
100
AcDbEntity
  8
1
 62
     1
100
AcDbLine
 10
43.0
 20
-0.5086744906269001
 30
0.0
 11
43.48845298923243
 21
-0.9442668877681109
 31
0.0
  0
LINE
  5
48C
330
18
100
AcDbEntity
  8
1
 62
     1
100
AcDbLine
 10
43.0
 20
-1.818715746604236
 30
0.0
 11
43.00000000000001
 21
-0.5086744906268996
 31
0.0
  0
ARC
  5
48D
330
18
100
AcDbEntity
  8
1
 62
     1
100
AcDbCircle
 10
37.18640780811783
 20
-6.022404251019321
 30
0.0
 40
7.17428289760217
100
AcDbArc
 50
28.55562835341254
 51
35.86991509514143
  0
LINE
  5
48E
330
18
100
AcDbEntity
  8
1
 62
     1
100
AcDbLine
 10
43.48845298923242
 20
-0.9442668877681024
 30
0.0
 11
43.48845298923242
 21
-2.592746295640142
 31
0.0
  0
LINE
  5
48F
330
18
100
AcDbEntity
  8
1
 62
     1
100
AcDbLine
 10
43.51154701076759
 20
-0.9442668877681023
 30
0.0
 11
44.0
 21
-0.5086744906268997
 31
0.0
  0
LINE
  5
490
330
18
100
AcDbEntity
  8
1
 62
     1
100
AcDbLine
 10
43.51154701076759
 20
-0.9442668877681024
 30
0.0
 11
43.51154701076759
 21
-2.592746295640142
 31
0.0
  0
ARC
  5
491
330
18
100
AcDbEntity
  8
1
 62
     1
100
AcDbCircle
 10
50.19978858435616
 20
-6.266176168883778
 30
0.0
 40
7.630541758532293
100
AcDbArc
 50
144.3459776160074
 51
151.2227798445171
  0
LINE
  5
492
330
18
100
AcDbEntity
  8
1
 62
     1
100
AcDbLine
 10
44.0
 20
-0.5086744906269001
 30
0.0
 11
44.48845298923241
 21
-0.9442668877681053
 31
0.0
  0
LINE
  5
493
330
18
100
AcDbEntity
  8
1
 62
     1
100
AcDbLine
 10
44.00000000000001
 20
-1.818715746604236
 30
0.0
 11
44.00000000000001
 21
-0.5086744906268996
 31
0.0
  0
ARC
  5
494
330
18
100
AcDbEntity
  8
1
 62
     1
100
AcDbCircle
 10
38.18640780811878
 20
-6.022404251018727
 30
0.0
 40
7.17428289760105
100
AcDbArc
 50
28.55562835341214
 51
35.86991509514203
  0
LINE
  5
495
330
18
100
AcDbEntity
  8
1
 62
     1
100
AcDbLine
 10
44.48845298923241
 20
-0.9442668877681024
 30
0.0
 11
44.48845298923241
 21
-2.592746295640142
 31
0.0
  0
LINE
  5
496
330
18
100
AcDbEntity
  8
1
 62
     1
100
AcDbLine
 10
44.51154701076759
 20
-0.9442668877681005
 30
0.0
 11
45.0
 21
-0.5086744906269001
 31
0.0
  0
LINE
  5
497
330
18
100
AcDbEntity
  8
1
 62
     1
100
AcDbLine
 10
44.51154701076759
 20
-0.9442668877681024
 30
0.0
 11
44.5115470107676
 21
-2.592746295640142
 31
0.0
  0
ARC
  5
498
330
18
100
AcDbEntity
  8
1
 62
     1
100
AcDbCircle
 10
51.19978858436281
 20
-6.266176168887675
 30
0.0
 40
7.630541758539994
100
AcDbArc
 50
144.3459776160129
 51
151.2227798445155
  0
LINE
  5
499
330
18
100
AcDbEntity
  8
1
 62
     1
100
AcDbLine
 10
41.75866034470359
 20
-0.7249768802090542
 30
0.0
 11
42.0
 21
-0.5086744906269001
 31
0.0
  0
LINE
  5
49A
330
18
100
AcDbEntity
  8
1
 62
     1
100
AcDbLine
 10
41.75866034470359
 20
-0.7249768821117126
 30
0.0
 11
41.75866034470359
 21
-2.174638621871649
 31
0.0
  0
LINE
  5
49B
330
18
100
AcDbEntity
  8
1
 62
     1
100
AcDbLine
 10
42.0
 20
-1.818715746604236
 30
0.0
 11
42.00000000000001
 21
-0.5086744906269
 31
0.0
  0
LINE
  5
49C
330
18
100
AcDbEntity
  8
1
 62
     1
100
AcDbLine
 10
42.0
 20
-0.5086744906268996
 30
0.0
 11
42.48267947980069
 21
-0.9391612790673837
 31
0.0
  0
ARC
  5
49D
330
18
100
AcDbEntity
  8
1
 62
     1
100
AcDbCircle
 10
36.20638995096136
 20
-6.009061920596676
 30
0.0
 40
7.150269061658534
100
AcDbArc
 50
28.63342032504071
 51
35.87709914036391
  0
LINE
  5
49E
330
18
100
AcDbEntity
  8
1
 62
     1
100
AcDbLine
 10
42.4826794798007
 20
-0.9391612797145287
 30
0.0
 11
42.48267947980069
 21
-2.58236708975138
 31
0.0
  0
LINE
  5
49F
330
18
100
AcDbEntity
  8
1
 62
     1
100
AcDbLine
 10
46.51154701076759
 20
-0.944266887768102
 30
0.0
 11
46.48845298923243
 21
-0.944266887768102
 31
0.0
  0
LINE
  5
4A0
330
18
100
AcDbEntity
  8
1
 62
     1
100
AcDbLine
 10
50.51154701076759
 20
-0.944266887768102
 30
0.0
 11
50.48845298923243
 21
-0.944266887768102
 31
0.0
  0
ARC
  5
4A1
330
18
100
AcDbEntity
  8
1
 62
     1
100
AcDbCircle
 10
49.99725124042812
 20
-2.416273156156086
 30
0.0
 40
8.230719012244489
100
AcDbArc
 50
31.70059580723325
 51
33.61338537352157
  0
ARC
  5
4A2
330
18
100
AcDbEntity
  8
1
 62
     1
100
AcDbCircle
 10
49.36934364538833
 20
-2.176931201038829
 30
0.0
 40
7.788339744295664
100
AcDbArc
 50
31.64096209188923
 51
34.81408537334497
  0
ARC
  5
4A3
330
18
100
AcDbEntity
  8
1
 62
     1
100
AcDbCircle
 10
48.82659380469563
 20
-1.877351188792594
 30
0.0
 40
7.24181393813231
100
AcDbArc
 50
31.52088650565689
 51
36.13145778047397
  0
LINE
  5
4A4
330
18
100
AcDbEntity
  8
1
 62
     1
100
AcDbLine
 10
53.58744417938746
 20
2.509074047541696
 30
0.0
 11
53.42565459715199
 21
2.525759935946951
 31
0.0
  0
LINE
  5
4A5
330
18
100
AcDbEntity
  8
1
 62
     1
100
AcDbLine
 10
52.5115470107676
 20
2.603373524573361
 30
0.0
 11
52.48845298923241
 21
2.603373524573361
 31
0.0
  0
LINE
  5
4A6
330
18
100
AcDbEntity
  8
1
 62
     1
100
AcDbLine
 10
51.51154701076759
 20
2.603373524573361
 30
0.0
 11
51.48845298923242
 21
2.603373524573361
 31
0.0
  0
LINE
  5
4A7
330
18
100
AcDbEntity
  8
1
 62
     1
100
AcDbLine
 10
49.5115470107676
 20
2.603373524573361
 30
0.0
 11
49.48845298923241
 21
2.60337352457336
 31
0.0
  0
LINE
  5
4A8
330
18
100
AcDbEntity
  8
1
 62
     1
100
AcDbLine
 10
48.5115470107676
 20
2.603373524573361
 30
0.0
 11
48.48845298923242
 21
2.603373524573361
 31
0.0
  0
LINE
  5
4A9
330
18
100
AcDbEntity
  8
1
 62
     1
100
AcDbLine
 10
46.51154701076757
 20
2.603373524573361
 30
0.0
 11
46.48845298923242
 21
2.603373524573361
 31
0.0
  0
LINE
  5
4AA
330
18
100
AcDbEntity
  8
1
 62
     1
100
AcDbLine
 10
45.51154701076759
 20
2.603373524573361
 30
0.0
 11
45.48845298923239
 21
2.60337352457336
 31
0.0
  0
LINE
  5
4AB
330
18
100
AcDbEntity
  8
1
 62
     1
100
AcDbLine
 10
44.5115470107676
 20
2.603373524573361
 30
0.0
 11
44.48845298923241
 21
2.603373524573361
 31
0.0
  0
LINE
  5
4AC
330
18
100
AcDbEntity
  8
1
 62
     1
100
AcDbLine
 10
43.51154701076759
 20
2.603373524573361
 30
0.0
 11
43.48845298923241
 21
2.60337352457336
 31
0.0
  0
LINE
  5
4AD
330
18
100
AcDbEntity
  8
1
 62
     1
100
AcDbLine
 10
42.51154701076759
 20
2.603373524573361
 30
0.0
 11
42.5
 21
2.603373524573361
 31
0.0
  0
LINE
  5
4AE
330
18
100
AcDbEntity
  8
1
 62
     1
100
AcDbLine
 10
42.5
 20
2.603373524573361
 30
0.0
 11
42.48267947980069
 21
2.596407712933233
 31
0.0
  0
ARC
  5
4AF
330
18
100
AcDbEntity
  8
1
 62
     1
100
AcDbCircle
 10
35.39323724896928
 20
-2.161418904915389
 30
0.0
 40
7.759856663375714
100
AcDbArc
 50
31.63600056729135
 51
34.88489615393396
  0
LINE
  5
4B0
330
18
100
AcDbEntity
  8
1
 62
     1
100
AcDbLine
 10
57.0
 20
2.39
 30
0.0
 11
59.39
 21
0.0
 31
0.0
  0
LINE
  5
4B1
330
18
100
AcDbEntity
  8
1
 62
     1
100
AcDbLine
 10
57.58775869531119
 20
-0.3238401416167876
 30
0.0
 11
57.66171831615097
 21
-0.2826268199048825
 31
0.0
  0
LINE
  5
4B2
330
18
100
AcDbEntity
  8
1
 62
     1
100
AcDbLine
 10
57.66171831615097
 20
-0.2826268199048825
 30
0.0
 11
57.73461355917691
 21
-0.2379074961623636
 31
0.0
  0
LINE
  5
4B3
330
18
100
AcDbEntity
  8
1
 62
     1
100
AcDbLine
 10
57.73461355917691
 20
-0.2379074961623636
 30
0.0
 11
57.80614224149159
 21
-0.1895152801362553
 31
0.0
  0
LINE
  5
4B4
330
18
100
AcDbEntity
  8
1
 62
     1
100
AcDbLine
 10
57.80614224149159
 20
-0.1895152801362553
 30
0.0
 11
57.8759110964823
 21
-0.1372273082819051
 31
0.0
  0
LINE
  5
4B5
330
18
100
AcDbEntity
  8
1
 62
     1
100
AcDbLine
 10
57.8759110964823
 20
-0.1372273082819051
 30
0.0
 11
57.94339838932599
 21
-0.0807504771876796
 31
0.0
  0
LINE
  5
4B6
330
18
100
AcDbEntity
  8
1
 62
     1
100
AcDbLine
 10
57.94339838932599
 20
-0.0807504771876796
 30
0.0
 11
58.00789961092612
 21
-0.0197058235552824
 31
0.0
  0
LINE
  5
4B7
330
18
100
AcDbEntity
  8
1
 62
     1
100
AcDbLine
 10
58.00789961092612
 20
-0.0197058235552824
 30
0.0
 11
58.03873163374487
 21
0.0126647177793243
 31
0.0
  0
LINE
  5
4B8
330
18
100
AcDbEntity
  8
1
 62
     1
100
AcDbLine
 10
58.03873163374487
 20
0.0126647177793243
 30
0.0
 11
58.0684289964669
 21
0.0463636632134995
 31
0.0
  0
LINE
  5
4B9
330
18
100
AcDbEntity
  8
1
 62
     1
100
AcDbLine
 10
58.0684289964669
 20
0.0463636632134995
 30
0.0
 11
58.09680425486111
 21
0.0814579389314182
 31
0.0
  0
LINE
  5
4BA
330
18
100
AcDbEntity
  8
1
 62
     1
100
AcDbLine
 10
58.09680425486111
 20
0.0814579389314182
 30
0.0
 11
58.12364869514143
 21
0.1180268554833507
 31
0.0
  0
LINE
  5
4BB
330
18
100
AcDbEntity
  8
1
 62
     1
100
AcDbLine
 10
58.12364869514143
 20
0.1180268554833507
 30
0.0
 11
58.14870782953189
 21
0.1561364106690348
 31
0.0
  0
LINE
  5
4BC
330
18
100
AcDbEntity
  8
1
 62
     1
100
AcDbLine
 10
58.14870782953189
 20
0.1561364106690348
 30
0.0
 11
58.17169369255375
 21
0.1958513517604341
 31
0.0
  0
LINE
  5
4BD
330
18
100
AcDbEntity
  8
1
 62
     1
100
AcDbLine
 10
58.17169369255375
 20
0.1958513517604341
 30
0.0
 11
58.19228254618406
 21
0.2372238461716191
 31
0.0
  0
LINE
  5
4BE
330
18
100
AcDbEntity
  8
1
 62
     1
100
AcDbLine
 10
58.19228254618406
 20
0.2372238461716191
 30
0.0
 11
58.20156257571689
 21
0.258528591458894
 31
0.0
  0
LINE
  5
4BF
330
18
100
AcDbEntity
  8
1
 62
     1
100
AcDbLine
 10
58.20156257571689
 20
0.258528591458894
 30
0.0
 11
58.21010543803045
 21
0.2802502330742044
 31
0.0
  0
LINE
  5
4C0
330
18
100
AcDbEntity
  8
1
 62
     1
100
AcDbLine
 10
58.21010543803045
 20
0.2802502330742044
 30
0.0
 11
58.21786583294113
 21
0.3023855608208769
 31
0.0
  0
LINE
  5
4C1
330
18
100
AcDbEntity
  8
1
 62
     1
100
AcDbLine
 10
58.21786583294113
 20
0.3023855608208769
 30
0.0
 11
58.22479212387015
 21
0.324910643466076
 31
0.0
  0
LINE
  5
4C2
330
18
100
AcDbEntity
  8
1
 62
     1
100
AcDbLine
 10
58.22479212387015
 20
0.324910643466076
 30
0.0
 11
58.23083649556165
 21
0.3478149034968918
 31
0.0
  0
LINE
  5
4C3
330
18
100
AcDbEntity
  8
1
 62
     1
100
AcDbLine
 10
58.23083649556165
 20
0.3478149034968918
 30
0.0
 11
58.23596159226969
 21
0.3710938471460156
 31
0.0
  0
LINE
  5
4C4
330
18
100
AcDbEntity
  8
1
 62
     1
100
AcDbLine
 10
58.23596159226969
 20
0.3710938471460156
 30
0.0
 11
58.24012690760389
 21
0.3947049744644754
 31
0.0
  0
LINE
  5
4C5
330
18
100
AcDbEntity
  8
1
 62
     1
100
AcDbLine
 10
58.24012690760389
 20
0.3947049744644754
 30
0.0
 11
58.2432937143012
 21
0.4186111167418447
 31
0.0
  0
LINE
  5
4C6
330
18
100
AcDbEntity
  8
1
 62
     1
100
AcDbLine
 10
58.2432937143012
 20
0.4186111167418447
 30
0.0
 11
58.24543956020203
 21
0.4427960468076899
 31
0.0
  0
LINE
  5
4C7
330
18
100
AcDbEntity
  8
1
 62
     1
100
AcDbLine
 10
58.24543956020203
 20
0.4427960468076899
 30
0.0
 11
58.2465452876763
 21
0.4672099992820771
 31
0.0
  0
LINE
  5
4C8
330
18
100
AcDbEntity
  8
1
 62
     1
100
AcDbLine
 10
58.2465452876763
 20
0.4672099992820771
 30
0.0
 11
58.24660083321805
 21
0.4918249504849578
 31
0.0
  0
LINE
  5
4C9
330
18
100
AcDbEntity
  8
1
 62
     1
100
AcDbLine
 10
58.24660083321805
 20
0.4918249504849578
 30
0.0
 11
58.24560704174927
 21
0.5165867342539724
 31
0.0
  0
LINE
  5
4CA
330
18
100
AcDbEntity
  8
1
 62
     1
100
AcDbLine
 10
58.24560704174927
 20
0.5165867342539724
 30
0.0
 11
58.24357052771756
 21
0.5414622057777532
 31
0.0
  0
LINE
  5
4CB
330
18
100
AcDbEntity
  8
1
 62
     1
100
AcDbLine
 10
58.24357052771756
 20
0.5414622057777532
 30
0.0
 11
58.24051178761658
 21
0.5664021063268123
 31
0.0
  0
LINE
  5
4CC
330
18
100
AcDbEntity
  8
1
 62
     1
100
AcDbLine
 10
58.24051178761658
 20
0.5664021063268123
 30
0.0
 11
58.23645408916886
 21
0.5913697559829469
 31
0.0
  0
LINE
  5
4CD
330
18
100
AcDbEntity
  8
1
 62
     1
100
AcDbLine
 10
58.23645408916886
 20
0.5913697559829469
 30
0.0
 11
58.23143243566359
 21
0.616327515468539
 31
0.0
  0
LINE
  5
4CE
330
18
100
AcDbEntity
  8
1
 62
     1
100
AcDbLine
 10
58.23143243566359
 20
0.616327515468539
 30
0.0
 11
58.22548432909479
 21
0.6412380990110222
 31
0.0
  0
LINE
  5
4CF
330
18
100
AcDbEntity
  8
1
 62
     1
100
AcDbLine
 10
58.22548432909479
 20
0.6412380990110222
 30
0.0
 11
58.21098410783988
 21
0.6908125812396338
 31
0.0
  0
LINE
  5
4D0
330
18
100
AcDbEntity
  8
1
 62
     1
100
AcDbLine
 10
58.21098410783988
 20
0.6908125812396338
 30
0.0
 11
58.19332298044782
 21
0.739905422476218
 31
0.0
  0
LINE
  5
4D1
330
18
100
AcDbEntity
  8
1
 62
     1
100
AcDbLine
 10
58.19332298044782
 20
0.739905422476218
 30
0.0
 11
58.17287400704054
 21
0.7884059580294185
 31
0.0
  0
LINE
  5
4D2
330
18
100
AcDbEntity
  8
1
 62
     1
100
AcDbLine
 10
58.17287400704054
 20
0.7884059580294185
 30
0.0
 11
58.15001029777982
 21
0.8362183622703935
 31
0.0
  0
LINE
  5
4D3
330
18
100
AcDbEntity
  8
1
 62
     1
100
AcDbLine
 10
58.15001029777982
 20
0.8362183622703935
 30
0.0
 11
58.1250542135632
 21
0.8833286159446667
 31
0.0
  0
LINE
  5
4D4
330
18
100
AcDbEntity
  8
1
 62
     1
100
AcDbLine
 10
58.1250542135632
 20
0.8833286159446667
 30
0.0
 11
58.07000255960131
 21
0.9754403022923929
 31
0.0
  0
LINE
  5
4D5
330
18
100
AcDbEntity
  8
1
 62
     1
100
AcDbLine
 10
58.07000255960131
 20
0.9754403022923929
 30
0.0
 11
58.0095954281646
 21
1.064913841057245
 31
0.0
  0
LINE
  5
4D6
330
18
100
AcDbEntity
  8
1
 62
     1
100
AcDbLine
 10
58.0095954281646
 20
1.064913841057245
 30
0.0
 11
57.94519473241772
 21
1.152024913644628
 31
0.0
  0
LINE
  5
4D7
330
18
100
AcDbEntity
  8
1
 62
     1
100
AcDbLine
 10
57.94519473241772
 20
1.152024913644628
 30
0.0
 11
57.80806122104136
 21
1.320198119266957
 31
0.0
  0
LINE
  5
4D8
330
18
100
AcDbEntity
  8
1
 62
     1
100
AcDbLine
 10
57.80806122104136
 20
1.320198119266957
 30
0.0
 11
57.66371057280703
 21
1.481599291043874
 31
0.0
  0
LINE
  5
4D9
330
18
100
AcDbEntity
  8
1
 62
     1
100
AcDbLine
 10
57.66371057280703
 20
1.481599291043874
 30
0.0
 11
57.36370964453444
 21
1.787346383907788
 31
0.0
  0
LINE
  5
4DA
330
18
100
AcDbEntity
  8
1
 62
     1
100
AcDbLine
 10
57.36370964453444
 20
1.787346383907788
 30
0.0
 11
57.0
 21
2.122036569190889
 31
0.0
  0
LINE
  5
4DB
330
18
100
AcDbEntity
  8
1
 62
     1
100
AcDbLine
 10
57.58775869531118
 20
-0.3238401416167871
 30
0.0
 11
57.0
 21
-0.6311367010271799
 31
0.0
  0
ARC
  5
4DC
330
18
100
AcDbEntity
  8
1
 62
     1
100
AcDbCircle
 10
48.33765927061866
 20
-1.535981515163389
 30
0.0
 40
6.627498535642675
100
AcDbArc
 50
31.31505086184344
 51
37.61491086279509
  0
LINE
  5
4DD
330
18
100
AcDbEntity
  8
1
 62
     1
100
AcDbLine
 10
54.00000000000001
 20
1.908813225110766
 30
0.0
 11
54.0
 21
2.153975
 31
0.0
  0
ARC
  5
4DE
330
18
100
AcDbEntity
  8
1
 62
     1
100
AcDbCircle
 10
58.992541241725
 20
-1.763610825442728
 30
0.0
 40
7.028230310160984
100
AcDbArc
 50
142.3852020894622
 51
148.4986789612161
  0
LINE
  5
4DF
330
18
100
AcDbEntity
  8
1
 62
     1
100
AcDbLine
 10
53.42565459715198
 20
2.891230044997078
 30
0.0
 11
53.42565459715198
 21
2.891152169273274
 31
0.0
  0
LINE
  5
4E0
330
18
100
AcDbEntity
  8
1
 62
     1
100
AcDbLine
 10
53.42565459715198
 20
2.891152169273274
 30
0.0
 11
53.42565459715198
 21
2.867683871484893
 31
0.0
  0
LINE
  5
4E1
330
18
100
AcDbEntity
  8
1
 62
     1
100
AcDbLine
 10
53.42565459715198
 20
2.867683871484893
 30
0.0
 11
53.42565459715199
 21
2.525759935946929
 31
0.0
  0
LINE
  5
4E2
330
18
100
AcDbEntity
  8
1
 62
     1
100
AcDbLine
 10
56.85172633654745
 20
2.410792398783001
 30
0.0
 11
56.85172633654745
 21
2.410734482561131
 31
0.0
  0
LINE
  5
4E3
330
18
100
AcDbEntity
  8
1
 62
     1
100
AcDbLine
 10
56.85172633654745
 20
2.410734482561131
 30
0.0
 11
56.85172633654746
 21
2.393321688168486
 31
0.0
  0
LINE
  5
4E4
330
18
100
AcDbEntity
  8
1
 62
     1
100
AcDbLine
 10
56.85172633654746
 20
2.393321688168486
 30
0.0
 11
56.85172633654745
 21
2.140137771836067
 31
0.0
  0
LINE
  5
4E5
330
18
100
AcDbEntity
  8
1
 62
     1
100
AcDbLine
 10
57.00000000000001
 20
2.122036569190888
 30
0.0
 11
57.0
 21
1.908813225110765
 31
0.0
  0
LINE
  5
4E6
330
18
100
AcDbEntity
  8
1
 62
     1
100
AcDbLine
 10
57.0
 20
2.39
 30
0.0
 11
57.00000000000001
 21
2.389942656880125
 31
0.0
  0
LINE
  5
4E7
330
18
100
AcDbEntity
  8
1
 62
     1
100
AcDbLine
 10
57.00000000000001
 20
2.389942656880125
 30
0.0
 11
57.0
 21
2.372702607825394
 31
0.0
  0
LINE
  5
4E8
330
18
100
AcDbEntity
  8
1
 62
     1
100
AcDbLine
 10
57.0
 20
2.372702607825394
 30
0.0
 11
57.0
 21
2.122036569190881
 31
0.0
  0
ARC
  5
4E9
330
18
100
AcDbEntity
  8
1
 62
     1
100
AcDbCircle
 10
61.65981219002038
 20
-2.197828402170298
 30
0.0
 40
7.824151178648383
100
AcDbArc
 50
144.6803478943816
 51
148.3407607726847
  0
LINE
  5
4EA
330
18
100
AcDbEntity
  8
1
 62
     1
100
AcDbLine
 10
55.27585874005108
 20
2.63177613070548
 30
0.0
 11
55.27585874005108
 21
2.631710687552479
 31
0.0
  0
LINE
  5
4EB
330
18
100
AcDbEntity
  8
1
 62
     1
100
AcDbLine
 10
55.27585874005108
 20
2.631710687552479
 30
0.0
 11
55.27585874005108
 21
2.612021296466976
 31
0.0
  0
LINE
  5
4EC
330
18
100
AcDbEntity
  8
1
 62
     1
100
AcDbLine
 10
55.27585874005108
 20
2.612021296466976
 30
0.0
 11
55.27585874005107
 21
2.32555077158571
 31
0.0
  0
LINE
  5
4ED
330
18
100
AcDbEntity
  8
1
 62
     1
100
AcDbLine
 10
55.76363228387082
 20
2.563375702721563
 30
0.0
 11
55.76363228387082
 21
2.563312874890862
 31
0.0
  0
LINE
  5
4EE
330
18
100
AcDbEntity
  8
1
 62
     1
100
AcDbLine
 10
55.76363228387082
 20
2.563312874890862
 30
0.0
 11
55.76363228387081
 21
2.544415826771088
 31
0.0
  0
LINE
  5
4EF
330
18
100
AcDbEntity
  8
1
 62
     1
100
AcDbLine
 10
55.76363228387081
 20
2.544415826771088
 30
0.0
 11
55.76363228387081
 21
2.269546849713642
 31
0.0
  0
ARC
  5
4F0
330
18
100
AcDbEntity
  8
1
 62
     1
100
AcDbCircle
 10
60.34332286243485
 20
-1.993105585854119
 30
0.0
 40
7.447287848618524
100
AcDbArc
 50
143.5803512733985
 51
148.403403826516
  0
LINE
  5
4F1
330
18
100
AcDbEntity
  8
1
 62
     1
100
AcDbLine
 10
54.35075666860153
 20
2.761503087851279
 30
0.0
 11
54.35075666860153
 21
2.761431944439215
 31
0.0
  0
LINE
  5
4F2
330
18
100
AcDbEntity
  8
1
 62
     1
100
AcDbLine
 10
54.35075666860153
 20
2.761431944439215
 30
0.0
 11
54.35075666860154
 21
2.740012162642401
 31
0.0
  0
LINE
  5
4F3
330
18
100
AcDbEntity
  8
1
 62
     1
100
AcDbLine
 10
54.35075666860154
 20
2.740012162642401
 30
0.0
 11
54.35075666860154
 21
2.428168156338231
 31
0.0
  0
LINE
  5
4F4
330
18
100
AcDbEntity
  8
1
 62
     1
100
AcDbLine
 10
54.67553823119418
 20
2.715959006660126
 30
0.0
 11
54.67553823119417
 21
2.715889977870257
 31
0.0
  0
LINE
  5
4F5
330
18
100
AcDbEntity
  8
1
 62
     1
100
AcDbLine
 10
54.67553823119417
 20
2.715889977870257
 30
0.0
 11
54.67553823119419
 21
2.695112606901038
 31
0.0
  0
LINE
  5
4F6
330
18
100
AcDbEntity
  8
1
 62
     1
100
AcDbLine
 10
54.67553823119419
 20
2.695112606901038
 30
0.0
 11
54.67553823119418
 21
2.392693351736097
 31
0.0
  0
LINE
  5
4F7
330
18
100
AcDbEntity
  8
1
 62
     1
100
AcDbLine
 10
55.00000000000001
 20
1.908813225110766
 30
0.0
 11
55.0
 21
2.153975
 31
0.0
  0
LINE
  5
4F8
330
18
100
AcDbEntity
  8
1
 62
     1
100
AcDbLine
 10
52.5115470107676
 20
3.0
 30
0.0
 11
52.51154701076759
 21
2.999915615759083
 31
0.0
  0
LINE
  5
4F9
330
18
100
AcDbEntity
  8
1
 62
     1
100
AcDbLine
 10
52.51154701076759
 20
2.999915615759083
 30
0.0
 11
52.5115470107676
 21
2.974462761594916
 31
0.0
  0
LINE
  5
4FA
330
18
100
AcDbEntity
  8
1
 62
     1
100
AcDbLine
 10
52.5115470107676
 20
2.974462761594916
 30
0.0
 11
52.5115470107676
 21
2.603373524573361
 31
0.0
  0
ARC
  5
4FB
330
18
100
AcDbEntity
  8
1
 62
     1
100
AcDbCircle
 10
47.80276613035867
 20
-1.219314131091533
 30
0.0
 40
6.065261420727716
100
AcDbArc
 50
31.04302521546051
 51
39.07042057773207
  0
LINE
  5
4FC
330
18
100
AcDbEntity
  8
1
 62
     1
100
AcDbLine
 10
53.0
 20
1.908813225110766
 30
0.0
 11
53.0
 21
2.153975
 31
0.0
  0
LINE
  5
4FD
330
18
100
AcDbEntity
  8
1
 62
     1
100
AcDbLine
 10
55.99999999999999
 20
1.908813225110766
 30
0.0
 11
56.0
 21
2.153975
 31
0.0
  0
ARC
  5
4FE
330
18
100
AcDbEntity
  8
1
 62
     1
100
AcDbCircle
 10
62.931579644237
 20
-2.371700133422982
 30
0.0
 40
8.146748267231173
100
AcDbArc
 50
145.7078456184756
 51
148.303096476067
  0
LINE
  5
4FF
330
18
100
AcDbEntity
  8
1
 62
     1
100
AcDbLine
 10
56.20096081150064
 20
2.502049173559681
 30
0.0
 11
56.20096081150064
 21
2.501988470599923
 31
0.0
  0
LINE
  5
500
330
18
100
AcDbEntity
  8
1
 62
     1
100
AcDbLine
 10
56.20096081150064
 20
2.501988470599923
 30
0.0
 11
56.20096081150063
 21
2.483734252097084
 31
0.0
  0
LINE
  5
501
330
18
100
AcDbEntity
  8
1
 62
     1
100
AcDbLine
 10
56.20096081150063
 20
2.483734252097084
 30
0.0
 11
56.20096081150064
 21
2.218266360336326
 31
0.0
  0
LINE
  5
502
330
18
100
AcDbEntity
  8
1
 62
     1
100
AcDbLine
 10
49.0
 20
1.908813225110766
 30
0.0
 11
49.24673723899116
 21
2.284375359862374
 31
0.0
  0
LINE
  5
503
330
18
100
AcDbEntity
  8
1
 62
     1
100
AcDbLine
 10
49.24673723899116
 20
2.284375359862374
 30
0.0
 11
49.36870969818687
 21
2.452034550747936
 31
0.0
  0
LINE
  5
504
330
18
100
AcDbEntity
  8
1
 62
     1
100
AcDbLine
 10
49.36870969818687
 20
2.452034550747936
 30
0.0
 11
49.48845298923242
 21
2.603373524573365
 31
0.0
  0
LINE
  5
505
330
18
100
AcDbEntity
  8
1
 62
     1
100
AcDbLine
 10
49.48845298923241
 20
3.0
 30
0.0
 11
49.48845298923241
 21
2.999915615759083
 31
0.0
  0
LINE
  5
506
330
18
100
AcDbEntity
  8
1
 62
     1
100
AcDbLine
 10
49.48845298923241
 20
2.999915615759083
 30
0.0
 11
49.48845298923241
 21
2.974462761594916
 31
0.0
  0
LINE
  5
507
330
18
100
AcDbEntity
  8
1
 62
     1
100
AcDbLine
 10
49.48845298923241
 20
2.974462761594916
 30
0.0
 11
49.48845298923241
 21
2.603373524573361
 31
0.0
  0
LINE
  5
508
330
18
100
AcDbEntity
  8
1
 62
     1
100
AcDbLine
 10
51.5115470107676
 20
3.0
 30
0.0
 11
51.5115470107676
 21
2.999915615759083
 31
0.0
  0
LINE
  5
509
330
18
100
AcDbEntity
  8
1
 62
     1
100
AcDbLine
 10
51.5115470107676
 20
2.999915615759083
 30
0.0
 11
51.5115470107676
 21
2.974462761594916
 31
0.0
  0
LINE
  5
50A
330
18
100
AcDbEntity
  8
1
 62
     1
100
AcDbLine
 10
51.5115470107676
 20
2.974462761594916
 30
0.0
 11
51.51154701076759
 21
2.603373524573361
 31
0.0
  0
ARC
  5
50B
330
18
100
AcDbEntity
  8
1
 62
     1
100
AcDbCircle
 10
46.80276613035677
 20
-1.219314131092938
 30
0.0
 40
6.065261420730073
100
AcDbArc
 50
31.04302521546261
 51
39.07042057773109
  0
LINE
  5
50C
330
18
100
AcDbEntity
  8
1
 62
     1
100
AcDbLine
 10
52.00000000000001
 20
1.908813225110766
 30
0.0
 11
52.0
 21
2.153975
 31
0.0
  0
LINE
  5
50D
330
18
100
AcDbEntity
  8
1
 62
     1
100
AcDbLine
 10
52.00000000000001
 20
1.908813225110765
 30
0.0
 11
52.24673723899117
 21
2.284375359862373
 31
0.0
  0
LINE
  5
50E
330
18
100
AcDbEntity
  8
1
 62
     1
100
AcDbLine
 10
52.24673723899117
 20
2.284375359862373
 30
0.0
 11
52.36870969818686
 21
2.452034550747935
 31
0.0
  0
LINE
  5
50F
330
18
100
AcDbEntity
  8
1
 62
     1
100
AcDbLine
 10
52.36870969818686
 20
2.452034550747935
 30
0.0
 11
52.48845298923242
 21
2.603373524573365
 31
0.0
  0
LINE
  5
510
330
18
100
AcDbEntity
  8
1
 62
     1
100
AcDbLine
 10
52.48845298923241
 20
3.0
 30
0.0
 11
52.48845298923241
 21
2.999915615759083
 31
0.0
  0
LINE
  5
511
330
18
100
AcDbEntity
  8
1
 62
     1
100
AcDbLine
 10
52.48845298923241
 20
2.999915615759083
 30
0.0
 11
52.48845298923241
 21
2.974462761594916
 31
0.0
  0
LINE
  5
512
330
18
100
AcDbEntity
  8
1
 62
     1
100
AcDbLine
 10
52.48845298923241
 20
2.974462761594916
 30
0.0
 11
52.48845298923241
 21
2.603373524573361
 31
0.0
  0
LINE
  5
513
330
18
100
AcDbEntity
  8
1
 62
     1
100
AcDbLine
 10
51.0
 20
1.908813225110766
 30
0.0
 11
51.24673723899116
 21
2.284375359862375
 31
0.0
  0
LINE
  5
514
330
18
100
AcDbEntity
  8
1
 62
     1
100
AcDbLine
 10
51.24673723899116
 20
2.284375359862375
 30
0.0
 11
51.36870969818687
 21
2.452034550747939
 31
0.0
  0
LINE
  5
515
330
18
100
AcDbEntity
  8
1
 62
     1
100
AcDbLine
 10
51.36870969818687
 20
2.452034550747939
 30
0.0
 11
51.48845298923243
 21
2.603373524573365
 31
0.0
  0
LINE
  5
516
330
18
100
AcDbEntity
  8
1
 62
     1
100
AcDbLine
 10
51.48845298923241
 20
3.0
 30
0.0
 11
51.48845298923242
 21
2.999915615759083
 31
0.0
  0
LINE
  5
517
330
18
100
AcDbEntity
  8
1
 62
     1
100
AcDbLine
 10
51.48845298923242
 20
2.999915615759083
 30
0.0
 11
51.48845298923241
 21
2.974462761594916
 31
0.0
  0
LINE
  5
518
330
18
100
AcDbEntity
  8
1
 62
     1
100
AcDbLine
 10
51.48845298923241
 20
2.974462761594916
 30
0.0
 11
51.4884529892324
 21
2.603373524573361
 31
0.0
  0
ARC
  5
519
330
18
100
AcDbEntity
  8
1
 62
     1
100
AcDbCircle
 10
45.80276613035898
 20
-1.219314131090997
 30
0.0
 40
6.065261420727165
100
AcDbArc
 50
31.04302521545767
 51
39.07042057772991
  0
LINE
  5
51A
330
18
100
AcDbEntity
  8
1
 62
     1
100
AcDbLine
 10
51.00000000000001
 20
1.908813225110766
 30
0.0
 11
51.0
 21
2.153975
 31
0.0
  0
LINE
  5
51B
330
18
100
AcDbEntity
  8
1
 62
     1
100
AcDbLine
 10
49.5115470107676
 20
3.0
 30
0.0
 11
49.5115470107676
 21
2.999915615759083
 31
0.0
  0
LINE
  5
51C
330
18
100
AcDbEntity
  8
1
 62
     1
100
AcDbLine
 10
49.5115470107676
 20
2.999915615759083
 30
0.0
 11
49.51154701076759
 21
2.974462761594916
 31
0.0
  0
LINE
  5
51D
330
18
100
AcDbEntity
  8
1
 62
     1
100
AcDbLine
 10
49.51154701076759
 20
2.974462761594916
 30
0.0
 11
49.5115470107676
 21
2.603373524573361
 31
0.0
  0
ARC
  5
51E
330
18
100
AcDbEntity
  8
1
 62
     1
100
AcDbCircle
 10
44.80276613036223
 20
-1.219314131088686
 30
0.0
 40
6.065261420723177
100
AcDbArc
 50
31.04302521545481
 51
39.07042057773231
  0
LINE
  5
51F
330
18
100
AcDbEntity
  8
1
 62
     1
100
AcDbLine
 10
50.0
 20
1.908813225110766
 30
0.0
 11
50.0
 21
2.153975
 31
0.0
  0
LINE
  5
520
330
18
100
AcDbEntity
  8
1
 62
     1
100
AcDbLine
 10
50.0
 20
1.908813225110765
 30
0.0
 11
50.24673723899117
 21
2.284375359862377
 31
0.0
  0
LINE
  5
521
330
18
100
AcDbEntity
  8
1
 62
     1
100
AcDbLine
 10
50.24673723899117
 20
2.284375359862377
 30
0.0
 11
50.36870969818684
 21
2.452034550747945
 31
0.0
  0
LINE
  5
522
330
18
100
AcDbEntity
  8
1
 62
     1
100
AcDbLine
 10
50.36870969818684
 20
2.452034550747945
 30
0.0
 11
50.48845298923242
 21
2.603373524573371
 31
0.0
  0
LINE
  5
523
330
18
100
AcDbEntity
  8
1
 62
     1
100
AcDbLine
 10
50.48845298923242
 20
3.0
 30
0.0
 11
50.48845298923242
 21
2.999915615759083
 31
0.0
  0
LINE
  5
524
330
18
100
AcDbEntity
  8
1
 62
     1
100
AcDbLine
 10
50.48845298923242
 20
2.999915615759083
 30
0.0
 11
50.48845298923241
 21
2.974462761594916
 31
0.0
  0
LINE
  5
525
330
18
100
AcDbEntity
  8
1
 62
     1
100
AcDbLine
 10
50.48845298923241
 20
2.974462761594916
 30
0.0
 11
50.48845298923241
 21
2.603373524573361
 31
0.0
  0
LINE
  5
526
330
18
100
AcDbEntity
  8
1
 62
     1
100
AcDbLine
 10
45.5115470107676
 20
3.0
 30
0.0
 11
45.5115470107676
 21
2.999915615759083
 31
0.0
  0
LINE
  5
527
330
18
100
AcDbEntity
  8
1
 62
     1
100
AcDbLine
 10
45.5115470107676
 20
2.999915615759083
 30
0.0
 11
45.5115470107676
 21
2.974462761594916
 31
0.0
  0
LINE
  5
528
330
18
100
AcDbEntity
  8
1
 62
     1
100
AcDbLine
 10
45.5115470107676
 20
2.974462761594916
 30
0.0
 11
45.51154701076759
 21
2.603373524573361
 31
0.0
  0
ARC
  5
529
330
18
100
AcDbEntity
  8
1
 62
     1
100
AcDbCircle
 10
40.80276613035889
 20
-1.219314131091343
 30
0.0
 40
6.065261420727429
100
AcDbArc
 50
31.04302521546006
 51
39.07042057773192
  0
LINE
  5
52A
330
18
100
AcDbEntity
  8
1
 62
     1
100
AcDbLine
 10
45.99999999999999
 20
1.908813225110766
 30
0.0
 11
46.0
 21
2.153975
 31
0.0
  0
LINE
  5
52B
330
18
100
AcDbEntity
  8
1
 62
     1
100
AcDbLine
 10
46.0
 20
1.908813225110765
 30
0.0
 11
46.24673723899116
 21
2.284375359862379
 31
0.0
  0
LINE
  5
52C
330
18
100
AcDbEntity
  8
1
 62
     1
100
AcDbLine
 10
46.24673723899116
 20
2.284375359862379
 30
0.0
 11
46.36870969818687
 21
2.452034550747943
 31
0.0
  0
LINE
  5
52D
330
18
100
AcDbEntity
  8
1
 62
     1
100
AcDbLine
 10
46.36870969818687
 20
2.452034550747943
 30
0.0
 11
46.48845298923243
 21
2.603373524573371
 31
0.0
  0
LINE
  5
52E
330
18
100
AcDbEntity
  8
1
 62
     1
100
AcDbLine
 10
46.48845298923242
 20
3.0
 30
0.0
 11
46.48845298923242
 21
2.999915615759083
 31
0.0
  0
LINE
  5
52F
330
18
100
AcDbEntity
  8
1
 62
     1
100
AcDbLine
 10
46.48845298923242
 20
2.999915615759083
 30
0.0
 11
46.48845298923242
 21
2.974462761594916
 31
0.0
  0
LINE
  5
530
330
18
100
AcDbEntity
  8
1
 62
     1
100
AcDbLine
 10
46.48845298923242
 20
2.974462761594916
 30
0.0
 11
46.48845298923241
 21
2.603373524573361
 31
0.0
  0
LINE
  5
531
330
18
100
AcDbEntity
  8
1
 62
     1
100
AcDbLine
 10
46.51154701076759
 20
3.0
 30
0.0
 11
46.51154701076759
 21
2.999915615759083
 31
0.0
  0
LINE
  5
532
330
18
100
AcDbEntity
  8
1
 62
     1
100
AcDbLine
 10
46.51154701076759
 20
2.999915615759083
 30
0.0
 11
46.51154701076759
 21
2.974462761594916
 31
0.0
  0
LINE
  5
533
330
18
100
AcDbEntity
  8
1
 62
     1
100
AcDbLine
 10
46.51154701076759
 20
2.974462761594916
 30
0.0
 11
46.51154701076759
 21
2.603373524573361
 31
0.0
  0
ARC
  5
534
330
18
100
AcDbEntity
  8
1
 62
     1
100
AcDbCircle
 10
41.8027661303591
 20
-1.219314131091137
 30
0.0
 40
6.065261420727135
100
AcDbArc
 50
31.04302521545939
 51
39.07042057773178
  0
LINE
  5
535
330
18
100
AcDbEntity
  8
1
 62
     1
100
AcDbLine
 10
47.0
 20
1.908813225110766
 30
0.0
 11
47.0
 21
2.153975
 31
0.0
  0
LINE
  5
536
330
18
100
AcDbEntity
  8
1
 62
     1
100
AcDbLine
 10
47.00000000000001
 20
1.908813225110765
 30
0.0
 11
47.24673723899117
 21
2.284375359862372
 31
0.0
  0
LINE
  5
537
330
18
100
AcDbEntity
  8
1
 62
     1
100
AcDbLine
 10
47.24673723899117
 20
2.284375359862372
 30
0.0
 11
47.36870969818685
 21
2.452034550747936
 31
0.0
  0
LINE
  5
538
330
18
100
AcDbEntity
  8
1
 62
     1
100
AcDbLine
 10
47.36870969818685
 20
2.452034550747936
 30
0.0
 11
47.48845298923242
 21
2.603373524573363
 31
0.0
  0
LINE
  5
539
330
18
100
AcDbEntity
  8
1
 62
     1
100
AcDbLine
 10
47.48845298923241
 20
3.0
 30
0.0
 11
47.48845298923242
 21
2.999915615759083
 31
0.0
  0
LINE
  5
53A
330
18
100
AcDbEntity
  8
1
 62
     1
100
AcDbLine
 10
47.48845298923242
 20
2.999915615759083
 30
0.0
 11
47.48845298923241
 21
2.974462761594916
 31
0.0
  0
LINE
  5
53B
330
18
100
AcDbEntity
  8
1
 62
     1
100
AcDbLine
 10
47.48845298923241
 20
2.974462761594916
 30
0.0
 11
47.48845298923241
 21
2.603373524573361
 31
0.0
  0
LINE
  5
53C
330
18
100
AcDbEntity
  8
1
 62
     1
100
AcDbLine
 10
47.5115470107676
 20
3.0
 30
0.0
 11
47.5115470107676
 21
2.999915615759083
 31
0.0
  0
LINE
  5
53D
330
18
100
AcDbEntity
  8
1
 62
     1
100
AcDbLine
 10
47.5115470107676
 20
2.999915615759083
 30
0.0
 11
47.5115470107676
 21
2.974462761594916
 31
0.0
  0
LINE
  5
53E
330
18
100
AcDbEntity
  8
1
 62
     1
100
AcDbLine
 10
47.5115470107676
 20
2.974462761594916
 30
0.0
 11
47.51154701076759
 21
2.603373524573361
 31
0.0
  0
ARC
  5
53F
330
18
100
AcDbEntity
  8
1
 62
     1
100
AcDbCircle
 10
42.80276613036081
 20
-1.219314131089881
 30
0.0
 40
6.06526142072502
100
AcDbArc
 50
31.04302521545755
 51
39.0704205777327
  0
LINE
  5
540
330
18
100
AcDbEntity
  8
1
 62
     1
100
AcDbLine
 10
48.00000000000001
 20
1.908813225110766
 30
0.0
 11
48.0
 21
2.153975
 31
0.0
  0
LINE
  5
541
330
18
100
AcDbEntity
  8
1
 62
     1
100
AcDbLine
 10
48.0
 20
1.908813225110765
 30
0.0
 11
48.24673723899118
 21
2.284375359862373
 31
0.0
  0
LINE
  5
542
330
18
100
AcDbEntity
  8
1
 62
     1
100
AcDbLine
 10
48.24673723899118
 20
2.284375359862373
 30
0.0
 11
48.36870969818686
 21
2.452034550747935
 31
0.0
  0
LINE
  5
543
330
18
100
AcDbEntity
  8
1
 62
     1
100
AcDbLine
 10
48.36870969818686
 20
2.452034550747935
 30
0.0
 11
48.48845298923242
 21
2.603373524573366
 31
0.0
  0
LINE
  5
544
330
18
100
AcDbEntity
  8
1
 62
     1
100
AcDbLine
 10
48.48845298923241
 20
3.0
 30
0.0
 11
48.48845298923241
 21
2.999915615759083
 31
0.0
  0
LINE
  5
545
330
18
100
AcDbEntity
  8
1
 62
     1
100
AcDbLine
 10
48.48845298923241
 20
2.999915615759083
 30
0.0
 11
48.48845298923242
 21
2.974462761594916
 31
0.0
  0
LINE
  5
546
330
18
100
AcDbEntity
  8
1
 62
     1
100
AcDbLine
 10
48.48845298923242
 20
2.974462761594916
 30
0.0
 11
48.48845298923241
 21
2.603373524573361
 31
0.0
  0
LINE
  5
547
330
18
100
AcDbEntity
  8
1
 62
     1
100
AcDbLine
 10
48.5115470107676
 20
3.0
 30
0.0
 11
48.51154701076759
 21
2.999915615759083
 31
0.0
  0
LINE
  5
548
330
18
100
AcDbEntity
  8
1
 62
     1
100
AcDbLine
 10
48.51154701076759
 20
2.999915615759083
 30
0.0
 11
48.5115470107676
 21
2.974462761594916
 31
0.0
  0
LINE
  5
549
330
18
100
AcDbEntity
  8
1
 62
     1
100
AcDbLine
 10
48.5115470107676
 20
2.974462761594916
 30
0.0
 11
48.51154701076759
 21
2.603373524573361
 31
0.0
  0
ARC
  5
54A
330
18
100
AcDbEntity
  8
1
 62
     1
100
AcDbCircle
 10
43.80276613036668
 20
-1.219314131085684
 30
0.0
 40
6.06526142071781
100
AcDbArc
 50
31.04302521545222
 51
39.0704205777369
  0
LINE
  5
54B
330
18
100
AcDbEntity
  8
1
 62
     1
100
AcDbLine
 10
49.00000000000001
 20
1.908813225110766
 30
0.0
 11
49.0
 21
2.153975
 31
0.0
  0
LINE
  5
54C
330
18
100
AcDbEntity
  8
1
 62
     1
100
AcDbLine
 10
45.0
 20
1.908813225110765
 30
0.0
 11
45.24673723899114
 21
2.284375359862374
 31
0.0
  0
LINE
  5
54D
330
18
100
AcDbEntity
  8
1
 62
     1
100
AcDbLine
 10
45.24673723899114
 20
2.284375359862374
 30
0.0
 11
45.36870969818685
 21
2.452034550747932
 31
0.0
  0
LINE
  5
54E
330
18
100
AcDbEntity
  8
1
 62
     1
100
AcDbLine
 10
45.36870969818685
 20
2.452034550747932
 30
0.0
 11
45.48845298923241
 21
2.603373524573363
 31
0.0
  0
LINE
  5
54F
330
18
100
AcDbEntity
  8
1
 62
     1
100
AcDbLine
 10
45.48845298923241
 20
3.0
 30
0.0
 11
45.48845298923241
 21
2.999915615759083
 31
0.0
  0
LINE
  5
550
330
18
100
AcDbEntity
  8
1
 62
     1
100
AcDbLine
 10
45.48845298923241
 20
2.999915615759083
 30
0.0
 11
45.48845298923241
 21
2.974462761594916
 31
0.0
  0
LINE
  5
551
330
18
100
AcDbEntity
  8
1
 62
     1
100
AcDbLine
 10
45.48845298923241
 20
2.974462761594916
 30
0.0
 11
45.4884529892324
 21
2.603373524573361
 31
0.0
  0
LINE
  5
552
330
18
100
AcDbEntity
  8
1
 62
     1
100
AcDbLine
 10
42.0
 20
1.908813225110766
 30
0.0
 11
42.0
 21
2.153975
 31
0.0
  0
ARC
  5
553
330
18
100
AcDbEntity
  8
1
 62
     1
100
AcDbCircle
 10
47.70800941448481
 20
-1.575520607389862
 30
0.0
 40
6.687304889565705
100
AcDbArc
 50
141.3959669679591
 51
148.5989030214168
  0
LINE
  5
554
330
18
100
AcDbEntity
  8
1
 62
     1
100
AcDbLine
 10
42.48267947980069
 20
2.989999992988803
 30
0.0
 11
42.48267947980069
 21
2.989916241907403
 31
0.0
  0
LINE
  5
555
330
18
100
AcDbEntity
  8
1
 62
     1
100
AcDbLine
 10
42.48267947980069
 20
2.989916241907403
 30
0.0
 11
42.4826794798007
 21
2.964656612106761
 31
0.0
  0
LINE
  5
556
330
18
100
AcDbEntity
  8
1
 62
     1
100
AcDbLine
 10
42.4826794798007
 20
2.964656612106761
 30
0.0
 11
42.48267947980069
 21
2.596407712933234
 31
0.0
  0
LINE
  5
557
330
18
100
AcDbEntity
  8
1
 62
     1
100
AcDbLine
 10
41.75866034470359
 20
2.571987349956156
 30
0.0
 11
41.7586603447036
 21
2.571924207227455
 31
0.0
  0
LINE
  5
558
330
18
100
AcDbEntity
  8
1
 62
     1
100
AcDbLine
 10
41.7586603447036
 20
2.571924207227455
 30
0.0
 11
41.75866034470359
 21
2.552931818912707
 31
0.0
  0
LINE
  5
559
330
18
100
AcDbEntity
  8
1
 62
     1
100
AcDbLine
 10
41.75866034470359
 20
2.552931818912707
 30
0.0
 11
41.75866034470359
 21
2.276667596531267
 31
0.0
  0
LINE
  5
55A
330
18
100
AcDbEntity
  8
1
 62
     1
100
AcDbLine
 10
42.51154701076759
 20
3.0
 30
0.0
 11
42.5115470107676
 21
2.999915615759083
 31
0.0
  0
LINE
  5
55B
330
18
100
AcDbEntity
  8
1
 62
     1
100
AcDbLine
 10
42.5115470107676
 20
2.999915615759083
 30
0.0
 11
42.51154701076759
 21
2.974462761594916
 31
0.0
  0
LINE
  5
55C
330
18
100
AcDbEntity
  8
1
 62
     1
100
AcDbLine
 10
42.51154701076759
 20
2.974462761594916
 30
0.0
 11
42.51154701076759
 21
2.603373524573361
 31
0.0
  0
ARC
  5
55D
330
18
100
AcDbEntity
  8
1
 62
     1
100
AcDbCircle
 10
37.80276613035954
 20
-1.219314131090829
 30
0.0
 40
6.065261420726606
100
AcDbArc
 50
31.04302521545904
 51
39.07042057773209
  0
LINE
  5
55E
330
18
100
AcDbEntity
  8
1
 62
     1
100
AcDbLine
 10
43.00000000000001
 20
1.908813225110766
 30
0.0
 11
43.0
 21
2.153975
 31
0.0
  0
LINE
  5
55F
330
18
100
AcDbEntity
  8
1
 62
     1
100
AcDbLine
 10
43.0
 20
1.908813225110766
 30
0.0
 11
43.24673723899115
 21
2.284375359862374
 31
0.0
  0
LINE
  5
560
330
18
100
AcDbEntity
  8
1
 62
     1
100
AcDbLine
 10
43.24673723899115
 20
2.284375359862374
 30
0.0
 11
43.36870969818686
 21
2.452034550747938
 31
0.0
  0
LINE
  5
561
330
18
100
AcDbEntity
  8
1
 62
     1
100
AcDbLine
 10
43.36870969818686
 20
2.452034550747938
 30
0.0
 11
43.48845298923241
 21
2.603373524573371
 31
0.0
  0
LINE
  5
562
330
18
100
AcDbEntity
  8
1
 62
     1
100
AcDbLine
 10
43.48845298923242
 20
3.0
 30
0.0
 11
43.48845298923243
 21
2.999915615759083
 31
0.0
  0
LINE
  5
563
330
18
100
AcDbEntity
  8
1
 62
     1
100
AcDbLine
 10
43.48845298923243
 20
2.999915615759083
 30
0.0
 11
43.48845298923242
 21
2.974462761594916
 31
0.0
  0
LINE
  5
564
330
18
100
AcDbEntity
  8
1
 62
     1
100
AcDbLine
 10
43.48845298923242
 20
2.974462761594916
 30
0.0
 11
43.48845298923242
 21
2.603373524573361
 31
0.0
  0
LINE
  5
565
330
18
100
AcDbEntity
  8
1
 62
     1
100
AcDbLine
 10
43.51154701076759
 20
3.0
 30
0.0
 11
43.5115470107676
 21
2.999915615759083
 31
0.0
  0
LINE
  5
566
330
18
100
AcDbEntity
  8
1
 62
     1
100
AcDbLine
 10
43.5115470107676
 20
2.999915615759083
 30
0.0
 11
43.51154701076759
 21
2.974462761594916
 31
0.0
  0
LINE
  5
567
330
18
100
AcDbEntity
  8
1
 62
     1
100
AcDbLine
 10
43.51154701076759
 20
2.974462761594916
 30
0.0
 11
43.51154701076759
 21
2.603373524573361
 31
0.0
  0
ARC
  5
568
330
18
100
AcDbEntity
  8
1
 62
     1
100
AcDbCircle
 10
38.80276613035902
 20
-1.219314131091271
 30
0.0
 40
6.065261420727277
100
AcDbArc
 50
31.04302521546013
 51
39.07042057773229
  0
LINE
  5
569
330
18
100
AcDbEntity
  8
1
 62
     1
100
AcDbLine
 10
44.00000000000001
 20
1.908813225110766
 30
0.0
 11
44.0
 21
2.153975
 31
0.0
  0
LINE
  5
56A
330
18
100
AcDbEntity
  8
1
 62
     1
100
AcDbLine
 10
44.0
 20
1.908813225110765
 30
0.0
 11
44.24673723899116
 21
2.284375359862376
 31
0.0
  0
LINE
  5
56B
330
18
100
AcDbEntity
  8
1
 62
     1
100
AcDbLine
 10
44.24673723899116
 20
2.284375359862376
 30
0.0
 11
44.36870969818685
 21
2.452034550747933
 31
0.0
  0
LINE
  5
56C
330
18
100
AcDbEntity
  8
1
 62
     1
100
AcDbLine
 10
44.36870969818685
 20
2.452034550747933
 30
0.0
 11
44.48845298923241
 21
2.603373524573363
 31
0.0
  0
LINE
  5
56D
330
18
100
AcDbEntity
  8
1
 62
     1
100
AcDbLine
 10
44.48845298923241
 20
3.0
 30
0.0
 11
44.48845298923241
 21
2.999915615759083
 31
0.0
  0
LINE
  5
56E
330
18
100
AcDbEntity
  8
1
 62
     1
100
AcDbLine
 10
44.48845298923241
 20
2.999915615759083
 30
0.0
 11
44.48845298923241
 21
2.974462761594916
 31
0.0
  0
LINE
  5
56F
330
18
100
AcDbEntity
  8
1
 62
     1
100
AcDbLine
 10
44.48845298923241
 20
2.974462761594916
 30
0.0
 11
44.48845298923241
 21
2.603373524573361
 31
0.0
  0
LINE
  5
570
330
18
100
AcDbEntity
  8
1
 62
     1
100
AcDbLine
 10
44.5115470107676
 20
3.0
 30
0.0
 11
44.51154701076759
 21
2.999915615759083
 31
0.0
  0
LINE
  5
571
330
18
100
AcDbEntity
  8
1
 62
     1
100
AcDbLine
 10
44.51154701076759
 20
2.999915615759083
 30
0.0
 11
44.51154701076761
 21
2.974462761594916
 31
0.0
  0
LINE
  5
572
330
18
100
AcDbEntity
  8
1
 62
     1
100
AcDbLine
 10
44.51154701076761
 20
2.974462761594916
 30
0.0
 11
44.51154701076761
 21
2.603373524573361
 31
0.0
  0
ARC
  5
573
330
18
100
AcDbEntity
  8
1
 62
     1
100
AcDbCircle
 10
39.80276613036047
 20
-1.219314131090248
 30
0.0
 40
6.065261420725502
100
AcDbArc
 50
31.04302521545891
 51
39.07042057773344
  0
LINE
  5
574
330
18
100
AcDbEntity
  8
1
 62
     1
100
AcDbLine
 10
45.0
 20
1.908813225110766
 30
0.0
 11
45.0
 21
2.153975
 31
0.0
  0
LINE
  5
575
330
18
100
AcDbEntity
  8
1
 62
     1
100
AcDbLine
 10
41.25292342
 20
-0.5741840557066618
 30
0.0
 11
41.25292342
 21
-1.920532937706063
 31
0.0
  0
LINE
  5
576
330
18
100
AcDbEntity
  8
1
 62
     1
100
AcDbLine
 10
41.25292342
 20
-0.3238401416167989
 30
0.0
 11
41.25292342
 21
-0.5741840557066744
 31
0.0
  0
LINE
  5
577
330
18
100
AcDbEntity
  8
1
 62
     1
100
AcDbLine
 10
41.25292341999999
 20
2.024439822395283
 30
0.0
 11
41.25292342
 21
-0.3238401416167876
 31
0.0
  0
LINE
  5
578
330
18
100
AcDbEntity
  8
1
 62
     1
100
AcDbLine
 10
41.25292342
 20
2.28
 30
0.0
 11
41.25292341999999
 21
2.279945310581045
 31
0.0
  0
LINE
  5
579
330
18
100
AcDbEntity
  8
1
 62
     1
100
AcDbLine
 10
41.25292341999999
 20
2.279945310581045
 30
0.0
 11
41.25292342
 21
2.263503175772035
 31
0.0
  0
LINE
  5
57A
330
18
100
AcDbEntity
  8
1
 62
     1
100
AcDbLine
 10
41.25292342
 20
2.263503175772035
 30
0.0
 11
41.25292341999999
 21
2.024439822395277
 31
0.0
  0
LINE
  5
57B
330
18
100
AcDbEntity
  8
1
 62
     1
100
AcDbLine
 10
58.23915971704746
 20
-1.150840267551654
 30
0.0
 11
58.23667158265446
 21
-1.153222096698103
 31
0.0
  0
LINE
  5
57C
330
18
100
AcDbEntity
  8
1
 62
     1
100
AcDbLine
 10
58.23667158265446
 20
-1.153222096698103
 30
0.0
 11
58.2306884122679
 21
-1.158368517684695
 31
0.0
  0
LINE
  5
57D
330
18
100
AcDbEntity
  8
1
 62
     1
100
AcDbLine
 10
58.2306884122679
 20
-1.158368517684695
 30
0.0
 11
58.22342083971169
 21
-1.164004197055901
 31
0.0
  0
LINE
  5
57E
330
18
100
AcDbEntity
  8
1
 62
     1
100
AcDbLine
 10
58.22342083971169
 20
-1.164004197055901
 30
0.0
 11
58.20531930444857
 21
-1.176654207837384
 31
0.0
  0
LINE
  5
57F
330
18
100
AcDbEntity
  8
1
 62
     1
100
AcDbLine
 10
58.20531930444857
 20
-1.176654207837384
 30
0.0
 11
58.1570231632129
 21
-1.206840617218952
 31
0.0
  0
LINE
  5
580
330
18
100
AcDbEntity
  8
1
 62
     1
100
AcDbLine
 10
58.1570231632129
 20
-1.206840617218952
 30
0.0
 11
57.87233656966487
 21
-1.375108360450218
 31
0.0
  0
LINE
  5
581
330
18
100
AcDbEntity
  8
1
 62
     1
100
AcDbLine
 10
57.87233656966487
 20
-1.375108360450218
 30
0.0
 11
57.52952864109776
 21
-1.599823722151049
 31
0.0
  0
LINE
  5
582
330
18
100
AcDbEntity
  8
1
 62
     1
100
AcDbLine
 10
57.52952864109776
 20
-1.599823722151049
 30
0.0
 11
57.26618661528268
 21
-1.795049237294849
 31
0.0
  0
LINE
  5
583
330
18
100
AcDbEntity
  8
1
 62
     1
100
AcDbLine
 10
57.26618661528268
 20
-1.795049237294849
 30
0.0
 11
57.0
 21
-2.013276442482486
 31
0.0
  0
LINE
  5
584
330
18
100
AcDbEntity
  8
1
 62
     1
100
AcDbLine
 10
58.23915972474789
 20
-1.150840275252102
 30
0.0
 11
59.39
 21
-0.0000000000000003
 31
0.0
  0
LINE
  5
585
330
18
100
AcDbEntity
  8
1
 62
     1
100
AcDbLine
 10
54.0
 20
2.153975
 30
0.0
 11
53.58744417851754
 21
2.868542310598686
 31
0.0
  0
LINE
  5
586
330
18
100
AcDbEntity
  8
1
 62
     1
100
AcDbLine
 10
53.42565459715198
 20
2.891230044997092
 30
0.0
 11
52.99999999999999
 21
2.153975
 31
0.0
  0
LINE
  5
587
330
18
100
AcDbEntity
  8
1
 62
     1
100
AcDbLine
 10
57.0
 20
2.153975
 30
0.0
 11
56.85172633654744
 21
2.410792398782998
 31
0.0
  0
LINE
  5
588
330
18
100
AcDbEntity
  8
1
 62
     1
100
AcDbLine
 10
55.27585874005108
 20
2.631776130705482
 30
0.0
 11
55.0
 21
2.153975
 31
0.0
  0
LINE
  5
589
330
18
100
AcDbEntity
  8
1
 62
     1
100
AcDbLine
 10
56.00000000000001
 20
2.153975
 30
0.0
 11
55.76363228387081
 21
2.563375702721559
 31
0.0
  0
LINE
  5
58A
330
18
100
AcDbEntity
  8
1
 62
     1
100
AcDbLine
 10
54.35075666860153
 20
2.761503087851287
 30
0.0
 11
54.0
 21
2.153975
 31
0.0
  0
LINE
  5
58B
330
18
100
AcDbEntity
  8
1
 62
     1
100
AcDbLine
 10
55.0
 20
2.153975
 30
0.0
 11
54.67553823119418
 21
2.715959006660124
 31
0.0
  0
LINE
  5
58C
330
18
100
AcDbEntity
  8
1
 62
     1
100
AcDbLine
 10
53.0
 20
2.153975
 30
0.0
 11
52.51154701076759
 21
2.999999999999994
 31
0.0
  0
LINE
  5
58D
330
18
100
AcDbEntity
  8
1
 62
     1
100
AcDbLine
 10
56.20096081150064
 20
2.50204917355968
 30
0.0
 11
56.0
 21
2.153975
 31
0.0
  0
LINE
  5
58E
330
18
100
AcDbEntity
  8
1
 62
     1
100
AcDbLine
 10
49.48845298923241
 20
3.000000000000006
 30
0.0
 11
49.0
 21
2.153975
 31
0.0
  0
LINE
  5
58F
330
18
100
AcDbEntity
  8
1
 62
     1
100
AcDbLine
 10
52.0
 20
2.153975
 30
0.0
 11
51.51154701076759
 21
2.999999999999994
 31
0.0
  0
LINE
  5
590
330
18
100
AcDbEntity
  8
1
 62
     1
100
AcDbLine
 10
52.48845298923241
 20
3.000000000000006
 30
0.0
 11
52.0
 21
2.153975
 31
0.0
  0
LINE
  5
591
330
18
100
AcDbEntity
  8
1
 62
     1
100
AcDbLine
 10
51.48845298923241
 20
3.000000000000006
 30
0.0
 11
51.0
 21
2.153975
 31
0.0
  0
LINE
  5
592
330
18
100
AcDbEntity
  8
1
 62
     1
100
AcDbLine
 10
51.0
 20
2.153975
 30
0.0
 11
50.51154701076759
 21
2.999999999999998
 31
0.0
  0
LINE
  5
593
330
18
100
AcDbEntity
  8
1
 62
     1
100
AcDbLine
 10
50.0
 20
2.153975
 30
0.0
 11
49.51154701076759
 21
2.999999999999994
 31
0.0
  0
LINE
  5
594
330
18
100
AcDbEntity
  8
1
 62
     1
100
AcDbLine
 10
50.48845298923242
 20
3.000000000000015
 30
0.0
 11
50.0
 21
2.153975
 31
0.0
  0
LINE
  5
595
330
18
100
AcDbEntity
  8
1
 62
     1
100
AcDbLine
 10
46.00000000000001
 20
2.153975
 30
0.0
 11
45.51154701076759
 21
2.999999999999994
 31
0.0
  0
LINE
  5
596
330
18
100
AcDbEntity
  8
1
 62
     1
100
AcDbLine
 10
46.48845298923242
 20
3.000000000000015
 30
0.0
 11
46.0
 21
2.153975
 31
0.0
  0
LINE
  5
597
330
18
100
AcDbEntity
  8
1
 62
     1
100
AcDbLine
 10
47.0
 20
2.153975
 30
0.0
 11
46.51154701076759
 21
2.999999999999998
 31
0.0
  0
LINE
  5
598
330
18
100
AcDbEntity
  8
1
 62
     1
100
AcDbLine
 10
47.48845298923241
 20
3.000000000000003
 30
0.0
 11
47.0
 21
2.153975
 31
0.0
  0
LINE
  5
599
330
18
100
AcDbEntity
  8
1
 62
     1
100
AcDbLine
 10
48.0
 20
2.153975
 30
0.0
 11
47.51154701076759
 21
2.999999999999994
 31
0.0
  0
LINE
  5
59A
330
18
100
AcDbEntity
  8
1
 62
     1
100
AcDbLine
 10
48.48845298923242
 20
3.000000000000006
 30
0.0
 11
47.99999999999999
 21
2.153975
 31
0.0
  0
LINE
  5
59B
330
18
100
AcDbEntity
  8
1
 62
     1
100
AcDbLine
 10
49.0
 20
2.153975
 30
0.0
 11
48.51154701076759
 21
2.999999999999994
 31
0.0
  0
LINE
  5
59C
330
18
100
AcDbEntity
  8
1
 62
     1
100
AcDbLine
 10
45.48845298923242
 20
3.000000000000003
 30
0.0
 11
45.0
 21
2.153975
 31
0.0
  0
LINE
  5
59D
330
18
100
AcDbEntity
  8
1
 62
     1
100
AcDbLine
 10
42.4826794798007
 20
2.989999992988801
 30
0.0
 11
42.0
 21
2.153975
 31
0.0
  0
LINE
  5
59E
330
18
100
AcDbEntity
  8
1
 62
     1
100
AcDbLine
 10
42.0
 20
2.153975
 30
0.0
 11
41.75866034470359
 21
2.571987349956152
 31
0.0
  0
LINE
  5
59F
330
18
100
AcDbEntity
  8
1
 62
     1
100
AcDbLine
 10
43.0
 20
2.153975
 30
0.0
 11
42.51154701076759
 21
2.999999999999998
 31
0.0
  0
LINE
  5
5A0
330
18
100
AcDbEntity
  8
1
 62
     1
100
AcDbLine
 10
43.48845298923242
 20
3.000000000000015
 30
0.0
 11
43.0
 21
2.153975
 31
0.0
  0
LINE
  5
5A1
330
18
100
AcDbEntity
  8
1
 62
     1
100
AcDbLine
 10
44.0
 20
2.153975
 30
0.0
 11
43.51154701076759
 21
2.999999999999998
 31
0.0
  0
LINE
  5
5A2
330
18
100
AcDbEntity
  8
1
 62
     1
100
AcDbLine
 10
44.48845298923242
 20
3.000000000000003
 30
0.0
 11
44.0
 21
2.153975
 31
0.0
  0
LINE
  5
5A3
330
18
100
AcDbEntity
  8
1
 62
     1
100
AcDbLine
 10
45.0
 20
2.153975
 30
0.0
 11
44.51154701076759
 21
2.999999999999994
 31
0.0
  0
LINE
  5
5A4
330
18
100
AcDbEntity
  8
SK1
100
AcDbLine
 10
0.0000000000000036
 20
3.0
 30
0.0
 11
-15.01000000000001
 21
3.0
 31
0.0
  0
LINE
  5
5A5
330
18
100
AcDbEntity
  8
SK1
100
AcDbLine
 10
-15.01
 20
-2.45
 30
0.0
 11
-15.01000000000001
 21
-3.0
 31
0.0
  0
LINE
  5
5A6
330
18
100
AcDbEntity
  8
SK1
100
AcDbLine
 10
-22.71000000000001
 20
1.73132896931808
 30
0.0
 11
-15.01000000000001
 21
1.73132896931808
 31
0.0
  0
LINE
  5
5A7
330
18
100
AcDbEntity
  8
SK1
100
AcDbLine
 10
-22.71000000000001
 20
2.45
 30
0.0
 11
-15.01
 21
2.45
 31
0.0
  0
ARC
  5
5A8
330
18
100
AcDbEntity
  8
SK1
100
AcDbCircle
 10
-18.20671877166799
 20
-0.9099443639476608
 30
0.0
 40
5.220406378876296
100
AcDbArc
 50
149.6074408112728
 51
156.9418773502783
  0
LINE
  5
5A9
330
18
100
AcDbEntity
  8
SK1
100
AcDbLine
 10
-22.71000000000001
 20
2.450000000000001
 30
0.0
 11
-22.71000000000001
 21
1.73132896931808
 31
0.0
  0
LINE
  5
5AA
330
18
100
AcDbEntity
  8
SK1
100
AcDbLine
 10
-23.01000000000001
 20
2.45
 30
0.0
 11
-22.71000000000001
 21
2.450000000000001
 31
0.0
  0
LINE
  5
5AB
330
18
100
AcDbEntity
  8
SK1
100
AcDbLine
 10
-15.01000000000001
 20
3.0
 30
0.0
 11
-15.01000000000001
 21
2.999884134508326
 31
0.0
  0
LINE
  5
5AC
330
18
100
AcDbEntity
  8
SK1
100
AcDbLine
 10
-15.01000000000001
 20
2.999884134508326
 30
0.0
 11
-15.01
 21
2.96468420831774
 31
0.0
  0
LINE
  5
5AD
330
18
100
AcDbEntity
  8
SK1
100
AcDbLine
 10
-15.01
 20
2.96468420831774
 30
0.0
 11
-15.01000000000001
 21
2.450000000000001
 31
0.0
  0
LINE
  5
5AE
330
18
100
AcDbEntity
  8
SK1
100
AcDbLine
 10
-22.71000000000001
 20
-1.731328969318078
 30
0.0
 11
-15.01000000000001
 21
-1.731328969318078
 31
0.0
  0
LINE
  5
5AF
330
18
100
AcDbEntity
  8
SK1
100
AcDbLine
 10
-22.71000000000001
 20
-1.731328969318078
 30
0.0
 11
-22.71000000000001
 21
-2.45
 31
0.0
  0
LINE
  5
5B0
330
18
100
AcDbEntity
  8
SK1
100
AcDbLine
 10
-22.71000000000001
 20
-2.45
 30
0.0
 11
-15.01000000000001
 21
-2.45
 31
0.0
  0
LINE
  5
5B1
330
18
100
AcDbEntity
  8
SK1
100
AcDbLine
 10
-23.01000000000001
 20
2.449999999999999
 30
0.0
 11
-23.01000000000001
 21
1.134680571791021
 31
0.0
  0
LINE
  5
5B2
330
18
100
AcDbEntity
  8
SK1
100
AcDbLine
 10
-23.01000000000001
 20
-1.13468057179102
 30
0.0
 11
-23.01000000000001
 21
-2.45
 31
0.0
  0
ARC
  5
5B3
330
18
100
AcDbEntity
  8
SK1
100
AcDbCircle
 10
-18.20671877166794
 20
0.9099443639477569
 30
0.0
 40
5.220406378876388
100
AcDbArc
 50
203.0581226497224
 51
210.3925591887277
  0
LINE
  5
5B4
330
18
100
AcDbEntity
  8
SK1
100
AcDbLine
 10
-23.01000000000001
 20
-2.450000000000001
 30
0.0
 11
-22.71000000000001
 21
-2.45
 31
0.0
  0
LINE
  5
5B5
330
18
100
AcDbEntity
  8
SK1
100
AcDbLine
 10
-15.01000000000001
 20
1.731328969318079
 30
0.0
 11
-15.01000000000001
 21
-1.731328969318082
 31
0.0
  0
LINE
  5
5B6
330
18
100
AcDbEntity
  8
SK1
100
AcDbLine
 10
-23.01000000000001
 20
1.134680571791021
 30
0.0
 11
-23.01000000000001
 21
-1.134680571791021
 31
0.0
  0
LINE
  5
5B7
330
18
100
AcDbEntity
  8
SK1
100
AcDbLine
 10
-15.01000000000001
 20
-3.0
 30
0.0
 11
0.0000000000000018
 21
-3.0
 31
0.0
  0
DIMENSION
  5
5B8
330
18
100
AcDbEntity
  8
2
100
AcDbDimension
  2
*D0
 10
72.00000000000003
 20
-2.999999999999948
 30
0.0
 11
69.60925000000005
 21
-11.70149999999995
 31
0.0
 70
    32
  1
M6
 71
     5
 42
6.0
  3
STANDARD
100
AcDbAlignedDimension
 13
57.0
 23
3.0
 33
0.0
 14
57.0
 24
-3.0
 34
0.0
 50
90.0000000000002
100
AcDbRotatedDimension
  0
DIMENSION
  5
5C6
330
18
100
AcDbEntity
  8
2
100
AcDbDimension
  2
*D1
 10
57.0
 20
75.0
 30
0.0
 11
28.5
 21
77.39075
 31
0.0
 70
    32
  1
<>
 71
     5
 42
57.0
  3
STANDARD
100
AcDbAlignedDimension
 13
0.0
 23
0.0
 33
0.0
 14
57.0
 24
0.0
 34
0.0
100
AcDbRotatedDimension
  0
DIMENSION
  5
5D3
330
18
100
AcDbEntity
  8
SK2
100
AcDbDimension
  2
*D2
 10
-38.00999999998469
 20
-3.000000000117379
 30
0.0
 11
-40.40074999994071
 21
-11.61925000012958
 31
0.0
 70
    32
  1
%%c<>
 71
     5
 42
6.000000000000001
  3
STANDARD
100
AcDbAlignedDimension
 13
-15.01000000000001
 23
3.0
 33
0.0
 14
-15.01000000000001
 24
-3.0
 34
0.0
 50
90.0000000002924
100
AcDbRotatedDimension
  0
DIMENSION
  5
5E1
330
18
100
AcDbEntity
  8
2
100
AcDbDimension
  2
*D3
 10
57.0
 20
60.0
 30
0.0
 11
49.12646171
 21
62.39775
 31
0.0
 70
    32
  1
<>
 71
     5
 42
15.74707658
  3
STANDARD
100
AcDbAlignedDimension
 13
41.25292342
 23
2.28
 33
0.0
 14
57.0
 24
3.0
 34
0.0
100
AcDbRotatedDimension
  0
DIMENSION
  5
5EE
330
18
100
AcDbEntity
  8
SK2
100
AcDbDimension
  2
*D4
 10
59.39
 20
90.0
 30
0.0
 11
18.19
 21
92.438
 31
0.0
 70
    32
  1
<>
 71
     5
 42
82.4
  3
STANDARD
100
AcDbAlignedDimension
 13
-23.01000000000001
 23
3.0
 33
0.0
 14
59.39
 24
3.0
 34
0.0
100
AcDbRotatedDimension
  0
ENDSEC
  0
SECTION
  2
OBJECTS
  0
DICTIONARY
  5
C
330
0
100
AcDbDictionary
281
     1
  3
ACAD_COLOR
350
387
  3
ACAD_GROUP
350
D
  3
ACAD_LAYOUT
350
301
  3
ACAD_MATERIAL
350
386
  3
ACAD_MLEADERSTYLE
350
5FB
  3
ACAD_MLINESTYLE
350
E
  3
ACAD_PLOTSETTINGS
350
302
  3
ACAD_PLOTSTYLENAME
350
2FF
  3
ACAD_SCALELIST
350
3A0
  3
ACAD_TABLESTYLE
350
388
  3
ACAD_VISUALSTYLE
350
3C5
  3
ACDBHEADERROUNDTRIPXREC
350
5FC
  3
AcDbVariableDictionary
350
357
  0
DICTIONARY
  5
387
102
{ACAD_REACTORS
330
C
102
}
330
C
100
AcDbDictionary
281
     1
  0
DICTIONARY
  5
D
102
{ACAD_REACTORS
330
C
102
}
330
C
100
AcDbDictionary
281
     1
  0
DICTIONARY
  5
301
102
{ACAD_REACTORS
330
C
102
}
330
C
100
AcDbDictionary
281
     1
  3
Layout1
350
33B
  3
Model
350
303
  0
DICTIONARY
  5
386
102
{ACAD_REACTORS
330
C
102
}
330
C
100
AcDbDictionary
281
     1
  3
ByBlock
350
3C3
  3
ByLayer
350
3C2
  3
Global
350
3C4
  0
DICTIONARY
  5
5FB
102
{ACAD_REACTORS
330
C
102
}
330
C
100
AcDbDictionary
281
     1
  0
DICTIONARY
  5
E
102
{ACAD_REACTORS
330
C
102
}
330
C
100
AcDbDictionary
281
     1
  3
STANDARD
350
1B
  0
DICTIONARY
  5
302
102
{ACAD_REACTORS
330
C
102
}
330
C
100
AcDbDictionary
281
     1
  0
ACDBDICTIONARYWDFLT
  5
2FF
102
{ACAD_REACTORS
330
C
102
}
330
C
100
AcDbDictionary
281
     1
  3
Normal
350
300
100
AcDbDictionaryWithDefault
340
300
  0
DICTIONARY
  5
3A0
102
{ACAD_REACTORS
330
C
102
}
330
C
100
AcDbDictionary
281
     1
  3
A0
350
3A1
  3
A1
350
3A2
  3
A2
350
3A3
  3
A3
350
3A4
  3
A4
350
3A5
  3
A5
350
3A6
  3
A6
350
3A7
  3
A7
350
3A8
  3
A8
350
3A9
  3
A9
350
3AA
  3
B0
350
3AB
  3
B1
350
3AC
  3
B2
350
3AD
  3
B3
350
3AE
  3
B4
350
3AF
  3
B5
350
3B0
  3
B6
350
3B1
  3
B7
350
3B2
  3
B8
350
3B3
  3
B9
350
3B4
  3
C0
350
3B5
  3
C1
350
3B6
  3
C2
350
3B7
  3
C3
350
3B8
  3
C4
350
3B9
  3
C5
350
3BA
  3
C6
350
3BB
  3
C7
350
3BC
  3
C8
350
3BD
  3
C9
350
3BE
  3
D0
350
3BF
  3
D1
350
3C0
  3
D2
350
3C1
  0
DICTIONARY
  5
388
102
{ACAD_REACTORS
330
C
102
}
330
C
100
AcDbDictionary
281
     1
  3
Standard
350
389
  0
DICTIONARY
  5
3C5
102
{ACAD_REACTORS
330
C
102
}
330
C
100
AcDbDictionary
281
     1
  3
2dWireframe
350
3CA
  3
3D Hidden
350
3CC
  3
3dWireframe
350
3CB
  3
Basic
350
3CD
  3
Brighten
350
3D1
  3
ColorChange
350
3D5
  3
Conceptual
350
3CF
  3
Dim
350
3D0
  3
Facepattern
350
3D4
  3
Flat
350
3C6
  3
FlatWithEdges
350
3C7
  3
Gouraud
350
3C8
  3
GouraudWithEdges
350
3C9
  3
Linepattern
350
3D3
  3
Realistic
350
3CE
  3
Thicken
350
3D2
  0
DICTIONARY
  5
5FC
102
{ACAD_REACTORS
330
C
102
}
330
C
100
AcDbDictionary
281
     1
  3
COLORDICT
350
5FD
  3
MATERIALDICT
350
5FE
  0
DICTIONARY
  5
357
102
{ACAD_REACTORS
330
C
102
}
330
C
100
AcDbDictionary
281
     1
  3
CANNOSCALE
350
5FF
  3
CTABLESTYLE
350
38D
  3
DIMASSOC
350
359
  3
HIDETEXT
350
358
  3
PROJECTNAME
350
38E
  0
LAYOUT
  5
33B
102
{ACAD_REACTORS
330
301
102
}
330
301
100
AcDbPlotSettings
  1

  2
Lexmark Optra PS2
  4

  6

 40
0.0
 41
0.0
 42
0.0
 43
0.0
 44
0.0
 45
0.0
 46
0.0
 47
0.0
 48
0.0
 49
0.0
140
0.0
141
0.0
142
1.0
143
1.0
 70
   688
 72
     0
 73
     0
 74
     5
  7
monochrome.ctb
 75
    16
147
1.0
148
0.0
149
0.0
100
AcDbLayout
  1
Layout1
 70
     1
 71
     1
 10
0.0
 20
0.0
 11
12.0
 21
9.0
 12
0.0
 22
0.0
 32
0.0
 14
0.0
 24
0.0
 34
0.0
 15
0.0
 25
0.0
 35
0.0
146
0.0
 13
0.0
 23
0.0
 33
0.0
 16
1.0
 26
0.0
 36
0.0
 17
0.0
 27
1.0
 37
0.0
 76
     0
330
338
  0
LAYOUT
  5
303
102
{ACAD_REACTORS
330
301
102
}
330
301
100
AcDbPlotSettings
  1

  2
Lexmark Optra Rx
  4
A4
  6

 40
6.805083274841307
 41
5.535083293914794
 42
6.974411010742187
 43
7.14373779296875
 44
209.9733276367186
 45
296.9259948730469
 46
0.0
 47
0.0
 48
0.0
 49
0.0
140
0.0
141
0.0
142
1.0
143
2.976565420630886
 70
 11952
 72
     1
 73
     1
 74
     0
  7
monochrome.ctb
 75
     0
147
0.335957675604539
148
204.1199660668592
149
172.3933209647495
100
AcDbLayout
  1
Model
 70
     1
 71
     0
 10
0.0
 20
0.0
 11
12.0
 21
9.0
 12
0.0
 22
0.0
 32
0.0
 14
0.0
 24
0.0
 34
0.0
 15
0.0
 25
0.0
 35
0.0
146
0.0
 13
0.0
 23
0.0
 33
0.0
 16
1.0
 26
0.0
 36
0.0
 17
0.0
 27
1.0
 37
0.0
 76
     0
330
18
331
39A
  0
MATERIAL
  5
3C3
102
{ACAD_REACTORS
330
386
102
}
102
{ACAD_XDICTIONARY
360
602
102
}
330
386
100
AcDbMaterial
  1
ByBlock
  0
MATERIAL
  5
3C2
102
{ACAD_REACTORS
330
386
102
}
102
{ACAD_XDICTIONARY
360
600
102
}
330
386
100
AcDbMaterial
  1
ByLayer
  0
MATERIAL
  5
3C4
102
{ACAD_REACTORS
330
386
102
}
102
{ACAD_XDICTIONARY
360
604
102
}
330
386
100
AcDbMaterial
  1
Global
  0
MLINESTYLE
  5
1B
102
{ACAD_REACTORS
330
E
102
}
330
E
100
AcDbMlineStyle
  2
STANDARD
 70
     0
  3

 62
     0
 51
90.0
 52
90.0
 71
     2
 49
0.5
 62
   256
  6
BYLAYER
 49
-0.5
 62
   256
  6
BYLAYER
  0
ACDBPLACEHOLDER
  5
300
102
{ACAD_REACTORS
330
2FF
102
}
330
2FF
  0
SCALE
  5
3A1
102
{ACAD_REACTORS
330
3A0
102
}
330
3A0
100
AcDbScale
 70
     0
300
1:1
140
1.0
141
1.0
290
     1
  0
SCALE
  5
3A2
102
{ACAD_REACTORS
330
3A0
102
}
330
3A0
100
AcDbScale
 70
     0
300
1:2
140
1.0
141
2.0
290
     0
  0
SCALE
  5
3A3
102
{ACAD_REACTORS
330
3A0
102
}
330
3A0
100
AcDbScale
 70
     0
300
1:4
140
1.0
141
4.0
290
     0
  0
SCALE
  5
3A4
102
{ACAD_REACTORS
330
3A0
102
}
330
3A0
100
AcDbScale
 70
     0
300
1:5
140
1.0
141
5.0
290
     0
  0
SCALE
  5
3A5
102
{ACAD_REACTORS
330
3A0
102
}
330
3A0
100
AcDbScale
 70
     0
300
1:8
140
1.0
141
8.0
290
     0
  0
SCALE
  5
3A6
102
{ACAD_REACTORS
330
3A0
102
}
330
3A0
100
AcDbScale
 70
     0
300
1:10
140
1.0
141
10.0
290
     0
  0
SCALE
  5
3A7
102
{ACAD_REACTORS
330
3A0
102
}
330
3A0
100
AcDbScale
 70
     0
300
1:16
140
1.0
141
16.0
290
     0
  0
SCALE
  5
3A8
102
{ACAD_REACTORS
330
3A0
102
}
330
3A0
100
AcDbScale
 70
     0
300
1:20
140
1.0
141
20.0
290
     0
  0
SCALE
  5
3A9
102
{ACAD_REACTORS
330
3A0
102
}
330
3A0
100
AcDbScale
 70
     0
300
1:30
140
1.0
141
30.0
290
     0
  0
SCALE
  5
3AA
102
{ACAD_REACTORS
330
3A0
102
}
330
3A0
100
AcDbScale
 70
     0
300
1:40
140
1.0
141
40.0
290
     0
  0
SCALE
  5
3AB
102
{ACAD_REACTORS
330
3A0
102
}
330
3A0
100
AcDbScale
 70
     0
300
1:50
140
1.0
141
50.0
290
     0
  0
SCALE
  5
3AC
102
{ACAD_REACTORS
330
3A0
102
}
330
3A0
100
AcDbScale
 70
     0
300
1:100
140
1.0
141
100.0
290
     0
  0
SCALE
  5
3AD
102
{ACAD_REACTORS
330
3A0
102
}
330
3A0
100
AcDbScale
 70
     0
300
2:1
140
2.0
141
1.0
290
     0
  0
SCALE
  5
3AE
102
{ACAD_REACTORS
330
3A0
102
}
330
3A0
100
AcDbScale
 70
     0
300
4:1
140
4.0
141
1.0
290
     0
  0
SCALE
  5
3AF
102
{ACAD_REACTORS
330
3A0
102
}
330
3A0
100
AcDbScale
 70
     0
300
8:1
140
8.0
141
1.0
290
     0
  0
SCALE
  5
3B0
102
{ACAD_REACTORS
330
3A0
102
}
330
3A0
100
AcDbScale
 70
     0
300
10:1
140
10.0
141
1.0
290
     0
  0
SCALE
  5
3B1
102
{ACAD_REACTORS
330
3A0
102
}
330
3A0
100
AcDbScale
 70
     0
300
100:1
140
100.0
141
1.0
290
     0
  0
SCALE
  5
3B2
102
{ACAD_REACTORS
330
3A0
102
}
330
3A0
100
AcDbScale
 70
     0
300
1/128" = 1'-0"
140
0.0078125
141
12.0
290
     0
  0
SCALE
  5
3B3
102
{ACAD_REACTORS
330
3A0
102
}
330
3A0
100
AcDbScale
 70
     0
300
1/64" = 1'-0"
140
0.015625
141
12.0
290
     0
  0
SCALE
  5
3B4
102
{ACAD_REACTORS
330
3A0
102
}
330
3A0
100
AcDbScale
 70
     0
300
1/32" = 1'-0"
140
0.03125
141
12.0
290
     0
  0
SCALE
  5
3B5
102
{ACAD_REACTORS
330
3A0
102
}
330
3A0
100
AcDbScale
 70
     0
300
1/16" = 1'-0"
140
0.0625
141
12.0
290
     0
  0
SCALE
  5
3B6
102
{ACAD_REACTORS
330
3A0
102
}
330
3A0
100
AcDbScale
 70
     0
300
3/32" = 1'-0"
140
0.09375
141
12.0
290
     0
  0
SCALE
  5
3B7
102
{ACAD_REACTORS
330
3A0
102
}
330
3A0
100
AcDbScale
 70
     0
300
1/8" = 1'-0"
140
0.125
141
12.0
290
     0
  0
SCALE
  5
3B8
102
{ACAD_REACTORS
330
3A0
102
}
330
3A0
100
AcDbScale
 70
     0
300
3/16" = 1'-0"
140
0.1875
141
12.0
290
     0
  0
SCALE
  5
3B9
102
{ACAD_REACTORS
330
3A0
102
}
330
3A0
100
AcDbScale
 70
     0
300
1/4" = 1'-0"
140
0.25
141
12.0
290
     0
  0
SCALE
  5
3BA
102
{ACAD_REACTORS
330
3A0
102
}
330
3A0
100
AcDbScale
 70
     0
300
3/8" = 1'-0"
140
0.375
141
12.0
290
     0
  0
SCALE
  5
3BB
102
{ACAD_REACTORS
330
3A0
102
}
330
3A0
100
AcDbScale
 70
     0
300
1/2" = 1'-0"
140
0.5
141
12.0
290
     0
  0
SCALE
  5
3BC
102
{ACAD_REACTORS
330
3A0
102
}
330
3A0
100
AcDbScale
 70
     0
300
3/4" = 1'-0"
140
0.75
141
12.0
290
     0
  0
SCALE
  5
3BD
102
{ACAD_REACTORS
330
3A0
102
}
330
3A0
100
AcDbScale
 70
     0
300
1" = 1'-0"
140
1.0
141
12.0
290
     0
  0
SCALE
  5
3BE
102
{ACAD_REACTORS
330
3A0
102
}
330
3A0
100
AcDbScale
 70
     0
300
1-1/2" = 1'-0"
140
1.5
141
12.0
290
     0
  0
SCALE
  5
3BF
102
{ACAD_REACTORS
330
3A0
102
}
330
3A0
100
AcDbScale
 70
     0
300
3" = 1'-0"
140
3.0
141
12.0
290
     0
  0
SCALE
  5
3C0
102
{ACAD_REACTORS
330
3A0
102
}
330
3A0
100
AcDbScale
 70
     0
300
6" = 1'-0"
140
6.0
141
12.0
290
     0
  0
SCALE
  5
3C1
102
{ACAD_REACTORS
330
3A0
102
}
330
3A0
100
AcDbScale
 70
     0
300
1'-0" = 1'-0"
140
12.0
141
12.0
290
     0
  0
TABLESTYLE
  5
389
102
{ACAD_REACTORS
330
388
102
}
330
388
100
AcDbTableStyle
  3
Standard
 70
     0
 71
     0
 40
1.5
 41
1.5
280
     0
281
     0
  7
STANDARD
140
4.5
170
     2
 62
     0
 63
   257
283
     0
274
    -2
284
     1
 64
     0
275
    -2
285
     1
 65
     0
276
    -2
286
     1
 66
     0
277
    -2
287
     1
 67
     0
278
    -2
288
     1
 68
     0
279
    -2
289
     1
 69
     0
  7
STANDARD
140
6.0
170
     5
 62
     0
 63
   257
283
     0
274
    -2
284
     1
 64
     0
275
    -2
285
     1
 65
     0
276
    -2
286
     1
 66
     0
277
    -2
287
     1
 67
     0
278
    -2
288
     1
 68
     0
279
    -2
289
     1
 69
     0
  7
STANDARD
140
4.5
170
     5
 62
     0
 63
   257
283
     0
274
    -2
284
     1
 64
     0
275
    -2
285
     1
 65
     0
276
    -2
286
     1
 66
     0
277
    -2
287
     1
 67
     0
278
    -2
288
     1
 68
     0
279
    -2
289
     1
 69
     0
  0
VISUALSTYLE
  5
3CA
102
{ACAD_REACTORS
330
3C5
102
}
102
{ACAD_XDICTIONARY
360
60E
102
}
330
3C5
100
AcDbVisualStyle
  2
2dWireframe
 70
     4
 71
     0
 72
     2
 73
     0
 90
        0
 40
-0.6
 41
-30.0
 62
     5
 63
     7
 74
     1
 91
        4
 64
     7
 65
   257
 75
     1
175
     1
 42
1.0
 92
        0
 66
   257
 43
1.0
 76
     1
 77
     6
 78
     2
 67
     7
 79
     5
170
     0
171
     0
290
     0
174
     0
 93
        1
 44
0.0
173
     0
291
     0
 45
0.0
1001
ACAD
1000
AcDbSavedByObjectVersion
1070
     0
  0
VISUALSTYLE
  5
3CC
102
{ACAD_REACTORS
330
3C5
102
}
102
{ACAD_XDICTIONARY
360
612
102
}
330
3C5
100
AcDbVisualStyle
  2
3D Hidden
 70
     6
 71
     1
 72
     2
 73
     2
 90
        0
 40
-0.6
 41
-30.0
 62
     5
 63
     7
 74
     2
 91
        2
 64
     7
 65
   257
 75
     2
175
     1
 42
40.0
 92
        0
 66
   257
 43
1.0
 76
     1
 77
     6
 78
     2
 67
     7
 79
     3
170
     0
171
     0
290
     0
174
     0
 93
        1
 44
0.0
173
     0
291
     0
 45
0.0
1001
ACAD
1000
AcDbSavedByObjectVersion
1070
     0
  0
VISUALSTYLE
  5
3CB
102
{ACAD_REACTORS
330
3C5
102
}
102
{ACAD_XDICTIONARY
360
610
102
}
330
3C5
100
AcDbVisualStyle
  2
3dWireframe
 70
     5
 71
     0
 72
     2
 73
     0
 90
        0
 40
-0.6
 41
-30.0
 62
     5
 63
     7
 74
     1
 91
        4
 64
     7
 65
   257
 75
     1
175
     1
 42
1.0
 92
        0
 66
   257
 43
1.0
 76
     1
 77
     6
 78
     2
 67
     7
 79
     5
170
     0
171
     0
290
     0
174
     0
 93
        1
 44
0.0
173
     0
291
     0
 45
0.0
1001
ACAD
1000
AcDbSavedByObjectVersion
1070
     0
  0
VISUALSTYLE
  5
3CD
102
{ACAD_REACTORS
330
3C5
102
}
102
{ACAD_XDICTIONARY
360
614
102
}
330
3C5
100
AcDbVisualStyle
  2
Basic
 70
     7
 71
     1
 72
     0
 73
     1
 90
        0
 40
-0.6
 41
-30.0
 62
     5
 63
     7
 74
     0
 91
        4
 64
     7
 65
   257
 75
     1
175
     1
 42
1.0
 92
        8
 66
     7
 43
1.0
 76
     1
 77
     6
 78
     2
 67
     7
 79
     5
170
     0
171
     0
290
     0
174
     0
 93
        1
 44
0.0
173
     0
291
     1
 45
0.0
1001
ACAD
1000
AcDbSavedByObjectVersion
1070
     0
  0
VISUALSTYLE
  5
3D1
102
{ACAD_REACTORS
330
3C5
102
}
102
{ACAD_XDICTIONARY
360
61C
102
}
330
3C5
100
AcDbVisualStyle
  2
Brighten
 70
    12
 71
     2
 72
     2
 73
     0
 90
        0
 40
-0.6
 41
-30.0
 62
     5
 63
     7
 74
     1
 91
        4
 64
     7
 65
   257
 75
     1
175
     1
 42
1.0
 92
        8
 66
     7
 43
1.0
 76
     1
 77
     6
 78
     2
 67
     7
 79
     5
170
     0
171
     0
290
     0
174
     0
 93
        1
 44
50.0
173
     0
291
     1
 45
0.0
1001
ACAD
1000
AcDbSavedByObjectVersion
1070
     0
  0
VISUALSTYLE
  5
3D5
102
{ACAD_REACTORS
330
3C5
102
}
102
{ACAD_XDICTIONARY
360
624
102
}
330
3C5
100
AcDbVisualStyle
  2
ColorChange
 70
    16
 71
     2
 72
     2
 73
     3
 90
        0
 40
-0.6
 41
-30.0
 62
     5
 63
     8
 74
     1
 91
        4
 64
     7
 65
   257
 75
     1
175
     1
 42
1.0
 92
        8
 66
     8
 43
1.0
 76
     1
 77
     6
 78
     2
 67
     7
 79
     5
170
     0
171
     0
290
     0
174
     0
 93
        1
 44
0.0
173
     0
291
     1
 45
0.0
1001
ACAD
1000
AcDbSavedByObjectVersion
1070
     0
  0
VISUALSTYLE
  5
3CF
102
{ACAD_REACTORS
330
3C5
102
}
102
{ACAD_XDICTIONARY
360
618
102
}
330
3C5
100
AcDbVisualStyle
  2
Conceptual
 70
     9
 71
     3
 72
     2
 73
     0
 90
        0
 40
-0.6
 41
-30.0
 62
     5
 63
     7
 74
     2
 91
        2
 64
     7
 65
   257
 75
     1
175
     1
 42
40.0
 92
        8
 66
     7
 43
1.0
 76
     1
 77
     6
 78
     2
 67
     7
 79
     3
170
     0
171
     0
290
     0
174
     0
 93
        1
 44
0.0
173
     0
291
     0
 45
0.0
1001
ACAD
1000
AcDbSavedByObjectVersion
1070
     0
  0
VISUALSTYLE
  5
3D0
102
{ACAD_REACTORS
330
3C5
102
}
102
{ACAD_XDICTIONARY
360
61A
102
}
330
3C5
100
AcDbVisualStyle
  2
Dim
 70
    11
 71
     2
 72
     2
 73
     0
 90
        0
 40
-0.6
 41
-30.0
 62
     5
 63
     7
 74
     1
 91
        4
 64
     7
 65
   257
 75
     1
175
     1
 42
1.0
 92
        8
 66
     7
 43
1.0
 76
     1
 77
     6
 78
     2
 67
     7
 79
     5
170
     0
171
     0
290
     0
174
     0
 93
        1
 44
-50.0
173
     0
291
     1
 45
0.0
1001
ACAD
1000
AcDbSavedByObjectVersion
1070
     0
  0
VISUALSTYLE
  5
3D4
102
{ACAD_REACTORS
330
3C5
102
}
102
{ACAD_XDICTIONARY
360
622
102
}
330
3C5
100
AcDbVisualStyle
  2
Facepattern
 70
    15
 71
     2
 72
     2
 73
     0
 90
        0
 40
-0.6
 41
-30.0
 62
     5
 63
     7
 74
     1
 91
        4
 64
     7
 65
   257
 75
     1
175
     1
 42
1.0
 92
        8
 66
     7
 43
1.0
 76
     1
 77
     6
 78
     2
 67
     7
 79
     5
170
     0
171
     0
290
     0
174
     0
 93
        1
 44
0.0
173
     0
291
     1
 45
0.0
1001
ACAD
1000
AcDbSavedByObjectVersion
1070
     0
  0
VISUALSTYLE
  5
3C6
102
{ACAD_REACTORS
330
3C5
102
}
102
{ACAD_XDICTIONARY
360
606
102
}
330
3C5
100
AcDbVisualStyle
  2
Flat
 70
     0
 71
     2
 72
     1
 73
     1
 90
        2
 40
-0.6
 41
30.0
 62
     5
 63
     7
 74
     0
 91
        4
 64
     7
 65
   257
 75
     1
175
     1
 42
1.0
 92
        8
 66
     7
 43
1.0
 76
     1
 77
     6
 78
     2
 67
     7
 79
     5
170
     0
171
     0
290
     0
174
     0
 93
       13
 44
0.0
173
     0
291
     1
 45
0.0
1001
ACAD
1000
AcDbSavedByObjectVersion
1070
     0
  0
VISUALSTYLE
  5
3C7
102
{ACAD_REACTORS
330
3C5
102
}
102
{ACAD_XDICTIONARY
360
608
102
}
330
3C5
100
AcDbVisualStyle
  2
FlatWithEdges
 70
     1
 71
     2
 72
     1
 73
     1
 90
        2
 40
-0.6
 41
30.0
 62
     5
 63
     7
 74
     1
 91
        4
 64
     7
 65
   257
 75
     1
175
     1
 42
1.0
 92
        0
 66
   257
 43
1.0
 76
     1
 77
     6
 78
     2
 67
     7
 79
     5
170
     0
171
     0
290
     0
174
     0
 93
       13
 44
0.0
173
     0
291
     1
 45
0.0
1001
ACAD
1000
AcDbSavedByObjectVersion
1070
     0
  0
VISUALSTYLE
  5
3C8
102
{ACAD_REACTORS
330
3C5
102
}
102
{ACAD_XDICTIONARY
360
60A
102
}
330
3C5
100
AcDbVisualStyle
  2
Gouraud
 70
     2
 71
     2
 72
     2
 73
     1
 90
        2
 40
-0.6
 41
30.0
 62
     5
 63
     7
 74
     0
 91
        4
 64
     7
 65
   257
 75
     1
175
     1
 42
1.0
 92
        0
 66
     7
 43
1.0
 76
     1
 77
     6
 78
     2
 67
     7
 79
     5
170
     0
171
     0
290
     0
174
     0
 93
       13
 44
0.0
173
     0
291
     1
 45
0.0
1001
ACAD
1000
AcDbSavedByObjectVersion
1070
     0
  0
VISUALSTYLE
  5
3C9
102
{ACAD_REACTORS
330
3C5
102
}
102
{ACAD_XDICTIONARY
360
60C
102
}
330
3C5
100
AcDbVisualStyle
  2
GouraudWithEdges
 70
     3
 71
     2
 72
     2
 73
     1
 90
        2
 40
-0.6
 41
30.0
 62
     5
 63
     7
 74
     1
 91
        4
 64
     7
 65
   257
 75
     1
175
     1
 42
1.0
 92
        0
 66
   257
 43
1.0
 76
     1
 77
     6
 78
     2
 67
     7
 79
     5
170
     0
171
     0
290
     0
174
     0
 93
       13
 44
0.0
173
     0
291
     1
 45
0.0
1001
ACAD
1000
AcDbSavedByObjectVersion
1070
     0
  0
VISUALSTYLE
  5
3D3
102
{ACAD_REACTORS
330
3C5
102
}
102
{ACAD_XDICTIONARY
360
620
102
}
330
3C5
100
AcDbVisualStyle
  2
Linepattern
 70
    14
 71
     2
 72
     2
 73
     0
 90
        0
 40
-0.6
 41
-30.0
 62
     5
 63
     7
 74
     1
 91
        4
 64
     7
 65
   257
 75
     7
175
     7
 42
1.0
 92
        8
 66
     7
 43
1.0
 76
     1
 77
     6
 78
     2
 67
     7
 79
     5
170
     0
171
     0
290
     0
174
     0
 93
        1
 44
0.0
173
     0
291
     1
 45
0.0
1001
ACAD
1000
AcDbSavedByObjectVersion
1070
     0
  0
VISUALSTYLE
  5
3CE
102
{ACAD_REACTORS
330
3C5
102
}
102
{ACAD_XDICTIONARY
360
616
102
}
330
3C5
100
AcDbVisualStyle
  2
Realistic
 70
     8
 71
     2
 72
     2
 73
     0
 90
        0
 40
-0.6
 41
-30.0
 62
     5
 63
     7
 74
     1
 91
        0
 64
     7
 65
   257
 75
     1
175
     1
 42
1.0
 92
        8
 66
     8
 43
1.0
 76
     1
 77
     6
 78
     2
 67
     7
 79
     5
170
     0
171
     0
290
     0
174
     0
 93
       13
 44
0.0
173
     0
291
     0
 45
0.0
1001
ACAD
1000
AcDbSavedByObjectVersion
1070
     0
  0
VISUALSTYLE
  5
3D2
102
{ACAD_REACTORS
330
3C5
102
}
102
{ACAD_XDICTIONARY
360
61E
102
}
330
3C5
100
AcDbVisualStyle
  2
Thicken
 70
    13
 71
     2
 72
     2
 73
     0
 90
        0
 40
-0.6
 41
-30.0
 62
     5
 63
     7
 74
     1
 91
        4
 64
     7
 65
   257
 75
     1
175
     1
 42
1.0
 92
       12
 66
     7
 43
1.0
 76
     1
 77
     6
 78
     2
 67
     7
 79
     5
170
     0
171
     0
290
     0
174
     0
 93
        1
 44
0.0
173
     0
291
     1
 45
0.0
1001
ACAD
1000
AcDbSavedByObjectVersion
1070
     0
  0
XRECORD
  5
5FD
102
{ACAD_REACTORS
330
5FC
102
}
330
5FC
100
AcDbXrecord
280
     1
340
387
  0
XRECORD
  5
5FE
102
{ACAD_REACTORS
330
5FC
102
}
330
5FC
100
AcDbXrecord
280
     1
340
386
  0
DICTIONARYVAR
  5
5FF
102
{ACAD_REACTORS
330
357
102
}
330
357
100
DictionaryVariables
280
     0
  1
1:1
  0
DICTIONARYVAR
  5
38D
102
{ACAD_REACTORS
330
357
102
}
330
357
100
DictionaryVariables
280
     0
  1
Standard
  0
DICTIONARYVAR
  5
359
102
{ACAD_REACTORS
330
357
102
}
330
357
100
DictionaryVariables
280
     0
  1
2
  0
DICTIONARYVAR
  5
358
102
{ACAD_REACTORS
330
357
102
}
330
357
100
DictionaryVariables
280
     0
  1
1
  0
DICTIONARYVAR
  5
38E
102
{ACAD_REACTORS
330
357
102
}
330
357
100
DictionaryVariables
280
     0
  1

  0
DICTIONARY
  5
602
330
3C3
100
AcDbDictionary
280
     1
281
     1
  3
ACAD_XREC_ROUNDTRIP
360
603
  0
DICTIONARY
  5
600
330
3C2
100
AcDbDictionary
280
     1
281
     1
  3
ACAD_XREC_ROUNDTRIP
360
601
  0
DICTIONARY
  5
604
330
3C4
100
AcDbDictionary
280
     1
281
     1
  3
ACAD_XREC_ROUNDTRIP
360
605
  0
DICTIONARY
  5
60E
330
3CA
100
AcDbDictionary
280
     1
281
     1
  3
ACAD_XREC_ROUNDTRIP
360
60F
  0
DICTIONARY
  5
612
330
3CC
100
AcDbDictionary
280
     1
281
     1
  3
ACAD_XREC_ROUNDTRIP
360
613
  0
DICTIONARY
  5
610
330
3CB
100
AcDbDictionary
280
     1
281
     1
  3
ACAD_XREC_ROUNDTRIP
360
611
  0
DICTIONARY
  5
614
330
3CD
100
AcDbDictionary
280
     1
281
     1
  3
ACAD_XREC_ROUNDTRIP
360
615
  0
DICTIONARY
  5
61C
330
3D1
100
AcDbDictionary
280
     1
281
     1
  3
ACAD_XREC_ROUNDTRIP
360
61D
  0
DICTIONARY
  5
624
330
3D5
100
AcDbDictionary
280
     1
281
     1
  3
ACAD_XREC_ROUNDTRIP
360
625
  0
DICTIONARY
  5
618
330
3CF
100
AcDbDictionary
280
     1
281
     1
  3
ACAD_XREC_ROUNDTRIP
360
619
  0
DICTIONARY
  5
61A
330
3D0
100
AcDbDictionary
280
     1
281
     1
  3
ACAD_XREC_ROUNDTRIP
360
61B
  0
DICTIONARY
  5
622
330
3D4
100
AcDbDictionary
280
     1
281
     1
  3
ACAD_XREC_ROUNDTRIP
360
623
  0
DICTIONARY
  5
606
330
3C6
100
AcDbDictionary
280
     1
281
     1
  3
ACAD_XREC_ROUNDTRIP
360
607
  0
DICTIONARY
  5
608
330
3C7
100
AcDbDictionary
280
     1
281
     1
  3
ACAD_XREC_ROUNDTRIP
360
609
  0
DICTIONARY
  5
60A
330
3C8
100
AcDbDictionary
280
     1
281
     1
  3
ACAD_XREC_ROUNDTRIP
360
60B
  0
DICTIONARY
  5
60C
330
3C9
100
AcDbDictionary
280
     1
281
     1
  3
ACAD_XREC_ROUNDTRIP
360
60D
  0
DICTIONARY
  5
620
330
3D3
100
AcDbDictionary
280
     1
281
     1
  3
ACAD_XREC_ROUNDTRIP
360
621
  0
DICTIONARY
  5
616
330
3CE
100
AcDbDictionary
280
     1
281
     1
  3
ACAD_XREC_ROUNDTRIP
360
617
  0
DICTIONARY
  5
61E
330
3D2
100
AcDbDictionary
280
     1
281
     1
  3
ACAD_XREC_ROUNDTRIP
360
61F
  0
XRECORD
  5
603
102
{ACAD_REACTORS
330
602
102
}
330
602
100
AcDbXrecord
280
     1
102
MATERIAL
148
0.0
149
0.0
149
0.0
 93
        0
 94
      127
282
     0
 72
     1
 77
     1
171
     1
175
     1
179
     1
273
     0
  0
XRECORD
  5
601
102
{ACAD_REACTORS
330
600
102
}
330
600
100
AcDbXrecord
280
     1
102
MATERIAL
148
0.0
149
0.0
149
0.0
 93
        0
 94
      127
282
     0
 72
     1
 77
     1
171
     1
175
     1
179
     1
273
     0
  0
XRECORD
  5
605
102
{ACAD_REACTORS
330
604
102
}
330
604
100
AcDbXrecord
280
     1
102
MATERIAL
148
0.0
149
0.0
149
0.0
 93
        0
 94
      127
282
     0
 72
     1
 77
     1
171
     1
175
     1
179
     1
273
     0
  0
XRECORD
  5
60F
102
{ACAD_REACTORS
330
60E
102
}
330
60E
100
AcDbXrecord
280
     1
102
RTVSPropertyOp0
 70
     1
102
RTVSPropertyOp1
 70
     1
102
RTVSPropertyOp2
 70
     1
102
RTVSPropertyOp3
 70
     1
102
RTVSPropertyOp4
 70
     1
102
RTVSPropertyOp5
 70
     1
102
RTVSPropertyOp6
 70
     1
102
RTVSPropertyOp7
 70
     1
102
RTVSPropertyOp8
 70
     1
102
RTVSPropertyOp9
 70
     1
102
RTVSPropertyOp10
 70
     1
102
RTVSPropertyOp11
 70
     1
102
RTVSPropertyOp12
 70
     1
102
RTVSPropertyOp13
 70
     1
102
RTVSPropertyOp14
 70
     1
102
RTVSPropertyOp15
 70
     1
102
RTVSPropertyOp16
 70
     1
102
RTVSPropertyOp17
 70
     1
102
RTVSPropertyOp18
 70
     1
102
RTVSPropertyOp19
 70
     1
102
RTVSPropertyOp20
 70
     1
102
RTVSPropertyOp21
 70
     1
102
RTVSPropertyOp22
 70
     1
102
RTVSPropertyOp23
 70
     1
102
RTVSPropertyOp24
 70
     1
102
RTVSPropertyOp25
 70
     1
102
RTVSPropertyOp26
 70
     1
102
RTVSPropertyOp27
 70
     1
102
RTVSPropertyOp28
 70
     1
102
RTVSPropertyOp29
 70
     1
102
RTVSPropertyOp30
 70
     1
102
RTVSPropertyOp31
 70
     1
102
RTVSPropertyOp32
 70
     1
  0
XRECORD
  5
613
102
{ACAD_REACTORS
330
612
102
}
330
612
100
AcDbXrecord
280
     1
102
RTVSPropertyOp0
 70
     1
102
RTVSPropertyOp1
 70
     1
102
RTVSPropertyOp2
 70
     1
102
RTVSPropertyOp3
 70
     1
102
RTVSPropertyOp4
 70
     1
102
RTVSPropertyOp5
 70
     1
102
RTVSPropertyOp6
 70
     1
102
RTVSPropertyOp7
 70
     1
102
RTVSPropertyOp8
 70
     1
102
RTVSPropertyOp9
 70
     1
102
RTVSPropertyOp10
 70
     1
102
RTVSPropertyOp11
 70
     1
102
RTVSPropertyOp12
 70
     1
102
RTVSPropertyOp13
 70
     1
102
RTVSPropertyOp14
 70
     1
102
RTVSPropertyOp15
 70
     1
102
RTVSPropertyOp16
 70
     1
102
RTVSPropertyOp17
 70
     1
102
RTVSPropertyOp18
 70
     1
102
RTVSPropertyOp19
 70
     1
102
RTVSPropertyOp20
 70
     1
102
RTVSPropertyOp21
 70
     1
102
RTVSPropertyOp22
 70
     1
102
RTVSPropertyOp23
 70
     1
102
RTVSPropertyOp24
 70
     1
102
RTVSPropertyOp25
 70
     1
102
RTVSPropertyOp26
 70
     1
102
RTVSPropertyOp27
 70
     1
102
RTVSPropertyOp28
 70
     1
102
RTVSPropertyOp29
 70
     1
102
RTVSPropertyOp30
 70
     1
102
RTVSPropertyOp31
 70
     1
102
RTVSPropertyOp32
 70
     1
  0
XRECORD
  5
611
102
{ACAD_REACTORS
330
610
102
}
330
610
100
AcDbXrecord
280
     1
102
RTVSPropertyOp0
 70
     1
102
RTVSPropertyOp1
 70
     1
102
RTVSPropertyOp2
 70
     1
102
RTVSPropertyOp3
 70
     1
102
RTVSPropertyOp4
 70
     1
102
RTVSPropertyOp5
 70
     1
102
RTVSPropertyOp6
 70
     1
102
RTVSPropertyOp7
 70
     1
102
RTVSPropertyOp8
 70
     1
102
RTVSPropertyOp9
 70
     1
102
RTVSPropertyOp10
 70
     1
102
RTVSPropertyOp11
 70
     1
102
RTVSPropertyOp12
 70
     1
102
RTVSPropertyOp13
 70
     1
102
RTVSPropertyOp14
 70
     1
102
RTVSPropertyOp15
 70
     1
102
RTVSPropertyOp16
 70
     1
102
RTVSPropertyOp17
 70
     1
102
RTVSPropertyOp18
 70
     1
102
RTVSPropertyOp19
 70
     1
102
RTVSPropertyOp20
 70
     1
102
RTVSPropertyOp21
 70
     1
102
RTVSPropertyOp22
 70
     1
102
RTVSPropertyOp23
 70
     1
102
RTVSPropertyOp24
 70
     1
102
RTVSPropertyOp25
 70
     1
102
RTVSPropertyOp26
 70
     1
102
RTVSPropertyOp27
 70
     1
102
RTVSPropertyOp28
 70
     1
102
RTVSPropertyOp29
 70
     1
102
RTVSPropertyOp30
 70
     1
102
RTVSPropertyOp31
 70
     1
102
RTVSPropertyOp32
 70
     1
  0
XRECORD
  5
615
102
{ACAD_REACTORS
330
614
102
}
330
614
100
AcDbXrecord
280
     1
102
RTVSPropertyOp0
 70
     1
102
RTVSPropertyOp1
 70
     1
102
RTVSPropertyOp2
 70
     1
102
RTVSPropertyOp3
 70
     1
102
RTVSPropertyOp4
 70
     1
102
RTVSPropertyOp5
 70
     1
102
RTVSPropertyOp6
 70
     1
102
RTVSPropertyOp7
 70
     1
102
RTVSPropertyOp8
 70
     1
102
RTVSPropertyOp9
 70
     1
102
RTVSPropertyOp10
 70
     1
102
RTVSPropertyOp11
 70
     1
102
RTVSPropertyOp12
 70
     1
102
RTVSPropertyOp13
 70
     1
102
RTVSPropertyOp14
 70
     1
102
RTVSPropertyOp15
 70
     1
102
RTVSPropertyOp16
 70
     1
102
RTVSPropertyOp17
 70
     1
102
RTVSPropertyOp18
 70
     1
102
RTVSPropertyOp19
 70
     1
102
RTVSPropertyOp20
 70
     1
102
RTVSPropertyOp21
 70
     1
102
RTVSPropertyOp22
 70
     1
102
RTVSPropertyOp23
 70
     1
102
RTVSPropertyOp24
 70
     1
102
RTVSPropertyOp25
 70
     1
102
RTVSPropertyOp26
 70
     1
102
RTVSPropertyOp27
 70
     1
102
RTVSPropertyOp28
 70
     1
102
RTVSPropertyOp29
 70
     1
102
RTVSPropertyOp30
 70
     1
102
RTVSPropertyOp31
 70
     1
102
RTVSPropertyOp32
 70
     1
  0
XRECORD
  5
61D
102
{ACAD_REACTORS
330
61C
102
}
330
61C
100
AcDbXrecord
280
     1
102
RTVSPropertyOp0
 70
     1
102
RTVSPropertyOp1
 70
     1
102
RTVSPropertyOp2
 70
     1
102
RTVSPropertyOp3
 70
     1
102
RTVSPropertyOp4
 70
     1
102
RTVSPropertyOp5
 70
     1
102
RTVSPropertyOp6
 70
     1
102
RTVSPropertyOp7
 70
     1
102
RTVSPropertyOp8
 70
     1
102
RTVSPropertyOp9
 70
     1
102
RTVSPropertyOp10
 70
     1
102
RTVSPropertyOp11
 70
     1
102
RTVSPropertyOp12
 70
     1
102
RTVSPropertyOp13
 70
     1
102
RTVSPropertyOp14
 70
     1
102
RTVSPropertyOp15
 70
     1
102
RTVSPropertyOp16
 70
     1
102
RTVSPropertyOp17
 70
     1
102
RTVSPropertyOp18
 70
     1
102
RTVSPropertyOp19
 70
     1
102
RTVSPropertyOp20
 70
     1
102
RTVSPropertyOp21
 70
     1
102
RTVSPropertyOp22
 70
     1
102
RTVSPropertyOp23
 70
     1
102
RTVSPropertyOp24
 70
     1
102
RTVSPropertyOp25
 70
     1
102
RTVSPropertyOp26
 70
     1
102
RTVSPropertyOp27
 70
     1
102
RTVSPropertyOp28
 70
     1
102
RTVSPropertyOp29
 70
     1
102
RTVSPropertyOp30
 70
     1
102
RTVSPropertyOp31
 70
     1
102
RTVSPropertyOp32
 70
     1
  0
XRECORD
  5
625
102
{ACAD_REACTORS
330
624
102
}
330
624
100
AcDbXrecord
280
     1
102
RTVSPropertyOp0
 70
     1
102
RTVSPropertyOp1
 70
     1
102
RTVSPropertyOp2
 70
     1
102
RTVSPropertyOp3
 70
     1
102
RTVSPropertyOp4
 70
     1
102
RTVSPropertyOp5
 70
     1
102
RTVSPropertyOp6
 70
     1
102
RTVSPropertyOp7
 70
     1
102
RTVSPropertyOp8
 70
     1
102
RTVSPropertyOp9
 70
     1
102
RTVSPropertyOp10
 70
     1
102
RTVSPropertyOp11
 70
     1
102
RTVSPropertyOp12
 70
     1
102
RTVSPropertyOp13
 70
     1
102
RTVSPropertyOp14
 70
     1
102
RTVSPropertyOp15
 70
     1
102
RTVSPropertyOp16
 70
     1
102
RTVSPropertyOp17
 70
     1
102
RTVSPropertyOp18
 70
     1
102
RTVSPropertyOp19
 70
     1
102
RTVSPropertyOp20
 70
     1
102
RTVSPropertyOp21
 70
     1
102
RTVSPropertyOp22
 70
     1
102
RTVSPropertyOp23
 70
     1
102
RTVSPropertyOp24
 70
     1
102
RTVSPropertyOp25
 70
     1
102
RTVSPropertyOp26
 70
     1
102
RTVSPropertyOp27
 70
     1
102
RTVSPropertyOp28
 70
     1
102
RTVSPropertyOp29
 70
     1
102
RTVSPropertyOp30
 70
     1
102
RTVSPropertyOp31
 70
     1
102
RTVSPropertyOp32
 70
     1
  0
XRECORD
  5
619
102
{ACAD_REACTORS
330
618
102
}
330
618
100
AcDbXrecord
280
     1
102
RTVSPropertyOp0
 70
     1
102
RTVSPropertyOp1
 70
     1
102
RTVSPropertyOp2
 70
     1
102
RTVSPropertyOp3
 70
     1
102
RTVSPropertyOp4
 70
     1
102
RTVSPropertyOp5
 70
     1
102
RTVSPropertyOp6
 70
     1
102
RTVSPropertyOp7
 70
     1
102
RTVSPropertyOp8
 70
     1
102
RTVSPropertyOp9
 70
     1
102
RTVSPropertyOp10
 70
     1
102
RTVSPropertyOp11
 70
     1
102
RTVSPropertyOp12
 70
     1
102
RTVSPropertyOp13
 70
     1
102
RTVSPropertyOp14
 70
     1
102
RTVSPropertyOp15
 70
     1
102
RTVSPropertyOp16
 70
     1
102
RTVSPropertyOp17
 70
     1
102
RTVSPropertyOp18
 70
     1
102
RTVSPropertyOp19
 70
     1
102
RTVSPropertyOp20
 70
     1
102
RTVSPropertyOp21
 70
     1
102
RTVSPropertyOp22
 70
     1
102
RTVSPropertyOp23
 70
     1
102
RTVSPropertyOp24
 70
     1
102
RTVSPropertyOp25
 70
     1
102
RTVSPropertyOp26
 70
     1
102
RTVSPropertyOp27
 70
     1
102
RTVSPropertyOp28
 70
     1
102
RTVSPropertyOp29
 70
     1
102
RTVSPropertyOp30
 70
     1
102
RTVSPropertyOp31
 70
     1
102
RTVSPropertyOp32
 70
     1
  0
XRECORD
  5
61B
102
{ACAD_REACTORS
330
61A
102
}
330
61A
100
AcDbXrecord
280
     1
102
RTVSPropertyOp0
 70
     1
102
RTVSPropertyOp1
 70
     1
102
RTVSPropertyOp2
 70
     1
102
RTVSPropertyOp3
 70
     1
102
RTVSPropertyOp4
 70
     1
102
RTVSPropertyOp5
 70
     1
102
RTVSPropertyOp6
 70
     1
102
RTVSPropertyOp7
 70
     1
102
RTVSPropertyOp8
 70
     1
102
RTVSPropertyOp9
 70
     1
102
RTVSPropertyOp10
 70
     1
102
RTVSPropertyOp11
 70
     1
102
RTVSPropertyOp12
 70
     1
102
RTVSPropertyOp13
 70
     1
102
RTVSPropertyOp14
 70
     1
102
RTVSPropertyOp15
 70
     1
102
RTVSPropertyOp16
 70
     1
102
RTVSPropertyOp17
 70
     1
102
RTVSPropertyOp18
 70
     1
102
RTVSPropertyOp19
 70
     1
102
RTVSPropertyOp20
 70
     1
102
RTVSPropertyOp21
 70
     1
102
RTVSPropertyOp22
 70
     1
102
RTVSPropertyOp23
 70
     1
102
RTVSPropertyOp24
 70
     1
102
RTVSPropertyOp25
 70
     1
102
RTVSPropertyOp26
 70
     1
102
RTVSPropertyOp27
 70
     1
102
RTVSPropertyOp28
 70
     1
102
RTVSPropertyOp29
 70
     1
102
RTVSPropertyOp30
 70
     1
102
RTVSPropertyOp31
 70
     1
102
RTVSPropertyOp32
 70
     1
  0
XRECORD
  5
623
102
{ACAD_REACTORS
330
622
102
}
330
622
100
AcDbXrecord
280
     1
102
RTVSPropertyOp0
 70
     1
102
RTVSPropertyOp1
 70
     1
102
RTVSPropertyOp2
 70
     1
102
RTVSPropertyOp3
 70
     1
102
RTVSPropertyOp4
 70
     1
102
RTVSPropertyOp5
 70
     1
102
RTVSPropertyOp6
 70
     1
102
RTVSPropertyOp7
 70
     1
102
RTVSPropertyOp8
 70
     1
102
RTVSPropertyOp9
 70
     1
102
RTVSPropertyOp10
 70
     1
102
RTVSPropertyOp11
 70
     1
102
RTVSPropertyOp12
 70
     1
102
RTVSPropertyOp13
 70
     1
102
RTVSPropertyOp14
 70
     1
102
RTVSPropertyOp15
 70
     1
102
RTVSPropertyOp16
 70
     1
102
RTVSPropertyOp17
 70
     1
102
RTVSPropertyOp18
 70
     1
102
RTVSPropertyOp19
 70
     1
102
RTVSPropertyOp20
 70
     1
102
RTVSPropertyOp21
 70
     1
102
RTVSPropertyOp22
 70
     1
102
RTVSPropertyOp23
 70
     1
102
RTVSPropertyOp24
 70
     1
102
RTVSPropertyOp25
 70
     1
102
RTVSPropertyOp26
 70
     1
102
RTVSPropertyOp27
 70
     1
102
RTVSPropertyOp28
 70
     1
102
RTVSPropertyOp29
 70
     1
102
RTVSPropertyOp30
 70
     1
102
RTVSPropertyOp31
 70
     1
102
RTVSPropertyOp32
 70
     1
  0
XRECORD
  5
607
102
{ACAD_REACTORS
330
606
102
}
330
606
100
AcDbXrecord
280
     1
102
RTVSPropertyOp0
 70
     1
102
RTVSPropertyOp1
 70
     1
102
RTVSPropertyOp2
 70
     1
102
RTVSPropertyOp3
 70
     1
102
RTVSPropertyOp4
 70
     1
102
RTVSPropertyOp5
 70
     1
102
RTVSPropertyOp6
 70
     1
102
RTVSPropertyOp7
 70
     1
102
RTVSPropertyOp8
 70
     1
102
RTVSPropertyOp9
 70
     1
102
RTVSPropertyOp10
 70
     1
102
RTVSPropertyOp11
 70
     1
102
RTVSPropertyOp12
 70
     1
102
RTVSPropertyOp13
 70
     1
102
RTVSPropertyOp14
 70
     1
102
RTVSPropertyOp15
 70
     1
102
RTVSPropertyOp16
 70
     1
102
RTVSPropertyOp17
 70
     1
102
RTVSPropertyOp18
 70
     1
102
RTVSPropertyOp19
 70
     1
102
RTVSPropertyOp20
 70
     1
102
RTVSPropertyOp21
 70
     1
102
RTVSPropertyOp22
 70
     1
102
RTVSPropertyOp23
 70
     1
102
RTVSPropertyOp24
 70
     1
102
RTVSPropertyOp25
 70
     1
102
RTVSPropertyOp26
 70
     1
102
RTVSPropertyOp27
 70
     1
102
RTVSPropertyOp28
 70
     1
102
RTVSPropertyOp29
 70
     1
102
RTVSPropertyOp30
 70
     1
102
RTVSPropertyOp31
 70
     1
102
RTVSPropertyOp32
 70
     1
  0
XRECORD
  5
609
102
{ACAD_REACTORS
330
608
102
}
330
608
100
AcDbXrecord
280
     1
102
RTVSPropertyOp0
 70
     1
102
RTVSPropertyOp1
 70
     1
102
RTVSPropertyOp2
 70
     1
102
RTVSPropertyOp3
 70
     1
102
RTVSPropertyOp4
 70
     1
102
RTVSPropertyOp5
 70
     1
102
RTVSPropertyOp6
 70
     1
102
RTVSPropertyOp7
 70
     1
102
RTVSPropertyOp8
 70
     1
102
RTVSPropertyOp9
 70
     1
102
RTVSPropertyOp10
 70
     1
102
RTVSPropertyOp11
 70
     1
102
RTVSPropertyOp12
 70
     1
102
RTVSPropertyOp13
 70
     1
102
RTVSPropertyOp14
 70
     1
102
RTVSPropertyOp15
 70
     1
102
RTVSPropertyOp16
 70
     1
102
RTVSPropertyOp17
 70
     1
102
RTVSPropertyOp18
 70
     1
102
RTVSPropertyOp19
 70
     1
102
RTVSPropertyOp20
 70
     1
102
RTVSPropertyOp21
 70
     1
102
RTVSPropertyOp22
 70
     1
102
RTVSPropertyOp23
 70
     1
102
RTVSPropertyOp24
 70
     1
102
RTVSPropertyOp25
 70
     1
102
RTVSPropertyOp26
 70
     1
102
RTVSPropertyOp27
 70
     1
102
RTVSPropertyOp28
 70
     1
102
RTVSPropertyOp29
 70
     1
102
RTVSPropertyOp30
 70
     1
102
RTVSPropertyOp31
 70
     1
102
RTVSPropertyOp32
 70
     1
  0
XRECORD
  5
60B
102
{ACAD_REACTORS
330
60A
102
}
330
60A
100
AcDbXrecord
280
     1
102
RTVSPropertyOp0
 70
     1
102
RTVSPropertyOp1
 70
     1
102
RTVSPropertyOp2
 70
     1
102
RTVSPropertyOp3
 70
     1
102
RTVSPropertyOp4
 70
     1
102
RTVSPropertyOp5
 70
     1
102
RTVSPropertyOp6
 70
     1
102
RTVSPropertyOp7
 70
     1
102
RTVSPropertyOp8
 70
     1
102
RTVSPropertyOp9
 70
     1
102
RTVSPropertyOp10
 70
     1
102
RTVSPropertyOp11
 70
     1
102
RTVSPropertyOp12
 70
     1
102
RTVSPropertyOp13
 70
     1
102
RTVSPropertyOp14
 70
     1
102
RTVSPropertyOp15
 70
     1
102
RTVSPropertyOp16
 70
     1
102
RTVSPropertyOp17
 70
     1
102
RTVSPropertyOp18
 70
     1
102
RTVSPropertyOp19
 70
     1
102
RTVSPropertyOp20
 70
     1
102
RTVSPropertyOp21
 70
     1
102
RTVSPropertyOp22
 70
     1
102
RTVSPropertyOp23
 70
     1
102
RTVSPropertyOp24
 70
     1
102
RTVSPropertyOp25
 70
     1
102
RTVSPropertyOp26
 70
     1
102
RTVSPropertyOp27
 70
     1
102
RTVSPropertyOp28
 70
     1
102
RTVSPropertyOp29
 70
     1
102
RTVSPropertyOp30
 70
     1
102
RTVSPropertyOp31
 70
     1
102
RTVSPropertyOp32
 70
     1
  0
XRECORD
  5
60D
102
{ACAD_REACTORS
330
60C
102
}
330
60C
100
AcDbXrecord
280
     1
102
RTVSPropertyOp0
 70
     1
102
RTVSPropertyOp1
 70
     1
102
RTVSPropertyOp2
 70
     1
102
RTVSPropertyOp3
 70
     1
102
RTVSPropertyOp4
 70
     1
102
RTVSPropertyOp5
 70
     1
102
RTVSPropertyOp6
 70
     1
102
RTVSPropertyOp7
 70
     1
102
RTVSPropertyOp8
 70
     1
102
RTVSPropertyOp9
 70
     1
102
RTVSPropertyOp10
 70
     1
102
RTVSPropertyOp11
 70
     1
102
RTVSPropertyOp12
 70
     1
102
RTVSPropertyOp13
 70
     1
102
RTVSPropertyOp14
 70
     1
102
RTVSPropertyOp15
 70
     1
102
RTVSPropertyOp16
 70
     1
102
RTVSPropertyOp17
 70
     1
102
RTVSPropertyOp18
 70
     1
102
RTVSPropertyOp19
 70
     1
102
RTVSPropertyOp20
 70
     1
102
RTVSPropertyOp21
 70
     1
102
RTVSPropertyOp22
 70
     1
102
RTVSPropertyOp23
 70
     1
102
RTVSPropertyOp24
 70
     1
102
RTVSPropertyOp25
 70
     1
102
RTVSPropertyOp26
 70
     1
102
RTVSPropertyOp27
 70
     1
102
RTVSPropertyOp28
 70
     1
102
RTVSPropertyOp29
 70
     1
102
RTVSPropertyOp30
 70
     1
102
RTVSPropertyOp31
 70
     1
102
RTVSPropertyOp32
 70
     1
  0
XRECORD
  5
621
102
{ACAD_REACTORS
330
620
102
}
330
620
100
AcDbXrecord
280
     1
102
RTVSPropertyOp0
 70
     1
102
RTVSPropertyOp1
 70
     1
102
RTVSPropertyOp2
 70
     1
102
RTVSPropertyOp3
 70
     1
102
RTVSPropertyOp4
 70
     1
102
RTVSPropertyOp5
 70
     1
102
RTVSPropertyOp6
 70
     1
102
RTVSPropertyOp7
 70
     1
102
RTVSPropertyOp8
 70
     1
102
RTVSPropertyOp9
 70
     1
102
RTVSPropertyOp10
 70
     1
102
RTVSPropertyOp11
 70
     1
102
RTVSPropertyOp12
 70
     1
102
RTVSPropertyOp13
 70
     1
102
RTVSPropertyOp14
 70
     1
102
RTVSPropertyOp15
 70
     1
102
RTVSPropertyOp16
 70
     1
102
RTVSPropertyOp17
 70
     1
102
RTVSPropertyOp18
 70
     1
102
RTVSPropertyOp19
 70
     1
102
RTVSPropertyOp20
 70
     1
102
RTVSPropertyOp21
 70
     1
102
RTVSPropertyOp22
 70
     1
102
RTVSPropertyOp23
 70
     1
102
RTVSPropertyOp24
 70
     1
102
RTVSPropertyOp25
 70
     1
102
RTVSPropertyOp26
 70
     1
102
RTVSPropertyOp27
 70
     1
102
RTVSPropertyOp28
 70
     1
102
RTVSPropertyOp29
 70
     1
102
RTVSPropertyOp30
 70
     1
102
RTVSPropertyOp31
 70
     1
102
RTVSPropertyOp32
 70
     1
  0
XRECORD
  5
617
102
{ACAD_REACTORS
330
616
102
}
330
616
100
AcDbXrecord
280
     1
102
RTVSPropertyOp0
 70
     1
102
RTVSPropertyOp1
 70
     1
102
RTVSPropertyOp2
 70
     1
102
RTVSPropertyOp3
 70
     1
102
RTVSPropertyOp4
 70
     1
102
RTVSPropertyOp5
 70
     1
102
RTVSPropertyOp6
 70
     1
102
RTVSPropertyOp7
 70
     1
102
RTVSPropertyOp8
 70
     1
102
RTVSPropertyOp9
 70
     1
102
RTVSPropertyOp10
 70
     1
102
RTVSPropertyOp11
 70
     1
102
RTVSPropertyOp12
 70
     1
102
RTVSPropertyOp13
 70
     1
102
RTVSPropertyOp14
 70
     1
102
RTVSPropertyOp15
 70
     1
102
RTVSPropertyOp16
 70
     1
102
RTVSPropertyOp17
 70
     1
102
RTVSPropertyOp18
 70
     1
102
RTVSPropertyOp19
 70
     1
102
RTVSPropertyOp20
 70
     1
102
RTVSPropertyOp21
 70
     1
102
RTVSPropertyOp22
 70
     1
102
RTVSPropertyOp23
 70
     1
102
RTVSPropertyOp24
 70
     1
102
RTVSPropertyOp25
 70
     1
102
RTVSPropertyOp26
 70
     1
102
RTVSPropertyOp27
 70
     1
102
RTVSPropertyOp28
 70
     1
102
RTVSPropertyOp29
 70
     1
102
RTVSPropertyOp30
 70
     1
102
RTVSPropertyOp31
 70
     1
102
RTVSPropertyOp32
 70
     1
  0
XRECORD
  5
61F
102
{ACAD_REACTORS
330
61E
102
}
330
61E
100
AcDbXrecord
280
     1
102
RTVSPropertyOp0
 70
     1
102
RTVSPropertyOp1
 70
     1
102
RTVSPropertyOp2
 70
     1
102
RTVSPropertyOp3
 70
     1
102
RTVSPropertyOp4
 70
     1
102
RTVSPropertyOp5
 70
     1
102
RTVSPropertyOp6
 70
     1
102
RTVSPropertyOp7
 70
     1
102
RTVSPropertyOp8
 70
     1
102
RTVSPropertyOp9
 70
     1
102
RTVSPropertyOp10
 70
     1
102
RTVSPropertyOp11
 70
     1
102
RTVSPropertyOp12
 70
     1
102
RTVSPropertyOp13
 70
     1
102
RTVSPropertyOp14
 70
     1
102
RTVSPropertyOp15
 70
     1
102
RTVSPropertyOp16
 70
     1
102
RTVSPropertyOp17
 70
     1
102
RTVSPropertyOp18
 70
     1
102
RTVSPropertyOp19
 70
     1
102
RTVSPropertyOp20
 70
     1
102
RTVSPropertyOp21
 70
     1
102
RTVSPropertyOp22
 70
     1
102
RTVSPropertyOp23
 70
     1
102
RTVSPropertyOp24
 70
     1
102
RTVSPropertyOp25
 70
     1
102
RTVSPropertyOp26
 70
     1
102
RTVSPropertyOp27
 70
     1
102
RTVSPropertyOp28
 70
     1
102
RTVSPropertyOp29
 70
     1
102
RTVSPropertyOp30
 70
     1
102
RTVSPropertyOp31
 70
     1
102
RTVSPropertyOp32
 70
     1
  0
ENDSEC
  0
EOF
