  0
SECTION
  2
HEADER
  9
$ACADVER
  1
AC1015
  9
$ACADMAINTVER
 70
     6
  9
$DWGCODEPAGE
  3
ANSI_1252
  9
$INSBASE
 10
0.0
 20
0.0
 30
0.0
  9
$EXTMIN
 10
1.000000000000000E+20
 20
1.000000000000000E+20
 30
1.000000000000000E+20
  9
$EXTMAX
 10
-1.000000000000000E+20
 20
-1.000000000000000E+20
 30
-1.000000000000000E+20
  9
$LIMMIN
 10
-170.0
 20
-170.0
  9
$LIMMAX
 10
519.0
 20
260.0
  9
$ORTHOMODE
 70
     0
  9
$REGENMODE
 70
     1
  9
$FILLMODE
 70
     1
  9
$QTEXTMODE
 70
     0
  9
$MIRRTEXT
 70
     0
  9
$LTSCALE
 40
1.0
  9
$ATTMODE
 70
     1
  9
$TEXTSIZE
 40
3.5
  9
$TRACEWID
 40
1.0
  9
$TEXTSTYLE
  7
SIMPLEX
  9
$CLAYER
  8
1
  9
$CELTYPE
  6
BYLAYER
  9
$CECOLOR
 62
   256
  9
$CELTSCALE
 40
1.0
  9
$DISPSILH
 70
     0
  9
$DIMSCALE
 40
1.0
  9
$DIMASZ
 40
2.5
  9
$DIMEXO
 40
0.0
  9
$DIMDLI
 40
3.75
  9
$DIMRND
 40
0.0
  9
$DIMDLE
 40
0.0
  9
$DIMEXE
 40
1.25
  9
$DIMTP
 40
0.0
  9
$DIMTM
 40
0.0
  9
$DIMTXT
 40
3.5
  9
$DIMCEN
 40
0.0
  9
$DIMTSZ
 40
0.0
  9
$DIMTOL
 70
     0
  9
$DIMLIM
 70
     0
  9
$DIMTIH
 70
     0
  9
$DIMTOH
 70
     0
  9
$DIMSE1
 70
     0
  9
$DIMSE2
 70
     0
  9
$DIMTAD
 70
     1
  9
$DIMZIN
 70
     8
  9
$DIMBLK
  1

  9
$DIMASO
 70
     1
  9
$DIMSHO
 70
     1
  9
$DIMPOST
  1

  9
$DIMAPOST
  1

  9
$DIMALT
 70
     0
  9
$DIMALTD
 70
     3
  9
$DIMALTF
 40
0.039370078
  9
$DIMLFAC
 40
1.0
  9
$DIMTOFL
 70
     0
  9
$DIMTVP
 40
0.0
  9
$DIMTIX
 70
     0
  9
$DIMSOXD
 70
     0
  9
$DIMSAH
 70
     0
  9
$DIMBLK1
  1

  9
$DIMBLK2
  1

  9
$DIMSTYLE
  2
STANDARD
  9
$DIMCLRD
 70
     0
  9
$DIMCLRE
 70
     0
  9
$DIMCLRT
 70
     0
  9
$DIMTFAC
 40
1.0
  9
$DIMGAP
 40
0.625
  9
$DIMJUST
 70
     0
  9
$DIMSD1
 70
     0
  9
$DIMSD2
 70
     0
  9
$DIMTOLJ
 70
     0
  9
$DIMTZIN
 70
     8
  9
$DIMALTZ
 70
     0
  9
$DIMALTTZ
 70
     0
  9
$DIMUPT
 70
     0
  9
$DIMDEC
 70
     2
  9
$DIMTDEC
 70
     2
  9
$DIMALTU
 70
     2
  9
$DIMALTTD
 70
     3
  9
$DIMTXSTY
  7
SIMPLEX
  9
$DIMAUNIT
 70
     0
  9
$DIMADEC
 70
     2
  9
$DIMALTRND
 40
0.0
  9
$DIMAZIN
 70
     2
  9
$DIMDSEP
 70
    46
  9
$DIMATFIT
 70
     3
  9
$DIMFRAC
 70
     0
  9
$DIMLDRBLK
  1

  9
$DIMLUNIT
 70
     2
  9
$DIMLWD
 70
    -2
  9
$DIMLWE
 70
    -2
  9
$DIMTMOVE
 70
     0
  9
$LUNITS
 70
     2
  9
$LUPREC
 70
     4
  9
$SKETCHINC
 40
1.0
  9
$FILLETRAD
 40
0.0
  9
$AUNITS
 70
     0
  9
$AUPREC
 70
     0
  9
$MENU
  1
c:\tdm21\cad\caduti13\tdm13
  9
$ELEVATION
 40
0.0
  9
$PELEVATION
 40
0.0
  9
$THICKNESS
 40
0.0
  9
$LIMCHECK
 70
     0
  9
$CHAMFERA
 40
0.0
  9
$CHAMFERB
 40
0.0
  9
$CHAMFERC
 40
0.0
  9
$CHAMFERD
 40
0.0
  9
$SKPOLY
 70
     0
  9
$TDCREATE
 40
2454957.593642639
  9
$TDUCREATE
 40
2454957.510309306
  9
$TDUPDATE
 40
2456860.791767326
  9
$TDUUPDATE
 40
2456860.708433993
  9
$TDINDWG
 40
0.0009643519
  9
$TDUSRTIMER
 40
0.0009475231
  9
$USRTIMER
 70
     1
  9
$ANGBASE
 50
0.0
  9
$ANGDIR
 70
     0
  9
$PDMODE
 70
     1
  9
$PDSIZE
 40
0.0
  9
$PLINEWID
 40
0.0
  9
$SPLFRAME
 70
     0
  9
$SPLINETYPE
 70
     6
  9
$SPLINESEGS
 70
     8
  9
$HANDSEED
  5
68D
  9
$SURFTAB1
 70
     6
  9
$SURFTAB2
 70
     6
  9
$SURFTYPE
 70
     6
  9
$SURFU
 70
     6
  9
$SURFV
 70
     6
  9
$UCSBASE
  2

  9
$UCSNAME
  2

  9
$UCSORG
 10
0.0
 20
0.0
 30
0.0
  9
$UCSXDIR
 10
1.0
 20
0.0
 30
0.0
  9
$UCSYDIR
 10
0.0
 20
1.0
 30
0.0
  9
$UCSORTHOREF
  2

  9
$UCSORTHOVIEW
 70
     0
  9
$UCSORGTOP
 10
0.0
 20
0.0
 30
0.0
  9
$UCSORGBOTTOM
 10
0.0
 20
0.0
 30
0.0
  9
$UCSORGLEFT
 10
0.0
 20
0.0
 30
0.0
  9
$UCSORGRIGHT
 10
0.0
 20
0.0
 30
0.0
  9
$UCSORGFRONT
 10
0.0
 20
0.0
 30
0.0
  9
$UCSORGBACK
 10
0.0
 20
0.0
 30
0.0
  9
$PUCSBASE
  2

  9
$PUCSNAME
  2

  9
$PUCSORG
 10
0.0
 20
0.0
 30
0.0
  9
$PUCSXDIR
 10
1.0
 20
0.0
 30
0.0
  9
$PUCSYDIR
 10
0.0
 20
1.0
 30
0.0
  9
$PUCSORTHOREF
  2

  9
$PUCSORTHOVIEW
 70
     0
  9
$PUCSORGTOP
 10
0.0
 20
0.0
 30
0.0
  9
$PUCSORGBOTTOM
 10
0.0
 20
0.0
 30
0.0
  9
$PUCSORGLEFT
 10
0.0
 20
0.0
 30
0.0
  9
$PUCSORGRIGHT
 10
0.0
 20
0.0
 30
0.0
  9
$PUCSORGFRONT
 10
0.0
 20
0.0
 30
0.0
  9
$PUCSORGBACK
 10
0.0
 20
0.0
 30
0.0
  9
$USERI1
 70
     0
  9
$USERI2
 70
     0
  9
$USERI3
 70
     0
  9
$USERI4
 70
     0
  9
$USERI5
 70
     0
  9
$USERR1
 40
0.0
  9
$USERR2
 40
0.0
  9
$USERR3
 40
0.0
  9
$USERR4
 40
0.0
  9
$USERR5
 40
0.0
  9
$WORLDVIEW
 70
     1
  9
$SHADEDGE
 70
     3
  9
$SHADEDIF
 70
    70
  9
$TILEMODE
 70
     1
  9
$MAXACTVP
 70
    64
  9
$PINSBASE
 10
0.0
 20
0.0
 30
0.0
  9
$PLIMCHECK
 70
     0
  9
$PEXTMIN
 10
0.0
 20
0.0
 30
0.0
  9
$PEXTMAX
 10
0.0
 20
0.0
 30
0.0
  9
$PLIMMIN
 10
0.0
 20
0.0
  9
$PLIMMAX
 10
12.0
 20
9.0
  9
$UNITMODE
 70
     0
  9
$VISRETAIN
 70
     0
  9
$PLINEGEN
 70
     0
  9
$PSLTSCALE
 70
     1
  9
$TREEDEPTH
 70
  3020
  9
$CMLSTYLE
  2
STANDARD
  9
$CMLJUST
 70
     0
  9
$CMLSCALE
 40
20.0
  9
$PROXYGRAPHICS
 70
     1
  9
$MEASUREMENT
 70
     1
  9
$CELWEIGHT
370
    -1
  9
$ENDCAPS
280
     0
  9
$JOINSTYLE
280
     0
  9
$LWDISPLAY
290
     0
  9
$INSUNITS
 70
     4
  9
$HYPERLINKBASE
  1

  9
$STYLESHEET
  1
MONOCHROME.CTB
  9
$XEDIT
290
     1
  9
$CEPSNTYPE
380
     0
  9
$PSTYLEMODE
290
     1
  9
$FINGERPRINTGUID
  2
{46B44192-1510-48B1-B61B-CBE2ADA013A7}
  9
$VERSIONGUID
  2
{6160D478-9A74-4C97-9D8A-D4A65CE74B12}
  9
$EXTNAMES
290
     1
  9
$PSVPSCALE
 40
0.0
  9
$OLESTARTUP
290
     0
  0
ENDSEC
  0
SECTION
  2
CLASSES
  0
CLASS
  1
ACDBDICTIONARYWDFLT
  2
AcDbDictionaryWithDefault
  3
ObjectDBX Classes
 90
        0
280
     0
281
     0
  0
CLASS
  1
ACDBPLACEHOLDER
  2
AcDbPlaceHolder
  3
ObjectDBX Classes
 90
        0
280
     0
281
     0
  0
CLASS
  1
LAYOUT
  2
AcDbLayout
  3
ObjectDBX Classes
 90
        0
280
     0
281
     0
  0
CLASS
  1
DICTIONARYVAR
  2
AcDbDictionaryVar
  3
ObjectDBX Classes
 90
        0
280
     0
281
     0
  0
CLASS
  1
TABLESTYLE
  2
AcDbTableStyle
  3
ObjectDBX Classes
 90
     4095
280
     0
281
     0
  0
CLASS
  1
SCALE
  2
AcDbScale
  3
ObjectDBX Classes
 90
     1153
280
     0
281
     0
  0
CLASS
  1
MATERIAL
  2
AcDbMaterial
  3
ObjectDBX Classes
 90
     1153
280
     0
281
     0
  0
CLASS
  1
VISUALSTYLE
  2
AcDbVisualStyle
  3
ObjectDBX Classes
 90
     4095
280
     0
281
     0
  0
ENDSEC
  0
SECTION
  2
TABLES
  0
TABLE
  2
VPORT
  5
8
330
0
100
AcDbSymbolTable
 70
     1
  0
VPORT
  5
39A
330
8
100
AcDbSymbolTableRecord
100
AcDbViewportTableRecord
  2
*Active
 70
     0
 10
0.0
 20
0.0
 11
1.0
 21
1.0
 12
218.9201881351169
 22
109.7549380673833
 13
0.0
 23
0.0
 14
5.0
 24
5.0
 15
5.0
 25
5.0
 16
0.0
 26
0.0
 36
1.0
 17
0.0
 27
0.0
 37
0.0
 40
564.6711112651689
 41
1.066073697585768
 42
50.0
 43
0.0
 44
0.0
 50
0.0
 51
0.0
 71
     0
 72
  2000
 73
     1
 74
     1
 75
     0
 76
     0
 77
     0
 78
     0
281
     0
 65
     1
110
0.0
120
0.0
130
0.0
111
1.0
121
0.0
131
0.0
112
0.0
122
1.0
132
0.0
 79
     0
146
0.0
  0
ENDTAB
  0
TABLE
  2
LTYPE
  5
5
330
0
100
AcDbSymbolTable
 70
     3
  0
LTYPE
  5
12
330
5
100
AcDbSymbolTableRecord
100
AcDbLinetypeTableRecord
  2
BYBLOCK
 70
     0
  3

 72
    65
 73
     0
 40
0.0
  0
LTYPE
  5
13
330
5
100
AcDbSymbolTableRecord
100
AcDbLinetypeTableRecord
  2
BYLAYER
 70
     0
  3

 72
    65
 73
     0
 40
0.0
  0
LTYPE
  5
14
330
5
100
AcDbSymbolTableRecord
100
AcDbLinetypeTableRecord
  2
CONTINUOUS
 70
     0
  3
Solid line
 72
    65
 73
     0
 40
0.0
  0
LTYPE
  5
20
330
5
100
AcDbSymbolTableRecord
100
AcDbLinetypeTableRecord
  2
HIDDEN
 70
     0
  3
Hidden __ __ __ __ __ __ __ __ __ __ __ __ __ _
 72
    65
 73
     2
 40
9.524999999999997
 49
6.349999999999998
 74
     0
 49
-3.174999999999998
 74
     0
  0
LTYPE
  5
351
330
5
100
AcDbSymbolTableRecord
100
AcDbLinetypeTableRecord
  2
CENTER
 70
     0
  3
Dash dot __ . __ . __ . __ . __ . __ . __ . __
 72
    65
 73
     4
 40
25.4
 49
12.7
 74
     0
 49
-6.349999999999998
 74
     0
 49
0.0
 74
     0
 49
-6.349999999999998
 74
     0
  0
ENDTAB
  0
TABLE
  2
LAYER
  5
2
330
0
100
AcDbSymbolTable
 70
    16
  0
LAYER
  5
F
330
2
100
AcDbSymbolTableRecord
100
AcDbLayerTableRecord
  2
0
 70
     0
 62
     7
  6
CONTINUOUS
370
    -3
390
300
  0
LAYER
  5
23
330
2
100
AcDbSymbolTableRecord
100
AcDbLayerTableRecord
  2
1
 70
     0
 62
     4
  6
CONTINUOUS
370
    -3
390
300
  0
LAYER
  5
24
330
2
100
AcDbSymbolTableRecord
100
AcDbLayerTableRecord
  2
SK1
 70
     0
 62
     4
  6
CONTINUOUS
370
    -3
390
300
  0
LAYER
  5
25
330
2
100
AcDbSymbolTableRecord
100
AcDbLayerTableRecord
  2
2
 70
     0
 62
     7
  6
CONTINUOUS
370
    -3
390
300
  0
LAYER
  5
26
330
2
100
AcDbSymbolTableRecord
100
AcDbLayerTableRecord
  2
2L
 70
     0
 62
     7
  6
CONTINUOUS
370
    -3
390
300
  0
LAYER
  5
27
330
2
100
AcDbSymbolTableRecord
100
AcDbLayerTableRecord
  2
SK2
 70
     0
 62
     7
  6
CONTINUOUS
370
    -3
390
300
  0
LAYER
  5
28
330
2
100
AcDbSymbolTableRecord
100
AcDbLayerTableRecord
  2
3
 70
     0
 62
     1
  6
HIDDEN
370
    -3
390
300
  0
LAYER
  5
29
330
2
100
AcDbSymbolTableRecord
100
AcDbLayerTableRecord
  2
SK3
 70
     0
 62
     1
  6
HIDDEN
370
    -3
390
300
  0
LAYER
  5
2A
330
2
100
AcDbSymbolTableRecord
100
AcDbLayerTableRecord
  2
4
 70
     0
 62
     2
  6
CENTER
370
    -3
390
300
  0
LAYER
  5
2B
330
2
100
AcDbSymbolTableRecord
100
AcDbLayerTableRecord
  2
SK4
 70
     0
 62
     2
  6
CENTER
370
    -3
390
300
  0
LAYER
  5
2C
330
2
100
AcDbSymbolTableRecord
100
AcDbLayerTableRecord
  2
5
 70
     0
 62
    -7
  6
CONTINUOUS
370
    -3
390
300
  0
LAYER
  5
2D
330
2
100
AcDbSymbolTableRecord
100
AcDbLayerTableRecord
  2
6
 70
     0
 62
     5
  6
CONTINUOUS
370
    -3
390
300
  0
LAYER
  5
2E
330
2
100
AcDbSymbolTableRecord
100
AcDbLayerTableRecord
  2
SK6
 70
     0
 62
     5
  6
CONTINUOUS
370
    -3
390
300
  0
LAYER
  5
2F
330
2
100
AcDbSymbolTableRecord
100
AcDbLayerTableRecord
  2
DEFPOINTS
 70
     0
 62
     7
  6
CONTINUOUS
290
     0
370
    -3
390
300
  0
LAYER
  5
375
330
2
100
AcDbSymbolTableRecord
100
AcDbLayerTableRecord
  2
CUT
 70
     0
 62
     1
  6
CONTINUOUS
370
    -3
390
300
  0
LAYER
  5
376
330
2
100
AcDbSymbolTableRecord
100
AcDbLayerTableRecord
  2
NOCUT
 70
     0
 62
     7
  6
CONTINUOUS
370
    -3
390
300
  0
ENDTAB
  0
TABLE
  2
STYLE
  5
3
330
0
100
AcDbSymbolTable
 70
     4
  0
STYLE
  5
10
330
3
100
AcDbSymbolTableRecord
100
AcDbTextStyleTableRecord
  2
STANDARD
 70
     0
 40
0.0
 41
1.0
 50
0.0
 71
     0
 42
5.0
  3
txt
  4

  0
STYLE
  5
1D
330
3
100
AcDbSymbolTableRecord
100
AcDbTextStyleTableRecord
  2
TXT
 70
     0
 40
8.0
 41
1.0
 50
0.0
 71
     0
 42
8.0
  3
txt
  4

  0
STYLE
  5
1E
330
3
100
AcDbSymbolTableRecord
100
AcDbTextStyleTableRecord
  2
SIMPLEX
 70
     0
 40
0.0
 41
1.0
 50
0.0
 71
     0
 42
3.5
  3
simplex
  4

  0
STYLE
  5
34C
330
3
100
AcDbSymbolTableRecord
100
AcDbTextStyleTableRecord
  2

 70
     1
 40
0.0
 41
1.0
 50
0.0
 71
     0
 42
2.5
  3
ltypeshp.shx
  4

  0
ENDTAB
  0
TABLE
  2
VIEW
  5
6
330
0
100
AcDbSymbolTable
 70
     0
  0
ENDTAB
  0
TABLE
  2
UCS
  5
7
330
0
100
AcDbSymbolTable
 70
     0
  0
ENDTAB
  0
TABLE
  2
APPID
  5
9
330
0
100
AcDbSymbolTable
 70
     1
  0
APPID
  5
11
330
9
100
AcDbSymbolTableRecord
100
AcDbRegAppTableRecord
  2
ACAD
 70
     0
  0
ENDTAB
  0
TABLE
  2
DIMSTYLE
  5
A
330
0
100
AcDbSymbolTable
 70
     1
100
AcDbDimStyleTable
  0
DIMSTYLE
105
3F
102
{ACAD_REACTORS
330
621
330
62E
330
63B
330
648
330
655
102
}
330
A
100
AcDbSymbolTableRecord
100
AcDbDimStyleTableRecord
  2
STANDARD
 70
     0
 41
2.5
 42
0.0
 43
3.75
 44
1.25
 73
     0
 74
     0
 77
     1
 78
     8
 79
     2
140
3.5
141
0.0
143
0.039370078
147
0.625
171
     3
178
     0
179
     2
271
     2
272
     2
274
     3
283
     0
284
     8
340
1E
  0
ENDTAB
  0
TABLE
  2
BLOCK_RECORD
  5
1
330
0
100
AcDbSymbolTable
 70
     5
  0
BLOCK_RECORD
  5
18
330
1
100
AcDbSymbolTableRecord
100
AcDbBlockTableRecord
  2
*MODEL_SPACE
340
303
  0
BLOCK_RECORD
  5
338
330
1
100
AcDbSymbolTableRecord
100
AcDbBlockTableRecord
  2
*Paper_Space
340
33B
  0
BLOCK_RECORD
  5
622
330
1
100
AcDbSymbolTableRecord
100
AcDbBlockTableRecord
  2
*D0
340
0
  0
BLOCK_RECORD
  5
62F
330
1
100
AcDbSymbolTableRecord
100
AcDbBlockTableRecord
  2
*D1
340
0
  0
BLOCK_RECORD
  5
63C
330
1
100
AcDbSymbolTableRecord
100
AcDbBlockTableRecord
  2
*D2
340
0
  0
BLOCK_RECORD
  5
649
330
1
100
AcDbSymbolTableRecord
100
AcDbBlockTableRecord
  2
*D3
340
0
  0
BLOCK_RECORD
  5
656
330
1
100
AcDbSymbolTableRecord
100
AcDbBlockTableRecord
  2
*D4
340
0
  0
ENDTAB
  0
ENDSEC
  0
SECTION
  2
BLOCKS
  0
BLOCK
  5
32
330
18
100
AcDbEntity
  8
0
100
AcDbBlockBegin
  2
*MODEL_SPACE
 70
     0
 10
0.0
 20
0.0
 30
0.0
  3
*MODEL_SPACE
  1

  0
ENDBLK
  5
33
330
18
100
AcDbEntity
  8
0
100
AcDbBlockEnd
  0
BLOCK
  5
339
330
338
100
AcDbEntity
 67
     1
  8
0
100
AcDbBlockBegin
  2
*Paper_Space
 70
     0
 10
0.0
 20
0.0
 30
0.0
  3
*Paper_Space
  1

  0
ENDBLK
  5
33A
330
338
100
AcDbEntity
 67
     1
  8
0
100
AcDbBlockEnd
  0
BLOCK
  5
623
330
622
100
AcDbEntity
  8
0
100
AcDbBlockBegin
  2
*D0
 70
     1
 10
0.0
 20
0.0
 30
0.0
  3
*D0
  1

  0
LINE
  5
625
330
622
100
AcDbEntity
  8
2
 62
     0
370
    -2
100
AcDbLine
 10
81.0
 20
7.0
 30
0.0
 11
97.25000000000001
 21
7.000000000000058
 31
0.0
  0
LINE
  5
626
330
622
100
AcDbEntity
  8
2
 62
     0
370
    -2
100
AcDbLine
 10
81.0
 20
-7.0
 30
0.0
 11
97.25000000000006
 21
-6.999999999999943
 31
0.0
  0
LINE
  5
627
330
622
100
AcDbEntity
  8
2
 62
     0
370
    -2
100
AcDbLine
 10
96.00000000000003
 20
4.500000000000053
 30
0.0
 11
96.00000000000004
 21
-4.499999999999948
 31
0.0
  0
SOLID
  5
628
330
622
100
AcDbEntity
  8
2
 62
     0
100
AcDbTrace
 10
96.4166666666667
 20
4.500000000000054
 30
0.0
 11
95.58333333333336
 21
4.500000000000052
 31
0.0
 12
96.00000000000001
 22
7.000000000000053
 32
0.0
 13
96.00000000000001
 23
7.000000000000053
 33
0.0
  0
SOLID
  5
629
330
622
100
AcDbEntity
  8
2
 62
     0
100
AcDbTrace
 10
95.58333333333337
 20
-4.499999999999948
 30
0.0
 11
96.41666666666671
 21
-4.499999999999947
 31
0.0
 12
96.00000000000006
 22
-6.999999999999948
 32
0.0
 13
96.00000000000006
 23
-6.999999999999948
 33
0.0
  0
MTEXT
  5
62A
330
622
100
AcDbEntity
  8
2
 62
     0
100
AcDbMText
 10
93.58475000000003
 20
0.0000000000000455
 30
0.0
 40
3.5
 41
0.0
 71
     5
 72
     1
  1
M14
  7
SIMPLEX
 11
-3.045183153257572E-15
 21
1.0
 31
0.0
 73
     1
 44
1.0
  0
POINT
  5
62B
330
622
100
AcDbEntity
  8
DEFPOINTS
 62
     0
100
AcDbPoint
 10
81.0
 20
7.0
 30
0.0
  0
POINT
  5
62C
330
622
100
AcDbEntity
  8
DEFPOINTS
 62
     0
100
AcDbPoint
 10
81.0
 20
-7.0
 30
0.0
  0
POINT
  5
62D
330
622
100
AcDbEntity
  8
DEFPOINTS
 62
     0
100
AcDbPoint
 10
96.00000000000006
 20
-6.999999999999948
 30
0.0
  0
ENDBLK
  5
624
330
622
100
AcDbEntity
  8
0
100
AcDbBlockEnd
  0
BLOCK
  5
630
330
62F
100
AcDbEntity
  8
0
100
AcDbBlockBegin
  2
*D1
 70
     1
 10
0.0
 20
0.0
 30
0.0
  3
*D1
  1

  0
LINE
  5
632
330
62F
100
AcDbEntity
  8
2
 62
     0
370
    -2
100
AcDbLine
 10
0.0
 20
0.0
 30
0.0
 11
0.0
 21
76.25
 31
0.0
  0
LINE
  5
633
330
62F
100
AcDbEntity
  8
2
 62
     0
370
    -2
100
AcDbLine
 10
81.0
 20
0.0
 30
0.0
 11
81.0
 21
76.25
 31
0.0
  0
LINE
  5
634
330
62F
100
AcDbEntity
  8
2
 62
     0
370
    -2
100
AcDbLine
 10
2.5
 20
75.0
 30
0.0
 11
78.5
 21
75.0
 31
0.0
  0
SOLID
  5
635
330
62F
100
AcDbEntity
  8
2
 62
     0
100
AcDbTrace
 10
2.5
 20
75.41666666666667
 30
0.0
 11
2.5
 21
74.58333333333333
 31
0.0
 12
0.0
 22
75.0
 32
0.0
 13
0.0
 23
75.0
 33
0.0
  0
SOLID
  5
636
330
62F
100
AcDbEntity
  8
2
 62
     0
100
AcDbTrace
 10
78.5
 20
74.58333333333333
 30
0.0
 11
78.5
 21
75.41666666666667
 31
0.0
 12
81.0
 22
75.0
 32
0.0
 13
81.0
 23
75.0
 33
0.0
  0
MTEXT
  5
637
330
62F
100
AcDbEntity
  8
2
 62
     0
100
AcDbMText
 10
40.5
 20
77.39075
 30
0.0
 40
3.5
 41
0.0
 71
     5
 72
     1
  1
81
  7
SIMPLEX
 73
     1
 44
1.0
  0
POINT
  5
638
330
62F
100
AcDbEntity
  8
DEFPOINTS
 62
     0
100
AcDbPoint
 10
0.0
 20
0.0
 30
0.0
  0
POINT
  5
639
330
62F
100
AcDbEntity
  8
DEFPOINTS
 62
     0
100
AcDbPoint
 10
81.0
 20
0.0
 30
0.0
  0
POINT
  5
63A
330
62F
100
AcDbEntity
  8
DEFPOINTS
 62
     0
100
AcDbPoint
 10
81.0
 20
75.0
 30
0.0
  0
ENDBLK
  5
631
330
62F
100
AcDbEntity
  8
0
100
AcDbBlockEnd
  0
BLOCK
  5
63D
330
63C
100
AcDbEntity
  8
0
100
AcDbBlockBegin
  2
*D2
 70
     1
 10
0.0
 20
0.0
 30
0.0
  3
*D2
  1

  0
LINE
  5
63F
330
63C
100
AcDbEntity
  8
SK2
 62
     0
370
    -2
100
AcDbLine
 10
-17.0
 20
5.5
 30
0.0
 11
-45.25000000002807
 21
5.499999999855829
 31
0.0
  0
LINE
  5
640
330
63C
100
AcDbEntity
  8
SK2
 62
     0
370
    -2
100
AcDbLine
 10
-17.0
 20
-5.5
 30
0.0
 11
-45.24999999997193
 21
-5.500000000144171
 31
0.0
  0
LINE
  5
641
330
63C
100
AcDbEntity
  8
SK2
 62
     0
370
    -2
100
AcDbLine
 10
-44.00000000001531
 20
2.999999999862208
 30
0.0
 11
-43.99999999998469
 21
-3.000000000137792
 31
0.0
  0
SOLID
  5
642
330
63C
100
AcDbEntity
  8
SK2
 62
     0
100
AcDbTrace
 10
-43.58333333334865
 20
2.999999999864334
 30
0.0
 11
-44.41666666668198
 21
2.999999999860082
 31
0.0
 12
-44.00000000002807
 22
5.499999999862208
 32
0.0
 13
-44.00000000002807
 23
5.499999999862208
 33
0.0
  0
SOLID
  5
643
330
63C
100
AcDbEntity
  8
SK2
 62
     0
100
AcDbTrace
 10
-44.41666666665136
 20
-3.000000000139918
 30
0.0
 11
-43.58333333331803
 21
-3.000000000135666
 31
0.0
 12
-43.99999999997193
 22
-5.500000000137792
 32
0.0
 13
-43.99999999997193
 23
-5.500000000137792
 33
0.0
  0
MTEXT
  5
644
330
63C
100
AcDbEntity
  8
SK2
 62
     0
100
AcDbMText
 10
-46.39075
 20
-0.0000000001499935
 30
0.0
 40
3.5
 41
0.0
 71
     5
 72
     1
  1
%%c11
  7
SIMPLEX
 11
-5.103634686582319E-12
 21
1.0
 31
0.0
 73
     1
 44
1.0
  0
POINT
  5
645
330
63C
100
AcDbEntity
  8
DEFPOINTS
 62
     0
100
AcDbPoint
 10
-17.0
 20
5.5
 30
0.0
  0
POINT
  5
646
330
63C
100
AcDbEntity
  8
DEFPOINTS
 62
     0
100
AcDbPoint
 10
-17.0
 20
-5.5
 30
0.0
  0
POINT
  5
647
330
63C
100
AcDbEntity
  8
DEFPOINTS
 62
     0
100
AcDbPoint
 10
-43.99999999997193
 20
-5.500000000137792
 30
0.0
  0
ENDBLK
  5
63E
330
63C
100
AcDbEntity
  8
0
100
AcDbBlockEnd
  0
BLOCK
  5
64A
330
649
100
AcDbEntity
  8
0
100
AcDbBlockBegin
  2
*D3
 70
     1
 10
0.0
 20
0.0
 30
0.0
  3
*D3
  1

  0
LINE
  5
64C
330
649
100
AcDbEntity
  8
2
 62
     0
370
    -2
100
AcDbLine
 10
55.01850454
 20
5.3
 30
0.0
 11
55.01850454
 21
61.25
 31
0.0
  0
LINE
  5
64D
330
649
100
AcDbEntity
  8
2
 62
     0
370
    -2
100
AcDbLine
 10
81.0
 20
7.0
 30
0.0
 11
81.0
 21
61.25
 31
0.0
  0
LINE
  5
64E
330
649
100
AcDbEntity
  8
2
 62
     0
370
    -2
100
AcDbLine
 10
57.51850454
 20
60.0
 30
0.0
 11
78.5
 21
60.0
 31
0.0
  0
SOLID
  5
64F
330
649
100
AcDbEntity
  8
2
 62
     0
100
AcDbTrace
 10
57.51850454
 20
60.41666666666666
 30
0.0
 11
57.51850454
 21
59.58333333333334
 31
0.0
 12
55.01850454
 22
60.0
 32
0.0
 13
55.01850454
 23
60.0
 33
0.0
  0
SOLID
  5
650
330
649
100
AcDbEntity
  8
2
 62
     0
100
AcDbTrace
 10
78.5
 20
59.58333333333334
 30
0.0
 11
78.5
 21
60.41666666666666
 31
0.0
 12
81.0
 22
60.0
 32
0.0
 13
81.0
 23
60.0
 33
0.0
  0
MTEXT
  5
651
330
649
100
AcDbEntity
  8
2
 62
     0
100
AcDbMText
 10
68.00925226999999
 20
62.39775
 30
0.0
 40
3.5
 41
0.0
 71
     5
 72
     1
  1
25.98
  7
SIMPLEX
 73
     1
 44
1.0
  0
POINT
  5
652
330
649
100
AcDbEntity
  8
DEFPOINTS
 62
     0
100
AcDbPoint
 10
55.01850454
 20
5.3
 30
0.0
  0
POINT
  5
653
330
649
100
AcDbEntity
  8
DEFPOINTS
 62
     0
100
AcDbPoint
 10
81.0
 20
7.0
 30
0.0
  0
POINT
  5
654
330
649
100
AcDbEntity
  8
DEFPOINTS
 62
     0
100
AcDbPoint
 10
81.0
 20
60.0
 30
0.0
  0
ENDBLK
  5
64B
330
649
100
AcDbEntity
  8
0
100
AcDbBlockEnd
  0
BLOCK
  5
657
330
656
100
AcDbEntity
  8
0
100
AcDbBlockBegin
  2
*D4
 70
     1
 10
0.0
 20
0.0
 30
0.0
  3
*D4
  1

  0
LINE
  5
659
330
656
100
AcDbEntity
  8
SK2
 62
     0
370
    -2
100
AcDbLine
 10
-29.0
 20
7.0
 30
0.0
 11
-29.0
 21
91.25
 31
0.0
  0
LINE
  5
65A
330
656
100
AcDbEntity
  8
SK2
 62
     0
370
    -2
100
AcDbLine
 10
81.0
 20
7.0
 30
0.0
 11
81.0
 21
91.25
 31
0.0
  0
LINE
  5
65B
330
656
100
AcDbEntity
  8
SK2
 62
     0
370
    -2
100
AcDbLine
 10
-26.5
 20
90.0
 30
0.0
 11
78.5
 21
90.0
 31
0.0
  0
SOLID
  5
65C
330
656
100
AcDbEntity
  8
SK2
 62
     0
100
AcDbTrace
 10
-26.5
 20
90.41666666666667
 30
0.0
 11
-26.5
 21
89.58333333333333
 31
0.0
 12
-29.0
 22
90.0
 32
0.0
 13
-29.0
 23
90.0
 33
0.0
  0
SOLID
  5
65D
330
656
100
AcDbEntity
  8
SK2
 62
     0
100
AcDbTrace
 10
78.5
 20
89.58333333333333
 30
0.0
 11
78.5
 21
90.41666666666667
 31
0.0
 12
81.0
 22
90.0
 32
0.0
 13
81.0
 23
90.0
 33
0.0
  0
MTEXT
  5
65E
330
656
100
AcDbEntity
  8
SK2
 62
     0
100
AcDbMText
 10
26.0
 20
92.39075
 30
0.0
 40
3.5
 41
0.0
 71
     5
 72
     1
  1
110
  7
SIMPLEX
 73
     1
 44
1.0
  0
POINT
  5
65F
330
656
100
AcDbEntity
  8
DEFPOINTS
 62
     0
100
AcDbPoint
 10
-29.0
 20
7.0
 30
0.0
  0
POINT
  5
660
330
656
100
AcDbEntity
  8
DEFPOINTS
 62
     0
100
AcDbPoint
 10
81.0
 20
7.0
 30
0.0
  0
POINT
  5
661
330
656
100
AcDbEntity
  8
DEFPOINTS
 62
     0
100
AcDbPoint
 10
81.0
 20
90.0
 30
0.0
  0
ENDBLK
  5
658
330
656
100
AcDbEntity
  8
0
100
AcDbBlockEnd
  0
ENDSEC
  0
SECTION
  2
ENTITIES
  0
LINE
  5
3D6
330
18
100
AcDbEntity
  8
SK4
100
AcDbLine
 10
-31.0
 20
0.0
 30
0.0
 11
31.0
 21
0.0
 31
0.0
  0
LINE
  5
3D7
330
18
100
AcDbEntity
  8
4
100
AcDbLine
 10
29.0
 20
0.0
 30
0.0
 11
83.0
 21
0.0
 31
0.0
  0
LINE
  5
3D8
330
18
100
AcDbEntity
  8
SK4
100
AcDbLine
 10
29.0
 20
0.0
 30
0.0
 11
83.0
 21
0.0
 31
0.0
  0
LINE
  5
3D9
330
18
100
AcDbEntity
  8
1
100
AcDbLine
 10
31.0
 20
5.5
 30
0.0
 11
-0.0000000000000018
 21
5.5
 31
0.0
  0
LINE
  5
3DA
330
18
100
AcDbEntity
  8
1
100
AcDbLine
 10
29.8
 20
-0.5519011124983895
 30
0.0
 11
31.0
 21
-0.5519011124983819
 31
0.0
  0
LINE
  5
3DB
330
18
100
AcDbEntity
  8
1
100
AcDbLine
 10
29.80000000000001
 20
-0.5519011124983834
 30
0.0
 11
29.80000000000001
 21
-3.683291847928285
 31
0.0
  0
LINE
  5
3DC
330
18
100
AcDbEntity
  8
1
100
AcDbLine
 10
55.01850454
 20
5.277919226006052
 30
0.0
 11
31.0
 21
5.277919226006052
 31
0.0
  0
LINE
  5
3DD
330
18
100
AcDbEntity
  8
1
100
AcDbLine
 10
31.0
 20
5.3
 30
0.0
 11
55.01850454
 21
5.3
 31
0.0
  0
LINE
  5
3DE
330
18
100
AcDbEntity
  8
1
100
AcDbLine
 10
31.0
 20
4.084527042753548
 30
0.0
 11
31.0
 21
-0.5519011124983811
 31
0.0
  0
LINE
  5
3DF
330
18
100
AcDbEntity
  8
1
100
AcDbLine
 10
29.8
 20
5.472239501522491
 30
0.0
 11
30.99999999999999
 21
5.472239501522483
 31
0.0
  0
LINE
  5
3E0
330
18
100
AcDbEntity
  8
1
100
AcDbLine
 10
29.8
 20
5.472239501522483
 30
0.0
 11
29.80000000000001
 21
4.084527042753547
 31
0.0
  0
LINE
  5
3E1
330
18
100
AcDbEntity
  8
1
100
AcDbLine
 10
31.0
 20
5.5
 30
0.0
 11
31.0
 21
5.49999347575103
 31
0.0
  0
LINE
  5
3E2
330
18
100
AcDbEntity
  8
1
100
AcDbLine
 10
31.0
 20
5.49999347575103
 30
0.0
 11
31.0
 21
5.498095424987298
 31
0.0
  0
LINE
  5
3E3
330
18
100
AcDbEntity
  8
1
100
AcDbLine
 10
31.0
 20
5.498095424987298
 30
0.0
 11
31.0
 21
5.472239501522484
 31
0.0
  0
LINE
  5
3E4
330
18
100
AcDbEntity
  8
1
100
AcDbLine
 10
31.0
 20
5.33757051009494
 30
0.0
 11
31.0
 21
5.472239501522485
 31
0.0
  0
LINE
  5
3E5
330
18
100
AcDbEntity
  8
1
100
AcDbLine
 10
30.99999999999999
 20
5.33757051009494
 30
0.0
 11
30.99999999999999
 21
5.277919226006049
 31
0.0
  0
LINE
  5
3E6
330
18
100
AcDbEntity
  8
1
100
AcDbLine
 10
55.01850454
 20
-3.389731211745051
 30
0.0
 11
31.0
 21
-3.389731211745051
 31
0.0
  0
LINE
  5
3E7
330
18
100
AcDbEntity
  8
1
100
AcDbLine
 10
31.0
 20
-3.683291847928284
 30
0.0
 11
31.0
 21
-5.5
 31
0.0
  0
LINE
  5
3E8
330
18
100
AcDbEntity
  8
1
100
AcDbLine
 10
29.8
 20
-3.683291847928284
 30
0.0
 11
31.0
 21
-3.683291847928284
 31
0.0
  0
LINE
  5
3E9
330
18
100
AcDbEntity
  8
1
100
AcDbLine
 10
31.00000000000001
 20
-3.683291847928284
 30
0.0
 11
31.0
 21
-3.389731211745052
 31
0.0
  0
LINE
  5
3EA
330
18
100
AcDbEntity
  8
1
100
AcDbLine
 10
55.01850454
 20
-0.4832893995896018
 30
0.0
 11
30.99999999999999
 21
-0.4832893995896018
 31
0.0
  0
LINE
  5
3EB
330
18
100
AcDbEntity
  8
1
100
AcDbLine
 10
29.8
 20
4.084527042753548
 30
0.0
 11
31.0
 21
4.084527042753548
 31
0.0
  0
LINE
  5
3EC
330
18
100
AcDbEntity
  8
1
100
AcDbLine
 10
55.01850454
 20
4.07427567944554
 30
0.0
 11
31.0
 21
4.07427567944554
 31
0.0
  0
LINE
  5
3ED
330
18
100
AcDbEntity
  8
1
100
AcDbLine
 10
55.01850454
 20
5.3
 30
0.0
 11
55.01850454
 21
5.299998698807066
 31
0.0
  0
LINE
  5
3EE
330
18
100
AcDbEntity
  8
1
100
AcDbLine
 10
55.01850454
 20
5.299998698807066
 30
0.0
 11
55.01850454
 21
5.299622216206694
 31
0.0
  0
LINE
  5
3EF
330
18
100
AcDbEntity
  8
1
100
AcDbLine
 10
55.01850454
 20
5.299622216206694
 30
0.0
 11
55.01850453999999
 21
5.294574281345835
 31
0.0
  0
LINE
  5
3F0
330
18
100
AcDbEntity
  8
1
100
AcDbLine
 10
55.01850453999999
 20
5.294574281345835
 30
0.0
 11
55.01850453999999
 21
5.277919226006051
 31
0.0
  0
LINE
  5
3F1
330
18
100
AcDbEntity
  8
1
100
AcDbLine
 10
55.01850454
 20
5.277919226006053
 30
0.0
 11
55.01850454
 21
4.07427567944554
 31
0.0
  0
LINE
  5
3F2
330
18
100
AcDbEntity
  8
1
100
AcDbLine
 10
55.01850453999999
 20
4.07427567944554
 30
0.0
 11
55.01850453999999
 21
-0.4832893995896018
 31
0.0
  0
LINE
  5
3F3
330
18
100
AcDbEntity
  8
1
100
AcDbLine
 10
55.01850454
 20
-1.469443462973487
 30
0.0
 11
55.01850454
 21
-3.389731211745051
 31
0.0
  0
LINE
  5
3F4
330
18
100
AcDbEntity
  8
1
100
AcDbLine
 10
55.01850453999999
 20
-3.389731211745051
 30
0.0
 11
55.01850454
 21
-5.273465926688799
 31
0.0
  0
LINE
  5
3F5
330
18
100
AcDbEntity
  8
1
100
AcDbLine
 10
55.01850454
 20
-5.273465926688799
 30
0.0
 11
55.01850454
 21
-5.3
 31
0.0
  0
LINE
  5
3F6
330
18
100
AcDbEntity
  8
1
100
AcDbLine
 10
-0.0000000000000067
 20
-5.5
 30
0.0
 11
31.0
 21
-5.5
 31
0.0
  0
LINE
  5
3F7
330
18
100
AcDbEntity
  8
1
100
AcDbLine
 10
31.0
 20
-5.3
 30
0.0
 11
55.01850454
 21
-5.3
 31
0.0
  0
LINE
  5
3F8
330
18
100
AcDbEntity
  8
1
100
AcDbLine
 10
55.01850454
 20
-0.4832893995896019
 30
0.0
 11
55.01850454
 21
-1.469443462973521
 31
0.0
  0
LINE
  5
3F9
330
18
100
AcDbEntity
  8
1
 62
     1
100
AcDbLine
 10
80.99999999999999
 20
5.295455122227454
 30
0.0
 11
81.0
 21
5.31795
 31
0.0
  0
LINE
  5
3FA
330
18
100
AcDbEntity
  8
1
 62
     1
100
AcDbLine
 10
81.00000000000001
 20
5.295455122227454
 30
0.0
 11
81.0
 21
4.075214291023377
 31
0.0
  0
LINE
  5
3FB
330
18
100
AcDbEntity
  8
1
 62
     1
100
AcDbLine
 10
81.0
 20
-0.4886176940871312
 30
0.0
 11
80.99999999999999
 21
4.075214291023376
 31
0.0
  0
LINE
  5
3FC
330
18
100
AcDbEntity
  8
1
 62
     1
100
AcDbLine
 10
81.0
 20
-3.416609530622257
 30
0.0
 11
81.0
 21
-1.469443462973521
 31
0.0
  0
LINE
  5
3FD
330
18
100
AcDbEntity
  8
1
 62
     1
100
AcDbLine
 10
81.0
 20
-5.31795
 30
0.0
 11
81.0
 21
-5.317551020845925
 31
0.0
  0
LINE
  5
3FE
330
18
100
AcDbEntity
  8
1
 62
     1
100
AcDbLine
 10
81.0
 20
-5.317551020845925
 30
0.0
 11
81.0
 21
-5.194135275298415
 31
0.0
  0
LINE
  5
3FF
330
18
100
AcDbEntity
  8
1
 62
     1
100
AcDbLine
 10
81.0
 20
-5.194135275298415
 30
0.0
 11
80.99999999999999
 21
-3.416609530622256
 31
0.0
  0
LINE
  5
400
330
18
100
AcDbEntity
  8
1
 62
     1
100
AcDbLine
 10
56.0
 20
7.0
 30
0.0
 11
56.02886752691898
 21
7.0
 31
0.0
  0
LINE
  5
401
330
18
100
AcDbEntity
  8
1
 62
     1
100
AcDbLine
 10
59.97113247308105
 20
7.0
 30
0.0
 11
60.02886752691899
 21
7.000000000000001
 31
0.0
  0
LINE
  5
402
330
18
100
AcDbEntity
  8
1
 62
     1
100
AcDbLine
 10
63.97113247308103
 20
7.0
 30
0.0
 11
64.02886752691896
 21
7.0
 31
0.0
  0
LINE
  5
403
330
18
100
AcDbEntity
  8
1
 62
     1
100
AcDbLine
 10
65.97113247308104
 20
7.0
 30
0.0
 11
66.02886752691897
 21
7.0
 31
0.0
  0
LINE
  5
404
330
18
100
AcDbEntity
  8
1
 62
     1
100
AcDbLine
 10
69.97113247308104
 20
7.0
 30
0.0
 11
70.02886752691894
 21
7.0
 31
0.0
  0
LINE
  5
405
330
18
100
AcDbEntity
  8
1
 62
     1
100
AcDbLine
 10
71.97113247308103
 20
7.0
 30
0.0
 11
72.02886752691897
 21
7.0
 31
0.0
  0
LINE
  5
406
330
18
100
AcDbEntity
  8
1
 62
     1
100
AcDbLine
 10
79.41019541245569
 20
-6.028428964143882
 30
0.0
 11
79.0
 21
-5.31795
 31
0.0
  0
LINE
  5
407
330
18
100
AcDbEntity
  8
1
 62
     1
100
AcDbLine
 10
77.5602963272162
 20
-6.288411253554807
 30
0.0
 11
77.0
 21
-5.31795
 31
0.0
  0
LINE
  5
408
330
18
100
AcDbEntity
  8
1
 62
     1
100
AcDbLine
 10
75.71039724197672
 20
-6.548393542965781
 30
0.0
 11
75.0
 21
-5.31795
 31
0.0
  0
LINE
  5
409
330
18
100
AcDbEntity
  8
1
 62
     1
100
AcDbLine
 10
73.86049815673721
 20
-6.80837583237668
 30
0.0
 11
73.0
 21
-5.31795
 31
0.0
  0
LINE
  5
40A
330
18
100
AcDbEntity
  8
1
 62
     1
100
AcDbLine
 10
57.97113247308106
 20
-7.000000000000031
 30
0.0
 11
57.0
 21
-5.31795
 31
0.0
  0
LINE
  5
40B
330
18
100
AcDbEntity
  8
1
 62
     1
100
AcDbLine
 10
59.97113247308105
 20
-7.000000000000019
 30
0.0
 11
59.0
 21
-5.31795
 31
0.0
  0
LINE
  5
40C
330
18
100
AcDbEntity
  8
1
 62
     1
100
AcDbLine
 10
61.97113247308106
 20
-7.000000000000031
 30
0.0
 11
61.0
 21
-5.31795
 31
0.0
  0
LINE
  5
40D
330
18
100
AcDbEntity
  8
1
 62
     1
100
AcDbLine
 10
63.97113247308103
 20
-7.000000000000006
 30
0.0
 11
63.0
 21
-5.31795
 31
0.0
  0
LINE
  5
40E
330
18
100
AcDbEntity
  8
1
 62
     1
100
AcDbLine
 10
65.97113247308104
 20
-7.000000000000019
 30
0.0
 11
65.0
 21
-5.31795
 31
0.0
  0
LINE
  5
40F
330
18
100
AcDbEntity
  8
1
 62
     1
100
AcDbLine
 10
67.97113247308104
 20
-6.999999999999994
 30
0.0
 11
67.0
 21
-5.31795
 31
0.0
  0
LINE
  5
410
330
18
100
AcDbEntity
  8
1
 62
     1
100
AcDbLine
 10
69.97113247308104
 20
-7.000000000000019
 30
0.0
 11
69.0
 21
-5.31795
 31
0.0
  0
LINE
  5
411
330
18
100
AcDbEntity
  8
1
 62
     1
100
AcDbLine
 10
71.97113247308104
 20
-6.999999999999994
 30
0.0
 11
71.0
 21
-5.31795
 31
0.0
  0
LINE
  5
412
330
18
100
AcDbEntity
  8
1
 62
     1
100
AcDbLine
 10
80.69397014044098
 20
4.101473937313601
 30
0.0
 11
79.41019541245569
 21
4.109914000737467
 31
0.0
  0
LINE
  5
413
330
18
100
AcDbEntity
  8
1
 62
     1
100
AcDbLine
 10
79.41019541245568
 20
4.109914000737466
 30
0.0
 11
79.4101954124557
 21
-0.7378409788246649
 31
0.0
  0
LINE
  5
414
330
18
100
AcDbEntity
  8
1
 62
     1
100
AcDbLine
 10
80.69397014044098
 20
-0.6744663829719424
 30
0.0
 11
79.41019541245568
 21
-0.737840978824666
 31
0.0
  0
LINE
  5
415
330
18
100
AcDbEntity
  8
1
 62
     1
100
AcDbLine
 10
78.51735986121213
 20
4.115670752725261
 30
0.0
 11
77.56029632721621
 21
4.121750794178758
 31
0.0
  0
LINE
  5
416
330
18
100
AcDbEntity
  8
1
 62
     1
100
AcDbLine
 10
78.51735986128182
 20
-0.7818566564137248
 30
0.0
 11
77.56029632721621
 21
-0.8289881492378033
 31
0.0
  0
LINE
  5
417
330
18
100
AcDbEntity
  8
1
 62
     1
100
AcDbLine
 10
76.34074958302337
 20
4.129377028704572
 30
0.0
 11
75.71039724197672
 21
4.133270681665904
 31
0.0
  0
LINE
  5
418
330
18
100
AcDbEntity
  8
1
 62
     1
100
AcDbLine
 10
75.71039724197674
 20
4.133270681665905
 30
0.0
 11
75.71039724197675
 21
-0.9199522505759595
 31
0.0
  0
LINE
  5
419
330
18
100
AcDbEntity
  8
1
 62
     1
100
AcDbLine
 10
76.34074958218832
 20
-0.8889753963091641
 30
0.0
 11
75.71039724197671
 21
-0.9199522505759585
 31
0.0
  0
LINE
  5
41A
330
18
100
AcDbEntity
  8
1
 62
     1
100
AcDbLine
 10
76.34074958198323
 20
4.129377023973401
 30
0.0
 11
76.34074958198323
 21
-0.8889753961083023
 31
0.0
  0
LINE
  5
41B
330
18
100
AcDbEntity
  8
1
 62
     1
100
AcDbLine
 10
74.16413930275436
 20
4.142698059872038
 30
0.0
 11
73.86049815673721
 21
4.144530287955643
 31
0.0
  0
LINE
  5
41C
330
18
100
AcDbEntity
  8
1
 62
     1
100
AcDbLine
 10
73.86049815673721
 20
4.144530287955642
 30
0.0
 11
73.86049815673721
 21
-1.010755173689389
 31
0.0
  0
LINE
  5
41D
330
18
100
AcDbEntity
  8
1
 62
     1
100
AcDbLine
 10
74.16413930275436
 20
-0.9958610884704178
 30
0.0
 11
73.86049815673721
 21
-1.010755173689389
 31
0.0
  0
LINE
  5
41E
330
18
100
AcDbEntity
  8
1
 62
     1
100
AcDbLine
 10
74.16413930275435
 20
4.142698059872036
 30
0.0
 11
74.16413930275438
 21
-0.9958610884704155
 31
0.0
  0
ARC
  5
41F
330
18
100
AcDbEntity
  8
1
 62
     1
100
AcDbCircle
 10
53.88468825444567
 20
6.373340680594089
 30
0.0
 40
26.95617091958095
100
AcDbArc
 50
336.0363113565475
 51
338.7041600236369
  0
LINE
  5
420
330
18
100
AcDbEntity
  8
1
 62
     1
100
AcDbLine
 10
78.5173598612121
 20
-4.575131014848052
 30
0.0
 11
78.51735986121211
 21
-6.153906852387571
 31
0.0
  0
LINE
  5
421
330
18
100
AcDbEntity
  8
1
 62
     1
100
AcDbLine
 10
79.0
 20
-5.31795
 30
0.0
 11
78.51735986121211
 21
-6.153906852387558
 31
0.0
  0
ARC
  5
422
330
18
100
AcDbEntity
  8
1
 62
     1
100
AcDbCircle
 10
102.1769184415388
 20
5.573815089506933
 30
0.0
 40
24.85957957290734
100
AcDbArc
 50
201.2014835614014
 51
203.6793215982647
  0
LINE
  5
423
330
18
100
AcDbEntity
  8
1
 62
     1
100
AcDbLine
 10
79.0
 20
-5.31795
 30
0.0
 11
79.00000000000001
 21
-5.317551020845925
 31
0.0
  0
LINE
  5
424
330
18
100
AcDbEntity
  8
1
 62
     1
100
AcDbLine
 10
79.00000000000001
 20
-5.317551020845925
 30
0.0
 11
79.00000000000001
 21
-5.194135275298414
 31
0.0
  0
LINE
  5
425
330
18
100
AcDbEntity
  8
1
 62
     1
100
AcDbLine
 10
79.00000000000001
 20
-5.194135275298414
 30
0.0
 11
79.00000000000001
 21
-3.416609530622257
 31
0.0
  0
LINE
  5
426
330
18
100
AcDbEntity
  8
1
 62
     1
100
AcDbLine
 10
79.4101954124557
 20
-4.41027920683839
 30
0.0
 11
79.41019541245569
 21
-6.028428964143884
 31
0.0
  0
ARC
  5
427
330
18
100
AcDbEntity
  8
1
 62
     1
100
AcDbCircle
 10
58.13290850908329
 20
5.454028736366469
 30
0.0
 40
24.52744590321364
100
AcDbArc
 50
336.9010574382941
 51
338.7976521893613
  0
LINE
  5
428
330
18
100
AcDbEntity
  8
1
 62
     1
100
AcDbLine
 10
80.69397014044098
 20
-4.168587412908759
 30
0.0
 11
80.69397014044098
 21
-5.848009018249209
 31
0.0
  0
LINE
  5
429
330
18
100
AcDbEntity
  8
1
 62
     1
100
AcDbLine
 10
81.0
 20
-5.31795
 30
0.0
 11
80.69397014044098
 21
-5.848009018249197
 31
0.0
  0
LINE
  5
42A
330
18
100
AcDbEntity
  8
1
 62
     1
100
AcDbLine
 10
72.02886752691899
 20
-1.077590679886238
 30
0.0
 11
71.97113247308106
 21
-1.077590679886238
 31
0.0
  0
LINE
  5
42B
330
18
100
AcDbEntity
  8
1
 62
     1
100
AcDbLine
 10
70.02886752691896
 20
4.152688251718572
 30
0.0
 11
69.97113247308103
 21
4.152688251718572
 31
0.0
  0
LINE
  5
42C
330
18
100
AcDbEntity
  8
1
 62
     1
100
AcDbLine
 10
69.97113247308104
 20
4.152688251718572
 30
0.0
 11
69.97113247308104
 21
-1.077590679886246
 31
0.0
  0
LINE
  5
42D
330
18
100
AcDbEntity
  8
1
 62
     1
100
AcDbLine
 10
70.02886752691896
 20
-1.077590679886238
 30
0.0
 11
69.97113247308103
 21
-1.077590679886238
 31
0.0
  0
LINE
  5
42E
330
18
100
AcDbEntity
  8
1
 62
     1
100
AcDbLine
 10
70.02886752691896
 20
4.152688251718573
 30
0.0
 11
70.02886752691896
 21
-1.077590679886246
 31
0.0
  0
LINE
  5
42F
330
18
100
AcDbEntity
  8
1
 62
     1
100
AcDbLine
 10
68.02886752691896
 20
4.152688251718572
 30
0.0
 11
67.97113247308106
 21
4.152688251718572
 31
0.0
  0
LINE
  5
430
330
18
100
AcDbEntity
  8
1
 62
     1
100
AcDbLine
 10
68.02886752691899
 20
-1.077590679886238
 30
0.0
 11
67.97113247308101
 21
-1.077590679886238
 31
0.0
  0
LINE
  5
431
330
18
100
AcDbEntity
  8
1
 62
     1
100
AcDbLine
 10
66.02886752691897
 20
4.152688251718572
 30
0.0
 11
65.97113247308104
 21
4.152688251718572
 31
0.0
  0
LINE
  5
432
330
18
100
AcDbEntity
  8
1
 62
     1
100
AcDbLine
 10
66.02886752691893
 20
-1.077590679886238
 30
0.0
 11
65.97113247308103
 21
-1.077590679886238
 31
0.0
  0
LINE
  5
433
330
18
100
AcDbEntity
  8
1
 62
     1
100
AcDbLine
 10
64.02886752691896
 20
4.152688251718571
 30
0.0
 11
63.97113247308103
 21
4.152688251718571
 31
0.0
  0
LINE
  5
434
330
18
100
AcDbEntity
  8
1
 62
     1
100
AcDbLine
 10
64.02886752691896
 20
-1.077590679886238
 30
0.0
 11
63.97113247308106
 21
-1.077590679886238
 31
0.0
  0
LINE
  5
435
330
18
100
AcDbEntity
  8
1
 62
     1
100
AcDbLine
 10
62.02886752691897
 20
4.152688251718572
 30
0.0
 11
61.97113247308108
 21
4.152688251718572
 31
0.0
  0
LINE
  5
436
330
18
100
AcDbEntity
  8
1
 62
     1
100
AcDbLine
 10
62.02886752691897
 20
4.152688251718573
 30
0.0
 11
62.02886752691897
 21
-1.077590679886246
 31
0.0
  0
LINE
  5
437
330
18
100
AcDbEntity
  8
1
 62
     1
100
AcDbLine
 10
60.02886752691897
 20
-1.077590679886238
 30
0.0
 11
59.97113247308108
 21
-1.077590679886238
 31
0.0
  0
LINE
  5
438
330
18
100
AcDbEntity
  8
1
 62
     1
100
AcDbLine
 10
58.02886752691896
 20
4.152688251718572
 30
0.0
 11
57.97113247308107
 21
4.152688251718572
 31
0.0
  0
LINE
  5
439
330
18
100
AcDbEntity
  8
1
 62
     1
100
AcDbLine
 10
58.02886752691897
 20
-1.077590679886238
 30
0.0
 11
57.97113247308106
 21
-1.077590679886238
 31
0.0
  0
LINE
  5
43A
330
18
100
AcDbEntity
  8
1
 62
     1
100
AcDbLine
 10
56.02886752691899
 20
4.152688251718572
 30
0.0
 11
55.99999999999999
 21
4.152688251718572
 31
0.0
  0
LINE
  5
43B
330
18
100
AcDbEntity
  8
1
 62
     1
100
AcDbLine
 10
55.99999999999999
 20
4.152688251718573
 30
0.0
 11
56.00000000000001
 21
-1.077590679886238
 31
0.0
  0
LINE
  5
43C
330
18
100
AcDbEntity
  8
1
 62
     1
100
AcDbLine
 10
56.02886752691897
 20
-1.077590679886238
 30
0.0
 11
56.0
 21
-1.077590679886238
 31
0.0
  0
LINE
  5
43D
330
18
100
AcDbEntity
  8
1
 62
     1
100
AcDbLine
 10
71.0
 20
-3.416609530622257
 30
0.0
 11
71.46486529169238
 21
-4.534911159097191
 31
0.0
  0
LINE
  5
43E
330
18
100
AcDbEntity
  8
1
 62
     1
100
AcDbLine
 10
71.46486529169238
 20
-4.534911159097191
 30
0.0
 11
71.97113247308103
 21
-5.635173491920061
 31
0.0
  0
LINE
  5
43F
330
18
100
AcDbEntity
  8
1
 62
     1
100
AcDbLine
 10
71.97113247308103
 20
-5.635173491920061
 30
0.0
 11
71.97113247308103
 21
-7.0
 31
0.0
  0
LINE
  5
440
330
18
100
AcDbEntity
  8
1
 62
     1
100
AcDbLine
 10
74.16413930275436
 20
-5.349091827857862
 30
0.0
 11
75.0
 21
-3.416609530622257
 31
0.0
  0
LINE
  5
441
330
18
100
AcDbEntity
  8
1
 62
     1
100
AcDbLine
 10
74.16413930275436
 20
-5.349091827857857
 30
0.0
 11
74.16413930275436
 21
-6.765702520664299
 31
0.0
  0
LINE
  5
442
330
18
100
AcDbEntity
  8
1
 62
     1
100
AcDbLine
 10
75.0
 20
-5.31795
 30
0.0
 11
74.16413930275436
 21
-6.765702520664304
 31
0.0
  0
ARC
  5
443
330
18
100
AcDbEntity
  8
1
 62
     1
100
AcDbCircle
 10
101.2314593969865
 20
6.820551738958466
 30
0.0
 40
28.15839713390123
100
AcDbArc
 50
201.3188490337551
 51
204.998178132036
  0
LINE
  5
444
330
18
100
AcDbEntity
  8
1
 62
     1
100
AcDbLine
 10
75.0
 20
-5.31795
 30
0.0
 11
75.00000000000001
 21
-5.317551020845925
 31
0.0
  0
LINE
  5
445
330
18
100
AcDbEntity
  8
1
 62
     1
100
AcDbLine
 10
75.00000000000001
 20
-5.317551020845925
 30
0.0
 11
75.00000000000001
 21
-5.194135275298414
 31
0.0
  0
LINE
  5
446
330
18
100
AcDbEntity
  8
1
 62
     1
100
AcDbLine
 10
75.00000000000001
 20
-5.194135275298414
 30
0.0
 11
75.0
 21
-3.416609530622257
 31
0.0
  0
LINE
  5
447
330
18
100
AcDbEntity
  8
1
 62
     1
100
AcDbLine
 10
75.71039724197674
 20
-5.079127037753305
 30
0.0
 11
75.71039724197672
 21
-6.548393542965755
 31
0.0
  0
ARC
  5
448
330
18
100
AcDbEntity
  8
1
 62
     1
100
AcDbCircle
 10
49.55982784181556
 20
7.343328528779861
 30
0.0
 40
29.4749315377991
100
AcDbArc
 50
335.31217112823
 51
338.5886842021915
  0
LINE
  5
449
330
18
100
AcDbEntity
  8
1
 62
     1
100
AcDbLine
 10
76.34074958198323
 20
-4.967627399669087
 30
0.0
 11
76.34074958198323
 21
-6.459804686525937
 31
0.0
  0
LINE
  5
44A
330
18
100
AcDbEntity
  8
1
 62
     1
100
AcDbLine
 10
77.0
 20
-5.31795
 30
0.0
 11
76.34074958198323
 21
-6.459804686525943
 31
0.0
  0
ARC
  5
44B
330
18
100
AcDbEntity
  8
1
 62
     1
100
AcDbCircle
 10
101.6902696359635
 20
6.187699578648269
 30
0.0
 40
26.49255576950345
100
AcDbArc
 50
201.2556204213714
 51
204.3824689906104
  0
LINE
  5
44C
330
18
100
AcDbEntity
  8
1
 62
     1
100
AcDbLine
 10
77.0
 20
-5.31795
 30
0.0
 11
77.0
 21
-5.317551020845925
 31
0.0
  0
LINE
  5
44D
330
18
100
AcDbEntity
  8
1
 62
     1
100
AcDbLine
 10
77.0
 20
-5.317551020845925
 30
0.0
 11
77.00000000000001
 21
-5.194135275298414
 31
0.0
  0
LINE
  5
44E
330
18
100
AcDbEntity
  8
1
 62
     1
100
AcDbLine
 10
77.00000000000001
 20
-5.194135275298414
 30
0.0
 11
77.0
 21
-3.416609530622257
 31
0.0
  0
LINE
  5
44F
330
18
100
AcDbEntity
  8
1
 62
     1
100
AcDbLine
 10
77.56029632721618
 20
-4.74924062188069
 30
0.0
 11
77.5602963272162
 21
-6.288411253554822
 31
0.0
  0
LINE
  5
450
330
18
100
AcDbEntity
  8
1
 62
     1
100
AcDbLine
 10
73.0
 20
-3.416609530622257
 30
0.0
 11
73.41293498966284
 21
-4.416560327210743
 31
0.0
  0
LINE
  5
451
330
18
100
AcDbEntity
  8
1
 62
     1
100
AcDbLine
 10
73.41293498966284
 20
-4.416560327210743
 30
0.0
 11
73.86049815673721
 21
-5.401559975332065
 31
0.0
  0
LINE
  5
452
330
18
100
AcDbEntity
  8
1
 62
     1
100
AcDbLine
 10
73.0
 20
-5.31795
 30
0.0
 11
73.0
 21
-5.317551020845925
 31
0.0
  0
LINE
  5
453
330
18
100
AcDbEntity
  8
1
 62
     1
100
AcDbLine
 10
73.0
 20
-5.317551020845925
 30
0.0
 11
73.00000000000001
 21
-5.194135275298414
 31
0.0
  0
LINE
  5
454
330
18
100
AcDbEntity
  8
1
 62
     1
100
AcDbLine
 10
73.00000000000001
 20
-5.194135275298414
 30
0.0
 11
73.0
 21
-3.416609530622257
 31
0.0
  0
LINE
  5
455
330
18
100
AcDbEntity
  8
1
 62
     1
100
AcDbLine
 10
73.86049815673722
 20
-5.401559975332067
 30
0.0
 11
73.86049815673721
 21
-6.808375832376695
 31
0.0
  0
LINE
  5
456
330
18
100
AcDbEntity
  8
1
 62
     1
100
AcDbLine
 10
72.02886752691899
 20
-5.635173491920063
 30
0.0
 11
72.53513560066801
 21
-4.534908959130625
 31
0.0
  0
LINE
  5
457
330
18
100
AcDbEntity
  8
1
 62
     1
100
AcDbLine
 10
72.53513560066801
 20
-4.534908959130625
 30
0.0
 11
73.0
 21
-3.416609530622257
 31
0.0
  0
LINE
  5
458
330
18
100
AcDbEntity
  8
1
 62
     1
100
AcDbLine
 10
72.02886752691897
 20
-5.635173491920061
 30
0.0
 11
72.02886752691897
 21
-7.0
 31
0.0
  0
LINE
  5
459
330
18
100
AcDbEntity
  8
1
 62
     1
100
AcDbLine
 10
73.0
 20
-5.31795
 30
0.0
 11
72.02886752691897
 21
-6.999999999999994
 31
0.0
  0
LINE
  5
45A
330
18
100
AcDbEntity
  8
1
 62
     1
100
AcDbLine
 10
67.0
 20
-3.416609530622257
 30
0.0
 11
67.46486529169238
 21
-4.534911159097194
 31
0.0
  0
LINE
  5
45B
330
18
100
AcDbEntity
  8
1
 62
     1
100
AcDbLine
 10
67.46486529169238
 20
-4.534911159097194
 30
0.0
 11
67.97113247308104
 21
-5.635173491920061
 31
0.0
  0
LINE
  5
45C
330
18
100
AcDbEntity
  8
1
 62
     1
100
AcDbLine
 10
67.97113247308103
 20
-5.635173491920061
 30
0.0
 11
67.97113247308103
 21
-7.0
 31
0.0
  0
LINE
  5
45D
330
18
100
AcDbEntity
  8
1
 62
     1
100
AcDbLine
 10
68.02886752691896
 20
-5.635173491920085
 30
0.0
 11
68.53513560066799
 21
-4.534908959130637
 31
0.0
  0
LINE
  5
45E
330
18
100
AcDbEntity
  8
1
 62
     1
100
AcDbLine
 10
68.53513560066799
 20
-4.534908959130637
 30
0.0
 11
69.0
 21
-3.416609530622257
 31
0.0
  0
LINE
  5
45F
330
18
100
AcDbEntity
  8
1
 62
     1
100
AcDbLine
 10
68.02886752691896
 20
-5.635173491920061
 30
0.0
 11
68.02886752691896
 21
-7.0
 31
0.0
  0
LINE
  5
460
330
18
100
AcDbEntity
  8
1
 62
     1
100
AcDbLine
 10
69.0
 20
-5.31795
 30
0.0
 11
68.02886752691896
 21
-7.000000000000019
 31
0.0
  0
LINE
  5
461
330
18
100
AcDbEntity
  8
1
 62
     1
100
AcDbLine
 10
69.0
 20
-3.416609530622257
 30
0.0
 11
69.46486529169239
 21
-4.534911159097206
 31
0.0
  0
LINE
  5
462
330
18
100
AcDbEntity
  8
1
 62
     1
100
AcDbLine
 10
69.46486529169239
 20
-4.534911159097206
 30
0.0
 11
69.97113247308104
 21
-5.635173491920087
 31
0.0
  0
LINE
  5
463
330
18
100
AcDbEntity
  8
1
 62
     1
100
AcDbLine
 10
69.0
 20
-5.31795
 30
0.0
 11
69.00000000000001
 21
-5.317551020845925
 31
0.0
  0
LINE
  5
464
330
18
100
AcDbEntity
  8
1
 62
     1
100
AcDbLine
 10
69.00000000000001
 20
-5.317551020845925
 30
0.0
 11
69.00000000000001
 21
-5.194135275298414
 31
0.0
  0
LINE
  5
465
330
18
100
AcDbEntity
  8
1
 62
     1
100
AcDbLine
 10
69.00000000000001
 20
-5.194135275298414
 30
0.0
 11
69.0
 21
-3.416609530622257
 31
0.0
  0
LINE
  5
466
330
18
100
AcDbEntity
  8
1
 62
     1
100
AcDbLine
 10
69.97113247308104
 20
-5.635173491920061
 30
0.0
 11
69.97113247308104
 21
-7.0
 31
0.0
  0
LINE
  5
467
330
18
100
AcDbEntity
  8
1
 62
     1
100
AcDbLine
 10
70.02886752691896
 20
-5.635173491920085
 30
0.0
 11
70.535135600668
 21
-4.534908959130641
 31
0.0
  0
LINE
  5
468
330
18
100
AcDbEntity
  8
1
 62
     1
100
AcDbLine
 10
70.535135600668
 20
-4.534908959130641
 30
0.0
 11
71.0
 21
-3.416609530622257
 31
0.0
  0
LINE
  5
469
330
18
100
AcDbEntity
  8
1
 62
     1
100
AcDbLine
 10
70.02886752691896
 20
-5.635173491920061
 30
0.0
 11
70.02886752691896
 21
-7.0
 31
0.0
  0
LINE
  5
46A
330
18
100
AcDbEntity
  8
1
 62
     1
100
AcDbLine
 10
71.0
 20
-5.31795
 30
0.0
 11
70.02886752691896
 21
-7.000000000000019
 31
0.0
  0
LINE
  5
46B
330
18
100
AcDbEntity
  8
1
 62
     1
100
AcDbLine
 10
71.0
 20
-5.31795
 30
0.0
 11
71.0
 21
-5.317551020845925
 31
0.0
  0
LINE
  5
46C
330
18
100
AcDbEntity
  8
1
 62
     1
100
AcDbLine
 10
71.0
 20
-5.317551020845925
 30
0.0
 11
71.0
 21
-5.194135275298414
 31
0.0
  0
LINE
  5
46D
330
18
100
AcDbEntity
  8
1
 62
     1
100
AcDbLine
 10
71.0
 20
-5.194135275298414
 30
0.0
 11
71.00000000000001
 21
-3.416609530622257
 31
0.0
  0
LINE
  5
46E
330
18
100
AcDbEntity
  8
1
 62
     1
100
AcDbLine
 10
66.02886752691897
 20
-5.635173491920063
 30
0.0
 11
66.53513560066801
 21
-4.534908959130625
 31
0.0
  0
LINE
  5
46F
330
18
100
AcDbEntity
  8
1
 62
     1
100
AcDbLine
 10
66.53513560066801
 20
-4.534908959130625
 30
0.0
 11
67.0
 21
-3.416609530622257
 31
0.0
  0
LINE
  5
470
330
18
100
AcDbEntity
  8
1
 62
     1
100
AcDbLine
 10
66.02886752691897
 20
-5.635173491920061
 30
0.0
 11
66.02886752691897
 21
-7.0
 31
0.0
  0
LINE
  5
471
330
18
100
AcDbEntity
  8
1
 62
     1
100
AcDbLine
 10
67.0
 20
-5.31795
 30
0.0
 11
66.02886752691897
 21
-6.999999999999994
 31
0.0
  0
LINE
  5
472
330
18
100
AcDbEntity
  8
1
 62
     1
100
AcDbLine
 10
67.0
 20
-5.31795
 30
0.0
 11
67.00000000000001
 21
-5.317551020845925
 31
0.0
  0
LINE
  5
473
330
18
100
AcDbEntity
  8
1
 62
     1
100
AcDbLine
 10
67.00000000000001
 20
-5.317551020845925
 30
0.0
 11
67.0
 21
-5.194135275298414
 31
0.0
  0
LINE
  5
474
330
18
100
AcDbEntity
  8
1
 62
     1
100
AcDbLine
 10
67.0
 20
-5.194135275298414
 30
0.0
 11
67.0
 21
-3.416609530622257
 31
0.0
  0
LINE
  5
475
330
18
100
AcDbEntity
  8
1
 62
     1
100
AcDbLine
 10
62.02886752691897
 20
-5.63517349192007
 30
0.0
 11
62.53513560066801
 21
-4.534908959130632
 31
0.0
  0
LINE
  5
476
330
18
100
AcDbEntity
  8
1
 62
     1
100
AcDbLine
 10
62.53513560066801
 20
-4.534908959130632
 30
0.0
 11
63.0
 21
-3.416609530622257
 31
0.0
  0
LINE
  5
477
330
18
100
AcDbEntity
  8
1
 62
     1
100
AcDbLine
 10
62.02886752691897
 20
-5.635173491920061
 30
0.0
 11
62.02886752691897
 21
-7.0
 31
0.0
  0
LINE
  5
478
330
18
100
AcDbEntity
  8
1
 62
     1
100
AcDbLine
 10
63.0
 20
-5.31795
 30
0.0
 11
62.02886752691897
 21
-7.000000000000005
 31
0.0
  0
LINE
  5
479
330
18
100
AcDbEntity
  8
1
 62
     1
100
AcDbLine
 10
63.0
 20
-3.416609530622257
 30
0.0
 11
63.46486529169237
 21
-4.534911159097192
 31
0.0
  0
LINE
  5
47A
330
18
100
AcDbEntity
  8
1
 62
     1
100
AcDbLine
 10
63.46486529169237
 20
-4.534911159097192
 30
0.0
 11
63.97113247308104
 21
-5.63517349192007
 31
0.0
  0
LINE
  5
47B
330
18
100
AcDbEntity
  8
1
 62
     1
100
AcDbLine
 10
63.0
 20
-5.31795
 30
0.0
 11
63.0
 21
-5.317551020845925
 31
0.0
  0
LINE
  5
47C
330
18
100
AcDbEntity
  8
1
 62
     1
100
AcDbLine
 10
63.0
 20
-5.317551020845925
 30
0.0
 11
63.00000000000001
 21
-5.194135275298414
 31
0.0
  0
LINE
  5
47D
330
18
100
AcDbEntity
  8
1
 62
     1
100
AcDbLine
 10
63.00000000000001
 20
-5.194135275298414
 30
0.0
 11
63.00000000000001
 21
-3.416609530622257
 31
0.0
  0
LINE
  5
47E
330
18
100
AcDbEntity
  8
1
 62
     1
100
AcDbLine
 10
63.97113247308103
 20
-5.635173491920061
 30
0.0
 11
63.97113247308103
 21
-7.0
 31
0.0
  0
LINE
  5
47F
330
18
100
AcDbEntity
  8
1
 62
     1
100
AcDbLine
 10
64.02886752691896
 20
-5.635173491920085
 30
0.0
 11
64.535135600668
 21
-4.53490895913064
 31
0.0
  0
LINE
  5
480
330
18
100
AcDbEntity
  8
1
 62
     1
100
AcDbLine
 10
64.535135600668
 20
-4.53490895913064
 30
0.0
 11
65.0
 21
-3.416609530622257
 31
0.0
  0
LINE
  5
481
330
18
100
AcDbEntity
  8
1
 62
     1
100
AcDbLine
 10
64.02886752691896
 20
-5.635173491920061
 30
0.0
 11
64.02886752691896
 21
-7.0
 31
0.0
  0
LINE
  5
482
330
18
100
AcDbEntity
  8
1
 62
     1
100
AcDbLine
 10
65.0
 20
-5.31795
 30
0.0
 11
64.02886752691896
 21
-7.000000000000019
 31
0.0
  0
LINE
  5
483
330
18
100
AcDbEntity
  8
1
 62
     1
100
AcDbLine
 10
65.0
 20
-3.416609530622257
 30
0.0
 11
65.46486529169238
 21
-4.534911159097204
 31
0.0
  0
LINE
  5
484
330
18
100
AcDbEntity
  8
1
 62
     1
100
AcDbLine
 10
65.46486529169238
 20
-4.534911159097204
 30
0.0
 11
65.97113247308104
 21
-5.635173491920087
 31
0.0
  0
LINE
  5
485
330
18
100
AcDbEntity
  8
1
 62
     1
100
AcDbLine
 10
65.0
 20
-5.31795
 30
0.0
 11
65.0
 21
-5.317551020845925
 31
0.0
  0
LINE
  5
486
330
18
100
AcDbEntity
  8
1
 62
     1
100
AcDbLine
 10
65.0
 20
-5.317551020845925
 30
0.0
 11
65.0
 21
-5.194135275298414
 31
0.0
  0
LINE
  5
487
330
18
100
AcDbEntity
  8
1
 62
     1
100
AcDbLine
 10
65.0
 20
-5.194135275298414
 30
0.0
 11
65.0
 21
-3.416609530622257
 31
0.0
  0
LINE
  5
488
330
18
100
AcDbEntity
  8
1
 62
     1
100
AcDbLine
 10
65.97113247308104
 20
-5.635173491920061
 30
0.0
 11
65.97113247308104
 21
-7.0
 31
0.0
  0
LINE
  5
489
330
18
100
AcDbEntity
  8
1
 62
     1
100
AcDbLine
 10
60.99999999999999
 20
-3.416609530622257
 30
0.0
 11
61.46486529169239
 21
-4.534911159097211
 31
0.0
  0
LINE
  5
48A
330
18
100
AcDbEntity
  8
1
 62
     1
100
AcDbLine
 10
61.46486529169239
 20
-4.534911159097211
 30
0.0
 11
61.97113247308106
 21
-5.635173491920105
 31
0.0
  0
LINE
  5
48B
330
18
100
AcDbEntity
  8
1
 62
     1
100
AcDbLine
 10
61.97113247308105
 20
-5.635173491920061
 30
0.0
 11
61.97113247308106
 21
-7.0
 31
0.0
  0
LINE
  5
48C
330
18
100
AcDbEntity
  8
1
 62
     1
100
AcDbLine
 10
60.02886752691898
 20
-5.635173491920064
 30
0.0
 11
60.535135600668
 21
-4.534908959130627
 31
0.0
  0
LINE
  5
48D
330
18
100
AcDbEntity
  8
1
 62
     1
100
AcDbLine
 10
60.535135600668
 20
-4.534908959130627
 30
0.0
 11
60.99999999999999
 21
-3.416609530622257
 31
0.0
  0
LINE
  5
48E
330
18
100
AcDbEntity
  8
1
 62
     1
100
AcDbLine
 10
60.02886752691897
 20
-5.635173491920061
 30
0.0
 11
60.02886752691898
 21
-7.0
 31
0.0
  0
LINE
  5
48F
330
18
100
AcDbEntity
  8
1
 62
     1
100
AcDbLine
 10
61.0
 20
-5.31795
 30
0.0
 11
60.02886752691898
 21
-6.999999999999994
 31
0.0
  0
LINE
  5
490
330
18
100
AcDbEntity
  8
1
 62
     1
100
AcDbLine
 10
61.0
 20
-5.31795
 30
0.0
 11
61.00000000000001
 21
-5.317551020845925
 31
0.0
  0
LINE
  5
491
330
18
100
AcDbEntity
  8
1
 62
     1
100
AcDbLine
 10
61.00000000000001
 20
-5.317551020845925
 30
0.0
 11
61.00000000000001
 21
-5.194135275298414
 31
0.0
  0
LINE
  5
492
330
18
100
AcDbEntity
  8
1
 62
     1
100
AcDbLine
 10
61.00000000000001
 20
-5.194135275298414
 30
0.0
 11
61.0
 21
-3.416609530622257
 31
0.0
  0
LINE
  5
493
330
18
100
AcDbEntity
  8
1
 62
     1
100
AcDbLine
 10
59.0
 20
-3.416609530622257
 30
0.0
 11
59.46486529169239
 21
-4.534911159097205
 31
0.0
  0
LINE
  5
494
330
18
100
AcDbEntity
  8
1
 62
     1
100
AcDbLine
 10
59.46486529169239
 20
-4.534911159097205
 30
0.0
 11
59.97113247308105
 21
-5.635173491920086
 31
0.0
  0
LINE
  5
495
330
18
100
AcDbEntity
  8
1
 62
     1
100
AcDbLine
 10
59.97113247308105
 20
-5.635173491920061
 30
0.0
 11
59.97113247308105
 21
-7.0
 31
0.0
  0
LINE
  5
496
330
18
100
AcDbEntity
  8
1
 62
     1
100
AcDbLine
 10
58.02886752691897
 20
-5.63517349192007
 30
0.0
 11
58.53513560066799
 21
-4.534908959130628
 31
0.0
  0
LINE
  5
497
330
18
100
AcDbEntity
  8
1
 62
     1
100
AcDbLine
 10
58.53513560066799
 20
-4.534908959130628
 30
0.0
 11
59.0
 21
-3.416609530622257
 31
0.0
  0
LINE
  5
498
330
18
100
AcDbEntity
  8
1
 62
     1
100
AcDbLine
 10
58.02886752691897
 20
-5.635173491920061
 30
0.0
 11
58.02886752691897
 21
-7.0
 31
0.0
  0
LINE
  5
499
330
18
100
AcDbEntity
  8
1
 62
     1
100
AcDbLine
 10
59.0
 20
-5.31795
 30
0.0
 11
58.02886752691897
 21
-7.000000000000005
 31
0.0
  0
LINE
  5
49A
330
18
100
AcDbEntity
  8
1
 62
     1
100
AcDbLine
 10
59.0
 20
-5.31795
 30
0.0
 11
59.0
 21
-5.317551020845925
 31
0.0
  0
LINE
  5
49B
330
18
100
AcDbEntity
  8
1
 62
     1
100
AcDbLine
 10
59.0
 20
-5.317551020845925
 30
0.0
 11
59.0
 21
-5.194135275298414
 31
0.0
  0
LINE
  5
49C
330
18
100
AcDbEntity
  8
1
 62
     1
100
AcDbLine
 10
59.0
 20
-5.194135275298414
 30
0.0
 11
59.0
 21
-3.416609530622257
 31
0.0
  0
LINE
  5
49D
330
18
100
AcDbEntity
  8
1
 62
     1
100
AcDbLine
 10
57.0
 20
-3.416609530622257
 30
0.0
 11
57.46486529169239
 21
-4.534911159097211
 31
0.0
  0
LINE
  5
49E
330
18
100
AcDbEntity
  8
1
 62
     1
100
AcDbLine
 10
57.46486529169239
 20
-4.534911159097211
 30
0.0
 11
57.97113247308106
 21
-5.635173491920105
 31
0.0
  0
LINE
  5
49F
330
18
100
AcDbEntity
  8
1
 62
     1
100
AcDbLine
 10
57.97113247308105
 20
-5.635173491920061
 30
0.0
 11
57.97113247308106
 21
-7.0
 31
0.0
  0
LINE
  5
4A0
330
18
100
AcDbEntity
  8
1
 62
     1
100
AcDbLine
 10
56.02886752691897
 20
-5.635173491920064
 30
0.0
 11
56.535135600668
 21
-4.534908959130628
 31
0.0
  0
LINE
  5
4A1
330
18
100
AcDbEntity
  8
1
 62
     1
100
AcDbLine
 10
56.535135600668
 20
-4.534908959130628
 30
0.0
 11
57.0
 21
-3.416609530622257
 31
0.0
  0
LINE
  5
4A2
330
18
100
AcDbEntity
  8
1
 62
     1
100
AcDbLine
 10
56.02886752691898
 20
-5.635173491920061
 30
0.0
 11
56.02886752691898
 21
-7.0
 31
0.0
  0
LINE
  5
4A3
330
18
100
AcDbEntity
  8
1
 62
     1
100
AcDbLine
 10
57.0
 20
-5.31795
 30
0.0
 11
56.02886752691898
 21
-6.999999999999994
 31
0.0
  0
LINE
  5
4A4
330
18
100
AcDbEntity
  8
1
 62
     1
100
AcDbLine
 10
57.0
 20
-5.31795
 30
0.0
 11
57.0
 21
-5.317551020845925
 31
0.0
  0
LINE
  5
4A5
330
18
100
AcDbEntity
  8
1
 62
     1
100
AcDbLine
 10
57.0
 20
-5.317551020845925
 30
0.0
 11
57.00000000000001
 21
-5.194135275298414
 31
0.0
  0
LINE
  5
4A6
330
18
100
AcDbEntity
  8
1
 62
     1
100
AcDbLine
 10
57.00000000000001
 20
-5.194135275298414
 30
0.0
 11
57.0
 21
-3.416609530622257
 31
0.0
  0
ARC
  5
4A7
330
18
100
AcDbEntity
  8
1
 62
     1
100
AcDbCircle
 10
60.66046751121083
 20
-60.55622429232738
 30
0.0
 40
64.87648888906581
100
AcDbArc
 50
94.11944565684401
 51
94.98902625036413
  0
ARC
  5
4A8
330
18
100
AcDbEntity
  8
1
 62
     1
100
AcDbCircle
 10
147.0924104075825
 20
149.9714371148175
 30
0.0
 40
176.3905396771706
100
AcDbArc
 50
238.5476965860738
 51
238.9072839883546
  0
LINE
  5
4A9
330
18
100
AcDbEntity
  8
1
 62
     1
100
AcDbLine
 10
80.97502488071302
 20
-0.5028856081401074
 30
0.0
 11
81.0
 21
-0.4886176940871314
 31
0.0
  0
LINE
  5
4AA
330
18
100
AcDbEntity
  8
1
 62
     1
100
AcDbLine
 10
79.02497511928699
 20
-0.5028856081401074
 30
0.0
 11
78.99999999999997
 21
-0.4886176940871308
 31
0.0
  0
LINE
  5
4AB
330
18
100
AcDbEntity
  8
1
 62
     1
100
AcDbLine
 10
78.97502488071301
 20
-0.5028856081401074
 30
0.0
 11
78.99999999999997
 21
-0.4886176940871307
 31
0.0
  0
LINE
  5
4AC
330
18
100
AcDbEntity
  8
1
 62
     1
100
AcDbLine
 10
77.02497511928699
 20
-0.5028856081401074
 30
0.0
 11
77.0
 21
-0.4886176940871307
 31
0.0
  0
LINE
  5
4AD
330
18
100
AcDbEntity
  8
1
 62
     1
100
AcDbLine
 10
76.97502488071302
 20
-0.5028856081401074
 30
0.0
 11
77.0
 21
-0.4886176940871307
 31
0.0
  0
LINE
  5
4AE
330
18
100
AcDbEntity
  8
1
 62
     1
100
AcDbLine
 10
75.024975119287
 20
-0.5028856081401074
 30
0.0
 11
75.0
 21
-0.4886176940871315
 31
0.0
  0
LINE
  5
4AF
330
18
100
AcDbEntity
  8
1
 62
     1
100
AcDbLine
 10
74.97502488071302
 20
-0.5028856081401074
 30
0.0
 11
75.0
 21
-0.4886176940871315
 31
0.0
  0
LINE
  5
4B0
330
18
100
AcDbEntity
  8
1
 62
     1
100
AcDbLine
 10
73.02497511928699
 20
-0.5028856081401074
 30
0.0
 11
73.0
 21
-0.4886176940871308
 31
0.0
  0
LINE
  5
4B1
330
18
100
AcDbEntity
  8
1
 62
     1
100
AcDbLine
 10
72.97502488071301
 20
-0.5028856081401074
 30
0.0
 11
73.0
 21
-0.4886176940871308
 31
0.0
  0
LINE
  5
4B2
330
18
100
AcDbEntity
  8
1
 62
     1
100
AcDbLine
 10
71.024975119287
 20
-0.5028856081401074
 30
0.0
 11
71.0
 21
-0.4886176940871314
 31
0.0
  0
LINE
  5
4B3
330
18
100
AcDbEntity
  8
1
 62
     1
100
AcDbLine
 10
70.97502488071301
 20
-0.5028856081401074
 30
0.0
 11
71.0
 21
-0.4886176940871314
 31
0.0
  0
LINE
  5
4B4
330
18
100
AcDbEntity
  8
1
 62
     1
100
AcDbLine
 10
69.02497511928699
 20
-0.5028856081401074
 30
0.0
 11
69.0
 21
-0.4886176940871308
 31
0.0
  0
LINE
  5
4B5
330
18
100
AcDbEntity
  8
1
 62
     1
100
AcDbLine
 10
68.97502488071302
 20
-0.5028856081401074
 30
0.0
 11
69.0
 21
-0.4886176940871307
 31
0.0
  0
LINE
  5
4B6
330
18
100
AcDbEntity
  8
1
 62
     1
100
AcDbLine
 10
67.024975119287
 20
-0.5028856081401074
 30
0.0
 11
67.0
 21
-0.4886176940871313
 31
0.0
  0
LINE
  5
4B7
330
18
100
AcDbEntity
  8
1
 62
     1
100
AcDbLine
 10
66.97502488071301
 20
-0.5028856081401074
 30
0.0
 11
67.0
 21
-0.4886176940871313
 31
0.0
  0
LINE
  5
4B8
330
18
100
AcDbEntity
  8
1
 62
     1
100
AcDbLine
 10
65.02497511928699
 20
-0.5028856081401074
 30
0.0
 11
65.0
 21
-0.4886176940871313
 31
0.0
  0
LINE
  5
4B9
330
18
100
AcDbEntity
  8
1
 62
     1
100
AcDbLine
 10
64.97502488071301
 20
-0.5028856081401074
 30
0.0
 11
65.0
 21
-0.4886176940871313
 31
0.0
  0
LINE
  5
4BA
330
18
100
AcDbEntity
  8
1
 62
     1
100
AcDbLine
 10
63.02497511928699
 20
-0.5028856081401074
 30
0.0
 11
63.0
 21
-0.4886176940871313
 31
0.0
  0
LINE
  5
4BB
330
18
100
AcDbEntity
  8
1
 62
     1
100
AcDbLine
 10
62.97502488071301
 20
-0.5028856081401074
 30
0.0
 11
63.0
 21
-0.4886176940871313
 31
0.0
  0
LINE
  5
4BC
330
18
100
AcDbEntity
  8
1
 62
     1
100
AcDbLine
 10
61.02497511928698
 20
-0.5028856081401074
 30
0.0
 11
60.99999999999999
 21
-0.4886176940871314
 31
0.0
  0
LINE
  5
4BD
330
18
100
AcDbEntity
  8
1
 62
     1
100
AcDbLine
 10
60.97502488071301
 20
-0.5028856081401074
 30
0.0
 11
60.99999999999999
 21
-0.4886176940871314
 31
0.0
  0
LINE
  5
4BE
330
18
100
AcDbEntity
  8
1
 62
     1
100
AcDbLine
 10
59.02497511928699
 20
-0.5028856081401074
 30
0.0
 11
59.0
 21
-0.4886176940871315
 31
0.0
  0
LINE
  5
4BF
330
18
100
AcDbEntity
  8
1
 62
     1
100
AcDbLine
 10
58.975024880713
 20
-0.5028856081401074
 30
0.0
 11
59.0
 21
-0.4886176940871315
 31
0.0
  0
LINE
  5
4C0
330
18
100
AcDbEntity
  8
1
 62
     1
100
AcDbLine
 10
57.02497511928699
 20
-0.5028856081401074
 30
0.0
 11
57.0
 21
-0.4886176940871308
 31
0.0
  0
LINE
  5
4C1
330
18
100
AcDbEntity
  8
1
 62
     1
100
AcDbLine
 10
56.97502488071301
 20
-0.5028856081401074
 30
0.0
 11
57.0
 21
-0.4886176940871308
 31
0.0
  0
LINE
  5
4C2
330
18
100
AcDbEntity
  8
1
 62
     1
100
AcDbLine
 10
55.05384308505989
 20
-0.5028856081401074
 30
0.0
 11
55.01850454
 21
-0.4832893995896012
 31
0.0
  0
LINE
  5
4C3
330
18
100
AcDbEntity
  8
1
 62
     1
100
AcDbLine
 10
62.02886752691896
 20
-1.077590679886238
 30
0.0
 11
61.97113247308105
 21
-1.077590679886238
 31
0.0
  0
LINE
  5
4C4
330
18
100
AcDbEntity
  8
1
 62
     1
100
AcDbLine
 10
80.69397014044098
 20
5.808984814557946
 30
0.0
 11
79.41019541245568
 21
5.983105085630369
 31
0.0
  0
LINE
  5
4C5
330
18
100
AcDbEntity
  8
1
 62
     1
100
AcDbLine
 10
79.41019541245569
 20
6.028428964143884
 30
0.0
 11
80.69397014044098
 21
5.848009018249209
 31
0.0
  0
LINE
  5
4C6
330
18
100
AcDbEntity
  8
1
 62
     1
100
AcDbLine
 10
78.51735986128185
 20
6.104037165908269
 30
0.0
 11
77.56029632721621
 21
6.233529878187653
 31
0.0
  0
LINE
  5
4C7
330
18
100
AcDbEntity
  8
1
 62
     1
100
AcDbLine
 10
77.5602963272162
 20
6.288411253554822
 30
0.0
 11
78.51735986121211
 21
6.153906852387571
 31
0.0
  0
LINE
  5
4C8
330
18
100
AcDbEntity
  8
1
 62
     1
100
AcDbLine
 10
76.34074958218837
 20
6.398343484971438
 30
0.0
 11
75.71039724197671
 21
6.483451692595223
 31
0.0
  0
LINE
  5
4C9
330
18
100
AcDbEntity
  8
1
 62
     1
100
AcDbLine
 10
75.71039724197672
 20
6.548393542965755
 30
0.0
 11
76.34074958198323
 21
6.459804686525936
 31
0.0
  0
LINE
  5
4CA
330
18
100
AcDbEntity
  8
1
 62
     1
100
AcDbLine
 10
75.71039724197672
 20
6.548393542965755
 30
0.0
 11
75.71039724197672
 21
6.548378488163772
 31
0.0
  0
LINE
  5
4CB
330
18
100
AcDbEntity
  8
1
 62
     1
100
AcDbLine
 10
75.71039724197672
 20
6.548378488163772
 30
0.0
 11
75.71039724197672
 21
6.543981691034544
 31
0.0
  0
LINE
  5
4CC
330
18
100
AcDbEntity
  8
1
 62
     1
100
AcDbLine
 10
75.71039724197672
 20
6.543981691034544
 30
0.0
 11
75.71039724197671
 21
6.48345169259522
 31
0.0
  0
LINE
  5
4CD
330
18
100
AcDbEntity
  8
1
 62
     1
100
AcDbLine
 10
74.16413930275436
 20
6.692009510647289
 30
0.0
 11
73.86049815673721
 21
6.73293067346985
 31
0.0
  0
LINE
  5
4CE
330
18
100
AcDbEntity
  8
1
 62
     1
100
AcDbLine
 10
73.86049815673721
 20
6.808375832376695
 30
0.0
 11
74.16413930275436
 21
6.765702520664298
 31
0.0
  0
ARC
  5
4CF
330
18
100
AcDbEntity
  8
1
 62
     1
100
AcDbCircle
 10
77.5562038154115
 20
-34.2822312430392
 30
0.0
 40
38.51174157992067
100
AcDbArc
 50
84.86964357019488
 51
85.32661332908437
  0
LINE
  5
4D0
330
18
100
AcDbEntity
  8
1
 62
     1
100
AcDbLine
 10
80.69397014044098
 20
4.101473937313602
 30
0.0
 11
80.693970140441
 21
-0.674466382971958
 31
0.0
  0
LINE
  5
4D1
330
18
100
AcDbEntity
  8
1
 62
     1
100
AcDbLine
 10
80.97502488071302
 20
-0.5028856081401063
 30
0.0
 11
80.693970140441
 21
-0.674466382971942
 31
0.0
  0
ARC
  5
4D2
330
18
100
AcDbEntity
  8
1
 62
     1
100
AcDbCircle
 10
82.52152105175236
 20
-35.1427248155065
 30
0.0
 40
39.37573125719653
100
AcDbArc
 50
94.53202378470601
 51
95.13103512835227
  0
LINE
  5
4D3
330
18
100
AcDbEntity
  8
1
 62
     1
100
AcDbLine
 10
79.02497511928699
 20
-0.5028856081401064
 30
0.0
 11
79.41019541245569
 21
-0.7378409788246663
 31
0.0
  0
ARC
  5
4D4
330
18
100
AcDbEntity
  8
1
 62
     1
100
AcDbCircle
 10
74.99157560106067
 20
-40.89380764753558
 30
0.0
 40
45.1473554035635
100
AcDbArc
 50
84.90626201640066
 51
85.52092405605288
  0
LINE
  5
4D5
330
18
100
AcDbEntity
  8
1
 62
     1
100
AcDbLine
 10
78.51735986121211
 20
4.11567075272526
 30
0.0
 11
78.51735986121213
 21
-0.7818566563507016
 31
0.0
  0
LINE
  5
4D6
330
18
100
AcDbEntity
  8
1
 62
     1
100
AcDbLine
 10
78.97502488071302
 20
-0.5028856081401063
 30
0.0
 11
78.5173598612121
 21
-0.7818566562398044
 31
0.0
  0
LINE
  5
4D7
330
18
100
AcDbEntity
  8
1
 62
     1
100
AcDbLine
 10
79.0
 20
-0.4886176940871308
 30
0.0
 11
79.00000000000001
 21
4.075214291023377
 31
0.0
  0
LINE
  5
4D8
330
18
100
AcDbEntity
  8
1
 62
     1
100
AcDbLine
 10
72.02886752691899
 20
6.916559717563516
 30
0.0
 11
71.97113247308103
 21
6.916559717563516
 31
0.0
  0
LINE
  5
4D9
330
18
100
AcDbEntity
  8
1
 62
     1
100
AcDbLine
 10
70.02886752691897
 20
6.916559717563516
 30
0.0
 11
69.97113247308104
 21
6.916559717563516
 31
0.0
  0
LINE
  5
4DA
330
18
100
AcDbEntity
  8
1
 62
     1
100
AcDbLine
 10
68.02886752691896
 20
6.916559717563516
 30
0.0
 11
67.97113247308101
 21
6.916559717563516
 31
0.0
  0
LINE
  5
4DB
330
18
100
AcDbEntity
  8
1
 62
     1
100
AcDbLine
 10
67.97113247308103
 20
7.0
 30
0.0
 11
68.02886752691896
 21
7.0
 31
0.0
  0
LINE
  5
4DC
330
18
100
AcDbEntity
  8
1
 62
     1
100
AcDbLine
 10
66.02886752691896
 20
6.916559717563516
 30
0.0
 11
65.97113247308103
 21
6.916559717563516
 31
0.0
  0
LINE
  5
4DD
330
18
100
AcDbEntity
  8
1
 62
     1
100
AcDbLine
 10
64.02886752691897
 20
6.916559717563516
 30
0.0
 11
63.97113247308104
 21
6.916559717563516
 31
0.0
  0
LINE
  5
4DE
330
18
100
AcDbEntity
  8
1
 62
     1
100
AcDbLine
 10
62.02886752691896
 20
6.916559717563517
 30
0.0
 11
61.97113247308106
 21
6.916559717563517
 31
0.0
  0
LINE
  5
4DF
330
18
100
AcDbEntity
  8
1
 62
     1
100
AcDbLine
 10
61.97113247308106
 20
7.0
 30
0.0
 11
62.02886752691897
 21
7.0
 31
0.0
  0
LINE
  5
4E0
330
18
100
AcDbEntity
  8
1
 62
     1
100
AcDbLine
 10
60.02886752691897
 20
6.916559717563517
 30
0.0
 11
59.97113247308103
 21
6.916559717563517
 31
0.0
  0
LINE
  5
4E1
330
18
100
AcDbEntity
  8
1
 62
     1
100
AcDbLine
 10
58.02886752691898
 20
6.916559717563517
 30
0.0
 11
57.97113247308106
 21
6.916559717563517
 31
0.0
  0
LINE
  5
4E2
330
18
100
AcDbEntity
  8
1
 62
     1
100
AcDbLine
 10
57.97113247308106
 20
7.0
 30
0.0
 11
58.02886752691897
 21
7.0
 31
0.0
  0
LINE
  5
4E3
330
18
100
AcDbEntity
  8
1
 62
     1
100
AcDbLine
 10
56.02886752691899
 20
6.916559717563517
 30
0.0
 11
56.0
 21
6.916559717563517
 31
0.0
  0
LINE
  5
4E4
330
18
100
AcDbEntity
  8
1
 62
     1
100
AcDbLine
 10
56.0
 20
7.0
 30
0.0
 11
55.99999999999999
 21
6.999980741964308
 31
0.0
  0
LINE
  5
4E5
330
18
100
AcDbEntity
  8
1
 62
     1
100
AcDbLine
 10
55.99999999999999
 20
6.999980741964308
 30
0.0
 11
56.0
 21
6.994349160360637
 31
0.0
  0
LINE
  5
4E6
330
18
100
AcDbEntity
  8
1
 62
     1
100
AcDbLine
 10
56.0
 20
6.994349160360637
 30
0.0
 11
55.99999999999999
 21
6.916559717563517
 31
0.0
  0
ARC
  5
4E7
330
18
100
AcDbEntity
  8
1
 62
     1
100
AcDbCircle
 10
65.32679151734918
 20
-61.0995478660575
 30
0.0
 40
65.42139935887519
100
AcDbArc
 50
85.02516570539801
 51
85.87839040257161
  0
ARC
  5
4E8
330
18
100
AcDbEntity
  8
1
 62
     1
100
AcDbCircle
 10
-21.06356221783101
 20
149.9715392421571
 30
0.0
 40
176.3906371183407
100
AcDbArc
 50
301.0927042588909
 51
301.452291584365
  0
LINE
  5
4E9
330
18
100
AcDbEntity
  8
1
 62
     1
100
AcDbLine
 10
71.0
 20
-0.4886176940871316
 30
0.0
 11
71.00000000000001
 21
4.075214291023377
 31
0.0
  0
ARC
  5
4EA
330
18
100
AcDbEntity
  8
1
 62
     1
100
AcDbCircle
 10
63.32679151733538
 20
-61.09954786623231
 30
0.0
 40
65.42139935905054
100
AcDbArc
 50
85.02516570539926
 51
85.87839040257056
  0
LINE
  5
4EB
330
18
100
AcDbEntity
  8
1
 62
     1
100
AcDbLine
 10
68.02886752691896
 20
4.152688251718573
 30
0.0
 11
68.02886752691894
 21
-1.077590679886246
 31
0.0
  0
ARC
  5
4EC
330
18
100
AcDbEntity
  8
1
 62
     1
100
AcDbCircle
 10
-23.06356221781046
 20
149.9715392421186
 30
0.0
 40
176.3906371182971
100
AcDbArc
 50
301.0927042588917
 51
301.4522915843659
  0
LINE
  5
4ED
330
18
100
AcDbEntity
  8
1
 62
     1
100
AcDbLine
 10
69.00000000000001
 20
-0.4886176940871308
 30
0.0
 11
69.0
 21
4.075214291023377
 31
0.0
  0
ARC
  5
4EE
330
18
100
AcDbEntity
  8
1
 62
     1
100
AcDbCircle
 10
71.9758993061517
 20
-52.31265256207691
 30
0.0
 40
56.60702118552106
100
AcDbArc
 50
94.05687187211741
 51
95.04295447836984
  0
ARC
  5
4EF
330
18
100
AcDbEntity
  8
1
 62
     1
100
AcDbCircle
 10
159.0635622186444
 20
149.9715392434939
 30
0.0
 40
176.3906371199055
100
AcDbArc
 50
238.5477084156362
 51
238.9072957411072
  0
LINE
  5
4F0
330
18
100
AcDbEntity
  8
1
 62
     1
100
AcDbLine
 10
67.97113247308103
 20
4.152688251718572
 30
0.0
 11
67.97113247308101
 21
-1.077590679886246
 31
0.0
  0
ARC
  5
4F1
330
18
100
AcDbEntity
  8
1
 62
     1
100
AcDbCircle
 10
67.32679151735309
 20
-61.09954786600392
 30
0.0
 40
65.4213993588215
100
AcDbArc
 50
85.02516570539733
 51
85.87839040257161
  0
LINE
  5
4F2
330
18
100
AcDbEntity
  8
1
 62
     1
100
AcDbLine
 10
72.02886752691897
 20
4.152688251718572
 30
0.0
 11
72.02886752691896
 21
-1.077590679886246
 31
0.0
  0
ARC
  5
4F3
330
18
100
AcDbEntity
  8
1
 62
     1
100
AcDbCircle
 10
-19.06356221732401
 20
149.9715392413222
 30
0.0
 40
176.390637117364
100
AcDbArc
 50
301.0927042588899
 51
301.4522915843661
  0
LINE
  5
4F4
330
18
100
AcDbEntity
  8
1
 62
     1
100
AcDbLine
 10
72.99999999999999
 20
-0.4886176940871308
 30
0.0
 11
73.0
 21
4.075214291023377
 31
0.0
  0
ARC
  5
4F5
330
18
100
AcDbEntity
  8
1
 62
     1
100
AcDbCircle
 10
77.68172827101449
 20
-48.78306789409568
 30
0.0
 40
53.06523610621265
100
AcDbArc
 50
94.1294361652577
 51
95.06155511526356
  0
LINE
  5
4F6
330
18
100
AcDbEntity
  8
1
 62
     1
100
AcDbLine
 10
73.02497511928699
 20
-0.5028856081401063
 30
0.0
 11
73.86049815673721
 21
-1.010755173689388
 31
0.0
  0
ARC
  5
4F7
330
18
100
AcDbEntity
  8
1
 62
     1
100
AcDbCircle
 10
80.9017578070159
 20
-39.5596868178559
 30
0.0
 40
43.80900761544986
100
AcDbArc
 50
94.37438691807971
 51
95.10970055060676
  0
LINE
  5
4F8
330
18
100
AcDbEntity
  8
1
 62
     1
100
AcDbLine
 10
77.024975119287
 20
-0.5028856081401063
 30
0.0
 11
77.56029632721621
 21
-0.8289881492378129
 31
0.0
  0
LINE
  5
4F9
330
18
100
AcDbEntity
  8
1
 62
     1
100
AcDbLine
 10
77.5602963272162
 20
4.12175079417876
 30
0.0
 11
77.56029632721621
 21
-0.8289881492378038
 31
0.0
  0
ARC
  5
4FA
330
18
100
AcDbEntity
  8
1
 62
     1
100
AcDbCircle
 10
69.80365612407009
 20
-55.21669539669032
 30
0.0
 40
59.51931247541828
100
AcDbArc
 50
84.99139416389761
 51
85.79865418640965
  0
LINE
  5
4FB
330
18
100
AcDbEntity
  8
1
 62
     1
100
AcDbLine
 10
74.97502488071302
 20
-0.5028856081401063
 30
0.0
 11
74.16413930275436
 21
-0.9958610884704183
 31
0.0
  0
LINE
  5
4FC
330
18
100
AcDbEntity
  8
1
 62
     1
100
AcDbLine
 10
75.0
 20
-0.4886176940871316
 30
0.0
 11
75.0
 21
4.075214291023377
 31
0.0
  0
ARC
  5
4FD
330
18
100
AcDbEntity
  8
1
 62
     1
100
AcDbCircle
 10
75.97589930614909
 20
-52.31265256204377
 30
0.0
 40
56.60702118548784
100
AcDbArc
 50
94.05687187211717
 51
95.04295447837016
  0
ARC
  5
4FE
330
18
100
AcDbEntity
  8
1
 62
     1
100
AcDbCircle
 10
163.0635622182247
 20
149.9715392428039
 30
0.0
 40
176.3906371190979
100
AcDbArc
 50
238.5477084156355
 51
238.9072957411081
  0
LINE
  5
4FF
330
18
100
AcDbEntity
  8
1
 62
     1
100
AcDbLine
 10
71.97113247308103
 20
4.152688251718571
 30
0.0
 11
71.97113247308103
 21
-1.077590679886246
 31
0.0
  0
ARC
  5
500
330
18
100
AcDbEntity
  8
1
 62
     1
100
AcDbCircle
 10
79.28860517102045
 20
-44.10852236077793
 30
0.0
 40
48.37423094982665
100
AcDbArc
 50
94.2419957374211
 51
95.08622210855735
  0
LINE
  5
501
330
18
100
AcDbEntity
  8
1
 62
     1
100
AcDbLine
 10
75.02497511928698
 20
-0.5028856081401063
 30
0.0
 11
75.71039724197672
 21
-0.9199522505759665
 31
0.0
  0
ARC
  5
502
330
18
100
AcDbEntity
  8
1
 62
     1
100
AcDbCircle
 10
72.40776765550389
 20
-47.86900458135936
 30
0.0
 40
52.14689422623781
100
AcDbArc
 50
84.94778729070211
 51
85.67457668152782
  0
LINE
  5
503
330
18
100
AcDbEntity
  8
1
 62
     1
100
AcDbLine
 10
76.97502488071302
 20
-0.5028856081401063
 30
0.0
 11
76.34074958198323
 21
-0.8889753957986595
 31
0.0
  0
LINE
  5
504
330
18
100
AcDbEntity
  8
1
 62
     1
100
AcDbLine
 10
77.00000000000001
 20
-0.4886176940871308
 30
0.0
 11
77.0
 21
4.075214291023377
 31
0.0
  0
ARC
  5
505
330
18
100
AcDbEntity
  8
1
 62
     1
100
AcDbCircle
 10
73.97589930614716
 20
-52.31265256202034
 30
0.0
 40
56.60702118546432
100
AcDbArc
 50
94.0568718721169
 51
95.0429544783703
  0
ARC
  5
506
330
18
100
AcDbEntity
  8
1
 62
     1
100
AcDbCircle
 10
161.0635622187543
 20
149.9715392436715
 30
0.0
 40
176.3906371201143
100
AcDbArc
 50
238.5477084156358
 51
238.9072957411063
  0
ARC
  5
507
330
18
100
AcDbEntity
  8
1
 62
     1
100
AcDbCircle
 10
69.97589930614977
 20
-52.31265256205237
 30
0.0
 40
56.60702118549646
100
AcDbArc
 50
94.05687187211721
 51
95.04295447837008
  0
ARC
  5
508
330
18
100
AcDbEntity
  8
1
 62
     1
100
AcDbCircle
 10
157.0635622181731
 20
149.9715392427124
 30
0.0
 40
176.3906371189929
100
AcDbArc
 50
238.5477084156343
 51
238.9072957411071
  0
LINE
  5
509
330
18
100
AcDbEntity
  8
1
 62
     1
100
AcDbLine
 10
65.97113247308104
 20
4.152688251718572
 30
0.0
 11
65.97113247308103
 21
-1.077590679886246
 31
0.0
  0
ARC
  5
50A
330
18
100
AcDbEntity
  8
1
 62
     1
100
AcDbCircle
 10
59.3267915173387
 20
-61.0995478661923
 30
0.0
 40
65.42139935901041
100
AcDbArc
 50
85.02516570539912
 51
85.87839040257091
  0
LINE
  5
50B
330
18
100
AcDbEntity
  8
1
 62
     1
100
AcDbLine
 10
64.02886752691896
 20
4.152688251718572
 30
0.0
 11
64.02886752691894
 21
-1.077590679886246
 31
0.0
  0
ARC
  5
50C
330
18
100
AcDbEntity
  8
1
 62
     1
100
AcDbCircle
 10
-27.06356221943345
 20
149.9715392447915
 30
0.0
 40
176.3906371214242
100
AcDbArc
 50
301.0927042588948
 51
301.4522915843626
  0
LINE
  5
50D
330
18
100
AcDbEntity
  8
1
 62
     1
100
AcDbLine
 10
65.0
 20
-0.4886176940871316
 30
0.0
 11
65.0
 21
4.075214291023377
 31
0.0
  0
ARC
  5
50E
330
18
100
AcDbEntity
  8
1
 62
     1
100
AcDbCircle
 10
67.97589930614778
 20
-52.31265256202934
 30
0.0
 40
56.60702118547334
100
AcDbArc
 50
94.05687187211687
 51
95.04295447837013
  0
ARC
  5
50F
330
18
100
AcDbEntity
  8
1
 62
     1
100
AcDbCircle
 10
155.0635622188421
 20
149.9715392438186
 30
0.0
 40
176.3906371202856
100
AcDbArc
 50
238.5477084156364
 51
238.9072957411066
  0
LINE
  5
510
330
18
100
AcDbEntity
  8
1
 62
     1
100
AcDbLine
 10
63.97113247308103
 20
4.152688251718572
 30
0.0
 11
63.97113247308102
 21
-1.077590679886246
 31
0.0
  0
ARC
  5
511
330
18
100
AcDbEntity
  8
1
 62
     1
100
AcDbCircle
 10
57.32679151733694
 20
-61.09954786621352
 30
0.0
 40
65.42139935903171
100
AcDbArc
 50
85.0251657053992
 51
85.87839040257072
  0
ARC
  5
512
330
18
100
AcDbEntity
  8
1
 62
     1
100
AcDbCircle
 10
-29.06356221755188
 20
149.9715392416917
 30
0.0
 40
176.390637117798
100
AcDbArc
 50
301.0927042588913
 51
301.4522915843665
  0
LINE
  5
513
330
18
100
AcDbEntity
  8
1
 62
     1
100
AcDbLine
 10
63.0
 20
-0.4886176940871316
 30
0.0
 11
63.00000000000001
 21
4.075214291023377
 31
0.0
  0
ARC
  5
514
330
18
100
AcDbEntity
  8
1
 62
     1
100
AcDbCircle
 10
61.32679151733538
 20
-61.09954786623231
 30
0.0
 40
65.42139935905054
100
AcDbArc
 50
85.02516570539926
 51
85.87839040257056
  0
LINE
  5
515
330
18
100
AcDbEntity
  8
1
 62
     1
100
AcDbLine
 10
66.02886752691897
 20
4.152688251718572
 30
0.0
 11
66.02886752691897
 21
-1.077590679886246
 31
0.0
  0
ARC
  5
516
330
18
100
AcDbEntity
  8
1
 62
     1
100
AcDbCircle
 10
-25.06356221819324
 20
149.9715392427476
 30
0.0
 40
176.3906371190334
100
AcDbArc
 50
301.0927042588926
 51
301.4522915843653
  0
LINE
  5
517
330
18
100
AcDbEntity
  8
1
 62
     1
100
AcDbLine
 10
67.0
 20
-0.4886176940871316
 30
0.0
 11
67.0
 21
4.075214291023377
 31
0.0
  0
ARC
  5
518
330
18
100
AcDbEntity
  8
1
 62
     1
100
AcDbCircle
 10
308.9288941770303
 20
-145.7296543525934
 30
0.0
 40
295.4214880395635
100
AcDbArc
 50
148.8884165807259
 51
149.2454261229935
  0
LINE
  5
519
330
18
100
AcDbEntity
  8
1
 62
     1
100
AcDbLine
 10
55.01850454
 20
5.3
 30
0.0
 11
56.0
 21
7.0
 31
0.0
  0
ARC
  5
51A
330
18
100
AcDbEntity
  8
1
 62
     1
100
AcDbCircle
 10
51.32679151733988
 20
-61.09954786617568
 30
0.0
 40
65.42139935899374
100
AcDbArc
 50
85.02516570539885
 51
85.8783904025709
  0
LINE
  5
51B
330
18
100
AcDbEntity
  8
1
 62
     1
100
AcDbLine
 10
56.02886752691898
 20
4.152688251718573
 30
0.0
 11
56.02886752691898
 21
-1.077590679886246
 31
0.0
  0
ARC
  5
51C
330
18
100
AcDbEntity
  8
1
 62
     1
100
AcDbCircle
 10
-35.06356221849234
 20
149.9715392432379
 30
0.0
 40
176.3906371196078
100
AcDbArc
 50
301.0927042588935
 51
301.452291584365
  0
LINE
  5
51D
330
18
100
AcDbEntity
  8
1
 62
     1
100
AcDbLine
 10
57.00000000000001
 20
-0.4886176940871308
 30
0.0
 11
57.0
 21
4.075214291023377
 31
0.0
  0
ARC
  5
51E
330
18
100
AcDbEntity
  8
1
 62
     1
100
AcDbCircle
 10
61.97589930614713
 20
-52.3126525620204
 30
0.0
 40
56.60702118546438
100
AcDbArc
 50
94.05687187211683
 51
95.04295447837026
  0
ARC
  5
51F
330
18
100
AcDbEntity
  8
1
 62
     1
100
AcDbCircle
 10
149.0635622182533
 20
149.9715392428506
 30
0.0
 40
176.3906371191527
100
AcDbArc
 50
238.5477084156355
 51
238.907295741108
  0
LINE
  5
520
330
18
100
AcDbEntity
  8
1
 62
     1
100
AcDbLine
 10
57.97113247308105
 20
4.152688251718573
 30
0.0
 11
57.97113247308105
 21
-1.077590679886246
 31
0.0
  0
ARC
  5
521
330
18
100
AcDbEntity
  8
1
 62
     1
100
AcDbCircle
 10
53.32679151735343
 20
-61.09954786600203
 30
0.0
 40
65.42139935881957
100
AcDbArc
 50
85.0251657053975
 51
85.87839040257181
  0
LINE
  5
522
330
18
100
AcDbEntity
  8
1
 62
     1
100
AcDbLine
 10
58.02886752691897
 20
4.152688251718573
 30
0.0
 11
58.02886752691896
 21
-1.077590679886246
 31
0.0
  0
ARC
  5
523
330
18
100
AcDbEntity
  8
1
 62
     1
100
AcDbCircle
 10
-33.06356221809605
 20
149.9715392425871
 30
0.0
 40
176.3906371188458
100
AcDbArc
 50
301.0927042588925
 51
301.4522915843655
  0
LINE
  5
524
330
18
100
AcDbEntity
  8
1
 62
     1
100
AcDbLine
 10
58.99999999999999
 20
-0.4886176940871316
 30
0.0
 11
59.00000000000001
 21
4.075214291023377
 31
0.0
  0
ARC
  5
525
330
18
100
AcDbEntity
  8
1
 62
     1
100
AcDbCircle
 10
63.97589930614608
 20
-52.31265256200726
 30
0.0
 40
56.6070211854512
100
AcDbArc
 50
94.05687187211673
 51
95.04295447837036
  0
ARC
  5
526
330
18
100
AcDbEntity
  8
1
 62
     1
100
AcDbCircle
 10
151.0635622180959
 20
149.9715392425903
 30
0.0
 40
176.3906371188484
100
AcDbArc
 50
238.547708415635
 51
238.9072957411081
  0
LINE
  5
527
330
18
100
AcDbEntity
  8
1
 62
     1
100
AcDbLine
 10
59.97113247308105
 20
4.152688251718573
 30
0.0
 11
59.97113247308104
 21
-1.077590679886246
 31
0.0
  0
ARC
  5
528
330
18
100
AcDbEntity
  8
1
 62
     1
100
AcDbCircle
 10
55.3267915173375
 20
-61.09954786620622
 30
0.0
 40
65.42139935902438
100
AcDbArc
 50
85.02516570539912
 51
85.87839040257074
  0
LINE
  5
529
330
18
100
AcDbEntity
  8
1
 62
     1
100
AcDbLine
 10
60.02886752691897
 20
4.152688251718573
 30
0.0
 11
60.02886752691897
 21
-1.077590679886246
 31
0.0
  0
ARC
  5
52A
330
18
100
AcDbEntity
  8
1
 62
     1
100
AcDbCircle
 10
-31.06356221818169
 20
149.9715392427317
 30
0.0
 40
176.3906371190138
100
AcDbArc
 50
301.092704258892
 51
301.4522915843648
  0
LINE
  5
52B
330
18
100
AcDbEntity
  8
1
 62
     1
100
AcDbLine
 10
61.0
 20
-0.4886176940871316
 30
0.0
 11
61.0
 21
4.075214291023377
 31
0.0
  0
ARC
  5
52C
330
18
100
AcDbEntity
  8
1
 62
     1
100
AcDbCircle
 10
65.97589930615007
 20
-52.31265256205776
 30
0.0
 40
56.60702118550186
100
AcDbArc
 50
94.05687187211714
 51
95.04295447836992
  0
ARC
  5
52D
330
18
100
AcDbEntity
  8
1
 62
     1
100
AcDbCircle
 10
153.0635622184079
 20
149.9715392431021
 30
0.0
 40
176.3906371194478
100
AcDbArc
 50
238.5477084156353
 51
238.9072957411072
  0
LINE
  5
52E
330
18
100
AcDbEntity
  8
1
 62
     1
100
AcDbLine
 10
61.97113247308105
 20
4.152688251718573
 30
0.0
 11
61.97113247308105
 21
-1.077590679886246
 31
0.0
  0
LINE
  5
52F
330
18
100
AcDbEntity
  8
1
 62
     1
100
AcDbLine
 10
60.02886752691897
 20
4.152688251718572
 30
0.0
 11
59.97113247308105
 21
4.152688251718572
 31
0.0
  0
LINE
  5
530
330
18
100
AcDbEntity
  8
1
 62
     1
100
AcDbLine
 10
72.02886752691899
 20
4.152688251718572
 30
0.0
 11
71.97113247308101
 21
4.152688251718574
 31
0.0
  0
LINE
  5
531
330
18
100
AcDbEntity
  8
1
 62
     1
100
AcDbLine
 10
80.97502488071301
 20
5.33757051009494
 30
0.0
 11
81.0
 21
5.295455122227454
 31
0.0
  0
LINE
  5
532
330
18
100
AcDbEntity
  8
1
 62
     1
100
AcDbLine
 10
79.02497511928699
 20
5.33757051009494
 30
0.0
 11
78.99999999999997
 21
5.295455122227453
 31
0.0
  0
LINE
  5
533
330
18
100
AcDbEntity
  8
1
 62
     1
100
AcDbLine
 10
78.97502488071302
 20
5.33757051009494
 30
0.0
 11
78.99999999999997
 21
5.295455122227452
 31
0.0
  0
LINE
  5
534
330
18
100
AcDbEntity
  8
1
 62
     1
100
AcDbLine
 10
77.02497511928698
 20
5.33757051009494
 30
0.0
 11
77.0
 21
5.295455122227454
 31
0.0
  0
LINE
  5
535
330
18
100
AcDbEntity
  8
1
 62
     1
100
AcDbLine
 10
76.97502488071302
 20
5.337570510094941
 30
0.0
 11
77.0
 21
5.295455122227454
 31
0.0
  0
LINE
  5
536
330
18
100
AcDbEntity
  8
1
 62
     1
100
AcDbLine
 10
75.02497511928698
 20
5.33757051009494
 30
0.0
 11
75.0
 21
5.295455122227454
 31
0.0
  0
LINE
  5
537
330
18
100
AcDbEntity
  8
1
 62
     1
100
AcDbLine
 10
74.97502488071302
 20
5.33757051009494
 30
0.0
 11
75.0
 21
5.295455122227454
 31
0.0
  0
LINE
  5
538
330
18
100
AcDbEntity
  8
1
 62
     1
100
AcDbLine
 10
73.02497511928698
 20
5.33757051009494
 30
0.0
 11
73.00000000000001
 21
5.295455122227454
 31
0.0
  0
LINE
  5
539
330
18
100
AcDbEntity
  8
1
 62
     1
100
AcDbLine
 10
72.975024880713
 20
5.33757051009494
 30
0.0
 11
73.00000000000001
 21
5.295455122227454
 31
0.0
  0
LINE
  5
53A
330
18
100
AcDbEntity
  8
1
 62
     1
100
AcDbLine
 10
71.024975119287
 20
5.33757051009494
 30
0.0
 11
70.99999999999999
 21
5.295455122227454
 31
0.0
  0
LINE
  5
53B
330
18
100
AcDbEntity
  8
1
 62
     1
100
AcDbLine
 10
70.97502488071301
 20
5.33757051009494
 30
0.0
 11
70.99999999999999
 21
5.295455122227454
 31
0.0
  0
LINE
  5
53C
330
18
100
AcDbEntity
  8
1
 62
     1
100
AcDbLine
 10
69.02497511928699
 20
5.33757051009494
 30
0.0
 11
69.0
 21
5.295455122227454
 31
0.0
  0
LINE
  5
53D
330
18
100
AcDbEntity
  8
1
 62
     1
100
AcDbLine
 10
68.97502488071301
 20
5.337570510094941
 30
0.0
 11
69.0
 21
5.295455122227453
 31
0.0
  0
LINE
  5
53E
330
18
100
AcDbEntity
  8
1
 62
     1
100
AcDbLine
 10
67.024975119287
 20
5.33757051009494
 30
0.0
 11
67.0
 21
5.295455122227454
 31
0.0
  0
LINE
  5
53F
330
18
100
AcDbEntity
  8
1
 62
     1
100
AcDbLine
 10
66.97502488071301
 20
5.33757051009494
 30
0.0
 11
67.0
 21
5.295455122227454
 31
0.0
  0
LINE
  5
540
330
18
100
AcDbEntity
  8
1
 62
     1
100
AcDbLine
 10
65.02497511928698
 20
5.33757051009494
 30
0.0
 11
65.0
 21
5.295455122227454
 31
0.0
  0
LINE
  5
541
330
18
100
AcDbEntity
  8
1
 62
     1
100
AcDbLine
 10
64.97502488071302
 20
5.33757051009494
 30
0.0
 11
65.0
 21
5.295455122227454
 31
0.0
  0
LINE
  5
542
330
18
100
AcDbEntity
  8
1
 62
     1
100
AcDbLine
 10
63.02497511928699
 20
5.33757051009494
 30
0.0
 11
63.0
 21
5.295455122227454
 31
0.0
  0
LINE
  5
543
330
18
100
AcDbEntity
  8
1
 62
     1
100
AcDbLine
 10
62.97502488071301
 20
5.337570510094941
 30
0.0
 11
63.0
 21
5.295455122227454
 31
0.0
  0
LINE
  5
544
330
18
100
AcDbEntity
  8
1
 62
     1
100
AcDbLine
 10
61.02497511928699
 20
5.33757051009494
 30
0.0
 11
61.00000000000001
 21
5.295455122227454
 31
0.0
  0
LINE
  5
545
330
18
100
AcDbEntity
  8
1
 62
     1
100
AcDbLine
 10
60.97502488071301
 20
5.337570510094941
 30
0.0
 11
61.00000000000001
 21
5.295455122227454
 31
0.0
  0
LINE
  5
546
330
18
100
AcDbEntity
  8
1
 62
     1
100
AcDbLine
 10
59.02497511928698
 20
5.33757051009494
 30
0.0
 11
59.0
 21
5.295455122227454
 31
0.0
  0
LINE
  5
547
330
18
100
AcDbEntity
  8
1
 62
     1
100
AcDbLine
 10
58.97502488071301
 20
5.33757051009494
 30
0.0
 11
59.0
 21
5.295455122227454
 31
0.0
  0
LINE
  5
548
330
18
100
AcDbEntity
  8
1
 62
     1
100
AcDbLine
 10
57.02497511928698
 20
5.337570510094941
 30
0.0
 11
57.0
 21
5.295455122227454
 31
0.0
  0
LINE
  5
549
330
18
100
AcDbEntity
  8
1
 62
     1
100
AcDbLine
 10
56.97502488071301
 20
5.33757051009494
 30
0.0
 11
57.0
 21
5.295455122227454
 31
0.0
  0
LINE
  5
54A
330
18
100
AcDbEntity
  8
1
 62
     1
100
AcDbLine
 10
55.0538430850599
 20
5.33757051009494
 30
0.0
 11
55.01850454
 21
5.277919226006051
 31
0.0
  0
LINE
  5
54B
330
18
100
AcDbEntity
  8
1
 62
     1
100
AcDbLine
 10
80.69397014044098
 20
5.848009018249209
 30
0.0
 11
80.69397014044098
 21
5.847999894533545
 31
0.0
  0
LINE
  5
54C
330
18
100
AcDbEntity
  8
1
 62
     1
100
AcDbLine
 10
80.69397014044098
 20
5.847999894533545
 30
0.0
 11
80.69397014044098
 21
5.845341729427739
 31
0.0
  0
LINE
  5
54D
330
18
100
AcDbEntity
  8
1
 62
     1
100
AcDbLine
 10
80.69397014044098
 20
5.845341729427739
 30
0.0
 11
80.69397014044098
 21
5.808984814557944
 31
0.0
  0
LINE
  5
54E
330
18
100
AcDbEntity
  8
1
 62
     1
100
AcDbLine
 10
80.97502488071301
 20
5.337570510094938
 30
0.0
 11
80.69397014044098
 21
5.808984814557945
 31
0.0
  0
LINE
  5
54F
330
18
100
AcDbEntity
  8
1
 62
     1
100
AcDbLine
 10
79.02497511928699
 20
5.337570510094938
 30
0.0
 11
79.41019541245569
 21
5.983105085630368
 31
0.0
  0
LINE
  5
550
330
18
100
AcDbEntity
  8
1
 62
     1
100
AcDbLine
 10
79.41019541245569
 20
6.028428964143884
 30
0.0
 11
79.41019541245569
 21
6.028418393165955
 31
0.0
  0
LINE
  5
551
330
18
100
AcDbEntity
  8
1
 62
     1
100
AcDbLine
 10
79.41019541245569
 20
6.028418393165955
 30
0.0
 11
79.4101954124557
 21
6.0253364698507
 31
0.0
  0
LINE
  5
552
330
18
100
AcDbEntity
  8
1
 62
     1
100
AcDbLine
 10
79.4101954124557
 20
6.0253364698507
 30
0.0
 11
79.41019541245569
 21
5.983105085630367
 31
0.0
  0
LINE
  5
553
330
18
100
AcDbEntity
  8
1
 62
     1
100
AcDbLine
 10
78.51735986121211
 20
6.153906852387571
 30
0.0
 11
78.51735986121211
 21
6.153895239540482
 31
0.0
  0
LINE
  5
554
330
18
100
AcDbEntity
  8
1
 62
     1
100
AcDbLine
 10
78.51735986121211
 20
6.153895239540482
 30
0.0
 11
78.5173598612121
 21
6.15050804377934
 31
0.0
  0
LINE
  5
555
330
18
100
AcDbEntity
  8
1
 62
     1
100
AcDbLine
 10
78.5173598612121
 20
6.15050804377934
 30
0.0
 11
78.51735986121211
 21
6.104037165416246
 31
0.0
  0
LINE
  5
556
330
18
100
AcDbEntity
  8
1
 62
     1
100
AcDbLine
 10
78.97502488071301
 20
5.337570510094938
 30
0.0
 11
78.5173598612121
 21
6.104037165430455
 31
0.0
  0
LINE
  5
557
330
18
100
AcDbEntity
  8
1
 62
     1
100
AcDbLine
 10
79.0
 20
5.295455122227454
 30
0.0
 11
79.0
 21
5.31795
 31
0.0
  0
LINE
  5
558
330
18
100
AcDbEntity
  8
1
 62
     1
100
AcDbLine
 10
70.02886752691896
 20
7.0
 30
0.0
 11
70.02886752691896
 21
6.999980741964308
 31
0.0
  0
LINE
  5
559
330
18
100
AcDbEntity
  8
1
 62
     1
100
AcDbLine
 10
70.02886752691896
 20
6.999980741964308
 30
0.0
 11
70.02886752691896
 21
6.994349160360636
 31
0.0
  0
LINE
  5
55A
330
18
100
AcDbEntity
  8
1
 62
     1
100
AcDbLine
 10
70.02886752691896
 20
6.994349160360636
 30
0.0
 11
70.02886752691896
 21
6.916559717563516
 31
0.0
  0
ARC
  5
55B
330
18
100
AcDbEntity
  8
1
 62
     1
100
AcDbCircle
 10
-182.8999709410864
 20
-145.7296915347056
 30
0.0
 40
295.4214595557988
100
AcDbArc
 50
30.75458555566775
 51
31.11159517610626
  0
LINE
  5
55C
330
18
100
AcDbEntity
  8
1
 62
     1
100
AcDbLine
 10
71.0
 20
5.295455122227454
 30
0.0
 11
71.0
 21
5.31795
 31
0.0
  0
LINE
  5
55D
330
18
100
AcDbEntity
  8
1
 62
     1
100
AcDbLine
 10
68.02886752691896
 20
7.0
 30
0.0
 11
68.02886752691896
 21
6.999980741964308
 31
0.0
  0
LINE
  5
55E
330
18
100
AcDbEntity
  8
1
 62
     1
100
AcDbLine
 10
68.02886752691896
 20
6.999980741964308
 30
0.0
 11
68.02886752691896
 21
6.994349160360636
 31
0.0
  0
LINE
  5
55F
330
18
100
AcDbEntity
  8
1
 62
     1
100
AcDbLine
 10
68.02886752691896
 20
6.994349160360636
 30
0.0
 11
68.02886752691896
 21
6.916559717563516
 31
0.0
  0
ARC
  5
560
330
18
100
AcDbEntity
  8
1
 62
     1
100
AcDbCircle
 10
-184.8999709415739
 20
-145.7296915350028
 30
0.0
 40
295.4214595563697
100
AcDbArc
 50
30.75458555566894
 51
31.11159517610676
  0
LINE
  5
561
330
18
100
AcDbEntity
  8
1
 62
     1
100
AcDbLine
 10
69.00000000000001
 20
5.295455122227454
 30
0.0
 11
69.0
 21
5.312423185602718
 31
0.0
  0
LINE
  5
562
330
18
100
AcDbEntity
  8
1
 62
     1
100
AcDbLine
 10
69.0
 20
5.312423185602718
 30
0.0
 11
69.00000000000001
 21
5.316580718981344
 31
0.0
  0
LINE
  5
563
330
18
100
AcDbEntity
  8
1
 62
     1
100
AcDbLine
 10
69.00000000000001
 20
5.316580718981344
 30
0.0
 11
69.0
 21
5.317609250093998
 31
0.0
  0
LINE
  5
564
330
18
100
AcDbEntity
  8
1
 62
     1
100
AcDbLine
 10
69.0
 20
5.317609250093998
 30
0.0
 11
69.0
 21
5.31786500985654
 31
0.0
  0
LINE
  5
565
330
18
100
AcDbEntity
  8
1
 62
     1
100
AcDbLine
 10
69.0
 20
5.31786500985654
 30
0.0
 11
69.0
 21
5.317928777193997
 31
0.0
  0
LINE
  5
566
330
18
100
AcDbEntity
  8
1
 62
     1
100
AcDbLine
 10
69.0
 20
5.317928777193997
 30
0.0
 11
68.99999999999999
 21
5.31794469739363
 31
0.0
  0
LINE
  5
567
330
18
100
AcDbEntity
  8
1
 62
     1
100
AcDbLine
 10
68.99999999999999
 20
5.31794469739363
 30
0.0
 11
69.0
 21
5.317948674735541
 31
0.0
  0
LINE
  5
568
330
18
100
AcDbEntity
  8
1
 62
     1
100
AcDbLine
 10
69.0
 20
5.317948674735541
 30
0.0
 11
69.0
 21
5.317949668732291
 31
0.0
  0
LINE
  5
569
330
18
100
AcDbEntity
  8
1
 62
     1
100
AcDbLine
 10
69.0
 20
5.317949668732291
 30
0.0
 11
69.00000000000001
 21
5.317949917189124
 31
0.0
  0
LINE
  5
56A
330
18
100
AcDbEntity
  8
1
 62
     1
100
AcDbLine
 10
69.00000000000001
 20
5.317949917189124
 30
0.0
 11
69.00000000000001
 21
5.317949979298038
 31
0.0
  0
LINE
  5
56B
330
18
100
AcDbEntity
  8
1
 62
     1
100
AcDbLine
 10
69.00000000000001
 20
5.317949979298038
 30
0.0
 11
69.0
 21
5.317949994824604
 31
0.0
  0
LINE
  5
56C
330
18
100
AcDbEntity
  8
1
 62
     1
100
AcDbLine
 10
69.0
 20
5.317949994824604
 30
0.0
 11
68.99999999999999
 21
5.317949998706162
 31
0.0
  0
LINE
  5
56D
330
18
100
AcDbEntity
  8
1
 62
     1
100
AcDbLine
 10
68.99999999999999
 20
5.317949998706162
 30
0.0
 11
69.0
 21
5.317949999676542
 31
0.0
  0
LINE
  5
56E
330
18
100
AcDbEntity
  8
1
 62
     1
100
AcDbLine
 10
69.0
 20
5.317949999676542
 30
0.0
 11
68.99999999999999
 21
5.317949999919135
 31
0.0
  0
LINE
  5
56F
330
18
100
AcDbEntity
  8
1
 62
     1
100
AcDbLine
 10
68.99999999999999
 20
5.317949999919135
 30
0.0
 11
69.0
 21
5.317949999979784
 31
0.0
  0
LINE
  5
570
330
18
100
AcDbEntity
  8
1
 62
     1
100
AcDbLine
 10
69.0
 20
5.317949999979784
 30
0.0
 11
69.0
 21
5.317949999994946
 31
0.0
  0
LINE
  5
571
330
18
100
AcDbEntity
  8
1
 62
     1
100
AcDbLine
 10
69.0
 20
5.317949999994946
 30
0.0
 11
69.00000000000001
 21
5.317949999999399
 31
0.0
  0
LINE
  5
572
330
18
100
AcDbEntity
  8
1
 62
     1
100
AcDbLine
 10
69.00000000000001
 20
5.317949999999399
 30
0.0
 11
69.0
 21
5.31795
 31
0.0
  0
ARC
  5
573
330
18
100
AcDbEntity
  8
1
 62
     1
100
AcDbCircle
 10
320.8999709349187
 20
-145.7296915310193
 30
0.0
 40
295.4214595486134
100
AcDbArc
 50
148.8884048238878
 51
149.245414444335
  0
LINE
  5
574
330
18
100
AcDbEntity
  8
1
 62
     1
100
AcDbLine
 10
67.97113247308103
 20
7.0
 30
0.0
 11
67.97113247308103
 21
6.999980741964308
 31
0.0
  0
LINE
  5
575
330
18
100
AcDbEntity
  8
1
 62
     1
100
AcDbLine
 10
67.97113247308103
 20
6.999980741964308
 30
0.0
 11
67.97113247308103
 21
6.994349160360636
 31
0.0
  0
LINE
  5
576
330
18
100
AcDbEntity
  8
1
 62
     1
100
AcDbLine
 10
67.97113247308103
 20
6.994349160360636
 30
0.0
 11
67.97113247308103
 21
6.916559717563516
 31
0.0
  0
LINE
  5
577
330
18
100
AcDbEntity
  8
1
 62
     1
100
AcDbLine
 10
72.02886752691897
 20
7.0
 30
0.0
 11
72.02886752691897
 21
6.999980741964308
 31
0.0
  0
LINE
  5
578
330
18
100
AcDbEntity
  8
1
 62
     1
100
AcDbLine
 10
72.02886752691897
 20
6.999980741964308
 30
0.0
 11
72.02886752691899
 21
6.994349160360638
 31
0.0
  0
LINE
  5
579
330
18
100
AcDbEntity
  8
1
 62
     1
100
AcDbLine
 10
72.02886752691899
 20
6.994349160360638
 30
0.0
 11
72.02886752691897
 21
6.916559717563517
 31
0.0
  0
ARC
  5
57A
330
18
100
AcDbEntity
  8
1
 62
     1
100
AcDbCircle
 10
-180.8999709444221
 20
-145.7296915366998
 30
0.0
 40
295.4214595596852
100
AcDbArc
 50
30.7545855556693
 51
31.1115951761031
  0
LINE
  5
57B
330
18
100
AcDbEntity
  8
1
 62
     1
100
AcDbLine
 10
72.99999999999999
 20
5.295455122227454
 30
0.0
 11
73.0
 21
5.31795
 31
0.0
  0
LINE
  5
57C
330
18
100
AcDbEntity
  8
1
 62
     1
100
AcDbLine
 10
73.02497511928698
 20
5.337570510094938
 30
0.0
 11
73.86049815673721
 21
6.732930673469848
 31
0.0
  0
LINE
  5
57D
330
18
100
AcDbEntity
  8
1
 62
     1
100
AcDbLine
 10
73.86049815673721
 20
6.808375832376695
 30
0.0
 11
73.86049815673721
 21
6.808358388508495
 31
0.0
  0
LINE
  5
57E
330
18
100
AcDbEntity
  8
1
 62
     1
100
AcDbLine
 10
73.86049815673721
 20
6.808358388508495
 30
0.0
 11
73.86049815673721
 21
6.803259980098399
 31
0.0
  0
LINE
  5
57F
330
18
100
AcDbEntity
  8
1
 62
     1
100
AcDbLine
 10
73.86049815673721
 20
6.803259980098399
 30
0.0
 11
73.86049815673721
 21
6.73293067346985
 31
0.0
  0
LINE
  5
580
330
18
100
AcDbEntity
  8
1
 62
     1
100
AcDbLine
 10
77.024975119287
 20
5.337570510094938
 30
0.0
 11
77.56029632721621
 21
6.233529878187661
 31
0.0
  0
LINE
  5
581
330
18
100
AcDbEntity
  8
1
 62
     1
100
AcDbLine
 10
77.5602963272162
 20
6.288411253554822
 30
0.0
 11
77.5602963272162
 21
6.288398494210466
 31
0.0
  0
LINE
  5
582
330
18
100
AcDbEntity
  8
1
 62
     1
100
AcDbLine
 10
77.5602963272162
 20
6.288398494210466
 30
0.0
 11
77.5602963272162
 21
6.284675182094003
 31
0.0
  0
LINE
  5
583
330
18
100
AcDbEntity
  8
1
 62
     1
100
AcDbLine
 10
77.5602963272162
 20
6.284675182094003
 30
0.0
 11
77.5602963272162
 21
6.233529878187655
 31
0.0
  0
ARC
  5
584
330
18
100
AcDbEntity
  8
1
 62
     1
100
AcDbCircle
 10
324.899970938212
 20
-145.7296915329859
 30
0.0
 40
295.4214595524492
100
AcDbArc
 50
148.8884048238912
 51
149.2454144443338
  0
LINE
  5
585
330
18
100
AcDbEntity
  8
1
 62
     1
100
AcDbLine
 10
71.97113247308103
 20
7.0
 30
0.0
 11
71.97113247308103
 21
6.999980741964308
 31
0.0
  0
LINE
  5
586
330
18
100
AcDbEntity
  8
1
 62
     1
100
AcDbLine
 10
71.97113247308103
 20
6.999980741964308
 30
0.0
 11
71.97113247308103
 21
6.994349160360636
 31
0.0
  0
LINE
  5
587
330
18
100
AcDbEntity
  8
1
 62
     1
100
AcDbLine
 10
71.97113247308103
 20
6.994349160360636
 30
0.0
 11
71.97113247308103
 21
6.916559717563516
 31
0.0
  0
LINE
  5
588
330
18
100
AcDbEntity
  8
1
 62
     1
100
AcDbLine
 10
74.16413930275436
 20
6.765702520664299
 30
0.0
 11
74.16413930275436
 21
6.765685474860195
 31
0.0
  0
LINE
  5
589
330
18
100
AcDbEntity
  8
1
 62
     1
100
AcDbLine
 10
74.16413930275436
 20
6.765685474860195
 30
0.0
 11
74.16413930275436
 21
6.760704011172426
 31
0.0
  0
LINE
  5
58A
330
18
100
AcDbEntity
  8
1
 62
     1
100
AcDbLine
 10
74.16413930275436
 20
6.760704011172426
 30
0.0
 11
74.16413930275438
 21
6.692009510647289
 31
0.0
  0
LINE
  5
58B
330
18
100
AcDbEntity
  8
1
 62
     1
100
AcDbLine
 10
74.97502488071301
 20
5.337570510094938
 30
0.0
 11
74.16413930275436
 21
6.692009510647294
 31
0.0
  0
LINE
  5
58C
330
18
100
AcDbEntity
  8
1
 62
     1
100
AcDbLine
 10
75.0
 20
5.295455122227452
 30
0.0
 11
75.0
 21
5.31795
 31
0.0
  0
LINE
  5
58D
330
18
100
AcDbEntity
  8
1
 62
     1
100
AcDbLine
 10
75.02497511928699
 20
5.337570510094938
 30
0.0
 11
75.71039724197672
 21
6.483451692595244
 31
0.0
  0
LINE
  5
58E
330
18
100
AcDbEntity
  8
1
 62
     1
100
AcDbLine
 10
76.34074958198323
 20
6.459804686525937
 30
0.0
 11
76.34074958198323
 21
6.459790425040171
 31
0.0
  0
LINE
  5
58F
330
18
100
AcDbEntity
  8
1
 62
     1
100
AcDbLine
 10
76.34074958198323
 20
6.459790425040171
 30
0.0
 11
76.34074958198322
 21
6.455626461348654
 31
0.0
  0
LINE
  5
590
330
18
100
AcDbEntity
  8
1
 62
     1
100
AcDbLine
 10
76.34074958198322
 20
6.455626461348654
 30
0.0
 11
76.34074958198323
 21
6.39834348352576
 31
0.0
  0
LINE
  5
591
330
18
100
AcDbEntity
  8
1
 62
     1
100
AcDbLine
 10
76.97502488071302
 20
5.337570510094937
 30
0.0
 11
76.34074958198323
 21
6.398343483568818
 31
0.0
  0
LINE
  5
592
330
18
100
AcDbEntity
  8
1
 62
     1
100
AcDbLine
 10
77.00000000000001
 20
5.295455122227454
 30
0.0
 11
77.0
 21
5.31795
 31
0.0
  0
ARC
  5
593
330
18
100
AcDbEntity
  8
1
 62
     1
100
AcDbCircle
 10
322.8999709411355
 20
-145.7296915347407
 30
0.0
 40
295.4214595558589
100
AcDbArc
 50
148.8884048238928
 51
149.2454144443313
  0
LINE
  5
594
330
18
100
AcDbEntity
  8
1
 62
     1
100
AcDbLine
 10
69.97113247308104
 20
7.0
 30
0.0
 11
69.97113247308103
 21
6.999980741964308
 31
0.0
  0
LINE
  5
595
330
18
100
AcDbEntity
  8
1
 62
     1
100
AcDbLine
 10
69.97113247308103
 20
6.999980741964308
 30
0.0
 11
69.97113247308106
 21
6.994349160360636
 31
0.0
  0
LINE
  5
596
330
18
100
AcDbEntity
  8
1
 62
     1
100
AcDbLine
 10
69.97113247308106
 20
6.994349160360636
 30
0.0
 11
69.97113247308106
 21
6.916559717563516
 31
0.0
  0
ARC
  5
597
330
18
100
AcDbEntity
  8
1
 62
     1
100
AcDbCircle
 10
318.8999709352138
 20
-145.7296915311888
 30
0.0
 40
295.4214595489537
100
AcDbArc
 50
148.8884048238892
 51
149.245414444336
  0
LINE
  5
598
330
18
100
AcDbEntity
  8
1
 62
     1
100
AcDbLine
 10
65.97113247308104
 20
7.0
 30
0.0
 11
65.97113247308104
 21
6.999980741964308
 31
0.0
  0
LINE
  5
599
330
18
100
AcDbEntity
  8
1
 62
     1
100
AcDbLine
 10
65.97113247308104
 20
6.999980741964308
 30
0.0
 11
65.97113247308104
 21
6.994349160360636
 31
0.0
  0
LINE
  5
59A
330
18
100
AcDbEntity
  8
1
 62
     1
100
AcDbLine
 10
65.97113247308104
 20
6.994349160360636
 30
0.0
 11
65.97113247308103
 21
6.916559717563515
 31
0.0
  0
LINE
  5
59B
330
18
100
AcDbEntity
  8
1
 62
     1
100
AcDbLine
 10
64.02886752691896
 20
7.0
 30
0.0
 11
64.02886752691896
 21
6.999980741964308
 31
0.0
  0
LINE
  5
59C
330
18
100
AcDbEntity
  8
1
 62
     1
100
AcDbLine
 10
64.02886752691896
 20
6.999980741964308
 30
0.0
 11
64.02886752691896
 21
6.994349160360636
 31
0.0
  0
LINE
  5
59D
330
18
100
AcDbEntity
  8
1
 62
     1
100
AcDbLine
 10
64.02886752691896
 20
6.994349160360636
 30
0.0
 11
64.02886752691896
 21
6.916559717563516
 31
0.0
  0
ARC
  5
59E
330
18
100
AcDbEntity
  8
1
 62
     1
100
AcDbCircle
 10
-188.8999709391944
 20
-145.7296915335703
 30
0.0
 40
295.4214595535923
100
AcDbArc
 50
30.75458555566618
 51
31.11159517610735
  0
LINE
  5
59F
330
18
100
AcDbEntity
  8
1
 62
     1
100
AcDbLine
 10
65.0
 20
5.295455122227454
 30
0.0
 11
65.0
 21
5.31795
 31
0.0
  0
ARC
  5
5A0
330
18
100
AcDbEntity
  8
1
 62
     1
100
AcDbCircle
 10
316.8999709406957
 20
-145.7296915344753
 30
0.0
 40
295.4214595553452
100
AcDbArc
 50
148.8884048238928
 51
149.2454144443319
  0
LINE
  5
5A1
330
18
100
AcDbEntity
  8
1
 62
     1
100
AcDbLine
 10
63.97113247308103
 20
7.0
 30
0.0
 11
63.97113247308103
 21
6.999980741964308
 31
0.0
  0
LINE
  5
5A2
330
18
100
AcDbEntity
  8
1
 62
     1
100
AcDbLine
 10
63.97113247308103
 20
6.999980741964308
 30
0.0
 11
63.97113247308103
 21
6.994349160360636
 31
0.0
  0
LINE
  5
5A3
330
18
100
AcDbEntity
  8
1
 62
     1
100
AcDbLine
 10
63.97113247308103
 20
6.994349160360636
 30
0.0
 11
63.97113247308103
 21
6.916559717563516
 31
0.0
  0
LINE
  5
5A4
330
18
100
AcDbEntity
  8
1
 62
     1
100
AcDbLine
 10
62.02886752691897
 20
7.0
 30
0.0
 11
62.02886752691897
 21
6.999980741964308
 31
0.0
  0
LINE
  5
5A5
330
18
100
AcDbEntity
  8
1
 62
     1
100
AcDbLine
 10
62.02886752691897
 20
6.999980741964308
 30
0.0
 11
62.02886752691897
 21
6.994349160360636
 31
0.0
  0
LINE
  5
5A6
330
18
100
AcDbEntity
  8
1
 62
     1
100
AcDbLine
 10
62.02886752691897
 20
6.994349160360636
 30
0.0
 11
62.02886752691897
 21
6.916559717563515
 31
0.0
  0
ARC
  5
5A7
330
18
100
AcDbEntity
  8
1
 62
     1
100
AcDbCircle
 10
-190.8999709355716
 20
-145.729691531406
 30
0.0
 40
295.4214595493722
100
AcDbArc
 50
30.75458555566476
 51
31.11159517611103
  0
LINE
  5
5A8
330
18
100
AcDbEntity
  8
1
 62
     1
100
AcDbLine
 10
63.0
 20
5.295455122227454
 30
0.0
 11
63.0
 21
5.31795
 31
0.0
  0
LINE
  5
5A9
330
18
100
AcDbEntity
  8
1
 62
     1
100
AcDbLine
 10
66.02886752691897
 20
7.0
 30
0.0
 11
66.02886752691896
 21
6.999980741964308
 31
0.0
  0
LINE
  5
5AA
330
18
100
AcDbEntity
  8
1
 62
     1
100
AcDbLine
 10
66.02886752691896
 20
6.999980741964308
 30
0.0
 11
66.02886752691897
 21
6.994349160360636
 31
0.0
  0
LINE
  5
5AB
330
18
100
AcDbEntity
  8
1
 62
     1
100
AcDbLine
 10
66.02886752691897
 20
6.994349160360636
 30
0.0
 11
66.02886752691897
 21
6.916559717563515
 31
0.0
  0
ARC
  5
5AC
330
18
100
AcDbEntity
  8
1
 62
     1
100
AcDbCircle
 10
-186.8999709427033
 20
-145.729691535673
 30
0.0
 40
295.4214595576829
100
AcDbArc
 50
30.75458555566864
 51
31.11159517610487
  0
LINE
  5
5AD
330
18
100
AcDbEntity
  8
1
 62
     1
100
AcDbLine
 10
67.0
 20
5.295455122227454
 30
0.0
 11
67.0
 21
5.31795
 31
0.0
  0
LINE
  5
5AE
330
18
100
AcDbEntity
  8
1
 62
     1
100
AcDbLine
 10
56.02886752691898
 20
7.0
 30
0.0
 11
56.02886752691898
 21
6.999980741964308
 31
0.0
  0
LINE
  5
5AF
330
18
100
AcDbEntity
  8
1
 62
     1
100
AcDbLine
 10
56.02886752691898
 20
6.999980741964308
 30
0.0
 11
56.02886752691899
 21
6.994349160360636
 31
0.0
  0
LINE
  5
5B0
330
18
100
AcDbEntity
  8
1
 62
     1
100
AcDbLine
 10
56.02886752691899
 20
6.994349160360636
 30
0.0
 11
56.02886752691899
 21
6.916559717563516
 31
0.0
  0
ARC
  5
5B1
330
18
100
AcDbEntity
  8
1
 62
     1
100
AcDbCircle
 10
-196.8999709360407
 20
-145.7296915316834
 30
0.0
 40
295.4214595499172
100
AcDbArc
 50
30.75458555566446
 51
31.11159517611008
  0
LINE
  5
5B2
330
18
100
AcDbEntity
  8
1
 62
     1
100
AcDbLine
 10
57.00000000000001
 20
5.295455122227454
 30
0.0
 11
57.0
 21
5.31795
 31
0.0
  0
ARC
  5
5B3
330
18
100
AcDbEntity
  8
1
 62
     1
100
AcDbCircle
 10
310.8999709375908
 20
-145.7296915326162
 30
0.0
 40
295.4214595517263
100
AcDbArc
 50
148.8884048238903
 51
149.2454144443338
  0
LINE
  5
5B4
330
18
100
AcDbEntity
  8
1
 62
     1
100
AcDbLine
 10
57.97113247308106
 20
7.0
 30
0.0
 11
57.97113247308106
 21
6.999980741964308
 31
0.0
  0
LINE
  5
5B5
330
18
100
AcDbEntity
  8
1
 62
     1
100
AcDbLine
 10
57.97113247308106
 20
6.999980741964308
 30
0.0
 11
57.97113247308106
 21
6.994349160360636
 31
0.0
  0
LINE
  5
5B6
330
18
100
AcDbEntity
  8
1
 62
     1
100
AcDbLine
 10
57.97113247308106
 20
6.994349160360636
 30
0.0
 11
57.97113247308105
 21
6.916559717563515
 31
0.0
  0
LINE
  5
5B7
330
18
100
AcDbEntity
  8
1
 62
     1
100
AcDbLine
 10
58.02886752691897
 20
7.0
 30
0.0
 11
58.02886752691897
 21
6.999980741964308
 31
0.0
  0
LINE
  5
5B8
330
18
100
AcDbEntity
  8
1
 62
     1
100
AcDbLine
 10
58.02886752691897
 20
6.999980741964308
 30
0.0
 11
58.02886752691897
 21
6.994349160360636
 31
0.0
  0
LINE
  5
5B9
330
18
100
AcDbEntity
  8
1
 62
     1
100
AcDbLine
 10
58.02886752691897
 20
6.994349160360636
 30
0.0
 11
58.02886752691897
 21
6.916559717563516
 31
0.0
  0
ARC
  5
5BA
330
18
100
AcDbEntity
  8
1
 62
     1
100
AcDbCircle
 10
-194.8999709409843
 20
-145.7296915346461
 30
0.0
 40
295.4214595556806
100
AcDbArc
 50
30.75458555566797
 51
31.11159517610662
  0
LINE
  5
5BB
330
18
100
AcDbEntity
  8
1
 62
     1
100
AcDbLine
 10
59.0
 20
5.295455122227454
 30
0.0
 11
59.0
 21
5.31795
 31
0.0
  0
ARC
  5
5BC
330
18
100
AcDbEntity
  8
1
 62
     1
100
AcDbCircle
 10
312.8999709394396
 20
-145.7296915337221
 30
0.0
 40
295.4214595538807
100
AcDbArc
 50
148.888404823892
 51
149.2454144443329
  0
LINE
  5
5BD
330
18
100
AcDbEntity
  8
1
 62
     1
100
AcDbLine
 10
59.97113247308105
 20
7.0
 30
0.0
 11
59.97113247308105
 21
6.999980741964308
 31
0.0
  0
LINE
  5
5BE
330
18
100
AcDbEntity
  8
1
 62
     1
100
AcDbLine
 10
59.97113247308105
 20
6.999980741964308
 30
0.0
 11
59.97113247308105
 21
6.994349160360636
 31
0.0
  0
LINE
  5
5BF
330
18
100
AcDbEntity
  8
1
 62
     1
100
AcDbLine
 10
59.97113247308105
 20
6.994349160360636
 30
0.0
 11
59.97113247308104
 21
6.916559717563515
 31
0.0
  0
LINE
  5
5C0
330
18
100
AcDbEntity
  8
1
 62
     1
100
AcDbLine
 10
60.02886752691898
 20
7.0
 30
0.0
 11
60.02886752691897
 21
6.999980741964308
 31
0.0
  0
LINE
  5
5C1
330
18
100
AcDbEntity
  8
1
 62
     1
100
AcDbLine
 10
60.02886752691897
 20
6.999980741964308
 30
0.0
 11
60.02886752691898
 21
6.994349160360636
 31
0.0
  0
LINE
  5
5C2
330
18
100
AcDbEntity
  8
1
 62
     1
100
AcDbLine
 10
60.02886752691898
 20
6.994349160360636
 30
0.0
 11
60.02886752691898
 21
6.916559717563516
 31
0.0
  0
ARC
  5
5C3
330
18
100
AcDbEntity
  8
1
 62
     1
100
AcDbCircle
 10
-192.8999709363449
 20
-145.7296915318654
 30
0.0
 40
295.4214595502717
100
AcDbArc
 50
30.75458555566463
 51
31.11159517610982
  0
LINE
  5
5C4
330
18
100
AcDbEntity
  8
1
 62
     1
100
AcDbLine
 10
60.99999999999999
 20
5.295455122227454
 30
0.0
 11
61.0
 21
5.317949998844851
 31
0.0
  0
ARC
  5
5C5
330
18
100
AcDbEntity
  8
1
 62
     1
100
AcDbCircle
 10
314.8999709368922
 20
-145.7296915321974
 30
0.0
 40
295.4214595509118
100
AcDbArc
 50
148.8884048238899
 51
149.2454144443343
  0
LINE
  5
5C6
330
18
100
AcDbEntity
  8
1
 62
     1
100
AcDbLine
 10
61.97113247308106
 20
7.0
 30
0.0
 11
61.97113247308106
 21
6.999980741964308
 31
0.0
  0
LINE
  5
5C7
330
18
100
AcDbEntity
  8
1
 62
     1
100
AcDbLine
 10
61.97113247308106
 20
6.999980741964308
 30
0.0
 11
61.97113247308106
 21
6.994349160360636
 31
0.0
  0
LINE
  5
5C8
330
18
100
AcDbEntity
  8
1
 62
     1
100
AcDbLine
 10
61.97113247308106
 20
6.994349160360636
 30
0.0
 11
61.97113247308106
 21
6.916559717563516
 31
0.0
  0
LINE
  5
5C9
330
18
100
AcDbEntity
  8
1
 62
     1
100
AcDbLine
 10
80.693970140441
 20
-4.168587412908758
 30
0.0
 11
79.4101954124557
 21
-4.410279206838387
 31
0.0
  0
LINE
  5
5CA
330
18
100
AcDbEntity
  8
1
 62
     1
100
AcDbLine
 10
78.5173598612121
 20
-4.575131014848057
 30
0.0
 11
77.56029632721621
 21
-4.749240621880687
 31
0.0
  0
LINE
  5
5CB
330
18
100
AcDbEntity
  8
1
 62
     1
100
AcDbLine
 10
76.34074958302338
 20
-4.967627405360673
 30
0.0
 11
75.7103972419767
 21
-5.079127037753309
 31
0.0
  0
LINE
  5
5CC
330
18
100
AcDbEntity
  8
1
 62
     1
100
AcDbLine
 10
74.16413930275436
 20
-5.349091827857853
 30
0.0
 11
73.86049815673721
 21
-5.401559975332068
 31
0.0
  0
LINE
  5
5CD
330
18
100
AcDbEntity
  8
1
 62
     1
100
AcDbLine
 10
72.02886752691897
 20
-5.635173491920062
 30
0.0
 11
71.97113247308101
 21
-5.635173491920065
 31
0.0
  0
LINE
  5
5CE
330
18
100
AcDbEntity
  8
1
 62
     1
100
AcDbLine
 10
70.02886752691894
 20
-5.635173491920062
 30
0.0
 11
69.97113247308104
 21
-5.635173491920062
 31
0.0
  0
LINE
  5
5CF
330
18
100
AcDbEntity
  8
1
 62
     1
100
AcDbLine
 10
68.02886752691896
 20
-5.635173491920062
 30
0.0
 11
67.97113247308103
 21
-5.635173491920062
 31
0.0
  0
LINE
  5
5D0
330
18
100
AcDbEntity
  8
1
 62
     1
100
AcDbLine
 10
66.02886752691897
 20
-5.635173491920062
 30
0.0
 11
65.97113247308106
 21
-5.635173491920065
 31
0.0
  0
LINE
  5
5D1
330
18
100
AcDbEntity
  8
1
 62
     1
100
AcDbLine
 10
64.02886752691896
 20
-5.635173491920062
 30
0.0
 11
63.97113247308106
 21
-5.635173491920065
 31
0.0
  0
LINE
  5
5D2
330
18
100
AcDbEntity
  8
1
 62
     1
100
AcDbLine
 10
62.02886752691899
 20
-5.635173491920062
 30
0.0
 11
61.97113247308106
 21
-5.635173491920062
 31
0.0
  0
LINE
  5
5D3
330
18
100
AcDbEntity
  8
1
 62
     1
100
AcDbLine
 10
60.02886752691897
 20
-5.635173491920062
 30
0.0
 11
59.97113247308104
 21
-5.635173491920062
 31
0.0
  0
LINE
  5
5D4
330
18
100
AcDbEntity
  8
1
 62
     1
100
AcDbLine
 10
58.02886752691899
 20
-5.635173491920062
 30
0.0
 11
57.97113247308106
 21
-5.635173491920062
 31
0.0
  0
LINE
  5
5D5
330
18
100
AcDbEntity
  8
1
 62
     1
100
AcDbLine
 10
56.02886752691897
 20
-5.635173491920062
 30
0.0
 11
56.0
 21
-5.635173491920062
 31
0.0
  0
LINE
  5
5D6
330
18
100
AcDbEntity
  8
1
 62
     1
100
AcDbLine
 10
55.99999999999999
 20
-5.635173491920061
 30
0.0
 11
56.0
 21
-7.0
 31
0.0
  0
LINE
  5
5D7
330
18
100
AcDbEntity
  8
1
 62
     1
100
AcDbLine
 10
56.0
 20
-5.635173491920062
 30
0.0
 11
55.48792151177317
 21
-4.521729321673591
 31
0.0
  0
LINE
  5
5D8
330
18
100
AcDbEntity
  8
1
 62
     1
100
AcDbLine
 10
55.48792151177317
 20
-4.521729321673591
 30
0.0
 11
55.01850454
 21
-3.389731211745053
 31
0.0
  0
LINE
  5
5D9
330
18
100
AcDbEntity
  8
1
 62
     1
100
AcDbLine
 10
55.01850453999999
 20
-3.389731211745051
 30
0.0
 11
55.01850454
 21
-5.273465926688799
 31
0.0
  0
LINE
  5
5DA
330
18
100
AcDbEntity
  8
1
 62
     1
100
AcDbLine
 10
55.01850454
 20
-5.273465926688799
 30
0.0
 11
55.01850454
 21
-5.3
 31
0.0
  0
LINE
  5
5DB
330
18
100
AcDbEntity
  8
1
 62
     1
100
AcDbLine
 10
55.01850454
 20
-1.469443462973487
 30
0.0
 11
55.01850454
 21
-3.389731211745051
 31
0.0
  0
LINE
  5
5DC
330
18
100
AcDbEntity
  8
1
 62
     1
100
AcDbLine
 10
55.01850453999999
 20
4.07427567944554
 30
0.0
 11
55.01850453999999
 21
-0.4832893995896018
 31
0.0
  0
LINE
  5
5DD
330
18
100
AcDbEntity
  8
1
 62
     1
100
AcDbLine
 10
55.01850454
 20
5.277919226006053
 30
0.0
 11
55.01850454
 21
4.07427567944554
 31
0.0
  0
LINE
  5
5DE
330
18
100
AcDbEntity
  8
1
 62
     1
100
AcDbLine
 10
55.01850454
 20
5.3
 30
0.0
 11
55.01850454
 21
5.299998698807066
 31
0.0
  0
LINE
  5
5DF
330
18
100
AcDbEntity
  8
1
 62
     1
100
AcDbLine
 10
55.01850454
 20
5.299998698807066
 30
0.0
 11
55.01850454
 21
5.299622216206694
 31
0.0
  0
LINE
  5
5E0
330
18
100
AcDbEntity
  8
1
 62
     1
100
AcDbLine
 10
55.01850454
 20
5.299622216206694
 30
0.0
 11
55.01850453999999
 21
5.294574281345835
 31
0.0
  0
LINE
  5
5E1
330
18
100
AcDbEntity
  8
1
 62
     1
100
AcDbLine
 10
55.01850453999999
 20
5.294574281345835
 30
0.0
 11
55.01850453999999
 21
5.277919226006051
 31
0.0
  0
LINE
  5
5E2
330
18
100
AcDbEntity
  8
1
 62
     1
100
AcDbLine
 10
81.0
 20
-0.488617694087694
 30
0.0
 11
81.0
 21
-1.469443462973521
 31
0.0
  0
LINE
  5
5E3
330
18
100
AcDbEntity
  8
1
 62
     1
100
AcDbLine
 10
55.01850454
 20
-0.4832893995896019
 30
0.0
 11
55.01850454
 21
-1.469443462973521
 31
0.0
  0
LINE
  5
5E4
330
18
100
AcDbEntity
  8
1
 62
     1
100
AcDbLine
 10
81.0
 20
5.31795
 30
0.0
 11
80.69397014044098
 21
5.848009018249208
 31
0.0
  0
LINE
  5
5E5
330
18
100
AcDbEntity
  8
1
 62
     1
100
AcDbLine
 10
79.41019541245569
 20
6.028428964143884
 30
0.0
 11
79.0
 21
5.31795
 31
0.0
  0
LINE
  5
5E6
330
18
100
AcDbEntity
  8
1
 62
     1
100
AcDbLine
 10
79.0
 20
5.31795
 30
0.0
 11
78.5173598612121
 21
6.153906852387569
 31
0.0
  0
LINE
  5
5E7
330
18
100
AcDbEntity
  8
1
 62
     1
100
AcDbLine
 10
71.0
 20
5.317950000000001
 30
0.0
 11
70.02886752691896
 21
7.000000000000019
 31
0.0
  0
LINE
  5
5E8
330
18
100
AcDbEntity
  8
1
 62
     1
100
AcDbLine
 10
69.0
 20
5.31795
 30
0.0
 11
68.02886752691896
 21
7.000000000000019
 31
0.0
  0
LINE
  5
5E9
330
18
100
AcDbEntity
  8
1
 62
     1
100
AcDbLine
 10
67.97113247308104
 20
6.999999999999999
 30
0.0
 11
67.0
 21
5.317950000000001
 31
0.0
  0
LINE
  5
5EA
330
18
100
AcDbEntity
  8
1
 62
     1
100
AcDbLine
 10
73.0
 20
5.317950000000001
 30
0.0
 11
72.02886752691897
 21
7.0
 31
0.0
  0
LINE
  5
5EB
330
18
100
AcDbEntity
  8
1
 62
     1
100
AcDbLine
 10
73.86049815673721
 20
6.808375832376692
 30
0.0
 11
73.0
 21
5.31795
 31
0.0
  0
LINE
  5
5EC
330
18
100
AcDbEntity
  8
1
 62
     1
100
AcDbLine
 10
77.56029632721621
 20
6.288411253554818
 30
0.0
 11
77.0
 21
5.31795
 31
0.0
  0
LINE
  5
5ED
330
18
100
AcDbEntity
  8
1
 62
     1
100
AcDbLine
 10
71.97113247308104
 20
6.999999999999999
 30
0.0
 11
71.0
 21
5.317950000000001
 31
0.0
  0
LINE
  5
5EE
330
18
100
AcDbEntity
  8
1
 62
     1
100
AcDbLine
 10
75.0
 20
5.31795
 30
0.0
 11
74.16413930275436
 21
6.765702520664304
 31
0.0
  0
LINE
  5
5EF
330
18
100
AcDbEntity
  8
1
 62
     1
100
AcDbLine
 10
75.71039724197671
 20
6.548393542965781
 30
0.0
 11
75.0
 21
5.317950000000001
 31
0.0
  0
LINE
  5
5F0
330
18
100
AcDbEntity
  8
1
 62
     1
100
AcDbLine
 10
77.0
 20
5.31795
 30
0.0
 11
76.34074958198323
 21
6.459804686525943
 31
0.0
  0
LINE
  5
5F1
330
18
100
AcDbEntity
  8
1
 62
     1
100
AcDbLine
 10
69.97113247308106
 20
7.00000000000002
 30
0.0
 11
68.99999999999999
 21
5.31795
 31
0.0
  0
LINE
  5
5F2
330
18
100
AcDbEntity
  8
1
 62
     1
100
AcDbLine
 10
65.97113247308104
 20
7.00000000000002
 30
0.0
 11
65.0
 21
5.31795
 31
0.0
  0
LINE
  5
5F3
330
18
100
AcDbEntity
  8
1
 62
     1
100
AcDbLine
 10
65.0
 20
5.31795
 30
0.0
 11
64.02886752691896
 21
7.000000000000019
 31
0.0
  0
LINE
  5
5F4
330
18
100
AcDbEntity
  8
1
 62
     1
100
AcDbLine
 10
63.97113247308103
 20
7.000000000000007
 30
0.0
 11
63.0
 21
5.31795
 31
0.0
  0
LINE
  5
5F5
330
18
100
AcDbEntity
  8
1
 62
     1
100
AcDbLine
 10
63.00000000000001
 20
5.31795
 30
0.0
 11
62.02886752691897
 21
7.000000000000004
 31
0.0
  0
LINE
  5
5F6
330
18
100
AcDbEntity
  8
1
 62
     1
100
AcDbLine
 10
67.0
 20
5.317950000000001
 30
0.0
 11
66.02886752691897
 21
7.0
 31
0.0
  0
LINE
  5
5F7
330
18
100
AcDbEntity
  8
1
 62
     1
100
AcDbLine
 10
57.0
 20
5.31795
 30
0.0
 11
56.02886752691898
 21
7.0
 31
0.0
  0
LINE
  5
5F8
330
18
100
AcDbEntity
  8
1
 62
     1
100
AcDbLine
 10
57.97113247308106
 20
7.000000000000034
 30
0.0
 11
57.00000000000001
 21
5.317950000000001
 31
0.0
  0
LINE
  5
5F9
330
18
100
AcDbEntity
  8
1
 62
     1
100
AcDbLine
 10
59.0
 20
5.31795
 30
0.0
 11
58.02886752691898
 21
7.000000000000005
 31
0.0
  0
LINE
  5
5FA
330
18
100
AcDbEntity
  8
1
 62
     1
100
AcDbLine
 10
59.97113247308105
 20
7.000000000000018
 30
0.0
 11
59.0
 21
5.31795
 31
0.0
  0
LINE
  5
5FB
330
18
100
AcDbEntity
  8
1
 62
     1
100
AcDbLine
 10
61.0
 20
5.317950000000001
 30
0.0
 11
60.02886752691898
 21
7.0
 31
0.0
  0
LINE
  5
5FC
330
18
100
AcDbEntity
  8
1
 62
     1
100
AcDbLine
 10
61.97113247308106
 20
7.000000000000035
 30
0.0
 11
61.0
 21
5.31795
 31
0.0
  0
LINE
  5
5FD
330
18
100
AcDbEntity
  8
1
 62
     1
100
AcDbLine
 10
79.41019541245569
 20
-6.028428964143884
 30
0.0
 11
80.69397014044098
 21
-5.848009018249209
 31
0.0
  0
LINE
  5
5FE
330
18
100
AcDbEntity
  8
1
 62
     1
100
AcDbLine
 10
77.56029632721621
 20
-6.288411253554822
 30
0.0
 11
78.51735986121213
 21
-6.153906852387572
 31
0.0
  0
LINE
  5
5FF
330
18
100
AcDbEntity
  8
1
 62
     1
100
AcDbLine
 10
75.71039724197672
 20
-6.548393542965755
 30
0.0
 11
76.34074958198325
 21
-6.459804686525937
 31
0.0
  0
LINE
  5
600
330
18
100
AcDbEntity
  8
1
 62
     1
100
AcDbLine
 10
73.86049815673721
 20
-6.808375832376695
 30
0.0
 11
74.16413930275436
 21
-6.765702520664298
 31
0.0
  0
LINE
  5
601
330
18
100
AcDbEntity
  8
1
 62
     1
100
AcDbLine
 10
71.97113247308103
 20
-7.0
 30
0.0
 11
72.02886752691899
 21
-7.0
 31
0.0
  0
LINE
  5
602
330
18
100
AcDbEntity
  8
1
 62
     1
100
AcDbLine
 10
69.97113247308104
 20
-7.0
 30
0.0
 11
70.02886752691897
 21
-7.0
 31
0.0
  0
LINE
  5
603
330
18
100
AcDbEntity
  8
1
 62
     1
100
AcDbLine
 10
67.97113247308101
 20
-7.0
 30
0.0
 11
68.02886752691896
 21
-7.0
 31
0.0
  0
LINE
  5
604
330
18
100
AcDbEntity
  8
1
 62
     1
100
AcDbLine
 10
65.97113247308104
 20
-7.0
 30
0.0
 11
66.02886752691897
 21
-7.000000000000001
 31
0.0
  0
LINE
  5
605
330
18
100
AcDbEntity
  8
1
 62
     1
100
AcDbLine
 10
63.97113247308103
 20
-7.0
 30
0.0
 11
64.02886752691896
 21
-7.0
 31
0.0
  0
LINE
  5
606
330
18
100
AcDbEntity
  8
1
 62
     1
100
AcDbLine
 10
61.97113247308105
 20
-7.0
 30
0.0
 11
62.02886752691898
 21
-7.000000000000001
 31
0.0
  0
LINE
  5
607
330
18
100
AcDbEntity
  8
1
 62
     1
100
AcDbLine
 10
59.97113247308104
 20
-7.0
 30
0.0
 11
60.02886752691898
 21
-7.0
 31
0.0
  0
LINE
  5
608
330
18
100
AcDbEntity
  8
1
 62
     1
100
AcDbLine
 10
57.97113247308106
 20
-7.0
 30
0.0
 11
58.02886752691899
 21
-7.000000000000001
 31
0.0
  0
LINE
  5
609
330
18
100
AcDbEntity
  8
1
 62
     1
100
AcDbLine
 10
56.0
 20
-7.0
 30
0.0
 11
56.02886752691899
 21
-7.0
 31
0.0
  0
LINE
  5
60A
330
18
100
AcDbEntity
  8
1
 62
     1
100
AcDbLine
 10
55.01850454
 20
-5.3
 30
0.0
 11
56.0
 21
-7.0
 31
0.0
  0
LINE
  5
60B
330
18
100
AcDbEntity
  8
SK1
100
AcDbLine
 10
0.0000000000000036
 20
5.5
 30
0.0
 11
-17.0
 21
5.5
 31
0.0
  0
LINE
  5
60C
330
18
100
AcDbEntity
  8
SK1
100
AcDbLine
 10
-29.0
 20
-4.5
 30
0.0
 11
-28.45000000000001
 21
-4.5
 31
0.0
  0
LINE
  5
60D
330
18
100
AcDbEntity
  8
SK1
100
AcDbLine
 10
-28.45
 20
-4.5
 30
0.0
 11
-17.0
 21
-4.5
 31
0.0
  0
LINE
  5
60E
330
18
100
AcDbEntity
  8
SK1
100
AcDbLine
 10
-17.0
 20
-4.500000000000001
 30
0.0
 11
-17.0
 21
-5.5
 31
0.0
  0
LINE
  5
60F
330
18
100
AcDbEntity
  8
SK1
100
AcDbLine
 10
-29.0
 20
4.499999999999999
 30
0.0
 11
-28.45
 21
4.499999999999999
 31
0.0
  0
LINE
  5
610
330
18
100
AcDbEntity
  8
SK1
100
AcDbLine
 10
-28.45000000000001
 20
3.162277660168383
 30
0.0
 11
-17.0
 21
3.162277660168383
 31
0.0
  0
LINE
  5
611
330
18
100
AcDbEntity
  8
SK1
100
AcDbLine
 10
-28.45
 20
4.5
 30
0.0
 11
-17.0
 21
4.5
 31
0.0
  0
ARC
  5
612
330
18
100
AcDbEntity
  8
SK1
100
AcDbCircle
 10
-20.24734931215675
 20
-1.632121952865278
 30
0.0
 40
9.500461241837659
100
AcDbArc
 50
149.6939729430381
 51
157.1165744850045
  0
LINE
  5
613
330
18
100
AcDbEntity
  8
SK1
100
AcDbLine
 10
-28.45000000000001
 20
4.5
 30
0.0
 11
-28.45
 21
3.162277660168382
 31
0.0
  0
LINE
  5
614
330
18
100
AcDbEntity
  8
SK1
100
AcDbLine
 10
-29.0
 20
4.500000000000001
 30
0.0
 11
-28.45
 21
4.500000000000002
 31
0.0
  0
LINE
  5
615
330
18
100
AcDbEntity
  8
SK1
100
AcDbLine
 10
-17.0
 20
5.5
 30
0.0
 11
-17.0
 21
5.499789290881576
 31
0.0
  0
LINE
  5
616
330
18
100
AcDbEntity
  8
SK1
100
AcDbLine
 10
-17.0
 20
5.499789290881576
 30
0.0
 11
-17.0
 21
5.435788300691358
 31
0.0
  0
LINE
  5
617
330
18
100
AcDbEntity
  8
SK1
100
AcDbLine
 10
-17.0
 20
5.435788300691358
 30
0.0
 11
-17.0
 21
4.500000000000001
 31
0.0
  0
LINE
  5
618
330
18
100
AcDbEntity
  8
SK1
100
AcDbLine
 10
-28.45
 20
-3.162277660168376
 30
0.0
 11
-17.0
 21
-3.162277660168376
 31
0.0
  0
LINE
  5
619
330
18
100
AcDbEntity
  8
SK1
100
AcDbLine
 10
-29.0
 20
4.499999999999999
 30
0.0
 11
-29.0
 21
2.06215906273013
 31
0.0
  0
LINE
  5
61A
330
18
100
AcDbEntity
  8
SK1
100
AcDbLine
 10
-29.0
 20
-2.06215906273013
 30
0.0
 11
-29.0
 21
-4.5
 31
0.0
  0
ARC
  5
61B
330
18
100
AcDbEntity
  8
SK1
100
AcDbCircle
 10
-20.24734931215312
 20
1.632121952867184
 30
0.0
 40
9.500461241841746
100
AcDbArc
 50
202.8834255149976
 51
210.3060270569608
  0
LINE
  5
61C
330
18
100
AcDbEntity
  8
SK1
100
AcDbLine
 10
-29.0
 20
-4.5
 30
0.0
 11
-28.45
 21
-4.5
 31
0.0
  0
LINE
  5
61D
330
18
100
AcDbEntity
  8
SK1
100
AcDbLine
 10
-28.45
 20
-3.162277660168376
 30
0.0
 11
-28.45
 21
-4.499999999999999
 31
0.0
  0
LINE
  5
61E
330
18
100
AcDbEntity
  8
SK1
100
AcDbLine
 10
-17.0
 20
3.162277660168381
 30
0.0
 11
-17.0
 21
-3.16227766016838
 31
0.0
  0
LINE
  5
61F
330
18
100
AcDbEntity
  8
SK1
100
AcDbLine
 10
-29.0
 20
2.062159062730129
 30
0.0
 11
-29.0
 21
-2.062159062730128
 31
0.0
  0
LINE
  5
620
330
18
100
AcDbEntity
  8
SK1
100
AcDbLine
 10
-17.0
 20
-5.5
 30
0.0
 11
0.0000000000000049
 21
-5.5
 31
0.0
  0
DIMENSION
  5
621
330
18
100
AcDbEntity
  8
2
100
AcDbDimension
  2
*D0
 10
96.00000000000006
 20
-6.999999999999948
 30
0.0
 11
93.58475000000003
 21
0.0000000000000455
 31
0.0
 70
    32
  1
M14
 71
     5
 42
14.0
  3
STANDARD
100
AcDbAlignedDimension
 13
81.0
 23
7.0
 33
0.0
 14
81.0
 24
-7.0
 34
0.0
 50
90.0000000000002
100
AcDbRotatedDimension
  0
DIMENSION
  5
62E
330
18
100
AcDbEntity
  8
2
100
AcDbDimension
  2
*D1
 10
81.0
 20
75.0
 30
0.0
 11
40.5
 21
77.39075
 31
0.0
 70
    32
  1
<>
 71
     5
 42
81.0
  3
STANDARD
100
AcDbAlignedDimension
 13
0.0
 23
0.0
 33
0.0
 14
81.0
 24
0.0
 34
0.0
100
AcDbRotatedDimension
  0
DIMENSION
  5
63B
330
18
100
AcDbEntity
  8
SK2
100
AcDbDimension
  2
*D2
 10
-43.99999999997193
 20
-5.500000000137792
 30
0.0
 11
-46.39075
 21
-0.0000000001499935
 31
0.0
 70
    32
  1
%%c<>
 71
     5
 42
11.0
  3
STANDARD
100
AcDbAlignedDimension
 13
-17.0
 23
5.5
 33
0.0
 14
-17.0
 24
-5.5
 34
0.0
 50
90.0000000002924
100
AcDbRotatedDimension
  0
DIMENSION
  5
648
330
18
100
AcDbEntity
  8
2
100
AcDbDimension
  2
*D3
 10
81.0
 20
60.0
 30
0.0
 11
68.00925226999999
 21
62.39775
 31
0.0
 70
    32
  1
<>
 71
     5
 42
25.98149546
  3
STANDARD
100
AcDbAlignedDimension
 13
55.01850454
 23
5.3
 33
0.0
 14
81.0
 24
7.0
 34
0.0
100
AcDbRotatedDimension
  0
DIMENSION
  5
655
330
18
100
AcDbEntity
  8
SK2
100
AcDbDimension
  2
*D4
 10
81.0
 20
90.0
 30
0.0
 11
26.0
 21
92.39075
 31
0.0
 70
    32
  1
<>
 71
     5
 42
110.0
  3
STANDARD
100
AcDbAlignedDimension
 13
-29.0
 23
7.0
 33
0.0
 14
81.0
 24
7.0
 34
0.0
100
AcDbRotatedDimension
  0
ENDSEC
  0
SECTION
  2
OBJECTS
  0
DICTIONARY
  5
C
330
0
100
AcDbDictionary
281
     1
  3
ACAD_COLOR
350
387
  3
ACAD_GROUP
350
D
  3
ACAD_LAYOUT
350
301
  3
ACAD_MATERIAL
350
386
  3
ACAD_MLEADERSTYLE
350
662
  3
ACAD_MLINESTYLE
350
E
  3
ACAD_PLOTSETTINGS
350
302
  3
ACAD_PLOTSTYLENAME
350
2FF
  3
ACAD_SCALELIST
350
3A0
  3
ACAD_TABLESTYLE
350
388
  3
ACAD_VISUALSTYLE
350
3C5
  3
ACDBHEADERROUNDTRIPXREC
350
663
  3
AcDbVariableDictionary
350
357
  0
DICTIONARY
  5
387
102
{ACAD_REACTORS
330
C
102
}
330
C
100
AcDbDictionary
281
     1
  0
DICTIONARY
  5
D
102
{ACAD_REACTORS
330
C
102
}
330
C
100
AcDbDictionary
281
     1
  0
DICTIONARY
  5
301
102
{ACAD_REACTORS
330
C
102
}
330
C
100
AcDbDictionary
281
     1
  3
Layout1
350
33B
  3
Model
350
303
  0
DICTIONARY
  5
386
102
{ACAD_REACTORS
330
C
102
}
330
C
100
AcDbDictionary
281
     1
  3
ByBlock
350
3C3
  3
ByLayer
350
3C2
  3
Global
350
3C4
  0
DICTIONARY
  5
662
102
{ACAD_REACTORS
330
C
102
}
330
C
100
AcDbDictionary
281
     1
  0
DICTIONARY
  5
E
102
{ACAD_REACTORS
330
C
102
}
330
C
100
AcDbDictionary
281
     1
  3
STANDARD
350
1B
  0
DICTIONARY
  5
302
102
{ACAD_REACTORS
330
C
102
}
330
C
100
AcDbDictionary
281
     1
  0
ACDBDICTIONARYWDFLT
  5
2FF
102
{ACAD_REACTORS
330
C
102
}
330
C
100
AcDbDictionary
281
     1
  3
Normal
350
300
100
AcDbDictionaryWithDefault
340
300
  0
DICTIONARY
  5
3A0
102
{ACAD_REACTORS
330
C
102
}
330
C
100
AcDbDictionary
281
     1
  3
A0
350
3A1
  3
A1
350
3A2
  3
A2
350
3A3
  3
A3
350
3A4
  3
A4
350
3A5
  3
A5
350
3A6
  3
A6
350
3A7
  3
A7
350
3A8
  3
A8
350
3A9
  3
A9
350
3AA
  3
B0
350
3AB
  3
B1
350
3AC
  3
B2
350
3AD
  3
B3
350
3AE
  3
B4
350
3AF
  3
B5
350
3B0
  3
B6
350
3B1
  3
B7
350
3B2
  3
B8
350
3B3
  3
B9
350
3B4
  3
C0
350
3B5
  3
C1
350
3B6
  3
C2
350
3B7
  3
C3
350
3B8
  3
C4
350
3B9
  3
C5
350
3BA
  3
C6
350
3BB
  3
C7
350
3BC
  3
C8
350
3BD
  3
C9
350
3BE
  3
D0
350
3BF
  3
D1
350
3C0
  3
D2
350
3C1
  0
DICTIONARY
  5
388
102
{ACAD_REACTORS
330
C
102
}
330
C
100
AcDbDictionary
281
     1
  3
Standard
350
389
  0
DICTIONARY
  5
3C5
102
{ACAD_REACTORS
330
C
102
}
330
C
100
AcDbDictionary
281
     1
  3
2dWireframe
350
3CA
  3
3D Hidden
350
3CC
  3
3dWireframe
350
3CB
  3
Basic
350
3CD
  3
Brighten
350
3D1
  3
ColorChange
350
3D5
  3
Conceptual
350
3CF
  3
Dim
350
3D0
  3
Facepattern
350
3D4
  3
Flat
350
3C6
  3
FlatWithEdges
350
3C7
  3
Gouraud
350
3C8
  3
GouraudWithEdges
350
3C9
  3
Linepattern
350
3D3
  3
Realistic
350
3CE
  3
Thicken
350
3D2
  0
DICTIONARY
  5
663
102
{ACAD_REACTORS
330
C
102
}
330
C
100
AcDbDictionary
281
     1
  3
COLORDICT
350
664
  3
MATERIALDICT
350
665
  0
DICTIONARY
  5
357
102
{ACAD_REACTORS
330
C
102
}
330
C
100
AcDbDictionary
281
     1
  3
CANNOSCALE
350
666
  3
CTABLESTYLE
350
38D
  3
DIMASSOC
350
359
  3
HIDETEXT
350
358
  3
PROJECTNAME
350
38E
  0
LAYOUT
  5
33B
102
{ACAD_REACTORS
330
301
102
}
330
301
100
AcDbPlotSettings
  1

  2
Lexmark Optra PS2
  4

  6

 40
0.0
 41
0.0
 42
0.0
 43
0.0
 44
0.0
 45
0.0
 46
0.0
 47
0.0
 48
0.0
 49
0.0
140
0.0
141
0.0
142
1.0
143
1.0
 70
   688
 72
     0
 73
     0
 74
     5
  7
monochrome.ctb
 75
    16
147
1.0
148
0.0
149
0.0
100
AcDbLayout
  1
Layout1
 70
     1
 71
     1
 10
0.0
 20
0.0
 11
12.0
 21
9.0
 12
0.0
 22
0.0
 32
0.0
 14
0.0
 24
0.0
 34
0.0
 15
0.0
 25
0.0
 35
0.0
146
0.0
 13
0.0
 23
0.0
 33
0.0
 16
1.0
 26
0.0
 36
0.0
 17
0.0
 27
1.0
 37
0.0
 76
     0
330
338
  0
LAYOUT
  5
303
102
{ACAD_REACTORS
330
301
102
}
330
301
100
AcDbPlotSettings
  1

  2
Lexmark Optra Rx
  4
A4
  6

 40
6.805083274841307
 41
5.535083293914794
 42
6.974411010742187
 43
7.14373779296875
 44
209.9733276367186
 45
296.9259948730469
 46
0.0
 47
0.0
 48
0.0
 49
0.0
140
0.0
141
0.0
142
1.0
143
2.976565420630886
 70
 11952
 72
     1
 73
     1
 74
     0
  7
monochrome.ctb
 75
     0
147
0.335957675604539
148
204.1199660668592
149
172.3933209647495
100
AcDbLayout
  1
Model
 70
     1
 71
     0
 10
0.0
 20
0.0
 11
12.0
 21
9.0
 12
0.0
 22
0.0
 32
0.0
 14
0.0
 24
0.0
 34
0.0
 15
0.0
 25
0.0
 35
0.0
146
0.0
 13
0.0
 23
0.0
 33
0.0
 16
1.0
 26
0.0
 36
0.0
 17
0.0
 27
1.0
 37
0.0
 76
     0
330
18
331
39A
  0
MATERIAL
  5
3C3
102
{ACAD_REACTORS
330
386
102
}
102
{ACAD_XDICTIONARY
360
669
102
}
330
386
100
AcDbMaterial
  1
ByBlock
  0
MATERIAL
  5
3C2
102
{ACAD_REACTORS
330
386
102
}
102
{ACAD_XDICTIONARY
360
667
102
}
330
386
100
AcDbMaterial
  1
ByLayer
  0
MATERIAL
  5
3C4
102
{ACAD_REACTORS
330
386
102
}
102
{ACAD_XDICTIONARY
360
66B
102
}
330
386
100
AcDbMaterial
  1
Global
  0
MLINESTYLE
  5
1B
102
{ACAD_REACTORS
330
E
102
}
330
E
100
AcDbMlineStyle
  2
STANDARD
 70
     0
  3

 62
     0
 51
90.0
 52
90.0
 71
     2
 49
0.5
 62
   256
  6
BYLAYER
 49
-0.5
 62
   256
  6
BYLAYER
  0
ACDBPLACEHOLDER
  5
300
102
{ACAD_REACTORS
330
2FF
102
}
330
2FF
  0
SCALE
  5
3A1
102
{ACAD_REACTORS
330
3A0
102
}
330
3A0
100
AcDbScale
 70
     0
300
1:1
140
1.0
141
1.0
290
     1
  0
SCALE
  5
3A2
102
{ACAD_REACTORS
330
3A0
102
}
330
3A0
100
AcDbScale
 70
     0
300
1:2
140
1.0
141
2.0
290
     0
  0
SCALE
  5
3A3
102
{ACAD_REACTORS
330
3A0
102
}
330
3A0
100
AcDbScale
 70
     0
300
1:4
140
1.0
141
4.0
290
     0
  0
SCALE
  5
3A4
102
{ACAD_REACTORS
330
3A0
102
}
330
3A0
100
AcDbScale
 70
     0
300
1:5
140
1.0
141
5.0
290
     0
  0
SCALE
  5
3A5
102
{ACAD_REACTORS
330
3A0
102
}
330
3A0
100
AcDbScale
 70
     0
300
1:8
140
1.0
141
8.0
290
     0
  0
SCALE
  5
3A6
102
{ACAD_REACTORS
330
3A0
102
}
330
3A0
100
AcDbScale
 70
     0
300
1:10
140
1.0
141
10.0
290
     0
  0
SCALE
  5
3A7
102
{ACAD_REACTORS
330
3A0
102
}
330
3A0
100
AcDbScale
 70
     0
300
1:16
140
1.0
141
16.0
290
     0
  0
SCALE
  5
3A8
102
{ACAD_REACTORS
330
3A0
102
}
330
3A0
100
AcDbScale
 70
     0
300
1:20
140
1.0
141
20.0
290
     0
  0
SCALE
  5
3A9
102
{ACAD_REACTORS
330
3A0
102
}
330
3A0
100
AcDbScale
 70
     0
300
1:30
140
1.0
141
30.0
290
     0
  0
SCALE
  5
3AA
102
{ACAD_REACTORS
330
3A0
102
}
330
3A0
100
AcDbScale
 70
     0
300
1:40
140
1.0
141
40.0
290
     0
  0
SCALE
  5
3AB
102
{ACAD_REACTORS
330
3A0
102
}
330
3A0
100
AcDbScale
 70
     0
300
1:50
140
1.0
141
50.0
290
     0
  0
SCALE
  5
3AC
102
{ACAD_REACTORS
330
3A0
102
}
330
3A0
100
AcDbScale
 70
     0
300
1:100
140
1.0
141
100.0
290
     0
  0
SCALE
  5
3AD
102
{ACAD_REACTORS
330
3A0
102
}
330
3A0
100
AcDbScale
 70
     0
300
2:1
140
2.0
141
1.0
290
     0
  0
SCALE
  5
3AE
102
{ACAD_REACTORS
330
3A0
102
}
330
3A0
100
AcDbScale
 70
     0
300
4:1
140
4.0
141
1.0
290
     0
  0
SCALE
  5
3AF
102
{ACAD_REACTORS
330
3A0
102
}
330
3A0
100
AcDbScale
 70
     0
300
8:1
140
8.0
141
1.0
290
     0
  0
SCALE
  5
3B0
102
{ACAD_REACTORS
330
3A0
102
}
330
3A0
100
AcDbScale
 70
     0
300
10:1
140
10.0
141
1.0
290
     0
  0
SCALE
  5
3B1
102
{ACAD_REACTORS
330
3A0
102
}
330
3A0
100
AcDbScale
 70
     0
300
100:1
140
100.0
141
1.0
290
     0
  0
SCALE
  5
3B2
102
{ACAD_REACTORS
330
3A0
102
}
330
3A0
100
AcDbScale
 70
     0
300
1/128" = 1'-0"
140
0.0078125
141
12.0
290
     0
  0
SCALE
  5
3B3
102
{ACAD_REACTORS
330
3A0
102
}
330
3A0
100
AcDbScale
 70
     0
300
1/64" = 1'-0"
140
0.015625
141
12.0
290
     0
  0
SCALE
  5
3B4
102
{ACAD_REACTORS
330
3A0
102
}
330
3A0
100
AcDbScale
 70
     0
300
1/32" = 1'-0"
140
0.03125
141
12.0
290
     0
  0
SCALE
  5
3B5
102
{ACAD_REACTORS
330
3A0
102
}
330
3A0
100
AcDbScale
 70
     0
300
1/16" = 1'-0"
140
0.0625
141
12.0
290
     0
  0
SCALE
  5
3B6
102
{ACAD_REACTORS
330
3A0
102
}
330
3A0
100
AcDbScale
 70
     0
300
3/32" = 1'-0"
140
0.09375
141
12.0
290
     0
  0
SCALE
  5
3B7
102
{ACAD_REACTORS
330
3A0
102
}
330
3A0
100
AcDbScale
 70
     0
300
1/8" = 1'-0"
140
0.125
141
12.0
290
     0
  0
SCALE
  5
3B8
102
{ACAD_REACTORS
330
3A0
102
}
330
3A0
100
AcDbScale
 70
     0
300
3/16" = 1'-0"
140
0.1875
141
12.0
290
     0
  0
SCALE
  5
3B9
102
{ACAD_REACTORS
330
3A0
102
}
330
3A0
100
AcDbScale
 70
     0
300
1/4" = 1'-0"
140
0.25
141
12.0
290
     0
  0
SCALE
  5
3BA
102
{ACAD_REACTORS
330
3A0
102
}
330
3A0
100
AcDbScale
 70
     0
300
3/8" = 1'-0"
140
0.375
141
12.0
290
     0
  0
SCALE
  5
3BB
102
{ACAD_REACTORS
330
3A0
102
}
330
3A0
100
AcDbScale
 70
     0
300
1/2" = 1'-0"
140
0.5
141
12.0
290
     0
  0
SCALE
  5
3BC
102
{ACAD_REACTORS
330
3A0
102
}
330
3A0
100
AcDbScale
 70
     0
300
3/4" = 1'-0"
140
0.75
141
12.0
290
     0
  0
SCALE
  5
3BD
102
{ACAD_REACTORS
330
3A0
102
}
330
3A0
100
AcDbScale
 70
     0
300
1" = 1'-0"
140
1.0
141
12.0
290
     0
  0
SCALE
  5
3BE
102
{ACAD_REACTORS
330
3A0
102
}
330
3A0
100
AcDbScale
 70
     0
300
1-1/2" = 1'-0"
140
1.5
141
12.0
290
     0
  0
SCALE
  5
3BF
102
{ACAD_REACTORS
330
3A0
102
}
330
3A0
100
AcDbScale
 70
     0
300
3" = 1'-0"
140
3.0
141
12.0
290
     0
  0
SCALE
  5
3C0
102
{ACAD_REACTORS
330
3A0
102
}
330
3A0
100
AcDbScale
 70
     0
300
6" = 1'-0"
140
6.0
141
12.0
290
     0
  0
SCALE
  5
3C1
102
{ACAD_REACTORS
330
3A0
102
}
330
3A0
100
AcDbScale
 70
     0
300
1'-0" = 1'-0"
140
12.0
141
12.0
290
     0
  0
TABLESTYLE
  5
389
102
{ACAD_REACTORS
330
388
102
}
330
388
100
AcDbTableStyle
  3
Standard
 70
     0
 71
     0
 40
1.5
 41
1.5
280
     0
281
     0
  7
STANDARD
140
4.5
170
     2
 62
     0
 63
   257
283
     0
274
    -2
284
     1
 64
     0
275
    -2
285
     1
 65
     0
276
    -2
286
     1
 66
     0
277
    -2
287
     1
 67
     0
278
    -2
288
     1
 68
     0
279
    -2
289
     1
 69
     0
  7
STANDARD
140
6.0
170
     5
 62
     0
 63
   257
283
     0
274
    -2
284
     1
 64
     0
275
    -2
285
     1
 65
     0
276
    -2
286
     1
 66
     0
277
    -2
287
     1
 67
     0
278
    -2
288
     1
 68
     0
279
    -2
289
     1
 69
     0
  7
STANDARD
140
4.5
170
     5
 62
     0
 63
   257
283
     0
274
    -2
284
     1
 64
     0
275
    -2
285
     1
 65
     0
276
    -2
286
     1
 66
     0
277
    -2
287
     1
 67
     0
278
    -2
288
     1
 68
     0
279
    -2
289
     1
 69
     0
  0
VISUALSTYLE
  5
3CA
102
{ACAD_REACTORS
330
3C5
102
}
102
{ACAD_XDICTIONARY
360
675
102
}
330
3C5
100
AcDbVisualStyle
  2
2dWireframe
 70
     4
 71
     0
 72
     2
 73
     0
 90
        0
 40
-0.6
 41
-30.0
 62
     5
 63
     7
 74
     1
 91
        4
 64
     7
 65
   257
 75
     1
175
     1
 42
1.0
 92
        0
 66
   257
 43
1.0
 76
     1
 77
     6
 78
     2
 67
     7
 79
     5
170
     0
171
     0
290
     0
174
     0
 93
        1
 44
0.0
173
     0
291
     0
 45
0.0
1001
ACAD
1000
AcDbSavedByObjectVersion
1070
     0
  0
VISUALSTYLE
  5
3CC
102
{ACAD_REACTORS
330
3C5
102
}
102
{ACAD_XDICTIONARY
360
679
102
}
330
3C5
100
AcDbVisualStyle
  2
3D Hidden
 70
     6
 71
     1
 72
     2
 73
     2
 90
        0
 40
-0.6
 41
-30.0
 62
     5
 63
     7
 74
     2
 91
        2
 64
     7
 65
   257
 75
     2
175
     1
 42
40.0
 92
        0
 66
   257
 43
1.0
 76
     1
 77
     6
 78
     2
 67
     7
 79
     3
170
     0
171
     0
290
     0
174
     0
 93
        1
 44
0.0
173
     0
291
     0
 45
0.0
1001
ACAD
1000
AcDbSavedByObjectVersion
1070
     0
  0
VISUALSTYLE
  5
3CB
102
{ACAD_REACTORS
330
3C5
102
}
102
{ACAD_XDICTIONARY
360
677
102
}
330
3C5
100
AcDbVisualStyle
  2
3dWireframe
 70
     5
 71
     0
 72
     2
 73
     0
 90
        0
 40
-0.6
 41
-30.0
 62
     5
 63
     7
 74
     1
 91
        4
 64
     7
 65
   257
 75
     1
175
     1
 42
1.0
 92
        0
 66
   257
 43
1.0
 76
     1
 77
     6
 78
     2
 67
     7
 79
     5
170
     0
171
     0
290
     0
174
     0
 93
        1
 44
0.0
173
     0
291
     0
 45
0.0
1001
ACAD
1000
AcDbSavedByObjectVersion
1070
     0
  0
VISUALSTYLE
  5
3CD
102
{ACAD_REACTORS
330
3C5
102
}
102
{ACAD_XDICTIONARY
360
67B
102
}
330
3C5
100
AcDbVisualStyle
  2
Basic
 70
     7
 71
     1
 72
     0
 73
     1
 90
        0
 40
-0.6
 41
-30.0
 62
     5
 63
     7
 74
     0
 91
        4
 64
     7
 65
   257
 75
     1
175
     1
 42
1.0
 92
        8
 66
     7
 43
1.0
 76
     1
 77
     6
 78
     2
 67
     7
 79
     5
170
     0
171
     0
290
     0
174
     0
 93
        1
 44
0.0
173
     0
291
     1
 45
0.0
1001
ACAD
1000
AcDbSavedByObjectVersion
1070
     0
  0
VISUALSTYLE
  5
3D1
102
{ACAD_REACTORS
330
3C5
102
}
102
{ACAD_XDICTIONARY
360
683
102
}
330
3C5
100
AcDbVisualStyle
  2
Brighten
 70
    12
 71
     2
 72
     2
 73
     0
 90
        0
 40
-0.6
 41
-30.0
 62
     5
 63
     7
 74
     1
 91
        4
 64
     7
 65
   257
 75
     1
175
     1
 42
1.0
 92
        8
 66
     7
 43
1.0
 76
     1
 77
     6
 78
     2
 67
     7
 79
     5
170
     0
171
     0
290
     0
174
     0
 93
        1
 44
50.0
173
     0
291
     1
 45
0.0
1001
ACAD
1000
AcDbSavedByObjectVersion
1070
     0
  0
VISUALSTYLE
  5
3D5
102
{ACAD_REACTORS
330
3C5
102
}
102
{ACAD_XDICTIONARY
360
68B
102
}
330
3C5
100
AcDbVisualStyle
  2
ColorChange
 70
    16
 71
     2
 72
     2
 73
     3
 90
        0
 40
-0.6
 41
-30.0
 62
     5
 63
     8
 74
     1
 91
        4
 64
     7
 65
   257
 75
     1
175
     1
 42
1.0
 92
        8
 66
     8
 43
1.0
 76
     1
 77
     6
 78
     2
 67
     7
 79
     5
170
     0
171
     0
290
     0
174
     0
 93
        1
 44
0.0
173
     0
291
     1
 45
0.0
1001
ACAD
1000
AcDbSavedByObjectVersion
1070
     0
  0
VISUALSTYLE
  5
3CF
102
{ACAD_REACTORS
330
3C5
102
}
102
{ACAD_XDICTIONARY
360
67F
102
}
330
3C5
100
AcDbVisualStyle
  2
Conceptual
 70
     9
 71
     3
 72
     2
 73
     0
 90
        0
 40
-0.6
 41
-30.0
 62
     5
 63
     7
 74
     2
 91
        2
 64
     7
 65
   257
 75
     1
175
     1
 42
40.0
 92
        8
 66
     7
 43
1.0
 76
     1
 77
     6
 78
     2
 67
     7
 79
     3
170
     0
171
     0
290
     0
174
     0
 93
        1
 44
0.0
173
     0
291
     0
 45
0.0
1001
ACAD
1000
AcDbSavedByObjectVersion
1070
     0
  0
VISUALSTYLE
  5
3D0
102
{ACAD_REACTORS
330
3C5
102
}
102
{ACAD_XDICTIONARY
360
681
102
}
330
3C5
100
AcDbVisualStyle
  2
Dim
 70
    11
 71
     2
 72
     2
 73
     0
 90
        0
 40
-0.6
 41
-30.0
 62
     5
 63
     7
 74
     1
 91
        4
 64
     7
 65
   257
 75
     1
175
     1
 42
1.0
 92
        8
 66
     7
 43
1.0
 76
     1
 77
     6
 78
     2
 67
     7
 79
     5
170
     0
171
     0
290
     0
174
     0
 93
        1
 44
-50.0
173
     0
291
     1
 45
0.0
1001
ACAD
1000
AcDbSavedByObjectVersion
1070
     0
  0
VISUALSTYLE
  5
3D4
102
{ACAD_REACTORS
330
3C5
102
}
102
{ACAD_XDICTIONARY
360
689
102
}
330
3C5
100
AcDbVisualStyle
  2
Facepattern
 70
    15
 71
     2
 72
     2
 73
     0
 90
        0
 40
-0.6
 41
-30.0
 62
     5
 63
     7
 74
     1
 91
        4
 64
     7
 65
   257
 75
     1
175
     1
 42
1.0
 92
        8
 66
     7
 43
1.0
 76
     1
 77
     6
 78
     2
 67
     7
 79
     5
170
     0
171
     0
290
     0
174
     0
 93
        1
 44
0.0
173
     0
291
     1
 45
0.0
1001
ACAD
1000
AcDbSavedByObjectVersion
1070
     0
  0
VISUALSTYLE
  5
3C6
102
{ACAD_REACTORS
330
3C5
102
}
102
{ACAD_XDICTIONARY
360
66D
102
}
330
3C5
100
AcDbVisualStyle
  2
Flat
 70
     0
 71
     2
 72
     1
 73
     1
 90
        2
 40
-0.6
 41
30.0
 62
     5
 63
     7
 74
     0
 91
        4
 64
     7
 65
   257
 75
     1
175
     1
 42
1.0
 92
        8
 66
     7
 43
1.0
 76
     1
 77
     6
 78
     2
 67
     7
 79
     5
170
     0
171
     0
290
     0
174
     0
 93
       13
 44
0.0
173
     0
291
     1
 45
0.0
1001
ACAD
1000
AcDbSavedByObjectVersion
1070
     0
  0
VISUALSTYLE
  5
3C7
102
{ACAD_REACTORS
330
3C5
102
}
102
{ACAD_XDICTIONARY
360
66F
102
}
330
3C5
100
AcDbVisualStyle
  2
FlatWithEdges
 70
     1
 71
     2
 72
     1
 73
     1
 90
        2
 40
-0.6
 41
30.0
 62
     5
 63
     7
 74
     1
 91
        4
 64
     7
 65
   257
 75
     1
175
     1
 42
1.0
 92
        0
 66
   257
 43
1.0
 76
     1
 77
     6
 78
     2
 67
     7
 79
     5
170
     0
171
     0
290
     0
174
     0
 93
       13
 44
0.0
173
     0
291
     1
 45
0.0
1001
ACAD
1000
AcDbSavedByObjectVersion
1070
     0
  0
VISUALSTYLE
  5
3C8
102
{ACAD_REACTORS
330
3C5
102
}
102
{ACAD_XDICTIONARY
360
671
102
}
330
3C5
100
AcDbVisualStyle
  2
Gouraud
 70
     2
 71
     2
 72
     2
 73
     1
 90
        2
 40
-0.6
 41
30.0
 62
     5
 63
     7
 74
     0
 91
        4
 64
     7
 65
   257
 75
     1
175
     1
 42
1.0
 92
        0
 66
     7
 43
1.0
 76
     1
 77
     6
 78
     2
 67
     7
 79
     5
170
     0
171
     0
290
     0
174
     0
 93
       13
 44
0.0
173
     0
291
     1
 45
0.0
1001
ACAD
1000
AcDbSavedByObjectVersion
1070
     0
  0
VISUALSTYLE
  5
3C9
102
{ACAD_REACTORS
330
3C5
102
}
102
{ACAD_XDICTIONARY
360
673
102
}
330
3C5
100
AcDbVisualStyle
  2
GouraudWithEdges
 70
     3
 71
     2
 72
     2
 73
     1
 90
        2
 40
-0.6
 41
30.0
 62
     5
 63
     7
 74
     1
 91
        4
 64
     7
 65
   257
 75
     1
175
     1
 42
1.0
 92
        0
 66
   257
 43
1.0
 76
     1
 77
     6
 78
     2
 67
     7
 79
     5
170
     0
171
     0
290
     0
174
     0
 93
       13
 44
0.0
173
     0
291
     1
 45
0.0
1001
ACAD
1000
AcDbSavedByObjectVersion
1070
     0
  0
VISUALSTYLE
  5
3D3
102
{ACAD_REACTORS
330
3C5
102
}
102
{ACAD_XDICTIONARY
360
687
102
}
330
3C5
100
AcDbVisualStyle
  2
Linepattern
 70
    14
 71
     2
 72
     2
 73
     0
 90
        0
 40
-0.6
 41
-30.0
 62
     5
 63
     7
 74
     1
 91
        4
 64
     7
 65
   257
 75
     7
175
     7
 42
1.0
 92
        8
 66
     7
 43
1.0
 76
     1
 77
     6
 78
     2
 67
     7
 79
     5
170
     0
171
     0
290
     0
174
     0
 93
        1
 44
0.0
173
     0
291
     1
 45
0.0
1001
ACAD
1000
AcDbSavedByObjectVersion
1070
     0
  0
VISUALSTYLE
  5
3CE
102
{ACAD_REACTORS
330
3C5
102
}
102
{ACAD_XDICTIONARY
360
67D
102
}
330
3C5
100
AcDbVisualStyle
  2
Realistic
 70
     8
 71
     2
 72
     2
 73
     0
 90
        0
 40
-0.6
 41
-30.0
 62
     5
 63
     7
 74
     1
 91
        0
 64
     7
 65
   257
 75
     1
175
     1
 42
1.0
 92
        8
 66
     8
 43
1.0
 76
     1
 77
     6
 78
     2
 67
     7
 79
     5
170
     0
171
     0
290
     0
174
     0
 93
       13
 44
0.0
173
     0
291
     0
 45
0.0
1001
ACAD
1000
AcDbSavedByObjectVersion
1070
     0
  0
VISUALSTYLE
  5
3D2
102
{ACAD_REACTORS
330
3C5
102
}
102
{ACAD_XDICTIONARY
360
685
102
}
330
3C5
100
AcDbVisualStyle
  2
Thicken
 70
    13
 71
     2
 72
     2
 73
     0
 90
        0
 40
-0.6
 41
-30.0
 62
     5
 63
     7
 74
     1
 91
        4
 64
     7
 65
   257
 75
     1
175
     1
 42
1.0
 92
       12
 66
     7
 43
1.0
 76
     1
 77
     6
 78
     2
 67
     7
 79
     5
170
     0
171
     0
290
     0
174
     0
 93
        1
 44
0.0
173
     0
291
     1
 45
0.0
1001
ACAD
1000
AcDbSavedByObjectVersion
1070
     0
  0
XRECORD
  5
664
102
{ACAD_REACTORS
330
663
102
}
330
663
100
AcDbXrecord
280
     1
340
387
  0
XRECORD
  5
665
102
{ACAD_REACTORS
330
663
102
}
330
663
100
AcDbXrecord
280
     1
340
386
  0
DICTIONARYVAR
  5
666
102
{ACAD_REACTORS
330
357
102
}
330
357
100
DictionaryVariables
280
     0
  1
1:1
  0
DICTIONARYVAR
  5
38D
102
{ACAD_REACTORS
330
357
102
}
330
357
100
DictionaryVariables
280
     0
  1
Standard
  0
DICTIONARYVAR
  5
359
102
{ACAD_REACTORS
330
357
102
}
330
357
100
DictionaryVariables
280
     0
  1
2
  0
DICTIONARYVAR
  5
358
102
{ACAD_REACTORS
330
357
102
}
330
357
100
DictionaryVariables
280
     0
  1
1
  0
DICTIONARYVAR
  5
38E
102
{ACAD_REACTORS
330
357
102
}
330
357
100
DictionaryVariables
280
     0
  1

  0
DICTIONARY
  5
669
330
3C3
100
AcDbDictionary
280
     1
281
     1
  3
ACAD_XREC_ROUNDTRIP
360
66A
  0
DICTIONARY
  5
667
330
3C2
100
AcDbDictionary
280
     1
281
     1
  3
ACAD_XREC_ROUNDTRIP
360
668
  0
DICTIONARY
  5
66B
330
3C4
100
AcDbDictionary
280
     1
281
     1
  3
ACAD_XREC_ROUNDTRIP
360
66C
  0
DICTIONARY
  5
675
330
3CA
100
AcDbDictionary
280
     1
281
     1
  3
ACAD_XREC_ROUNDTRIP
360
676
  0
DICTIONARY
  5
679
330
3CC
100
AcDbDictionary
280
     1
281
     1
  3
ACAD_XREC_ROUNDTRIP
360
67A
  0
DICTIONARY
  5
677
330
3CB
100
AcDbDictionary
280
     1
281
     1
  3
ACAD_XREC_ROUNDTRIP
360
678
  0
DICTIONARY
  5
67B
330
3CD
100
AcDbDictionary
280
     1
281
     1
  3
ACAD_XREC_ROUNDTRIP
360
67C
  0
DICTIONARY
  5
683
330
3D1
100
AcDbDictionary
280
     1
281
     1
  3
ACAD_XREC_ROUNDTRIP
360
684
  0
DICTIONARY
  5
68B
330
3D5
100
AcDbDictionary
280
     1
281
     1
  3
ACAD_XREC_ROUNDTRIP
360
68C
  0
DICTIONARY
  5
67F
330
3CF
100
AcDbDictionary
280
     1
281
     1
  3
ACAD_XREC_ROUNDTRIP
360
680
  0
DICTIONARY
  5
681
330
3D0
100
AcDbDictionary
280
     1
281
     1
  3
ACAD_XREC_ROUNDTRIP
360
682
  0
DICTIONARY
  5
689
330
3D4
100
AcDbDictionary
280
     1
281
     1
  3
ACAD_XREC_ROUNDTRIP
360
68A
  0
DICTIONARY
  5
66D
330
3C6
100
AcDbDictionary
280
     1
281
     1
  3
ACAD_XREC_ROUNDTRIP
360
66E
  0
DICTIONARY
  5
66F
330
3C7
100
AcDbDictionary
280
     1
281
     1
  3
ACAD_XREC_ROUNDTRIP
360
670
  0
DICTIONARY
  5
671
330
3C8
100
AcDbDictionary
280
     1
281
     1
  3
ACAD_XREC_ROUNDTRIP
360
672
  0
DICTIONARY
  5
673
330
3C9
100
AcDbDictionary
280
     1
281
     1
  3
ACAD_XREC_ROUNDTRIP
360
674
  0
DICTIONARY
  5
687
330
3D3
100
AcDbDictionary
280
     1
281
     1
  3
ACAD_XREC_ROUNDTRIP
360
688
  0
DICTIONARY
  5
67D
330
3CE
100
AcDbDictionary
280
     1
281
     1
  3
ACAD_XREC_ROUNDTRIP
360
67E
  0
DICTIONARY
  5
685
330
3D2
100
AcDbDictionary
280
     1
281
     1
  3
ACAD_XREC_ROUNDTRIP
360
686
  0
XRECORD
  5
66A
102
{ACAD_REACTORS
330
669
102
}
330
669
100
AcDbXrecord
280
     1
102
MATERIAL
148
0.0
149
0.0
149
0.0
 93
        0
 94
      127
282
     0
 72
     1
 77
     1
171
     1
175
     1
179
     1
273
     0
  0
XRECORD
  5
668
102
{ACAD_REACTORS
330
667
102
}
330
667
100
AcDbXrecord
280
     1
102
MATERIAL
148
0.0
149
0.0
149
0.0
 93
        0
 94
      127
282
     0
 72
     1
 77
     1
171
     1
175
     1
179
     1
273
     0
  0
XRECORD
  5
66C
102
{ACAD_REACTORS
330
66B
102
}
330
66B
100
AcDbXrecord
280
     1
102
MATERIAL
148
0.0
149
0.0
149
0.0
 93
        0
 94
      127
282
     0
 72
     1
 77
     1
171
     1
175
     1
179
     1
273
     0
  0
XRECORD
  5
676
102
{ACAD_REACTORS
330
675
102
}
330
675
100
AcDbXrecord
280
     1
102
RTVSPropertyOp0
 70
     1
102
RTVSPropertyOp1
 70
     1
102
RTVSPropertyOp2
 70
     1
102
RTVSPropertyOp3
 70
     1
102
RTVSPropertyOp4
 70
     1
102
RTVSPropertyOp5
 70
     1
102
RTVSPropertyOp6
 70
     1
102
RTVSPropertyOp7
 70
     1
102
RTVSPropertyOp8
 70
     1
102
RTVSPropertyOp9
 70
     1
102
RTVSPropertyOp10
 70
     1
102
RTVSPropertyOp11
 70
     1
102
RTVSPropertyOp12
 70
     1
102
RTVSPropertyOp13
 70
     1
102
RTVSPropertyOp14
 70
     1
102
RTVSPropertyOp15
 70
     1
102
RTVSPropertyOp16
 70
     1
102
RTVSPropertyOp17
 70
     1
102
RTVSPropertyOp18
 70
     1
102
RTVSPropertyOp19
 70
     1
102
RTVSPropertyOp20
 70
     1
102
RTVSPropertyOp21
 70
     1
102
RTVSPropertyOp22
 70
     1
102
RTVSPropertyOp23
 70
     1
102
RTVSPropertyOp24
 70
     1
102
RTVSPropertyOp25
 70
     1
102
RTVSPropertyOp26
 70
     1
102
RTVSPropertyOp27
 70
     1
102
RTVSPropertyOp28
 70
     1
102
RTVSPropertyOp29
 70
     1
102
RTVSPropertyOp30
 70
     1
102
RTVSPropertyOp31
 70
     1
102
RTVSPropertyOp32
 70
     1
  0
XRECORD
  5
67A
102
{ACAD_REACTORS
330
679
102
}
330
679
100
AcDbXrecord
280
     1
102
RTVSPropertyOp0
 70
     1
102
RTVSPropertyOp1
 70
     1
102
RTVSPropertyOp2
 70
     1
102
RTVSPropertyOp3
 70
     1
102
RTVSPropertyOp4
 70
     1
102
RTVSPropertyOp5
 70
     1
102
RTVSPropertyOp6
 70
     1
102
RTVSPropertyOp7
 70
     1
102
RTVSPropertyOp8
 70
     1
102
RTVSPropertyOp9
 70
     1
102
RTVSPropertyOp10
 70
     1
102
RTVSPropertyOp11
 70
     1
102
RTVSPropertyOp12
 70
     1
102
RTVSPropertyOp13
 70
     1
102
RTVSPropertyOp14
 70
     1
102
RTVSPropertyOp15
 70
     1
102
RTVSPropertyOp16
 70
     1
102
RTVSPropertyOp17
 70
     1
102
RTVSPropertyOp18
 70
     1
102
RTVSPropertyOp19
 70
     1
102
RTVSPropertyOp20
 70
     1
102
RTVSPropertyOp21
 70
     1
102
RTVSPropertyOp22
 70
     1
102
RTVSPropertyOp23
 70
     1
102
RTVSPropertyOp24
 70
     1
102
RTVSPropertyOp25
 70
     1
102
RTVSPropertyOp26
 70
     1
102
RTVSPropertyOp27
 70
     1
102
RTVSPropertyOp28
 70
     1
102
RTVSPropertyOp29
 70
     1
102
RTVSPropertyOp30
 70
     1
102
RTVSPropertyOp31
 70
     1
102
RTVSPropertyOp32
 70
     1
  0
XRECORD
  5
678
102
{ACAD_REACTORS
330
677
102
}
330
677
100
AcDbXrecord
280
     1
102
RTVSPropertyOp0
 70
     1
102
RTVSPropertyOp1
 70
     1
102
RTVSPropertyOp2
 70
     1
102
RTVSPropertyOp3
 70
     1
102
RTVSPropertyOp4
 70
     1
102
RTVSPropertyOp5
 70
     1
102
RTVSPropertyOp6
 70
     1
102
RTVSPropertyOp7
 70
     1
102
RTVSPropertyOp8
 70
     1
102
RTVSPropertyOp9
 70
     1
102
RTVSPropertyOp10
 70
     1
102
RTVSPropertyOp11
 70
     1
102
RTVSPropertyOp12
 70
     1
102
RTVSPropertyOp13
 70
     1
102
RTVSPropertyOp14
 70
     1
102
RTVSPropertyOp15
 70
     1
102
RTVSPropertyOp16
 70
     1
102
RTVSPropertyOp17
 70
     1
102
RTVSPropertyOp18
 70
     1
102
RTVSPropertyOp19
 70
     1
102
RTVSPropertyOp20
 70
     1
102
RTVSPropertyOp21
 70
     1
102
RTVSPropertyOp22
 70
     1
102
RTVSPropertyOp23
 70
     1
102
RTVSPropertyOp24
 70
     1
102
RTVSPropertyOp25
 70
     1
102
RTVSPropertyOp26
 70
     1
102
RTVSPropertyOp27
 70
     1
102
RTVSPropertyOp28
 70
     1
102
RTVSPropertyOp29
 70
     1
102
RTVSPropertyOp30
 70
     1
102
RTVSPropertyOp31
 70
     1
102
RTVSPropertyOp32
 70
     1
  0
XRECORD
  5
67C
102
{ACAD_REACTORS
330
67B
102
}
330
67B
100
AcDbXrecord
280
     1
102
RTVSPropertyOp0
 70
     1
102
RTVSPropertyOp1
 70
     1
102
RTVSPropertyOp2
 70
     1
102
RTVSPropertyOp3
 70
     1
102
RTVSPropertyOp4
 70
     1
102
RTVSPropertyOp5
 70
     1
102
RTVSPropertyOp6
 70
     1
102
RTVSPropertyOp7
 70
     1
102
RTVSPropertyOp8
 70
     1
102
RTVSPropertyOp9
 70
     1
102
RTVSPropertyOp10
 70
     1
102
RTVSPropertyOp11
 70
     1
102
RTVSPropertyOp12
 70
     1
102
RTVSPropertyOp13
 70
     1
102
RTVSPropertyOp14
 70
     1
102
RTVSPropertyOp15
 70
     1
102
RTVSPropertyOp16
 70
     1
102
RTVSPropertyOp17
 70
     1
102
RTVSPropertyOp18
 70
     1
102
RTVSPropertyOp19
 70
     1
102
RTVSPropertyOp20
 70
     1
102
RTVSPropertyOp21
 70
     1
102
RTVSPropertyOp22
 70
     1
102
RTVSPropertyOp23
 70
     1
102
RTVSPropertyOp24
 70
     1
102
RTVSPropertyOp25
 70
     1
102
RTVSPropertyOp26
 70
     1
102
RTVSPropertyOp27
 70
     1
102
RTVSPropertyOp28
 70
     1
102
RTVSPropertyOp29
 70
     1
102
RTVSPropertyOp30
 70
     1
102
RTVSPropertyOp31
 70
     1
102
RTVSPropertyOp32
 70
     1
  0
XRECORD
  5
684
102
{ACAD_REACTORS
330
683
102
}
330
683
100
AcDbXrecord
280
     1
102
RTVSPropertyOp0
 70
     1
102
RTVSPropertyOp1
 70
     1
102
RTVSPropertyOp2
 70
     1
102
RTVSPropertyOp3
 70
     1
102
RTVSPropertyOp4
 70
     1
102
RTVSPropertyOp5
 70
     1
102
RTVSPropertyOp6
 70
     1
102
RTVSPropertyOp7
 70
     1
102
RTVSPropertyOp8
 70
     1
102
RTVSPropertyOp9
 70
     1
102
RTVSPropertyOp10
 70
     1
102
RTVSPropertyOp11
 70
     1
102
RTVSPropertyOp12
 70
     1
102
RTVSPropertyOp13
 70
     1
102
RTVSPropertyOp14
 70
     1
102
RTVSPropertyOp15
 70
     1
102
RTVSPropertyOp16
 70
     1
102
RTVSPropertyOp17
 70
     1
102
RTVSPropertyOp18
 70
     1
102
RTVSPropertyOp19
 70
     1
102
RTVSPropertyOp20
 70
     1
102
RTVSPropertyOp21
 70
     1
102
RTVSPropertyOp22
 70
     1
102
RTVSPropertyOp23
 70
     1
102
RTVSPropertyOp24
 70
     1
102
RTVSPropertyOp25
 70
     1
102
RTVSPropertyOp26
 70
     1
102
RTVSPropertyOp27
 70
     1
102
RTVSPropertyOp28
 70
     1
102
RTVSPropertyOp29
 70
     1
102
RTVSPropertyOp30
 70
     1
102
RTVSPropertyOp31
 70
     1
102
RTVSPropertyOp32
 70
     1
  0
XRECORD
  5
68C
102
{ACAD_REACTORS
330
68B
102
}
330
68B
100
AcDbXrecord
280
     1
102
RTVSPropertyOp0
 70
     1
102
RTVSPropertyOp1
 70
     1
102
RTVSPropertyOp2
 70
     1
102
RTVSPropertyOp3
 70
     1
102
RTVSPropertyOp4
 70
     1
102
RTVSPropertyOp5
 70
     1
102
RTVSPropertyOp6
 70
     1
102
RTVSPropertyOp7
 70
     1
102
RTVSPropertyOp8
 70
     1
102
RTVSPropertyOp9
 70
     1
102
RTVSPropertyOp10
 70
     1
102
RTVSPropertyOp11
 70
     1
102
RTVSPropertyOp12
 70
     1
102
RTVSPropertyOp13
 70
     1
102
RTVSPropertyOp14
 70
     1
102
RTVSPropertyOp15
 70
     1
102
RTVSPropertyOp16
 70
     1
102
RTVSPropertyOp17
 70
     1
102
RTVSPropertyOp18
 70
     1
102
RTVSPropertyOp19
 70
     1
102
RTVSPropertyOp20
 70
     1
102
RTVSPropertyOp21
 70
     1
102
RTVSPropertyOp22
 70
     1
102
RTVSPropertyOp23
 70
     1
102
RTVSPropertyOp24
 70
     1
102
RTVSPropertyOp25
 70
     1
102
RTVSPropertyOp26
 70
     1
102
RTVSPropertyOp27
 70
     1
102
RTVSPropertyOp28
 70
     1
102
RTVSPropertyOp29
 70
     1
102
RTVSPropertyOp30
 70
     1
102
RTVSPropertyOp31
 70
     1
102
RTVSPropertyOp32
 70
     1
  0
XRECORD
  5
680
102
{ACAD_REACTORS
330
67F
102
}
330
67F
100
AcDbXrecord
280
     1
102
RTVSPropertyOp0
 70
     1
102
RTVSPropertyOp1
 70
     1
102
RTVSPropertyOp2
 70
     1
102
RTVSPropertyOp3
 70
     1
102
RTVSPropertyOp4
 70
     1
102
RTVSPropertyOp5
 70
     1
102
RTVSPropertyOp6
 70
     1
102
RTVSPropertyOp7
 70
     1
102
RTVSPropertyOp8
 70
     1
102
RTVSPropertyOp9
 70
     1
102
RTVSPropertyOp10
 70
     1
102
RTVSPropertyOp11
 70
     1
102
RTVSPropertyOp12
 70
     1
102
RTVSPropertyOp13
 70
     1
102
RTVSPropertyOp14
 70
     1
102
RTVSPropertyOp15
 70
     1
102
RTVSPropertyOp16
 70
     1
102
RTVSPropertyOp17
 70
     1
102
RTVSPropertyOp18
 70
     1
102
RTVSPropertyOp19
 70
     1
102
RTVSPropertyOp20
 70
     1
102
RTVSPropertyOp21
 70
     1
102
RTVSPropertyOp22
 70
     1
102
RTVSPropertyOp23
 70
     1
102
RTVSPropertyOp24
 70
     1
102
RTVSPropertyOp25
 70
     1
102
RTVSPropertyOp26
 70
     1
102
RTVSPropertyOp27
 70
     1
102
RTVSPropertyOp28
 70
     1
102
RTVSPropertyOp29
 70
     1
102
RTVSPropertyOp30
 70
     1
102
RTVSPropertyOp31
 70
     1
102
RTVSPropertyOp32
 70
     1
  0
XRECORD
  5
682
102
{ACAD_REACTORS
330
681
102
}
330
681
100
AcDbXrecord
280
     1
102
RTVSPropertyOp0
 70
     1
102
RTVSPropertyOp1
 70
     1
102
RTVSPropertyOp2
 70
     1
102
RTVSPropertyOp3
 70
     1
102
RTVSPropertyOp4
 70
     1
102
RTVSPropertyOp5
 70
     1
102
RTVSPropertyOp6
 70
     1
102
RTVSPropertyOp7
 70
     1
102
RTVSPropertyOp8
 70
     1
102
RTVSPropertyOp9
 70
     1
102
RTVSPropertyOp10
 70
     1
102
RTVSPropertyOp11
 70
     1
102
RTVSPropertyOp12
 70
     1
102
RTVSPropertyOp13
 70
     1
102
RTVSPropertyOp14
 70
     1
102
RTVSPropertyOp15
 70
     1
102
RTVSPropertyOp16
 70
     1
102
RTVSPropertyOp17
 70
     1
102
RTVSPropertyOp18
 70
     1
102
RTVSPropertyOp19
 70
     1
102
RTVSPropertyOp20
 70
     1
102
RTVSPropertyOp21
 70
     1
102
RTVSPropertyOp22
 70
     1
102
RTVSPropertyOp23
 70
     1
102
RTVSPropertyOp24
 70
     1
102
RTVSPropertyOp25
 70
     1
102
RTVSPropertyOp26
 70
     1
102
RTVSPropertyOp27
 70
     1
102
RTVSPropertyOp28
 70
     1
102
RTVSPropertyOp29
 70
     1
102
RTVSPropertyOp30
 70
     1
102
RTVSPropertyOp31
 70
     1
102
RTVSPropertyOp32
 70
     1
  0
XRECORD
  5
68A
102
{ACAD_REACTORS
330
689
102
}
330
689
100
AcDbXrecord
280
     1
102
RTVSPropertyOp0
 70
     1
102
RTVSPropertyOp1
 70
     1
102
RTVSPropertyOp2
 70
     1
102
RTVSPropertyOp3
 70
     1
102
RTVSPropertyOp4
 70
     1
102
RTVSPropertyOp5
 70
     1
102
RTVSPropertyOp6
 70
     1
102
RTVSPropertyOp7
 70
     1
102
RTVSPropertyOp8
 70
     1
102
RTVSPropertyOp9
 70
     1
102
RTVSPropertyOp10
 70
     1
102
RTVSPropertyOp11
 70
     1
102
RTVSPropertyOp12
 70
     1
102
RTVSPropertyOp13
 70
     1
102
RTVSPropertyOp14
 70
     1
102
RTVSPropertyOp15
 70
     1
102
RTVSPropertyOp16
 70
     1
102
RTVSPropertyOp17
 70
     1
102
RTVSPropertyOp18
 70
     1
102
RTVSPropertyOp19
 70
     1
102
RTVSPropertyOp20
 70
     1
102
RTVSPropertyOp21
 70
     1
102
RTVSPropertyOp22
 70
     1
102
RTVSPropertyOp23
 70
     1
102
RTVSPropertyOp24
 70
     1
102
RTVSPropertyOp25
 70
     1
102
RTVSPropertyOp26
 70
     1
102
RTVSPropertyOp27
 70
     1
102
RTVSPropertyOp28
 70
     1
102
RTVSPropertyOp29
 70
     1
102
RTVSPropertyOp30
 70
     1
102
RTVSPropertyOp31
 70
     1
102
RTVSPropertyOp32
 70
     1
  0
XRECORD
  5
66E
102
{ACAD_REACTORS
330
66D
102
}
330
66D
100
AcDbXrecord
280
     1
102
RTVSPropertyOp0
 70
     1
102
RTVSPropertyOp1
 70
     1
102
RTVSPropertyOp2
 70
     1
102
RTVSPropertyOp3
 70
     1
102
RTVSPropertyOp4
 70
     1
102
RTVSPropertyOp5
 70
     1
102
RTVSPropertyOp6
 70
     1
102
RTVSPropertyOp7
 70
     1
102
RTVSPropertyOp8
 70
     1
102
RTVSPropertyOp9
 70
     1
102
RTVSPropertyOp10
 70
     1
102
RTVSPropertyOp11
 70
     1
102
RTVSPropertyOp12
 70
     1
102
RTVSPropertyOp13
 70
     1
102
RTVSPropertyOp14
 70
     1
102
RTVSPropertyOp15
 70
     1
102
RTVSPropertyOp16
 70
     1
102
RTVSPropertyOp17
 70
     1
102
RTVSPropertyOp18
 70
     1
102
RTVSPropertyOp19
 70
     1
102
RTVSPropertyOp20
 70
     1
102
RTVSPropertyOp21
 70
     1
102
RTVSPropertyOp22
 70
     1
102
RTVSPropertyOp23
 70
     1
102
RTVSPropertyOp24
 70
     1
102
RTVSPropertyOp25
 70
     1
102
RTVSPropertyOp26
 70
     1
102
RTVSPropertyOp27
 70
     1
102
RTVSPropertyOp28
 70
     1
102
RTVSPropertyOp29
 70
     1
102
RTVSPropertyOp30
 70
     1
102
RTVSPropertyOp31
 70
     1
102
RTVSPropertyOp32
 70
     1
  0
XRECORD
  5
670
102
{ACAD_REACTORS
330
66F
102
}
330
66F
100
AcDbXrecord
280
     1
102
RTVSPropertyOp0
 70
     1
102
RTVSPropertyOp1
 70
     1
102
RTVSPropertyOp2
 70
     1
102
RTVSPropertyOp3
 70
     1
102
RTVSPropertyOp4
 70
     1
102
RTVSPropertyOp5
 70
     1
102
RTVSPropertyOp6
 70
     1
102
RTVSPropertyOp7
 70
     1
102
RTVSPropertyOp8
 70
     1
102
RTVSPropertyOp9
 70
     1
102
RTVSPropertyOp10
 70
     1
102
RTVSPropertyOp11
 70
     1
102
RTVSPropertyOp12
 70
     1
102
RTVSPropertyOp13
 70
     1
102
RTVSPropertyOp14
 70
     1
102
RTVSPropertyOp15
 70
     1
102
RTVSPropertyOp16
 70
     1
102
RTVSPropertyOp17
 70
     1
102
RTVSPropertyOp18
 70
     1
102
RTVSPropertyOp19
 70
     1
102
RTVSPropertyOp20
 70
     1
102
RTVSPropertyOp21
 70
     1
102
RTVSPropertyOp22
 70
     1
102
RTVSPropertyOp23
 70
     1
102
RTVSPropertyOp24
 70
     1
102
RTVSPropertyOp25
 70
     1
102
RTVSPropertyOp26
 70
     1
102
RTVSPropertyOp27
 70
     1
102
RTVSPropertyOp28
 70
     1
102
RTVSPropertyOp29
 70
     1
102
RTVSPropertyOp30
 70
     1
102
RTVSPropertyOp31
 70
     1
102
RTVSPropertyOp32
 70
     1
  0
XRECORD
  5
672
102
{ACAD_REACTORS
330
671
102
}
330
671
100
AcDbXrecord
280
     1
102
RTVSPropertyOp0
 70
     1
102
RTVSPropertyOp1
 70
     1
102
RTVSPropertyOp2
 70
     1
102
RTVSPropertyOp3
 70
     1
102
RTVSPropertyOp4
 70
     1
102
RTVSPropertyOp5
 70
     1
102
RTVSPropertyOp6
 70
     1
102
RTVSPropertyOp7
 70
     1
102
RTVSPropertyOp8
 70
     1
102
RTVSPropertyOp9
 70
     1
102
RTVSPropertyOp10
 70
     1
102
RTVSPropertyOp11
 70
     1
102
RTVSPropertyOp12
 70
     1
102
RTVSPropertyOp13
 70
     1
102
RTVSPropertyOp14
 70
     1
102
RTVSPropertyOp15
 70
     1
102
RTVSPropertyOp16
 70
     1
102
RTVSPropertyOp17
 70
     1
102
RTVSPropertyOp18
 70
     1
102
RTVSPropertyOp19
 70
     1
102
RTVSPropertyOp20
 70
     1
102
RTVSPropertyOp21
 70
     1
102
RTVSPropertyOp22
 70
     1
102
RTVSPropertyOp23
 70
     1
102
RTVSPropertyOp24
 70
     1
102
RTVSPropertyOp25
 70
     1
102
RTVSPropertyOp26
 70
     1
102
RTVSPropertyOp27
 70
     1
102
RTVSPropertyOp28
 70
     1
102
RTVSPropertyOp29
 70
     1
102
RTVSPropertyOp30
 70
     1
102
RTVSPropertyOp31
 70
     1
102
RTVSPropertyOp32
 70
     1
  0
XRECORD
  5
674
102
{ACAD_REACTORS
330
673
102
}
330
673
100
AcDbXrecord
280
     1
102
RTVSPropertyOp0
 70
     1
102
RTVSPropertyOp1
 70
     1
102
RTVSPropertyOp2
 70
     1
102
RTVSPropertyOp3
 70
     1
102
RTVSPropertyOp4
 70
     1
102
RTVSPropertyOp5
 70
     1
102
RTVSPropertyOp6
 70
     1
102
RTVSPropertyOp7
 70
     1
102
RTVSPropertyOp8
 70
     1
102
RTVSPropertyOp9
 70
     1
102
RTVSPropertyOp10
 70
     1
102
RTVSPropertyOp11
 70
     1
102
RTVSPropertyOp12
 70
     1
102
RTVSPropertyOp13
 70
     1
102
RTVSPropertyOp14
 70
     1
102
RTVSPropertyOp15
 70
     1
102
RTVSPropertyOp16
 70
     1
102
RTVSPropertyOp17
 70
     1
102
RTVSPropertyOp18
 70
     1
102
RTVSPropertyOp19
 70
     1
102
RTVSPropertyOp20
 70
     1
102
RTVSPropertyOp21
 70
     1
102
RTVSPropertyOp22
 70
     1
102
RTVSPropertyOp23
 70
     1
102
RTVSPropertyOp24
 70
     1
102
RTVSPropertyOp25
 70
     1
102
RTVSPropertyOp26
 70
     1
102
RTVSPropertyOp27
 70
     1
102
RTVSPropertyOp28
 70
     1
102
RTVSPropertyOp29
 70
     1
102
RTVSPropertyOp30
 70
     1
102
RTVSPropertyOp31
 70
     1
102
RTVSPropertyOp32
 70
     1
  0
XRECORD
  5
688
102
{ACAD_REACTORS
330
687
102
}
330
687
100
AcDbXrecord
280
     1
102
RTVSPropertyOp0
 70
     1
102
RTVSPropertyOp1
 70
     1
102
RTVSPropertyOp2
 70
     1
102
RTVSPropertyOp3
 70
     1
102
RTVSPropertyOp4
 70
     1
102
RTVSPropertyOp5
 70
     1
102
RTVSPropertyOp6
 70
     1
102
RTVSPropertyOp7
 70
     1
102
RTVSPropertyOp8
 70
     1
102
RTVSPropertyOp9
 70
     1
102
RTVSPropertyOp10
 70
     1
102
RTVSPropertyOp11
 70
     1
102
RTVSPropertyOp12
 70
     1
102
RTVSPropertyOp13
 70
     1
102
RTVSPropertyOp14
 70
     1
102
RTVSPropertyOp15
 70
     1
102
RTVSPropertyOp16
 70
     1
102
RTVSPropertyOp17
 70
     1
102
RTVSPropertyOp18
 70
     1
102
RTVSPropertyOp19
 70
     1
102
RTVSPropertyOp20
 70
     1
102
RTVSPropertyOp21
 70
     1
102
RTVSPropertyOp22
 70
     1
102
RTVSPropertyOp23
 70
     1
102
RTVSPropertyOp24
 70
     1
102
RTVSPropertyOp25
 70
     1
102
RTVSPropertyOp26
 70
     1
102
RTVSPropertyOp27
 70
     1
102
RTVSPropertyOp28
 70
     1
102
RTVSPropertyOp29
 70
     1
102
RTVSPropertyOp30
 70
     1
102
RTVSPropertyOp31
 70
     1
102
RTVSPropertyOp32
 70
     1
  0
XRECORD
  5
67E
102
{ACAD_REACTORS
330
67D
102
}
330
67D
100
AcDbXrecord
280
     1
102
RTVSPropertyOp0
 70
     1
102
RTVSPropertyOp1
 70
     1
102
RTVSPropertyOp2
 70
     1
102
RTVSPropertyOp3
 70
     1
102
RTVSPropertyOp4
 70
     1
102
RTVSPropertyOp5
 70
     1
102
RTVSPropertyOp6
 70
     1
102
RTVSPropertyOp7
 70
     1
102
RTVSPropertyOp8
 70
     1
102
RTVSPropertyOp9
 70
     1
102
RTVSPropertyOp10
 70
     1
102
RTVSPropertyOp11
 70
     1
102
RTVSPropertyOp12
 70
     1
102
RTVSPropertyOp13
 70
     1
102
RTVSPropertyOp14
 70
     1
102
RTVSPropertyOp15
 70
     1
102
RTVSPropertyOp16
 70
     1
102
RTVSPropertyOp17
 70
     1
102
RTVSPropertyOp18
 70
     1
102
RTVSPropertyOp19
 70
     1
102
RTVSPropertyOp20
 70
     1
102
RTVSPropertyOp21
 70
     1
102
RTVSPropertyOp22
 70
     1
102
RTVSPropertyOp23
 70
     1
102
RTVSPropertyOp24
 70
     1
102
RTVSPropertyOp25
 70
     1
102
RTVSPropertyOp26
 70
     1
102
RTVSPropertyOp27
 70
     1
102
RTVSPropertyOp28
 70
     1
102
RTVSPropertyOp29
 70
     1
102
RTVSPropertyOp30
 70
     1
102
RTVSPropertyOp31
 70
     1
102
RTVSPropertyOp32
 70
     1
  0
XRECORD
  5
686
102
{ACAD_REACTORS
330
685
102
}
330
685
100
AcDbXrecord
280
     1
102
RTVSPropertyOp0
 70
     1
102
RTVSPropertyOp1
 70
     1
102
RTVSPropertyOp2
 70
     1
102
RTVSPropertyOp3
 70
     1
102
RTVSPropertyOp4
 70
     1
102
RTVSPropertyOp5
 70
     1
102
RTVSPropertyOp6
 70
     1
102
RTVSPropertyOp7
 70
     1
102
RTVSPropertyOp8
 70
     1
102
RTVSPropertyOp9
 70
     1
102
RTVSPropertyOp10
 70
     1
102
RTVSPropertyOp11
 70
     1
102
RTVSPropertyOp12
 70
     1
102
RTVSPropertyOp13
 70
     1
102
RTVSPropertyOp14
 70
     1
102
RTVSPropertyOp15
 70
     1
102
RTVSPropertyOp16
 70
     1
102
RTVSPropertyOp17
 70
     1
102
RTVSPropertyOp18
 70
     1
102
RTVSPropertyOp19
 70
     1
102
RTVSPropertyOp20
 70
     1
102
RTVSPropertyOp21
 70
     1
102
RTVSPropertyOp22
 70
     1
102
RTVSPropertyOp23
 70
     1
102
RTVSPropertyOp24
 70
     1
102
RTVSPropertyOp25
 70
     1
102
RTVSPropertyOp26
 70
     1
102
RTVSPropertyOp27
 70
     1
102
RTVSPropertyOp28
 70
     1
102
RTVSPropertyOp29
 70
     1
102
RTVSPropertyOp30
 70
     1
102
RTVSPropertyOp31
 70
     1
102
RTVSPropertyOp32
 70
     1
  0
ENDSEC
  0
EOF
