  0
SECTION
  2
HEADER
  9
$ACADVER
  1
AC1015
  9
$ACADMAINTVER
 70
     6
  9
$DWGCODEPAGE
  3
ANSI_1252
  9
$INSBASE
 10
0.0
 20
0.0
 30
0.0
  9
$EXTMIN
 10
1.000000000000000E+20
 20
1.000000000000000E+20
 30
1.000000000000000E+20
  9
$EXTMAX
 10
-1.000000000000000E+20
 20
-1.000000000000000E+20
 30
-1.000000000000000E+20
  9
$LIMMIN
 10
-170.0
 20
-170.0
  9
$LIMMAX
 10
519.0
 20
260.0
  9
$ORTHOMODE
 70
     0
  9
$REGENMODE
 70
     1
  9
$FILLMODE
 70
     1
  9
$QTEXTMODE
 70
     0
  9
$MIRRTEXT
 70
     0
  9
$LTSCALE
 40
1.0
  9
$ATTMODE
 70
     1
  9
$TEXTSIZE
 40
3.5
  9
$TRACEWID
 40
1.0
  9
$TEXTSTYLE
  7
SIMPLEX
  9
$CLAYER
  8
1
  9
$CELTYPE
  6
BYLAYER
  9
$CECOLOR
 62
   256
  9
$CELTSCALE
 40
1.0
  9
$DISPSILH
 70
     0
  9
$DIMSCALE
 40
1.0
  9
$DIMASZ
 40
2.5
  9
$DIMEXO
 40
0.0
  9
$DIMDLI
 40
3.75
  9
$DIMRND
 40
0.0
  9
$DIMDLE
 40
0.0
  9
$DIMEXE
 40
1.25
  9
$DIMTP
 40
0.0
  9
$DIMTM
 40
0.0
  9
$DIMTXT
 40
3.5
  9
$DIMCEN
 40
0.0
  9
$DIMTSZ
 40
0.0
  9
$DIMTOL
 70
     0
  9
$DIMLIM
 70
     0
  9
$DIMTIH
 70
     0
  9
$DIMTOH
 70
     0
  9
$DIMSE1
 70
     0
  9
$DIMSE2
 70
     0
  9
$DIMTAD
 70
     1
  9
$DIMZIN
 70
     8
  9
$DIMBLK
  1

  9
$DIMASO
 70
     1
  9
$DIMSHO
 70
     1
  9
$DIMPOST
  1

  9
$DIMAPOST
  1

  9
$DIMALT
 70
     0
  9
$DIMALTD
 70
     3
  9
$DIMALTF
 40
0.039370078
  9
$DIMLFAC
 40
1.0
  9
$DIMTOFL
 70
     0
  9
$DIMTVP
 40
0.0
  9
$DIMTIX
 70
     0
  9
$DIMSOXD
 70
     0
  9
$DIMSAH
 70
     0
  9
$DIMBLK1
  1

  9
$DIMBLK2
  1

  9
$DIMSTYLE
  2
STANDARD
  9
$DIMCLRD
 70
     0
  9
$DIMCLRE
 70
     0
  9
$DIMCLRT
 70
     0
  9
$DIMTFAC
 40
1.0
  9
$DIMGAP
 40
0.625
  9
$DIMJUST
 70
     0
  9
$DIMSD1
 70
     0
  9
$DIMSD2
 70
     0
  9
$DIMTOLJ
 70
     0
  9
$DIMTZIN
 70
     8
  9
$DIMALTZ
 70
     0
  9
$DIMALTTZ
 70
     0
  9
$DIMUPT
 70
     0
  9
$DIMDEC
 70
     2
  9
$DIMTDEC
 70
     2
  9
$DIMALTU
 70
     2
  9
$DIMALTTD
 70
     3
  9
$DIMTXSTY
  7
SIMPLEX
  9
$DIMAUNIT
 70
     0
  9
$DIMADEC
 70
     2
  9
$DIMALTRND
 40
0.0
  9
$DIMAZIN
 70
     2
  9
$DIMDSEP
 70
    46
  9
$DIMATFIT
 70
     3
  9
$DIMFRAC
 70
     0
  9
$DIMLDRBLK
  1

  9
$DIMLUNIT
 70
     2
  9
$DIMLWD
 70
    -2
  9
$DIMLWE
 70
    -2
  9
$DIMTMOVE
 70
     0
  9
$LUNITS
 70
     2
  9
$LUPREC
 70
     4
  9
$SKETCHINC
 40
1.0
  9
$FILLETRAD
 40
0.0
  9
$AUNITS
 70
     0
  9
$AUPREC
 70
     0
  9
$MENU
  1
c:\tdm21\cad\caduti13\tdm13
  9
$ELEVATION
 40
0.0
  9
$PELEVATION
 40
0.0
  9
$THICKNESS
 40
0.0
  9
$LIMCHECK
 70
     0
  9
$CHAMFERA
 40
0.0
  9
$CHAMFERB
 40
0.0
  9
$CHAMFERC
 40
0.0
  9
$CHAMFERD
 40
0.0
  9
$SKPOLY
 70
     0
  9
$TDCREATE
 40
2454957.593642639
  9
$TDUCREATE
 40
2454957.510309306
  9
$TDUPDATE
 40
2456860.759724989
  9
$TDUUPDATE
 40
2456860.676391655
  9
$TDINDWG
 40
0.0009643519
  9
$TDUSRTIMER
 40
0.0009475231
  9
$USRTIMER
 70
     1
  9
$ANGBASE
 50
0.0
  9
$ANGDIR
 70
     0
  9
$PDMODE
 70
     1
  9
$PDSIZE
 40
0.0
  9
$PLINEWID
 40
0.0
  9
$SPLFRAME
 70
     0
  9
$SPLINETYPE
 70
     6
  9
$SPLINESEGS
 70
     8
  9
$HANDSEED
  5
6A0
  9
$SURFTAB1
 70
     6
  9
$SURFTAB2
 70
     6
  9
$SURFTYPE
 70
     6
  9
$SURFU
 70
     6
  9
$SURFV
 70
     6
  9
$UCSBASE
  2

  9
$UCSNAME
  2

  9
$UCSORG
 10
0.0
 20
0.0
 30
0.0
  9
$UCSXDIR
 10
1.0
 20
0.0
 30
0.0
  9
$UCSYDIR
 10
0.0
 20
1.0
 30
0.0
  9
$UCSORTHOREF
  2

  9
$UCSORTHOVIEW
 70
     0
  9
$UCSORGTOP
 10
0.0
 20
0.0
 30
0.0
  9
$UCSORGBOTTOM
 10
0.0
 20
0.0
 30
0.0
  9
$UCSORGLEFT
 10
0.0
 20
0.0
 30
0.0
  9
$UCSORGRIGHT
 10
0.0
 20
0.0
 30
0.0
  9
$UCSORGFRONT
 10
0.0
 20
0.0
 30
0.0
  9
$UCSORGBACK
 10
0.0
 20
0.0
 30
0.0
  9
$PUCSBASE
  2

  9
$PUCSNAME
  2

  9
$PUCSORG
 10
0.0
 20
0.0
 30
0.0
  9
$PUCSXDIR
 10
1.0
 20
0.0
 30
0.0
  9
$PUCSYDIR
 10
0.0
 20
1.0
 30
0.0
  9
$PUCSORTHOREF
  2

  9
$PUCSORTHOVIEW
 70
     0
  9
$PUCSORGTOP
 10
0.0
 20
0.0
 30
0.0
  9
$PUCSORGBOTTOM
 10
0.0
 20
0.0
 30
0.0
  9
$PUCSORGLEFT
 10
0.0
 20
0.0
 30
0.0
  9
$PUCSORGRIGHT
 10
0.0
 20
0.0
 30
0.0
  9
$PUCSORGFRONT
 10
0.0
 20
0.0
 30
0.0
  9
$PUCSORGBACK
 10
0.0
 20
0.0
 30
0.0
  9
$USERI1
 70
     0
  9
$USERI2
 70
     0
  9
$USERI3
 70
     0
  9
$USERI4
 70
     0
  9
$USERI5
 70
     0
  9
$USERR1
 40
0.0
  9
$USERR2
 40
0.0
  9
$USERR3
 40
0.0
  9
$USERR4
 40
0.0
  9
$USERR5
 40
0.0
  9
$WORLDVIEW
 70
     1
  9
$SHADEDGE
 70
     3
  9
$SHADEDIF
 70
    70
  9
$TILEMODE
 70
     1
  9
$MAXACTVP
 70
    64
  9
$PINSBASE
 10
0.0
 20
0.0
 30
0.0
  9
$PLIMCHECK
 70
     0
  9
$PEXTMIN
 10
0.0
 20
0.0
 30
0.0
  9
$PEXTMAX
 10
0.0
 20
0.0
 30
0.0
  9
$PLIMMIN
 10
0.0
 20
0.0
  9
$PLIMMAX
 10
12.0
 20
9.0
  9
$UNITMODE
 70
     0
  9
$VISRETAIN
 70
     0
  9
$PLINEGEN
 70
     0
  9
$PSLTSCALE
 70
     1
  9
$TREEDEPTH
 70
  3020
  9
$CMLSTYLE
  2
STANDARD
  9
$CMLJUST
 70
     0
  9
$CMLSCALE
 40
20.0
  9
$PROXYGRAPHICS
 70
     1
  9
$MEASUREMENT
 70
     1
  9
$CELWEIGHT
370
    -1
  9
$ENDCAPS
280
     0
  9
$JOINSTYLE
280
     0
  9
$LWDISPLAY
290
     0
  9
$INSUNITS
 70
     4
  9
$HYPERLINKBASE
  1

  9
$STYLESHEET
  1
MONOCHROME.CTB
  9
$XEDIT
290
     1
  9
$CEPSNTYPE
380
     0
  9
$PSTYLEMODE
290
     1
  9
$FINGERPRINTGUID
  2
{46B44192-1510-48B1-B61B-CBE2ADA013A7}
  9
$VERSIONGUID
  2
{6160D478-9A74-4C97-9D8A-D4A65CE74B12}
  9
$EXTNAMES
290
     1
  9
$PSVPSCALE
 40
0.0
  9
$OLESTARTUP
290
     0
  0
ENDSEC
  0
SECTION
  2
CLASSES
  0
CLASS
  1
ACDBDICTIONARYWDFLT
  2
AcDbDictionaryWithDefault
  3
ObjectDBX Classes
 90
        0
280
     0
281
     0
  0
CLASS
  1
ACDBPLACEHOLDER
  2
AcDbPlaceHolder
  3
ObjectDBX Classes
 90
        0
280
     0
281
     0
  0
CLASS
  1
LAYOUT
  2
AcDbLayout
  3
ObjectDBX Classes
 90
        0
280
     0
281
     0
  0
CLASS
  1
DICTIONARYVAR
  2
AcDbDictionaryVar
  3
ObjectDBX Classes
 90
        0
280
     0
281
     0
  0
CLASS
  1
TABLESTYLE
  2
AcDbTableStyle
  3
ObjectDBX Classes
 90
     4095
280
     0
281
     0
  0
CLASS
  1
SCALE
  2
AcDbScale
  3
ObjectDBX Classes
 90
     1153
280
     0
281
     0
  0
CLASS
  1
MATERIAL
  2
AcDbMaterial
  3
ObjectDBX Classes
 90
     1153
280
     0
281
     0
  0
CLASS
  1
VISUALSTYLE
  2
AcDbVisualStyle
  3
ObjectDBX Classes
 90
     4095
280
     0
281
     0
  0
ENDSEC
  0
SECTION
  2
TABLES
  0
TABLE
  2
VPORT
  5
8
330
0
100
AcDbSymbolTable
 70
     1
  0
VPORT
  5
39A
330
8
100
AcDbSymbolTableRecord
100
AcDbViewportTableRecord
  2
*Active
 70
     0
 10
0.0
 20
0.0
 11
1.0
 21
1.0
 12
218.9201881351169
 22
109.7549380673833
 13
0.0
 23
0.0
 14
5.0
 24
5.0
 15
5.0
 25
5.0
 16
0.0
 26
0.0
 36
1.0
 17
0.0
 27
0.0
 37
0.0
 40
564.6711112651689
 41
1.066073697585768
 42
50.0
 43
0.0
 44
0.0
 50
0.0
 51
0.0
 71
     0
 72
  2000
 73
     1
 74
     1
 75
     0
 76
     0
 77
     0
 78
     0
281
     0
 65
     1
110
0.0
120
0.0
130
0.0
111
1.0
121
0.0
131
0.0
112
0.0
122
1.0
132
0.0
 79
     0
146
0.0
  0
ENDTAB
  0
TABLE
  2
LTYPE
  5
5
330
0
100
AcDbSymbolTable
 70
     3
  0
LTYPE
  5
12
330
5
100
AcDbSymbolTableRecord
100
AcDbLinetypeTableRecord
  2
BYBLOCK
 70
     0
  3

 72
    65
 73
     0
 40
0.0
  0
LTYPE
  5
13
330
5
100
AcDbSymbolTableRecord
100
AcDbLinetypeTableRecord
  2
BYLAYER
 70
     0
  3

 72
    65
 73
     0
 40
0.0
  0
LTYPE
  5
14
330
5
100
AcDbSymbolTableRecord
100
AcDbLinetypeTableRecord
  2
CONTINUOUS
 70
     0
  3
Solid line
 72
    65
 73
     0
 40
0.0
  0
LTYPE
  5
20
330
5
100
AcDbSymbolTableRecord
100
AcDbLinetypeTableRecord
  2
HIDDEN
 70
     0
  3
Hidden __ __ __ __ __ __ __ __ __ __ __ __ __ _
 72
    65
 73
     2
 40
9.524999999999997
 49
6.349999999999998
 74
     0
 49
-3.174999999999998
 74
     0
  0
LTYPE
  5
351
330
5
100
AcDbSymbolTableRecord
100
AcDbLinetypeTableRecord
  2
CENTER
 70
     0
  3
Dash dot __ . __ . __ . __ . __ . __ . __ . __
 72
    65
 73
     4
 40
25.4
 49
12.7
 74
     0
 49
-6.349999999999998
 74
     0
 49
0.0
 74
     0
 49
-6.349999999999998
 74
     0
  0
ENDTAB
  0
TABLE
  2
LAYER
  5
2
330
0
100
AcDbSymbolTable
 70
    16
  0
LAYER
  5
F
330
2
100
AcDbSymbolTableRecord
100
AcDbLayerTableRecord
  2
0
 70
     0
 62
     7
  6
CONTINUOUS
370
    -3
390
300
  0
LAYER
  5
23
330
2
100
AcDbSymbolTableRecord
100
AcDbLayerTableRecord
  2
1
 70
     0
 62
     4
  6
CONTINUOUS
370
    -3
390
300
  0
LAYER
  5
24
330
2
100
AcDbSymbolTableRecord
100
AcDbLayerTableRecord
  2
SK1
 70
     0
 62
     4
  6
CONTINUOUS
370
    -3
390
300
  0
LAYER
  5
25
330
2
100
AcDbSymbolTableRecord
100
AcDbLayerTableRecord
  2
2
 70
     0
 62
     7
  6
CONTINUOUS
370
    -3
390
300
  0
LAYER
  5
26
330
2
100
AcDbSymbolTableRecord
100
AcDbLayerTableRecord
  2
2L
 70
     0
 62
     7
  6
CONTINUOUS
370
    -3
390
300
  0
LAYER
  5
27
330
2
100
AcDbSymbolTableRecord
100
AcDbLayerTableRecord
  2
SK2
 70
     0
 62
     7
  6
CONTINUOUS
370
    -3
390
300
  0
LAYER
  5
28
330
2
100
AcDbSymbolTableRecord
100
AcDbLayerTableRecord
  2
3
 70
     0
 62
     1
  6
HIDDEN
370
    -3
390
300
  0
LAYER
  5
29
330
2
100
AcDbSymbolTableRecord
100
AcDbLayerTableRecord
  2
SK3
 70
     0
 62
     1
  6
HIDDEN
370
    -3
390
300
  0
LAYER
  5
2A
330
2
100
AcDbSymbolTableRecord
100
AcDbLayerTableRecord
  2
4
 70
     0
 62
     2
  6
CENTER
370
    -3
390
300
  0
LAYER
  5
2B
330
2
100
AcDbSymbolTableRecord
100
AcDbLayerTableRecord
  2
SK4
 70
     0
 62
     2
  6
CENTER
370
    -3
390
300
  0
LAYER
  5
2C
330
2
100
AcDbSymbolTableRecord
100
AcDbLayerTableRecord
  2
5
 70
     0
 62
    -7
  6
CONTINUOUS
370
    -3
390
300
  0
LAYER
  5
2D
330
2
100
AcDbSymbolTableRecord
100
AcDbLayerTableRecord
  2
6
 70
     0
 62
     5
  6
CONTINUOUS
370
    -3
390
300
  0
LAYER
  5
2E
330
2
100
AcDbSymbolTableRecord
100
AcDbLayerTableRecord
  2
SK6
 70
     0
 62
     5
  6
CONTINUOUS
370
    -3
390
300
  0
LAYER
  5
2F
330
2
100
AcDbSymbolTableRecord
100
AcDbLayerTableRecord
  2
DEFPOINTS
 70
     0
 62
     7
  6
CONTINUOUS
290
     0
370
    -3
390
300
  0
LAYER
  5
375
330
2
100
AcDbSymbolTableRecord
100
AcDbLayerTableRecord
  2
CUT
 70
     0
 62
     1
  6
CONTINUOUS
370
    -3
390
300
  0
LAYER
  5
376
330
2
100
AcDbSymbolTableRecord
100
AcDbLayerTableRecord
  2
NOCUT
 70
     0
 62
     7
  6
CONTINUOUS
370
    -3
390
300
  0
ENDTAB
  0
TABLE
  2
STYLE
  5
3
330
0
100
AcDbSymbolTable
 70
     4
  0
STYLE
  5
10
330
3
100
AcDbSymbolTableRecord
100
AcDbTextStyleTableRecord
  2
STANDARD
 70
     0
 40
0.0
 41
1.0
 50
0.0
 71
     0
 42
5.0
  3
txt
  4

  0
STYLE
  5
1D
330
3
100
AcDbSymbolTableRecord
100
AcDbTextStyleTableRecord
  2
TXT
 70
     0
 40
8.0
 41
1.0
 50
0.0
 71
     0
 42
8.0
  3
txt
  4

  0
STYLE
  5
1E
330
3
100
AcDbSymbolTableRecord
100
AcDbTextStyleTableRecord
  2
SIMPLEX
 70
     0
 40
0.0
 41
1.0
 50
0.0
 71
     0
 42
3.5
  3
simplex
  4

  0
STYLE
  5
34C
330
3
100
AcDbSymbolTableRecord
100
AcDbTextStyleTableRecord
  2

 70
     1
 40
0.0
 41
1.0
 50
0.0
 71
     0
 42
2.5
  3
ltypeshp.shx
  4

  0
ENDTAB
  0
TABLE
  2
VIEW
  5
6
330
0
100
AcDbSymbolTable
 70
     0
  0
ENDTAB
  0
TABLE
  2
UCS
  5
7
330
0
100
AcDbSymbolTable
 70
     0
  0
ENDTAB
  0
TABLE
  2
APPID
  5
9
330
0
100
AcDbSymbolTable
 70
     1
  0
APPID
  5
11
330
9
100
AcDbSymbolTableRecord
100
AcDbRegAppTableRecord
  2
ACAD
 70
     0
  0
ENDTAB
  0
TABLE
  2
DIMSTYLE
  5
A
330
0
100
AcDbSymbolTable
 70
     1
100
AcDbDimStyleTable
  0
DIMSTYLE
105
3F
102
{ACAD_REACTORS
330
631
330
63F
330
64C
330
65A
330
668
102
}
330
A
100
AcDbSymbolTableRecord
100
AcDbDimStyleTableRecord
  2
STANDARD
 70
     0
 41
2.5
 42
0.0
 43
3.75
 44
1.25
 73
     0
 74
     0
 77
     1
 78
     8
 79
     2
140
3.5
141
0.0
143
0.039370078
147
0.625
171
     3
178
     0
179
     2
271
     2
272
     2
274
     3
283
     0
284
     8
340
1E
  0
ENDTAB
  0
TABLE
  2
BLOCK_RECORD
  5
1
330
0
100
AcDbSymbolTable
 70
     5
  0
BLOCK_RECORD
  5
18
330
1
100
AcDbSymbolTableRecord
100
AcDbBlockTableRecord
  2
*MODEL_SPACE
340
303
  0
BLOCK_RECORD
  5
338
330
1
100
AcDbSymbolTableRecord
100
AcDbBlockTableRecord
  2
*Paper_Space
340
33B
  0
BLOCK_RECORD
  5
632
330
1
100
AcDbSymbolTableRecord
100
AcDbBlockTableRecord
  2
*D0
340
0
  0
BLOCK_RECORD
  5
640
330
1
100
AcDbSymbolTableRecord
100
AcDbBlockTableRecord
  2
*D1
340
0
  0
BLOCK_RECORD
  5
64D
330
1
100
AcDbSymbolTableRecord
100
AcDbBlockTableRecord
  2
*D2
340
0
  0
BLOCK_RECORD
  5
65B
330
1
100
AcDbSymbolTableRecord
100
AcDbBlockTableRecord
  2
*D3
340
0
  0
BLOCK_RECORD
  5
669
330
1
100
AcDbSymbolTableRecord
100
AcDbBlockTableRecord
  2
*D4
340
0
  0
ENDTAB
  0
ENDSEC
  0
SECTION
  2
BLOCKS
  0
BLOCK
  5
32
330
18
100
AcDbEntity
  8
0
100
AcDbBlockBegin
  2
*MODEL_SPACE
 70
     0
 10
0.0
 20
0.0
 30
0.0
  3
*MODEL_SPACE
  1

  0
ENDBLK
  5
33
330
18
100
AcDbEntity
  8
0
100
AcDbBlockEnd
  0
BLOCK
  5
339
330
338
100
AcDbEntity
 67
     1
  8
0
100
AcDbBlockBegin
  2
*Paper_Space
 70
     0
 10
0.0
 20
0.0
 30
0.0
  3
*Paper_Space
  1

  0
ENDBLK
  5
33A
330
338
100
AcDbEntity
 67
     1
  8
0
100
AcDbBlockEnd
  0
BLOCK
  5
633
330
632
100
AcDbEntity
  8
0
100
AcDbBlockBegin
  2
*D0
 70
     1
 10
0.0
 20
0.0
 30
0.0
  3
*D0
  1

  0
LINE
  5
635
330
632
100
AcDbEntity
  8
2
 62
     0
370
    -2
100
AcDbLine
 10
20.0
 20
0.5
 30
0.0
 11
36.25000000000001
 21
0.5000000000000567
 31
0.0
  0
LINE
  5
636
330
632
100
AcDbEntity
  8
2
 62
     0
370
    -2
100
AcDbLine
 10
20.0
 20
-0.5
 30
0.0
 11
36.25000000000001
 21
-0.4999999999999432
 31
0.0
  0
LINE
  5
637
330
632
100
AcDbEntity
  8
2
 62
     0
370
    -2
100
AcDbLine
 10
35.00000000000001
 20
-2.999999999999948
 30
0.0
 11
35.00000000000001
 21
-11.58699999999995
 31
0.0
  0
LINE
  5
638
330
632
100
AcDbEntity
  8
2
 62
     0
370
    -2
100
AcDbLine
 10
35.00000000000001
 20
3.000000000000052
 30
0.0
 11
35.00000000000001
 21
5.500000000000052
 31
0.0
  0
SOLID
  5
639
330
632
100
AcDbEntity
  8
2
 62
     0
100
AcDbTrace
 10
34.58333333333334
 20
3.000000000000052
 30
0.0
 11
35.41666666666667
 21
3.000000000000052
 31
0.0
 12
35.00000000000001
 22
0.5000000000000524
 32
0.0
 13
35.00000000000001
 23
0.5000000000000524
 33
0.0
  0
SOLID
  5
63A
330
632
100
AcDbEntity
  8
2
 62
     0
100
AcDbTrace
 10
35.41666666666667
 20
-2.999999999999948
 30
0.0
 11
34.58333333333334
 21
-2.999999999999948
 31
0.0
 12
35.00000000000001
 22
-0.4999999999999476
 32
0.0
 13
35.00000000000001
 23
-0.4999999999999476
 33
0.0
  0
MTEXT
  5
63B
330
632
100
AcDbEntity
  8
2
 62
     0
100
AcDbMText
 10
32.62500000000001
 20
-8.543499999999948
 30
0.0
 40
3.5
 41
0.0
 71
     5
 72
     1
  1
M1
  7
SIMPLEX
 11
0.0
 21
1.0
 31
0.0
 73
     1
 44
1.0
  0
POINT
  5
63C
330
632
100
AcDbEntity
  8
DEFPOINTS
 62
     0
100
AcDbPoint
 10
20.0
 20
0.5
 30
0.0
  0
POINT
  5
63D
330
632
100
AcDbEntity
  8
DEFPOINTS
 62
     0
100
AcDbPoint
 10
20.0
 20
-0.5
 30
0.0
  0
POINT
  5
63E
330
632
100
AcDbEntity
  8
DEFPOINTS
 62
     0
100
AcDbPoint
 10
35.00000000000001
 20
-0.4999999999999476
 30
0.0
  0
ENDBLK
  5
634
330
632
100
AcDbEntity
  8
0
100
AcDbBlockEnd
  0
BLOCK
  5
641
330
640
100
AcDbEntity
  8
0
100
AcDbBlockBegin
  2
*D1
 70
     1
 10
0.0
 20
0.0
 30
0.0
  3
*D1
  1

  0
LINE
  5
643
330
640
100
AcDbEntity
  8
2
 62
     0
370
    -2
100
AcDbLine
 10
0.0
 20
0.0
 30
0.0
 11
0.0
 21
76.25
 31
0.0
  0
LINE
  5
644
330
640
100
AcDbEntity
  8
2
 62
     0
370
    -2
100
AcDbLine
 10
20.0
 20
0.0
 30
0.0
 11
20.0
 21
76.25
 31
0.0
  0
LINE
  5
645
330
640
100
AcDbEntity
  8
2
 62
     0
370
    -2
100
AcDbLine
 10
2.5
 20
75.0
 30
0.0
 11
17.5
 21
75.0
 31
0.0
  0
SOLID
  5
646
330
640
100
AcDbEntity
  8
2
 62
     0
100
AcDbTrace
 10
2.5
 20
75.41666666666667
 30
0.0
 11
2.5
 21
74.58333333333333
 31
0.0
 12
0.0
 22
75.0
 32
0.0
 13
0.0
 23
75.0
 33
0.0
  0
SOLID
  5
647
330
640
100
AcDbEntity
  8
2
 62
     0
100
AcDbTrace
 10
17.5
 20
74.58333333333333
 30
0.0
 11
17.5
 21
75.41666666666667
 31
0.0
 12
20.0
 22
75.0
 32
0.0
 13
20.0
 23
75.0
 33
0.0
  0
MTEXT
  5
648
330
640
100
AcDbEntity
  8
2
 62
     0
100
AcDbMText
 10
10.0
 20
77.39075
 30
0.0
 40
3.5
 41
0.0
 71
     5
 72
     1
  1
20
  7
SIMPLEX
 73
     1
 44
1.0
  0
POINT
  5
649
330
640
100
AcDbEntity
  8
DEFPOINTS
 62
     0
100
AcDbPoint
 10
0.0
 20
0.0
 30
0.0
  0
POINT
  5
64A
330
640
100
AcDbEntity
  8
DEFPOINTS
 62
     0
100
AcDbPoint
 10
20.0
 20
0.0
 30
0.0
  0
POINT
  5
64B
330
640
100
AcDbEntity
  8
DEFPOINTS
 62
     0
100
AcDbPoint
 10
20.0
 20
75.0
 30
0.0
  0
ENDBLK
  5
642
330
640
100
AcDbEntity
  8
0
100
AcDbBlockEnd
  0
BLOCK
  5
64E
330
64D
100
AcDbEntity
  8
0
100
AcDbBlockBegin
  2
*D2
 70
     1
 10
0.0
 20
0.0
 30
0.0
  3
*D2
  1

  0
LINE
  5
650
330
64D
100
AcDbEntity
  8
SK2
 62
     0
370
    -2
100
AcDbLine
 10
-15.37
 20
1.25
 30
0.0
 11
-36.62000000000638
 21
1.249999999891553
 31
0.0
  0
LINE
  5
651
330
64D
100
AcDbEntity
  8
SK2
 62
     0
370
    -2
100
AcDbLine
 10
-15.37
 20
-1.25
 30
0.0
 11
-36.61999999999362
 21
-1.250000000108447
 31
0.0
  0
LINE
  5
652
330
64D
100
AcDbEntity
  8
SK2
 62
     0
370
    -2
100
AcDbLine
 10
-35.36999999998086
 20
-3.750000000102068
 30
0.0
 11
-35.36999999990608
 21
-18.39900000010207
 31
0.0
  0
LINE
  5
653
330
64D
100
AcDbEntity
  8
SK2
 62
     0
370
    -2
100
AcDbLine
 10
-35.37000000001914
 20
3.749999999897932
 30
0.0
 11
-35.3700000000319
 21
6.249999999897932
 31
0.0
  0
SOLID
  5
654
330
64D
100
AcDbEntity
  8
SK2
 62
     0
100
AcDbTrace
 10
-35.7866666666858
 20
3.749999999895805
 30
0.0
 11
-34.95333333335248
 21
3.749999999900059
 31
0.0
 12
-35.37000000000638
 22
1.249999999897932
 32
0.0
 13
-35.37000000000638
 23
1.249999999897932
 33
0.0
  0
SOLID
  5
655
330
64D
100
AcDbEntity
  8
SK2
 62
     0
100
AcDbTrace
 10
-34.95333333331419
 20
-3.750000000099941
 30
0.0
 11
-35.78666666664752
 21
-3.750000000104195
 31
0.0
 12
-35.36999999999362
 22
-1.250000000102068
 32
0.0
 13
-35.36999999999362
 23
-1.250000000102068
 33
0.0
  0
MTEXT
  5
656
330
64D
100
AcDbEntity
  8
SK2
 62
     0
100
AcDbMText
 10
-37.76774999993709
 20
-12.32450000011431
 30
0.0
 40
3.5
 41
0.0
 71
     5
 72
     1
  1
%%c2.5
  7
SIMPLEX
 11
-5.104539013700560E-12
 21
1.0
 31
0.0
 73
     1
 44
1.0
  0
POINT
  5
657
330
64D
100
AcDbEntity
  8
DEFPOINTS
 62
     0
100
AcDbPoint
 10
-15.37
 20
1.25
 30
0.0
  0
POINT
  5
658
330
64D
100
AcDbEntity
  8
DEFPOINTS
 62
     0
100
AcDbPoint
 10
-15.37
 20
-1.25
 30
0.0
  0
POINT
  5
659
330
64D
100
AcDbEntity
  8
DEFPOINTS
 62
     0
100
AcDbPoint
 10
-35.36999999999362
 20
-1.250000000102068
 30
0.0
  0
ENDBLK
  5
64F
330
64D
100
AcDbEntity
  8
0
100
AcDbBlockEnd
  0
BLOCK
  5
65C
330
65B
100
AcDbEntity
  8
0
100
AcDbBlockBegin
  2
*D3
 70
     1
 10
0.0
 20
0.0
 30
0.0
  3
*D3
  1

  0
LINE
  5
65E
330
65B
100
AcDbEntity
  8
2
 62
     0
370
    -2
100
AcDbLine
 10
15.0
 20
1.25
 30
0.0
 11
15.0
 21
61.25
 31
0.0
  0
LINE
  5
65F
330
65B
100
AcDbEntity
  8
2
 62
     0
370
    -2
100
AcDbLine
 10
20.0
 20
0.5
 30
0.0
 11
20.0
 21
61.25
 31
0.0
  0
LINE
  5
660
330
65B
100
AcDbEntity
  8
2
 62
     0
370
    -2
100
AcDbLine
 10
12.5
 20
60.0
 30
0.0
 11
10.0
 21
60.0
 31
0.0
  0
LINE
  5
661
330
65B
100
AcDbEntity
  8
2
 62
     0
370
    -2
100
AcDbLine
 10
22.5
 20
60.0
 30
0.0
 11
25.0
 21
60.0
 31
0.0
  0
SOLID
  5
662
330
65B
100
AcDbEntity
  8
2
 62
     0
100
AcDbTrace
 10
12.5
 20
59.58333333333334
 30
0.0
 11
12.5
 21
60.41666666666666
 31
0.0
 12
15.0
 22
60.0
 32
0.0
 13
15.0
 23
60.0
 33
0.0
  0
SOLID
  5
663
330
65B
100
AcDbEntity
  8
2
 62
     0
100
AcDbTrace
 10
22.5
 20
60.41666666666666
 30
0.0
 11
22.5
 21
59.58333333333334
 31
0.0
 12
20.0
 22
60.0
 32
0.0
 13
20.0
 23
60.0
 33
0.0
  0
MTEXT
  5
664
330
65B
100
AcDbEntity
  8
2
 62
     0
100
AcDbMText
 10
17.5
 20
62.39075
 30
0.0
 40
3.5
 41
0.0
 71
     5
 72
     1
  1
5
  7
SIMPLEX
 73
     1
 44
1.0
  0
POINT
  5
665
330
65B
100
AcDbEntity
  8
DEFPOINTS
 62
     0
100
AcDbPoint
 10
15.0
 20
1.25
 30
0.0
  0
POINT
  5
666
330
65B
100
AcDbEntity
  8
DEFPOINTS
 62
     0
100
AcDbPoint
 10
20.0
 20
0.5
 30
0.0
  0
POINT
  5
667
330
65B
100
AcDbEntity
  8
DEFPOINTS
 62
     0
100
AcDbPoint
 10
20.0
 20
60.0
 30
0.0
  0
ENDBLK
  5
65D
330
65B
100
AcDbEntity
  8
0
100
AcDbBlockEnd
  0
BLOCK
  5
66A
330
669
100
AcDbEntity
  8
0
100
AcDbBlockBegin
  2
*D4
 70
     1
 10
0.0
 20
0.0
 30
0.0
  3
*D4
  1

  0
LINE
  5
66C
330
669
100
AcDbEntity
  8
SK2
 62
     0
370
    -2
100
AcDbLine
 10
-20.37
 20
0.5
 30
0.0
 11
-20.37
 21
91.25
 31
0.0
  0
LINE
  5
66D
330
669
100
AcDbEntity
  8
SK2
 62
     0
370
    -2
100
AcDbLine
 10
20.0
 20
0.5
 30
0.0
 11
20.0
 21
91.25
 31
0.0
  0
LINE
  5
66E
330
669
100
AcDbEntity
  8
SK2
 62
     0
370
    -2
100
AcDbLine
 10
-17.87
 20
90.0
 30
0.0
 11
17.5
 21
90.0
 31
0.0
  0
SOLID
  5
66F
330
669
100
AcDbEntity
  8
SK2
 62
     0
100
AcDbTrace
 10
-17.87
 20
90.41666666666667
 30
0.0
 11
-17.87
 21
89.58333333333333
 31
0.0
 12
-20.37
 22
90.0
 32
0.0
 13
-20.37
 23
90.0
 33
0.0
  0
SOLID
  5
670
330
669
100
AcDbEntity
  8
SK2
 62
     0
100
AcDbTrace
 10
17.5
 20
89.58333333333333
 30
0.0
 11
17.5
 21
90.41666666666667
 31
0.0
 12
20.0
 22
90.0
 32
0.0
 13
20.0
 23
90.0
 33
0.0
  0
MTEXT
  5
671
330
669
100
AcDbEntity
  8
SK2
 62
     0
100
AcDbMText
 10
-0.1849999999999987
 20
92.438
 30
0.0
 40
3.5
 41
0.0
 71
     5
 72
     1
  1
40.37
  7
SIMPLEX
 73
     1
 44
1.0
  0
POINT
  5
672
330
669
100
AcDbEntity
  8
DEFPOINTS
 62
     0
100
AcDbPoint
 10
-20.37
 20
0.5
 30
0.0
  0
POINT
  5
673
330
669
100
AcDbEntity
  8
DEFPOINTS
 62
     0
100
AcDbPoint
 10
20.0
 20
0.5
 30
0.0
  0
POINT
  5
674
330
669
100
AcDbEntity
  8
DEFPOINTS
 62
     0
100
AcDbPoint
 10
20.0
 20
90.0
 30
0.0
  0
ENDBLK
  5
66B
330
669
100
AcDbEntity
  8
0
100
AcDbBlockEnd
  0
ENDSEC
  0
SECTION
  2
ENTITIES
  0
LINE
  5
3D6
330
18
100
AcDbEntity
  8
SK4
100
AcDbLine
 10
-22.37
 20
0.0
 30
0.0
 11
15.0
 21
0.0
 31
0.0
  0
LINE
  5
3D7
330
18
100
AcDbEntity
  8
4
100
AcDbLine
 10
13.0
 20
0.0
 30
0.0
 11
22.0
 21
0.0
 31
0.0
  0
LINE
  5
3D8
330
18
100
AcDbEntity
  8
SK4
100
AcDbLine
 10
13.0
 20
0.0
 30
0.0
 11
22.0
 21
0.0
 31
0.0
  0
LINE
  5
3D9
330
18
100
AcDbEntity
  8
1
100
AcDbLine
 10
14.875
 20
-0.5100970495895847
 30
0.0
 11
15.0
 21
-0.2861947873198638
 31
0.0
  0
LINE
  5
3DA
330
18
100
AcDbEntity
  8
1
100
AcDbLine
 10
15.0
 20
-0.30349375
 30
0.0
 11
14.875
 21
-0.52
 31
0.0
  0
LINE
  5
3DB
330
18
100
AcDbEntity
  8
1
100
AcDbLine
 10
15.0
 20
-0.6066980694961706
 30
0.0
 11
15.0
 21
-1.218215407519107
 31
0.0
  0
LINE
  5
3DC
330
18
100
AcDbEntity
  8
1
100
AcDbLine
 10
8.999999999999998
 20
-1.218215407519131
 30
0.0
 11
9.0
 21
-1.245912918305288
 31
0.0
  0
LINE
  5
3DD
330
18
100
AcDbEntity
  8
1
100
AcDbLine
 10
8.999999999999998
 20
-0.2611203455668406
 30
0.0
 11
8.999999999999998
 21
-0.606698069496171
 31
0.0
  0
LINE
  5
3DE
330
18
100
AcDbEntity
  8
1
100
AcDbLine
 10
9.0
 20
-1.218215407519132
 30
0.0
 11
15.0
 21
-1.218215407519131
 31
0.0
  0
LINE
  5
3DF
330
18
100
AcDbEntity
  8
1
100
AcDbLine
 10
9.0
 20
-1.245912918305288
 30
0.0
 11
15.0
 21
-1.245912918305288
 31
0.0
  0
LINE
  5
3E0
330
18
100
AcDbEntity
  8
1
100
AcDbLine
 10
9.0
 20
-0.6066980694961703
 30
0.0
 11
15.0
 21
-0.6066980694961706
 31
0.0
  0
LINE
  5
3E1
330
18
100
AcDbEntity
  8
1
100
AcDbLine
 10
9.0
 20
-0.2611203455668407
 30
0.0
 11
15.0
 21
-0.2611203455668464
 31
0.0
  0
LINE
  5
3E2
330
18
100
AcDbEntity
  8
1
100
AcDbLine
 10
15.0
 20
1.25
 30
0.0
 11
0.0
 21
1.25
 31
0.0
  0
LINE
  5
3E3
330
18
100
AcDbEntity
  8
1
100
AcDbLine
 10
15.0
 20
-0.3034937500000002
 30
0.0
 11
15.0
 21
-0.60669806949617
 31
0.0
  0
LINE
  5
3E4
330
18
100
AcDbEntity
  8
1
100
AcDbLine
 10
15.0
 20
-1.245912918305288
 30
0.0
 11
15.0
 21
-1.218215407519133
 31
0.0
  0
LINE
  5
3E5
330
18
100
AcDbEntity
  8
1
100
AcDbLine
 10
15.0
 20
-1.245912918305287
 30
0.0
 11
15.0
 21
-1.25
 31
0.0
  0
LINE
  5
3E6
330
18
100
AcDbEntity
  8
1
100
AcDbLine
 10
15.0
 20
1.25
 30
0.0
 11
15.0
 21
1.249597093808174
 31
0.0
  0
LINE
  5
3E7
330
18
100
AcDbEntity
  8
1
100
AcDbLine
 10
15.0
 20
1.249597093808174
 30
0.0
 11
15.0
 21
1.21492832843364
 31
0.0
  0
LINE
  5
3E8
330
18
100
AcDbEntity
  8
1
100
AcDbLine
 10
15.0
 20
1.21492832843364
 30
0.0
 11
15.0
 21
-0.2611203455677039
 31
0.0
  0
LINE
  5
3E9
330
18
100
AcDbEntity
  8
1
100
AcDbLine
 10
14.875
 20
-0.6066980694961703
 30
0.0
 11
14.875
 21
-0.5100970495895848
 31
0.0
  0
LINE
  5
3EA
330
18
100
AcDbEntity
  8
1
100
AcDbLine
 10
15.0
 20
-0.2611203455677039
 30
0.0
 11
15.0
 21
-0.282883845436722
 31
0.0
  0
LINE
  5
3EB
330
18
100
AcDbEntity
  8
1
100
AcDbLine
 10
15.0
 20
-0.2828838454367428
 30
0.0
 11
15.0
 21
-0.2861947873198432
 31
0.0
  0
LINE
  5
3EC
330
18
100
AcDbEntity
  8
1
100
AcDbLine
 10
15.0
 20
-0.30349375
 30
0.0
 11
15.0
 21
-0.3034916146049183
 31
0.0
  0
LINE
  5
3ED
330
18
100
AcDbEntity
  8
1
100
AcDbLine
 10
15.0
 20
-0.3034916146049183
 30
0.0
 11
15.0
 21
-0.302861643999997
 31
0.0
  0
LINE
  5
3EE
330
18
100
AcDbEntity
  8
1
100
AcDbLine
 10
15.0
 20
-0.302861643999997
 30
0.0
 11
15.0
 21
-0.2939753312084482
 31
0.0
  0
LINE
  5
3EF
330
18
100
AcDbEntity
  8
1
100
AcDbLine
 10
15.0
 20
-0.2939753312084482
 30
0.0
 11
15.0
 21
-0.2861947873198432
 31
0.0
  0
LINE
  5
3F0
330
18
100
AcDbEntity
  8
1
100
AcDbLine
 10
-0.0000000000000018
 20
-1.25
 30
0.0
 11
15.0
 21
-1.25
 31
0.0
  0
LINE
  5
3F1
330
18
100
AcDbEntity
  8
1
 62
     1
100
AcDbLine
 10
20.0
 20
0.00156719500875
 30
0.0
 11
20.0
 21
0.3034937470315623
 31
0.0
  0
LINE
  5
3F2
330
18
100
AcDbEntity
  8
1
 62
     1
100
AcDbLine
 10
20.0
 20
0.0015671950087488
 30
0.0
 11
20.0
 21
-0.282883845436722
 31
0.0
  0
LINE
  5
3F3
330
18
100
AcDbEntity
  8
1
 62
     1
100
AcDbLine
 10
20.0
 20
-0.2861947873198639
 30
0.0
 11
20.0
 21
-0.2828838454367221
 31
0.0
  0
LINE
  5
3F4
330
18
100
AcDbEntity
  8
1
 62
     1
100
AcDbLine
 10
20.0
 20
-0.30349375
 30
0.0
 11
20.0
 21
-0.3034899517854679
 31
0.0
  0
LINE
  5
3F5
330
18
100
AcDbEntity
  8
1
 62
     1
100
AcDbLine
 10
20.0
 20
-0.3034899517854679
 30
0.0
 11
20.0
 21
-0.3023608558607408
 31
0.0
  0
LINE
  5
3F6
330
18
100
AcDbEntity
  8
1
 62
     1
100
AcDbLine
 10
20.0
 20
-0.3023608558607408
 30
0.0
 11
20.0
 21
-0.2861947873198639
 31
0.0
  0
LINE
  5
3F7
330
18
100
AcDbEntity
  8
1
 62
     1
100
AcDbLine
 10
19.32603494270173
 20
0.4351900725065292
 30
0.0
 11
19.42975743117717
 21
0.4251573913295893
 31
0.0
  0
LINE
  5
3F8
330
18
100
AcDbEntity
  8
1
 62
     1
100
AcDbLine
 10
19.56281213952604
 20
0.4122875162660823
 30
0.0
 11
19.69454444001189
 21
0.3995455526774218
 31
0.0
  0
LINE
  5
3F9
330
18
100
AcDbEntity
  8
1
 62
     1
100
AcDbLine
 10
19.79958933635035
 20
0.3893849600256353
 30
0.0
 11
19.95933144884659
 21
0.373933714025255
 31
0.0
  0
LINE
  5
3FA
330
18
100
AcDbEntity
  8
1
 62
     1
100
AcDbLine
 10
18.36345298923241
 20
0.5
 30
0.0
 11
18.38654701076759
 21
0.5
 31
0.0
  0
LINE
  5
3FB
330
18
100
AcDbEntity
  8
1
 62
     1
100
AcDbLine
 10
18.11345298923241
 20
0.5
 30
0.0
 11
18.13654701076759
 21
0.5
 31
0.0
  0
LINE
  5
3FC
330
18
100
AcDbEntity
  8
1
 62
     1
100
AcDbLine
 10
17.86345298923241
 20
0.5
 30
0.0
 11
17.88654701076758
 21
0.5
 31
0.0
  0
LINE
  5
3FD
330
18
100
AcDbEntity
  8
1
 62
     1
100
AcDbLine
 10
16.11345298923241
 20
0.5
 30
0.0
 11
16.13654701076759
 21
0.5
 31
0.0
  0
LINE
  5
3FE
330
18
100
AcDbEntity
  8
1
 62
     1
100
AcDbLine
 10
16.36345298923241
 20
0.5
 30
0.0
 11
16.38654701076759
 21
0.5
 31
0.0
  0
LINE
  5
3FF
330
18
100
AcDbEntity
  8
1
 62
     1
100
AcDbLine
 10
15.86345298923241
 20
0.5
 30
0.0
 11
15.88654701076759
 21
0.5
 31
0.0
  0
LINE
  5
400
330
18
100
AcDbEntity
  8
1
 62
     1
100
AcDbLine
 10
15.61345298923241
 20
0.5
 30
0.0
 11
15.63654701076759
 21
0.5
 31
0.0
  0
LINE
  5
401
330
18
100
AcDbEntity
  8
1
 62
     1
100
AcDbLine
 10
20.0
 20
-0.30349375
 30
0.0
 11
19.95933144884659
 21
-0.3739337140252564
 31
0.0
  0
LINE
  5
402
330
18
100
AcDbEntity
  8
1
 62
     1
100
AcDbLine
 10
19.0
 20
-0.30349375
 30
0.0
 11
18.90018341350774
 21
-0.4763810686339185
 31
0.0
  0
LINE
  5
403
330
18
100
AcDbEntity
  8
1
 62
     1
100
AcDbLine
 10
19.56281213952604
 20
-0.4122875162660802
 30
0.0
 11
19.5
 21
-0.30349375
 31
0.0
  0
LINE
  5
404
330
18
100
AcDbEntity
  8
1
 62
     1
100
AcDbLine
 10
19.75
 20
-0.30349375
 30
0.0
 11
19.69454444001189
 21
-0.3995455526774142
 31
0.0
  0
LINE
  5
405
330
18
100
AcDbEntity
  8
1
 62
     1
100
AcDbLine
 10
17.86345298923241
 20
-0.5000000000000024
 30
0.0
 11
17.75
 21
-0.30349375
 31
0.0
  0
LINE
  5
406
330
18
100
AcDbEntity
  8
1
 62
     1
100
AcDbLine
 10
18.61345298923241
 20
-0.5000000000000024
 30
0.0
 11
18.5
 21
-0.30349375
 31
0.0
  0
LINE
  5
407
330
18
100
AcDbEntity
  8
1
 62
     1
100
AcDbLine
 10
18.11345298923241
 20
-0.5000000000000024
 30
0.0
 11
18.0
 21
-0.30349375
 31
0.0
  0
LINE
  5
408
330
18
100
AcDbEntity
  8
1
 62
     1
100
AcDbLine
 10
16.11345298923241
 20
-0.5000000000000024
 30
0.0
 11
16.0
 21
-0.30349375
 31
0.0
  0
LINE
  5
409
330
18
100
AcDbEntity
  8
1
 62
     1
100
AcDbLine
 10
17.11345298923241
 20
-0.5000000000000024
 30
0.0
 11
17.0
 21
-0.30349375
 31
0.0
  0
LINE
  5
40A
330
18
100
AcDbEntity
  8
1
 62
     1
100
AcDbLine
 10
15.36345298923241
 20
-0.4999999999999994
 30
0.0
 11
15.25
 21
-0.30349375
 31
0.0
  0
LINE
  5
40B
330
18
100
AcDbEntity
  8
1
 62
     1
100
AcDbLine
 10
15.11345298923241
 20
-0.4999999999999994
 30
0.0
 11
15.0
 21
-0.30349375
 31
0.0
  0
LINE
  5
40C
330
18
100
AcDbEntity
  8
1
 62
     1
100
AcDbLine
 10
19.75
 20
-0.2861947873198638
 30
0.0
 11
19.79958933635036
 21
-0.3760580368695295
 31
0.0
  0
LINE
  5
40D
330
18
100
AcDbEntity
  8
1
 62
     1
100
AcDbLine
 10
19.79958933635035
 20
-0.3893849600256321
 30
0.0
 11
19.75
 21
-0.30349375
 31
0.0
  0
LINE
  5
40E
330
18
100
AcDbEntity
  8
1
 62
     1
100
AcDbLine
 10
19.79958933635036
 20
-0.3760580368695304
 30
0.0
 11
19.79958933635035
 21
-0.3893849600256353
 31
0.0
  0
LINE
  5
40F
330
18
100
AcDbEntity
  8
1
 62
     1
100
AcDbLine
 10
19.95933144884659
 20
-0.3600353072751752
 30
0.0
 11
20.0
 21
-0.2861947873198638
 31
0.0
  0
LINE
  5
410
330
18
100
AcDbEntity
  8
1
 62
     1
100
AcDbLine
 10
19.95933144884659
 20
-0.3600353072751635
 30
0.0
 11
19.95933144884659
 21
-0.373933714025255
 31
0.0
  0
LINE
  5
411
330
18
100
AcDbEntity
  8
1
 62
     1
100
AcDbLine
 10
19.0
 20
-0.2861947873198638
 30
0.0
 11
19.08925774587742
 21
-0.4468197136567663
 31
0.0
  0
LINE
  5
412
330
18
100
AcDbEntity
  8
1
 62
     1
100
AcDbLine
 10
19.08925774587741
 20
-0.4580926287469764
 30
0.0
 11
19.0
 21
-0.30349375
 31
0.0
  0
LINE
  5
413
330
18
100
AcDbEntity
  8
1
 62
     1
100
AcDbLine
 10
19.08925774587741
 20
-0.446819713656768
 30
0.0
 11
19.08925774587741
 21
-0.4580926287469761
 31
0.0
  0
LINE
  5
414
330
18
100
AcDbEntity
  8
1
 62
     1
100
AcDbLine
 10
18.90018341350774
 20
-0.4655512029334663
 30
0.0
 11
19.0
 21
-0.2861947873198638
 31
0.0
  0
LINE
  5
415
330
18
100
AcDbEntity
  8
1
 62
     1
100
AcDbLine
 10
18.90018341350774
 20
-0.4655512029334192
 30
0.0
 11
18.90018341350774
 21
-0.4763810686339238
 31
0.0
  0
LINE
  5
416
330
18
100
AcDbEntity
  8
1
 62
     1
100
AcDbLine
 10
19.0
 20
-0.30349375
 30
0.0
 11
19.0
 21
-0.3034899517854678
 31
0.0
  0
LINE
  5
417
330
18
100
AcDbEntity
  8
1
 62
     1
100
AcDbLine
 10
19.0
 20
-0.3034899517854678
 30
0.0
 11
19.0
 21
-0.3023608558607394
 31
0.0
  0
LINE
  5
418
330
18
100
AcDbEntity
  8
1
 62
     1
100
AcDbLine
 10
19.0
 20
-0.3023608558607394
 30
0.0
 11
19.0
 21
-0.2861947873198432
 31
0.0
  0
LINE
  5
419
330
18
100
AcDbEntity
  8
1
 62
     1
100
AcDbLine
 10
19.16497042234245
 20
-0.4393084323096301
 30
0.0
 11
19.25
 21
-0.2861947873198638
 31
0.0
  0
LINE
  5
41A
330
18
100
AcDbEntity
  8
1
 62
     1
100
AcDbLine
 10
19.16497042234245
 20
-0.4393084323096217
 30
0.0
 11
19.16497042234245
 21
-0.4507692299817567
 31
0.0
  0
LINE
  5
41B
330
18
100
AcDbEntity
  8
1
 62
     1
100
AcDbLine
 10
19.25
 20
-0.30349375
 30
0.0
 11
19.16497042234245
 21
-0.4507692299817546
 31
0.0
  0
LINE
  5
41C
330
18
100
AcDbEntity
  8
1
 62
     1
100
AcDbLine
 10
19.25
 20
-0.2861947873198638
 30
0.0
 11
19.32603494270173
 21
-0.423307688576805
 31
0.0
  0
LINE
  5
41D
330
18
100
AcDbEntity
  8
1
 62
     1
100
AcDbLine
 10
19.25
 20
-0.30349375
 30
0.0
 11
19.25
 21
-0.3034899517854678
 31
0.0
  0
LINE
  5
41E
330
18
100
AcDbEntity
  8
1
 62
     1
100
AcDbLine
 10
19.25
 20
-0.3034899517854678
 30
0.0
 11
19.25
 21
-0.3023608558607394
 31
0.0
  0
LINE
  5
41F
330
18
100
AcDbEntity
  8
1
 62
     1
100
AcDbLine
 10
19.25
 20
-0.3023608558607394
 30
0.0
 11
19.25
 21
-0.2861947873198432
 31
0.0
  0
LINE
  5
420
330
18
100
AcDbEntity
  8
1
 62
     1
100
AcDbLine
 10
19.32603494270173
 20
-0.4351900725065283
 30
0.0
 11
19.25
 21
-0.30349375
 31
0.0
  0
LINE
  5
421
330
18
100
AcDbEntity
  8
1
 62
     1
100
AcDbLine
 10
19.32603494270172
 20
-0.423307688576803
 30
0.0
 11
19.32603494270173
 21
-0.4351900725065292
 31
0.0
  0
LINE
  5
422
330
18
100
AcDbEntity
  8
1
 62
     1
100
AcDbLine
 10
19.42975743117717
 20
-0.4129864494171449
 30
0.0
 11
19.5
 21
-0.2861947873198638
 31
0.0
  0
LINE
  5
423
330
18
100
AcDbEntity
  8
1
 62
     1
100
AcDbLine
 10
19.42975743117717
 20
-0.4129864494171452
 30
0.0
 11
19.42975743117717
 21
-0.4251573913295892
 31
0.0
  0
LINE
  5
424
330
18
100
AcDbEntity
  8
1
 62
     1
100
AcDbLine
 10
19.5
 20
-0.30349375
 30
0.0
 11
19.42975743117717
 21
-0.4251573913295844
 31
0.0
  0
LINE
  5
425
330
18
100
AcDbEntity
  8
1
 62
     1
100
AcDbLine
 10
19.5
 20
-0.2861947873198638
 30
0.0
 11
19.56281213952605
 21
-0.3997249004863895
 31
0.0
  0
LINE
  5
426
330
18
100
AcDbEntity
  8
1
 62
     1
100
AcDbLine
 10
19.5
 20
-0.30349375
 30
0.0
 11
19.5
 21
-0.3034899517854678
 31
0.0
  0
LINE
  5
427
330
18
100
AcDbEntity
  8
1
 62
     1
100
AcDbLine
 10
19.5
 20
-0.3034899517854678
 30
0.0
 11
19.50000000000001
 21
-0.3023608558607394
 31
0.0
  0
LINE
  5
428
330
18
100
AcDbEntity
  8
1
 62
     1
100
AcDbLine
 10
19.50000000000001
 20
-0.3023608558607394
 30
0.0
 11
19.5
 21
-0.2861947873198432
 31
0.0
  0
LINE
  5
429
330
18
100
AcDbEntity
  8
1
 62
     1
100
AcDbLine
 10
19.56281213952604
 20
-0.39972490048639
 30
0.0
 11
19.56281213952604
 21
-0.4122875162660822
 31
0.0
  0
LINE
  5
42A
330
18
100
AcDbEntity
  8
1
 62
     1
100
AcDbLine
 10
19.69454444001188
 20
-0.3865690736004428
 30
0.0
 11
19.75
 21
-0.2861947873198638
 31
0.0
  0
LINE
  5
42B
330
18
100
AcDbEntity
  8
1
 62
     1
100
AcDbLine
 10
19.75
 20
-0.30349375
 30
0.0
 11
19.75
 21
-0.3034899517854678
 31
0.0
  0
LINE
  5
42C
330
18
100
AcDbEntity
  8
1
 62
     1
100
AcDbLine
 10
19.75
 20
-0.3034899517854678
 30
0.0
 11
19.75
 21
-0.3023608558607394
 31
0.0
  0
LINE
  5
42D
330
18
100
AcDbEntity
  8
1
 62
     1
100
AcDbLine
 10
19.75
 20
-0.3023608558607394
 30
0.0
 11
19.75
 21
-0.2861947873198432
 31
0.0
  0
LINE
  5
42E
330
18
100
AcDbEntity
  8
1
 62
     1
100
AcDbLine
 10
19.95933144884659
 20
0.0168043778551031
 30
0.0
 11
19.79958933635029
 21
0.0178712531941934
 31
0.0
  0
LINE
  5
42F
330
18
100
AcDbEntity
  8
1
 62
     1
100
AcDbLine
 10
19.95933144884659
 20
0.373933714025255
 30
0.0
 11
19.95933144884659
 21
0.3738473282166273
 31
0.0
  0
LINE
  5
430
330
18
100
AcDbEntity
  8
1
 62
     1
100
AcDbLine
 10
19.95933144884659
 20
0.3738473282166273
 30
0.0
 11
19.95933144884659
 21
0.3664841628876078
 31
0.0
  0
LINE
  5
431
330
18
100
AcDbEntity
  8
1
 62
     1
100
AcDbLine
 10
19.95933144884659
 20
0.3664841628876078
 30
0.0
 11
19.9593314488466
 21
0.0168043778551936
 31
0.0
  0
LINE
  5
432
330
18
100
AcDbEntity
  8
1
 62
     1
100
AcDbLine
 10
19.79958933635035
 20
0.3893849600256353
 30
0.0
 11
19.79958933635035
 21
0.389295128695651
 31
0.0
  0
LINE
  5
433
330
18
100
AcDbEntity
  8
1
 62
     1
100
AcDbLine
 10
19.79958933635035
 20
0.389295128695651
 30
0.0
 11
19.79958933635035
 21
0.3816385670217307
 31
0.0
  0
LINE
  5
434
330
18
100
AcDbEntity
  8
1
 62
     1
100
AcDbLine
 10
19.79958933635035
 20
0.3816385670217307
 30
0.0
 11
19.79958933635035
 21
0.017871253193957
 31
0.0
  0
LINE
  5
435
330
18
100
AcDbEntity
  8
1
 62
     1
100
AcDbLine
 10
19.6945444402587
 20
0.0181408398395905
 30
0.0
 11
19.66453345428711
 21
0.018154855070717
 31
0.0
  0
LINE
  5
436
330
18
100
AcDbEntity
  8
1
 62
     1
100
AcDbLine
 10
19.69454444001189
 20
0.3995455526774218
 30
0.0
 11
19.69454444001189
 21
0.399453311809646
 31
0.0
  0
LINE
  5
437
330
18
100
AcDbEntity
  8
1
 62
     1
100
AcDbLine
 10
19.69454444001189
 20
0.399453311809646
 30
0.0
 11
19.69454444001188
 21
0.3915912279657354
 31
0.0
  0
LINE
  5
438
330
18
100
AcDbEntity
  8
1
 62
     1
100
AcDbLine
 10
19.69454444001188
 20
0.3915912279657354
 30
0.0
 11
19.69454444001188
 21
0.0181408363919591
 31
0.0
  0
LINE
  5
439
330
18
100
AcDbEntity
  8
1
 62
     1
100
AcDbLine
 10
19.56281213952604
 20
0.4122875162660822
 30
0.0
 11
19.56281213952604
 21
0.4121920918410281
 31
0.0
  0
LINE
  5
43A
330
18
100
AcDbEntity
  8
1
 62
     1
100
AcDbLine
 10
19.56281213952604
 20
0.4121920918410281
 30
0.0
 11
19.56281213952604
 21
0.4040581015690862
 31
0.0
  0
LINE
  5
43B
330
18
100
AcDbEntity
  8
1
 62
     1
100
AcDbLine
 10
19.56281213952604
 20
0.4040581015690862
 30
0.0
 11
19.56281213952604
 21
0.0179934697304055
 31
0.0
  0
LINE
  5
43C
330
18
100
AcDbEntity
  8
1
 62
     1
100
AcDbLine
 10
19.08925774587742
 20
0.4580926287469762
 30
0.0
 11
19.16497042234246
 21
0.4507692299817567
 31
0.0
  0
LINE
  5
43D
330
18
100
AcDbEntity
  8
1
 62
     1
100
AcDbLine
 10
18.8524805490531
 20
0.4809951849874234
 30
0.0
 11
18.90018341350774
 21
0.4763810686339238
 31
0.0
  0
LINE
  5
43E
330
18
100
AcDbEntity
  8
1
 62
     1
100
AcDbLine
 10
18.61345298923241
 20
0.5
 30
0.0
 11
18.63654701076759
 21
0.5
 31
0.0
  0
LINE
  5
43F
330
18
100
AcDbEntity
  8
1
 62
     1
100
AcDbLine
 10
18.13654701076759
 20
0.5
 30
0.0
 11
18.13654701076759
 21
0.4998774384680901
 31
0.0
  0
LINE
  5
440
330
18
100
AcDbEntity
  8
1
 62
     1
100
AcDbLine
 10
18.13654701076759
 20
0.4998774384680901
 30
0.0
 11
18.13654701076759
 21
0.4894138988962598
 31
0.0
  0
LINE
  5
441
330
18
100
AcDbEntity
  8
1
 62
     1
100
AcDbLine
 10
18.13654701076759
 20
0.4894138988962598
 30
0.0
 11
18.13654701076759
 21
0.0017712048222033
 31
0.0
  0
LINE
  5
442
330
18
100
AcDbEntity
  8
1
 62
     1
100
AcDbLine
 10
17.88654701076759
 20
0.0017712048222033
 30
0.0
 11
17.86345298923242
 21
0.0017712048222033
 31
0.0
  0
LINE
  5
443
330
18
100
AcDbEntity
  8
1
 62
     1
100
AcDbLine
 10
17.63654701076759
 20
0.0017712048222033
 30
0.0
 11
17.6134529892324
 21
0.0017712048222033
 31
0.0
  0
LINE
  5
444
330
18
100
AcDbEntity
  8
1
 62
     1
100
AcDbLine
 10
17.61345298923241
 20
0.5
 30
0.0
 11
17.63654701076759
 21
0.5
 31
0.0
  0
LINE
  5
445
330
18
100
AcDbEntity
  8
1
 62
     1
100
AcDbLine
 10
17.38654701076759
 20
0.5
 30
0.0
 11
17.38654701076759
 21
0.4998774384680901
 31
0.0
  0
LINE
  5
446
330
18
100
AcDbEntity
  8
1
 62
     1
100
AcDbLine
 10
17.38654701076759
 20
0.4998774384680901
 30
0.0
 11
17.38654701076759
 21
0.4894138988962598
 31
0.0
  0
LINE
  5
447
330
18
100
AcDbEntity
  8
1
 62
     1
100
AcDbLine
 10
17.38654701076759
 20
0.4894138988962598
 30
0.0
 11
17.38654701076759
 21
0.0017712048222033
 31
0.0
  0
LINE
  5
448
330
18
100
AcDbEntity
  8
1
 62
     1
100
AcDbLine
 10
17.36345298923241
 20
0.5
 30
0.0
 11
17.38654701076759
 21
0.5
 31
0.0
  0
LINE
  5
449
330
18
100
AcDbEntity
  8
1
 62
     1
100
AcDbLine
 10
17.13654701076759
 20
0.0017712048222033
 30
0.0
 11
17.11345298923242
 21
0.0017712048222033
 31
0.0
  0
LINE
  5
44A
330
18
100
AcDbEntity
  8
1
 62
     1
100
AcDbLine
 10
17.11345298923241
 20
0.5
 30
0.0
 11
17.13654701076759
 21
0.5
 31
0.0
  0
LINE
  5
44B
330
18
100
AcDbEntity
  8
1
 62
     1
100
AcDbLine
 10
17.11345298923241
 20
0.5
 30
0.0
 11
17.11345298923241
 21
0.4998774384680901
 31
0.0
  0
LINE
  5
44C
330
18
100
AcDbEntity
  8
1
 62
     1
100
AcDbLine
 10
17.11345298923241
 20
0.4998774384680901
 30
0.0
 11
17.11345298923241
 21
0.4894138988962598
 31
0.0
  0
LINE
  5
44D
330
18
100
AcDbEntity
  8
1
 62
     1
100
AcDbLine
 10
17.11345298923241
 20
0.4894138988962598
 30
0.0
 11
17.11345298923242
 21
0.0017712048222033
 31
0.0
  0
LINE
  5
44E
330
18
100
AcDbEntity
  8
1
 62
     1
100
AcDbLine
 10
16.86345298923241
 20
0.5
 30
0.0
 11
16.88654701076759
 21
0.5
 31
0.0
  0
LINE
  5
44F
330
18
100
AcDbEntity
  8
1
 62
     1
100
AcDbLine
 10
16.63654701076759
 20
0.0017712048222033
 30
0.0
 11
16.61345298923241
 21
0.0017712048222033
 31
0.0
  0
LINE
  5
450
330
18
100
AcDbEntity
  8
1
 62
     1
100
AcDbLine
 10
16.61345298923241
 20
0.5
 30
0.0
 11
16.63654701076759
 21
0.5
 31
0.0
  0
LINE
  5
451
330
18
100
AcDbEntity
  8
1
 62
     1
100
AcDbLine
 10
16.38654701076759
 20
0.5
 30
0.0
 11
16.38654701076759
 21
0.4998774384680901
 31
0.0
  0
LINE
  5
452
330
18
100
AcDbEntity
  8
1
 62
     1
100
AcDbLine
 10
16.38654701076759
 20
0.4998774384680901
 30
0.0
 11
16.38654701076759
 21
0.4894138988962598
 31
0.0
  0
LINE
  5
453
330
18
100
AcDbEntity
  8
1
 62
     1
100
AcDbLine
 10
16.38654701076759
 20
0.4894138988962598
 30
0.0
 11
16.38654701076759
 21
0.0017712048222033
 31
0.0
  0
LINE
  5
454
330
18
100
AcDbEntity
  8
1
 62
     1
100
AcDbLine
 10
15.61345298923241
 20
0.5
 30
0.0
 11
15.61345298923241
 21
0.4998774384680901
 31
0.0
  0
LINE
  5
455
330
18
100
AcDbEntity
  8
1
 62
     1
100
AcDbLine
 10
15.61345298923241
 20
0.4998774384680901
 30
0.0
 11
15.61345298923241
 21
0.4894138988962598
 31
0.0
  0
LINE
  5
456
330
18
100
AcDbEntity
  8
1
 62
     1
100
AcDbLine
 10
15.61345298923241
 20
0.4894138988962598
 30
0.0
 11
15.61345298923241
 21
0.0017712048222032
 31
0.0
  0
LINE
  5
457
330
18
100
AcDbEntity
  8
1
 62
     1
100
AcDbLine
 10
15.38654701076758
 20
0.0017712048222032
 30
0.0
 11
15.36345298923241
 21
0.0017712048222032
 31
0.0
  0
LINE
  5
458
330
18
100
AcDbEntity
  8
1
 62
     1
100
AcDbLine
 10
15.36345298923241
 20
0.5
 30
0.0
 11
15.38654701076759
 21
0.5
 31
0.0
  0
LINE
  5
459
330
18
100
AcDbEntity
  8
1
 62
     1
100
AcDbLine
 10
15.11345298923241
 20
0.5
 30
0.0
 11
15.13654701076759
 21
0.5
 31
0.0
  0
LINE
  5
45A
330
18
100
AcDbEntity
  8
1
 62
     1
100
AcDbLine
 10
17.5
 20
-0.2861947873198638
 30
0.0
 11
17.61345298923241
 21
-0.489692760820495
 31
0.0
  0
LINE
  5
45B
330
18
100
AcDbEntity
  8
1
 62
     1
100
AcDbLine
 10
17.5
 20
-0.30349375
 30
0.0
 11
17.5
 21
-0.3034899517854678
 31
0.0
  0
LINE
  5
45C
330
18
100
AcDbEntity
  8
1
 62
     1
100
AcDbLine
 10
17.5
 20
-0.3034899517854678
 30
0.0
 11
17.5
 21
-0.3023608558607394
 31
0.0
  0
LINE
  5
45D
330
18
100
AcDbEntity
  8
1
 62
     1
100
AcDbLine
 10
17.5
 20
-0.3023608558607394
 30
0.0
 11
17.5
 21
-0.2861947873198432
 31
0.0
  0
LINE
  5
45E
330
18
100
AcDbEntity
  8
1
 62
     1
100
AcDbLine
 10
17.61345298923241
 20
-0.4999999999999963
 30
0.0
 11
17.5
 21
-0.30349375
 31
0.0
  0
LINE
  5
45F
330
18
100
AcDbEntity
  8
1
 62
     1
100
AcDbLine
 10
17.61345298923241
 20
-0.4896927608204958
 30
0.0
 11
17.61345298923241
 21
-0.5
 31
0.0
  0
LINE
  5
460
330
18
100
AcDbEntity
  8
1
 62
     1
100
AcDbLine
 10
17.38654701076759
 20
-0.4896927608204983
 30
0.0
 11
17.5
 21
-0.2861947873198638
 31
0.0
  0
LINE
  5
461
330
18
100
AcDbEntity
  8
1
 62
     1
100
AcDbLine
 10
17.38654701076759
 20
-0.4896927608204958
 30
0.0
 11
17.38654701076759
 21
-0.5
 31
0.0
  0
LINE
  5
462
330
18
100
AcDbEntity
  8
1
 62
     1
100
AcDbLine
 10
17.5
 20
-0.30349375
 30
0.0
 11
17.38654701076759
 21
-0.5000000000000024
 31
0.0
  0
LINE
  5
463
330
18
100
AcDbEntity
  8
1
 62
     1
100
AcDbLine
 10
17.25
 20
-0.2861947873198638
 30
0.0
 11
17.36345298923241
 21
-0.489692760820495
 31
0.0
  0
LINE
  5
464
330
18
100
AcDbEntity
  8
1
 62
     1
100
AcDbLine
 10
17.25
 20
-0.30349375
 30
0.0
 11
17.25
 21
-0.3034899517854678
 31
0.0
  0
LINE
  5
465
330
18
100
AcDbEntity
  8
1
 62
     1
100
AcDbLine
 10
17.25
 20
-0.3034899517854678
 30
0.0
 11
17.25
 21
-0.3023608558607394
 31
0.0
  0
LINE
  5
466
330
18
100
AcDbEntity
  8
1
 62
     1
100
AcDbLine
 10
17.25
 20
-0.3023608558607394
 30
0.0
 11
17.25
 21
-0.2861947873198432
 31
0.0
  0
LINE
  5
467
330
18
100
AcDbEntity
  8
1
 62
     1
100
AcDbLine
 10
17.36345298923241
 20
-0.4999999999999963
 30
0.0
 11
17.25
 21
-0.30349375
 31
0.0
  0
LINE
  5
468
330
18
100
AcDbEntity
  8
1
 62
     1
100
AcDbLine
 10
17.36345298923241
 20
-0.4896927608204958
 30
0.0
 11
17.36345298923241
 21
-0.5
 31
0.0
  0
LINE
  5
469
330
18
100
AcDbEntity
  8
1
 62
     1
100
AcDbLine
 10
17.13654701076759
 20
-0.4896927608204983
 30
0.0
 11
17.25
 21
-0.2861947873198638
 31
0.0
  0
LINE
  5
46A
330
18
100
AcDbEntity
  8
1
 62
     1
100
AcDbLine
 10
17.13654701076758
 20
-0.4896927608204958
 30
0.0
 11
17.13654701076759
 21
-0.5
 31
0.0
  0
LINE
  5
46B
330
18
100
AcDbEntity
  8
1
 62
     1
100
AcDbLine
 10
17.25
 20
-0.30349375
 30
0.0
 11
17.13654701076759
 21
-0.5000000000000024
 31
0.0
  0
LINE
  5
46C
330
18
100
AcDbEntity
  8
1
 62
     1
100
AcDbLine
 10
17.0
 20
-0.2861947873198638
 30
0.0
 11
17.11345298923241
 21
-0.4896927608204984
 31
0.0
  0
LINE
  5
46D
330
18
100
AcDbEntity
  8
1
 62
     1
100
AcDbLine
 10
17.11345298923241
 20
-0.4896927608204958
 30
0.0
 11
17.11345298923241
 21
-0.5
 31
0.0
  0
LINE
  5
46E
330
18
100
AcDbEntity
  8
1
 62
     1
100
AcDbLine
 10
16.88654701076759
 20
-0.4896927608204983
 30
0.0
 11
17.0
 21
-0.2861947873198638
 31
0.0
  0
LINE
  5
46F
330
18
100
AcDbEntity
  8
1
 62
     1
100
AcDbLine
 10
16.88654701076759
 20
-0.4896927608204958
 30
0.0
 11
16.88654701076759
 21
-0.5
 31
0.0
  0
LINE
  5
470
330
18
100
AcDbEntity
  8
1
 62
     1
100
AcDbLine
 10
17.0
 20
-0.30349375
 30
0.0
 11
16.88654701076759
 21
-0.5000000000000024
 31
0.0
  0
LINE
  5
471
330
18
100
AcDbEntity
  8
1
 62
     1
100
AcDbLine
 10
17.0
 20
-0.30349375
 30
0.0
 11
17.0
 21
-0.3034899517854678
 31
0.0
  0
LINE
  5
472
330
18
100
AcDbEntity
  8
1
 62
     1
100
AcDbLine
 10
17.0
 20
-0.3034899517854678
 30
0.0
 11
17.0
 21
-0.3023608558607394
 31
0.0
  0
LINE
  5
473
330
18
100
AcDbEntity
  8
1
 62
     1
100
AcDbLine
 10
17.0
 20
-0.3023608558607394
 30
0.0
 11
17.0
 21
-0.2861947873198432
 31
0.0
  0
LINE
  5
474
330
18
100
AcDbEntity
  8
1
 62
     1
100
AcDbLine
 10
17.88654701076759
 20
-0.4896927608204983
 30
0.0
 11
18.0
 21
-0.2861947873198638
 31
0.0
  0
LINE
  5
475
330
18
100
AcDbEntity
  8
1
 62
     1
100
AcDbLine
 10
17.88654701076759
 20
-0.4896927608204958
 30
0.0
 11
17.88654701076759
 21
-0.5
 31
0.0
  0
LINE
  5
476
330
18
100
AcDbEntity
  8
1
 62
     1
100
AcDbLine
 10
18.0
 20
-0.30349375
 30
0.0
 11
17.88654701076759
 21
-0.5000000000000024
 31
0.0
  0
LINE
  5
477
330
18
100
AcDbEntity
  8
1
 62
     1
100
AcDbLine
 10
18.75
 20
-0.2861947873198638
 30
0.0
 11
18.85248054905311
 21
-0.4702715895959312
 31
0.0
  0
LINE
  5
478
330
18
100
AcDbEntity
  8
1
 62
     1
100
AcDbLine
 10
18.75
 20
-0.30349375
 30
0.0
 11
18.75
 21
-0.3034899517854678
 31
0.0
  0
LINE
  5
479
330
18
100
AcDbEntity
  8
1
 62
     1
100
AcDbLine
 10
18.75
 20
-0.3034899517854678
 30
0.0
 11
18.75
 21
-0.3023608558607394
 31
0.0
  0
LINE
  5
47A
330
18
100
AcDbEntity
  8
1
 62
     1
100
AcDbLine
 10
18.75
 20
-0.3023608558607394
 30
0.0
 11
18.75
 21
-0.2861947873198432
 31
0.0
  0
LINE
  5
47B
330
18
100
AcDbEntity
  8
1
 62
     1
100
AcDbLine
 10
18.8524805490531
 20
-0.4809951849874184
 30
0.0
 11
18.75
 21
-0.30349375
 31
0.0
  0
LINE
  5
47C
330
18
100
AcDbEntity
  8
1
 62
     1
100
AcDbLine
 10
18.8524805490531
 20
-0.4702715895958702
 30
0.0
 11
18.8524805490531
 21
-0.4809951849874234
 31
0.0
  0
LINE
  5
47D
330
18
100
AcDbEntity
  8
1
 62
     1
100
AcDbLine
 10
18.63654701076759
 20
-0.4896927608204951
 30
0.0
 11
18.75
 21
-0.2861947873198638
 31
0.0
  0
LINE
  5
47E
330
18
100
AcDbEntity
  8
1
 62
     1
100
AcDbLine
 10
18.63654701076759
 20
-0.489692760820339
 30
0.0
 11
18.63654701076759
 21
-0.5
 31
0.0
  0
LINE
  5
47F
330
18
100
AcDbEntity
  8
1
 62
     1
100
AcDbLine
 10
18.75
 20
-0.30349375
 30
0.0
 11
18.63654701076759
 21
-0.4999999999999964
 31
0.0
  0
LINE
  5
480
330
18
100
AcDbEntity
  8
1
 62
     1
100
AcDbLine
 10
17.63654701076759
 20
-0.4896927608204983
 30
0.0
 11
17.75
 21
-0.2861947873198638
 31
0.0
  0
LINE
  5
481
330
18
100
AcDbEntity
  8
1
 62
     1
100
AcDbLine
 10
17.63654701076759
 20
-0.4896927608204958
 30
0.0
 11
17.63654701076759
 21
-0.5
 31
0.0
  0
LINE
  5
482
330
18
100
AcDbEntity
  8
1
 62
     1
100
AcDbLine
 10
17.75
 20
-0.30349375
 30
0.0
 11
17.63654701076759
 21
-0.5000000000000024
 31
0.0
  0
LINE
  5
483
330
18
100
AcDbEntity
  8
1
 62
     1
100
AcDbLine
 10
17.75
 20
-0.2861947873198638
 30
0.0
 11
17.86345298923241
 21
-0.4896927608204984
 31
0.0
  0
LINE
  5
484
330
18
100
AcDbEntity
  8
1
 62
     1
100
AcDbLine
 10
17.75
 20
-0.30349375
 30
0.0
 11
17.75
 21
-0.3034899517854678
 31
0.0
  0
LINE
  5
485
330
18
100
AcDbEntity
  8
1
 62
     1
100
AcDbLine
 10
17.75
 20
-0.3034899517854678
 30
0.0
 11
17.75
 21
-0.3023608558607394
 31
0.0
  0
LINE
  5
486
330
18
100
AcDbEntity
  8
1
 62
     1
100
AcDbLine
 10
17.75
 20
-0.3023608558607394
 30
0.0
 11
17.75
 21
-0.2861947873198432
 31
0.0
  0
LINE
  5
487
330
18
100
AcDbEntity
  8
1
 62
     1
100
AcDbLine
 10
17.86345298923241
 20
-0.4896927608204958
 30
0.0
 11
17.86345298923241
 21
-0.5
 31
0.0
  0
LINE
  5
488
330
18
100
AcDbEntity
  8
1
 62
     1
100
AcDbLine
 10
18.5
 20
-0.2861947873198638
 30
0.0
 11
18.61345298923241
 21
-0.4896927608204984
 31
0.0
  0
LINE
  5
489
330
18
100
AcDbEntity
  8
1
 62
     1
100
AcDbLine
 10
18.38654701076759
 20
-0.4896927608204983
 30
0.0
 11
18.5
 21
-0.2861947873198638
 31
0.0
  0
LINE
  5
48A
330
18
100
AcDbEntity
  8
1
 62
     1
100
AcDbLine
 10
18.38654701076759
 20
-0.4896927608204958
 30
0.0
 11
18.38654701076759
 21
-0.5
 31
0.0
  0
LINE
  5
48B
330
18
100
AcDbEntity
  8
1
 62
     1
100
AcDbLine
 10
18.5
 20
-0.30349375
 30
0.0
 11
18.38654701076759
 21
-0.5000000000000024
 31
0.0
  0
LINE
  5
48C
330
18
100
AcDbEntity
  8
1
 62
     1
100
AcDbLine
 10
18.5
 20
-0.30349375
 30
0.0
 11
18.5
 21
-0.3034899517854678
 31
0.0
  0
LINE
  5
48D
330
18
100
AcDbEntity
  8
1
 62
     1
100
AcDbLine
 10
18.5
 20
-0.3034899517854678
 30
0.0
 11
18.5
 21
-0.3023608558607394
 31
0.0
  0
LINE
  5
48E
330
18
100
AcDbEntity
  8
1
 62
     1
100
AcDbLine
 10
18.5
 20
-0.3023608558607394
 30
0.0
 11
18.5
 21
-0.2861947873198432
 31
0.0
  0
LINE
  5
48F
330
18
100
AcDbEntity
  8
1
 62
     1
100
AcDbLine
 10
18.25
 20
-0.2861947873198638
 30
0.0
 11
18.36345298923241
 21
-0.489692760820495
 31
0.0
  0
LINE
  5
490
330
18
100
AcDbEntity
  8
1
 62
     1
100
AcDbLine
 10
18.25
 20
-0.30349375
 30
0.0
 11
18.25
 21
-0.3034899517854678
 31
0.0
  0
LINE
  5
491
330
18
100
AcDbEntity
  8
1
 62
     1
100
AcDbLine
 10
18.25
 20
-0.3034899517854678
 30
0.0
 11
18.25
 21
-0.3023608558607394
 31
0.0
  0
LINE
  5
492
330
18
100
AcDbEntity
  8
1
 62
     1
100
AcDbLine
 10
18.25
 20
-0.3023608558607394
 30
0.0
 11
18.25
 21
-0.2861947873198432
 31
0.0
  0
LINE
  5
493
330
18
100
AcDbEntity
  8
1
 62
     1
100
AcDbLine
 10
18.36345298923241
 20
-0.4999999999999963
 30
0.0
 11
18.25
 21
-0.30349375
 31
0.0
  0
LINE
  5
494
330
18
100
AcDbEntity
  8
1
 62
     1
100
AcDbLine
 10
18.36345298923241
 20
-0.4896927608204958
 30
0.0
 11
18.36345298923241
 21
-0.5
 31
0.0
  0
LINE
  5
495
330
18
100
AcDbEntity
  8
1
 62
     1
100
AcDbLine
 10
18.13654701076759
 20
-0.4896927608204983
 30
0.0
 11
18.25
 21
-0.2861947873198638
 31
0.0
  0
LINE
  5
496
330
18
100
AcDbEntity
  8
1
 62
     1
100
AcDbLine
 10
18.13654701076759
 20
-0.4896927608204958
 30
0.0
 11
18.13654701076759
 21
-0.5
 31
0.0
  0
LINE
  5
497
330
18
100
AcDbEntity
  8
1
 62
     1
100
AcDbLine
 10
18.25
 20
-0.30349375
 30
0.0
 11
18.13654701076759
 21
-0.5000000000000024
 31
0.0
  0
LINE
  5
498
330
18
100
AcDbEntity
  8
1
 62
     1
100
AcDbLine
 10
18.0
 20
-0.2861947873198638
 30
0.0
 11
18.11345298923241
 21
-0.4896927608204984
 31
0.0
  0
LINE
  5
499
330
18
100
AcDbEntity
  8
1
 62
     1
100
AcDbLine
 10
18.0
 20
-0.30349375
 30
0.0
 11
18.0
 21
-0.3034899517854678
 31
0.0
  0
LINE
  5
49A
330
18
100
AcDbEntity
  8
1
 62
     1
100
AcDbLine
 10
18.0
 20
-0.3034899517854678
 30
0.0
 11
18.0
 21
-0.3023608558607394
 31
0.0
  0
LINE
  5
49B
330
18
100
AcDbEntity
  8
1
 62
     1
100
AcDbLine
 10
18.0
 20
-0.3023608558607394
 30
0.0
 11
18.0
 21
-0.2861947873198432
 31
0.0
  0
LINE
  5
49C
330
18
100
AcDbEntity
  8
1
 62
     1
100
AcDbLine
 10
18.11345298923241
 20
-0.4896927608204958
 30
0.0
 11
18.11345298923241
 21
-0.5
 31
0.0
  0
LINE
  5
49D
330
18
100
AcDbEntity
  8
1
 62
     1
100
AcDbLine
 10
16.75
 20
-0.2861947873198638
 30
0.0
 11
16.86345298923241
 21
-0.489692760820495
 31
0.0
  0
LINE
  5
49E
330
18
100
AcDbEntity
  8
1
 62
     1
100
AcDbLine
 10
16.75
 20
-0.30349375
 30
0.0
 11
16.75
 21
-0.3034899517854678
 31
0.0
  0
LINE
  5
49F
330
18
100
AcDbEntity
  8
1
 62
     1
100
AcDbLine
 10
16.75
 20
-0.3034899517854678
 30
0.0
 11
16.75
 21
-0.3023608558607394
 31
0.0
  0
LINE
  5
4A0
330
18
100
AcDbEntity
  8
1
 62
     1
100
AcDbLine
 10
16.75
 20
-0.3023608558607394
 30
0.0
 11
16.75
 21
-0.2861947873198432
 31
0.0
  0
LINE
  5
4A1
330
18
100
AcDbEntity
  8
1
 62
     1
100
AcDbLine
 10
16.86345298923241
 20
-0.4999999999999963
 30
0.0
 11
16.75
 21
-0.30349375
 31
0.0
  0
LINE
  5
4A2
330
18
100
AcDbEntity
  8
1
 62
     1
100
AcDbLine
 10
16.86345298923241
 20
-0.4896927608204958
 30
0.0
 11
16.86345298923241
 21
-0.5
 31
0.0
  0
LINE
  5
4A3
330
18
100
AcDbEntity
  8
1
 62
     1
100
AcDbLine
 10
15.0
 20
-0.2861947873198638
 30
0.0
 11
15.11345298923241
 21
-0.4896927608204956
 31
0.0
  0
LINE
  5
4A4
330
18
100
AcDbEntity
  8
1
 62
     1
100
AcDbLine
 10
15.11345298923241
 20
-0.489692760820339
 30
0.0
 11
15.11345298923241
 21
-0.5
 31
0.0
  0
LINE
  5
4A5
330
18
100
AcDbEntity
  8
1
 62
     1
100
AcDbLine
 10
15.13654701076759
 20
-0.4896927608204983
 30
0.0
 11
15.25
 21
-0.2861947873198638
 31
0.0
  0
LINE
  5
4A6
330
18
100
AcDbEntity
  8
1
 62
     1
100
AcDbLine
 10
15.25
 20
-0.30349375
 30
0.0
 11
15.13654701076759
 21
-0.5000000000000024
 31
0.0
  0
LINE
  5
4A7
330
18
100
AcDbEntity
  8
1
 62
     1
100
AcDbLine
 10
15.25
 20
-0.2861947873198638
 30
0.0
 11
15.36345298923241
 21
-0.4896927608204956
 31
0.0
  0
LINE
  5
4A8
330
18
100
AcDbEntity
  8
1
 62
     1
100
AcDbLine
 10
15.25
 20
-0.30349375
 30
0.0
 11
15.25
 21
-0.3034899517854678
 31
0.0
  0
LINE
  5
4A9
330
18
100
AcDbEntity
  8
1
 62
     1
100
AcDbLine
 10
15.25
 20
-0.3034899517854678
 30
0.0
 11
15.25
 21
-0.3023608558607394
 31
0.0
  0
LINE
  5
4AA
330
18
100
AcDbEntity
  8
1
 62
     1
100
AcDbLine
 10
15.25
 20
-0.3023608558607394
 30
0.0
 11
15.25
 21
-0.2861947873198432
 31
0.0
  0
LINE
  5
4AB
330
18
100
AcDbEntity
  8
1
 62
     1
100
AcDbLine
 10
15.36345298923241
 20
-0.4896927608204958
 30
0.0
 11
15.36345298923241
 21
-0.5
 31
0.0
  0
LINE
  5
4AC
330
18
100
AcDbEntity
  8
1
 62
     1
100
AcDbLine
 10
15.38654701076759
 20
-0.4896927608204983
 30
0.0
 11
15.5
 21
-0.2861947873198638
 31
0.0
  0
LINE
  5
4AD
330
18
100
AcDbEntity
  8
1
 62
     1
100
AcDbLine
 10
15.38654701076759
 20
-0.4896927608204958
 30
0.0
 11
15.38654701076759
 21
-0.5
 31
0.0
  0
LINE
  5
4AE
330
18
100
AcDbEntity
  8
1
 62
     1
100
AcDbLine
 10
15.5
 20
-0.30349375
 30
0.0
 11
15.38654701076759
 21
-0.5000000000000024
 31
0.0
  0
LINE
  5
4AF
330
18
100
AcDbEntity
  8
1
 62
     1
100
AcDbLine
 10
16.0
 20
-0.2861947873198638
 30
0.0
 11
16.11345298923241
 21
-0.4896927608204984
 31
0.0
  0
LINE
  5
4B0
330
18
100
AcDbEntity
  8
1
 62
     1
100
AcDbLine
 10
16.11345298923241
 20
-0.4896927608204958
 30
0.0
 11
16.11345298923241
 21
-0.5
 31
0.0
  0
LINE
  5
4B1
330
18
100
AcDbEntity
  8
1
 62
     1
100
AcDbLine
 10
15.88654701076759
 20
-0.4896927608204983
 30
0.0
 11
16.0
 21
-0.2861947873198638
 31
0.0
  0
LINE
  5
4B2
330
18
100
AcDbEntity
  8
1
 62
     1
100
AcDbLine
 10
15.88654701076758
 20
-0.4896927608204958
 30
0.0
 11
15.88654701076759
 21
-0.5
 31
0.0
  0
LINE
  5
4B3
330
18
100
AcDbEntity
  8
1
 62
     1
100
AcDbLine
 10
16.0
 20
-0.30349375
 30
0.0
 11
15.88654701076759
 21
-0.5000000000000024
 31
0.0
  0
LINE
  5
4B4
330
18
100
AcDbEntity
  8
1
 62
     1
100
AcDbLine
 10
16.0
 20
-0.30349375
 30
0.0
 11
16.0
 21
-0.3034899517854678
 31
0.0
  0
LINE
  5
4B5
330
18
100
AcDbEntity
  8
1
 62
     1
100
AcDbLine
 10
16.0
 20
-0.3034899517854678
 30
0.0
 11
16.0
 21
-0.3023608558607394
 31
0.0
  0
LINE
  5
4B6
330
18
100
AcDbEntity
  8
1
 62
     1
100
AcDbLine
 10
16.0
 20
-0.3023608558607394
 30
0.0
 11
16.0
 21
-0.2861947873198432
 31
0.0
  0
LINE
  5
4B7
330
18
100
AcDbEntity
  8
1
 62
     1
100
AcDbLine
 10
16.13654701076759
 20
-0.4896927608204983
 30
0.0
 11
16.25
 21
-0.2861947873198638
 31
0.0
  0
LINE
  5
4B8
330
18
100
AcDbEntity
  8
1
 62
     1
100
AcDbLine
 10
16.13654701076758
 20
-0.4896927608204958
 30
0.0
 11
16.13654701076759
 21
-0.5
 31
0.0
  0
LINE
  5
4B9
330
18
100
AcDbEntity
  8
1
 62
     1
100
AcDbLine
 10
16.25
 20
-0.30349375
 30
0.0
 11
16.13654701076759
 21
-0.5000000000000024
 31
0.0
  0
LINE
  5
4BA
330
18
100
AcDbEntity
  8
1
 62
     1
100
AcDbLine
 10
16.25
 20
-0.2861947873198638
 30
0.0
 11
16.36345298923241
 21
-0.489692760820495
 31
0.0
  0
LINE
  5
4BB
330
18
100
AcDbEntity
  8
1
 62
     1
100
AcDbLine
 10
16.25
 20
-0.30349375
 30
0.0
 11
16.25
 21
-0.3034899517854678
 31
0.0
  0
LINE
  5
4BC
330
18
100
AcDbEntity
  8
1
 62
     1
100
AcDbLine
 10
16.25
 20
-0.3034899517854678
 30
0.0
 11
16.25
 21
-0.3023608558607394
 31
0.0
  0
LINE
  5
4BD
330
18
100
AcDbEntity
  8
1
 62
     1
100
AcDbLine
 10
16.25
 20
-0.3023608558607394
 30
0.0
 11
16.25
 21
-0.2861947873198432
 31
0.0
  0
LINE
  5
4BE
330
18
100
AcDbEntity
  8
1
 62
     1
100
AcDbLine
 10
16.36345298923241
 20
-0.4999999999999963
 30
0.0
 11
16.25
 21
-0.30349375
 31
0.0
  0
LINE
  5
4BF
330
18
100
AcDbEntity
  8
1
 62
     1
100
AcDbLine
 10
16.36345298923241
 20
-0.4896927608204958
 30
0.0
 11
16.36345298923241
 21
-0.5
 31
0.0
  0
LINE
  5
4C0
330
18
100
AcDbEntity
  8
1
 62
     1
100
AcDbLine
 10
16.38654701076759
 20
-0.4896927608204951
 30
0.0
 11
16.5
 21
-0.2861947873198638
 31
0.0
  0
LINE
  5
4C1
330
18
100
AcDbEntity
  8
1
 62
     1
100
AcDbLine
 10
16.38654701076759
 20
-0.4896927608204958
 30
0.0
 11
16.38654701076759
 21
-0.5
 31
0.0
  0
LINE
  5
4C2
330
18
100
AcDbEntity
  8
1
 62
     1
100
AcDbLine
 10
16.5
 20
-0.30349375
 30
0.0
 11
16.38654701076759
 21
-0.4999999999999964
 31
0.0
  0
LINE
  5
4C3
330
18
100
AcDbEntity
  8
1
 62
     1
100
AcDbLine
 10
16.5
 20
-0.2861947873198638
 30
0.0
 11
16.61345298923241
 21
-0.489692760820495
 31
0.0
  0
LINE
  5
4C4
330
18
100
AcDbEntity
  8
1
 62
     1
100
AcDbLine
 10
16.5
 20
-0.30349375
 30
0.0
 11
16.5
 21
-0.3034899517854678
 31
0.0
  0
LINE
  5
4C5
330
18
100
AcDbEntity
  8
1
 62
     1
100
AcDbLine
 10
16.5
 20
-0.3034899517854678
 30
0.0
 11
16.5
 21
-0.3023608558607394
 31
0.0
  0
LINE
  5
4C6
330
18
100
AcDbEntity
  8
1
 62
     1
100
AcDbLine
 10
16.5
 20
-0.3023608558607394
 30
0.0
 11
16.5
 21
-0.2861947873198432
 31
0.0
  0
LINE
  5
4C7
330
18
100
AcDbEntity
  8
1
 62
     1
100
AcDbLine
 10
16.61345298923241
 20
-0.4999999999999963
 30
0.0
 11
16.5
 21
-0.30349375
 31
0.0
  0
LINE
  5
4C8
330
18
100
AcDbEntity
  8
1
 62
     1
100
AcDbLine
 10
16.61345298923241
 20
-0.4896927608204958
 30
0.0
 11
16.61345298923241
 21
-0.5
 31
0.0
  0
LINE
  5
4C9
330
18
100
AcDbEntity
  8
1
 62
     1
100
AcDbLine
 10
16.63654701076759
 20
-0.4896927608204983
 30
0.0
 11
16.75
 21
-0.2861947873198638
 31
0.0
  0
LINE
  5
4CA
330
18
100
AcDbEntity
  8
1
 62
     1
100
AcDbLine
 10
16.63654701076759
 20
-0.4896927608204958
 30
0.0
 11
16.63654701076759
 21
-0.5
 31
0.0
  0
LINE
  5
4CB
330
18
100
AcDbEntity
  8
1
 62
     1
100
AcDbLine
 10
16.75
 20
-0.30349375
 30
0.0
 11
16.63654701076759
 21
-0.5000000000000024
 31
0.0
  0
LINE
  5
4CC
330
18
100
AcDbEntity
  8
1
 62
     1
100
AcDbLine
 10
15.75
 20
-0.2861947873198638
 30
0.0
 11
15.86345298923241
 21
-0.489692760820495
 31
0.0
  0
LINE
  5
4CD
330
18
100
AcDbEntity
  8
1
 62
     1
100
AcDbLine
 10
15.75
 20
-0.30349375
 30
0.0
 11
15.75
 21
-0.3034899517854678
 31
0.0
  0
LINE
  5
4CE
330
18
100
AcDbEntity
  8
1
 62
     1
100
AcDbLine
 10
15.75
 20
-0.3034899517854678
 30
0.0
 11
15.75
 21
-0.3023608558607394
 31
0.0
  0
LINE
  5
4CF
330
18
100
AcDbEntity
  8
1
 62
     1
100
AcDbLine
 10
15.75
 20
-0.3023608558607394
 30
0.0
 11
15.75
 21
-0.2861947873198432
 31
0.0
  0
LINE
  5
4D0
330
18
100
AcDbEntity
  8
1
 62
     1
100
AcDbLine
 10
15.86345298923241
 20
-0.4999999999999963
 30
0.0
 11
15.75
 21
-0.30349375
 31
0.0
  0
LINE
  5
4D1
330
18
100
AcDbEntity
  8
1
 62
     1
100
AcDbLine
 10
15.86345298923241
 20
-0.4896927608204958
 30
0.0
 11
15.86345298923241
 21
-0.5
 31
0.0
  0
LINE
  5
4D2
330
18
100
AcDbEntity
  8
1
 62
     1
100
AcDbLine
 10
15.63654701076759
 20
-0.4896927608204958
 30
0.0
 11
15.75
 21
-0.2861947873198638
 31
0.0
  0
LINE
  5
4D3
330
18
100
AcDbEntity
  8
1
 62
     1
100
AcDbLine
 10
15.63654701076759
 20
-0.4896927608204958
 30
0.0
 11
15.63654701076759
 21
-0.5
 31
0.0
  0
LINE
  5
4D4
330
18
100
AcDbEntity
  8
1
 62
     1
100
AcDbLine
 10
15.75
 20
-0.30349375
 30
0.0
 11
15.63654701076759
 21
-0.4999999999999994
 31
0.0
  0
LINE
  5
4D5
330
18
100
AcDbEntity
  8
1
 62
     1
100
AcDbLine
 10
15.5
 20
-0.2861947873198638
 30
0.0
 11
15.61345298923241
 21
-0.4896927608204956
 31
0.0
  0
LINE
  5
4D6
330
18
100
AcDbEntity
  8
1
 62
     1
100
AcDbLine
 10
15.5
 20
-0.30349375
 30
0.0
 11
15.5
 21
-0.3034899517854678
 31
0.0
  0
LINE
  5
4D7
330
18
100
AcDbEntity
  8
1
 62
     1
100
AcDbLine
 10
15.5
 20
-0.3034899517854678
 30
0.0
 11
15.5
 21
-0.3023608558607394
 31
0.0
  0
LINE
  5
4D8
330
18
100
AcDbEntity
  8
1
 62
     1
100
AcDbLine
 10
15.5
 20
-0.3023608558607394
 30
0.0
 11
15.5
 21
-0.2861947873198432
 31
0.0
  0
LINE
  5
4D9
330
18
100
AcDbEntity
  8
1
 62
     1
100
AcDbLine
 10
15.61345298923241
 20
-0.4999999999999994
 30
0.0
 11
15.5
 21
-0.30349375
 31
0.0
  0
LINE
  5
4DA
330
18
100
AcDbEntity
  8
1
 62
     1
100
AcDbLine
 10
15.61345298923241
 20
-0.4896927608204958
 30
0.0
 11
15.61345298923241
 21
-0.5
 31
0.0
  0
LINE
  5
4DB
330
18
100
AcDbEntity
  8
1
 62
     1
100
AcDbLine
 10
15.63654701076759
 20
-0.4896927608204958
 30
0.0
 11
15.61345298923241
 21
-0.4896927608204956
 31
0.0
  0
LINE
  5
4DC
330
18
100
AcDbEntity
  8
1
 62
     1
100
AcDbLine
 10
16.63654701076759
 20
-0.4896927608204958
 30
0.0
 11
16.61345298923241
 21
-0.4896927608204958
 31
0.0
  0
LINE
  5
4DD
330
18
100
AcDbEntity
  8
1
 62
     1
100
AcDbLine
 10
19.42975743230015
 20
0.0172927354491677
 30
0.0
 11
19.32603494270173
 21
0.0163578322109191
 31
0.0
  0
LINE
  5
4DE
330
18
100
AcDbEntity
  8
1
 62
     1
100
AcDbLine
 10
19.16497042234245
 20
0.0142212765505654
 30
0.0
 11
19.08925774790892
 21
0.0129246904713031
 31
0.0
  0
LINE
  5
4DF
330
18
100
AcDbEntity
  8
1
 62
     1
100
AcDbLine
 10
18.90018341353259
 20
0.0088518809435307
 30
0.0
 11
18.85248054905309
 21
0.0076324748208609
 31
0.0
  0
LINE
  5
4E0
330
18
100
AcDbEntity
  8
1
 62
     1
100
AcDbLine
 10
18.63654701076759
 20
0.0017712048222033
 30
0.0
 11
18.61345298923242
 21
0.0017712048222033
 31
0.0
  0
LINE
  5
4E1
330
18
100
AcDbEntity
  8
1
 62
     1
100
AcDbLine
 10
18.38654701076759
 20
0.0017712048222033
 30
0.0
 11
18.36345298923241
 21
0.0017712048222033
 31
0.0
  0
LINE
  5
4E2
330
18
100
AcDbEntity
  8
1
 62
     1
100
AcDbLine
 10
18.13654701076759
 20
0.0017712048222033
 30
0.0
 11
18.11345298923241
 21
0.0017712048222033
 31
0.0
  0
LINE
  5
4E3
330
18
100
AcDbEntity
  8
1
 62
     1
100
AcDbLine
 10
17.38654701076758
 20
0.0017712048222033
 30
0.0
 11
17.3634529892324
 21
0.0017712048222033
 31
0.0
  0
LINE
  5
4E4
330
18
100
AcDbEntity
  8
1
 62
     1
100
AcDbLine
 10
16.88654701076759
 20
0.0017712048222033
 30
0.0
 11
16.86345298923241
 21
0.0017712048222033
 31
0.0
  0
LINE
  5
4E5
330
18
100
AcDbEntity
  8
1
 62
     1
100
AcDbLine
 10
16.38654701076759
 20
0.0017712048222032
 30
0.0
 11
16.36345298923241
 21
0.0017712048222032
 31
0.0
  0
LINE
  5
4E6
330
18
100
AcDbEntity
  8
1
 62
     1
100
AcDbLine
 10
16.13654701076758
 20
0.0017712048222032
 30
0.0
 11
16.11345298923242
 21
0.0017712048222032
 31
0.0
  0
LINE
  5
4E7
330
18
100
AcDbEntity
  8
1
 62
     1
100
AcDbLine
 10
15.88654701076759
 20
0.0017712048222032
 30
0.0
 11
15.86345298923241
 21
0.0017712048222032
 31
0.0
  0
LINE
  5
4E8
330
18
100
AcDbEntity
  8
1
 62
     1
100
AcDbLine
 10
15.63654701076759
 20
0.0017712048222032
 30
0.0
 11
15.61345298923241
 21
0.0017712048222032
 31
0.0
  0
LINE
  5
4E9
330
18
100
AcDbEntity
  8
1
 62
     1
100
AcDbLine
 10
15.13654701076759
 20
0.0017712048222032
 30
0.0
 11
15.11345298923241
 21
0.0017712048222032
 31
0.0
  0
LINE
  5
4EA
330
18
100
AcDbEntity
  8
1
 62
     1
100
AcDbLine
 10
19.5
 20
0.0015671950087481
 30
0.0
 11
19.5
 21
0.30349375
 31
0.0
  0
ARC
  5
4EB
330
18
100
AcDbEntity
  8
1
 62
     1
100
AcDbCircle
 10
19.55896478133548
 20
-0.0943242649763303
 30
0.0
 40
0.1125570435997362
100
AcDbArc
 50
90.9337644299199
 51
121.5878450217654
  0
LINE
  5
4EC
330
18
100
AcDbEntity
  8
1
 62
     1
100
AcDbLine
 10
19.42975743117717
 20
0.4251573913295892
 30
0.0
 11
19.42975743117717
 21
0.4250585664087449
 31
0.0
  0
LINE
  5
4ED
330
18
100
AcDbEntity
  8
1
 62
     1
100
AcDbLine
 10
19.42975743117717
 20
0.4250585664087449
 30
0.0
 11
19.42975743117717
 21
0.4166337421687173
 31
0.0
  0
LINE
  5
4EE
330
18
100
AcDbEntity
  8
1
 62
     1
100
AcDbLine
 10
19.42975743117717
 20
0.4166337421687173
 30
0.0
 11
19.42975743117717
 21
0.0172927176324324
 31
0.0
  0
LINE
  5
4EF
330
18
100
AcDbEntity
  8
1
 62
     1
100
AcDbLine
 10
19.42975743117717
 20
0.0172927176322199
 30
0.0
 11
19.44286858538058
 21
0.0181546971054187
 31
0.0
  0
LINE
  5
4F0
330
18
100
AcDbEntity
  8
1
 62
     1
100
AcDbLine
 10
19.75
 20
0.0015671950087482
 30
0.0
 11
19.75
 21
0.30349375
 31
0.0
  0
ARC
  5
4F1
330
18
100
AcDbEntity
  8
1
 62
     1
100
AcDbCircle
 10
19.80974008547043
 20
-0.0961796561377676
 30
0.0
 40
0.1145478363006507
100
AcDbArc
 50
95.08603283982448
 51
121.4320829814115
  0
LINE
  5
4F2
330
18
100
AcDbEntity
  8
1
 62
     1
100
AcDbLine
 10
19.95933144884659
 20
-0.3600353072751737
 30
0.0
 11
19.79958933821459
 21
-0.3760580554832376
 31
0.0
  0
LINE
  5
4F3
330
18
100
AcDbEntity
  8
1
 62
     1
100
AcDbLine
 10
19.69454444001189
 20
-0.3865690736004445
 30
0.0
 11
19.69454444001189
 21
-0.3995455526774218
 31
0.0
  0
LINE
  5
4F4
330
18
100
AcDbEntity
  8
1
 62
     1
100
AcDbLine
 10
19.6945444400118
 20
-0.3865690736003889
 30
0.0
 11
19.56281213969487
 21
-0.399724902178574
 31
0.0
  0
LINE
  5
4F5
330
18
100
AcDbEntity
  8
1
 62
     1
100
AcDbLine
 10
19.42975743455955
 20
-0.4129864833845988
 30
0.0
 11
19.32603495045497
 21
-0.4233077665446984
 31
0.0
  0
LINE
  5
4F6
330
18
100
AcDbEntity
  8
1
 62
     1
100
AcDbLine
 10
19.16497042548558
 20
-0.439308463978684
 30
0.0
 11
19.08925774596626
 21
-0.4468197145527482
 31
0.0
  0
LINE
  5
4F7
330
18
100
AcDbEntity
  8
1
 62
     1
100
AcDbLine
 10
18.9001834136672
 20
-0.4655512045444285
 30
0.0
 11
18.8524805490531
 21
-0.4702715895959324
 31
0.0
  0
ARC
  5
4F8
330
18
100
AcDbEntity
  8
1
 62
     1
100
AcDbCircle
 10
19.94016083302245
 20
-0.0959692764821662
 30
0.0
 40
0.1143972687830131
100
AcDbArc
 50
58.4706530689799
 51
80.35240176798156
  0
ARC
  5
4F9
330
18
100
AcDbEntity
  8
1
 62
     1
100
AcDbCircle
 10
19.0589647813355
 20
-0.0943242649763881
 30
0.0
 40
0.1125570435997967
100
AcDbArc
 50
90.93376442992306
 51
121.5878450217593
  0
LINE
  5
4FA
330
18
100
AcDbEntity
  8
1
 62
     1
100
AcDbLine
 10
19.08925774587741
 20
0.4580926287469761
 30
0.0
 11
19.08925774587741
 21
0.4579842254930573
 31
0.0
  0
LINE
  5
4FB
330
18
100
AcDbEntity
  8
1
 62
     1
100
AcDbLine
 10
19.08925774587741
 20
0.4579842254930573
 30
0.0
 11
19.08925774587741
 21
0.4487383547430722
 31
0.0
  0
LINE
  5
4FC
330
18
100
AcDbEntity
  8
1
 62
     1
100
AcDbLine
 10
19.08925774587741
 20
0.4487383547430722
 30
0.0
 11
19.08925774587741
 21
0.012924652745527
 31
0.0
  0
LINE
  5
4FD
330
18
100
AcDbEntity
  8
1
 62
     1
100
AcDbLine
 10
18.90018341350774
 20
0.4763810686339238
 30
0.0
 11
18.90018341350774
 21
0.4762667730181436
 31
0.0
  0
LINE
  5
4FE
330
18
100
AcDbEntity
  8
1
 62
     1
100
AcDbLine
 10
18.90018341350774
 20
0.4762667730181436
 30
0.0
 11
18.90018341350774
 21
0.4665146653877315
 31
0.0
  0
LINE
  5
4FF
330
18
100
AcDbEntity
  8
1
 62
     1
100
AcDbLine
 10
18.90018341350774
 20
0.4665146653877315
 30
0.0
 11
18.90018341350774
 21
0.0088518803930491
 31
0.0
  0
ARC
  5
500
330
18
100
AcDbEntity
  8
1
 62
     1
100
AcDbCircle
 10
18.94355121854665
 20
-0.0872929938860718
 30
0.0
 40
0.1054686950500291
100
AcDbArc
 50
90.37256107354985
 51
114.2785769899259
  0
LINE
  5
501
330
18
100
AcDbEntity
  8
1
 62
     1
100
AcDbLine
 10
18.94286554350219
 20
0.018154770948708
 30
0.0
 11
18.94286854977593
 21
0.0181547709035799
 31
0.0
  0
LINE
  5
502
330
18
100
AcDbEntity
  8
1
 62
     1
100
AcDbLine
 10
19.0
 20
0.0015671950087482
 30
0.0
 11
19.0
 21
0.30349375
 31
0.0
  0
LINE
  5
503
330
18
100
AcDbEntity
  8
1
 62
     1
100
AcDbLine
 10
19.16497042234245
 20
0.4507692299817567
 30
0.0
 11
19.16497042234245
 21
0.450663068655667
 31
0.0
  0
LINE
  5
504
330
18
100
AcDbEntity
  8
1
 62
     1
100
AcDbLine
 10
19.16497042234245
 20
0.450663068655667
 30
0.0
 11
19.16497042234246
 21
0.4416095937946751
 31
0.0
  0
LINE
  5
505
330
18
100
AcDbEntity
  8
1
 62
     1
100
AcDbLine
 10
19.16497042234246
 20
0.4416095937946751
 30
0.0
 11
19.16497042234245
 21
0.0142212765505653
 31
0.0
  0
ARC
  5
506
330
18
100
AcDbEntity
  8
1
 62
     1
100
AcDbCircle
 10
19.19302917868558
 20
-0.0837897112598101
 30
0.0
 40
0.1019475565436471
100
AcDbArc
 50
90.09079204495121
 51
105.9754504529104
  0
LINE
  5
507
330
18
100
AcDbEntity
  8
1
 62
     1
100
AcDbLine
 10
19.1928676354425
 20
0.018154663885111
 30
0.0
 11
19.19286862289409
 21
0.0181546638802486
 31
0.0
  0
LINE
  5
508
330
18
100
AcDbEntity
  8
1
 62
     1
100
AcDbLine
 10
19.25
 20
0.0015671950087482
 30
0.0
 11
19.25
 21
0.30349375
 31
0.0
  0
ARC
  5
509
330
18
100
AcDbEntity
  8
1
 62
     1
100
AcDbCircle
 10
19.30896478133548
 20
-0.0943242649763172
 30
0.0
 40
0.112557043599724
100
AcDbArc
 50
90.93376442991642
 51
121.5878450217689
  0
LINE
  5
50A
330
18
100
AcDbEntity
  8
1
 62
     1
100
AcDbLine
 10
19.32603494270173
 20
0.4351900725065292
 30
0.0
 11
19.32603494270173
 21
0.4350884654457862
 31
0.0
  0
LINE
  5
50B
330
18
100
AcDbEntity
  8
1
 62
     1
100
AcDbLine
 10
19.32603494270173
 20
0.4350884654457862
 30
0.0
 11
19.32603494270173
 21
0.4264254212858468
 31
0.0
  0
LINE
  5
50C
330
18
100
AcDbEntity
  8
1
 62
     1
100
AcDbLine
 10
19.32603494270173
 20
0.4264254212858468
 30
0.0
 11
19.32603494270172
 21
0.0163578322109192
 31
0.0
  0
ARC
  5
50D
330
18
100
AcDbEntity
  8
1
 62
     1
100
AcDbCircle
 10
19.69176680057527
 20
-0.0916141584757123
 30
0.0
 40
0.1098034518337214
100
AcDbArc
 50
57.99689244785389
 51
88.55028872870673
  0
LINE
  5
50E
330
18
100
AcDbEntity
  8
1
 62
     1
100
AcDbLine
 10
18.63654701076759
 20
-0.4896927608204958
 30
0.0
 11
18.61345298923241
 21
-0.4896927608204958
 31
0.0
  0
LINE
  5
50F
330
18
100
AcDbEntity
  8
1
 62
     1
100
AcDbLine
 10
18.61345298923241
 20
-0.4896927608204958
 30
0.0
 11
18.61345298923241
 21
-0.5
 31
0.0
  0
LINE
  5
510
330
18
100
AcDbEntity
  8
1
 62
     1
100
AcDbLine
 10
18.38654701076759
 20
-0.4896927608204958
 30
0.0
 11
18.36345298923241
 21
-0.4896927608204958
 31
0.0
  0
LINE
  5
511
330
18
100
AcDbEntity
  8
1
 62
     1
100
AcDbLine
 10
18.13654701076758
 20
-0.4896927608204958
 30
0.0
 11
18.11345298923242
 21
-0.4896927608204957
 31
0.0
  0
LINE
  5
512
330
18
100
AcDbEntity
  8
1
 62
     1
100
AcDbLine
 10
17.88654701076759
 20
-0.4896927608204958
 30
0.0
 11
17.86345298923242
 21
-0.4896927608204958
 31
0.0
  0
LINE
  5
513
330
18
100
AcDbEntity
  8
1
 62
     1
100
AcDbLine
 10
17.63654701076759
 20
-0.4896927608204958
 30
0.0
 11
17.6134529892324
 21
-0.4896927608204958
 31
0.0
  0
LINE
  5
514
330
18
100
AcDbEntity
  8
1
 62
     1
100
AcDbLine
 10
17.38654701076759
 20
-0.4896927608204958
 30
0.0
 11
17.3634529892324
 21
-0.4896927608204958
 31
0.0
  0
LINE
  5
515
330
18
100
AcDbEntity
  8
1
 62
     1
100
AcDbLine
 10
17.13654701076759
 20
-0.4896927608204958
 30
0.0
 11
17.11345298923242
 21
-0.4896927608204958
 31
0.0
  0
LINE
  5
516
330
18
100
AcDbEntity
  8
1
 62
     1
100
AcDbLine
 10
16.88654701076759
 20
-0.4896927608204958
 30
0.0
 11
16.86345298923241
 21
-0.4896927608204958
 31
0.0
  0
LINE
  5
517
330
18
100
AcDbEntity
  8
1
 62
     1
100
AcDbLine
 10
16.38654701076759
 20
-0.4896927608204958
 30
0.0
 11
16.36345298923241
 21
-0.4896927608204959
 31
0.0
  0
LINE
  5
518
330
18
100
AcDbEntity
  8
1
 62
     1
100
AcDbLine
 10
16.13654701076759
 20
-0.4896927608204957
 30
0.0
 11
16.11345298923241
 21
-0.4896927608204957
 31
0.0
  0
LINE
  5
519
330
18
100
AcDbEntity
  8
1
 62
     1
100
AcDbLine
 10
15.88654701076759
 20
-0.4896927608204958
 30
0.0
 11
15.86345298923241
 21
-0.4896927608204956
 31
0.0
  0
LINE
  5
51A
330
18
100
AcDbEntity
  8
1
 62
     1
100
AcDbLine
 10
15.38654701076759
 20
-0.4896927608204958
 30
0.0
 11
15.36345298923241
 21
-0.4896927608204959
 31
0.0
  0
LINE
  5
51B
330
18
100
AcDbEntity
  8
1
 62
     1
100
AcDbLine
 10
15.13654701076759
 20
-0.4896927608204958
 30
0.0
 11
15.13654701076759
 21
-0.5
 31
0.0
  0
LINE
  5
51C
330
18
100
AcDbEntity
  8
1
 62
     1
100
AcDbLine
 10
15.13654701076758
 20
-0.4896927608204958
 30
0.0
 11
15.11345298923241
 21
-0.4896927608204958
 31
0.0
  0
LINE
  5
51D
330
18
100
AcDbEntity
  8
1
 62
     1
100
AcDbLine
 10
16.75
 20
0.0015671950087482
 30
0.0
 11
16.75
 21
0.30349375
 31
0.0
  0
ARC
  5
51E
330
18
100
AcDbEntity
  8
1
 62
     1
100
AcDbCircle
 10
16.8089647813355
 20
-0.0943242649763639
 30
0.0
 40
0.1125570435997723
100
AcDbArc
 50
90.93376442992144
 51
121.5878450217626
  0
LINE
  5
51F
330
18
100
AcDbEntity
  8
1
 62
     1
100
AcDbLine
 10
16.86345298923241
 20
0.5
 30
0.0
 11
16.86345298923241
 21
0.4998774384680901
 31
0.0
  0
LINE
  5
520
330
18
100
AcDbEntity
  8
1
 62
     1
100
AcDbLine
 10
16.86345298923241
 20
0.4998774384680901
 30
0.0
 11
16.86345298923241
 21
0.4894138988962598
 31
0.0
  0
LINE
  5
521
330
18
100
AcDbEntity
  8
1
 62
     1
100
AcDbLine
 10
16.86345298923241
 20
0.4894138988962598
 30
0.0
 11
16.86345298923241
 21
0.0017712048222033
 31
0.0
  0
LINE
  5
522
330
18
100
AcDbEntity
  8
1
 62
     1
100
AcDbLine
 10
18.0
 20
0.0015671950087481
 30
0.0
 11
18.0
 21
0.30349375
 31
0.0
  0
ARC
  5
523
330
18
100
AcDbEntity
  8
1
 62
     1
100
AcDbCircle
 10
18.05896478133547
 20
-0.0943242649762387
 30
0.0
 40
0.1125570435996444
100
AcDbArc
 50
90.93376442990258
 51
121.5878450217791
  0
LINE
  5
524
330
18
100
AcDbEntity
  8
1
 62
     1
100
AcDbLine
 10
18.11345298923241
 20
0.5
 30
0.0
 11
18.11345298923241
 21
0.4998774384680901
 31
0.0
  0
LINE
  5
525
330
18
100
AcDbEntity
  8
1
 62
     1
100
AcDbLine
 10
18.11345298923241
 20
0.4998774384680901
 30
0.0
 11
18.11345298923241
 21
0.4894138988962598
 31
0.0
  0
LINE
  5
526
330
18
100
AcDbEntity
  8
1
 62
     1
100
AcDbLine
 10
18.11345298923241
 20
0.4894138988962598
 30
0.0
 11
18.11345298923241
 21
0.0017712048222033
 31
0.0
  0
ARC
  5
527
330
18
100
AcDbEntity
  8
1
 62
     1
100
AcDbCircle
 10
18.19459143862008
 20
-0.0922693927571078
 30
0.0
 40
0.1104972463646089
100
AcDbArc
 50
90.8938461249418
 51
121.6840189802215
  0
LINE
  5
528
330
18
100
AcDbEntity
  8
1
 62
     1
100
AcDbLine
 10
18.25
 20
0.0015671950087482
 30
0.0
 11
18.25
 21
0.30349375
 31
0.0
  0
ARC
  5
529
330
18
100
AcDbEntity
  8
1
 62
     1
100
AcDbCircle
 10
18.30896478133548
 20
-0.0943242649763049
 30
0.0
 40
0.1125570435997112
100
AcDbArc
 50
90.93376442990927
 51
121.5878450217691
  0
LINE
  5
52A
330
18
100
AcDbEntity
  8
1
 62
     1
100
AcDbLine
 10
18.36345298923241
 20
0.5
 30
0.0
 11
18.36345298923241
 21
0.4998774384680901
 31
0.0
  0
LINE
  5
52B
330
18
100
AcDbEntity
  8
1
 62
     1
100
AcDbLine
 10
18.36345298923241
 20
0.4998774384680901
 30
0.0
 11
18.36345298923241
 21
0.4894138988962598
 31
0.0
  0
LINE
  5
52C
330
18
100
AcDbEntity
  8
1
 62
     1
100
AcDbLine
 10
18.36345298923241
 20
0.4894138988962598
 30
0.0
 11
18.36345298923241
 21
0.0017712048222033
 31
0.0
  0
LINE
  5
52D
330
18
100
AcDbEntity
  8
1
 62
     1
100
AcDbLine
 10
18.38654701076759
 20
0.5
 30
0.0
 11
18.38654701076759
 21
0.4998774384680901
 31
0.0
  0
LINE
  5
52E
330
18
100
AcDbEntity
  8
1
 62
     1
100
AcDbLine
 10
18.38654701076759
 20
0.4998774384680901
 30
0.0
 11
18.38654701076759
 21
0.4894138988962598
 31
0.0
  0
LINE
  5
52F
330
18
100
AcDbEntity
  8
1
 62
     1
100
AcDbLine
 10
18.38654701076759
 20
0.4894138988962598
 30
0.0
 11
18.38654701076759
 21
0.0017712048222033
 31
0.0
  0
ARC
  5
530
330
18
100
AcDbEntity
  8
1
 62
     1
100
AcDbCircle
 10
18.44459143862005
 20
-0.0922693927570263
 30
0.0
 40
0.110497246364525
100
AcDbArc
 50
90.89384612492772
 51
121.6840189802311
  0
LINE
  5
531
330
18
100
AcDbEntity
  8
1
 62
     1
100
AcDbLine
 10
18.5
 20
0.0015671950087482
 30
0.0
 11
18.5
 21
0.30349375
 31
0.0
  0
ARC
  5
532
330
18
100
AcDbEntity
  8
1
 62
     1
100
AcDbCircle
 10
18.55896478133548
 20
-0.0943242649763123
 30
0.0
 40
0.1125570435997181
100
AcDbArc
 50
90.93376442990919
 51
121.5878450217687
  0
LINE
  5
533
330
18
100
AcDbEntity
  8
1
 62
     1
100
AcDbLine
 10
18.61345298923241
 20
0.5
 30
0.0
 11
18.61345298923241
 21
0.4998774384680901
 31
0.0
  0
LINE
  5
534
330
18
100
AcDbEntity
  8
1
 62
     1
100
AcDbLine
 10
18.61345298923241
 20
0.4998774384680901
 30
0.0
 11
18.61345298923242
 21
0.4894138988962598
 31
0.0
  0
LINE
  5
535
330
18
100
AcDbEntity
  8
1
 62
     1
100
AcDbLine
 10
18.61345298923242
 20
0.4894138988962598
 30
0.0
 11
18.61345298923241
 21
0.0017712048222033
 31
0.0
  0
LINE
  5
536
330
18
100
AcDbEntity
  8
1
 62
     1
100
AcDbLine
 10
17.75
 20
0.0015671950087482
 30
0.0
 11
17.75
 21
0.30349375
 31
0.0
  0
ARC
  5
537
330
18
100
AcDbEntity
  8
1
 62
     1
100
AcDbCircle
 10
17.80896478133547
 20
-0.0943242649762539
 30
0.0
 40
0.1125570435996591
100
AcDbArc
 50
90.93376442990427
 51
121.5878450217765
  0
LINE
  5
538
330
18
100
AcDbEntity
  8
1
 62
     1
100
AcDbLine
 10
17.86345298923241
 20
0.5
 30
0.0
 11
17.86345298923241
 21
0.4998774384680901
 31
0.0
  0
LINE
  5
539
330
18
100
AcDbEntity
  8
1
 62
     1
100
AcDbLine
 10
17.86345298923241
 20
0.4998774384680901
 30
0.0
 11
17.86345298923241
 21
0.4894138988962598
 31
0.0
  0
LINE
  5
53A
330
18
100
AcDbEntity
  8
1
 62
     1
100
AcDbLine
 10
17.86345298923241
 20
0.4894138988962598
 30
0.0
 11
17.86345298923242
 21
0.0017712048222033
 31
0.0
  0
LINE
  5
53B
330
18
100
AcDbEntity
  8
1
 62
     1
100
AcDbLine
 10
18.63654701076759
 20
0.5
 30
0.0
 11
18.63654701076759
 21
0.4998774384680901
 31
0.0
  0
LINE
  5
53C
330
18
100
AcDbEntity
  8
1
 62
     1
100
AcDbLine
 10
18.63654701076759
 20
0.4998774384680901
 30
0.0
 11
18.63654701076759
 21
0.4894138988962598
 31
0.0
  0
LINE
  5
53D
330
18
100
AcDbEntity
  8
1
 62
     1
100
AcDbLine
 10
18.63654701076759
 20
0.4894138988962598
 30
0.0
 11
18.63654701076759
 21
0.0017712048222033
 31
0.0
  0
ARC
  5
53E
330
18
100
AcDbEntity
  8
1
 62
     1
100
AcDbCircle
 10
18.69459143862005
 20
-0.0922693927570251
 30
0.0
 40
0.1104972463645247
100
AcDbArc
 50
90.8938461249296
 51
121.6840189802312
  0
LINE
  5
53F
330
18
100
AcDbEntity
  8
1
 62
     1
100
AcDbLine
 10
18.75
 20
0.0015671950087482
 30
0.0
 11
18.75
 21
0.30349375
 31
0.0
  0
LINE
  5
540
330
18
100
AcDbEntity
  8
1
 62
     1
100
AcDbLine
 10
17.5
 20
0.0015671950087482
 30
0.0
 11
17.5
 21
0.30349375
 31
0.0
  0
ARC
  5
541
330
18
100
AcDbEntity
  8
1
 62
     1
100
AcDbCircle
 10
17.55896478133548
 20
-0.094324264976326
 30
0.0
 40
0.1125570435997322
100
AcDbArc
 50
90.9337644299145
 51
121.5878450217665
  0
LINE
  5
542
330
18
100
AcDbEntity
  8
1
 62
     1
100
AcDbLine
 10
17.61345298923241
 20
0.5
 30
0.0
 11
17.61345298923241
 21
0.4998774384680901
 31
0.0
  0
LINE
  5
543
330
18
100
AcDbEntity
  8
1
 62
     1
100
AcDbLine
 10
17.61345298923241
 20
0.4998774384680901
 30
0.0
 11
17.61345298923241
 21
0.4894138988962598
 31
0.0
  0
LINE
  5
544
330
18
100
AcDbEntity
  8
1
 62
     1
100
AcDbLine
 10
17.61345298923241
 20
0.4894138988962598
 30
0.0
 11
17.61345298923241
 21
0.0017712048222033
 31
0.0
  0
ARC
  5
545
330
18
100
AcDbEntity
  8
1
 62
     1
100
AcDbCircle
 10
17.44459143862007
 20
-0.092269392757088
 30
0.0
 40
0.1104972463645884
100
AcDbArc
 50
90.89384612493457
 51
121.6840189802237
  0
LINE
  5
546
330
18
100
AcDbEntity
  8
1
 62
     1
100
AcDbLine
 10
17.25
 20
0.0015671950087482
 30
0.0
 11
17.25
 21
0.30349375
 31
0.0
  0
ARC
  5
547
330
18
100
AcDbEntity
  8
1
 62
     1
100
AcDbCircle
 10
17.3089647813355
 20
-0.0943242649763738
 30
0.0
 40
0.1125570435997821
100
AcDbArc
 50
90.93376442992496
 51
121.5878450217615
  0
LINE
  5
548
330
18
100
AcDbEntity
  8
1
 62
     1
100
AcDbLine
 10
17.36345298923241
 20
0.5
 30
0.0
 11
17.36345298923241
 21
0.4998774384680901
 31
0.0
  0
LINE
  5
549
330
18
100
AcDbEntity
  8
1
 62
     1
100
AcDbLine
 10
17.36345298923241
 20
0.4998774384680901
 30
0.0
 11
17.36345298923241
 21
0.4894138988962598
 31
0.0
  0
LINE
  5
54A
330
18
100
AcDbEntity
  8
1
 62
     1
100
AcDbLine
 10
17.36345298923241
 20
0.4894138988962598
 30
0.0
 11
17.36345298923241
 21
0.0017712048222033
 31
0.0
  0
LINE
  5
54B
330
18
100
AcDbEntity
  8
1
 62
     1
100
AcDbLine
 10
17.13654701076759
 20
0.5
 30
0.0
 11
17.13654701076759
 21
0.4998774384680901
 31
0.0
  0
LINE
  5
54C
330
18
100
AcDbEntity
  8
1
 62
     1
100
AcDbLine
 10
17.13654701076759
 20
0.4998774384680901
 30
0.0
 11
17.13654701076759
 21
0.4894138988962598
 31
0.0
  0
LINE
  5
54D
330
18
100
AcDbEntity
  8
1
 62
     1
100
AcDbLine
 10
17.13654701076759
 20
0.4894138988962598
 30
0.0
 11
17.13654701076759
 21
0.0017712048222033
 31
0.0
  0
ARC
  5
54E
330
18
100
AcDbEntity
  8
1
 62
     1
100
AcDbCircle
 10
17.19459143862006
 20
-0.0922693927570604
 30
0.0
 40
0.1104972463645596
100
AcDbArc
 50
90.89384612493112
 51
121.6840189802265
  0
LINE
  5
54F
330
18
100
AcDbEntity
  8
1
 62
     1
100
AcDbLine
 10
17.0
 20
0.0015671950087481
 30
0.0
 11
17.0
 21
0.30349375
 31
0.0
  0
ARC
  5
550
330
18
100
AcDbEntity
  8
1
 62
     1
100
AcDbCircle
 10
17.05896478133547
 20
-0.0943242649762731
 30
0.0
 40
0.1125570435996792
100
AcDbArc
 50
90.93376442990773
 51
121.5878450217745
  0
LINE
  5
551
330
18
100
AcDbEntity
  8
1
 62
     1
100
AcDbLine
 10
16.88654701076759
 20
0.5
 30
0.0
 11
16.88654701076758
 21
0.4998774384680901
 31
0.0
  0
LINE
  5
552
330
18
100
AcDbEntity
  8
1
 62
     1
100
AcDbLine
 10
16.88654701076758
 20
0.4998774384680901
 30
0.0
 11
16.88654701076759
 21
0.4894138988962598
 31
0.0
  0
LINE
  5
553
330
18
100
AcDbEntity
  8
1
 62
     1
100
AcDbLine
 10
16.88654701076759
 20
0.4894138988962598
 30
0.0
 11
16.88654701076758
 21
0.0017712048222033
 31
0.0
  0
ARC
  5
554
330
18
100
AcDbEntity
  8
1
 62
     1
100
AcDbCircle
 10
16.94459143862007
 20
-0.0922693927570978
 30
0.0
 40
0.1104972463645975
100
AcDbArc
 50
90.89384612494001
 51
121.6840189802211
  0
LINE
  5
555
330
18
100
AcDbEntity
  8
1
 62
     1
100
AcDbLine
 10
17.88654701076759
 20
0.5
 30
0.0
 11
17.88654701076759
 21
0.4998774384680901
 31
0.0
  0
LINE
  5
556
330
18
100
AcDbEntity
  8
1
 62
     1
100
AcDbLine
 10
17.88654701076759
 20
0.4998774384680901
 30
0.0
 11
17.88654701076759
 21
0.4894138988962598
 31
0.0
  0
LINE
  5
557
330
18
100
AcDbEntity
  8
1
 62
     1
100
AcDbLine
 10
17.88654701076759
 20
0.4894138988962598
 30
0.0
 11
17.88654701076759
 21
0.0017712048222033
 31
0.0
  0
ARC
  5
558
330
18
100
AcDbEntity
  8
1
 62
     1
100
AcDbCircle
 10
17.94459143862005
 20
-0.0922693927570452
 30
0.0
 40
0.1104972463645437
100
AcDbArc
 50
90.89384612493123
 51
121.6840189802276
  0
ARC
  5
559
330
18
100
AcDbEntity
  8
1
 62
     1
100
AcDbCircle
 10
18.8089647813355
 20
-0.0943242649763723
 30
0.0
 40
0.1125570435997801
100
AcDbArc
 50
90.93376442992317
 51
121.5878450217604
  0
LINE
  5
55A
330
18
100
AcDbEntity
  8
1
 62
     1
100
AcDbLine
 10
18.8524805490531
 20
0.4809951849874234
 30
0.0
 11
18.8524805490531
 21
0.4808793342952738
 31
0.0
  0
LINE
  5
55B
330
18
100
AcDbEntity
  8
1
 62
     1
100
AcDbLine
 10
18.8524805490531
 20
0.4808793342952738
 30
0.0
 11
18.8524805490531
 21
0.4709934934761578
 31
0.0
  0
LINE
  5
55C
330
18
100
AcDbEntity
  8
1
 62
     1
100
AcDbLine
 10
18.8524805490531
 20
0.4709934934761578
 30
0.0
 11
18.8524805490531
 21
0.007632474820861
 31
0.0
  0
LINE
  5
55D
330
18
100
AcDbEntity
  8
1
 62
     1
100
AcDbLine
 10
17.63654701076759
 20
0.5
 30
0.0
 11
17.63654701076759
 21
0.4998774384680901
 31
0.0
  0
LINE
  5
55E
330
18
100
AcDbEntity
  8
1
 62
     1
100
AcDbLine
 10
17.63654701076759
 20
0.4998774384680901
 30
0.0
 11
17.63654701076759
 21
0.4894138988962598
 31
0.0
  0
LINE
  5
55F
330
18
100
AcDbEntity
  8
1
 62
     1
100
AcDbLine
 10
17.63654701076759
 20
0.4894138988962598
 30
0.0
 11
17.63654701076759
 21
0.0017712048222033
 31
0.0
  0
ARC
  5
560
330
18
100
AcDbEntity
  8
1
 62
     1
100
AcDbCircle
 10
17.69459143862006
 20
-0.0922693927570739
 30
0.0
 40
0.1104972463645732
100
AcDbArc
 50
90.89384612493467
 51
121.6840189802244
  0
LINE
  5
561
330
18
100
AcDbEntity
  8
1
 62
     1
100
AcDbLine
 10
15.5
 20
0.0015671950087482
 30
0.0
 11
15.5
 21
0.30349375
 31
0.0
  0
ARC
  5
562
330
18
100
AcDbEntity
  8
1
 62
     1
100
AcDbCircle
 10
15.55896478133548
 20
-0.0943242649762949
 30
0.0
 40
0.1125570435997012
100
AcDbArc
 50
90.93376442990841
 51
121.5878450217718
  0
LINE
  5
563
330
18
100
AcDbEntity
  8
1
 62
     1
100
AcDbLine
 10
15.63654701076759
 20
0.5
 30
0.0
 11
15.63654701076759
 21
0.4998774384680901
 31
0.0
  0
LINE
  5
564
330
18
100
AcDbEntity
  8
1
 62
     1
100
AcDbLine
 10
15.63654701076759
 20
0.4998774384680901
 30
0.0
 11
15.63654701076759
 21
0.4894138988962598
 31
0.0
  0
LINE
  5
565
330
18
100
AcDbEntity
  8
1
 62
     1
100
AcDbLine
 10
15.63654701076759
 20
0.4894138988962598
 30
0.0
 11
15.63654701076759
 21
0.0017712048222032
 31
0.0
  0
ARC
  5
566
330
18
100
AcDbEntity
  8
1
 62
     1
100
AcDbCircle
 10
15.69459143862004
 20
-0.0922693927569977
 30
0.0
 40
0.1104972463644957
100
AcDbArc
 50
90.89384612492334
 51
121.684018980234
  0
LINE
  5
567
330
18
100
AcDbEntity
  8
1
 62
     1
100
AcDbLine
 10
15.75
 20
0.0015671950087481
 30
0.0
 11
15.75
 21
0.3034937470315623
 31
0.0
  0
ARC
  5
568
330
18
100
AcDbEntity
  8
1
 62
     1
100
AcDbCircle
 10
15.80896478133549
 20
-0.0943242649763382
 30
0.0
 40
0.1125570435997453
100
AcDbArc
 50
90.93376442991529
 51
121.5878450217656
  0
LINE
  5
569
330
18
100
AcDbEntity
  8
1
 62
     1
100
AcDbLine
 10
15.86345298923241
 20
0.5
 30
0.0
 11
15.86345298923241
 21
0.4998774384680901
 31
0.0
  0
LINE
  5
56A
330
18
100
AcDbEntity
  8
1
 62
     1
100
AcDbLine
 10
15.86345298923241
 20
0.4998774384680901
 30
0.0
 11
15.86345298923241
 21
0.4894138988962598
 31
0.0
  0
LINE
  5
56B
330
18
100
AcDbEntity
  8
1
 62
     1
100
AcDbLine
 10
15.86345298923241
 20
0.4894138988962598
 30
0.0
 11
15.86345298923241
 21
0.0017712048222032
 31
0.0
  0
LINE
  5
56C
330
18
100
AcDbEntity
  8
1
 62
     1
100
AcDbLine
 10
16.63654701076759
 20
0.5
 30
0.0
 11
16.63654701076759
 21
0.4998774384680901
 31
0.0
  0
LINE
  5
56D
330
18
100
AcDbEntity
  8
1
 62
     1
100
AcDbLine
 10
16.63654701076759
 20
0.4998774384680901
 30
0.0
 11
16.63654701076759
 21
0.4894138988962598
 31
0.0
  0
LINE
  5
56E
330
18
100
AcDbEntity
  8
1
 62
     1
100
AcDbLine
 10
16.63654701076759
 20
0.4894138988962598
 30
0.0
 11
16.63654701076758
 21
0.0017712048222033
 31
0.0
  0
ARC
  5
56F
330
18
100
AcDbEntity
  8
1
 62
     1
100
AcDbCircle
 10
16.69459143862008
 20
-0.0922693927571112
 30
0.0
 40
0.1104972463646117
100
AcDbArc
 50
90.89384612493805
 51
121.6840189802205
  0
ARC
  5
570
330
18
100
AcDbEntity
  8
1
 62
     1
100
AcDbCircle
 10
15.05896478133548
 20
-0.0943242649763239
 30
0.0
 40
0.1125570435997306
100
AcDbArc
 50
90.93376442991634
 51
121.5878450217679
  0
LINE
  5
571
330
18
100
AcDbEntity
  8
1
 62
     1
100
AcDbLine
 10
15.11345298923241
 20
0.5
 30
0.0
 11
15.11345298923241
 21
0.4998774384680901
 31
0.0
  0
LINE
  5
572
330
18
100
AcDbEntity
  8
1
 62
     1
100
AcDbLine
 10
15.11345298923241
 20
0.4998774384680901
 30
0.0
 11
15.11345298923241
 21
0.4894138988962598
 31
0.0
  0
LINE
  5
573
330
18
100
AcDbEntity
  8
1
 62
     1
100
AcDbLine
 10
15.11345298923241
 20
0.4894138988962598
 30
0.0
 11
15.11345298923241
 21
0.0017712048222032
 31
0.0
  0
LINE
  5
574
330
18
100
AcDbEntity
  8
1
 62
     1
100
AcDbLine
 10
15.13654701076759
 20
0.5
 30
0.0
 11
15.13654701076759
 21
0.4998774384680901
 31
0.0
  0
LINE
  5
575
330
18
100
AcDbEntity
  8
1
 62
     1
100
AcDbLine
 10
15.13654701076759
 20
0.4998774384680901
 30
0.0
 11
15.13654701076759
 21
0.4894138988962598
 31
0.0
  0
LINE
  5
576
330
18
100
AcDbEntity
  8
1
 62
     1
100
AcDbLine
 10
15.13654701076759
 20
0.4894138988962598
 30
0.0
 11
15.13654701076759
 21
0.0017712048222032
 31
0.0
  0
ARC
  5
577
330
18
100
AcDbEntity
  8
1
 62
     1
100
AcDbCircle
 10
15.19459143862006
 20
-0.0922693927570572
 30
0.0
 40
0.1104972463645571
100
AcDbArc
 50
90.89384612493023
 51
121.6840189802266
  0
LINE
  5
578
330
18
100
AcDbEntity
  8
1
 62
     1
100
AcDbLine
 10
15.25
 20
0.0015671950087482
 30
0.0
 11
15.25
 21
0.3034937470315623
 31
0.0
  0
ARC
  5
579
330
18
100
AcDbEntity
  8
1
 62
     1
100
AcDbCircle
 10
15.30896478133547
 20
-0.0943242649762932
 30
0.0
 40
0.112557043599699
100
AcDbArc
 50
90.93376442990846
 51
121.5878450217707
  0
LINE
  5
57A
330
18
100
AcDbEntity
  8
1
 62
     1
100
AcDbLine
 10
15.36345298923241
 20
0.5
 30
0.0
 11
15.36345298923241
 21
0.4998774384680901
 31
0.0
  0
LINE
  5
57B
330
18
100
AcDbEntity
  8
1
 62
     1
100
AcDbLine
 10
15.36345298923241
 20
0.4998774384680901
 30
0.0
 11
15.36345298923241
 21
0.4894138988962598
 31
0.0
  0
LINE
  5
57C
330
18
100
AcDbEntity
  8
1
 62
     1
100
AcDbLine
 10
15.36345298923241
 20
0.4894138988962598
 30
0.0
 11
15.36345298923241
 21
0.0017712048222032
 31
0.0
  0
LINE
  5
57D
330
18
100
AcDbEntity
  8
1
 62
     1
100
AcDbLine
 10
15.38654701076759
 20
0.5
 30
0.0
 11
15.38654701076759
 21
0.4998774384680901
 31
0.0
  0
LINE
  5
57E
330
18
100
AcDbEntity
  8
1
 62
     1
100
AcDbLine
 10
15.38654701076759
 20
0.4998774384680901
 30
0.0
 11
15.38654701076759
 21
0.4894138988962598
 31
0.0
  0
LINE
  5
57F
330
18
100
AcDbEntity
  8
1
 62
     1
100
AcDbLine
 10
15.38654701076759
 20
0.4894138988962598
 30
0.0
 11
15.38654701076758
 21
0.0017712048222032
 31
0.0
  0
ARC
  5
580
330
18
100
AcDbEntity
  8
1
 62
     1
100
AcDbCircle
 10
15.44459143862006
 20
-0.0922693927570684
 30
0.0
 40
0.110497246364568
100
AcDbArc
 50
90.89384612493473
 51
121.6840189802259
  0
LINE
  5
581
330
18
100
AcDbEntity
  8
1
 62
     1
100
AcDbLine
 10
16.0
 20
0.0015671950087481
 30
0.0
 11
16.0
 21
0.30349375
 31
0.0
  0
ARC
  5
582
330
18
100
AcDbEntity
  8
1
 62
     1
100
AcDbCircle
 10
16.05896478133547
 20
-0.094324264976276
 30
0.0
 40
0.1125570435996826
100
AcDbArc
 50
90.93376442990767
 51
121.5878450217753
  0
LINE
  5
583
330
18
100
AcDbEntity
  8
1
 62
     1
100
AcDbLine
 10
16.11345298923241
 20
0.5
 30
0.0
 11
16.11345298923241
 21
0.4998774384680901
 31
0.0
  0
LINE
  5
584
330
18
100
AcDbEntity
  8
1
 62
     1
100
AcDbLine
 10
16.11345298923241
 20
0.4998774384680901
 30
0.0
 11
16.11345298923241
 21
0.4894138988962598
 31
0.0
  0
LINE
  5
585
330
18
100
AcDbEntity
  8
1
 62
     1
100
AcDbLine
 10
16.11345298923241
 20
0.4894138988962598
 30
0.0
 11
16.11345298923241
 21
0.0017712048222032
 31
0.0
  0
LINE
  5
586
330
18
100
AcDbEntity
  8
1
 62
     1
100
AcDbLine
 10
15.88654701076759
 20
0.5
 30
0.0
 11
15.88654701076759
 21
0.4998774384680901
 31
0.0
  0
LINE
  5
587
330
18
100
AcDbEntity
  8
1
 62
     1
100
AcDbLine
 10
15.88654701076759
 20
0.4998774384680901
 30
0.0
 11
15.88654701076759
 21
0.4894138988962598
 31
0.0
  0
LINE
  5
588
330
18
100
AcDbEntity
  8
1
 62
     1
100
AcDbLine
 10
15.88654701076759
 20
0.4894138988962598
 30
0.0
 11
15.88654701076759
 21
0.0017712048222032
 31
0.0
  0
ARC
  5
589
330
18
100
AcDbEntity
  8
1
 62
     1
100
AcDbCircle
 10
15.94459143862007
 20
-0.092269392757078
 30
0.0
 40
0.1104972463645784
100
AcDbArc
 50
90.89384612493743
 51
121.6840189802249
  0
LINE
  5
58A
330
18
100
AcDbEntity
  8
1
 62
     1
100
AcDbLine
 10
16.13654701076759
 20
0.5
 30
0.0
 11
16.13654701076759
 21
0.4998774384680901
 31
0.0
  0
LINE
  5
58B
330
18
100
AcDbEntity
  8
1
 62
     1
100
AcDbLine
 10
16.13654701076759
 20
0.4998774384680901
 30
0.0
 11
16.13654701076759
 21
0.4894138988962598
 31
0.0
  0
LINE
  5
58C
330
18
100
AcDbEntity
  8
1
 62
     1
100
AcDbLine
 10
16.13654701076759
 20
0.4894138988962598
 30
0.0
 11
16.13654701076759
 21
0.0017712048222032
 31
0.0
  0
ARC
  5
58D
330
18
100
AcDbEntity
  8
1
 62
     1
100
AcDbCircle
 10
16.19459143862006
 20
-0.09226939275706
 30
0.0
 40
0.1104972463645592
100
AcDbArc
 50
90.89384612493294
 51
121.6840189802266
  0
LINE
  5
58E
330
18
100
AcDbEntity
  8
1
 62
     1
100
AcDbLine
 10
16.25
 20
0.0015671950087482
 30
0.0
 11
16.25
 21
0.30349375
 31
0.0
  0
ARC
  5
58F
330
18
100
AcDbEntity
  8
1
 62
     1
100
AcDbCircle
 10
16.3089647813355
 20
-0.0943242649763627
 30
0.0
 40
0.1125570435997705
100
AcDbArc
 50
90.93376442991962
 51
121.5878450217629
  0
LINE
  5
590
330
18
100
AcDbEntity
  8
1
 62
     1
100
AcDbLine
 10
16.36345298923241
 20
0.5
 30
0.0
 11
16.36345298923241
 21
0.4998774384680901
 31
0.0
  0
LINE
  5
591
330
18
100
AcDbEntity
  8
1
 62
     1
100
AcDbLine
 10
16.36345298923241
 20
0.4998774384680901
 30
0.0
 11
16.36345298923241
 21
0.4894138988962598
 31
0.0
  0
LINE
  5
592
330
18
100
AcDbEntity
  8
1
 62
     1
100
AcDbLine
 10
16.36345298923241
 20
0.4894138988962598
 30
0.0
 11
16.36345298923241
 21
0.0017712048222033
 31
0.0
  0
ARC
  5
593
330
18
100
AcDbEntity
  8
1
 62
     1
100
AcDbCircle
 10
16.44459143862005
 20
-0.0922693927570101
 30
0.0
 40
0.110497246364508
100
AcDbArc
 50
90.89384612492786
 51
121.6840189802321
  0
LINE
  5
594
330
18
100
AcDbEntity
  8
1
 62
     1
100
AcDbLine
 10
16.5
 20
0.0015671950087481
 30
0.0
 11
16.5
 21
0.30349375
 31
0.0
  0
ARC
  5
595
330
18
100
AcDbEntity
  8
1
 62
     1
100
AcDbCircle
 10
16.55896478133548
 20
-0.0943242649763165
 30
0.0
 40
0.1125570435997233
100
AcDbArc
 50
90.93376442991278
 51
121.5878450217691
  0
LINE
  5
596
330
18
100
AcDbEntity
  8
1
 62
     1
100
AcDbLine
 10
16.61345298923241
 20
0.5
 30
0.0
 11
16.61345298923241
 21
0.4998774384680901
 31
0.0
  0
LINE
  5
597
330
18
100
AcDbEntity
  8
1
 62
     1
100
AcDbLine
 10
16.61345298923241
 20
0.4998774384680901
 30
0.0
 11
16.61345298923241
 21
0.4894138988962598
 31
0.0
  0
LINE
  5
598
330
18
100
AcDbEntity
  8
1
 62
     1
100
AcDbLine
 10
16.61345298923241
 20
0.4894138988962598
 30
0.0
 11
16.61345298923241
 21
0.0017712048222033
 31
0.0
  0
LINE
  5
599
330
18
100
AcDbEntity
  8
1
 62
     1
100
AcDbLine
 10
15.0
 20
-0.30349375
 30
0.0
 11
15.0
 21
-0.3034916146049183
 31
0.0
  0
LINE
  5
59A
330
18
100
AcDbEntity
  8
1
 62
     1
100
AcDbLine
 10
15.0
 20
-0.3034916146049183
 30
0.0
 11
15.0
 21
-0.302861643999997
 31
0.0
  0
LINE
  5
59B
330
18
100
AcDbEntity
  8
1
 62
     1
100
AcDbLine
 10
15.0
 20
-0.302861643999997
 30
0.0
 11
15.0
 21
-0.2939753312084482
 31
0.0
  0
LINE
  5
59C
330
18
100
AcDbEntity
  8
1
 62
     1
100
AcDbLine
 10
15.0
 20
-0.2939753312084482
 30
0.0
 11
15.0
 21
-0.2861947873198432
 31
0.0
  0
LINE
  5
59D
330
18
100
AcDbEntity
  8
1
 62
     1
100
AcDbLine
 10
15.0
 20
-0.2828838454367428
 30
0.0
 11
15.0
 21
-0.2861947873198432
 31
0.0
  0
LINE
  5
59E
330
18
100
AcDbEntity
  8
1
 62
     1
100
AcDbLine
 10
15.0
 20
-0.2611203455677039
 30
0.0
 11
15.0
 21
-0.282883845436722
 31
0.0
  0
LINE
  5
59F
330
18
100
AcDbEntity
  8
1
 62
     1
100
AcDbLine
 10
19.66453345428711
 20
0.018154855070717
 30
0.0
 11
19.66452467725775
 21
0.018154855069552
 31
0.0
  0
LINE
  5
5A0
330
18
100
AcDbEntity
  8
1
 62
     1
100
AcDbLine
 10
19.66452467725775
 20
0.018154855069552
 30
0.0
 11
19.56281213952604
 21
0.0179934697304055
 31
0.0
  0
LINE
  5
5A1
330
18
100
AcDbEntity
  8
1
 62
     1
100
AcDbLine
 10
19.55713151721037
 20
0.0181548509047094
 30
0.0
 11
19.55713256452702
 21
0.0181548509101924
 31
0.0
  0
ARC
  5
5A2
330
18
100
AcDbEntity
  8
1
 62
     1
100
AcDbCircle
 10
19.55713245600541
 20
-0.0818719170348939
 30
0.0
 40
0.1000267679090251
100
AcDbArc
 50
86.74490114574164
 51
89.99993783833223
  0
LINE
  5
5A3
330
18
100
AcDbEntity
  8
1
 62
     1
100
AcDbLine
 10
19.6645334542871
 20
0.0181548550695519
 30
0.0
 11
19.66452467725775
 21
0.0181548550695519
 31
0.0
  0
ARC
  5
5A4
330
18
100
AcDbEntity
  8
1
 62
     1
100
AcDbCircle
 10
19.44191061257571
 20
-0.0911747868326931
 30
0.0
 40
0.1093480298596118
100
AcDbArc
 50
57.9388301809967
 51
89.49797262379812
  0
LINE
  5
5A5
330
18
100
AcDbEntity
  8
1
 62
     1
100
AcDbLine
 10
19.30713151721037
 20
0.0181548509047094
 30
0.0
 11
19.30713256452927
 21
0.0181548509101924
 31
0.0
  0
ARC
  5
5A6
330
18
100
AcDbEntity
  8
1
 62
     1
100
AcDbCircle
 10
19.3071120480112
 20
-0.0823163184788163
 30
0.0
 40
0.1004713159769508
100
AcDbArc
 50
79.14409912269713
 51
89.98830002788712
  0
ARC
  5
5A7
330
18
100
AcDbEntity
  8
1
 62
     1
100
AcDbCircle
 10
19.19191037589071
 20
-0.0911758484557281
 30
0.0
 40
0.1093491105737253
100
AcDbArc
 50
57.93902020932456
 51
89.49783366027451
  0
LINE
  5
5A8
330
18
100
AcDbEntity
  8
1
 62
     1
100
AcDbLine
 10
19.05713151721038
 20
0.0181548509047094
 30
0.0
 11
19.05789450178374
 21
0.0181519479326627
 31
0.0
  0
ARC
  5
5A9
330
18
100
AcDbEntity
  8
1
 62
     1
100
AcDbCircle
 10
19.05699411727296
 20
-0.083749273157061
 30
0.0
 40
0.1019066455741588
100
AcDbArc
 50
71.544258088608
 51
89.4937559199037
  0
LINE
  5
5AA
330
18
100
AcDbEntity
  8
1
 62
     1
100
AcDbLine
 10
19.05789450178374
 20
0.0181548550695519
 30
0.0
 11
19.05713151721038
 21
0.0181548550695519
 31
0.0
  0
ARC
  5
5AB
330
18
100
AcDbEntity
  8
1
 62
     1
100
AcDbCircle
 10
18.94190940634877
 20
-0.0911788536106407
 30
0.0
 40
0.1093522315708802
100
AcDbArc
 50
57.93942519311197
 51
89.49737822307381
  0
LINE
  5
5AC
330
18
100
AcDbEntity
  8
1
 62
     1
100
AcDbLine
 10
18.80713151721037
 20
0.0181548509047094
 30
0.0
 11
18.80789450178374
 21
0.0181519479326627
 31
0.0
  0
ARC
  5
5AD
330
18
100
AcDbEntity
  8
1
 62
     1
100
AcDbCircle
 10
18.80670156631658
 20
-0.0861994950403047
 30
0.0
 40
0.1043645418620126
100
AcDbArc
 50
63.99305841043628
 51
89.34502879633233
  0
LINE
  5
5AE
330
18
100
AcDbEntity
  8
1
 62
     1
100
AcDbLine
 10
18.94286854977593
 20
0.0181548550695519
 30
0.0
 11
18.942865543337
 21
0.0181548550695519
 31
0.0
  0
LINE
  5
5AF
330
18
100
AcDbEntity
  8
1
 62
     1
100
AcDbLine
 10
18.80789450178374
 20
0.0181548550695519
 30
0.0
 11
18.80713151721037
 21
0.0181548550695519
 31
0.0
  0
ARC
  5
5B0
330
18
100
AcDbEntity
  8
1
 62
     1
100
AcDbCircle
 10
18.69191034237469
 20
-0.0911759594341741
 30
0.0
 40
0.1093492253460767
100
AcDbArc
 50
57.93903618097723
 51
89.4978171202584
  0
LINE
  5
5B1
330
18
100
AcDbEntity
  8
1
 62
     1
100
AcDbLine
 10
18.55713151721038
 20
0.0181548509047094
 30
0.0
 11
18.55789450178374
 21
0.0181519479326627
 31
0.0
  0
ARC
  5
5B2
330
18
100
AcDbEntity
  8
1
 62
     1
100
AcDbCircle
 10
18.55625243454901
 20
-0.0890863005152493
 30
0.0
 40
0.1072666500822777
100
AcDbArc
 50
57.80698594365749
 51
89.12273678980746
  0
LINE
  5
5B3
330
18
100
AcDbEntity
  8
1
 62
     1
100
AcDbLine
 10
18.55789450178375
 20
0.0181548550695519
 30
0.0
 11
18.55713151721039
 21
0.0181548550695519
 31
0.0
  0
ARC
  5
5B4
330
18
100
AcDbEntity
  8
1
 62
     1
100
AcDbCircle
 10
18.44191034237468
 20
-0.0911759594342388
 30
0.0
 40
0.1093492253461416
100
AcDbArc
 50
57.93903618098891
 51
89.49781712025309
  0
LINE
  5
5B5
330
18
100
AcDbEntity
  8
1
 62
     1
100
AcDbLine
 10
18.30713151721038
 20
0.0181548509047094
 30
0.0
 11
18.30713256452927
 21
0.0181548509101924
 31
0.0
  0
ARC
  5
5B6
330
18
100
AcDbEntity
  8
1
 62
     1
100
AcDbCircle
 10
18.3063110810784
 20
-0.088902115591889
 30
0.0
 40
0.1070763946958451
100
AcDbArc
 50
57.78105895824233
 51
89.56035919504686
  0
ARC
  5
5B7
330
18
100
AcDbEntity
  8
1
 62
     1
100
AcDbCircle
 10
18.19191034237468
 20
-0.0911759594342221
 30
0.0
 40
0.1093492253461244
100
AcDbArc
 50
57.9390361809874
 51
89.49781712025676
  0
LINE
  5
5B8
330
18
100
AcDbEntity
  8
1
 62
     1
100
AcDbLine
 10
18.05713151721038
 20
0.0181548509047094
 30
0.0
 11
18.05713256452902
 21
0.0181548509101925
 31
0.0
  0
ARC
  5
5B9
330
18
100
AcDbEntity
  8
1
 62
     1
100
AcDbCircle
 10
18.05631108107842
 20
-0.0889021155918407
 30
0.0
 40
0.1070763946957943
100
AcDbArc
 50
57.78105895823627
 51
89.56035919519687
  0
ARC
  5
5BA
330
18
100
AcDbEntity
  8
1
 62
     1
100
AcDbCircle
 10
17.94191034237467
 20
-0.0911759594342698
 30
0.0
 40
0.1093492253461741
100
AcDbArc
 50
57.93903618098962
 51
89.49781712024766
  0
LINE
  5
5BB
330
18
100
AcDbEntity
  8
1
 62
     1
100
AcDbLine
 10
17.80713151721038
 20
0.0181548509047094
 30
0.0
 11
17.80713256452902
 21
0.0181548509101925
 31
0.0
  0
ARC
  5
5BC
330
18
100
AcDbEntity
  8
1
 62
     1
100
AcDbCircle
 10
17.80631108107844
 20
-0.0889021155917996
 30
0.0
 40
0.1070763946957526
100
AcDbArc
 50
57.78105895823096
 51
89.56035919520619
  0
ARC
  5
5BD
330
18
100
AcDbEntity
  8
1
 62
     1
100
AcDbCircle
 10
17.69191034237468
 20
-0.0911759594342255
 30
0.0
 40
0.1093492253461291
100
AcDbArc
 50
57.93903618098678
 51
89.49781712025676
  0
LINE
  5
5BE
330
18
100
AcDbEntity
  8
1
 62
     1
100
AcDbLine
 10
17.55713151721038
 20
0.0181548509047094
 30
0.0
 11
17.55713256452875
 21
0.0181548509101924
 31
0.0
  0
ARC
  5
5BF
330
18
100
AcDbEntity
  8
1
 62
     1
100
AcDbCircle
 10
17.55631108107844
 20
-0.0889021155917919
 30
0.0
 40
0.1070763946957441
100
AcDbArc
 50
57.78105895823072
 51
89.56035919534496
  0
ARC
  5
5C0
330
18
100
AcDbEntity
  8
1
 62
     1
100
AcDbCircle
 10
17.44191034237469
 20
-0.0911759594341567
 30
0.0
 40
0.1093492253460597
100
AcDbArc
 50
57.93903618097394
 51
89.4978171202583
  0
LINE
  5
5C1
330
18
100
AcDbEntity
  8
1
 62
     1
100
AcDbLine
 10
17.30713151721037
 20
0.0181548509047094
 30
0.0
 11
17.30713256452875
 21
0.0181548509101925
 31
0.0
  0
ARC
  5
5C2
330
18
100
AcDbEntity
  8
1
 62
     1
100
AcDbCircle
 10
17.30631108107846
 20
-0.0889021155917375
 30
0.0
 40
0.1070763946956878
100
AcDbArc
 50
57.78105895822327
 51
89.56035919535614
  0
ARC
  5
5C3
330
18
100
AcDbEntity
  8
1
 62
     1
100
AcDbCircle
 10
17.19191034237469
 20
-0.0911759594342069
 30
0.0
 40
0.1093492253461085
100
AcDbArc
 50
57.93903618098631
 51
89.49781712025853
  0
LINE
  5
5C4
330
18
100
AcDbEntity
  8
1
 62
     1
100
AcDbLine
 10
17.05713151721038
 20
0.0181548509047094
 30
0.0
 11
17.05789450178374
 21
0.0181519479326627
 31
0.0
  0
ARC
  5
5C5
330
18
100
AcDbEntity
  8
1
 62
     1
100
AcDbCircle
 10
17.05625243454901
 20
-0.0890863005152447
 30
0.0
 40
0.1072666500822726
100
AcDbArc
 50
57.80698594365622
 51
89.12273678980745
  0
LINE
  5
5C6
330
18
100
AcDbEntity
  8
1
 62
     1
100
AcDbLine
 10
17.05789450178374
 20
0.0181548550695519
 30
0.0
 11
17.05713151721038
 21
0.0181548550695519
 31
0.0
  0
ARC
  5
5C7
330
18
100
AcDbEntity
  8
1
 62
     1
100
AcDbCircle
 10
16.94191034237468
 20
-0.0911759594342076
 30
0.0
 40
0.1093492253461114
100
AcDbArc
 50
57.93903618098179
 51
89.49781712025853
  0
LINE
  5
5C8
330
18
100
AcDbEntity
  8
1
 62
     1
100
AcDbLine
 10
16.80713151721038
 20
0.0181548509047094
 30
0.0
 11
16.80713256452927
 21
0.0181548509101925
 31
0.0
  0
ARC
  5
5C9
330
18
100
AcDbEntity
  8
1
 62
     1
100
AcDbCircle
 10
16.80631108107843
 20
-0.0889021155918172
 30
0.0
 40
0.1070763946957717
100
AcDbArc
 50
57.78105895823148
 51
89.56035919506367
  0
ARC
  5
5CA
330
18
100
AcDbEntity
  8
1
 62
     1
100
AcDbCircle
 10
16.6919103423747
 20
-0.0911759594341492
 30
0.0
 40
0.1093492253460525
100
AcDbArc
 50
57.93903618097343
 51
89.49781712026012
  0
LINE
  5
5CB
330
18
100
AcDbEntity
  8
1
 62
     1
100
AcDbLine
 10
16.55713151721038
 20
0.0181548509047094
 30
0.0
 11
16.55713256452876
 21
0.0181548509101924
 31
0.0
  0
ARC
  5
5CC
330
18
100
AcDbEntity
  8
1
 62
     1
100
AcDbCircle
 10
16.55631108107844
 20
-0.088902115591807
 30
0.0
 40
0.1070763946957578
100
AcDbArc
 50
57.78105895823342
 51
89.56035919534693
  0
ARC
  5
5CD
330
18
100
AcDbEntity
  8
1
 62
     1
100
AcDbCircle
 10
16.44191034237469
 20
-0.0911759594342052
 30
0.0
 40
0.1093492253461071
100
AcDbArc
 50
57.93903618098584
 51
89.4978171202604
  0
LINE
  5
5CE
330
18
100
AcDbEntity
  8
1
 62
     1
100
AcDbLine
 10
16.30713151721038
 20
0.0181548509047094
 30
0.0
 11
16.30713256452927
 21
0.0181548509101924
 31
0.0
  0
ARC
  5
5CF
330
18
100
AcDbEntity
  8
1
 62
     1
100
AcDbCircle
 10
16.30631108107839
 20
-0.0889021155919711
 30
0.0
 40
0.1070763946959249
100
AcDbArc
 50
57.78105895826091
 51
89.56035919504528
  0
ARC
  5
5D0
330
18
100
AcDbEntity
  8
1
 62
     1
100
AcDbCircle
 10
16.19191034237468
 20
-0.0911759594342116
 30
0.0
 40
0.1093492253461147
100
AcDbArc
 50
57.93903618098448
 51
89.4978171202567
  0
LINE
  5
5D1
330
18
100
AcDbEntity
  8
1
 62
     1
100
AcDbLine
 10
16.05713151721038
 20
0.0181548509047094
 30
0.0
 11
16.05713256357118
 21
0.0181548509101925
 31
0.0
  0
ARC
  5
5D2
330
18
100
AcDbEntity
  8
1
 62
     1
100
AcDbCircle
 10
16.05631108115079
 20
-0.0889021153630546
 30
0.0
 40
0.1070763944596711
100
AcDbArc
 50
57.78105892575634
 51
89.56035974557817
  0
ARC
  5
5D3
330
18
100
AcDbEntity
  8
1
 62
     1
100
AcDbCircle
 10
15.94191034237467
 20
-0.0911759594342739
 30
0.0
 40
0.1093492253461772
100
AcDbArc
 50
57.93903618099549
 51
89.49781712025047
  0
LINE
  5
5D4
330
18
100
AcDbEntity
  8
1
 62
     1
100
AcDbLine
 10
15.80713151721038
 20
0.0181548509047094
 30
0.0
 11
15.80713256452876
 21
0.0181548509101924
 31
0.0
  0
ARC
  5
5D5
330
18
100
AcDbEntity
  8
1
 62
     1
100
AcDbCircle
 10
15.80631108107844
 20
-0.0889021155917958
 30
0.0
 40
0.1070763946957465
100
AcDbArc
 50
57.78105895823338
 51
89.56035919534686
  0
ARC
  5
5D6
330
18
100
AcDbEntity
  8
1
 62
     1
100
AcDbCircle
 10
15.69191034237467
 20
-0.0911759594342561
 30
0.0
 40
0.1093492253461596
100
AcDbArc
 50
57.93903618099133
 51
89.49781712024945
  0
LINE
  5
5D7
330
18
100
AcDbEntity
  8
1
 62
     1
100
AcDbLine
 10
15.55713151721038
 20
0.0181548509047094
 30
0.0
 11
15.55789450178374
 21
0.0181519479326627
 31
0.0
  0
ARC
  5
5D8
330
18
100
AcDbEntity
  8
1
 62
     1
100
AcDbCircle
 10
15.55625243454901
 20
-0.089086300515208
 30
0.0
 40
0.1072666500822359
100
AcDbArc
 50
57.80698594365164
 51
89.12273678981379
  0
LINE
  5
5D9
330
18
100
AcDbEntity
  8
1
 62
     1
100
AcDbLine
 10
15.55789450178374
 20
0.0181548550695519
 30
0.0
 11
15.55713151721038
 21
0.0181548550695519
 31
0.0
  0
ARC
  5
5DA
330
18
100
AcDbEntity
  8
1
 62
     1
100
AcDbCircle
 10
15.44191034237468
 20
-0.0911759594342283
 30
0.0
 40
0.1093492253461313
100
AcDbArc
 50
57.93903618098756
 51
89.49781712025491
  0
LINE
  5
5DB
330
18
100
AcDbEntity
  8
1
 62
     1
100
AcDbLine
 10
15.30713151721038
 20
0.0181548509047094
 30
0.0
 11
15.30713256452927
 21
0.0181548509101924
 31
0.0
  0
ARC
  5
5DC
330
18
100
AcDbEntity
  8
1
 62
     1
100
AcDbCircle
 10
15.3063110810784
 20
-0.0889021155919078
 30
0.0
 40
0.107076394695863
100
AcDbArc
 50
57.78105895824843
 51
89.56035919504978
  0
ARC
  5
5DD
330
18
100
AcDbEntity
  8
1
 62
     1
100
AcDbCircle
 10
15.19191034237468
 20
-0.0911759594341971
 30
0.0
 40
0.1093492253461015
100
AcDbArc
 50
57.93903618097966
 51
89.49781712025383
  0
LINE
  5
5DE
330
18
100
AcDbEntity
  8
1
 62
     1
100
AcDbLine
 10
15.05713151721037
 20
0.0181548509047094
 30
0.0
 11
15.05789450178374
 21
0.0181519479326627
 31
0.0
  0
ARC
  5
5DF
330
18
100
AcDbEntity
  8
1
 62
     1
100
AcDbCircle
 10
15.05625243454901
 20
-0.0890863005152446
 30
0.0
 40
0.1072666500822725
100
AcDbArc
 50
57.80698594365643
 51
89.1227367898122
  0
LINE
  5
5E0
330
18
100
AcDbEntity
  8
1
 62
     1
100
AcDbLine
 10
15.05789450178374
 20
0.0181548550695519
 30
0.0
 11
15.05713151721038
 21
0.0181548550695519
 31
0.0
  0
LINE
  5
5E1
330
18
100
AcDbEntity
  8
1
 62
     1
100
AcDbLine
 10
19.56281213952605
 20
0.4122875162660818
 30
0.0
 11
19.5
 21
0.30349375
 31
0.0
  0
LINE
  5
5E2
330
18
100
AcDbEntity
  8
1
 62
     1
100
AcDbLine
 10
19.5
 20
0.30349375
 30
0.0
 11
19.42975743117717
 21
0.4251573913295882
 31
0.0
  0
LINE
  5
5E3
330
18
100
AcDbEntity
  8
1
 62
     1
100
AcDbLine
 10
19.79958933635036
 20
0.3893849600256345
 30
0.0
 11
19.75
 21
0.30349375
 31
0.0
  0
LINE
  5
5E4
330
18
100
AcDbEntity
  8
1
 62
     1
100
AcDbLine
 10
19.79958933635035
 20
-0.3893849600256356
 30
0.0
 11
19.95933144884659
 21
-0.373933714025255
 31
0.0
  0
LINE
  5
5E5
330
18
100
AcDbEntity
  8
1
 62
     1
100
AcDbLine
 10
19.56281213952604
 20
-0.4122875162660823
 30
0.0
 11
19.69454444001189
 21
-0.3995455526774218
 31
0.0
  0
LINE
  5
5E6
330
18
100
AcDbEntity
  8
1
 62
     1
100
AcDbLine
 10
19.32603494270172
 20
-0.4351900725065297
 30
0.0
 11
19.42975743117717
 21
-0.4251573913295891
 31
0.0
  0
LINE
  5
5E7
330
18
100
AcDbEntity
  8
1
 62
     1
100
AcDbLine
 10
19.08925774587741
 20
-0.4580926287469763
 30
0.0
 11
19.16497042234245
 21
-0.4507692299817567
 31
0.0
  0
LINE
  5
5E8
330
18
100
AcDbEntity
  8
1
 62
     1
100
AcDbLine
 10
18.8524805490531
 20
-0.4809951849874234
 30
0.0
 11
18.90018341350774
 21
-0.4763810686339238
 31
0.0
  0
LINE
  5
5E9
330
18
100
AcDbEntity
  8
1
 62
     1
100
AcDbLine
 10
20.0
 20
0.30349375
 30
0.0
 11
19.95933144884659
 21
0.3739337140252564
 31
0.0
  0
LINE
  5
5EA
330
18
100
AcDbEntity
  8
1
 62
     1
100
AcDbLine
 10
19.08925774587741
 20
0.4580926287469764
 30
0.0
 11
19.0
 21
0.30349375
 31
0.0
  0
LINE
  5
5EB
330
18
100
AcDbEntity
  8
1
 62
     1
100
AcDbLine
 10
19.0
 20
0.30349375
 30
0.0
 11
18.90018341350774
 21
0.4763810686339227
 31
0.0
  0
LINE
  5
5EC
330
18
100
AcDbEntity
  8
1
 62
     1
100
AcDbLine
 10
19.25
 20
0.30349375
 30
0.0
 11
19.16497042234245
 21
0.4507692299817563
 31
0.0
  0
LINE
  5
5ED
330
18
100
AcDbEntity
  8
1
 62
     1
100
AcDbLine
 10
19.32603494270172
 20
0.435190072506529
 30
0.0
 11
19.25
 21
0.30349375
 31
0.0
  0
LINE
  5
5EE
330
18
100
AcDbEntity
  8
1
 62
     1
100
AcDbLine
 10
19.75
 20
0.30349375
 30
0.0
 11
19.69454444001188
 21
0.39954555267742
 31
0.0
  0
LINE
  5
5EF
330
18
100
AcDbEntity
  8
1
 62
     1
100
AcDbLine
 10
18.61345298923242
 20
-0.5
 30
0.0
 11
18.63654701076759
 21
-0.5
 31
0.0
  0
LINE
  5
5F0
330
18
100
AcDbEntity
  8
1
 62
     1
100
AcDbLine
 10
18.36345298923241
 20
-0.5
 30
0.0
 11
18.38654701076759
 21
-0.5
 31
0.0
  0
LINE
  5
5F1
330
18
100
AcDbEntity
  8
1
 62
     1
100
AcDbLine
 10
18.11345298923241
 20
-0.5
 30
0.0
 11
18.13654701076759
 21
-0.5
 31
0.0
  0
LINE
  5
5F2
330
18
100
AcDbEntity
  8
1
 62
     1
100
AcDbLine
 10
17.86345298923241
 20
-0.5
 30
0.0
 11
17.88654701076759
 21
-0.5
 31
0.0
  0
LINE
  5
5F3
330
18
100
AcDbEntity
  8
1
 62
     1
100
AcDbLine
 10
17.61345298923241
 20
-0.5
 30
0.0
 11
17.63654701076759
 21
-0.5
 31
0.0
  0
LINE
  5
5F4
330
18
100
AcDbEntity
  8
1
 62
     1
100
AcDbLine
 10
17.36345298923241
 20
-0.5
 30
0.0
 11
17.38654701076759
 21
-0.5
 31
0.0
  0
LINE
  5
5F5
330
18
100
AcDbEntity
  8
1
 62
     1
100
AcDbLine
 10
17.11345298923241
 20
-0.5
 30
0.0
 11
17.13654701076759
 21
-0.5
 31
0.0
  0
LINE
  5
5F6
330
18
100
AcDbEntity
  8
1
 62
     1
100
AcDbLine
 10
16.86345298923241
 20
-0.5
 30
0.0
 11
16.88654701076759
 21
-0.5
 31
0.0
  0
LINE
  5
5F7
330
18
100
AcDbEntity
  8
1
 62
     1
100
AcDbLine
 10
16.61345298923241
 20
-0.5
 30
0.0
 11
16.63654701076759
 21
-0.5
 31
0.0
  0
LINE
  5
5F8
330
18
100
AcDbEntity
  8
1
 62
     1
100
AcDbLine
 10
16.36345298923241
 20
-0.5
 30
0.0
 11
16.38654701076759
 21
-0.5
 31
0.0
  0
LINE
  5
5F9
330
18
100
AcDbEntity
  8
1
 62
     1
100
AcDbLine
 10
16.11345298923241
 20
-0.5
 30
0.0
 11
16.13654701076759
 21
-0.5
 31
0.0
  0
LINE
  5
5FA
330
18
100
AcDbEntity
  8
1
 62
     1
100
AcDbLine
 10
15.86345298923241
 20
-0.5
 30
0.0
 11
15.88654701076759
 21
-0.5
 31
0.0
  0
LINE
  5
5FB
330
18
100
AcDbEntity
  8
1
 62
     1
100
AcDbLine
 10
15.61345298923241
 20
-0.5
 30
0.0
 11
15.6365470107676
 21
-0.5
 31
0.0
  0
LINE
  5
5FC
330
18
100
AcDbEntity
  8
1
 62
     1
100
AcDbLine
 10
15.36345298923241
 20
-0.5
 30
0.0
 11
15.38654701076759
 21
-0.5
 31
0.0
  0
LINE
  5
5FD
330
18
100
AcDbEntity
  8
1
 62
     1
100
AcDbLine
 10
15.11345298923241
 20
-0.5
 30
0.0
 11
15.13654701076759
 21
-0.5
 31
0.0
  0
LINE
  5
5FE
330
18
100
AcDbEntity
  8
1
 62
     1
100
AcDbLine
 10
16.86345298923241
 20
0.4999999999999991
 30
0.0
 11
16.75
 21
0.30349375
 31
0.0
  0
LINE
  5
5FF
330
18
100
AcDbEntity
  8
1
 62
     1
100
AcDbLine
 10
18.11345298923241
 20
0.5000000000000024
 30
0.0
 11
18.0
 21
0.30349375
 31
0.0
  0
LINE
  5
600
330
18
100
AcDbEntity
  8
1
 62
     1
100
AcDbLine
 10
18.25
 20
0.30349375
 30
0.0
 11
18.13654701076759
 21
0.5000000000000024
 31
0.0
  0
LINE
  5
601
330
18
100
AcDbEntity
  8
1
 62
     1
100
AcDbLine
 10
18.36345298923241
 20
0.4999999999999991
 30
0.0
 11
18.25
 21
0.30349375
 31
0.0
  0
LINE
  5
602
330
18
100
AcDbEntity
  8
1
 62
     1
100
AcDbLine
 10
18.5
 20
0.30349375
 30
0.0
 11
18.38654701076759
 21
0.5000000000000024
 31
0.0
  0
LINE
  5
603
330
18
100
AcDbEntity
  8
1
 62
     1
100
AcDbLine
 10
18.61345298923241
 20
0.5000000000000026
 30
0.0
 11
18.5
 21
0.30349375
 31
0.0
  0
LINE
  5
604
330
18
100
AcDbEntity
  8
1
 62
     1
100
AcDbLine
 10
17.86345298923241
 20
0.5000000000000026
 30
0.0
 11
17.75
 21
0.30349375
 31
0.0
  0
LINE
  5
605
330
18
100
AcDbEntity
  8
1
 62
     1
100
AcDbLine
 10
18.75
 20
0.30349375
 30
0.0
 11
18.63654701076759
 21
0.4999999999999992
 31
0.0
  0
LINE
  5
606
330
18
100
AcDbEntity
  8
1
 62
     1
100
AcDbLine
 10
17.61345298923241
 20
0.4999999999999991
 30
0.0
 11
17.5
 21
0.30349375
 31
0.0
  0
LINE
  5
607
330
18
100
AcDbEntity
  8
1
 62
     1
100
AcDbLine
 10
17.5
 20
0.30349375
 30
0.0
 11
17.38654701076759
 21
0.5000000000000024
 31
0.0
  0
LINE
  5
608
330
18
100
AcDbEntity
  8
1
 62
     1
100
AcDbLine
 10
17.36345298923241
 20
0.4999999999999991
 30
0.0
 11
17.25
 21
0.30349375
 31
0.0
  0
LINE
  5
609
330
18
100
AcDbEntity
  8
1
 62
     1
100
AcDbLine
 10
17.25
 20
0.30349375
 30
0.0
 11
17.13654701076759
 21
0.5000000000000024
 31
0.0
  0
LINE
  5
60A
330
18
100
AcDbEntity
  8
1
 62
     1
100
AcDbLine
 10
17.11345298923241
 20
0.5000000000000024
 30
0.0
 11
17.0
 21
0.30349375
 31
0.0
  0
LINE
  5
60B
330
18
100
AcDbEntity
  8
1
 62
     1
100
AcDbLine
 10
17.0
 20
0.30349375
 30
0.0
 11
16.88654701076759
 21
0.5000000000000024
 31
0.0
  0
LINE
  5
60C
330
18
100
AcDbEntity
  8
1
 62
     1
100
AcDbLine
 10
18.0
 20
0.30349375
 30
0.0
 11
17.88654701076759
 21
0.5000000000000024
 31
0.0
  0
LINE
  5
60D
330
18
100
AcDbEntity
  8
1
 62
     1
100
AcDbLine
 10
18.85248054905311
 20
0.4809951849874223
 30
0.0
 11
18.75
 21
0.30349375
 31
0.0
  0
LINE
  5
60E
330
18
100
AcDbEntity
  8
1
 62
     1
100
AcDbLine
 10
17.75
 20
0.30349375
 30
0.0
 11
17.63654701076759
 21
0.5000000000000024
 31
0.0
  0
LINE
  5
60F
330
18
100
AcDbEntity
  8
1
 62
     1
100
AcDbLine
 10
15.61345298923241
 20
0.4999999999999999
 30
0.0
 11
15.5
 21
0.30349375
 31
0.0
  0
LINE
  5
610
330
18
100
AcDbEntity
  8
1
 62
     1
100
AcDbLine
 10
15.75
 20
0.30349375
 30
0.0
 11
15.63654701076759
 21
0.5
 31
0.0
  0
LINE
  5
611
330
18
100
AcDbEntity
  8
1
 62
     1
100
AcDbLine
 10
15.86345298923241
 20
0.4999999999999991
 30
0.0
 11
15.75
 21
0.30349375
 31
0.0
  0
LINE
  5
612
330
18
100
AcDbEntity
  8
1
 62
     1
100
AcDbLine
 10
16.75
 20
0.30349375
 30
0.0
 11
16.63654701076759
 21
0.5000000000000024
 31
0.0
  0
LINE
  5
613
330
18
100
AcDbEntity
  8
1
 62
     1
100
AcDbLine
 10
15.11345298923241
 20
0.4999999999999999
 30
0.0
 11
15.0
 21
0.30349375
 31
0.0
  0
LINE
  5
614
330
18
100
AcDbEntity
  8
1
 62
     1
100
AcDbLine
 10
15.25
 20
0.30349375
 30
0.0
 11
15.13654701076759
 21
0.5000000000000024
 31
0.0
  0
LINE
  5
615
330
18
100
AcDbEntity
  8
1
 62
     1
100
AcDbLine
 10
15.36345298923241
 20
0.4999999999999999
 30
0.0
 11
15.25
 21
0.30349375
 31
0.0
  0
LINE
  5
616
330
18
100
AcDbEntity
  8
1
 62
     1
100
AcDbLine
 10
15.5
 20
0.30349375
 30
0.0
 11
15.38654701076759
 21
0.5000000000000024
 31
0.0
  0
LINE
  5
617
330
18
100
AcDbEntity
  8
1
 62
     1
100
AcDbLine
 10
16.11345298923241
 20
0.5000000000000026
 30
0.0
 11
16.0
 21
0.30349375
 31
0.0
  0
LINE
  5
618
330
18
100
AcDbEntity
  8
1
 62
     1
100
AcDbLine
 10
16.0
 20
0.30349375
 30
0.0
 11
15.88654701076759
 21
0.5000000000000024
 31
0.0
  0
LINE
  5
619
330
18
100
AcDbEntity
  8
1
 62
     1
100
AcDbLine
 10
16.25
 20
0.30349375
 30
0.0
 11
16.13654701076759
 21
0.5000000000000024
 31
0.0
  0
LINE
  5
61A
330
18
100
AcDbEntity
  8
1
 62
     1
100
AcDbLine
 10
16.36345298923241
 20
0.4999999999999991
 30
0.0
 11
16.25
 21
0.30349375
 31
0.0
  0
LINE
  5
61B
330
18
100
AcDbEntity
  8
1
 62
     1
100
AcDbLine
 10
16.5
 20
0.30349375
 30
0.0
 11
16.38654701076759
 21
0.4999999999999992
 31
0.0
  0
LINE
  5
61C
330
18
100
AcDbEntity
  8
1
 62
     1
100
AcDbLine
 10
16.61345298923241
 20
0.4999999999999991
 30
0.0
 11
16.5
 21
0.30349375
 31
0.0
  0
LINE
  5
61D
330
18
100
AcDbEntity
  8
SK1
100
AcDbLine
 10
-20.245
 20
-1.05
 30
0.0
 11
-15.37
 21
-1.05
 31
0.0
  0
LINE
  5
61E
330
18
100
AcDbEntity
  8
SK1
100
AcDbLine
 10
-15.37
 20
-1.049999999999905
 30
0.0
 11
-15.37
 21
-1.25
 31
0.0
  0
LINE
  5
61F
330
18
100
AcDbEntity
  8
SK1
100
AcDbLine
 10
-20.24499999999999
 20
1.049999999999905
 30
0.0
 11
-20.245
 21
0.6782329983125269
 31
0.0
  0
ARC
  5
620
330
18
100
AcDbEntity
  8
SK1
100
AcDbCircle
 10
-18.54873312031404
 20
-0.2617812441003455
 30
0.0
 40
1.939139678599037
100
AcDbArc
 50
151.0062492250136
 51
159.9227651753763
  0
LINE
  5
621
330
18
100
AcDbEntity
  8
SK1
100
AcDbLine
 10
-20.37
 20
1.05
 30
0.0
 11
-20.245
 21
1.05
 31
0.0
  0
LINE
  5
622
330
18
100
AcDbEntity
  8
SK1
100
AcDbLine
 10
-15.37
 20
1.25
 30
0.0
 11
-15.37
 21
1.249957708264052
 31
0.0
  0
LINE
  5
623
330
18
100
AcDbEntity
  8
SK1
100
AcDbLine
 10
-15.37
 20
1.249957708264052
 30
0.0
 11
-15.37
 21
1.237149268026273
 31
0.0
  0
LINE
  5
624
330
18
100
AcDbEntity
  8
SK1
100
AcDbLine
 10
-15.37
 20
1.237149268026273
 30
0.0
 11
-15.37
 21
1.049999999999905
 31
0.0
  0
LINE
  5
625
330
18
100
AcDbEntity
  8
SK1
100
AcDbLine
 10
-20.245
 20
1.05
 30
0.0
 11
-15.37
 21
1.05
 31
0.0
  0
LINE
  5
626
330
18
100
AcDbEntity
  8
SK1
100
AcDbLine
 10
-20.245
 20
-0.6782329983125264
 30
0.0
 11
-15.37
 21
-0.6782329983125264
 31
0.0
  0
LINE
  5
627
330
18
100
AcDbEntity
  8
SK1
100
AcDbLine
 10
-20.24499999999999
 20
-0.6782329983126734
 30
0.0
 11
-20.245
 21
-1.049999999999905
 31
0.0
  0
LINE
  5
628
330
18
100
AcDbEntity
  8
SK1
100
AcDbLine
 10
-20.37
 20
1.05
 30
0.0
 11
-20.37
 21
0.4038873605350875
 31
0.0
  0
LINE
  5
629
330
18
100
AcDbEntity
  8
SK1
100
AcDbLine
 10
-20.37
 20
-0.4038873605350875
 30
0.0
 11
-20.37
 21
-1.05
 31
0.0
  0
ARC
  5
62A
330
18
100
AcDbEntity
  8
SK1
100
AcDbCircle
 10
-18.5487331203159
 20
0.2617812440994696
 30
0.0
 40
1.939139678596982
100
AcDbArc
 50
200.0772348246181
 51
208.9937507749904
  0
LINE
  5
62B
330
18
100
AcDbEntity
  8
SK1
100
AcDbLine
 10
-20.37
 20
-1.05
 30
0.0
 11
-20.245
 21
-1.05
 31
0.0
  0
LINE
  5
62C
330
18
100
AcDbEntity
  8
SK1
100
AcDbLine
 10
-15.37
 20
0.6782329983125266
 30
0.0
 11
-15.37
 21
-0.6782329983125263
 31
0.0
  0
LINE
  5
62D
330
18
100
AcDbEntity
  8
SK1
100
AcDbLine
 10
-20.37
 20
0.4038873605350879
 30
0.0
 11
-20.37
 21
-0.4038873605350874
 31
0.0
  0
LINE
  5
62E
330
18
100
AcDbEntity
  8
SK1
100
AcDbLine
 10
-20.245
 20
0.6782329983125267
 30
0.0
 11
-15.37
 21
0.6782329983125267
 31
0.0
  0
LINE
  5
62F
330
18
100
AcDbEntity
  8
SK1
100
AcDbLine
 10
0.0
 20
1.25
 30
0.0
 11
-15.37
 21
1.25
 31
0.0
  0
LINE
  5
630
330
18
100
AcDbEntity
  8
SK1
100
AcDbLine
 10
-15.37
 20
-1.25
 30
0.0
 11
0.0000000000000018
 21
-1.25
 31
0.0
  0
DIMENSION
  5
631
330
18
100
AcDbEntity
  8
2
100
AcDbDimension
  2
*D0
 10
35.00000000000001
 20
-0.4999999999999476
 30
0.0
 11
32.62500000000001
 21
-8.543499999999948
 31
0.0
 70
    32
  1
M1
 71
     5
 42
1.0
  3
STANDARD
100
AcDbAlignedDimension
 13
20.0
 23
0.5
 33
0.0
 14
20.0
 24
-0.5
 34
0.0
 50
90.0000000000002
100
AcDbRotatedDimension
  0
DIMENSION
  5
63F
330
18
100
AcDbEntity
  8
2
100
AcDbDimension
  2
*D1
 10
20.0
 20
75.0
 30
0.0
 11
10.0
 21
77.39075
 31
0.0
 70
    32
  1
<>
 71
     5
 42
20.0
  3
STANDARD
100
AcDbAlignedDimension
 13
0.0
 23
0.0
 33
0.0
 14
20.0
 24
0.0
 34
0.0
100
AcDbRotatedDimension
  0
DIMENSION
  5
64C
330
18
100
AcDbEntity
  8
SK2
100
AcDbDimension
  2
*D2
 10
-35.36999999999362
 20
-1.250000000102068
 30
0.0
 11
-37.76774999993709
 21
-12.32450000011431
 31
0.0
 70
    32
  1
%%c<>
 71
     5
 42
2.5
  3
STANDARD
100
AcDbAlignedDimension
 13
-15.37
 23
1.25
 33
0.0
 14
-15.37
 24
-1.25
 34
0.0
 50
90.0000000002924
100
AcDbRotatedDimension
  0
DIMENSION
  5
65A
330
18
100
AcDbEntity
  8
2
100
AcDbDimension
  2
*D3
 10
20.0
 20
60.0
 30
0.0
 11
17.5
 21
62.39075
 31
0.0
 70
    32
  1
<>
 71
     5
 42
5.0
  3
STANDARD
100
AcDbAlignedDimension
 13
15.0
 23
1.25
 33
0.0
 14
20.0
 24
0.5
 34
0.0
100
AcDbRotatedDimension
  0
DIMENSION
  5
668
330
18
100
AcDbEntity
  8
SK2
100
AcDbDimension
  2
*D4
 10
20.0
 20
90.0
 30
0.0
 11
-0.1849999999999987
 21
92.438
 31
0.0
 70
    32
  1
<>
 71
     5
 42
40.37
  3
STANDARD
100
AcDbAlignedDimension
 13
-20.37
 23
0.5
 33
0.0
 14
20.0
 24
0.5
 34
0.0
100
AcDbRotatedDimension
  0
ENDSEC
  0
SECTION
  2
OBJECTS
  0
DICTIONARY
  5
C
330
0
100
AcDbDictionary
281
     1
  3
ACAD_COLOR
350
387
  3
ACAD_GROUP
350
D
  3
ACAD_LAYOUT
350
301
  3
ACAD_MATERIAL
350
386
  3
ACAD_MLEADERSTYLE
350
675
  3
ACAD_MLINESTYLE
350
E
  3
ACAD_PLOTSETTINGS
350
302
  3
ACAD_PLOTSTYLENAME
350
2FF
  3
ACAD_SCALELIST
350
3A0
  3
ACAD_TABLESTYLE
350
388
  3
ACAD_VISUALSTYLE
350
3C5
  3
ACDBHEADERROUNDTRIPXREC
350
676
  3
AcDbVariableDictionary
350
357
  0
DICTIONARY
  5
387
102
{ACAD_REACTORS
330
C
102
}
330
C
100
AcDbDictionary
281
     1
  0
DICTIONARY
  5
D
102
{ACAD_REACTORS
330
C
102
}
330
C
100
AcDbDictionary
281
     1
  0
DICTIONARY
  5
301
102
{ACAD_REACTORS
330
C
102
}
330
C
100
AcDbDictionary
281
     1
  3
Layout1
350
33B
  3
Model
350
303
  0
DICTIONARY
  5
386
102
{ACAD_REACTORS
330
C
102
}
330
C
100
AcDbDictionary
281
     1
  3
ByBlock
350
3C3
  3
ByLayer
350
3C2
  3
Global
350
3C4
  0
DICTIONARY
  5
675
102
{ACAD_REACTORS
330
C
102
}
330
C
100
AcDbDictionary
281
     1
  0
DICTIONARY
  5
E
102
{ACAD_REACTORS
330
C
102
}
330
C
100
AcDbDictionary
281
     1
  3
STANDARD
350
1B
  0
DICTIONARY
  5
302
102
{ACAD_REACTORS
330
C
102
}
330
C
100
AcDbDictionary
281
     1
  0
ACDBDICTIONARYWDFLT
  5
2FF
102
{ACAD_REACTORS
330
C
102
}
330
C
100
AcDbDictionary
281
     1
  3
Normal
350
300
100
AcDbDictionaryWithDefault
340
300
  0
DICTIONARY
  5
3A0
102
{ACAD_REACTORS
330
C
102
}
330
C
100
AcDbDictionary
281
     1
  3
A0
350
3A1
  3
A1
350
3A2
  3
A2
350
3A3
  3
A3
350
3A4
  3
A4
350
3A5
  3
A5
350
3A6
  3
A6
350
3A7
  3
A7
350
3A8
  3
A8
350
3A9
  3
A9
350
3AA
  3
B0
350
3AB
  3
B1
350
3AC
  3
B2
350
3AD
  3
B3
350
3AE
  3
B4
350
3AF
  3
B5
350
3B0
  3
B6
350
3B1
  3
B7
350
3B2
  3
B8
350
3B3
  3
B9
350
3B4
  3
C0
350
3B5
  3
C1
350
3B6
  3
C2
350
3B7
  3
C3
350
3B8
  3
C4
350
3B9
  3
C5
350
3BA
  3
C6
350
3BB
  3
C7
350
3BC
  3
C8
350
3BD
  3
C9
350
3BE
  3
D0
350
3BF
  3
D1
350
3C0
  3
D2
350
3C1
  0
DICTIONARY
  5
388
102
{ACAD_REACTORS
330
C
102
}
330
C
100
AcDbDictionary
281
     1
  3
Standard
350
389
  0
DICTIONARY
  5
3C5
102
{ACAD_REACTORS
330
C
102
}
330
C
100
AcDbDictionary
281
     1
  3
2dWireframe
350
3CA
  3
3D Hidden
350
3CC
  3
3dWireframe
350
3CB
  3
Basic
350
3CD
  3
Brighten
350
3D1
  3
ColorChange
350
3D5
  3
Conceptual
350
3CF
  3
Dim
350
3D0
  3
Facepattern
350
3D4
  3
Flat
350
3C6
  3
FlatWithEdges
350
3C7
  3
Gouraud
350
3C8
  3
GouraudWithEdges
350
3C9
  3
Linepattern
350
3D3
  3
Realistic
350
3CE
  3
Thicken
350
3D2
  0
DICTIONARY
  5
676
102
{ACAD_REACTORS
330
C
102
}
330
C
100
AcDbDictionary
281
     1
  3
COLORDICT
350
677
  3
MATERIALDICT
350
678
  0
DICTIONARY
  5
357
102
{ACAD_REACTORS
330
C
102
}
330
C
100
AcDbDictionary
281
     1
  3
CANNOSCALE
350
679
  3
CTABLESTYLE
350
38D
  3
DIMASSOC
350
359
  3
HIDETEXT
350
358
  3
PROJECTNAME
350
38E
  0
LAYOUT
  5
33B
102
{ACAD_REACTORS
330
301
102
}
330
301
100
AcDbPlotSettings
  1

  2
Lexmark Optra PS2
  4

  6

 40
0.0
 41
0.0
 42
0.0
 43
0.0
 44
0.0
 45
0.0
 46
0.0
 47
0.0
 48
0.0
 49
0.0
140
0.0
141
0.0
142
1.0
143
1.0
 70
   688
 72
     0
 73
     0
 74
     5
  7
monochrome.ctb
 75
    16
147
1.0
148
0.0
149
0.0
100
AcDbLayout
  1
Layout1
 70
     1
 71
     1
 10
0.0
 20
0.0
 11
12.0
 21
9.0
 12
0.0
 22
0.0
 32
0.0
 14
0.0
 24
0.0
 34
0.0
 15
0.0
 25
0.0
 35
0.0
146
0.0
 13
0.0
 23
0.0
 33
0.0
 16
1.0
 26
0.0
 36
0.0
 17
0.0
 27
1.0
 37
0.0
 76
     0
330
338
  0
LAYOUT
  5
303
102
{ACAD_REACTORS
330
301
102
}
330
301
100
AcDbPlotSettings
  1

  2
Lexmark Optra Rx
  4
A4
  6

 40
6.805083274841307
 41
5.535083293914794
 42
6.974411010742187
 43
7.14373779296875
 44
209.9733276367186
 45
296.9259948730469
 46
0.0
 47
0.0
 48
0.0
 49
0.0
140
0.0
141
0.0
142
1.0
143
2.976565420630886
 70
 11952
 72
     1
 73
     1
 74
     0
  7
monochrome.ctb
 75
     0
147
0.335957675604539
148
204.1199660668592
149
172.3933209647495
100
AcDbLayout
  1
Model
 70
     1
 71
     0
 10
0.0
 20
0.0
 11
12.0
 21
9.0
 12
0.0
 22
0.0
 32
0.0
 14
0.0
 24
0.0
 34
0.0
 15
0.0
 25
0.0
 35
0.0
146
0.0
 13
0.0
 23
0.0
 33
0.0
 16
1.0
 26
0.0
 36
0.0
 17
0.0
 27
1.0
 37
0.0
 76
     0
330
18
331
39A
  0
MATERIAL
  5
3C3
102
{ACAD_REACTORS
330
386
102
}
102
{ACAD_XDICTIONARY
360
67C
102
}
330
386
100
AcDbMaterial
  1
ByBlock
  0
MATERIAL
  5
3C2
102
{ACAD_REACTORS
330
386
102
}
102
{ACAD_XDICTIONARY
360
67A
102
}
330
386
100
AcDbMaterial
  1
ByLayer
  0
MATERIAL
  5
3C4
102
{ACAD_REACTORS
330
386
102
}
102
{ACAD_XDICTIONARY
360
67E
102
}
330
386
100
AcDbMaterial
  1
Global
  0
MLINESTYLE
  5
1B
102
{ACAD_REACTORS
330
E
102
}
330
E
100
AcDbMlineStyle
  2
STANDARD
 70
     0
  3

 62
     0
 51
90.0
 52
90.0
 71
     2
 49
0.5
 62
   256
  6
BYLAYER
 49
-0.5
 62
   256
  6
BYLAYER
  0
ACDBPLACEHOLDER
  5
300
102
{ACAD_REACTORS
330
2FF
102
}
330
2FF
  0
SCALE
  5
3A1
102
{ACAD_REACTORS
330
3A0
102
}
330
3A0
100
AcDbScale
 70
     0
300
1:1
140
1.0
141
1.0
290
     1
  0
SCALE
  5
3A2
102
{ACAD_REACTORS
330
3A0
102
}
330
3A0
100
AcDbScale
 70
     0
300
1:2
140
1.0
141
2.0
290
     0
  0
SCALE
  5
3A3
102
{ACAD_REACTORS
330
3A0
102
}
330
3A0
100
AcDbScale
 70
     0
300
1:4
140
1.0
141
4.0
290
     0
  0
SCALE
  5
3A4
102
{ACAD_REACTORS
330
3A0
102
}
330
3A0
100
AcDbScale
 70
     0
300
1:5
140
1.0
141
5.0
290
     0
  0
SCALE
  5
3A5
102
{ACAD_REACTORS
330
3A0
102
}
330
3A0
100
AcDbScale
 70
     0
300
1:8
140
1.0
141
8.0
290
     0
  0
SCALE
  5
3A6
102
{ACAD_REACTORS
330
3A0
102
}
330
3A0
100
AcDbScale
 70
     0
300
1:10
140
1.0
141
10.0
290
     0
  0
SCALE
  5
3A7
102
{ACAD_REACTORS
330
3A0
102
}
330
3A0
100
AcDbScale
 70
     0
300
1:16
140
1.0
141
16.0
290
     0
  0
SCALE
  5
3A8
102
{ACAD_REACTORS
330
3A0
102
}
330
3A0
100
AcDbScale
 70
     0
300
1:20
140
1.0
141
20.0
290
     0
  0
SCALE
  5
3A9
102
{ACAD_REACTORS
330
3A0
102
}
330
3A0
100
AcDbScale
 70
     0
300
1:30
140
1.0
141
30.0
290
     0
  0
SCALE
  5
3AA
102
{ACAD_REACTORS
330
3A0
102
}
330
3A0
100
AcDbScale
 70
     0
300
1:40
140
1.0
141
40.0
290
     0
  0
SCALE
  5
3AB
102
{ACAD_REACTORS
330
3A0
102
}
330
3A0
100
AcDbScale
 70
     0
300
1:50
140
1.0
141
50.0
290
     0
  0
SCALE
  5
3AC
102
{ACAD_REACTORS
330
3A0
102
}
330
3A0
100
AcDbScale
 70
     0
300
1:100
140
1.0
141
100.0
290
     0
  0
SCALE
  5
3AD
102
{ACAD_REACTORS
330
3A0
102
}
330
3A0
100
AcDbScale
 70
     0
300
2:1
140
2.0
141
1.0
290
     0
  0
SCALE
  5
3AE
102
{ACAD_REACTORS
330
3A0
102
}
330
3A0
100
AcDbScale
 70
     0
300
4:1
140
4.0
141
1.0
290
     0
  0
SCALE
  5
3AF
102
{ACAD_REACTORS
330
3A0
102
}
330
3A0
100
AcDbScale
 70
     0
300
8:1
140
8.0
141
1.0
290
     0
  0
SCALE
  5
3B0
102
{ACAD_REACTORS
330
3A0
102
}
330
3A0
100
AcDbScale
 70
     0
300
10:1
140
10.0
141
1.0
290
     0
  0
SCALE
  5
3B1
102
{ACAD_REACTORS
330
3A0
102
}
330
3A0
100
AcDbScale
 70
     0
300
100:1
140
100.0
141
1.0
290
     0
  0
SCALE
  5
3B2
102
{ACAD_REACTORS
330
3A0
102
}
330
3A0
100
AcDbScale
 70
     0
300
1/128" = 1'-0"
140
0.0078125
141
12.0
290
     0
  0
SCALE
  5
3B3
102
{ACAD_REACTORS
330
3A0
102
}
330
3A0
100
AcDbScale
 70
     0
300
1/64" = 1'-0"
140
0.015625
141
12.0
290
     0
  0
SCALE
  5
3B4
102
{ACAD_REACTORS
330
3A0
102
}
330
3A0
100
AcDbScale
 70
     0
300
1/32" = 1'-0"
140
0.03125
141
12.0
290
     0
  0
SCALE
  5
3B5
102
{ACAD_REACTORS
330
3A0
102
}
330
3A0
100
AcDbScale
 70
     0
300
1/16" = 1'-0"
140
0.0625
141
12.0
290
     0
  0
SCALE
  5
3B6
102
{ACAD_REACTORS
330
3A0
102
}
330
3A0
100
AcDbScale
 70
     0
300
3/32" = 1'-0"
140
0.09375
141
12.0
290
     0
  0
SCALE
  5
3B7
102
{ACAD_REACTORS
330
3A0
102
}
330
3A0
100
AcDbScale
 70
     0
300
1/8" = 1'-0"
140
0.125
141
12.0
290
     0
  0
SCALE
  5
3B8
102
{ACAD_REACTORS
330
3A0
102
}
330
3A0
100
AcDbScale
 70
     0
300
3/16" = 1'-0"
140
0.1875
141
12.0
290
     0
  0
SCALE
  5
3B9
102
{ACAD_REACTORS
330
3A0
102
}
330
3A0
100
AcDbScale
 70
     0
300
1/4" = 1'-0"
140
0.25
141
12.0
290
     0
  0
SCALE
  5
3BA
102
{ACAD_REACTORS
330
3A0
102
}
330
3A0
100
AcDbScale
 70
     0
300
3/8" = 1'-0"
140
0.375
141
12.0
290
     0
  0
SCALE
  5
3BB
102
{ACAD_REACTORS
330
3A0
102
}
330
3A0
100
AcDbScale
 70
     0
300
1/2" = 1'-0"
140
0.5
141
12.0
290
     0
  0
SCALE
  5
3BC
102
{ACAD_REACTORS
330
3A0
102
}
330
3A0
100
AcDbScale
 70
     0
300
3/4" = 1'-0"
140
0.75
141
12.0
290
     0
  0
SCALE
  5
3BD
102
{ACAD_REACTORS
330
3A0
102
}
330
3A0
100
AcDbScale
 70
     0
300
1" = 1'-0"
140
1.0
141
12.0
290
     0
  0
SCALE
  5
3BE
102
{ACAD_REACTORS
330
3A0
102
}
330
3A0
100
AcDbScale
 70
     0
300
1-1/2" = 1'-0"
140
1.5
141
12.0
290
     0
  0
SCALE
  5
3BF
102
{ACAD_REACTORS
330
3A0
102
}
330
3A0
100
AcDbScale
 70
     0
300
3" = 1'-0"
140
3.0
141
12.0
290
     0
  0
SCALE
  5
3C0
102
{ACAD_REACTORS
330
3A0
102
}
330
3A0
100
AcDbScale
 70
     0
300
6" = 1'-0"
140
6.0
141
12.0
290
     0
  0
SCALE
  5
3C1
102
{ACAD_REACTORS
330
3A0
102
}
330
3A0
100
AcDbScale
 70
     0
300
1'-0" = 1'-0"
140
12.0
141
12.0
290
     0
  0
TABLESTYLE
  5
389
102
{ACAD_REACTORS
330
388
102
}
330
388
100
AcDbTableStyle
  3
Standard
 70
     0
 71
     0
 40
1.5
 41
1.5
280
     0
281
     0
  7
STANDARD
140
4.5
170
     2
 62
     0
 63
   257
283
     0
274
    -2
284
     1
 64
     0
275
    -2
285
     1
 65
     0
276
    -2
286
     1
 66
     0
277
    -2
287
     1
 67
     0
278
    -2
288
     1
 68
     0
279
    -2
289
     1
 69
     0
  7
STANDARD
140
6.0
170
     5
 62
     0
 63
   257
283
     0
274
    -2
284
     1
 64
     0
275
    -2
285
     1
 65
     0
276
    -2
286
     1
 66
     0
277
    -2
287
     1
 67
     0
278
    -2
288
     1
 68
     0
279
    -2
289
     1
 69
     0
  7
STANDARD
140
4.5
170
     5
 62
     0
 63
   257
283
     0
274
    -2
284
     1
 64
     0
275
    -2
285
     1
 65
     0
276
    -2
286
     1
 66
     0
277
    -2
287
     1
 67
     0
278
    -2
288
     1
 68
     0
279
    -2
289
     1
 69
     0
  0
VISUALSTYLE
  5
3CA
102
{ACAD_REACTORS
330
3C5
102
}
102
{ACAD_XDICTIONARY
360
688
102
}
330
3C5
100
AcDbVisualStyle
  2
2dWireframe
 70
     4
 71
     0
 72
     2
 73
     0
 90
        0
 40
-0.6
 41
-30.0
 62
     5
 63
     7
 74
     1
 91
        4
 64
     7
 65
   257
 75
     1
175
     1
 42
1.0
 92
        0
 66
   257
 43
1.0
 76
     1
 77
     6
 78
     2
 67
     7
 79
     5
170
     0
171
     0
290
     0
174
     0
 93
        1
 44
0.0
173
     0
291
     0
 45
0.0
1001
ACAD
1000
AcDbSavedByObjectVersion
1070
     0
  0
VISUALSTYLE
  5
3CC
102
{ACAD_REACTORS
330
3C5
102
}
102
{ACAD_XDICTIONARY
360
68C
102
}
330
3C5
100
AcDbVisualStyle
  2
3D Hidden
 70
     6
 71
     1
 72
     2
 73
     2
 90
        0
 40
-0.6
 41
-30.0
 62
     5
 63
     7
 74
     2
 91
        2
 64
     7
 65
   257
 75
     2
175
     1
 42
40.0
 92
        0
 66
   257
 43
1.0
 76
     1
 77
     6
 78
     2
 67
     7
 79
     3
170
     0
171
     0
290
     0
174
     0
 93
        1
 44
0.0
173
     0
291
     0
 45
0.0
1001
ACAD
1000
AcDbSavedByObjectVersion
1070
     0
  0
VISUALSTYLE
  5
3CB
102
{ACAD_REACTORS
330
3C5
102
}
102
{ACAD_XDICTIONARY
360
68A
102
}
330
3C5
100
AcDbVisualStyle
  2
3dWireframe
 70
     5
 71
     0
 72
     2
 73
     0
 90
        0
 40
-0.6
 41
-30.0
 62
     5
 63
     7
 74
     1
 91
        4
 64
     7
 65
   257
 75
     1
175
     1
 42
1.0
 92
        0
 66
   257
 43
1.0
 76
     1
 77
     6
 78
     2
 67
     7
 79
     5
170
     0
171
     0
290
     0
174
     0
 93
        1
 44
0.0
173
     0
291
     0
 45
0.0
1001
ACAD
1000
AcDbSavedByObjectVersion
1070
     0
  0
VISUALSTYLE
  5
3CD
102
{ACAD_REACTORS
330
3C5
102
}
102
{ACAD_XDICTIONARY
360
68E
102
}
330
3C5
100
AcDbVisualStyle
  2
Basic
 70
     7
 71
     1
 72
     0
 73
     1
 90
        0
 40
-0.6
 41
-30.0
 62
     5
 63
     7
 74
     0
 91
        4
 64
     7
 65
   257
 75
     1
175
     1
 42
1.0
 92
        8
 66
     7
 43
1.0
 76
     1
 77
     6
 78
     2
 67
     7
 79
     5
170
     0
171
     0
290
     0
174
     0
 93
        1
 44
0.0
173
     0
291
     1
 45
0.0
1001
ACAD
1000
AcDbSavedByObjectVersion
1070
     0
  0
VISUALSTYLE
  5
3D1
102
{ACAD_REACTORS
330
3C5
102
}
102
{ACAD_XDICTIONARY
360
696
102
}
330
3C5
100
AcDbVisualStyle
  2
Brighten
 70
    12
 71
     2
 72
     2
 73
     0
 90
        0
 40
-0.6
 41
-30.0
 62
     5
 63
     7
 74
     1
 91
        4
 64
     7
 65
   257
 75
     1
175
     1
 42
1.0
 92
        8
 66
     7
 43
1.0
 76
     1
 77
     6
 78
     2
 67
     7
 79
     5
170
     0
171
     0
290
     0
174
     0
 93
        1
 44
50.0
173
     0
291
     1
 45
0.0
1001
ACAD
1000
AcDbSavedByObjectVersion
1070
     0
  0
VISUALSTYLE
  5
3D5
102
{ACAD_REACTORS
330
3C5
102
}
102
{ACAD_XDICTIONARY
360
69E
102
}
330
3C5
100
AcDbVisualStyle
  2
ColorChange
 70
    16
 71
     2
 72
     2
 73
     3
 90
        0
 40
-0.6
 41
-30.0
 62
     5
 63
     8
 74
     1
 91
        4
 64
     7
 65
   257
 75
     1
175
     1
 42
1.0
 92
        8
 66
     8
 43
1.0
 76
     1
 77
     6
 78
     2
 67
     7
 79
     5
170
     0
171
     0
290
     0
174
     0
 93
        1
 44
0.0
173
     0
291
     1
 45
0.0
1001
ACAD
1000
AcDbSavedByObjectVersion
1070
     0
  0
VISUALSTYLE
  5
3CF
102
{ACAD_REACTORS
330
3C5
102
}
102
{ACAD_XDICTIONARY
360
692
102
}
330
3C5
100
AcDbVisualStyle
  2
Conceptual
 70
     9
 71
     3
 72
     2
 73
     0
 90
        0
 40
-0.6
 41
-30.0
 62
     5
 63
     7
 74
     2
 91
        2
 64
     7
 65
   257
 75
     1
175
     1
 42
40.0
 92
        8
 66
     7
 43
1.0
 76
     1
 77
     6
 78
     2
 67
     7
 79
     3
170
     0
171
     0
290
     0
174
     0
 93
        1
 44
0.0
173
     0
291
     0
 45
0.0
1001
ACAD
1000
AcDbSavedByObjectVersion
1070
     0
  0
VISUALSTYLE
  5
3D0
102
{ACAD_REACTORS
330
3C5
102
}
102
{ACAD_XDICTIONARY
360
694
102
}
330
3C5
100
AcDbVisualStyle
  2
Dim
 70
    11
 71
     2
 72
     2
 73
     0
 90
        0
 40
-0.6
 41
-30.0
 62
     5
 63
     7
 74
     1
 91
        4
 64
     7
 65
   257
 75
     1
175
     1
 42
1.0
 92
        8
 66
     7
 43
1.0
 76
     1
 77
     6
 78
     2
 67
     7
 79
     5
170
     0
171
     0
290
     0
174
     0
 93
        1
 44
-50.0
173
     0
291
     1
 45
0.0
1001
ACAD
1000
AcDbSavedByObjectVersion
1070
     0
  0
VISUALSTYLE
  5
3D4
102
{ACAD_REACTORS
330
3C5
102
}
102
{ACAD_XDICTIONARY
360
69C
102
}
330
3C5
100
AcDbVisualStyle
  2
Facepattern
 70
    15
 71
     2
 72
     2
 73
     0
 90
        0
 40
-0.6
 41
-30.0
 62
     5
 63
     7
 74
     1
 91
        4
 64
     7
 65
   257
 75
     1
175
     1
 42
1.0
 92
        8
 66
     7
 43
1.0
 76
     1
 77
     6
 78
     2
 67
     7
 79
     5
170
     0
171
     0
290
     0
174
     0
 93
        1
 44
0.0
173
     0
291
     1
 45
0.0
1001
ACAD
1000
AcDbSavedByObjectVersion
1070
     0
  0
VISUALSTYLE
  5
3C6
102
{ACAD_REACTORS
330
3C5
102
}
102
{ACAD_XDICTIONARY
360
680
102
}
330
3C5
100
AcDbVisualStyle
  2
Flat
 70
     0
 71
     2
 72
     1
 73
     1
 90
        2
 40
-0.6
 41
30.0
 62
     5
 63
     7
 74
     0
 91
        4
 64
     7
 65
   257
 75
     1
175
     1
 42
1.0
 92
        8
 66
     7
 43
1.0
 76
     1
 77
     6
 78
     2
 67
     7
 79
     5
170
     0
171
     0
290
     0
174
     0
 93
       13
 44
0.0
173
     0
291
     1
 45
0.0
1001
ACAD
1000
AcDbSavedByObjectVersion
1070
     0
  0
VISUALSTYLE
  5
3C7
102
{ACAD_REACTORS
330
3C5
102
}
102
{ACAD_XDICTIONARY
360
682
102
}
330
3C5
100
AcDbVisualStyle
  2
FlatWithEdges
 70
     1
 71
     2
 72
     1
 73
     1
 90
        2
 40
-0.6
 41
30.0
 62
     5
 63
     7
 74
     1
 91
        4
 64
     7
 65
   257
 75
     1
175
     1
 42
1.0
 92
        0
 66
   257
 43
1.0
 76
     1
 77
     6
 78
     2
 67
     7
 79
     5
170
     0
171
     0
290
     0
174
     0
 93
       13
 44
0.0
173
     0
291
     1
 45
0.0
1001
ACAD
1000
AcDbSavedByObjectVersion
1070
     0
  0
VISUALSTYLE
  5
3C8
102
{ACAD_REACTORS
330
3C5
102
}
102
{ACAD_XDICTIONARY
360
684
102
}
330
3C5
100
AcDbVisualStyle
  2
Gouraud
 70
     2
 71
     2
 72
     2
 73
     1
 90
        2
 40
-0.6
 41
30.0
 62
     5
 63
     7
 74
     0
 91
        4
 64
     7
 65
   257
 75
     1
175
     1
 42
1.0
 92
        0
 66
     7
 43
1.0
 76
     1
 77
     6
 78
     2
 67
     7
 79
     5
170
     0
171
     0
290
     0
174
     0
 93
       13
 44
0.0
173
     0
291
     1
 45
0.0
1001
ACAD
1000
AcDbSavedByObjectVersion
1070
     0
  0
VISUALSTYLE
  5
3C9
102
{ACAD_REACTORS
330
3C5
102
}
102
{ACAD_XDICTIONARY
360
686
102
}
330
3C5
100
AcDbVisualStyle
  2
GouraudWithEdges
 70
     3
 71
     2
 72
     2
 73
     1
 90
        2
 40
-0.6
 41
30.0
 62
     5
 63
     7
 74
     1
 91
        4
 64
     7
 65
   257
 75
     1
175
     1
 42
1.0
 92
        0
 66
   257
 43
1.0
 76
     1
 77
     6
 78
     2
 67
     7
 79
     5
170
     0
171
     0
290
     0
174
     0
 93
       13
 44
0.0
173
     0
291
     1
 45
0.0
1001
ACAD
1000
AcDbSavedByObjectVersion
1070
     0
  0
VISUALSTYLE
  5
3D3
102
{ACAD_REACTORS
330
3C5
102
}
102
{ACAD_XDICTIONARY
360
69A
102
}
330
3C5
100
AcDbVisualStyle
  2
Linepattern
 70
    14
 71
     2
 72
     2
 73
     0
 90
        0
 40
-0.6
 41
-30.0
 62
     5
 63
     7
 74
     1
 91
        4
 64
     7
 65
   257
 75
     7
175
     7
 42
1.0
 92
        8
 66
     7
 43
1.0
 76
     1
 77
     6
 78
     2
 67
     7
 79
     5
170
     0
171
     0
290
     0
174
     0
 93
        1
 44
0.0
173
     0
291
     1
 45
0.0
1001
ACAD
1000
AcDbSavedByObjectVersion
1070
     0
  0
VISUALSTYLE
  5
3CE
102
{ACAD_REACTORS
330
3C5
102
}
102
{ACAD_XDICTIONARY
360
690
102
}
330
3C5
100
AcDbVisualStyle
  2
Realistic
 70
     8
 71
     2
 72
     2
 73
     0
 90
        0
 40
-0.6
 41
-30.0
 62
     5
 63
     7
 74
     1
 91
        0
 64
     7
 65
   257
 75
     1
175
     1
 42
1.0
 92
        8
 66
     8
 43
1.0
 76
     1
 77
     6
 78
     2
 67
     7
 79
     5
170
     0
171
     0
290
     0
174
     0
 93
       13
 44
0.0
173
     0
291
     0
 45
0.0
1001
ACAD
1000
AcDbSavedByObjectVersion
1070
     0
  0
VISUALSTYLE
  5
3D2
102
{ACAD_REACTORS
330
3C5
102
}
102
{ACAD_XDICTIONARY
360
698
102
}
330
3C5
100
AcDbVisualStyle
  2
Thicken
 70
    13
 71
     2
 72
     2
 73
     0
 90
        0
 40
-0.6
 41
-30.0
 62
     5
 63
     7
 74
     1
 91
        4
 64
     7
 65
   257
 75
     1
175
     1
 42
1.0
 92
       12
 66
     7
 43
1.0
 76
     1
 77
     6
 78
     2
 67
     7
 79
     5
170
     0
171
     0
290
     0
174
     0
 93
        1
 44
0.0
173
     0
291
     1
 45
0.0
1001
ACAD
1000
AcDbSavedByObjectVersion
1070
     0
  0
XRECORD
  5
677
102
{ACAD_REACTORS
330
676
102
}
330
676
100
AcDbXrecord
280
     1
340
387
  0
XRECORD
  5
678
102
{ACAD_REACTORS
330
676
102
}
330
676
100
AcDbXrecord
280
     1
340
386
  0
DICTIONARYVAR
  5
679
102
{ACAD_REACTORS
330
357
102
}
330
357
100
DictionaryVariables
280
     0
  1
1:1
  0
DICTIONARYVAR
  5
38D
102
{ACAD_REACTORS
330
357
102
}
330
357
100
DictionaryVariables
280
     0
  1
Standard
  0
DICTIONARYVAR
  5
359
102
{ACAD_REACTORS
330
357
102
}
330
357
100
DictionaryVariables
280
     0
  1
2
  0
DICTIONARYVAR
  5
358
102
{ACAD_REACTORS
330
357
102
}
330
357
100
DictionaryVariables
280
     0
  1
1
  0
DICTIONARYVAR
  5
38E
102
{ACAD_REACTORS
330
357
102
}
330
357
100
DictionaryVariables
280
     0
  1

  0
DICTIONARY
  5
67C
330
3C3
100
AcDbDictionary
280
     1
281
     1
  3
ACAD_XREC_ROUNDTRIP
360
67D
  0
DICTIONARY
  5
67A
330
3C2
100
AcDbDictionary
280
     1
281
     1
  3
ACAD_XREC_ROUNDTRIP
360
67B
  0
DICTIONARY
  5
67E
330
3C4
100
AcDbDictionary
280
     1
281
     1
  3
ACAD_XREC_ROUNDTRIP
360
67F
  0
DICTIONARY
  5
688
330
3CA
100
AcDbDictionary
280
     1
281
     1
  3
ACAD_XREC_ROUNDTRIP
360
689
  0
DICTIONARY
  5
68C
330
3CC
100
AcDbDictionary
280
     1
281
     1
  3
ACAD_XREC_ROUNDTRIP
360
68D
  0
DICTIONARY
  5
68A
330
3CB
100
AcDbDictionary
280
     1
281
     1
  3
ACAD_XREC_ROUNDTRIP
360
68B
  0
DICTIONARY
  5
68E
330
3CD
100
AcDbDictionary
280
     1
281
     1
  3
ACAD_XREC_ROUNDTRIP
360
68F
  0
DICTIONARY
  5
696
330
3D1
100
AcDbDictionary
280
     1
281
     1
  3
ACAD_XREC_ROUNDTRIP
360
697
  0
DICTIONARY
  5
69E
330
3D5
100
AcDbDictionary
280
     1
281
     1
  3
ACAD_XREC_ROUNDTRIP
360
69F
  0
DICTIONARY
  5
692
330
3CF
100
AcDbDictionary
280
     1
281
     1
  3
ACAD_XREC_ROUNDTRIP
360
693
  0
DICTIONARY
  5
694
330
3D0
100
AcDbDictionary
280
     1
281
     1
  3
ACAD_XREC_ROUNDTRIP
360
695
  0
DICTIONARY
  5
69C
330
3D4
100
AcDbDictionary
280
     1
281
     1
  3
ACAD_XREC_ROUNDTRIP
360
69D
  0
DICTIONARY
  5
680
330
3C6
100
AcDbDictionary
280
     1
281
     1
  3
ACAD_XREC_ROUNDTRIP
360
681
  0
DICTIONARY
  5
682
330
3C7
100
AcDbDictionary
280
     1
281
     1
  3
ACAD_XREC_ROUNDTRIP
360
683
  0
DICTIONARY
  5
684
330
3C8
100
AcDbDictionary
280
     1
281
     1
  3
ACAD_XREC_ROUNDTRIP
360
685
  0
DICTIONARY
  5
686
330
3C9
100
AcDbDictionary
280
     1
281
     1
  3
ACAD_XREC_ROUNDTRIP
360
687
  0
DICTIONARY
  5
69A
330
3D3
100
AcDbDictionary
280
     1
281
     1
  3
ACAD_XREC_ROUNDTRIP
360
69B
  0
DICTIONARY
  5
690
330
3CE
100
AcDbDictionary
280
     1
281
     1
  3
ACAD_XREC_ROUNDTRIP
360
691
  0
DICTIONARY
  5
698
330
3D2
100
AcDbDictionary
280
     1
281
     1
  3
ACAD_XREC_ROUNDTRIP
360
699
  0
XRECORD
  5
67D
102
{ACAD_REACTORS
330
67C
102
}
330
67C
100
AcDbXrecord
280
     1
102
MATERIAL
148
0.0
149
0.0
149
0.0
 93
        0
 94
      127
282
     0
 72
     1
 77
     1
171
     1
175
     1
179
     1
273
     0
  0
XRECORD
  5
67B
102
{ACAD_REACTORS
330
67A
102
}
330
67A
100
AcDbXrecord
280
     1
102
MATERIAL
148
0.0
149
0.0
149
0.0
 93
        0
 94
      127
282
     0
 72
     1
 77
     1
171
     1
175
     1
179
     1
273
     0
  0
XRECORD
  5
67F
102
{ACAD_REACTORS
330
67E
102
}
330
67E
100
AcDbXrecord
280
     1
102
MATERIAL
148
0.0
149
0.0
149
0.0
 93
        0
 94
      127
282
     0
 72
     1
 77
     1
171
     1
175
     1
179
     1
273
     0
  0
XRECORD
  5
689
102
{ACAD_REACTORS
330
688
102
}
330
688
100
AcDbXrecord
280
     1
102
RTVSPropertyOp0
 70
     1
102
RTVSPropertyOp1
 70
     1
102
RTVSPropertyOp2
 70
     1
102
RTVSPropertyOp3
 70
     1
102
RTVSPropertyOp4
 70
     1
102
RTVSPropertyOp5
 70
     1
102
RTVSPropertyOp6
 70
     1
102
RTVSPropertyOp7
 70
     1
102
RTVSPropertyOp8
 70
     1
102
RTVSPropertyOp9
 70
     1
102
RTVSPropertyOp10
 70
     1
102
RTVSPropertyOp11
 70
     1
102
RTVSPropertyOp12
 70
     1
102
RTVSPropertyOp13
 70
     1
102
RTVSPropertyOp14
 70
     1
102
RTVSPropertyOp15
 70
     1
102
RTVSPropertyOp16
 70
     1
102
RTVSPropertyOp17
 70
     1
102
RTVSPropertyOp18
 70
     1
102
RTVSPropertyOp19
 70
     1
102
RTVSPropertyOp20
 70
     1
102
RTVSPropertyOp21
 70
     1
102
RTVSPropertyOp22
 70
     1
102
RTVSPropertyOp23
 70
     1
102
RTVSPropertyOp24
 70
     1
102
RTVSPropertyOp25
 70
     1
102
RTVSPropertyOp26
 70
     1
102
RTVSPropertyOp27
 70
     1
102
RTVSPropertyOp28
 70
     1
102
RTVSPropertyOp29
 70
     1
102
RTVSPropertyOp30
 70
     1
102
RTVSPropertyOp31
 70
     1
102
RTVSPropertyOp32
 70
     1
  0
XRECORD
  5
68D
102
{ACAD_REACTORS
330
68C
102
}
330
68C
100
AcDbXrecord
280
     1
102
RTVSPropertyOp0
 70
     1
102
RTVSPropertyOp1
 70
     1
102
RTVSPropertyOp2
 70
     1
102
RTVSPropertyOp3
 70
     1
102
RTVSPropertyOp4
 70
     1
102
RTVSPropertyOp5
 70
     1
102
RTVSPropertyOp6
 70
     1
102
RTVSPropertyOp7
 70
     1
102
RTVSPropertyOp8
 70
     1
102
RTVSPropertyOp9
 70
     1
102
RTVSPropertyOp10
 70
     1
102
RTVSPropertyOp11
 70
     1
102
RTVSPropertyOp12
 70
     1
102
RTVSPropertyOp13
 70
     1
102
RTVSPropertyOp14
 70
     1
102
RTVSPropertyOp15
 70
     1
102
RTVSPropertyOp16
 70
     1
102
RTVSPropertyOp17
 70
     1
102
RTVSPropertyOp18
 70
     1
102
RTVSPropertyOp19
 70
     1
102
RTVSPropertyOp20
 70
     1
102
RTVSPropertyOp21
 70
     1
102
RTVSPropertyOp22
 70
     1
102
RTVSPropertyOp23
 70
     1
102
RTVSPropertyOp24
 70
     1
102
RTVSPropertyOp25
 70
     1
102
RTVSPropertyOp26
 70
     1
102
RTVSPropertyOp27
 70
     1
102
RTVSPropertyOp28
 70
     1
102
RTVSPropertyOp29
 70
     1
102
RTVSPropertyOp30
 70
     1
102
RTVSPropertyOp31
 70
     1
102
RTVSPropertyOp32
 70
     1
  0
XRECORD
  5
68B
102
{ACAD_REACTORS
330
68A
102
}
330
68A
100
AcDbXrecord
280
     1
102
RTVSPropertyOp0
 70
     1
102
RTVSPropertyOp1
 70
     1
102
RTVSPropertyOp2
 70
     1
102
RTVSPropertyOp3
 70
     1
102
RTVSPropertyOp4
 70
     1
102
RTVSPropertyOp5
 70
     1
102
RTVSPropertyOp6
 70
     1
102
RTVSPropertyOp7
 70
     1
102
RTVSPropertyOp8
 70
     1
102
RTVSPropertyOp9
 70
     1
102
RTVSPropertyOp10
 70
     1
102
RTVSPropertyOp11
 70
     1
102
RTVSPropertyOp12
 70
     1
102
RTVSPropertyOp13
 70
     1
102
RTVSPropertyOp14
 70
     1
102
RTVSPropertyOp15
 70
     1
102
RTVSPropertyOp16
 70
     1
102
RTVSPropertyOp17
 70
     1
102
RTVSPropertyOp18
 70
     1
102
RTVSPropertyOp19
 70
     1
102
RTVSPropertyOp20
 70
     1
102
RTVSPropertyOp21
 70
     1
102
RTVSPropertyOp22
 70
     1
102
RTVSPropertyOp23
 70
     1
102
RTVSPropertyOp24
 70
     1
102
RTVSPropertyOp25
 70
     1
102
RTVSPropertyOp26
 70
     1
102
RTVSPropertyOp27
 70
     1
102
RTVSPropertyOp28
 70
     1
102
RTVSPropertyOp29
 70
     1
102
RTVSPropertyOp30
 70
     1
102
RTVSPropertyOp31
 70
     1
102
RTVSPropertyOp32
 70
     1
  0
XRECORD
  5
68F
102
{ACAD_REACTORS
330
68E
102
}
330
68E
100
AcDbXrecord
280
     1
102
RTVSPropertyOp0
 70
     1
102
RTVSPropertyOp1
 70
     1
102
RTVSPropertyOp2
 70
     1
102
RTVSPropertyOp3
 70
     1
102
RTVSPropertyOp4
 70
     1
102
RTVSPropertyOp5
 70
     1
102
RTVSPropertyOp6
 70
     1
102
RTVSPropertyOp7
 70
     1
102
RTVSPropertyOp8
 70
     1
102
RTVSPropertyOp9
 70
     1
102
RTVSPropertyOp10
 70
     1
102
RTVSPropertyOp11
 70
     1
102
RTVSPropertyOp12
 70
     1
102
RTVSPropertyOp13
 70
     1
102
RTVSPropertyOp14
 70
     1
102
RTVSPropertyOp15
 70
     1
102
RTVSPropertyOp16
 70
     1
102
RTVSPropertyOp17
 70
     1
102
RTVSPropertyOp18
 70
     1
102
RTVSPropertyOp19
 70
     1
102
RTVSPropertyOp20
 70
     1
102
RTVSPropertyOp21
 70
     1
102
RTVSPropertyOp22
 70
     1
102
RTVSPropertyOp23
 70
     1
102
RTVSPropertyOp24
 70
     1
102
RTVSPropertyOp25
 70
     1
102
RTVSPropertyOp26
 70
     1
102
RTVSPropertyOp27
 70
     1
102
RTVSPropertyOp28
 70
     1
102
RTVSPropertyOp29
 70
     1
102
RTVSPropertyOp30
 70
     1
102
RTVSPropertyOp31
 70
     1
102
RTVSPropertyOp32
 70
     1
  0
XRECORD
  5
697
102
{ACAD_REACTORS
330
696
102
}
330
696
100
AcDbXrecord
280
     1
102
RTVSPropertyOp0
 70
     1
102
RTVSPropertyOp1
 70
     1
102
RTVSPropertyOp2
 70
     1
102
RTVSPropertyOp3
 70
     1
102
RTVSPropertyOp4
 70
     1
102
RTVSPropertyOp5
 70
     1
102
RTVSPropertyOp6
 70
     1
102
RTVSPropertyOp7
 70
     1
102
RTVSPropertyOp8
 70
     1
102
RTVSPropertyOp9
 70
     1
102
RTVSPropertyOp10
 70
     1
102
RTVSPropertyOp11
 70
     1
102
RTVSPropertyOp12
 70
     1
102
RTVSPropertyOp13
 70
     1
102
RTVSPropertyOp14
 70
     1
102
RTVSPropertyOp15
 70
     1
102
RTVSPropertyOp16
 70
     1
102
RTVSPropertyOp17
 70
     1
102
RTVSPropertyOp18
 70
     1
102
RTVSPropertyOp19
 70
     1
102
RTVSPropertyOp20
 70
     1
102
RTVSPropertyOp21
 70
     1
102
RTVSPropertyOp22
 70
     1
102
RTVSPropertyOp23
 70
     1
102
RTVSPropertyOp24
 70
     1
102
RTVSPropertyOp25
 70
     1
102
RTVSPropertyOp26
 70
     1
102
RTVSPropertyOp27
 70
     1
102
RTVSPropertyOp28
 70
     1
102
RTVSPropertyOp29
 70
     1
102
RTVSPropertyOp30
 70
     1
102
RTVSPropertyOp31
 70
     1
102
RTVSPropertyOp32
 70
     1
  0
XRECORD
  5
69F
102
{ACAD_REACTORS
330
69E
102
}
330
69E
100
AcDbXrecord
280
     1
102
RTVSPropertyOp0
 70
     1
102
RTVSPropertyOp1
 70
     1
102
RTVSPropertyOp2
 70
     1
102
RTVSPropertyOp3
 70
     1
102
RTVSPropertyOp4
 70
     1
102
RTVSPropertyOp5
 70
     1
102
RTVSPropertyOp6
 70
     1
102
RTVSPropertyOp7
 70
     1
102
RTVSPropertyOp8
 70
     1
102
RTVSPropertyOp9
 70
     1
102
RTVSPropertyOp10
 70
     1
102
RTVSPropertyOp11
 70
     1
102
RTVSPropertyOp12
 70
     1
102
RTVSPropertyOp13
 70
     1
102
RTVSPropertyOp14
 70
     1
102
RTVSPropertyOp15
 70
     1
102
RTVSPropertyOp16
 70
     1
102
RTVSPropertyOp17
 70
     1
102
RTVSPropertyOp18
 70
     1
102
RTVSPropertyOp19
 70
     1
102
RTVSPropertyOp20
 70
     1
102
RTVSPropertyOp21
 70
     1
102
RTVSPropertyOp22
 70
     1
102
RTVSPropertyOp23
 70
     1
102
RTVSPropertyOp24
 70
     1
102
RTVSPropertyOp25
 70
     1
102
RTVSPropertyOp26
 70
     1
102
RTVSPropertyOp27
 70
     1
102
RTVSPropertyOp28
 70
     1
102
RTVSPropertyOp29
 70
     1
102
RTVSPropertyOp30
 70
     1
102
RTVSPropertyOp31
 70
     1
102
RTVSPropertyOp32
 70
     1
  0
XRECORD
  5
693
102
{ACAD_REACTORS
330
692
102
}
330
692
100
AcDbXrecord
280
     1
102
RTVSPropertyOp0
 70
     1
102
RTVSPropertyOp1
 70
     1
102
RTVSPropertyOp2
 70
     1
102
RTVSPropertyOp3
 70
     1
102
RTVSPropertyOp4
 70
     1
102
RTVSPropertyOp5
 70
     1
102
RTVSPropertyOp6
 70
     1
102
RTVSPropertyOp7
 70
     1
102
RTVSPropertyOp8
 70
     1
102
RTVSPropertyOp9
 70
     1
102
RTVSPropertyOp10
 70
     1
102
RTVSPropertyOp11
 70
     1
102
RTVSPropertyOp12
 70
     1
102
RTVSPropertyOp13
 70
     1
102
RTVSPropertyOp14
 70
     1
102
RTVSPropertyOp15
 70
     1
102
RTVSPropertyOp16
 70
     1
102
RTVSPropertyOp17
 70
     1
102
RTVSPropertyOp18
 70
     1
102
RTVSPropertyOp19
 70
     1
102
RTVSPropertyOp20
 70
     1
102
RTVSPropertyOp21
 70
     1
102
RTVSPropertyOp22
 70
     1
102
RTVSPropertyOp23
 70
     1
102
RTVSPropertyOp24
 70
     1
102
RTVSPropertyOp25
 70
     1
102
RTVSPropertyOp26
 70
     1
102
RTVSPropertyOp27
 70
     1
102
RTVSPropertyOp28
 70
     1
102
RTVSPropertyOp29
 70
     1
102
RTVSPropertyOp30
 70
     1
102
RTVSPropertyOp31
 70
     1
102
RTVSPropertyOp32
 70
     1
  0
XRECORD
  5
695
102
{ACAD_REACTORS
330
694
102
}
330
694
100
AcDbXrecord
280
     1
102
RTVSPropertyOp0
 70
     1
102
RTVSPropertyOp1
 70
     1
102
RTVSPropertyOp2
 70
     1
102
RTVSPropertyOp3
 70
     1
102
RTVSPropertyOp4
 70
     1
102
RTVSPropertyOp5
 70
     1
102
RTVSPropertyOp6
 70
     1
102
RTVSPropertyOp7
 70
     1
102
RTVSPropertyOp8
 70
     1
102
RTVSPropertyOp9
 70
     1
102
RTVSPropertyOp10
 70
     1
102
RTVSPropertyOp11
 70
     1
102
RTVSPropertyOp12
 70
     1
102
RTVSPropertyOp13
 70
     1
102
RTVSPropertyOp14
 70
     1
102
RTVSPropertyOp15
 70
     1
102
RTVSPropertyOp16
 70
     1
102
RTVSPropertyOp17
 70
     1
102
RTVSPropertyOp18
 70
     1
102
RTVSPropertyOp19
 70
     1
102
RTVSPropertyOp20
 70
     1
102
RTVSPropertyOp21
 70
     1
102
RTVSPropertyOp22
 70
     1
102
RTVSPropertyOp23
 70
     1
102
RTVSPropertyOp24
 70
     1
102
RTVSPropertyOp25
 70
     1
102
RTVSPropertyOp26
 70
     1
102
RTVSPropertyOp27
 70
     1
102
RTVSPropertyOp28
 70
     1
102
RTVSPropertyOp29
 70
     1
102
RTVSPropertyOp30
 70
     1
102
RTVSPropertyOp31
 70
     1
102
RTVSPropertyOp32
 70
     1
  0
XRECORD
  5
69D
102
{ACAD_REACTORS
330
69C
102
}
330
69C
100
AcDbXrecord
280
     1
102
RTVSPropertyOp0
 70
     1
102
RTVSPropertyOp1
 70
     1
102
RTVSPropertyOp2
 70
     1
102
RTVSPropertyOp3
 70
     1
102
RTVSPropertyOp4
 70
     1
102
RTVSPropertyOp5
 70
     1
102
RTVSPropertyOp6
 70
     1
102
RTVSPropertyOp7
 70
     1
102
RTVSPropertyOp8
 70
     1
102
RTVSPropertyOp9
 70
     1
102
RTVSPropertyOp10
 70
     1
102
RTVSPropertyOp11
 70
     1
102
RTVSPropertyOp12
 70
     1
102
RTVSPropertyOp13
 70
     1
102
RTVSPropertyOp14
 70
     1
102
RTVSPropertyOp15
 70
     1
102
RTVSPropertyOp16
 70
     1
102
RTVSPropertyOp17
 70
     1
102
RTVSPropertyOp18
 70
     1
102
RTVSPropertyOp19
 70
     1
102
RTVSPropertyOp20
 70
     1
102
RTVSPropertyOp21
 70
     1
102
RTVSPropertyOp22
 70
     1
102
RTVSPropertyOp23
 70
     1
102
RTVSPropertyOp24
 70
     1
102
RTVSPropertyOp25
 70
     1
102
RTVSPropertyOp26
 70
     1
102
RTVSPropertyOp27
 70
     1
102
RTVSPropertyOp28
 70
     1
102
RTVSPropertyOp29
 70
     1
102
RTVSPropertyOp30
 70
     1
102
RTVSPropertyOp31
 70
     1
102
RTVSPropertyOp32
 70
     1
  0
XRECORD
  5
681
102
{ACAD_REACTORS
330
680
102
}
330
680
100
AcDbXrecord
280
     1
102
RTVSPropertyOp0
 70
     1
102
RTVSPropertyOp1
 70
     1
102
RTVSPropertyOp2
 70
     1
102
RTVSPropertyOp3
 70
     1
102
RTVSPropertyOp4
 70
     1
102
RTVSPropertyOp5
 70
     1
102
RTVSPropertyOp6
 70
     1
102
RTVSPropertyOp7
 70
     1
102
RTVSPropertyOp8
 70
     1
102
RTVSPropertyOp9
 70
     1
102
RTVSPropertyOp10
 70
     1
102
RTVSPropertyOp11
 70
     1
102
RTVSPropertyOp12
 70
     1
102
RTVSPropertyOp13
 70
     1
102
RTVSPropertyOp14
 70
     1
102
RTVSPropertyOp15
 70
     1
102
RTVSPropertyOp16
 70
     1
102
RTVSPropertyOp17
 70
     1
102
RTVSPropertyOp18
 70
     1
102
RTVSPropertyOp19
 70
     1
102
RTVSPropertyOp20
 70
     1
102
RTVSPropertyOp21
 70
     1
102
RTVSPropertyOp22
 70
     1
102
RTVSPropertyOp23
 70
     1
102
RTVSPropertyOp24
 70
     1
102
RTVSPropertyOp25
 70
     1
102
RTVSPropertyOp26
 70
     1
102
RTVSPropertyOp27
 70
     1
102
RTVSPropertyOp28
 70
     1
102
RTVSPropertyOp29
 70
     1
102
RTVSPropertyOp30
 70
     1
102
RTVSPropertyOp31
 70
     1
102
RTVSPropertyOp32
 70
     1
  0
XRECORD
  5
683
102
{ACAD_REACTORS
330
682
102
}
330
682
100
AcDbXrecord
280
     1
102
RTVSPropertyOp0
 70
     1
102
RTVSPropertyOp1
 70
     1
102
RTVSPropertyOp2
 70
     1
102
RTVSPropertyOp3
 70
     1
102
RTVSPropertyOp4
 70
     1
102
RTVSPropertyOp5
 70
     1
102
RTVSPropertyOp6
 70
     1
102
RTVSPropertyOp7
 70
     1
102
RTVSPropertyOp8
 70
     1
102
RTVSPropertyOp9
 70
     1
102
RTVSPropertyOp10
 70
     1
102
RTVSPropertyOp11
 70
     1
102
RTVSPropertyOp12
 70
     1
102
RTVSPropertyOp13
 70
     1
102
RTVSPropertyOp14
 70
     1
102
RTVSPropertyOp15
 70
     1
102
RTVSPropertyOp16
 70
     1
102
RTVSPropertyOp17
 70
     1
102
RTVSPropertyOp18
 70
     1
102
RTVSPropertyOp19
 70
     1
102
RTVSPropertyOp20
 70
     1
102
RTVSPropertyOp21
 70
     1
102
RTVSPropertyOp22
 70
     1
102
RTVSPropertyOp23
 70
     1
102
RTVSPropertyOp24
 70
     1
102
RTVSPropertyOp25
 70
     1
102
RTVSPropertyOp26
 70
     1
102
RTVSPropertyOp27
 70
     1
102
RTVSPropertyOp28
 70
     1
102
RTVSPropertyOp29
 70
     1
102
RTVSPropertyOp30
 70
     1
102
RTVSPropertyOp31
 70
     1
102
RTVSPropertyOp32
 70
     1
  0
XRECORD
  5
685
102
{ACAD_REACTORS
330
684
102
}
330
684
100
AcDbXrecord
280
     1
102
RTVSPropertyOp0
 70
     1
102
RTVSPropertyOp1
 70
     1
102
RTVSPropertyOp2
 70
     1
102
RTVSPropertyOp3
 70
     1
102
RTVSPropertyOp4
 70
     1
102
RTVSPropertyOp5
 70
     1
102
RTVSPropertyOp6
 70
     1
102
RTVSPropertyOp7
 70
     1
102
RTVSPropertyOp8
 70
     1
102
RTVSPropertyOp9
 70
     1
102
RTVSPropertyOp10
 70
     1
102
RTVSPropertyOp11
 70
     1
102
RTVSPropertyOp12
 70
     1
102
RTVSPropertyOp13
 70
     1
102
RTVSPropertyOp14
 70
     1
102
RTVSPropertyOp15
 70
     1
102
RTVSPropertyOp16
 70
     1
102
RTVSPropertyOp17
 70
     1
102
RTVSPropertyOp18
 70
     1
102
RTVSPropertyOp19
 70
     1
102
RTVSPropertyOp20
 70
     1
102
RTVSPropertyOp21
 70
     1
102
RTVSPropertyOp22
 70
     1
102
RTVSPropertyOp23
 70
     1
102
RTVSPropertyOp24
 70
     1
102
RTVSPropertyOp25
 70
     1
102
RTVSPropertyOp26
 70
     1
102
RTVSPropertyOp27
 70
     1
102
RTVSPropertyOp28
 70
     1
102
RTVSPropertyOp29
 70
     1
102
RTVSPropertyOp30
 70
     1
102
RTVSPropertyOp31
 70
     1
102
RTVSPropertyOp32
 70
     1
  0
XRECORD
  5
687
102
{ACAD_REACTORS
330
686
102
}
330
686
100
AcDbXrecord
280
     1
102
RTVSPropertyOp0
 70
     1
102
RTVSPropertyOp1
 70
     1
102
RTVSPropertyOp2
 70
     1
102
RTVSPropertyOp3
 70
     1
102
RTVSPropertyOp4
 70
     1
102
RTVSPropertyOp5
 70
     1
102
RTVSPropertyOp6
 70
     1
102
RTVSPropertyOp7
 70
     1
102
RTVSPropertyOp8
 70
     1
102
RTVSPropertyOp9
 70
     1
102
RTVSPropertyOp10
 70
     1
102
RTVSPropertyOp11
 70
     1
102
RTVSPropertyOp12
 70
     1
102
RTVSPropertyOp13
 70
     1
102
RTVSPropertyOp14
 70
     1
102
RTVSPropertyOp15
 70
     1
102
RTVSPropertyOp16
 70
     1
102
RTVSPropertyOp17
 70
     1
102
RTVSPropertyOp18
 70
     1
102
RTVSPropertyOp19
 70
     1
102
RTVSPropertyOp20
 70
     1
102
RTVSPropertyOp21
 70
     1
102
RTVSPropertyOp22
 70
     1
102
RTVSPropertyOp23
 70
     1
102
RTVSPropertyOp24
 70
     1
102
RTVSPropertyOp25
 70
     1
102
RTVSPropertyOp26
 70
     1
102
RTVSPropertyOp27
 70
     1
102
RTVSPropertyOp28
 70
     1
102
RTVSPropertyOp29
 70
     1
102
RTVSPropertyOp30
 70
     1
102
RTVSPropertyOp31
 70
     1
102
RTVSPropertyOp32
 70
     1
  0
XRECORD
  5
69B
102
{ACAD_REACTORS
330
69A
102
}
330
69A
100
AcDbXrecord
280
     1
102
RTVSPropertyOp0
 70
     1
102
RTVSPropertyOp1
 70
     1
102
RTVSPropertyOp2
 70
     1
102
RTVSPropertyOp3
 70
     1
102
RTVSPropertyOp4
 70
     1
102
RTVSPropertyOp5
 70
     1
102
RTVSPropertyOp6
 70
     1
102
RTVSPropertyOp7
 70
     1
102
RTVSPropertyOp8
 70
     1
102
RTVSPropertyOp9
 70
     1
102
RTVSPropertyOp10
 70
     1
102
RTVSPropertyOp11
 70
     1
102
RTVSPropertyOp12
 70
     1
102
RTVSPropertyOp13
 70
     1
102
RTVSPropertyOp14
 70
     1
102
RTVSPropertyOp15
 70
     1
102
RTVSPropertyOp16
 70
     1
102
RTVSPropertyOp17
 70
     1
102
RTVSPropertyOp18
 70
     1
102
RTVSPropertyOp19
 70
     1
102
RTVSPropertyOp20
 70
     1
102
RTVSPropertyOp21
 70
     1
102
RTVSPropertyOp22
 70
     1
102
RTVSPropertyOp23
 70
     1
102
RTVSPropertyOp24
 70
     1
102
RTVSPropertyOp25
 70
     1
102
RTVSPropertyOp26
 70
     1
102
RTVSPropertyOp27
 70
     1
102
RTVSPropertyOp28
 70
     1
102
RTVSPropertyOp29
 70
     1
102
RTVSPropertyOp30
 70
     1
102
RTVSPropertyOp31
 70
     1
102
RTVSPropertyOp32
 70
     1
  0
XRECORD
  5
691
102
{ACAD_REACTORS
330
690
102
}
330
690
100
AcDbXrecord
280
     1
102
RTVSPropertyOp0
 70
     1
102
RTVSPropertyOp1
 70
     1
102
RTVSPropertyOp2
 70
     1
102
RTVSPropertyOp3
 70
     1
102
RTVSPropertyOp4
 70
     1
102
RTVSPropertyOp5
 70
     1
102
RTVSPropertyOp6
 70
     1
102
RTVSPropertyOp7
 70
     1
102
RTVSPropertyOp8
 70
     1
102
RTVSPropertyOp9
 70
     1
102
RTVSPropertyOp10
 70
     1
102
RTVSPropertyOp11
 70
     1
102
RTVSPropertyOp12
 70
     1
102
RTVSPropertyOp13
 70
     1
102
RTVSPropertyOp14
 70
     1
102
RTVSPropertyOp15
 70
     1
102
RTVSPropertyOp16
 70
     1
102
RTVSPropertyOp17
 70
     1
102
RTVSPropertyOp18
 70
     1
102
RTVSPropertyOp19
 70
     1
102
RTVSPropertyOp20
 70
     1
102
RTVSPropertyOp21
 70
     1
102
RTVSPropertyOp22
 70
     1
102
RTVSPropertyOp23
 70
     1
102
RTVSPropertyOp24
 70
     1
102
RTVSPropertyOp25
 70
     1
102
RTVSPropertyOp26
 70
     1
102
RTVSPropertyOp27
 70
     1
102
RTVSPropertyOp28
 70
     1
102
RTVSPropertyOp29
 70
     1
102
RTVSPropertyOp30
 70
     1
102
RTVSPropertyOp31
 70
     1
102
RTVSPropertyOp32
 70
     1
  0
XRECORD
  5
699
102
{ACAD_REACTORS
330
698
102
}
330
698
100
AcDbXrecord
280
     1
102
RTVSPropertyOp0
 70
     1
102
RTVSPropertyOp1
 70
     1
102
RTVSPropertyOp2
 70
     1
102
RTVSPropertyOp3
 70
     1
102
RTVSPropertyOp4
 70
     1
102
RTVSPropertyOp5
 70
     1
102
RTVSPropertyOp6
 70
     1
102
RTVSPropertyOp7
 70
     1
102
RTVSPropertyOp8
 70
     1
102
RTVSPropertyOp9
 70
     1
102
RTVSPropertyOp10
 70
     1
102
RTVSPropertyOp11
 70
     1
102
RTVSPropertyOp12
 70
     1
102
RTVSPropertyOp13
 70
     1
102
RTVSPropertyOp14
 70
     1
102
RTVSPropertyOp15
 70
     1
102
RTVSPropertyOp16
 70
     1
102
RTVSPropertyOp17
 70
     1
102
RTVSPropertyOp18
 70
     1
102
RTVSPropertyOp19
 70
     1
102
RTVSPropertyOp20
 70
     1
102
RTVSPropertyOp21
 70
     1
102
RTVSPropertyOp22
 70
     1
102
RTVSPropertyOp23
 70
     1
102
RTVSPropertyOp24
 70
     1
102
RTVSPropertyOp25
 70
     1
102
RTVSPropertyOp26
 70
     1
102
RTVSPropertyOp27
 70
     1
102
RTVSPropertyOp28
 70
     1
102
RTVSPropertyOp29
 70
     1
102
RTVSPropertyOp30
 70
     1
102
RTVSPropertyOp31
 70
     1
102
RTVSPropertyOp32
 70
     1
  0
ENDSEC
  0
EOF
