  0
SECTION
  2
HEADER
  9
$ACADVER
  1
AC1015
  9
$ACADMAINTVER
 70
     6
  9
$DWGCODEPAGE
  3
ANSI_1252
  9
$INSBASE
 10
0.0
 20
0.0
 30
0.0
  9
$EXTMIN
 10
1.000000000000000E+20
 20
1.000000000000000E+20
 30
1.000000000000000E+20
  9
$EXTMAX
 10
-1.000000000000000E+20
 20
-1.000000000000000E+20
 30
-1.000000000000000E+20
  9
$LIMMIN
 10
-170.0
 20
-170.0
  9
$LIMMAX
 10
519.0
 20
260.0
  9
$ORTHOMODE
 70
     0
  9
$REGENMODE
 70
     1
  9
$FILLMODE
 70
     1
  9
$QTEXTMODE
 70
     0
  9
$MIRRTEXT
 70
     0
  9
$LTSCALE
 40
1.0
  9
$ATTMODE
 70
     1
  9
$TEXTSIZE
 40
3.5
  9
$TRACEWID
 40
1.0
  9
$TEXTSTYLE
  7
SIMPLEX
  9
$CLAYER
  8
1
  9
$CELTYPE
  6
BYLAYER
  9
$CECOLOR
 62
   256
  9
$CELTSCALE
 40
1.0
  9
$DISPSILH
 70
     0
  9
$DIMSCALE
 40
1.0
  9
$DIMASZ
 40
2.5
  9
$DIMEXO
 40
0.0
  9
$DIMDLI
 40
3.75
  9
$DIMRND
 40
0.0
  9
$DIMDLE
 40
0.0
  9
$DIMEXE
 40
1.25
  9
$DIMTP
 40
0.0
  9
$DIMTM
 40
0.0
  9
$DIMTXT
 40
3.5
  9
$DIMCEN
 40
0.0
  9
$DIMTSZ
 40
0.0
  9
$DIMTOL
 70
     0
  9
$DIMLIM
 70
     0
  9
$DIMTIH
 70
     0
  9
$DIMTOH
 70
     0
  9
$DIMSE1
 70
     0
  9
$DIMSE2
 70
     0
  9
$DIMTAD
 70
     1
  9
$DIMZIN
 70
     8
  9
$DIMBLK
  1

  9
$DIMASO
 70
     1
  9
$DIMSHO
 70
     1
  9
$DIMPOST
  1

  9
$DIMAPOST
  1

  9
$DIMALT
 70
     0
  9
$DIMALTD
 70
     3
  9
$DIMALTF
 40
0.039370078
  9
$DIMLFAC
 40
1.0
  9
$DIMTOFL
 70
     0
  9
$DIMTVP
 40
0.0
  9
$DIMTIX
 70
     0
  9
$DIMSOXD
 70
     0
  9
$DIMSAH
 70
     0
  9
$DIMBLK1
  1

  9
$DIMBLK2
  1

  9
$DIMSTYLE
  2
STANDARD
  9
$DIMCLRD
 70
     0
  9
$DIMCLRE
 70
     0
  9
$DIMCLRT
 70
     0
  9
$DIMTFAC
 40
1.0
  9
$DIMGAP
 40
0.625
  9
$DIMJUST
 70
     0
  9
$DIMSD1
 70
     0
  9
$DIMSD2
 70
     0
  9
$DIMTOLJ
 70
     0
  9
$DIMTZIN
 70
     8
  9
$DIMALTZ
 70
     0
  9
$DIMALTTZ
 70
     0
  9
$DIMUPT
 70
     0
  9
$DIMDEC
 70
     2
  9
$DIMTDEC
 70
     2
  9
$DIMALTU
 70
     2
  9
$DIMALTTD
 70
     3
  9
$DIMTXSTY
  7
SIMPLEX
  9
$DIMAUNIT
 70
     0
  9
$DIMADEC
 70
     2
  9
$DIMALTRND
 40
0.0
  9
$DIMAZIN
 70
     2
  9
$DIMDSEP
 70
    46
  9
$DIMATFIT
 70
     3
  9
$DIMFRAC
 70
     0
  9
$DIMLDRBLK
  1

  9
$DIMLUNIT
 70
     2
  9
$DIMLWD
 70
    -2
  9
$DIMLWE
 70
    -2
  9
$DIMTMOVE
 70
     0
  9
$LUNITS
 70
     2
  9
$LUPREC
 70
     4
  9
$SKETCHINC
 40
1.0
  9
$FILLETRAD
 40
0.0
  9
$AUNITS
 70
     0
  9
$AUPREC
 70
     0
  9
$MENU
  1
c:\tdm21\cad\caduti13\tdm13
  9
$ELEVATION
 40
0.0
  9
$PELEVATION
 40
0.0
  9
$THICKNESS
 40
0.0
  9
$LIMCHECK
 70
     0
  9
$CHAMFERA
 40
0.0
  9
$CHAMFERB
 40
0.0
  9
$CHAMFERC
 40
0.0
  9
$CHAMFERD
 40
0.0
  9
$SKPOLY
 70
     0
  9
$TDCREATE
 40
2454957.593642639
  9
$TDUCREATE
 40
2454957.510309306
  9
$TDUPDATE
 40
2456861.34273022
  9
$TDUUPDATE
 40
2456861.259396886
  9
$TDINDWG
 40
0.0009643519
  9
$TDUSRTIMER
 40
0.0009475231
  9
$USRTIMER
 70
     1
  9
$ANGBASE
 50
0.0
  9
$ANGDIR
 70
     0
  9
$PDMODE
 70
     1
  9
$PDSIZE
 40
0.0
  9
$PLINEWID
 40
0.0
  9
$SPLFRAME
 70
     0
  9
$SPLINETYPE
 70
     6
  9
$SPLINESEGS
 70
     8
  9
$HANDSEED
  5
655
  9
$SURFTAB1
 70
     6
  9
$SURFTAB2
 70
     6
  9
$SURFTYPE
 70
     6
  9
$SURFU
 70
     6
  9
$SURFV
 70
     6
  9
$UCSBASE
  2

  9
$UCSNAME
  2

  9
$UCSORG
 10
0.0
 20
0.0
 30
0.0
  9
$UCSXDIR
 10
1.0
 20
0.0
 30
0.0
  9
$UCSYDIR
 10
0.0
 20
1.0
 30
0.0
  9
$UCSORTHOREF
  2

  9
$UCSORTHOVIEW
 70
     0
  9
$UCSORGTOP
 10
0.0
 20
0.0
 30
0.0
  9
$UCSORGBOTTOM
 10
0.0
 20
0.0
 30
0.0
  9
$UCSORGLEFT
 10
0.0
 20
0.0
 30
0.0
  9
$UCSORGRIGHT
 10
0.0
 20
0.0
 30
0.0
  9
$UCSORGFRONT
 10
0.0
 20
0.0
 30
0.0
  9
$UCSORGBACK
 10
0.0
 20
0.0
 30
0.0
  9
$PUCSBASE
  2

  9
$PUCSNAME
  2

  9
$PUCSORG
 10
0.0
 20
0.0
 30
0.0
  9
$PUCSXDIR
 10
1.0
 20
0.0
 30
0.0
  9
$PUCSYDIR
 10
0.0
 20
1.0
 30
0.0
  9
$PUCSORTHOREF
  2

  9
$PUCSORTHOVIEW
 70
     0
  9
$PUCSORGTOP
 10
0.0
 20
0.0
 30
0.0
  9
$PUCSORGBOTTOM
 10
0.0
 20
0.0
 30
0.0
  9
$PUCSORGLEFT
 10
0.0
 20
0.0
 30
0.0
  9
$PUCSORGRIGHT
 10
0.0
 20
0.0
 30
0.0
  9
$PUCSORGFRONT
 10
0.0
 20
0.0
 30
0.0
  9
$PUCSORGBACK
 10
0.0
 20
0.0
 30
0.0
  9
$USERI1
 70
     0
  9
$USERI2
 70
     0
  9
$USERI3
 70
     0
  9
$USERI4
 70
     0
  9
$USERI5
 70
     0
  9
$USERR1
 40
0.0
  9
$USERR2
 40
0.0
  9
$USERR3
 40
0.0
  9
$USERR4
 40
0.0
  9
$USERR5
 40
0.0
  9
$WORLDVIEW
 70
     1
  9
$SHADEDGE
 70
     3
  9
$SHADEDIF
 70
    70
  9
$TILEMODE
 70
     1
  9
$MAXACTVP
 70
    64
  9
$PINSBASE
 10
0.0
 20
0.0
 30
0.0
  9
$PLIMCHECK
 70
     0
  9
$PEXTMIN
 10
0.0
 20
0.0
 30
0.0
  9
$PEXTMAX
 10
0.0
 20
0.0
 30
0.0
  9
$PLIMMIN
 10
0.0
 20
0.0
  9
$PLIMMAX
 10
12.0
 20
9.0
  9
$UNITMODE
 70
     0
  9
$VISRETAIN
 70
     0
  9
$PLINEGEN
 70
     0
  9
$PSLTSCALE
 70
     1
  9
$TREEDEPTH
 70
  3020
  9
$CMLSTYLE
  2
STANDARD
  9
$CMLJUST
 70
     0
  9
$CMLSCALE
 40
20.0
  9
$PROXYGRAPHICS
 70
     1
  9
$MEASUREMENT
 70
     1
  9
$CELWEIGHT
370
    -1
  9
$ENDCAPS
280
     0
  9
$JOINSTYLE
280
     0
  9
$LWDISPLAY
290
     0
  9
$INSUNITS
 70
     4
  9
$HYPERLINKBASE
  1

  9
$STYLESHEET
  1
MONOCHROME.CTB
  9
$XEDIT
290
     1
  9
$CEPSNTYPE
380
     0
  9
$PSTYLEMODE
290
     1
  9
$FINGERPRINTGUID
  2
{46B44192-1510-48B1-B61B-CBE2ADA013A7}
  9
$VERSIONGUID
  2
{6160D478-9A74-4C97-9D8A-D4A65CE74B12}
  9
$EXTNAMES
290
     1
  9
$PSVPSCALE
 40
0.0
  9
$OLESTARTUP
290
     0
  0
ENDSEC
  0
SECTION
  2
CLASSES
  0
CLASS
  1
ACDBDICTIONARYWDFLT
  2
AcDbDictionaryWithDefault
  3
ObjectDBX Classes
 90
        0
280
     0
281
     0
  0
CLASS
  1
ACDBPLACEHOLDER
  2
AcDbPlaceHolder
  3
ObjectDBX Classes
 90
        0
280
     0
281
     0
  0
CLASS
  1
LAYOUT
  2
AcDbLayout
  3
ObjectDBX Classes
 90
        0
280
     0
281
     0
  0
CLASS
  1
DICTIONARYVAR
  2
AcDbDictionaryVar
  3
ObjectDBX Classes
 90
        0
280
     0
281
     0
  0
CLASS
  1
TABLESTYLE
  2
AcDbTableStyle
  3
ObjectDBX Classes
 90
     4095
280
     0
281
     0
  0
CLASS
  1
SCALE
  2
AcDbScale
  3
ObjectDBX Classes
 90
     1153
280
     0
281
     0
  0
CLASS
  1
MATERIAL
  2
AcDbMaterial
  3
ObjectDBX Classes
 90
     1153
280
     0
281
     0
  0
CLASS
  1
VISUALSTYLE
  2
AcDbVisualStyle
  3
ObjectDBX Classes
 90
     4095
280
     0
281
     0
  0
ENDSEC
  0
SECTION
  2
TABLES
  0
TABLE
  2
VPORT
  5
8
330
0
100
AcDbSymbolTable
 70
     1
  0
VPORT
  5
39A
330
8
100
AcDbSymbolTableRecord
100
AcDbViewportTableRecord
  2
*Active
 70
     0
 10
0.0
 20
0.0
 11
1.0
 21
1.0
 12
218.9201881351169
 22
109.7549380673833
 13
0.0
 23
0.0
 14
5.0
 24
5.0
 15
5.0
 25
5.0
 16
0.0
 26
0.0
 36
1.0
 17
0.0
 27
0.0
 37
0.0
 40
564.6711112651689
 41
1.066073697585768
 42
50.0
 43
0.0
 44
0.0
 50
0.0
 51
0.0
 71
     0
 72
  2000
 73
     1
 74
     1
 75
     0
 76
     0
 77
     0
 78
     0
281
     0
 65
     1
110
0.0
120
0.0
130
0.0
111
1.0
121
0.0
131
0.0
112
0.0
122
1.0
132
0.0
 79
     0
146
0.0
  0
ENDTAB
  0
TABLE
  2
LTYPE
  5
5
330
0
100
AcDbSymbolTable
 70
     3
  0
LTYPE
  5
12
330
5
100
AcDbSymbolTableRecord
100
AcDbLinetypeTableRecord
  2
BYBLOCK
 70
     0
  3

 72
    65
 73
     0
 40
0.0
  0
LTYPE
  5
13
330
5
100
AcDbSymbolTableRecord
100
AcDbLinetypeTableRecord
  2
BYLAYER
 70
     0
  3

 72
    65
 73
     0
 40
0.0
  0
LTYPE
  5
14
330
5
100
AcDbSymbolTableRecord
100
AcDbLinetypeTableRecord
  2
CONTINUOUS
 70
     0
  3
Solid line
 72
    65
 73
     0
 40
0.0
  0
LTYPE
  5
20
330
5
100
AcDbSymbolTableRecord
100
AcDbLinetypeTableRecord
  2
HIDDEN
 70
     0
  3
Hidden __ __ __ __ __ __ __ __ __ __ __ __ __ _
 72
    65
 73
     2
 40
9.524999999999997
 49
6.349999999999998
 74
     0
 49
-3.174999999999998
 74
     0
  0
LTYPE
  5
351
330
5
100
AcDbSymbolTableRecord
100
AcDbLinetypeTableRecord
  2
CENTER
 70
     0
  3
Dash dot __ . __ . __ . __ . __ . __ . __ . __
 72
    65
 73
     4
 40
25.4
 49
12.7
 74
     0
 49
-6.349999999999998
 74
     0
 49
0.0
 74
     0
 49
-6.349999999999998
 74
     0
  0
ENDTAB
  0
TABLE
  2
LAYER
  5
2
330
0
100
AcDbSymbolTable
 70
    16
  0
LAYER
  5
F
330
2
100
AcDbSymbolTableRecord
100
AcDbLayerTableRecord
  2
0
 70
     0
 62
     7
  6
CONTINUOUS
370
    -3
390
300
  0
LAYER
  5
23
330
2
100
AcDbSymbolTableRecord
100
AcDbLayerTableRecord
  2
1
 70
     0
 62
     4
  6
CONTINUOUS
370
    -3
390
300
  0
LAYER
  5
24
330
2
100
AcDbSymbolTableRecord
100
AcDbLayerTableRecord
  2
SK1
 70
     0
 62
     4
  6
CONTINUOUS
370
    -3
390
300
  0
LAYER
  5
25
330
2
100
AcDbSymbolTableRecord
100
AcDbLayerTableRecord
  2
2
 70
     0
 62
     7
  6
CONTINUOUS
370
    -3
390
300
  0
LAYER
  5
26
330
2
100
AcDbSymbolTableRecord
100
AcDbLayerTableRecord
  2
2L
 70
     0
 62
     7
  6
CONTINUOUS
370
    -3
390
300
  0
LAYER
  5
27
330
2
100
AcDbSymbolTableRecord
100
AcDbLayerTableRecord
  2
SK2
 70
     0
 62
     7
  6
CONTINUOUS
370
    -3
390
300
  0
LAYER
  5
28
330
2
100
AcDbSymbolTableRecord
100
AcDbLayerTableRecord
  2
3
 70
     0
 62
     1
  6
HIDDEN
370
    -3
390
300
  0
LAYER
  5
29
330
2
100
AcDbSymbolTableRecord
100
AcDbLayerTableRecord
  2
SK3
 70
     0
 62
     1
  6
HIDDEN
370
    -3
390
300
  0
LAYER
  5
2A
330
2
100
AcDbSymbolTableRecord
100
AcDbLayerTableRecord
  2
4
 70
     0
 62
     2
  6
CENTER
370
    -3
390
300
  0
LAYER
  5
2B
330
2
100
AcDbSymbolTableRecord
100
AcDbLayerTableRecord
  2
SK4
 70
     0
 62
     2
  6
CENTER
370
    -3
390
300
  0
LAYER
  5
2C
330
2
100
AcDbSymbolTableRecord
100
AcDbLayerTableRecord
  2
5
 70
     0
 62
    -7
  6
CONTINUOUS
370
    -3
390
300
  0
LAYER
  5
2D
330
2
100
AcDbSymbolTableRecord
100
AcDbLayerTableRecord
  2
6
 70
     0
 62
     5
  6
CONTINUOUS
370
    -3
390
300
  0
LAYER
  5
2E
330
2
100
AcDbSymbolTableRecord
100
AcDbLayerTableRecord
  2
SK6
 70
     0
 62
     5
  6
CONTINUOUS
370
    -3
390
300
  0
LAYER
  5
2F
330
2
100
AcDbSymbolTableRecord
100
AcDbLayerTableRecord
  2
DEFPOINTS
 70
     0
 62
     7
  6
CONTINUOUS
290
     0
370
    -3
390
300
  0
LAYER
  5
375
330
2
100
AcDbSymbolTableRecord
100
AcDbLayerTableRecord
  2
CUT
 70
     0
 62
     1
  6
CONTINUOUS
370
    -3
390
300
  0
LAYER
  5
376
330
2
100
AcDbSymbolTableRecord
100
AcDbLayerTableRecord
  2
NOCUT
 70
     0
 62
     7
  6
CONTINUOUS
370
    -3
390
300
  0
ENDTAB
  0
TABLE
  2
STYLE
  5
3
330
0
100
AcDbSymbolTable
 70
     4
  0
STYLE
  5
10
330
3
100
AcDbSymbolTableRecord
100
AcDbTextStyleTableRecord
  2
STANDARD
 70
     0
 40
0.0
 41
1.0
 50
0.0
 71
     0
 42
5.0
  3
txt
  4

  0
STYLE
  5
1D
330
3
100
AcDbSymbolTableRecord
100
AcDbTextStyleTableRecord
  2
TXT
 70
     0
 40
8.0
 41
1.0
 50
0.0
 71
     0
 42
8.0
  3
txt
  4

  0
STYLE
  5
1E
330
3
100
AcDbSymbolTableRecord
100
AcDbTextStyleTableRecord
  2
SIMPLEX
 70
     0
 40
0.0
 41
1.0
 50
0.0
 71
     0
 42
3.5
  3
simplex
  4

  0
STYLE
  5
34C
330
3
100
AcDbSymbolTableRecord
100
AcDbTextStyleTableRecord
  2

 70
     1
 40
0.0
 41
1.0
 50
0.0
 71
     0
 42
2.5
  3
ltypeshp.shx
  4

  0
ENDTAB
  0
TABLE
  2
VIEW
  5
6
330
0
100
AcDbSymbolTable
 70
     0
  0
ENDTAB
  0
TABLE
  2
UCS
  5
7
330
0
100
AcDbSymbolTable
 70
     0
  0
ENDTAB
  0
TABLE
  2
APPID
  5
9
330
0
100
AcDbSymbolTable
 70
     1
  0
APPID
  5
11
330
9
100
AcDbSymbolTableRecord
100
AcDbRegAppTableRecord
  2
ACAD
 70
     0
  0
ENDTAB
  0
TABLE
  2
DIMSTYLE
  5
A
330
0
100
AcDbSymbolTable
 70
     1
100
AcDbDimStyleTable
  0
DIMSTYLE
105
3F
102
{ACAD_REACTORS
330
5E7
330
5F5
330
602
330
610
330
61D
102
}
330
A
100
AcDbSymbolTableRecord
100
AcDbDimStyleTableRecord
  2
STANDARD
 70
     0
 41
2.5
 42
0.0
 43
3.75
 44
1.25
 73
     0
 74
     0
 77
     1
 78
     8
 79
     2
140
3.5
141
0.0
143
0.039370078
147
0.625
171
     3
178
     0
179
     2
271
     2
272
     2
274
     3
283
     0
284
     8
340
1E
  0
ENDTAB
  0
TABLE
  2
BLOCK_RECORD
  5
1
330
0
100
AcDbSymbolTable
 70
     5
  0
BLOCK_RECORD
  5
18
330
1
100
AcDbSymbolTableRecord
100
AcDbBlockTableRecord
  2
*MODEL_SPACE
340
303
  0
BLOCK_RECORD
  5
338
330
1
100
AcDbSymbolTableRecord
100
AcDbBlockTableRecord
  2
*Paper_Space
340
33B
  0
BLOCK_RECORD
  5
5E8
330
1
100
AcDbSymbolTableRecord
100
AcDbBlockTableRecord
  2
*D0
340
0
  0
BLOCK_RECORD
  5
5F6
330
1
100
AcDbSymbolTableRecord
100
AcDbBlockTableRecord
  2
*D1
340
0
  0
BLOCK_RECORD
  5
603
330
1
100
AcDbSymbolTableRecord
100
AcDbBlockTableRecord
  2
*D2
340
0
  0
BLOCK_RECORD
  5
611
330
1
100
AcDbSymbolTableRecord
100
AcDbBlockTableRecord
  2
*D3
340
0
  0
BLOCK_RECORD
  5
61E
330
1
100
AcDbSymbolTableRecord
100
AcDbBlockTableRecord
  2
*D4
340
0
  0
ENDTAB
  0
ENDSEC
  0
SECTION
  2
BLOCKS
  0
BLOCK
  5
32
330
18
100
AcDbEntity
  8
0
100
AcDbBlockBegin
  2
*MODEL_SPACE
 70
     0
 10
0.0
 20
0.0
 30
0.0
  3
*MODEL_SPACE
  1

  0
ENDBLK
  5
33
330
18
100
AcDbEntity
  8
0
100
AcDbBlockEnd
  0
BLOCK
  5
339
330
338
100
AcDbEntity
 67
     1
  8
0
100
AcDbBlockBegin
  2
*Paper_Space
 70
     0
 10
0.0
 20
0.0
 30
0.0
  3
*Paper_Space
  1

  0
ENDBLK
  5
33A
330
338
100
AcDbEntity
 67
     1
  8
0
100
AcDbBlockEnd
  0
BLOCK
  5
5E9
330
5E8
100
AcDbEntity
  8
0
100
AcDbBlockBegin
  2
*D0
 70
     1
 10
0.0
 20
0.0
 30
0.0
  3
*D0
  1

  0
LINE
  5
5EB
330
5E8
100
AcDbEntity
  8
2
 62
     0
370
    -2
100
AcDbLine
 10
48.6
 20
2.413
 30
0.0
 11
64.85000000000001
 21
2.413000000000057
 31
0.0
  0
LINE
  5
5EC
330
5E8
100
AcDbEntity
  8
2
 62
     0
370
    -2
100
AcDbLine
 10
48.6
 20
-2.413
 30
0.0
 11
64.85000000000002
 21
-2.412999999999943
 31
0.0
  0
LINE
  5
5ED
330
5E8
100
AcDbEntity
  8
2
 62
     0
370
    -2
100
AcDbLine
 10
63.60000000000003
 20
-4.912999999999947
 30
0.0
 11
63.60000000000013
 21
-38.88899999999995
 31
0.0
  0
LINE
  5
5EE
330
5E8
100
AcDbEntity
  8
2
 62
     0
370
    -2
100
AcDbLine
 10
63.6
 20
4.913000000000052
 30
0.0
 11
63.59999999999999
 21
7.413000000000052
 31
0.0
  0
SOLID
  5
5EF
330
5E8
100
AcDbEntity
  8
2
 62
     0
100
AcDbTrace
 10
63.18333333333334
 20
4.913000000000051
 30
0.0
 11
64.01666666666667
 21
4.913000000000053
 31
0.0
 12
63.60000000000001
 22
2.413000000000052
 32
0.0
 13
63.60000000000001
 23
2.413000000000052
 33
0.0
  0
SOLID
  5
5F0
330
5E8
100
AcDbEntity
  8
2
 62
     0
100
AcDbTrace
 10
64.0166666666667
 20
-4.912999999999946
 30
0.0
 11
63.18333333333337
 21
-4.912999999999948
 31
0.0
 12
63.60000000000002
 22
-2.412999999999947
 32
0.0
 13
63.60000000000002
 23
-2.412999999999947
 33
0.0
  0
MTEXT
  5
5F1
330
5E8
100
AcDbEntity
  8
2
 62
     0
100
AcDbMText
 10
60.60725000000009
 20
-23.15099999999996
 30
0.0
 40
3.5
 41
0.0
 71
     5
 72
     1
  1
UNC#10-24
  7
SIMPLEX
 11
-2.944644574223374E-15
 21
1.0
 31
0.0
 73
     1
 44
1.0
  0
POINT
  5
5F2
330
5E8
100
AcDbEntity
  8
DEFPOINTS
 62
     0
100
AcDbPoint
 10
48.6
 20
2.413
 30
0.0
  0
POINT
  5
5F3
330
5E8
100
AcDbEntity
  8
DEFPOINTS
 62
     0
100
AcDbPoint
 10
48.6
 20
-2.413
 30
0.0
  0
POINT
  5
5F4
330
5E8
100
AcDbEntity
  8
DEFPOINTS
 62
     0
100
AcDbPoint
 10
63.60000000000002
 20
-2.412999999999947
 30
0.0
  0
ENDBLK
  5
5EA
330
5E8
100
AcDbEntity
  8
0
100
AcDbBlockEnd
  0
BLOCK
  5
5F7
330
5F6
100
AcDbEntity
  8
0
100
AcDbBlockBegin
  2
*D1
 70
     1
 10
0.0
 20
0.0
 30
0.0
  3
*D1
  1

  0
LINE
  5
5F9
330
5F6
100
AcDbEntity
  8
2
 62
     0
370
    -2
100
AcDbLine
 10
0.0
 20
0.0
 30
0.0
 11
0.0
 21
76.25
 31
0.0
  0
LINE
  5
5FA
330
5F6
100
AcDbEntity
  8
2
 62
     0
370
    -2
100
AcDbLine
 10
48.6
 20
0.0
 30
0.0
 11
48.6
 21
76.25
 31
0.0
  0
LINE
  5
5FB
330
5F6
100
AcDbEntity
  8
2
 62
     0
370
    -2
100
AcDbLine
 10
2.5
 20
75.0
 30
0.0
 11
46.1
 21
75.0
 31
0.0
  0
SOLID
  5
5FC
330
5F6
100
AcDbEntity
  8
2
 62
     0
100
AcDbTrace
 10
2.5
 20
75.41666666666667
 30
0.0
 11
2.5
 21
74.58333333333333
 31
0.0
 12
0.0
 22
75.0
 32
0.0
 13
0.0
 23
75.0
 33
0.0
  0
SOLID
  5
5FD
330
5F6
100
AcDbEntity
  8
2
 62
     0
100
AcDbTrace
 10
46.1
 20
74.58333333333333
 30
0.0
 11
46.1
 21
75.41666666666667
 31
0.0
 12
48.6
 22
75.0
 32
0.0
 13
48.6
 23
75.0
 33
0.0
  0
MTEXT
  5
5FE
330
5F6
100
AcDbEntity
  8
2
 62
     0
100
AcDbMText
 10
24.3
 20
77.438
 30
0.0
 40
3.5
 41
0.0
 71
     5
 72
     1
  1
48.6
  7
SIMPLEX
 73
     1
 44
1.0
  0
POINT
  5
5FF
330
5F6
100
AcDbEntity
  8
DEFPOINTS
 62
     0
100
AcDbPoint
 10
0.0
 20
0.0
 30
0.0
  0
POINT
  5
600
330
5F6
100
AcDbEntity
  8
DEFPOINTS
 62
     0
100
AcDbPoint
 10
48.6
 20
0.0
 30
0.0
  0
POINT
  5
601
330
5F6
100
AcDbEntity
  8
DEFPOINTS
 62
     0
100
AcDbPoint
 10
48.6
 20
75.0
 30
0.0
  0
ENDBLK
  5
5F8
330
5F6
100
AcDbEntity
  8
0
100
AcDbBlockEnd
  0
BLOCK
  5
604
330
603
100
AcDbEntity
  8
0
100
AcDbBlockBegin
  2
*D2
 70
     1
 10
0.0
 20
0.0
 30
0.0
  3
*D2
  1

  0
LINE
  5
606
330
603
100
AcDbEntity
  8
SK2
 62
     0
370
    -2
100
AcDbLine
 10
-15.48
 20
2.4638
 30
0.0
 11
-38.08000000001257
 21
2.463799999884663
 31
0.0
  0
LINE
  5
607
330
603
100
AcDbEntity
  8
SK2
 62
     0
370
    -2
100
AcDbLine
 10
-15.48
 20
-2.4638
 30
0.0
 11
-38.07999999998742
 21
-2.463800000115337
 31
0.0
  0
LINE
  5
608
330
603
100
AcDbEntity
  8
SK2
 62
     0
370
    -2
100
AcDbLine
 10
-36.82999999997467
 20
-4.963800000108957
 30
0.0
 11
-36.82999999988318
 21
-22.89230000010896
 31
0.0
  0
LINE
  5
609
330
603
100
AcDbEntity
  8
SK2
 62
     0
370
    -2
100
AcDbLine
 10
-36.83000000002532
 20
4.963799999891043
 30
0.0
 11
-36.83000000003808
 21
7.463799999891043
 31
0.0
  0
SOLID
  5
60A
330
603
100
AcDbEntity
  8
SK2
 62
     0
100
AcDbTrace
 10
-37.24666666669199
 20
4.963799999888916
 30
0.0
 11
-36.41333333335866
 21
4.963799999893169
 31
0.0
 12
-36.83000000001257
 22
2.463799999891042
 32
0.0
 13
-36.83000000001257
 23
2.463799999891042
 33
0.0
  0
SOLID
  5
60B
330
603
100
AcDbEntity
  8
SK2
 62
     0
100
AcDbTrace
 10
-36.413333333308
 20
-4.963800000106831
 30
0.0
 11
-37.24666666664133
 21
-4.963800000111084
 31
0.0
 12
-36.82999999998742
 22
-2.463800000108958
 32
0.0
 13
-36.82999999998742
 23
-2.463800000108958
 33
0.0
  0
MTEXT
  5
60C
330
603
100
AcDbEntity
  8
SK2
 62
     0
100
AcDbMText
 10
-39.26799999992254
 20
-15.1780500001214
 30
0.0
 40
3.5
 41
0.0
 71
     5
 72
     1
  1
%%c4.93
  7
SIMPLEX
 11
-5.103114582869946E-12
 21
1.0
 31
0.0
 73
     1
 44
1.0
  0
POINT
  5
60D
330
603
100
AcDbEntity
  8
DEFPOINTS
 62
     0
100
AcDbPoint
 10
-15.48
 20
2.4638
 30
0.0
  0
POINT
  5
60E
330
603
100
AcDbEntity
  8
DEFPOINTS
 62
     0
100
AcDbPoint
 10
-15.48
 20
-2.4638
 30
0.0
  0
POINT
  5
60F
330
603
100
AcDbEntity
  8
DEFPOINTS
 62
     0
100
AcDbPoint
 10
-36.82999999998742
 20
-2.463800000108958
 30
0.0
  0
ENDBLK
  5
605
330
603
100
AcDbEntity
  8
0
100
AcDbBlockEnd
  0
BLOCK
  5
612
330
611
100
AcDbEntity
  8
0
100
AcDbBlockBegin
  2
*D3
 70
     1
 10
0.0
 20
0.0
 30
0.0
  3
*D3
  1

  0
LINE
  5
614
330
611
100
AcDbEntity
  8
2
 62
     0
370
    -2
100
AcDbLine
 10
33.67681692
 20
1.88
 30
0.0
 11
33.67681692
 21
61.25
 31
0.0
  0
LINE
  5
615
330
611
100
AcDbEntity
  8
2
 62
     0
370
    -2
100
AcDbLine
 10
48.6
 20
2.413
 30
0.0
 11
48.6
 21
61.25
 31
0.0
  0
LINE
  5
616
330
611
100
AcDbEntity
  8
2
 62
     0
370
    -2
100
AcDbLine
 10
36.17681692
 20
60.0
 30
0.0
 11
46.1
 21
60.0
 31
0.0
  0
SOLID
  5
617
330
611
100
AcDbEntity
  8
2
 62
     0
100
AcDbTrace
 10
36.17681692
 20
60.41666666666666
 30
0.0
 11
36.17681692
 21
59.58333333333334
 31
0.0
 12
33.67681692
 22
60.0
 32
0.0
 13
33.67681692
 23
60.0
 33
0.0
  0
SOLID
  5
618
330
611
100
AcDbEntity
  8
2
 62
     0
100
AcDbTrace
 10
46.1
 20
59.58333333333334
 30
0.0
 11
46.1
 21
60.41666666666666
 31
0.0
 12
48.6
 22
60.0
 32
0.0
 13
48.6
 23
60.0
 33
0.0
  0
MTEXT
  5
619
330
611
100
AcDbEntity
  8
2
 62
     0
100
AcDbMText
 10
41.13840846
 20
62.438
 30
0.0
 40
3.5
 41
0.0
 71
     5
 72
     1
  1
14.92
  7
SIMPLEX
 73
     1
 44
1.0
  0
POINT
  5
61A
330
611
100
AcDbEntity
  8
DEFPOINTS
 62
     0
100
AcDbPoint
 10
33.67681692
 20
1.88
 30
0.0
  0
POINT
  5
61B
330
611
100
AcDbEntity
  8
DEFPOINTS
 62
     0
100
AcDbPoint
 10
48.6
 20
2.413
 30
0.0
  0
POINT
  5
61C
330
611
100
AcDbEntity
  8
DEFPOINTS
 62
     0
100
AcDbPoint
 10
48.6
 20
60.0
 30
0.0
  0
ENDBLK
  5
613
330
611
100
AcDbEntity
  8
0
100
AcDbBlockEnd
  0
BLOCK
  5
61F
330
61E
100
AcDbEntity
  8
0
100
AcDbBlockBegin
  2
*D4
 70
     1
 10
0.0
 20
0.0
 30
0.0
  3
*D4
  1

  0
LINE
  5
621
330
61E
100
AcDbEntity
  8
SK2
 62
     0
370
    -2
100
AcDbLine
 10
-21.83
 20
2.413
 30
0.0
 11
-21.83
 21
91.25
 31
0.0
  0
LINE
  5
622
330
61E
100
AcDbEntity
  8
SK2
 62
     0
370
    -2
100
AcDbLine
 10
50.37
 20
2.413
 30
0.0
 11
50.37
 21
91.25
 31
0.0
  0
LINE
  5
623
330
61E
100
AcDbEntity
  8
SK2
 62
     0
370
    -2
100
AcDbLine
 10
-19.33
 20
90.0
 30
0.0
 11
47.87
 21
90.0
 31
0.0
  0
SOLID
  5
624
330
61E
100
AcDbEntity
  8
SK2
 62
     0
100
AcDbTrace
 10
-19.33
 20
90.41666666666667
 30
0.0
 11
-19.33
 21
89.58333333333333
 31
0.0
 12
-21.83
 22
90.0
 32
0.0
 13
-21.83
 23
90.0
 33
0.0
  0
SOLID
  5
625
330
61E
100
AcDbEntity
  8
SK2
 62
     0
100
AcDbTrace
 10
47.87
 20
89.58333333333333
 30
0.0
 11
47.87
 21
90.41666666666667
 31
0.0
 12
50.37
 22
90.0
 32
0.0
 13
50.37
 23
90.0
 33
0.0
  0
MTEXT
  5
626
330
61E
100
AcDbEntity
  8
SK2
 62
     0
100
AcDbMText
 10
14.27
 20
92.39775
 30
0.0
 40
3.5
 41
0.0
 71
     5
 72
     1
  1
72.2
  7
SIMPLEX
 73
     1
 44
1.0
  0
POINT
  5
627
330
61E
100
AcDbEntity
  8
DEFPOINTS
 62
     0
100
AcDbPoint
 10
-21.83
 20
2.413
 30
0.0
  0
POINT
  5
628
330
61E
100
AcDbEntity
  8
DEFPOINTS
 62
     0
100
AcDbPoint
 10
50.37
 20
2.413
 30
0.0
  0
POINT
  5
629
330
61E
100
AcDbEntity
  8
DEFPOINTS
 62
     0
100
AcDbPoint
 10
50.37
 20
90.0
 30
0.0
  0
ENDBLK
  5
620
330
61E
100
AcDbEntity
  8
0
100
AcDbBlockEnd
  0
ENDSEC
  0
SECTION
  2
ENTITIES
  0
LINE
  5
3D6
330
18
100
AcDbEntity
  8
SK4
100
AcDbLine
 10
-23.83
 20
0.0
 30
0.0
 11
17.8
 21
0.0
 31
0.0
  0
LINE
  5
3D7
330
18
100
AcDbEntity
  8
4
100
AcDbLine
 10
15.8
 20
0.0
 30
0.0
 11
52.37
 21
0.0
 31
0.0
  0
LINE
  5
3D8
330
18
100
AcDbEntity
  8
SK4
100
AcDbLine
 10
15.8
 20
0.0
 30
0.0
 11
52.37
 21
0.0
 31
0.0
  0
LINE
  5
3D9
330
18
100
AcDbEntity
  8
1
100
AcDbLine
 10
17.8
 20
2.4638
 30
0.0
 11
-0.0000000000000018
 21
2.4638
 31
0.0
  0
LINE
  5
3DA
330
18
100
AcDbEntity
  8
1
100
AcDbLine
 10
17.8
 20
2.4638
 30
0.0
 11
17.8
 21
2.461350506561429
 31
0.0
  0
LINE
  5
3DB
330
18
100
AcDbEntity
  8
1
100
AcDbLine
 10
17.8
 20
2.461350506561429
 30
0.0
 11
17.8
 21
2.242731572755089
 31
0.0
  0
LINE
  5
3DC
330
18
100
AcDbEntity
  8
1
100
AcDbLine
 10
17.8
 20
2.242731572755089
 30
0.0
 11
17.8
 21
-2.4638
 31
0.0
  0
LINE
  5
3DD
330
18
100
AcDbEntity
  8
1
100
AcDbLine
 10
17.8
 20
2.4638
 30
0.0
 11
21.11089433
 21
1.88
 31
0.0
  0
LINE
  5
3DE
330
18
100
AcDbEntity
  8
1
100
AcDbLine
 10
21.11089433
 20
1.88
 30
0.0
 11
21.11089433
 21
1.878130916606659
 31
0.0
  0
LINE
  5
3DF
330
18
100
AcDbEntity
  8
1
100
AcDbLine
 10
21.11089433
 20
1.878130916606659
 30
0.0
 11
21.11089433
 21
1.711313968982696
 31
0.0
  0
LINE
  5
3E0
330
18
100
AcDbEntity
  8
1
100
AcDbLine
 10
21.11089433
 20
1.711313968982696
 30
0.0
 11
21.11089433
 21
-1.88
 31
0.0
  0
LINE
  5
3E1
330
18
100
AcDbEntity
  8
1
100
AcDbLine
 10
33.57344151439047
 20
-0.4857335039168057
 30
0.0
 11
33.57344151439047
 21
-1.5832709736968
 31
0.0
  0
LINE
  5
3E2
330
18
100
AcDbEntity
  8
1
100
AcDbLine
 10
33.57344151439047
 20
1.88
 30
0.0
 11
33.57344151439047
 21
1.879954962627705
 31
0.0
  0
LINE
  5
3E3
330
18
100
AcDbEntity
  8
1
100
AcDbLine
 10
33.57344151439047
 20
1.879954962627705
 30
0.0
 11
33.57344151439047
 21
1.866415016057603
 31
0.0
  0
LINE
  5
3E4
330
18
100
AcDbEntity
  8
1
100
AcDbLine
 10
33.57344151439047
 20
1.866415016057603
 30
0.0
 11
33.57344151439047
 21
1.669553346267431
 31
0.0
  0
LINE
  5
3E5
330
18
100
AcDbEntity
  8
1
100
AcDbLine
 10
21.11089433
 20
1.88
 30
0.0
 11
33.57344151439047
 21
1.88
 31
0.0
  0
LINE
  5
3E6
330
18
100
AcDbEntity
  8
1
100
AcDbLine
 10
21.6
 20
-1.583270973696799
 30
0.0
 11
21.60000000000001
 21
-1.88
 31
0.0
  0
LINE
  5
3E7
330
18
100
AcDbEntity
  8
1
100
AcDbLine
 10
33.57344151439047
 20
-0.4857335039168055
 30
0.0
 11
33.67681692000001
 21
-0.392683754162766
 31
0.0
  0
LINE
  5
3E8
330
18
100
AcDbEntity
  8
1
100
AcDbLine
 10
21.60000000000001
 20
1.669553346267429
 30
0.0
 11
21.60000000000001
 21
-0.4857335039168058
 31
0.0
  0
ARC
  5
3E9
330
18
100
AcDbEntity
  8
1
100
AcDbCircle
 10
37.40647030501599
 20
-4.203586574759505
 30
0.0
 40
4.643075390093504
100
AcDbArc
 50
143.4438563088712
 51
145.6429065595966
  0
LINE
  5
3EA
330
18
100
AcDbEntity
  8
1
100
AcDbLine
 10
21.60000000000001
 20
-1.5832709736968
 30
0.0
 11
33.57344151439048
 21
-1.5832709736968
 31
0.0
  0
LINE
  5
3EB
330
18
100
AcDbEntity
  8
1
100
AcDbLine
 10
21.60000000000001
 20
-0.4857335039168059
 30
0.0
 11
33.57344151439047
 21
-0.4857335039168058
 31
0.0
  0
LINE
  5
3EC
330
18
100
AcDbEntity
  8
1
100
AcDbLine
 10
33.57344151439047
 20
1.669553346267439
 30
0.0
 11
33.67681691999999
 21
1.50567700463012
 31
0.0
  0
LINE
  5
3ED
330
18
100
AcDbEntity
  8
1
100
AcDbLine
 10
21.6
 20
1.669553346267429
 30
0.0
 11
33.57344151439048
 21
1.66955334626744
 31
0.0
  0
LINE
  5
3EE
330
18
100
AcDbEntity
  8
1
100
AcDbLine
 10
33.67681692
 20
1.505677004630118
 30
0.0
 11
33.67681692000001
 21
1.700948628714014
 31
0.0
  0
LINE
  5
3EF
330
18
100
AcDbEntity
  8
1
100
AcDbLine
 10
33.67681692000001
 20
1.505677004630125
 30
0.0
 11
33.67681692
 21
-0.2604754205737689
 31
0.0
  0
LINE
  5
3F0
330
18
100
AcDbEntity
  8
1
100
AcDbLine
 10
33.67681692
 20
-0.2604754205737834
 30
0.0
 11
33.67681692
 21
-0.3926837592693017
 31
0.0
  0
LINE
  5
3F1
330
18
100
AcDbEntity
  8
1
100
AcDbLine
 10
33.67681692000001
 20
-1.438128401875178
 30
0.0
 11
33.67681692000001
 21
-0.3926837633203431
 31
0.0
  0
LINE
  5
3F2
330
18
100
AcDbEntity
  8
1
100
AcDbLine
 10
-0.0000000000000044
 20
-2.4638
 30
0.0
 11
17.8
 21
-2.4638
 31
0.0
  0
LINE
  5
3F3
330
18
100
AcDbEntity
  8
1
100
AcDbLine
 10
17.8
 20
-2.4638
 30
0.0
 11
21.11089433
 21
-1.88
 31
0.0
  0
LINE
  5
3F4
330
18
100
AcDbEntity
  8
1
100
AcDbLine
 10
21.11089433
 20
-1.88
 30
0.0
 11
21.6
 21
-1.88
 31
0.0
  0
LINE
  5
3F5
330
18
100
AcDbEntity
  8
1
100
AcDbLine
 10
33.67681692000001
 20
1.700948628714011
 30
0.0
 11
33.57344151439047
 21
1.879999999999999
 31
0.0
  0
LINE
  5
3F6
330
18
100
AcDbEntity
  8
1
 62
     1
100
AcDbLine
 10
46.76576732772152
 20
2.005646674980032
 30
0.0
 11
47.2987669066104
 21
1.937171404405496
 31
0.0
  0
LINE
  5
3F7
330
18
100
AcDbEntity
  8
1
 62
     1
100
AcDbLine
 10
47.75102131266515
 20
1.87906958960166
 30
0.0
 11
48.44188916881733
 21
1.790312740149941
 31
0.0
  0
LINE
  5
3F8
330
18
100
AcDbEntity
  8
1
 62
     1
100
AcDbLine
 10
41.70928632256575
 20
2.413
 30
0.0
 11
41.73238034410094
 21
2.413
 31
0.0
  0
LINE
  5
3F9
330
18
100
AcDbEntity
  8
1
 62
     1
100
AcDbLine
 10
42.76761965589909
 20
2.413
 30
0.0
 11
42.79071367743428
 21
2.413
 31
0.0
  0
LINE
  5
3FA
330
18
100
AcDbEntity
  8
1
 62
     1
100
AcDbLine
 10
40.65095298923243
 20
2.413
 30
0.0
 11
40.67404701076762
 21
2.413
 31
0.0
  0
LINE
  5
3FB
330
18
100
AcDbEntity
  8
1
 62
     1
100
AcDbLine
 10
39.59261965589909
 20
2.413
 30
0.0
 11
39.61571367743426
 21
2.413
 31
0.0
  0
LINE
  5
3FC
330
18
100
AcDbEntity
  8
1
 62
     1
100
AcDbLine
 10
38.53428632256576
 20
2.413
 30
0.0
 11
38.55738034410091
 21
2.413
 31
0.0
  0
LINE
  5
3FD
330
18
100
AcDbEntity
  8
1
 62
     1
100
AcDbLine
 10
37.47595298923243
 20
2.413
 30
0.0
 11
37.49904701076762
 21
2.413
 31
0.0
  0
LINE
  5
3FE
330
18
100
AcDbEntity
  8
1
 62
     1
100
AcDbLine
 10
42.79071367743428
 20
-0.7595053333948103
 30
0.0
 11
42.76761965589909
 21
-0.7595053333948103
 31
0.0
  0
LINE
  5
3FF
330
18
100
AcDbEntity
  8
1
 62
     1
100
AcDbLine
 10
41.73238034410096
 20
-0.7595053333948103
 30
0.0
 11
41.70928632256577
 21
-0.7595053333948103
 31
0.0
  0
LINE
  5
400
330
18
100
AcDbEntity
  8
1
 62
     1
100
AcDbLine
 10
40.67404701076761
 20
-0.7595053333948102
 30
0.0
 11
40.65095298923242
 21
-0.7595053333948102
 31
0.0
  0
LINE
  5
401
330
18
100
AcDbEntity
  8
1
 62
     1
100
AcDbLine
 10
40.67404701076762
 20
-2.085432270459887
 30
0.0
 11
40.65095298923243
 21
-2.085432270459887
 31
0.0
  0
LINE
  5
402
330
18
100
AcDbEntity
  8
1
 62
     1
100
AcDbLine
 10
39.61571367743427
 20
-0.7595053333948103
 30
0.0
 11
39.5926196558991
 21
-0.7595053333948103
 31
0.0
  0
LINE
  5
403
330
18
100
AcDbEntity
  8
1
 62
     1
100
AcDbLine
 10
39.61571367743427
 20
-2.085432270459887
 30
0.0
 11
39.59261965589911
 21
-2.085432270459887
 31
0.0
  0
LINE
  5
404
330
18
100
AcDbEntity
  8
1
 62
     1
100
AcDbLine
 10
38.55738034410091
 20
-2.085432270459887
 30
0.0
 11
38.53428632256576
 21
-2.085432270459887
 31
0.0
  0
LINE
  5
405
330
18
100
AcDbEntity
  8
1
 62
     1
100
AcDbLine
 10
37.49904701076763
 20
-0.7595053333948103
 30
0.0
 11
37.47595298923243
 21
-0.7595053333948103
 31
0.0
  0
LINE
  5
406
330
18
100
AcDbEntity
  8
1
 62
     1
100
AcDbLine
 10
37.49904701076763
 20
-2.085432270459887
 30
0.0
 11
37.47595298923244
 21
-2.085432270459887
 31
0.0
  0
LINE
  5
407
330
18
100
AcDbEntity
  8
1
 62
     1
100
AcDbLine
 10
36.44071367743426
 20
-0.7595053333948103
 30
0.0
 11
36.41761965589911
 21
-0.7595053333948103
 31
0.0
  0
LINE
  5
408
330
18
100
AcDbEntity
  8
1
 62
     1
100
AcDbLine
 10
36.44071367743426
 20
-2.085432270459887
 30
0.0
 11
36.41761965589909
 21
-2.085432270459887
 31
0.0
  0
LINE
  5
409
330
18
100
AcDbEntity
  8
1
 62
     1
100
AcDbLine
 10
35.38238034410096
 20
-2.085432270459887
 30
0.0
 11
35.35928632256574
 21
-2.085432270459887
 31
0.0
  0
LINE
  5
40A
330
18
100
AcDbEntity
  8
1
 62
     1
100
AcDbLine
 10
48.44188916881733
 20
-0.439218039517057
 30
0.0
 11
47.75102131266515
 21
-0.48525181926325
 31
0.0
  0
LINE
  5
40B
330
18
100
AcDbEntity
  8
1
 62
     1
100
AcDbLine
 10
48.44188916881734
 20
-1.509083461928017
 30
0.0
 11
47.75102131266517
 21
-1.582486034281876
 31
0.0
  0
LINE
  5
40C
330
18
100
AcDbEntity
  8
1
 62
     1
100
AcDbLine
 10
48.44188916881733
 20
-0.4392180395171031
 30
0.0
 11
48.44188916881733
 21
-1.509083461927927
 31
0.0
  0
LINE
  5
40D
330
18
100
AcDbEntity
  8
1
 62
     1
100
AcDbLine
 10
47.29876690661038
 20
-0.5152998909977466
 30
0.0
 11
46.76576732772151
 21
-0.5506349550828815
 31
0.0
  0
LINE
  5
40E
330
18
100
AcDbEntity
  8
1
 62
     1
100
AcDbLine
 10
47.29876690661038
 20
-1.632119932117191
 30
0.0
 11
46.76576732772153
 21
-1.692222815128815
 31
0.0
  0
LINE
  5
40F
330
18
100
AcDbEntity
  8
1
 62
     1
100
AcDbLine
 10
46.15564464440344
 20
-0.5909903700844659
 30
0.0
 11
45.78051334277788
 21
-0.6157584456128775
 31
0.0
  0
LINE
  5
410
330
18
100
AcDbEntity
  8
1
 62
     1
100
AcDbLine
 10
46.15564464440344
 20
-1.763153286680774
 30
0.0
 11
45.78051334277787
 21
-1.807890815457841
 31
0.0
  0
LINE
  5
411
330
18
100
AcDbEntity
  8
1
 62
     1
100
AcDbLine
 10
45.01252238219647
 20
-0.6663711242558844
 30
0.0
 11
44.79525935783424
 21
-0.6806682905517966
 31
0.0
  0
LINE
  5
412
330
18
100
AcDbEntity
  8
1
 62
     1
100
AcDbLine
 10
43.86940012007793
 20
-0.7415023482267646
 30
0.0
 11
43.8100053728906
 21
-0.7454001240810697
 31
0.0
  0
LINE
  5
413
330
18
100
AcDbEntity
  8
1
 62
     1
100
AcDbLine
 10
34.39303528222439
 20
-0.6984344650741869
 30
0.0
 11
34.15142937917004
 21
-0.6269486545019144
 31
0.0
  0
LINE
  5
414
330
18
100
AcDbEntity
  8
1
 62
     1
100
AcDbLine
 10
34.39303528222437
 20
-1.963811380550569
 30
0.0
 11
34.15142937917004
 21
-1.828402630686596
 31
0.0
  0
LINE
  5
415
330
18
100
AcDbEntity
  8
1
 62
     1
100
AcDbLine
 10
45.01252238219649
 20
-1.902143901690918
 30
0.0
 11
44.79525935783425
 21
-1.929454773147024
 31
0.0
  0
LINE
  5
416
330
18
100
AcDbEntity
  8
1
 62
     1
100
AcDbLine
 10
43.86940011998951
 20
-2.049015311917044
 30
0.0
 11
43.8100053728906
 21
-2.056859958464932
 31
0.0
  0
LINE
  5
417
330
18
100
AcDbEntity
  8
1
 62
     1
100
AcDbLine
 10
42.79071367743428
 20
-2.085432270459887
 30
0.0
 11
42.76761965589909
 21
-2.085432270459887
 31
0.0
  0
LINE
  5
418
330
18
100
AcDbEntity
  8
1
 62
     1
100
AcDbLine
 10
41.73238034410093
 20
-2.085432270459887
 30
0.0
 11
41.70928632256576
 21
-2.085432270459887
 31
0.0
  0
LINE
  5
419
330
18
100
AcDbEntity
  8
1
 62
     1
100
AcDbLine
 10
48.60000000000002
 20
-0.2958699724398389
 30
0.0
 11
48.60000000000002
 21
-0.4286580915706103
 31
0.0
  0
LINE
  5
41A
330
18
100
AcDbEntity
  8
1
 62
     1
100
AcDbLine
 10
48.6
 20
-0.428658091570614
 30
0.0
 11
48.60000000000001
 21
-1.492695531264908
 31
0.0
  0
LINE
  5
41B
330
18
100
AcDbEntity
  8
1
 62
     1
100
AcDbLine
 10
48.44188916881733
 20
-0.4392180395170642
 30
0.0
 11
48.60000000000001
 21
-0.2958699724398383
 31
0.0
  0
ARC
  5
41C
330
18
100
AcDbEntity
  8
1
 62
     1
100
AcDbCircle
 10
51.81964300050928
 20
-3.910073162970951
 30
0.0
 40
4.144143873824025
100
AcDbArc
 50
140.9793277292247
 51
144.593858026843
  0
LINE
  5
41D
330
18
100
AcDbEntity
  8
1
 62
     1
100
AcDbLine
 10
40.65095298923243
 20
2.413
 30
0.0
 11
40.65095298923244
 21
2.412932126942222
 31
0.0
  0
LINE
  5
41E
330
18
100
AcDbEntity
  8
1
 62
     1
100
AcDbLine
 10
40.65095298923244
 20
2.412932126942222
 30
0.0
 11
40.65095298923243
 21
2.39245954790951
 31
0.0
  0
LINE
  5
41F
330
18
100
AcDbEntity
  8
1
 62
     1
100
AcDbLine
 10
40.65095298923243
 20
2.39245954790951
 30
0.0
 11
40.65095298923243
 21
2.093980104931839
 31
0.0
  0
LINE
  5
420
330
18
100
AcDbEntity
  8
1
 62
     1
100
AcDbLine
 10
36.41761965589909
 20
2.413
 30
0.0
 11
36.44071367743426
 21
2.413
 31
0.0
  0
LINE
  5
421
330
18
100
AcDbEntity
  8
1
 62
     1
100
AcDbLine
 10
35.38238034410094
 20
2.093980104931839
 30
0.0
 11
35.35928632256575
 21
2.093980104931839
 31
0.0
  0
LINE
  5
422
330
18
100
AcDbEntity
  8
1
 62
     1
100
AcDbLine
 10
35.35928632256576
 20
2.413
 30
0.0
 11
35.38238034410095
 21
2.413
 31
0.0
  0
LINE
  5
423
330
18
100
AcDbEntity
  8
1
 62
     1
100
AcDbLine
 10
48.44188916881733
 20
1.588756996563306
 30
0.0
 11
47.75102131266515
 21
1.668728262259885
 31
0.0
  0
LINE
  5
424
330
18
100
AcDbEntity
  8
1
 62
     1
100
AcDbLine
 10
47.29876690661036
 20
1.719726488025695
 30
0.0
 11
46.76576732772152
 21
1.77844739668634
 31
0.0
  0
LINE
  5
425
330
18
100
AcDbEntity
  8
1
 62
     1
100
AcDbLine
 10
46.15564464440344
 20
1.843789645259732
 30
0.0
 11
45.78051334277788
 21
1.882940669573989
 31
0.0
  0
LINE
  5
426
330
18
100
AcDbEntity
  8
1
 62
     1
100
AcDbLine
 10
45.78051334277788
 20
2.132223760358406
 30
0.0
 11
46.15564464440345
 21
2.084030068661055
 31
0.0
  0
LINE
  5
427
330
18
100
AcDbEntity
  8
1
 62
     1
100
AcDbLine
 10
44.79525935783423
 20
2.258800845736781
 30
0.0
 11
45.01252238219649
 21
2.230888732916614
 31
0.0
  0
LINE
  5
428
330
18
100
AcDbEntity
  8
1
 62
     1
100
AcDbLine
 10
43.81000537289061
 20
2.385377931115152
 30
0.0
 11
43.86940011998951
 21
2.377747397172176
 31
0.0
  0
LINE
  5
429
330
18
100
AcDbEntity
  8
1
 62
     1
100
AcDbLine
 10
45.01252238219648
 20
-0.666371124255893
 30
0.0
 11
45.42500000000001
 21
-0.2958699724398383
 31
0.0
  0
LINE
  5
42A
330
18
100
AcDbEntity
  8
1
 62
     1
100
AcDbLine
 10
45.01252238219649
 20
-0.6663711242558846
 30
0.0
 11
45.01252238219649
 21
-1.902143901690917
 31
0.0
  0
ARC
  5
42B
330
18
100
AcDbEntity
  8
1
 62
     1
100
AcDbCircle
 10
49.43664722105802
 20
-4.490574530680211
 30
0.0
 40
5.125613620296017
100
AcDbArc
 50
141.511964034119
 51
149.6693015584724
  0
LINE
  5
42C
330
18
100
AcDbEntity
  8
1
 62
     1
100
AcDbLine
 10
45.42500000000001
 20
-1.300933713137983
 30
0.0
 11
45.42500000000002
 21
-0.2958699724398385
 31
0.0
  0
ARC
  5
42D
330
18
100
AcDbEntity
  8
1
 62
     1
100
AcDbCircle
 10
69.47294911503522
 20
27.24480599938664
 30
0.0
 40
37.26681330216637
100
AcDbArc
 50
227.6474690419706
 51
228.5330277032535
  0
LINE
  5
42E
330
18
100
AcDbEntity
  8
1
 62
     1
100
AcDbLine
 10
44.36666666666667
 20
-1.300933713137983
 30
0.0
 11
44.36666666666667
 21
-0.2958699724398386
 31
0.0
  0
ARC
  5
42F
330
18
100
AcDbEntity
  8
1
 62
     1
100
AcDbCircle
 10
40.56824664040975
 20
-4.345696247434191
 30
0.0
 40
4.868231472672394
100
AcDbArc
 50
29.75311271915089
 51
38.71519499250125
  0
LINE
  5
430
330
18
100
AcDbEntity
  8
1
 62
     1
100
AcDbLine
 10
44.79525935783423
 20
-0.6806682905517978
 30
0.0
 11
44.79525935783423
 21
-1.929454773147025
 31
0.0
  0
LINE
  5
431
330
18
100
AcDbEntity
  8
1
 62
     1
100
AcDbLine
 10
46.48333333333335
 20
-0.2958699724398383
 30
0.0
 11
46.76576732772152
 21
-0.5506349550828837
 31
0.0
  0
LINE
  5
432
330
18
100
AcDbEntity
  8
1
 62
     1
100
AcDbLine
 10
46.48333333333336
 20
-1.300933713137983
 30
0.0
 11
46.48333333333335
 21
-0.2958699724398385
 31
0.0
  0
ARC
  5
433
330
18
100
AcDbEntity
  8
1
 62
     1
100
AcDbCircle
 10
43.06151173100179
 20
-4.065959599324898
 30
0.0
 40
4.399377233981314
100
AcDbArc
 50
32.65229476112418
 51
38.94017678055766
  0
LINE
  5
434
330
18
100
AcDbEntity
  8
1
 62
     1
100
AcDbLine
 10
46.76576732772151
 20
-0.5506349550828824
 30
0.0
 11
46.76576732772151
 21
-1.692222815128816
 31
0.0
  0
LINE
  5
435
330
18
100
AcDbEntity
  8
1
 62
     1
100
AcDbLine
 10
47.29876690661038
 20
-0.5152998909977435
 30
0.0
 11
47.54166666666669
 21
-0.2958699724398383
 31
0.0
  0
LINE
  5
436
330
18
100
AcDbEntity
  8
1
 62
     1
100
AcDbLine
 10
47.2987669066104
 20
-0.5152998909977446
 30
0.0
 11
47.2987669066104
 21
-1.632119932117189
 31
0.0
  0
ARC
  5
437
330
18
100
AcDbEntity
  8
1
 62
     1
100
AcDbCircle
 10
50.9970175000384
 20
-4.088284355492675
 30
0.0
 40
4.439553098539708
100
AcDbArc
 50
141.1076937343398
 51
146.4101839702992
  0
LINE
  5
438
330
18
100
AcDbEntity
  8
1
 62
     1
100
AcDbLine
 10
47.54166666666669
 20
-1.300933713137983
 30
0.0
 11
47.54166666666669
 21
-0.2958699724398385
 31
0.0
  0
LINE
  5
439
330
18
100
AcDbEntity
  8
1
 62
     1
100
AcDbLine
 10
47.54166666666669
 20
-0.2958699724398383
 30
0.0
 11
47.75102131266515
 21
-0.4852518192632493
 31
0.0
  0
ARC
  5
43A
330
18
100
AcDbEntity
  8
1
 62
     1
100
AcDbCircle
 10
44.28627991467069
 20
-3.938873886478028
 30
0.0
 40
4.190033633222118
100
AcDbArc
 50
34.2198146673139
 51
39.01891556259827
  0
LINE
  5
43B
330
18
100
AcDbEntity
  8
1
 62
     1
100
AcDbLine
 10
47.75102131266515
 20
-0.48525181926325
 30
0.0
 11
47.75102131266515
 21
-1.582486034281877
 31
0.0
  0
LINE
  5
43C
330
18
100
AcDbEntity
  8
1
 62
     1
100
AcDbLine
 10
45.42500000000001
 20
-0.2958699724398383
 30
0.0
 11
45.78051334277788
 21
-0.6157584456129213
 31
0.0
  0
ARC
  5
43D
330
18
100
AcDbEntity
  8
1
 62
     1
100
AcDbCircle
 10
41.8219777498637
 20
-4.201815601292977
 30
0.0
 40
4.625742186268193
100
AcDbArc
 50
31.16345527088043
 51
38.83839696280444
  0
LINE
  5
43E
330
18
100
AcDbEntity
  8
1
 62
     1
100
AcDbLine
 10
45.78051334277788
 20
-0.6157584456128785
 30
0.0
 11
45.78051334277788
 21
-1.80789081545784
 31
0.0
  0
LINE
  5
43F
330
18
100
AcDbEntity
  8
1
 62
     1
100
AcDbLine
 10
46.15564464440344
 20
-0.5909903700844632
 30
0.0
 11
46.48333333333335
 21
-0.2958699724398383
 31
0.0
  0
LINE
  5
440
330
18
100
AcDbEntity
  8
1
 62
     1
100
AcDbLine
 10
46.15564464440346
 20
-0.590990370084466
 30
0.0
 11
46.15564464440345
 21
-1.763153286680772
 31
0.0
  0
ARC
  5
441
330
18
100
AcDbEntity
  8
1
 62
     1
100
AcDbCircle
 10
50.20254033450799
 20
-4.28199951216672
 30
0.0
 40
4.766708147474473
100
AcDbArc
 50
141.2866868299698
 51
148.1012703603172
  0
ARC
  5
442
330
18
100
AcDbEntity
  8
1
 62
     1
100
AcDbCircle
 10
10.1445646659065
 20
35.04471994201656
 30
0.0
 40
47.74652072783432
100
AcDbArc
 50
311.4199334168771
 51
312.2538227425013
  0
LINE
  5
443
330
18
100
AcDbEntity
  8
1
 62
     1
100
AcDbLine
 10
41.73238034410094
 20
-0.7595053333948102
 30
0.0
 11
41.73238034410093
 21
-2.085432270459887
 31
0.0
  0
LINE
  5
444
330
18
100
AcDbEntity
  8
1
 62
     1
100
AcDbLine
 10
41.73238034410093
 20
-2.085432270459885
 30
0.0
 11
41.85975314470178
 21
-1.864936051104569
 31
0.0
  0
LINE
  5
445
330
18
100
AcDbEntity
  8
1
 62
     1
100
AcDbLine
 10
41.85975314470178
 20
-1.864936051104569
 30
0.0
 11
41.98984642668671
 21
-1.658136711023849
 31
0.0
  0
LINE
  5
446
330
18
100
AcDbEntity
  8
1
 62
     1
100
AcDbLine
 10
41.98984642668671
 20
-1.658136711023849
 30
0.0
 11
42.12078851478054
 21
-1.468975691704191
 31
0.0
  0
LINE
  5
447
330
18
100
AcDbEntity
  8
1
 62
     1
100
AcDbLine
 10
42.12078851478054
 20
-1.468975691704191
 30
0.0
 11
42.25000000000001
 21
-1.300933713137988
 31
0.0
  0
ARC
  5
448
330
18
100
AcDbEntity
  8
1
 62
     1
100
AcDbCircle
 10
70.58860917966592
 20
29.65449631058617
 30
0.0
 40
40.51221569366589
100
AcDbArc
 50
227.6711924282308
 51
228.6238802324521
  0
LINE
  5
449
330
18
100
AcDbEntity
  8
1
 62
     1
100
AcDbLine
 10
43.30833333333334
 20
-1.300933713137983
 30
0.0
 11
43.30833333333335
 21
-0.2958699724398385
 31
0.0
  0
LINE
  5
44A
330
18
100
AcDbEntity
  8
1
 62
     1
100
AcDbLine
 10
43.30833333333334
 20
-1.300933713137988
 30
0.0
 11
43.43340793043292
 21
-1.46331026768645
 31
0.0
  0
LINE
  5
44B
330
18
100
AcDbEntity
  8
1
 62
     1
100
AcDbLine
 10
43.43340793043292
 20
-1.46331026768645
 30
0.0
 11
43.56019069720235
 21
-1.645585721960736
 31
0.0
  0
LINE
  5
44C
330
18
100
AcDbEntity
  8
1
 62
     1
100
AcDbLine
 10
43.56019069720235
 20
-1.645585721960736
 30
0.0
 11
43.68630217224033
 21
-1.844619240335787
 31
0.0
  0
LINE
  5
44D
330
18
100
AcDbEntity
  8
1
 62
     1
100
AcDbLine
 10
43.68630217224033
 20
-1.844619240335787
 30
0.0
 11
43.8100053728906
 21
-2.056859958464935
 31
0.0
  0
LINE
  5
44E
330
18
100
AcDbEntity
  8
1
 62
     1
100
AcDbLine
 10
43.8100053728906
 20
-0.7454001240810698
 30
0.0
 11
43.81000537289061
 21
-2.056859958464929
 31
0.0
  0
ARC
  5
44F
330
18
100
AcDbEntity
  8
1
 62
     1
100
AcDbCircle
 10
13.12141453870121
 20
34.08572109131625
 30
0.0
 40
46.4582820880402
100
AcDbArc
 50
311.4403875485909
 51
312.2638884350553
  0
LINE
  5
450
330
18
100
AcDbEntity
  8
1
 62
     1
100
AcDbLine
 10
43.86940011998951
 20
-0.7415023480121504
 30
0.0
 11
43.86940011998952
 21
-2.049015311917043
 31
0.0
  0
ARC
  5
451
330
18
100
AcDbEntity
  8
1
 62
     1
100
AcDbCircle
 10
48.70034753157901
 20
-4.713807577668808
 30
0.0
 40
5.517013817137942
100
AcDbArc
 50
141.7787504225908
 51
151.1184923291872
  0
ARC
  5
452
330
18
100
AcDbEntity
  8
1
 62
     1
100
AcDbCircle
 10
70.01565339274083
 20
30.19300765131464
 30
0.0
 40
41.23718045381495
100
AcDbArc
 50
227.6764570107604
 51
228.6419775791327
  0
LINE
  5
453
330
18
100
AcDbEntity
  8
1
 62
     1
100
AcDbLine
 10
42.25000000000001
 20
-1.300933713137983
 30
0.0
 11
42.25000000000001
 21
-0.2958699724398389
 31
0.0
  0
LINE
  5
454
330
18
100
AcDbEntity
  8
1
 62
     1
100
AcDbLine
 10
42.25000000000001
 20
-1.300933713137988
 30
0.0
 11
42.37921274163561
 21
-1.468977411562318
 31
0.0
  0
LINE
  5
455
330
18
100
AcDbEntity
  8
1
 62
     1
100
AcDbLine
 10
42.37921274163561
 20
-1.468977411562318
 30
0.0
 11
42.51015477011151
 21
-1.658138526379737
 31
0.0
  0
LINE
  5
456
330
18
100
AcDbEntity
  8
1
 62
     1
100
AcDbLine
 10
42.51015477011151
 20
-1.658138526379737
 30
0.0
 11
42.64024783193964
 21
-1.864937674499437
 31
0.0
  0
LINE
  5
457
330
18
100
AcDbEntity
  8
1
 62
     1
100
AcDbLine
 10
42.64024783193964
 20
-1.864937674499437
 30
0.0
 11
42.76761965589908
 21
-2.085432270459889
 31
0.0
  0
LINE
  5
458
330
18
100
AcDbEntity
  8
1
 62
     1
100
AcDbLine
 10
42.76761965589909
 20
-0.7595053333948102
 30
0.0
 11
42.76761965589908
 21
-2.085432270459887
 31
0.0
  0
ARC
  5
459
330
18
100
AcDbEntity
  8
1
 62
     1
100
AcDbCircle
 10
68.95732005938675
 20
30.19300765129205
 30
0.0
 40
41.23718045378428
100
AcDbArc
 50
227.6764570107606
 51
228.6419775791336
  0
LINE
  5
45A
330
18
100
AcDbEntity
  8
1
 62
     1
100
AcDbLine
 10
41.19166666666668
 20
-1.300933713137983
 30
0.0
 11
41.19166666666668
 21
-0.2958699724398385
 31
0.0
  0
LINE
  5
45B
330
18
100
AcDbEntity
  8
1
 62
     1
100
AcDbLine
 10
41.19166666666668
 20
-1.300933713137988
 30
0.0
 11
41.32087940830228
 21
-1.46897741156232
 31
0.0
  0
LINE
  5
45C
330
18
100
AcDbEntity
  8
1
 62
     1
100
AcDbLine
 10
41.32087940830228
 20
-1.46897741156232
 30
0.0
 11
41.45182143677818
 21
-1.65813852637974
 31
0.0
  0
LINE
  5
45D
330
18
100
AcDbEntity
  8
1
 62
     1
100
AcDbLine
 10
41.45182143677818
 20
-1.65813852637974
 30
0.0
 11
41.5819144986063
 21
-1.864937674499438
 31
0.0
  0
LINE
  5
45E
330
18
100
AcDbEntity
  8
1
 62
     1
100
AcDbLine
 10
41.5819144986063
 20
-1.864937674499438
 30
0.0
 11
41.70928632256576
 21
-2.085432270459885
 31
0.0
  0
LINE
  5
45F
330
18
100
AcDbEntity
  8
1
 62
     1
100
AcDbLine
 10
41.70928632256575
 20
-0.7595053333948102
 30
0.0
 11
41.70928632256575
 21
-2.085432270459887
 31
0.0
  0
ARC
  5
460
330
18
100
AcDbEntity
  8
1
 62
     1
100
AcDbCircle
 10
11.20289799916617
 20
35.04471994209821
 30
0.0
 40
47.7465207279443
100
AcDbArc
 50
311.4199334168786
 51
312.2538227425008
  0
LINE
  5
461
330
18
100
AcDbEntity
  8
1
 62
     1
100
AcDbLine
 10
42.79071367743428
 20
-0.7595053333948102
 30
0.0
 11
42.79071367743428
 21
-2.085432270459886
 31
0.0
  0
LINE
  5
462
330
18
100
AcDbEntity
  8
1
 62
     1
100
AcDbLine
 10
42.79071367743426
 20
-2.085432270459887
 30
0.0
 11
42.91808647803511
 21
-1.864936051104573
 31
0.0
  0
LINE
  5
463
330
18
100
AcDbEntity
  8
1
 62
     1
100
AcDbLine
 10
42.91808647803511
 20
-1.864936051104573
 30
0.0
 11
43.04817976002004
 21
-1.658136711023851
 31
0.0
  0
LINE
  5
464
330
18
100
AcDbEntity
  8
1
 62
     1
100
AcDbLine
 10
43.04817976002004
 20
-1.658136711023851
 30
0.0
 11
43.17912184811387
 21
-1.46897569170419
 31
0.0
  0
LINE
  5
465
330
18
100
AcDbEntity
  8
1
 62
     1
100
AcDbLine
 10
43.17912184811387
 20
-1.46897569170419
 30
0.0
 11
43.30833333333334
 21
-1.300933713137988
 31
0.0
  0
ARC
  5
466
330
18
100
AcDbEntity
  8
1
 62
     1
100
AcDbCircle
 10
9.0862313324158
 20
35.04471994219131
 30
0.0
 40
47.74652072806948
100
AcDbArc
 50
311.41993341688
 51
312.2538227425001
  0
LINE
  5
467
330
18
100
AcDbEntity
  8
1
 62
     1
100
AcDbLine
 10
40.67404701076762
 20
-0.7595053333948102
 30
0.0
 11
40.67404701076762
 21
-2.085432270459887
 31
0.0
  0
LINE
  5
468
330
18
100
AcDbEntity
  8
1
 62
     1
100
AcDbLine
 10
40.67404701076759
 20
-2.085432270459887
 30
0.0
 11
40.80141981136843
 21
-1.864936051104568
 31
0.0
  0
LINE
  5
469
330
18
100
AcDbEntity
  8
1
 62
     1
100
AcDbLine
 10
40.80141981136843
 20
-1.864936051104568
 30
0.0
 11
40.93151309335336
 21
-1.658136711023847
 31
0.0
  0
LINE
  5
46A
330
18
100
AcDbEntity
  8
1
 62
     1
100
AcDbLine
 10
40.93151309335336
 20
-1.658136711023847
 30
0.0
 11
41.06245518144719
 21
-1.468975691704185
 31
0.0
  0
LINE
  5
46B
330
18
100
AcDbEntity
  8
1
 62
     1
100
AcDbLine
 10
41.06245518144719
 20
-1.468975691704185
 30
0.0
 11
41.19166666666668
 21
-1.300933713137988
 31
0.0
  0
ARC
  5
46C
330
18
100
AcDbEntity
  8
1
 62
     1
100
AcDbCircle
 10
67.8989867262672
 20
30.19300765152877
 30
0.0
 40
41.23718045410324
100
AcDbArc
 50
227.6764570107625
 51
228.641977579128
  0
LINE
  5
46D
330
18
100
AcDbEntity
  8
1
 62
     1
100
AcDbLine
 10
40.13333333333335
 20
-1.300933713137988
 30
0.0
 11
40.26254607496896
 21
-1.46897741156232
 31
0.0
  0
LINE
  5
46E
330
18
100
AcDbEntity
  8
1
 62
     1
100
AcDbLine
 10
40.26254607496896
 20
-1.46897741156232
 30
0.0
 11
40.39348810344485
 21
-1.658138526379743
 31
0.0
  0
LINE
  5
46F
330
18
100
AcDbEntity
  8
1
 62
     1
100
AcDbLine
 10
40.39348810344485
 20
-1.658138526379743
 30
0.0
 11
40.52358116527296
 21
-1.864937674499448
 31
0.0
  0
LINE
  5
470
330
18
100
AcDbEntity
  8
1
 62
     1
100
AcDbLine
 10
40.52358116527296
 20
-1.864937674499448
 30
0.0
 11
40.65095298923242
 21
-2.085432270459902
 31
0.0
  0
LINE
  5
471
330
18
100
AcDbEntity
  8
1
 62
     1
100
AcDbLine
 10
40.65095298923243
 20
-0.7595053333948102
 30
0.0
 11
40.65095298923243
 21
-2.085432270459887
 31
0.0
  0
ARC
  5
472
330
18
100
AcDbEntity
  8
1
 62
     1
100
AcDbCircle
 10
8.027897998881254
 20
35.04471994241791
 30
0.0
 40
47.74652072837252
100
AcDbArc
 50
311.4199334168812
 51
312.253822742496
  0
LINE
  5
473
330
18
100
AcDbEntity
  8
1
 62
     1
100
AcDbLine
 10
39.61571367743426
 20
-0.7595053333948102
 30
0.0
 11
39.61571367743426
 21
-2.085432270459887
 31
0.0
  0
LINE
  5
474
330
18
100
AcDbEntity
  8
1
 62
     1
100
AcDbLine
 10
39.61571367743427
 20
-2.085432270459889
 30
0.0
 11
39.74308647803511
 21
-1.864936051104569
 31
0.0
  0
LINE
  5
475
330
18
100
AcDbEntity
  8
1
 62
     1
100
AcDbLine
 10
39.74308647803511
 20
-1.864936051104569
 30
0.0
 11
39.87317976002004
 21
-1.658136711023845
 31
0.0
  0
LINE
  5
476
330
18
100
AcDbEntity
  8
1
 62
     1
100
AcDbLine
 10
39.87317976002004
 20
-1.658136711023845
 30
0.0
 11
40.00412184811386
 21
-1.468975691704187
 31
0.0
  0
LINE
  5
477
330
18
100
AcDbEntity
  8
1
 62
     1
100
AcDbLine
 10
40.00412184811386
 20
-1.468975691704187
 30
0.0
 11
40.13333333333335
 21
-1.300933713137988
 31
0.0
  0
LINE
  5
478
330
18
100
AcDbEntity
  8
1
 62
     1
100
AcDbLine
 10
40.13333333333335
 20
-1.300933713137983
 30
0.0
 11
40.13333333333335
 21
-0.2958699724398385
 31
0.0
  0
ARC
  5
479
330
18
100
AcDbEntity
  8
1
 62
     1
100
AcDbCircle
 10
66.84065339279753
 20
30.19300765137829
 30
0.0
 40
41.23718045390019
100
AcDbArc
 50
227.6764570107617
 51
228.6419775791319
  0
LINE
  5
47A
330
18
100
AcDbEntity
  8
1
 62
     1
100
AcDbLine
 10
39.07500000000001
 20
-1.300933713137983
 30
0.0
 11
39.07500000000001
 21
-0.2958699724398385
 31
0.0
  0
LINE
  5
47B
330
18
100
AcDbEntity
  8
1
 62
     1
100
AcDbLine
 10
39.07500000000002
 20
-1.300933713137988
 30
0.0
 11
39.20421274163561
 21
-1.468977411562324
 31
0.0
  0
LINE
  5
47C
330
18
100
AcDbEntity
  8
1
 62
     1
100
AcDbLine
 10
39.20421274163561
 20
-1.468977411562324
 30
0.0
 11
39.33515477011152
 21
-1.658138526379739
 31
0.0
  0
LINE
  5
47D
330
18
100
AcDbEntity
  8
1
 62
     1
100
AcDbLine
 10
39.33515477011152
 20
-1.658138526379739
 30
0.0
 11
39.46524783193965
 21
-1.864937674499439
 31
0.0
  0
LINE
  5
47E
330
18
100
AcDbEntity
  8
1
 62
     1
100
AcDbLine
 10
39.46524783193965
 20
-1.864937674499439
 30
0.0
 11
39.59261965589909
 21
-2.08543227045989
 31
0.0
  0
LINE
  5
47F
330
18
100
AcDbEntity
  8
1
 62
     1
100
AcDbLine
 10
39.59261965589909
 20
-0.7595053333948102
 30
0.0
 11
39.59261965589909
 21
-2.085432270459887
 31
0.0
  0
ARC
  5
480
330
18
100
AcDbEntity
  8
1
 62
     1
100
AcDbCircle
 10
6.969564665482473
 20
35.04471994248975
 30
0.0
 40
47.7465207284697
100
AcDbArc
 50
311.4199334168831
 51
312.2538227424961
  0
LINE
  5
481
330
18
100
AcDbEntity
  8
1
 62
     1
100
AcDbLine
 10
38.55738034410091
 20
-0.7595053333948102
 30
0.0
 11
38.55738034410091
 21
-2.085432270459887
 31
0.0
  0
LINE
  5
482
330
18
100
AcDbEntity
  8
1
 62
     1
100
AcDbLine
 10
38.55738034410091
 20
-2.085432270459927
 30
0.0
 11
38.68475314470176
 21
-1.8649360511046
 31
0.0
  0
LINE
  5
483
330
18
100
AcDbEntity
  8
1
 62
     1
100
AcDbLine
 10
38.68475314470176
 20
-1.8649360511046
 30
0.0
 11
38.81484642668669
 21
-1.658136711023866
 31
0.0
  0
LINE
  5
484
330
18
100
AcDbEntity
  8
1
 62
     1
100
AcDbLine
 10
38.81484642668669
 20
-1.658136711023866
 30
0.0
 11
38.94578851478052
 21
-1.468975691704196
 31
0.0
  0
LINE
  5
485
330
18
100
AcDbEntity
  8
1
 62
     1
100
AcDbLine
 10
38.94578851478052
 20
-1.468975691704196
 30
0.0
 11
39.07500000000002
 21
-1.300933713137988
 31
0.0
  0
ARC
  5
486
330
18
100
AcDbEntity
  8
1
 62
     1
100
AcDbCircle
 10
65.78232005955898
 20
30.19300765148439
 30
0.0
 40
41.23718045404246
100
AcDbArc
 50
227.6764570107636
 51
228.6419775791306
  0
LINE
  5
487
330
18
100
AcDbEntity
  8
1
 62
     1
100
AcDbLine
 10
38.01666666666668
 20
-1.300933713137988
 30
0.0
 11
38.14587940830229
 21
-1.46897741156232
 31
0.0
  0
LINE
  5
488
330
18
100
AcDbEntity
  8
1
 62
     1
100
AcDbLine
 10
38.14587940830229
 20
-1.46897741156232
 30
0.0
 11
38.27682143677819
 21
-1.658138526379735
 31
0.0
  0
LINE
  5
489
330
18
100
AcDbEntity
  8
1
 62
     1
100
AcDbLine
 10
38.27682143677819
 20
-1.658138526379735
 30
0.0
 11
38.40691449860631
 21
-1.864937674499438
 31
0.0
  0
LINE
  5
48A
330
18
100
AcDbEntity
  8
1
 62
     1
100
AcDbLine
 10
38.40691449860631
 20
-1.864937674499438
 30
0.0
 11
38.53428632256576
 21
-2.08543227045989
 31
0.0
  0
LINE
  5
48B
330
18
100
AcDbEntity
  8
1
 62
     1
100
AcDbLine
 10
38.53428632256576
 20
-0.7595053333948102
 30
0.0
 11
38.53428632256576
 21
-2.085432270459887
 31
0.0
  0
ARC
  5
48C
330
18
100
AcDbEntity
  8
1
 62
     1
100
AcDbCircle
 10
5.91123133231175
 20
35.04471994230868
 30
0.0
 40
47.74652072822634
100
AcDbArc
 50
311.4199334168804
 51
312.2538227424977
  0
LINE
  5
48D
330
18
100
AcDbEntity
  8
1
 62
     1
100
AcDbLine
 10
37.49904701076761
 20
-0.7595053333948102
 30
0.0
 11
37.49904701076761
 21
-2.085432270459887
 31
0.0
  0
LINE
  5
48E
330
18
100
AcDbEntity
  8
1
 62
     1
100
AcDbLine
 10
37.4990470107676
 20
-2.085432270459887
 30
0.0
 11
37.62641981136844
 21
-1.86493605110457
 31
0.0
  0
LINE
  5
48F
330
18
100
AcDbEntity
  8
1
 62
     1
100
AcDbLine
 10
37.62641981136844
 20
-1.86493605110457
 30
0.0
 11
37.75651309335337
 21
-1.658136711023851
 31
0.0
  0
LINE
  5
490
330
18
100
AcDbEntity
  8
1
 62
     1
100
AcDbLine
 10
37.75651309335337
 20
-1.658136711023851
 30
0.0
 11
37.88745518144719
 21
-1.468975691704189
 31
0.0
  0
LINE
  5
491
330
18
100
AcDbEntity
  8
1
 62
     1
100
AcDbLine
 10
37.88745518144719
 20
-1.468975691704189
 30
0.0
 11
38.01666666666668
 21
-1.300933713137988
 31
0.0
  0
LINE
  5
492
330
18
100
AcDbEntity
  8
1
 62
     1
100
AcDbLine
 10
38.01666666666668
 20
-1.300933713137983
 30
0.0
 11
38.01666666666668
 21
-0.2958699724398385
 31
0.0
  0
LINE
  5
493
330
18
100
AcDbEntity
  8
1
 62
     1
100
AcDbLine
 10
34.39303528222439
 20
2.00792753682935
 30
0.0
 11
34.15142937917004
 21
1.900381740867195
 31
0.0
  0
LINE
  5
494
330
18
100
AcDbEntity
  8
1
 62
     1
100
AcDbLine
 10
34.15142937917004
 20
2.154017631191458
 30
0.0
 11
34.39303528222438
 21
2.293508864423289
 31
0.0
  0
ARC
  5
495
330
18
100
AcDbEntity
  8
1
 62
     1
100
AcDbCircle
 10
62.6073200595226
 20
30.193007651444
 30
0.0
 40
41.2371804539881
100
AcDbArc
 50
227.6764570107632
 51
228.6419775791314
  0
LINE
  5
496
330
18
100
AcDbEntity
  8
1
 62
     1
100
AcDbLine
 10
34.84166666666668
 20
-1.300933713137988
 30
0.0
 11
34.97087940830228
 21
-1.468977411562319
 31
0.0
  0
LINE
  5
497
330
18
100
AcDbEntity
  8
1
 62
     1
100
AcDbLine
 10
34.97087940830228
 20
-1.468977411562319
 30
0.0
 11
35.10182143677819
 21
-1.658138526379733
 31
0.0
  0
LINE
  5
498
330
18
100
AcDbEntity
  8
1
 62
     1
100
AcDbLine
 10
35.10182143677819
 20
-1.658138526379733
 30
0.0
 11
35.23191449860631
 21
-1.864937674499434
 31
0.0
  0
LINE
  5
499
330
18
100
AcDbEntity
  8
1
 62
     1
100
AcDbLine
 10
35.23191449860631
 20
-1.864937674499434
 30
0.0
 11
35.35928632256575
 21
-2.085432270459888
 31
0.0
  0
LINE
  5
49A
330
18
100
AcDbEntity
  8
1
 62
     1
100
AcDbLine
 10
35.35928632256575
 20
-0.7595053333948102
 30
0.0
 11
35.35928632256576
 21
-2.085432270459886
 31
0.0
  0
ARC
  5
49B
330
18
100
AcDbEntity
  8
1
 62
     1
100
AcDbCircle
 10
5.598699576666473
 20
31.85549009921877
 30
0.0
 40
43.46113432321756
100
AcDbArc
 50
311.4931439212187
 51
312.2877924576952
  0
LINE
  5
49C
330
18
100
AcDbEntity
  8
1
 62
     1
100
AcDbLine
 10
34.39303528222438
 20
-0.6984344650741869
 30
0.0
 11
34.39303528222438
 21
-1.963811380550559
 31
0.0
  0
ARC
  5
49D
330
18
100
AcDbEntity
  8
1
 62
     1
100
AcDbCircle
 10
38.98692618029458
 20
-4.583961973207797
 30
0.0
 40
5.288457928010313
100
AcDbArc
 50
141.6209228143282
 51
150.3014917160141
  0
LINE
  5
49E
330
18
100
AcDbEntity
  8
1
 62
     1
100
AcDbLine
 10
34.84166666666668
 20
-1.300933713137983
 30
0.0
 11
34.84166666666668
 21
-0.2958699724398386
 31
0.0
  0
ARC
  5
49F
330
18
100
AcDbEntity
  8
1
 62
     1
100
AcDbCircle
 10
3.794564665304886
 20
35.04471994268926
 30
0.0
 40
47.7465207287368
100
AcDbArc
 50
311.4199334168844
 51
312.2538227424928
  0
LINE
  5
4A0
330
18
100
AcDbEntity
  8
1
 62
     1
100
AcDbLine
 10
35.38238034410095
 20
-0.7595053333948102
 30
0.0
 11
35.38238034410095
 21
-2.085432270459888
 31
0.0
  0
LINE
  5
4A1
330
18
100
AcDbEntity
  8
1
 62
     1
100
AcDbLine
 10
35.38238034410093
 20
-2.085432270459886
 30
0.0
 11
35.50975314470177
 21
-1.864936051104567
 31
0.0
  0
LINE
  5
4A2
330
18
100
AcDbEntity
  8
1
 62
     1
100
AcDbLine
 10
35.50975314470177
 20
-1.864936051104567
 30
0.0
 11
35.63984642668671
 21
-1.658136711023851
 31
0.0
  0
LINE
  5
4A3
330
18
100
AcDbEntity
  8
1
 62
     1
100
AcDbLine
 10
35.63984642668671
 20
-1.658136711023851
 30
0.0
 11
35.77078851478053
 21
-1.468975691704191
 31
0.0
  0
LINE
  5
4A4
330
18
100
AcDbEntity
  8
1
 62
     1
100
AcDbLine
 10
35.77078851478053
 20
-1.468975691704191
 30
0.0
 11
35.90000000000001
 21
-1.300933713137988
 31
0.0
  0
ARC
  5
4A5
330
18
100
AcDbEntity
  8
1
 62
     1
100
AcDbCircle
 10
63.66565339268416
 20
30.19300765125182
 30
0.0
 40
41.23718045373035
100
AcDbArc
 50
227.6764570107599
 51
228.6419775791341
  0
LINE
  5
4A6
330
18
100
AcDbEntity
  8
1
 62
     1
100
AcDbLine
 10
35.90000000000001
 20
-1.300933713137983
 30
0.0
 11
35.90000000000001
 21
-0.2958699724398385
 31
0.0
  0
LINE
  5
4A7
330
18
100
AcDbEntity
  8
1
 62
     1
100
AcDbLine
 10
35.90000000000001
 20
-1.300933713137988
 30
0.0
 11
36.0292127416356
 21
-1.468977411562322
 31
0.0
  0
LINE
  5
4A8
330
18
100
AcDbEntity
  8
1
 62
     1
100
AcDbLine
 10
36.0292127416356
 20
-1.468977411562322
 30
0.0
 11
36.16015477011153
 21
-1.658138526379734
 31
0.0
  0
LINE
  5
4A9
330
18
100
AcDbEntity
  8
1
 62
     1
100
AcDbLine
 10
36.16015477011153
 20
-1.658138526379734
 30
0.0
 11
36.29024783193963
 21
-1.864937674499438
 31
0.0
  0
LINE
  5
4AA
330
18
100
AcDbEntity
  8
1
 62
     1
100
AcDbLine
 10
36.29024783193963
 20
-1.864937674499438
 30
0.0
 11
36.41761965589908
 21
-2.085432270459888
 31
0.0
  0
LINE
  5
4AB
330
18
100
AcDbEntity
  8
1
 62
     1
100
AcDbLine
 10
36.41761965589909
 20
-0.7595053333948102
 30
0.0
 11
36.41761965589909
 21
-2.085432270459887
 31
0.0
  0
ARC
  5
4AC
330
18
100
AcDbEntity
  8
1
 62
     1
100
AcDbCircle
 10
64.72398672614109
 20
30.19300765139055
 30
0.0
 40
41.23718045391615
100
AcDbArc
 50
227.6764570107627
 51
228.6419775791326
  0
LINE
  5
4AD
330
18
100
AcDbEntity
  8
1
 62
     1
100
AcDbLine
 10
36.95833333333334
 20
-1.300933713137983
 30
0.0
 11
36.95833333333334
 21
-0.2958699724398385
 31
0.0
  0
LINE
  5
4AE
330
18
100
AcDbEntity
  8
1
 62
     1
100
AcDbLine
 10
36.95833333333335
 20
-1.300933713137988
 30
0.0
 11
37.08754607496896
 21
-1.468977411562322
 31
0.0
  0
LINE
  5
4AF
330
18
100
AcDbEntity
  8
1
 62
     1
100
AcDbLine
 10
37.08754607496896
 20
-1.468977411562322
 30
0.0
 11
37.21848810344486
 21
-1.658138526379736
 31
0.0
  0
LINE
  5
4B0
330
18
100
AcDbEntity
  8
1
 62
     1
100
AcDbLine
 10
37.21848810344486
 20
-1.658138526379736
 30
0.0
 11
37.34858116527297
 21
-1.864937674499438
 31
0.0
  0
LINE
  5
4B1
330
18
100
AcDbEntity
  8
1
 62
     1
100
AcDbLine
 10
37.34858116527297
 20
-1.864937674499438
 30
0.0
 11
37.47595298923243
 21
-2.08543227045989
 31
0.0
  0
LINE
  5
4B2
330
18
100
AcDbEntity
  8
1
 62
     1
100
AcDbLine
 10
37.47595298923243
 20
-0.7595053333948102
 30
0.0
 11
37.47595298923243
 21
-2.085432270459887
 31
0.0
  0
ARC
  5
4B3
330
18
100
AcDbEntity
  8
1
 62
     1
100
AcDbCircle
 10
4.852897998958632
 20
35.04471994233082
 30
0.0
 40
47.74652072825602
100
AcDbArc
 50
311.4199334168807
 51
312.2538227424974
  0
LINE
  5
4B4
330
18
100
AcDbEntity
  8
1
 62
     1
100
AcDbLine
 10
36.44071367743426
 20
-0.7595053333948102
 30
0.0
 11
36.44071367743425
 21
-2.085432270459887
 31
0.0
  0
LINE
  5
4B5
330
18
100
AcDbEntity
  8
1
 62
     1
100
AcDbLine
 10
36.44071367743426
 20
-2.08543227045989
 30
0.0
 11
36.5680864780351
 21
-1.864936051104572
 31
0.0
  0
LINE
  5
4B6
330
18
100
AcDbEntity
  8
1
 62
     1
100
AcDbLine
 10
36.5680864780351
 20
-1.864936051104572
 30
0.0
 11
36.69817976002003
 21
-1.658136711023847
 31
0.0
  0
LINE
  5
4B7
330
18
100
AcDbEntity
  8
1
 62
     1
100
AcDbLine
 10
36.69817976002003
 20
-1.658136711023847
 30
0.0
 11
36.82912184811386
 21
-1.468975691704191
 31
0.0
  0
LINE
  5
4B8
330
18
100
AcDbEntity
  8
1
 62
     1
100
AcDbLine
 10
36.82912184811386
 20
-1.468975691704191
 30
0.0
 11
36.95833333333335
 21
-1.300933713137988
 31
0.0
  0
LINE
  5
4B9
330
18
100
AcDbEntity
  8
1
 62
     1
100
AcDbLine
 10
33.78333333333335
 20
-0.2958699724398383
 30
0.0
 11
34.15142937917004
 21
-0.6269486545019471
 31
0.0
  0
LINE
  5
4BA
330
18
100
AcDbEntity
  8
1
 62
     1
100
AcDbLine
 10
33.78333333333335
 20
-1.300933713137983
 30
0.0
 11
33.78333333333334
 21
-0.2958699724398385
 31
0.0
  0
ARC
  5
4BB
330
18
100
AcDbEntity
  8
1
 62
     1
100
AcDbCircle
 10
30.14768819846326
 20
-4.22601930030624
 30
0.0
 40
4.666338884212491
100
AcDbArc
 50
30.91503329334144
 51
38.81867778178466
  0
LINE
  5
4BC
330
18
100
AcDbEntity
  8
1
 62
     1
100
AcDbLine
 10
34.15142937917004
 20
-0.6269486545019145
 30
0.0
 11
34.15142937917004
 21
-1.828402630686555
 31
0.0
  0
LINE
  5
4BD
330
18
100
AcDbEntity
  8
1
 62
     1
100
AcDbLine
 10
35.38238034410094
 20
-0.7595053333948103
 30
0.0
 11
35.35928632256575
 21
-0.7595053333948103
 31
0.0
  0
LINE
  5
4BE
330
18
100
AcDbEntity
  8
1
 62
     1
100
AcDbLine
 10
38.55738034410093
 20
-0.7595053333948103
 30
0.0
 11
38.53428632256576
 21
-0.75950533339481
 31
0.0
  0
LINE
  5
4BF
330
18
100
AcDbEntity
  8
1
 62
     1
100
AcDbLine
 10
45.01252238219647
 20
1.960544504675307
 30
0.0
 11
44.79525935783424
 21
1.981850365524935
 31
0.0
  0
LINE
  5
4C0
330
18
100
AcDbEntity
  8
1
 62
     1
100
AcDbLine
 10
43.86940011998953
 20
2.069215367338321
 30
0.0
 11
43.81000537289061
 21
2.074621280637774
 31
0.0
  0
LINE
  5
4C1
330
18
100
AcDbEntity
  8
1
 62
     1
100
AcDbLine
 10
42.79071367743428
 20
2.093980104931839
 30
0.0
 11
42.7676196558991
 21
2.093980104931839
 31
0.0
  0
LINE
  5
4C2
330
18
100
AcDbEntity
  8
1
 62
     1
100
AcDbLine
 10
41.73238034410093
 20
2.093980104931839
 30
0.0
 11
41.70928632256573
 21
2.093980104931839
 31
0.0
  0
LINE
  5
4C3
330
18
100
AcDbEntity
  8
1
 62
     1
100
AcDbLine
 10
40.67404701076761
 20
2.093980104931839
 30
0.0
 11
40.65095298923243
 21
2.093980104931839
 31
0.0
  0
LINE
  5
4C4
330
18
100
AcDbEntity
  8
1
 62
     1
100
AcDbLine
 10
39.61571367743426
 20
2.093980104931839
 30
0.0
 11
39.59261965589911
 21
2.093980104931839
 31
0.0
  0
LINE
  5
4C5
330
18
100
AcDbEntity
  8
1
 62
     1
100
AcDbLine
 10
38.55738034410091
 20
2.093980104931839
 30
0.0
 11
38.53428632256576
 21
2.093980104931839
 31
0.0
  0
LINE
  5
4C6
330
18
100
AcDbEntity
  8
1
 62
     1
100
AcDbLine
 10
37.49904701076761
 20
2.093980104931839
 30
0.0
 11
37.47595298923243
 21
2.093980104931839
 31
0.0
  0
LINE
  5
4C7
330
18
100
AcDbEntity
  8
1
 62
     1
100
AcDbLine
 10
36.44071367743426
 20
2.093980104931839
 30
0.0
 11
36.41761965589909
 21
2.093980104931839
 31
0.0
  0
LINE
  5
4C8
330
18
100
AcDbEntity
  8
1
 62
     1
100
AcDbLine
 10
48.6
 20
1.77
 30
0.0
 11
50.37
 21
0.0000000000000002
 31
0.0
  0
LINE
  5
4C9
330
18
100
AcDbEntity
  8
1
 62
     1
100
AcDbLine
 10
48.92039724392863
 20
-0.2604754205737689
 30
0.0
 11
48.97532517161297
 21
-0.2299822654586803
 31
0.0
  0
LINE
  5
4CA
330
18
100
AcDbEntity
  8
1
 62
     1
100
AcDbLine
 10
48.97532517161297
 20
-0.2299822654586803
 30
0.0
 11
49.02953596212426
 21
-0.1970958190105506
 31
0.0
  0
LINE
  5
4CB
330
18
100
AcDbEntity
  8
1
 62
     1
100
AcDbLine
 10
49.02953596212426
 20
-0.1970958190105506
 30
0.0
 11
49.08285121638809
 21
-0.1617107184818521
 31
0.0
  0
LINE
  5
4CC
330
18
100
AcDbEntity
  8
1
 62
     1
100
AcDbLine
 10
49.08285121638809
 20
-0.1617107184818521
 30
0.0
 11
49.13502526727048
 21
-0.1237009535878854
 31
0.0
  0
LINE
  5
4CD
330
18
100
AcDbEntity
  8
1
 62
     1
100
AcDbLine
 10
49.13502526727048
 20
-0.1237009535878854
 30
0.0
 11
49.18575936004289
 21
-0.0828912412215958
 31
0.0
  0
LINE
  5
4CE
330
18
100
AcDbEntity
  8
1
 62
     1
100
AcDbLine
 10
49.18575936004289
 20
-0.0828912412215958
 30
0.0
 11
49.2346530261667
 21
-0.0390626329015304
 31
0.0
  0
LINE
  5
4CF
330
18
100
AcDbEntity
  8
1
 62
     1
100
AcDbLine
 10
49.2346530261667
 20
-0.0390626329015304
 30
0.0
 11
49.28116793657875
 21
0.0080543288522951
 31
0.0
  0
LINE
  5
4D0
330
18
100
AcDbEntity
  8
1
 62
     1
100
AcDbLine
 10
49.28116793657875
 20
0.0080543288522951
 30
0.0
 11
49.30332213984148
 21
0.0329508217001982
 31
0.0
  0
LINE
  5
4D1
330
18
100
AcDbEntity
  8
1
 62
     1
100
AcDbLine
 10
49.30332213984148
 20
0.0329508217001982
 30
0.0
 11
49.3245890998216
 21
0.0587932286541519
 31
0.0
  0
LINE
  5
4D2
330
18
100
AcDbEntity
  8
1
 62
     1
100
AcDbLine
 10
49.3245890998216
 20
0.0587932286541519
 30
0.0
 11
49.3448472229442
 21
0.0856361639899348
 31
0.0
  0
LINE
  5
4D3
330
18
100
AcDbEntity
  8
1
 62
     1
100
AcDbLine
 10
49.3448472229442
 20
0.0856361639899348
 30
0.0
 11
49.36393614530625
 21
0.113518509213738
 31
0.0
  0
LINE
  5
4D4
330
18
100
AcDbEntity
  8
1
 62
     1
100
AcDbLine
 10
49.36393614530625
 20
0.113518509213738
 30
0.0
 11
49.38168903246268
 21
0.14248977217831
 31
0.0
  0
LINE
  5
4D5
330
18
100
AcDbEntity
  8
1
 62
     1
100
AcDbLine
 10
49.38168903246268
 20
0.14248977217831
 30
0.0
 11
49.3979049276531
 21
0.172580430615853
 31
0.0
  0
LINE
  5
4D6
330
18
100
AcDbEntity
  8
1
 62
     1
100
AcDbLine
 10
49.3979049276531
 20
0.172580430615853
 30
0.0
 11
49.41236120570384
 21
0.2038000997341878
 31
0.0
  0
LINE
  5
4D7
330
18
100
AcDbEntity
  8
1
 62
     1
100
AcDbLine
 10
49.41236120570384
 20
0.2038000997341878
 30
0.0
 11
49.42482756952806
 21
0.2361508123622668
 31
0.0
  0
LINE
  5
4D8
330
18
100
AcDbEntity
  8
1
 62
     1
100
AcDbLine
 10
49.42482756952806
 20
0.2361508123622668
 30
0.0
 11
49.43024057743636
 21
0.252745381456572
 31
0.0
  0
LINE
  5
4D9
330
18
100
AcDbEntity
  8
1
 62
     1
100
AcDbLine
 10
49.43024057743636
 20
0.252745381456572
 30
0.0
 11
49.43506600522144
 21
0.2696032853110045
 31
0.0
  0
LINE
  5
4DA
330
18
100
AcDbEntity
  8
1
 62
     1
100
AcDbLine
 10
49.43506600522144
 20
0.2696032853110045
 30
0.0
 11
49.43927439991494
 21
0.2867155259785199
 31
0.0
  0
LINE
  5
4DB
330
18
100
AcDbEntity
  8
1
 62
     1
100
AcDbLine
 10
49.43927439991494
 20
0.2867155259785199
 30
0.0
 11
49.44284247378537
 21
0.3040757341746722
 31
0.0
  0
LINE
  5
4DC
330
18
100
AcDbEntity
  8
1
 62
     1
100
AcDbLine
 10
49.44284247378537
 20
0.3040757341746722
 30
0.0
 11
49.44574496732061
 21
0.3216562744835428
 31
0.0
  0
LINE
  5
4DD
330
18
100
AcDbEntity
  8
1
 62
     1
100
AcDbLine
 10
49.44574496732061
 20
0.3216562744835428
 30
0.0
 11
49.4479597242334
 21
0.339442109036793
 31
0.0
  0
LINE
  5
4DE
330
18
100
AcDbEntity
  8
1
 62
     1
100
AcDbLine
 10
49.4479597242334
 20
0.339442109036793
 30
0.0
 11
49.44947395066597
 21
0.357418049636255
 31
0.0
  0
LINE
  5
4DF
330
18
100
AcDbEntity
  8
1
 62
     1
100
AcDbLine
 10
49.44947395066597
 20
0.357418049636255
 30
0.0
 11
49.45027558188874
 21
0.3755472306156111
 31
0.0
  0
LINE
  5
4E0
330
18
100
AcDbEntity
  8
1
 62
     1
100
AcDbLine
 10
49.45027558188874
 20
0.3755472306156111
 30
0.0
 11
49.45035577927708
 21
0.3938109003239625
 31
0.0
  0
LINE
  5
4E1
330
18
100
AcDbEntity
  8
1
 62
     1
100
AcDbLine
 10
49.45035577927708
 20
0.3938109003239625
 30
0.0
 11
49.44971706830241
 21
0.4121874970037668
 31
0.0
  0
LINE
  5
4E2
330
18
100
AcDbEntity
  8
1
 62
     1
100
AcDbLine
 10
49.44971706830241
 20
0.4121874970037668
 30
0.0
 11
49.44836442234798
 21
0.4306367318001427
 31
0.0
  0
LINE
  5
4E3
330
18
100
AcDbEntity
  8
1
 62
     1
100
AcDbLine
 10
49.44836442234798
 20
0.4306367318001427
 30
0.0
 11
49.44630478845732
 21
0.4491405645717863
 31
0.0
  0
LINE
  5
4E4
330
18
100
AcDbEntity
  8
1
 62
     1
100
AcDbLine
 10
49.44630478845732
 20
0.4491405645717863
 30
0.0
 11
49.44355573277537
 21
0.4676763804073851
 31
0.0
  0
LINE
  5
4E5
330
18
100
AcDbEntity
  8
1
 62
     1
100
AcDbLine
 10
49.44355573277537
 20
0.4676763804073851
 30
0.0
 11
49.43607020501359
 21
0.5047212580838921
 31
0.0
  0
LINE
  5
4E6
330
18
100
AcDbEntity
  8
1
 62
     1
100
AcDbLine
 10
49.43607020501359
 20
0.5047212580838921
 30
0.0
 11
49.42609974352461
 21
0.5416111702321925
 31
0.0
  0
LINE
  5
4E7
330
18
100
AcDbEntity
  8
1
 62
     1
100
AcDbLine
 10
49.42609974352461
 20
0.5416111702321925
 30
0.0
 11
49.41387100841489
 21
0.5782114579076922
 31
0.0
  0
LINE
  5
4E8
330
18
100
AcDbEntity
  8
1
 62
     1
100
AcDbLine
 10
49.41387100841489
 20
0.5782114579076922
 30
0.0
 11
49.39962785554115
 21
0.6144217694915012
 31
0.0
  0
LINE
  5
4E9
330
18
100
AcDbEntity
  8
1
 62
     1
100
AcDbLine
 10
49.39962785554115
 20
0.6144217694915012
 30
0.0
 11
49.38360368582939
 21
0.6501895956485578
 31
0.0
  0
LINE
  5
4EA
330
18
100
AcDbEntity
  8
1
 62
     1
100
AcDbLine
 10
49.38360368582939
 20
0.6501895956485578
 30
0.0
 11
49.3660186682025
 21
0.6854836974859442
 31
0.0
  0
LINE
  5
4EB
330
18
100
AcDbEntity
  8
1
 62
     1
100
AcDbLine
 10
49.3660186682025
 20
0.6854836974859442
 30
0.0
 11
49.32693958827586
 21
0.7546250606706146
 31
0.0
  0
LINE
  5
4EC
330
18
100
AcDbEntity
  8
1
 62
     1
100
AcDbLine
 10
49.32693958827586
 20
0.7546250606706146
 30
0.0
 11
49.28372086964957
 21
0.8218928512302206
 31
0.0
  0
LINE
  5
4ED
330
18
100
AcDbEntity
  8
1
 62
     1
100
AcDbLine
 10
49.28372086964957
 20
0.8218928512302206
 30
0.0
 11
49.23736030084918
 21
0.8874400775130413
 31
0.0
  0
LINE
  5
4EE
330
18
100
AcDbEntity
  8
1
 62
     1
100
AcDbLine
 10
49.23736030084918
 20
0.8874400775130413
 30
0.0
 11
49.13794327547779
 21
1.014096114328148
 31
0.0
  0
LINE
  5
4EF
330
18
100
AcDbEntity
  8
1
 62
     1
100
AcDbLine
 10
49.13794327547779
 20
1.014096114328148
 30
0.0
 11
49.03259024417248
 21
1.135771577514996
 31
0.0
  0
LINE
  5
4F0
330
18
100
AcDbEntity
  8
1
 62
     1
100
AcDbLine
 10
49.03259024417248
 20
1.135771577514996
 30
0.0
 11
48.92353477177213
 21
1.253240681749227
 31
0.0
  0
LINE
  5
4F1
330
18
100
AcDbEntity
  8
1
 62
     1
100
AcDbLine
 10
48.92353477177213
 20
1.253240681749227
 30
0.0
 11
48.60000000000001
 21
1.57010139276033
 31
0.0
  0
LINE
  5
4F2
330
18
100
AcDbEntity
  8
1
 62
     1
100
AcDbLine
 10
48.92039724392863
 20
-0.2604754205737689
 30
0.0
 11
48.60000000000001
 21
-0.4286580915706098
 31
0.0
  0
LINE
  5
4F3
330
18
100
AcDbEntity
  8
1
 62
     1
100
AcDbLine
 10
48.60000000000002
 20
1.57010139276033
 30
0.0
 11
48.60000000000002
 21
1.32530735314346
 31
0.0
  0
LINE
  5
4F4
330
18
100
AcDbEntity
  8
1
 62
     1
100
AcDbLine
 10
48.6
 20
1.77
 30
0.0
 11
48.6
 21
1.769957233788452
 31
0.0
  0
LINE
  5
4F5
330
18
100
AcDbEntity
  8
1
 62
     1
100
AcDbLine
 10
48.6
 20
1.769957233788452
 30
0.0
 11
48.59999999999999
 21
1.757097898243012
 31
0.0
  0
LINE
  5
4F6
330
18
100
AcDbEntity
  8
1
 62
     1
100
AcDbLine
 10
48.59999999999999
 20
1.757097898243012
 30
0.0
 11
48.6
 21
1.57010139276033
 31
0.0
  0
LINE
  5
4F7
330
18
100
AcDbEntity
  8
1
 62
     1
100
AcDbLine
 10
48.44188916881733
 20
1.790312740149941
 30
0.0
 11
48.44188916881733
 21
1.790269614471017
 31
0.0
  0
LINE
  5
4F8
330
18
100
AcDbEntity
  8
1
 62
     1
100
AcDbLine
 10
48.44188916881733
 20
1.790269614471017
 30
0.0
 11
48.44188916881734
 21
1.777302976111769
 31
0.0
  0
LINE
  5
4F9
330
18
100
AcDbEntity
  8
1
 62
     1
100
AcDbLine
 10
48.44188916881734
 20
1.777302976111769
 30
0.0
 11
48.44188916881733
 21
1.588756996563176
 31
0.0
  0
ARC
  5
4FA
330
18
100
AcDbEntity
  8
1
 62
     1
100
AcDbCircle
 10
42.6042814624216
 20
-2.094248808182069
 30
0.0
 40
6.902330976084016
100
AcDbArc
 50
29.69753897018894
 51
32.24824241269722
  0
LINE
  5
4FB
330
18
100
AcDbEntity
  8
1
 62
     1
100
AcDbLine
 10
46.15564464440345
 20
2.084030068661055
 30
0.0
 11
46.15564464440345
 21
2.083978709852898
 31
0.0
  0
LINE
  5
4FC
330
18
100
AcDbEntity
  8
1
 62
     1
100
AcDbLine
 10
46.15564464440345
 20
2.083978709852898
 30
0.0
 11
46.15564464440344
 21
2.068529565764525
 31
0.0
  0
LINE
  5
4FD
330
18
100
AcDbEntity
  8
1
 62
     1
100
AcDbLine
 10
46.15564464440344
 20
2.068529565764525
 30
0.0
 11
46.15564464440345
 21
1.843789645259731
 31
0.0
  0
ARC
  5
4FE
330
18
100
AcDbEntity
  8
1
 62
     1
100
AcDbCircle
 10
40.77103365559302
 20
-1.921392978232378
 30
0.0
 40
6.57045201356849
100
AcDbArc
 50
29.61260508123541
 51
34.96312263723575
  0
ARC
  5
4FF
330
18
100
AcDbEntity
  8
1
 62
     1
100
AcDbCircle
 10
51.20411419801891
 20
-1.963845877120823
 30
0.0
 40
6.649531324425213
100
AcDbArc
 50
144.6531418084706
 51
150.3538535971455
  0
LINE
  5
500
330
18
100
AcDbEntity
  8
1
 62
     1
100
AcDbLine
 10
45.78051334277788
 20
2.132223760358406
 30
0.0
 11
45.78051334277788
 21
2.132170495395507
 31
0.0
  0
LINE
  5
501
330
18
100
AcDbEntity
  8
1
 62
     1
100
AcDbLine
 10
45.78051334277788
 20
2.132170495395507
 30
0.0
 11
45.78051334277789
 21
2.116143580268623
 31
0.0
  0
LINE
  5
502
330
18
100
AcDbEntity
  8
1
 62
     1
100
AcDbLine
 10
45.78051334277789
 20
2.116143580268623
 30
0.0
 11
45.78051334277788
 21
1.882940669573989
 31
0.0
  0
LINE
  5
503
330
18
100
AcDbEntity
  8
1
 62
     1
100
AcDbLine
 10
45.01252238219649
 20
2.230888732916614
 30
0.0
 11
45.01252238219649
 21
2.230831041580459
 31
0.0
  0
LINE
  5
504
330
18
100
AcDbEntity
  8
1
 62
     1
100
AcDbLine
 10
45.01252238219649
 20
2.230831041580459
 30
0.0
 11
45.01252238219649
 21
2.213460050246346
 31
0.0
  0
LINE
  5
505
330
18
100
AcDbEntity
  8
1
 62
     1
100
AcDbLine
 10
45.01252238219649
 20
2.213460050246346
 30
0.0
 11
45.0125223821965
 21
1.960544504675305
 31
0.0
  0
ARC
  5
506
330
18
100
AcDbEntity
  8
1
 62
     1
100
AcDbCircle
 10
40.07978281782979
 20
-1.69117040808083
 30
0.0
 40
6.137398407560432
100
AcDbArc
 50
29.43743315705352
 51
36.51260485554509
  0
LINE
  5
507
330
18
100
AcDbEntity
  8
1
 62
     1
100
AcDbLine
 10
45.425
 20
1.325307353143431
 30
0.0
 11
45.42500000000001
 21
1.516456875
 31
0.0
  0
LINE
  5
508
330
18
100
AcDbEntity
  8
1
 62
     1
100
AcDbLine
 10
44.36666666666668
 20
1.325307353143431
 30
0.0
 11
44.36666666666667
 21
1.516456875
 31
0.0
  0
ARC
  5
509
330
18
100
AcDbEntity
  8
1
 62
     1
100
AcDbCircle
 10
49.92120203281051
 20
-1.826454913961384
 30
0.0
 40
6.386347571870993
100
AcDbArc
 50
143.3895965490862
 51
150.4284957548775
  0
LINE
  5
50A
330
18
100
AcDbEntity
  8
1
 62
     1
100
AcDbLine
 10
44.79525935783423
 20
2.258800845736781
 30
0.0
 11
44.79525935783423
 21
2.258741769064478
 31
0.0
  0
LINE
  5
50B
330
18
100
AcDbEntity
  8
1
 62
     1
100
AcDbLine
 10
44.79525935783423
 20
2.258741769064478
 30
0.0
 11
44.79525935783423
 21
2.240949522523839
 31
0.0
  0
LINE
  5
50C
330
18
100
AcDbEntity
  8
1
 62
     1
100
AcDbLine
 10
44.79525935783423
 20
2.240949522523839
 30
0.0
 11
44.79525935783424
 21
1.981850365524936
 31
0.0
  0
LINE
  5
50D
330
18
100
AcDbEntity
  8
1
 62
     1
100
AcDbLine
 10
46.48333333333336
 20
1.325307353143431
 30
0.0
 11
46.48333333333335
 21
1.516456875
 31
0.0
  0
ARC
  5
50E
330
18
100
AcDbEntity
  8
1
 62
     1
100
AcDbCircle
 10
52.40816094437479
 20
-2.051741193948597
 30
0.0
 40
6.819672001351881
100
AcDbArc
 50
145.8304230206991
 51
150.3176130198813
  0
LINE
  5
50F
330
18
100
AcDbEntity
  8
1
 62
     1
100
AcDbLine
 10
46.76576732772152
 20
2.005646674980033
 30
0.0
 11
46.76576732772152
 21
2.005598073419
 31
0.0
  0
LINE
  5
510
330
18
100
AcDbEntity
  8
1
 62
     1
100
AcDbLine
 10
46.76576732772152
 20
2.005598073419
 30
0.0
 11
46.76576732772151
 21
1.990983260689399
 31
0.0
  0
LINE
  5
511
330
18
100
AcDbEntity
  8
1
 62
     1
100
AcDbLine
 10
46.76576732772151
 20
1.990983260689399
 30
0.0
 11
46.76576732772152
 21
1.77844739668634
 31
0.0
  0
LINE
  5
512
330
18
100
AcDbEntity
  8
1
 62
     1
100
AcDbLine
 10
47.2987669066104
 20
1.937171404405497
 30
0.0
 11
47.29876690661041
 21
1.937124874011221
 31
0.0
  0
LINE
  5
513
330
18
100
AcDbEntity
  8
1
 62
     1
100
AcDbLine
 10
47.29876690661041
 20
1.937124874011221
 30
0.0
 11
47.2987669066104
 21
1.923135330108396
 31
0.0
  0
LINE
  5
514
330
18
100
AcDbEntity
  8
1
 62
     1
100
AcDbLine
 10
47.2987669066104
 20
1.923135330108396
 30
0.0
 11
47.29876690661042
 21
1.71972648802569
 31
0.0
  0
ARC
  5
515
330
18
100
AcDbEntity
  8
1
 62
     1
100
AcDbCircle
 10
41.59948003806774
 20
-2.062320091150788
 30
0.0
 40
6.840011201136248
100
AcDbArc
 50
29.68736881638482
 51
33.56825064238782
  0
LINE
  5
516
330
18
100
AcDbEntity
  8
1
 62
     1
100
AcDbLine
 10
47.54166666666669
 20
1.325307353143431
 30
0.0
 11
47.54166666666668
 21
1.516456875
 31
0.0
  0
ARC
  5
517
330
18
100
AcDbEntity
  8
1
 62
     1
100
AcDbCircle
 10
53.51909977554291
 20
-2.082927580556583
 30
0.0
 40
6.880826517306782
100
AcDbArc
 50
146.959342741947
 51
150.3089162238764
  0
LINE
  5
518
330
18
100
AcDbEntity
  8
1
 62
     1
100
AcDbLine
 10
47.75102131266515
 20
1.87906958960166
 30
0.0
 11
47.75102131266515
 21
1.879024574760945
 31
0.0
  0
LINE
  5
519
330
18
100
AcDbEntity
  8
1
 62
     1
100
AcDbLine
 10
47.75102131266515
 20
1.879024574760945
 30
0.0
 11
47.75102131266515
 21
1.865491403488664
 31
0.0
  0
LINE
  5
51A
330
18
100
AcDbEntity
  8
1
 62
     1
100
AcDbLine
 10
47.75102131266515
 20
1.865491403488664
 30
0.0
 11
47.75102131266516
 21
1.668728262259884
 31
0.0
  0
LINE
  5
51B
330
18
100
AcDbEntity
  8
1
 62
     1
100
AcDbLine
 10
42.79071367743428
 20
2.413
 30
0.0
 11
42.79071367743428
 21
2.412932126942222
 31
0.0
  0
LINE
  5
51C
330
18
100
AcDbEntity
  8
1
 62
     1
100
AcDbLine
 10
42.79071367743428
 20
2.412932126942222
 30
0.0
 11
42.79071367743428
 21
2.39245954790951
 31
0.0
  0
LINE
  5
51D
330
18
100
AcDbEntity
  8
1
 62
     1
100
AcDbLine
 10
42.79071367743428
 20
2.39245954790951
 30
0.0
 11
42.79071367743428
 21
2.093980104931839
 31
0.0
  0
LINE
  5
51E
330
18
100
AcDbEntity
  8
1
 62
     1
100
AcDbLine
 10
42.79071367743425
 20
2.09398010493184
 30
0.0
 11
42.91808647300936
 21
1.930676754172338
 31
0.0
  0
LINE
  5
51F
330
18
100
AcDbEntity
  8
1
 62
     1
100
AcDbLine
 10
42.91808647300936
 20
1.930676754172338
 30
0.0
 11
43.0481797541198
 21
1.745539089941457
 31
0.0
  0
LINE
  5
520
330
18
100
AcDbEntity
  8
1
 62
     1
100
AcDbLine
 10
43.0481797541198
 20
1.745539089941457
 30
0.0
 11
43.1791218423625
 21
1.542544339775128
 31
0.0
  0
LINE
  5
521
330
18
100
AcDbEntity
  8
1
 62
     1
100
AcDbLine
 10
43.1791218423625
 20
1.542544339775128
 30
0.0
 11
43.30833333333334
 21
1.325307353143437
 31
0.0
  0
LINE
  5
522
330
18
100
AcDbEntity
  8
1
 62
     1
100
AcDbLine
 10
43.30833333333334
 20
1.325307353143431
 30
0.0
 11
43.30833333333334
 21
1.516456875
 31
0.0
  0
LINE
  5
523
330
18
100
AcDbEntity
  8
1
 62
     1
100
AcDbLine
 10
41.19166666666668
 20
1.325307353143431
 30
0.0
 11
41.19166666666668
 21
1.516456875
 31
0.0
  0
LINE
  5
524
330
18
100
AcDbEntity
  8
1
 62
     1
100
AcDbLine
 10
41.19166666666667
 20
1.325307353143436
 30
0.0
 11
41.32087940444499
 21
1.542546348668129
 31
0.0
  0
LINE
  5
525
330
18
100
AcDbEntity
  8
1
 62
     1
100
AcDbLine
 10
41.32087940444499
 20
1.542546348668129
 30
0.0
 11
41.45182143287434
 21
1.745540855859917
 31
0.0
  0
LINE
  5
526
330
18
100
AcDbEntity
  8
1
 62
     1
100
AcDbLine
 10
41.45182143287434
 20
1.745540855859917
 30
0.0
 11
41.58191449504111
 21
1.930678066652578
 31
0.0
  0
LINE
  5
527
330
18
100
AcDbEntity
  8
1
 62
     1
100
AcDbLine
 10
41.58191449504111
 20
1.930678066652578
 30
0.0
 11
41.70928632256575
 21
2.093980104931839
 31
0.0
  0
LINE
  5
528
330
18
100
AcDbEntity
  8
1
 62
     1
100
AcDbLine
 10
41.70928632256575
 20
2.413
 30
0.0
 11
41.70928632256576
 21
2.412932126942222
 31
0.0
  0
LINE
  5
529
330
18
100
AcDbEntity
  8
1
 62
     1
100
AcDbLine
 10
41.70928632256576
 20
2.412932126942222
 30
0.0
 11
41.70928632256575
 21
2.39245954790951
 31
0.0
  0
LINE
  5
52A
330
18
100
AcDbEntity
  8
1
 62
     1
100
AcDbLine
 10
41.70928632256575
 20
2.39245954790951
 30
0.0
 11
41.70928632256575
 21
2.093980104931839
 31
0.0
  0
LINE
  5
52B
330
18
100
AcDbEntity
  8
1
 62
     1
100
AcDbLine
 10
42.25000000000001
 20
1.325307353143431
 30
0.0
 11
42.25000000000001
 21
1.516456875
 31
0.0
  0
LINE
  5
52C
330
18
100
AcDbEntity
  8
1
 62
     1
100
AcDbLine
 10
42.25000000000001
 20
1.325307353143437
 30
0.0
 11
42.37921273777835
 21
1.542546348668124
 31
0.0
  0
LINE
  5
52D
330
18
100
AcDbEntity
  8
1
 62
     1
100
AcDbLine
 10
42.37921273777835
 20
1.542546348668124
 30
0.0
 11
42.51015476620768
 21
1.745540855859923
 31
0.0
  0
LINE
  5
52E
330
18
100
AcDbEntity
  8
1
 62
     1
100
AcDbLine
 10
42.51015476620768
 20
1.745540855859923
 30
0.0
 11
42.64024782837444
 21
1.930678066652587
 31
0.0
  0
LINE
  5
52F
330
18
100
AcDbEntity
  8
1
 62
     1
100
AcDbLine
 10
42.64024782837444
 20
1.930678066652587
 30
0.0
 11
42.76761965589909
 21
2.093980104931841
 31
0.0
  0
LINE
  5
530
330
18
100
AcDbEntity
  8
1
 62
     1
100
AcDbLine
 10
42.76761965589909
 20
2.413
 30
0.0
 11
42.7676196558991
 21
2.412932126942222
 31
0.0
  0
LINE
  5
531
330
18
100
AcDbEntity
  8
1
 62
     1
100
AcDbLine
 10
42.7676196558991
 20
2.412932126942222
 30
0.0
 11
42.76761965589909
 21
2.39245954790951
 31
0.0
  0
LINE
  5
532
330
18
100
AcDbEntity
  8
1
 62
     1
100
AcDbLine
 10
42.76761965589909
 20
2.39245954790951
 30
0.0
 11
42.76761965589908
 21
2.093980104931839
 31
0.0
  0
LINE
  5
533
330
18
100
AcDbEntity
  8
1
 62
     1
100
AcDbLine
 10
43.86940011998951
 20
2.377747397172176
 30
0.0
 11
43.86940011998951
 21
2.377681713460674
 31
0.0
  0
LINE
  5
534
330
18
100
AcDbEntity
  8
1
 62
     1
100
AcDbLine
 10
43.86940011998951
 20
2.377681713460674
 30
0.0
 11
43.86940011998951
 21
2.357877071515409
 31
0.0
  0
LINE
  5
535
330
18
100
AcDbEntity
  8
1
 62
     1
100
AcDbLine
 10
43.86940011998951
 20
2.357877071515409
 30
0.0
 11
43.86940011998951
 21
2.069215367338321
 31
0.0
  0
ARC
  5
536
330
18
100
AcDbEntity
  8
1
 62
     1
100
AcDbCircle
 10
39.4842325403858
 20
-1.394124948705437
 30
0.0
 40
5.588033344372225
100
AcDbArc
 50
29.11705896384951
 51
38.30115584892206
  0
LINE
  5
537
330
18
100
AcDbEntity
  8
1
 62
     1
100
AcDbLine
 10
41.73238034410094
 20
2.413
 30
0.0
 11
41.73238034410094
 21
2.412932126942222
 31
0.0
  0
LINE
  5
538
330
18
100
AcDbEntity
  8
1
 62
     1
100
AcDbLine
 10
41.73238034410094
 20
2.412932126942222
 30
0.0
 11
41.73238034410094
 21
2.392459547909511
 31
0.0
  0
LINE
  5
539
330
18
100
AcDbEntity
  8
1
 62
     1
100
AcDbLine
 10
41.73238034410094
 20
2.392459547909511
 30
0.0
 11
41.73238034410094
 21
2.09398010493184
 31
0.0
  0
LINE
  5
53A
330
18
100
AcDbEntity
  8
1
 62
     1
100
AcDbLine
 10
41.73238034410094
 20
2.093980104931839
 30
0.0
 11
41.85975313967603
 21
1.930676754172336
 31
0.0
  0
LINE
  5
53B
330
18
100
AcDbEntity
  8
1
 62
     1
100
AcDbLine
 10
41.85975313967603
 20
1.930676754172336
 30
0.0
 11
41.98984642078647
 21
1.745539089941452
 31
0.0
  0
LINE
  5
53C
330
18
100
AcDbEntity
  8
1
 62
     1
100
AcDbLine
 10
41.98984642078647
 20
1.745539089941452
 30
0.0
 11
42.12078850902917
 21
1.542544339775123
 31
0.0
  0
LINE
  5
53D
330
18
100
AcDbEntity
  8
1
 62
     1
100
AcDbLine
 10
42.12078850902917
 20
1.542544339775123
 30
0.0
 11
42.25000000000001
 21
1.325307353143437
 31
0.0
  0
LINE
  5
53E
330
18
100
AcDbEntity
  8
1
 62
     1
100
AcDbLine
 10
43.30833333333334
 20
1.325307353143437
 30
0.0
 11
43.43340792739725
 21
1.535862295667929
 31
0.0
  0
LINE
  5
53F
330
18
100
AcDbEntity
  8
1
 62
     1
100
AcDbLine
 10
43.43340792739725
 20
1.535862295667929
 30
0.0
 11
43.56019069481967
 21
1.733163177753752
 31
0.0
  0
LINE
  5
540
330
18
100
AcDbEntity
  8
1
 62
     1
100
AcDbLine
 10
43.56019069481967
 20
1.733163177753752
 30
0.0
 11
43.68630217072309
 21
1.913949424458653
 31
0.0
  0
LINE
  5
541
330
18
100
AcDbEntity
  8
1
 62
     1
100
AcDbLine
 10
43.68630217072309
 20
1.913949424458653
 30
0.0
 11
43.8100053728906
 21
2.074621280637776
 31
0.0
  0
LINE
  5
542
330
18
100
AcDbEntity
  8
1
 62
     1
100
AcDbLine
 10
43.81000537289061
 20
2.385377931115153
 30
0.0
 11
43.8100053728906
 21
2.385311782836705
 31
0.0
  0
LINE
  5
543
330
18
100
AcDbEntity
  8
1
 62
     1
100
AcDbLine
 10
43.8100053728906
 20
2.385311782836705
 30
0.0
 11
43.81000537289061
 21
2.365365451536892
 31
0.0
  0
LINE
  5
544
330
18
100
AcDbEntity
  8
1
 62
     1
100
AcDbLine
 10
43.81000537289061
 20
2.365365451536892
 30
0.0
 11
43.81000537289061
 21
2.074621280637773
 31
0.0
  0
LINE
  5
545
330
18
100
AcDbEntity
  8
1
 62
     1
100
AcDbLine
 10
37.49904701076762
 20
2.413
 30
0.0
 11
37.49904701076763
 21
2.412932126942222
 31
0.0
  0
LINE
  5
546
330
18
100
AcDbEntity
  8
1
 62
     1
100
AcDbLine
 10
37.49904701076763
 20
2.412932126942222
 30
0.0
 11
37.49904701076762
 21
2.392459547909511
 31
0.0
  0
LINE
  5
547
330
18
100
AcDbEntity
  8
1
 62
     1
100
AcDbLine
 10
37.49904701076762
 20
2.392459547909511
 30
0.0
 11
37.49904701076761
 21
2.09398010493184
 31
0.0
  0
LINE
  5
548
330
18
100
AcDbEntity
  8
1
 62
     1
100
AcDbLine
 10
37.4990470107676
 20
2.09398010493184
 30
0.0
 11
37.62641980634269
 21
1.930676754172334
 31
0.0
  0
LINE
  5
549
330
18
100
AcDbEntity
  8
1
 62
     1
100
AcDbLine
 10
37.62641980634269
 20
1.930676754172334
 30
0.0
 11
37.75651308745314
 21
1.745539089941455
 31
0.0
  0
LINE
  5
54A
330
18
100
AcDbEntity
  8
1
 62
     1
100
AcDbLine
 10
37.75651308745314
 20
1.745539089941455
 30
0.0
 11
37.88745517569585
 21
1.542544339775128
 31
0.0
  0
LINE
  5
54B
330
18
100
AcDbEntity
  8
1
 62
     1
100
AcDbLine
 10
37.88745517569585
 20
1.542544339775128
 30
0.0
 11
38.01666666666668
 21
1.325307353143437
 31
0.0
  0
LINE
  5
54C
330
18
100
AcDbEntity
  8
1
 62
     1
100
AcDbLine
 10
38.01666666666668
 20
1.325307353143431
 30
0.0
 11
38.01666666666668
 21
1.516456875
 31
0.0
  0
LINE
  5
54D
330
18
100
AcDbEntity
  8
1
 62
     1
100
AcDbLine
 10
38.01666666666668
 20
1.325307353143437
 30
0.0
 11
38.14587940444501
 21
1.542546348668127
 31
0.0
  0
LINE
  5
54E
330
18
100
AcDbEntity
  8
1
 62
     1
100
AcDbLine
 10
38.14587940444501
 20
1.542546348668127
 30
0.0
 11
38.27682143287435
 21
1.745540855859921
 31
0.0
  0
LINE
  5
54F
330
18
100
AcDbEntity
  8
1
 62
     1
100
AcDbLine
 10
38.27682143287435
 20
1.745540855859921
 30
0.0
 11
38.40691449504112
 21
1.930678066652585
 31
0.0
  0
LINE
  5
550
330
18
100
AcDbEntity
  8
1
 62
     1
100
AcDbLine
 10
38.40691449504112
 20
1.930678066652585
 30
0.0
 11
38.53428632256576
 21
2.093980104931841
 31
0.0
  0
LINE
  5
551
330
18
100
AcDbEntity
  8
1
 62
     1
100
AcDbLine
 10
38.53428632256576
 20
2.413
 30
0.0
 11
38.53428632256576
 21
2.412932126942222
 31
0.0
  0
LINE
  5
552
330
18
100
AcDbEntity
  8
1
 62
     1
100
AcDbLine
 10
38.53428632256576
 20
2.412932126942222
 30
0.0
 11
38.53428632256576
 21
2.39245954790951
 31
0.0
  0
LINE
  5
553
330
18
100
AcDbEntity
  8
1
 62
     1
100
AcDbLine
 10
38.53428632256576
 20
2.39245954790951
 30
0.0
 11
38.53428632256576
 21
2.093980104931839
 31
0.0
  0
LINE
  5
554
330
18
100
AcDbEntity
  8
1
 62
     1
100
AcDbLine
 10
38.55738034410091
 20
2.413
 30
0.0
 11
38.55738034410092
 21
2.412932126942222
 31
0.0
  0
LINE
  5
555
330
18
100
AcDbEntity
  8
1
 62
     1
100
AcDbLine
 10
38.55738034410092
 20
2.412932126942222
 30
0.0
 11
38.55738034410092
 21
2.39245954790951
 31
0.0
  0
LINE
  5
556
330
18
100
AcDbEntity
  8
1
 62
     1
100
AcDbLine
 10
38.55738034410092
 20
2.39245954790951
 30
0.0
 11
38.55738034410091
 21
2.093980104931839
 31
0.0
  0
LINE
  5
557
330
18
100
AcDbEntity
  8
1
 62
     1
100
AcDbLine
 10
38.55738034410091
 20
2.093980104931867
 30
0.0
 11
38.684753139676
 21
1.930676754172362
 31
0.0
  0
LINE
  5
558
330
18
100
AcDbEntity
  8
1
 62
     1
100
AcDbLine
 10
38.684753139676
 20
1.930676754172362
 30
0.0
 11
38.81484642078645
 21
1.745539089941468
 31
0.0
  0
LINE
  5
559
330
18
100
AcDbEntity
  8
1
 62
     1
100
AcDbLine
 10
38.81484642078645
 20
1.745539089941468
 30
0.0
 11
38.94578850902917
 21
1.54254433977514
 31
0.0
  0
LINE
  5
55A
330
18
100
AcDbEntity
  8
1
 62
     1
100
AcDbLine
 10
38.94578850902917
 20
1.54254433977514
 30
0.0
 11
39.07500000000001
 21
1.325307353143437
 31
0.0
  0
LINE
  5
55B
330
18
100
AcDbEntity
  8
1
 62
     1
100
AcDbLine
 10
39.07500000000001
 20
1.325307353143431
 30
0.0
 11
39.07500000000001
 21
1.516456875
 31
0.0
  0
LINE
  5
55C
330
18
100
AcDbEntity
  8
1
 62
     1
100
AcDbLine
 10
39.07500000000001
 20
1.325307353143437
 30
0.0
 11
39.20421273777833
 21
1.542546348668127
 31
0.0
  0
LINE
  5
55D
330
18
100
AcDbEntity
  8
1
 62
     1
100
AcDbLine
 10
39.20421273777833
 20
1.542546348668127
 30
0.0
 11
39.33515476620769
 21
1.745540855859921
 31
0.0
  0
LINE
  5
55E
330
18
100
AcDbEntity
  8
1
 62
     1
100
AcDbLine
 10
39.33515476620769
 20
1.745540855859921
 30
0.0
 11
39.46524782837446
 21
1.930678066652584
 31
0.0
  0
LINE
  5
55F
330
18
100
AcDbEntity
  8
1
 62
     1
100
AcDbLine
 10
39.46524782837446
 20
1.930678066652584
 30
0.0
 11
39.59261965589909
 21
2.093980104931841
 31
0.0
  0
LINE
  5
560
330
18
100
AcDbEntity
  8
1
 62
     1
100
AcDbLine
 10
39.59261965589909
 20
2.413
 30
0.0
 11
39.59261965589909
 21
2.412932126942222
 31
0.0
  0
LINE
  5
561
330
18
100
AcDbEntity
  8
1
 62
     1
100
AcDbLine
 10
39.59261965589909
 20
2.412932126942222
 30
0.0
 11
39.59261965589909
 21
2.39245954790951
 31
0.0
  0
LINE
  5
562
330
18
100
AcDbEntity
  8
1
 62
     1
100
AcDbLine
 10
39.59261965589909
 20
2.39245954790951
 30
0.0
 11
39.59261965589909
 21
2.093980104931839
 31
0.0
  0
LINE
  5
563
330
18
100
AcDbEntity
  8
1
 62
     1
100
AcDbLine
 10
39.61571367743426
 20
2.413
 30
0.0
 11
39.61571367743427
 21
2.412932126942222
 31
0.0
  0
LINE
  5
564
330
18
100
AcDbEntity
  8
1
 62
     1
100
AcDbLine
 10
39.61571367743427
 20
2.412932126942222
 30
0.0
 11
39.61571367743426
 21
2.39245954790951
 31
0.0
  0
LINE
  5
565
330
18
100
AcDbEntity
  8
1
 62
     1
100
AcDbLine
 10
39.61571367743426
 20
2.39245954790951
 30
0.0
 11
39.61571367743426
 21
2.093980104931839
 31
0.0
  0
LINE
  5
566
330
18
100
AcDbEntity
  8
1
 62
     1
100
AcDbLine
 10
39.61571367743426
 20
2.093980104931841
 30
0.0
 11
39.74308647300936
 21
1.930676754172337
 31
0.0
  0
LINE
  5
567
330
18
100
AcDbEntity
  8
1
 62
     1
100
AcDbLine
 10
39.74308647300936
 20
1.930676754172337
 30
0.0
 11
39.8731797541198
 21
1.745539089941453
 31
0.0
  0
LINE
  5
568
330
18
100
AcDbEntity
  8
1
 62
     1
100
AcDbLine
 10
39.8731797541198
 20
1.745539089941453
 30
0.0
 11
40.00412184236251
 21
1.542544339775132
 31
0.0
  0
LINE
  5
569
330
18
100
AcDbEntity
  8
1
 62
     1
100
AcDbLine
 10
40.00412184236251
 20
1.542544339775132
 30
0.0
 11
40.13333333333334
 21
1.325307353143437
 31
0.0
  0
LINE
  5
56A
330
18
100
AcDbEntity
  8
1
 62
     1
100
AcDbLine
 10
40.13333333333335
 20
1.325307353143431
 30
0.0
 11
40.13333333333335
 21
1.516456875
 31
0.0
  0
LINE
  5
56B
330
18
100
AcDbEntity
  8
1
 62
     1
100
AcDbLine
 10
40.13333333333334
 20
1.325307353143437
 30
0.0
 11
40.26254607111167
 21
1.542546348668129
 31
0.0
  0
LINE
  5
56C
330
18
100
AcDbEntity
  8
1
 62
     1
100
AcDbLine
 10
40.26254607111167
 20
1.542546348668129
 30
0.0
 11
40.39348809954102
 21
1.745540855859926
 31
0.0
  0
LINE
  5
56D
330
18
100
AcDbEntity
  8
1
 62
     1
100
AcDbLine
 10
40.39348809954102
 20
1.745540855859926
 30
0.0
 11
40.52358116170778
 21
1.930678066652596
 31
0.0
  0
LINE
  5
56E
330
18
100
AcDbEntity
  8
1
 62
     1
100
AcDbLine
 10
40.52358116170778
 20
1.930678066652596
 30
0.0
 11
40.65095298923244
 21
2.09398010493185
 31
0.0
  0
LINE
  5
56F
330
18
100
AcDbEntity
  8
1
 62
     1
100
AcDbLine
 10
40.67404701076762
 20
2.413
 30
0.0
 11
40.67404701076762
 21
2.412932126942222
 31
0.0
  0
LINE
  5
570
330
18
100
AcDbEntity
  8
1
 62
     1
100
AcDbLine
 10
40.67404701076762
 20
2.412932126942222
 30
0.0
 11
40.67404701076762
 21
2.39245954790951
 31
0.0
  0
LINE
  5
571
330
18
100
AcDbEntity
  8
1
 62
     1
100
AcDbLine
 10
40.67404701076762
 20
2.39245954790951
 30
0.0
 11
40.67404701076762
 21
2.093980104931839
 31
0.0
  0
LINE
  5
572
330
18
100
AcDbEntity
  8
1
 62
     1
100
AcDbLine
 10
40.67404701076759
 20
2.09398010493184
 30
0.0
 11
40.80141980634269
 21
1.930676754172338
 31
0.0
  0
LINE
  5
573
330
18
100
AcDbEntity
  8
1
 62
     1
100
AcDbLine
 10
40.80141980634269
 20
1.930676754172338
 30
0.0
 11
40.93151308745313
 21
1.745539089941458
 31
0.0
  0
LINE
  5
574
330
18
100
AcDbEntity
  8
1
 62
     1
100
AcDbLine
 10
40.93151308745313
 20
1.745539089941458
 30
0.0
 11
41.06245517569584
 21
1.542544339775131
 31
0.0
  0
LINE
  5
575
330
18
100
AcDbEntity
  8
1
 62
     1
100
AcDbLine
 10
41.06245517569584
 20
1.542544339775131
 30
0.0
 11
41.19166666666667
 21
1.325307353143437
 31
0.0
  0
ARC
  5
576
330
18
100
AcDbEntity
  8
1
 62
     1
100
AcDbCircle
 10
39.52901740151745
 20
-1.943520965110586
 30
0.0
 40
6.610417548904306
100
AcDbArc
 50
144.4427957608634
 51
150.3636336859268
  0
LINE
  5
577
330
18
100
AcDbEntity
  8
1
 62
     1
100
AcDbLine
 10
34.15142937917005
 20
2.154017631191458
 30
0.0
 11
34.15142937917005
 21
2.153963450021337
 31
0.0
  0
LINE
  5
578
330
18
100
AcDbEntity
  8
1
 62
     1
100
AcDbLine
 10
34.15142937917005
 20
2.153963450021337
 30
0.0
 11
34.15142937917005
 21
2.137658585806975
 31
0.0
  0
LINE
  5
579
330
18
100
AcDbEntity
  8
1
 62
     1
100
AcDbLine
 10
34.15142937917005
 20
2.137658585806975
 30
0.0
 11
34.15142937917005
 21
1.900381740867195
 31
0.0
  0
LINE
  5
57A
330
18
100
AcDbEntity
  8
1
 62
     1
100
AcDbLine
 10
36.44071367743426
 20
2.413
 30
0.0
 11
36.44071367743427
 21
2.412932126942222
 31
0.0
  0
LINE
  5
57B
330
18
100
AcDbEntity
  8
1
 62
     1
100
AcDbLine
 10
36.44071367743427
 20
2.412932126942222
 30
0.0
 11
36.44071367743425
 21
2.392459547909511
 31
0.0
  0
LINE
  5
57C
330
18
100
AcDbEntity
  8
1
 62
     1
100
AcDbLine
 10
36.44071367743425
 20
2.392459547909511
 30
0.0
 11
36.44071367743426
 21
2.09398010493184
 31
0.0
  0
LINE
  5
57D
330
18
100
AcDbEntity
  8
1
 62
     1
100
AcDbLine
 10
36.44071367743426
 20
2.093980104931841
 30
0.0
 11
36.56808647300935
 21
1.930676754172338
 31
0.0
  0
LINE
  5
57E
330
18
100
AcDbEntity
  8
1
 62
     1
100
AcDbLine
 10
36.56808647300935
 20
1.930676754172338
 30
0.0
 11
36.6981797541198
 21
1.745539089941453
 31
0.0
  0
LINE
  5
57F
330
18
100
AcDbEntity
  8
1
 62
     1
100
AcDbLine
 10
36.6981797541198
 20
1.745539089941453
 30
0.0
 11
36.8291218423625
 21
1.542544339775127
 31
0.0
  0
LINE
  5
580
330
18
100
AcDbEntity
  8
1
 62
     1
100
AcDbLine
 10
36.8291218423625
 20
1.542544339775127
 30
0.0
 11
36.95833333333334
 21
1.325307353143437
 31
0.0
  0
LINE
  5
581
330
18
100
AcDbEntity
  8
1
 62
     1
100
AcDbLine
 10
36.95833333333334
 20
1.325307353143431
 30
0.0
 11
36.95833333333334
 21
1.516456875
 31
0.0
  0
LINE
  5
582
330
18
100
AcDbEntity
  8
1
 62
     1
100
AcDbLine
 10
36.95833333333334
 20
1.325307353143437
 30
0.0
 11
37.08754607111167
 21
1.542546348668124
 31
0.0
  0
LINE
  5
583
330
18
100
AcDbEntity
  8
1
 62
     1
100
AcDbLine
 10
37.08754607111167
 20
1.542546348668124
 30
0.0
 11
37.21848809954101
 21
1.745540855859921
 31
0.0
  0
LINE
  5
584
330
18
100
AcDbEntity
  8
1
 62
     1
100
AcDbLine
 10
37.21848809954101
 20
1.745540855859921
 30
0.0
 11
37.34858116170778
 21
1.930678066652586
 31
0.0
  0
LINE
  5
585
330
18
100
AcDbEntity
  8
1
 62
     1
100
AcDbLine
 10
37.34858116170778
 20
1.930678066652586
 30
0.0
 11
37.47595298923243
 21
2.093980104931841
 31
0.0
  0
LINE
  5
586
330
18
100
AcDbEntity
  8
1
 62
     1
100
AcDbLine
 10
37.47595298923243
 20
2.413
 30
0.0
 11
37.47595298923243
 21
2.412932126942222
 31
0.0
  0
LINE
  5
587
330
18
100
AcDbEntity
  8
1
 62
     1
100
AcDbLine
 10
37.47595298923243
 20
2.412932126942222
 30
0.0
 11
37.47595298923243
 21
2.39245954790951
 31
0.0
  0
LINE
  5
588
330
18
100
AcDbEntity
  8
1
 62
     1
100
AcDbLine
 10
37.47595298923243
 20
2.39245954790951
 30
0.0
 11
37.47595298923243
 21
2.093980104931839
 31
0.0
  0
LINE
  5
589
330
18
100
AcDbEntity
  8
1
 62
     1
100
AcDbLine
 10
34.84166666666668
 20
1.325307353143431
 30
0.0
 11
34.84166666666668
 21
1.516456875
 31
0.0
  0
LINE
  5
58A
330
18
100
AcDbEntity
  8
1
 62
     1
100
AcDbLine
 10
34.84166666666668
 20
1.325307353143437
 30
0.0
 11
34.97087940444501
 21
1.542546348668128
 31
0.0
  0
LINE
  5
58B
330
18
100
AcDbEntity
  8
1
 62
     1
100
AcDbLine
 10
34.97087940444501
 20
1.542546348668128
 30
0.0
 11
35.10182143287435
 21
1.745540855859923
 31
0.0
  0
LINE
  5
58C
330
18
100
AcDbEntity
  8
1
 62
     1
100
AcDbLine
 10
35.10182143287435
 20
1.745540855859923
 30
0.0
 11
35.23191449504112
 21
1.930678066652582
 31
0.0
  0
LINE
  5
58D
330
18
100
AcDbEntity
  8
1
 62
     1
100
AcDbLine
 10
35.23191449504112
 20
1.930678066652582
 30
0.0
 11
35.35928632256575
 21
2.09398010493184
 31
0.0
  0
LINE
  5
58E
330
18
100
AcDbEntity
  8
1
 62
     1
100
AcDbLine
 10
35.35928632256576
 20
2.413
 30
0.0
 11
35.35928632256576
 21
2.412932126942222
 31
0.0
  0
LINE
  5
58F
330
18
100
AcDbEntity
  8
1
 62
     1
100
AcDbLine
 10
35.35928632256576
 20
2.412932126942222
 30
0.0
 11
35.35928632256575
 21
2.39245954790951
 31
0.0
  0
LINE
  5
590
330
18
100
AcDbEntity
  8
1
 62
     1
100
AcDbLine
 10
35.35928632256575
 20
2.39245954790951
 30
0.0
 11
35.35928632256577
 21
2.093980104931839
 31
0.0
  0
LINE
  5
591
330
18
100
AcDbEntity
  8
1
 62
     1
100
AcDbLine
 10
34.39303528222438
 20
2.293508864423289
 30
0.0
 11
34.39303528222438
 21
2.293447979716758
 31
0.0
  0
LINE
  5
592
330
18
100
AcDbEntity
  8
1
 62
     1
100
AcDbLine
 10
34.39303528222438
 20
2.293447979716758
 30
0.0
 11
34.39303528222438
 21
2.275105561787148
 31
0.0
  0
LINE
  5
593
330
18
100
AcDbEntity
  8
1
 62
     1
100
AcDbLine
 10
34.39303528222438
 20
2.275105561787148
 30
0.0
 11
34.39303528222438
 21
2.007927536829344
 31
0.0
  0
ARC
  5
594
330
18
100
AcDbEntity
  8
1
 62
     1
100
AcDbCircle
 10
29.68441017850562
 20
-1.571378668848591
 30
0.0
 40
5.914698070784027
100
AcDbArc
 50
29.32169800112541
 51
37.24062708835533
  0
LINE
  5
595
330
18
100
AcDbEntity
  8
1
 62
     1
100
AcDbLine
 10
35.38238034410095
 20
2.413
 30
0.0
 11
35.38238034410096
 21
2.412932126942222
 31
0.0
  0
LINE
  5
596
330
18
100
AcDbEntity
  8
1
 62
     1
100
AcDbLine
 10
35.38238034410096
 20
2.412932126942222
 30
0.0
 11
35.38238034410095
 21
2.39245954790951
 31
0.0
  0
LINE
  5
597
330
18
100
AcDbEntity
  8
1
 62
     1
100
AcDbLine
 10
35.38238034410095
 20
2.39245954790951
 30
0.0
 11
35.38238034410094
 21
2.093980104931839
 31
0.0
  0
LINE
  5
598
330
18
100
AcDbEntity
  8
1
 62
     1
100
AcDbLine
 10
35.38238034410093
 20
2.09398010493184
 30
0.0
 11
35.50975313967602
 21
1.930676754172335
 31
0.0
  0
LINE
  5
599
330
18
100
AcDbEntity
  8
1
 62
     1
100
AcDbLine
 10
35.50975313967602
 20
1.930676754172335
 30
0.0
 11
35.63984642078647
 21
1.745539089941456
 31
0.0
  0
LINE
  5
59A
330
18
100
AcDbEntity
  8
1
 62
     1
100
AcDbLine
 10
35.63984642078647
 20
1.745539089941456
 30
0.0
 11
35.77078850902917
 21
1.542544339775126
 31
0.0
  0
LINE
  5
59B
330
18
100
AcDbEntity
  8
1
 62
     1
100
AcDbLine
 10
35.77078850902917
 20
1.542544339775126
 30
0.0
 11
35.90000000000001
 21
1.325307353143437
 31
0.0
  0
LINE
  5
59C
330
18
100
AcDbEntity
  8
1
 62
     1
100
AcDbLine
 10
35.90000000000001
 20
1.325307353143431
 30
0.0
 11
35.90000000000001
 21
1.516456875
 31
0.0
  0
LINE
  5
59D
330
18
100
AcDbEntity
  8
1
 62
     1
100
AcDbLine
 10
35.90000000000001
 20
1.325307353143437
 30
0.0
 11
36.02921273777834
 21
1.542546348668125
 31
0.0
  0
LINE
  5
59E
330
18
100
AcDbEntity
  8
1
 62
     1
100
AcDbLine
 10
36.02921273777834
 20
1.542546348668125
 30
0.0
 11
36.16015476620768
 21
1.745540855859923
 31
0.0
  0
LINE
  5
59F
330
18
100
AcDbEntity
  8
1
 62
     1
100
AcDbLine
 10
36.16015476620768
 20
1.745540855859923
 30
0.0
 11
36.29024782837445
 21
1.930678066652583
 31
0.0
  0
LINE
  5
5A0
330
18
100
AcDbEntity
  8
1
 62
     1
100
AcDbLine
 10
36.29024782837445
 20
1.930678066652583
 30
0.0
 11
36.41761965589909
 21
2.09398010493184
 31
0.0
  0
LINE
  5
5A1
330
18
100
AcDbEntity
  8
1
 62
     1
100
AcDbLine
 10
36.41761965589909
 20
2.413
 30
0.0
 11
36.41761965589909
 21
2.412932126942222
 31
0.0
  0
LINE
  5
5A2
330
18
100
AcDbEntity
  8
1
 62
     1
100
AcDbLine
 10
36.41761965589909
 20
2.412932126942222
 30
0.0
 11
36.4176196558991
 21
2.39245954790951
 31
0.0
  0
LINE
  5
5A3
330
18
100
AcDbEntity
  8
1
 62
     1
100
AcDbLine
 10
36.4176196558991
 20
2.39245954790951
 30
0.0
 11
36.41761965589908
 21
2.093980104931839
 31
0.0
  0
LINE
  5
5A4
330
18
100
AcDbEntity
  8
1
 62
     1
100
AcDbLine
 10
33.67681691999999
 20
1.50567700463012
 30
0.0
 11
33.78333333333335
 21
1.325307353143437
 31
0.0
  0
LINE
  5
5A5
330
18
100
AcDbEntity
  8
1
 62
     1
100
AcDbLine
 10
33.78333333333334
 20
1.325307353143431
 30
0.0
 11
33.78333333333335
 21
1.516456875
 31
0.0
  0
ARC
  5
5A6
330
18
100
AcDbEntity
  8
1
 62
     1
100
AcDbCircle
 10
36.87509843665111
 20
-3.811010589035935
 30
0.0
 40
3.982406573771208
100
AcDbArc
 50
140.9282754437155
 51
143.4273891081089
  0
LINE
  5
5A7
330
18
100
AcDbEntity
  8
1
 62
     1
100
AcDbLine
 10
33.67681692000001
 20
-0.392683754162766
 30
0.0
 11
33.78333333333335
 21
-0.2958699724398383
 31
0.0
  0
LINE
  5
5A8
330
18
100
AcDbEntity
  8
1
 62
     1
100
AcDbLine
 10
33.67681692000001
 20
-1.438128401875178
 30
0.0
 11
33.67681692000001
 21
-0.3926837633203431
 31
0.0
  0
LINE
  5
5A9
330
18
100
AcDbEntity
  8
1
 62
     1
100
AcDbLine
 10
33.67681692
 20
-0.2604754205737834
 30
0.0
 11
33.67681692
 21
-0.3926837592693017
 31
0.0
  0
LINE
  5
5AA
330
18
100
AcDbEntity
  8
1
 62
     1
100
AcDbLine
 10
33.67681692000001
 20
1.505677004630125
 30
0.0
 11
33.67681692
 21
-0.2604754205737689
 31
0.0
  0
LINE
  5
5AB
330
18
100
AcDbEntity
  8
1
 62
     1
100
AcDbLine
 10
33.67681692
 20
1.505677004630118
 30
0.0
 11
33.67681692000001
 21
1.700948628714014
 31
0.0
  0
LINE
  5
5AC
330
18
100
AcDbEntity
  8
1
 62
     1
100
AcDbLine
 10
49.44434080885664
 20
-0.9256591854657777
 30
0.0
 11
49.44068550422017
 21
-0.9290570379352491
 31
0.0
  0
LINE
  5
5AD
330
18
100
AcDbEntity
  8
1
 62
     1
100
AcDbLine
 10
49.44068550422017
 20
-0.9290570379352491
 30
0.0
 11
49.43622119945364
 21
-0.932762956830701
 31
0.0
  0
LINE
  5
5AE
330
18
100
AcDbEntity
  8
1
 62
     1
100
AcDbLine
 10
49.43622119945364
 20
-0.932762956830701
 30
0.0
 11
49.42501853334141
 21
-0.9410447613040201
 31
0.0
  0
LINE
  5
5AF
330
18
100
AcDbEntity
  8
1
 62
     1
100
AcDbLine
 10
49.42501853334141
 20
-0.9410447613040201
 30
0.0
 11
49.41104582258274
 21
-0.9504077039377733
 31
0.0
  0
LINE
  5
5B0
330
18
100
AcDbEntity
  8
1
 62
     1
100
AcDbLine
 10
49.41104582258274
 20
-0.9504077039377733
 30
0.0
 11
49.37610551578442
 21
-0.9720037481715824
 31
0.0
  0
LINE
  5
5B1
330
18
100
AcDbEntity
  8
1
 62
     1
100
AcDbLine
 10
49.37610551578442
 20
-0.9720037481715824
 30
0.0
 11
49.17998110400071
 21
-1.087416287006397
 31
0.0
  0
LINE
  5
5B2
330
18
100
AcDbEntity
  8
1
 62
     1
100
AcDbLine
 10
49.17998110400071
 20
-1.087416287006397
 30
0.0
 11
48.94413849703312
 21
-1.238068212113156
 31
0.0
  0
LINE
  5
5B3
330
18
100
AcDbEntity
  8
1
 62
     1
100
AcDbLine
 10
48.94413849703312
 20
-1.238068212113156
 30
0.0
 11
48.77347650355554
 21
-1.358946824184119
 31
0.0
  0
LINE
  5
5B4
330
18
100
AcDbEntity
  8
1
 62
     1
100
AcDbLine
 10
48.77347650355554
 20
-1.358946824184119
 30
0.0
 11
48.60000000000001
 21
-1.492695531264908
 31
0.0
  0
LINE
  5
5B5
330
18
100
AcDbEntity
  8
1
 62
     1
100
AcDbLine
 10
49.44434081169544
 20
-0.9256591883045634
 30
0.0
 11
50.37
 21
0.0000000000000002
 31
0.0
  0
LINE
  5
5B6
330
18
100
AcDbEntity
  8
1
 62
     1
100
AcDbLine
 10
48.6
 20
1.516456875
 30
0.0
 11
48.44188916881733
 21
1.790312740149955
 31
0.0
  0
LINE
  5
5B7
330
18
100
AcDbEntity
  8
1
 62
     1
100
AcDbLine
 10
46.48333333333335
 20
1.516456875
 30
0.0
 11
46.15564464440344
 21
2.084030068661051
 31
0.0
  0
LINE
  5
5B8
330
18
100
AcDbEntity
  8
1
 62
     1
100
AcDbLine
 10
45.78051334277788
 20
2.132223760358407
 30
0.0
 11
45.425
 21
1.516456875
 31
0.0
  0
LINE
  5
5B9
330
18
100
AcDbEntity
  8
1
 62
     1
100
AcDbLine
 10
45.42500000000001
 20
1.516456875
 30
0.0
 11
45.01252238219648
 21
2.230888732916609
 31
0.0
  0
LINE
  5
5BA
330
18
100
AcDbEntity
  8
1
 62
     1
100
AcDbLine
 10
44.79525935783424
 20
2.258800845736778
 30
0.0
 11
44.36666666666667
 21
1.516456875
 31
0.0
  0
LINE
  5
5BB
330
18
100
AcDbEntity
  8
1
 62
     1
100
AcDbLine
 10
46.76576732772152
 20
2.005646674980037
 30
0.0
 11
46.48333333333335
 21
1.516456875
 31
0.0
  0
LINE
  5
5BC
330
18
100
AcDbEntity
  8
1
 62
     1
100
AcDbLine
 10
47.54166666666668
 20
1.516456875
 30
0.0
 11
47.29876690661038
 21
1.937171404405494
 31
0.0
  0
LINE
  5
5BD
330
18
100
AcDbEntity
  8
1
 62
     1
100
AcDbLine
 10
47.75102131266515
 20
1.87906958960166
 30
0.0
 11
47.54166666666667
 21
1.516456875
 31
0.0
  0
LINE
  5
5BE
330
18
100
AcDbEntity
  8
1
 62
     1
100
AcDbLine
 10
43.30833333333335
 20
1.516456875
 30
0.0
 11
42.79071367743426
 21
2.413
 31
0.0
  0
LINE
  5
5BF
330
18
100
AcDbEntity
  8
1
 62
     1
100
AcDbLine
 10
41.70928632256575
 20
2.412999999999998
 30
0.0
 11
41.19166666666668
 21
1.516456875
 31
0.0
  0
LINE
  5
5C0
330
18
100
AcDbEntity
  8
1
 62
     1
100
AcDbLine
 10
42.76761965589909
 20
2.413000000000002
 30
0.0
 11
42.25000000000001
 21
1.516456875
 31
0.0
  0
LINE
  5
5C1
330
18
100
AcDbEntity
  8
1
 62
     1
100
AcDbLine
 10
44.36666666666667
 20
1.516456875
 30
0.0
 11
43.86940011998951
 21
2.377747397172183
 31
0.0
  0
LINE
  5
5C2
330
18
100
AcDbEntity
  8
1
 62
     1
100
AcDbLine
 10
42.25000000000001
 20
1.516456875
 30
0.0
 11
41.73238034410093
 21
2.412999999999998
 31
0.0
  0
LINE
  5
5C3
330
18
100
AcDbEntity
  8
1
 62
     1
100
AcDbLine
 10
43.81000537289061
 20
2.385377931115155
 30
0.0
 11
43.30833333333334
 21
1.516456875
 31
0.0
  0
LINE
  5
5C4
330
18
100
AcDbEntity
  8
1
 62
     1
100
AcDbLine
 10
38.01666666666668
 20
1.516456875
 30
0.0
 11
37.4990470107676
 21
2.413
 31
0.0
  0
LINE
  5
5C5
330
18
100
AcDbEntity
  8
1
 62
     1
100
AcDbLine
 10
38.53428632256576
 20
2.413000000000002
 30
0.0
 11
38.01666666666669
 21
1.516456875
 31
0.0
  0
LINE
  5
5C6
330
18
100
AcDbEntity
  8
1
 62
     1
100
AcDbLine
 10
39.07500000000001
 20
1.516456875
 30
0.0
 11
38.55738034410092
 21
2.413000000000039
 31
0.0
  0
LINE
  5
5C7
330
18
100
AcDbEntity
  8
1
 62
     1
100
AcDbLine
 10
39.59261965589909
 20
2.413000000000002
 30
0.0
 11
39.075
 21
1.516456875
 31
0.0
  0
LINE
  5
5C8
330
18
100
AcDbEntity
  8
1
 62
     1
100
AcDbLine
 10
40.13333333333335
 20
1.516456875
 30
0.0
 11
39.61571367743426
 21
2.413000000000002
 31
0.0
  0
LINE
  5
5C9
330
18
100
AcDbEntity
  8
1
 62
     1
100
AcDbLine
 10
40.65095298923243
 20
2.413000000000014
 30
0.0
 11
40.13333333333335
 21
1.516456875
 31
0.0
  0
LINE
  5
5CA
330
18
100
AcDbEntity
  8
1
 62
     1
100
AcDbLine
 10
41.19166666666668
 20
1.516456875
 30
0.0
 11
40.67404701076759
 21
2.413
 31
0.0
  0
LINE
  5
5CB
330
18
100
AcDbEntity
  8
1
 62
     1
100
AcDbLine
 10
34.15142937917005
 20
2.154017631191458
 30
0.0
 11
33.78333333333335
 21
1.516456875
 31
0.0
  0
LINE
  5
5CC
330
18
100
AcDbEntity
  8
1
 62
     1
100
AcDbLine
 10
36.95833333333334
 20
1.516456875
 30
0.0
 11
36.44071367743426
 21
2.413000000000002
 31
0.0
  0
LINE
  5
5CD
330
18
100
AcDbEntity
  8
1
 62
     1
100
AcDbLine
 10
37.47595298923243
 20
2.413000000000002
 30
0.0
 11
36.95833333333335
 21
1.516456875
 31
0.0
  0
LINE
  5
5CE
330
18
100
AcDbEntity
  8
1
 62
     1
100
AcDbLine
 10
35.35928632256576
 20
2.413000000000001
 30
0.0
 11
34.84166666666668
 21
1.516456875
 31
0.0
  0
LINE
  5
5CF
330
18
100
AcDbEntity
  8
1
 62
     1
100
AcDbLine
 10
34.84166666666669
 20
1.516456875
 30
0.0
 11
34.39303528222438
 21
2.293508864423288
 31
0.0
  0
LINE
  5
5D0
330
18
100
AcDbEntity
  8
1
 62
     1
100
AcDbLine
 10
35.90000000000001
 20
1.516456875
 30
0.0
 11
35.38238034410093
 21
2.413
 31
0.0
  0
LINE
  5
5D1
330
18
100
AcDbEntity
  8
1
 62
     1
100
AcDbLine
 10
36.41761965589908
 20
2.413000000000001
 30
0.0
 11
35.90000000000001
 21
1.516456875
 31
0.0
  0
LINE
  5
5D2
330
18
100
AcDbEntity
  8
1
 62
     1
100
AcDbLine
 10
33.78333333333335
 20
1.516456875
 30
0.0
 11
33.67681691999999
 21
1.700948628714035
 31
0.0
  0
LINE
  5
5D3
330
18
100
AcDbEntity
  8
SK1
100
AcDbLine
 10
0.0000000000000018
 20
2.4638
 30
0.0
 11
-15.48
 21
2.4638
 31
0.0
  0
LINE
  5
5D4
330
18
100
AcDbEntity
  8
SK1
100
AcDbLine
 10
-15.48
 20
-1.9304
 30
0.0
 11
-15.48
 21
-2.4638
 31
0.0
  0
LINE
  5
5D5
330
18
100
AcDbEntity
  8
SK1
100
AcDbLine
 10
-21.58362
 20
1.530969065657437
 30
0.0
 11
-15.48
 21
1.530969065657437
 31
0.0
  0
LINE
  5
5D6
330
18
100
AcDbEntity
  8
SK1
100
AcDbLine
 10
-21.58362
 20
1.9304
 30
0.0
 11
-15.48
 21
1.9304
 31
0.0
  0
ARC
  5
5D7
330
18
100
AcDbEntity
  8
SK1
100
AcDbCircle
 10
-17.33510796477615
 20
-1.140050247655115
 30
0.0
 40
5.018211731598907
100
AcDbArc
 50
147.8426201109194
 51
153.6013277657084
  0
LINE
  5
5D8
330
18
100
AcDbEntity
  8
SK1
100
AcDbLine
 10
-21.58362
 20
1.9304
 30
0.0
 11
-21.58362
 21
1.530969065657436
 31
0.0
  0
LINE
  5
5D9
330
18
100
AcDbEntity
  8
SK1
100
AcDbLine
 10
-21.83
 20
1.9304
 30
0.0
 11
-21.58362
 21
1.9304
 31
0.0
  0
LINE
  5
5DA
330
18
100
AcDbEntity
  8
SK1
100
AcDbLine
 10
-15.48
 20
2.4638
 30
0.0
 11
-15.48
 21
2.463688040471342
 31
0.0
  0
LINE
  5
5DB
330
18
100
AcDbEntity
  8
SK1
100
AcDbLine
 10
-15.48
 20
2.463688040471342
 30
0.0
 11
-15.48
 21
2.429537364742413
 31
0.0
  0
LINE
  5
5DC
330
18
100
AcDbEntity
  8
SK1
100
AcDbLine
 10
-15.48
 20
2.429537364742413
 30
0.0
 11
-15.48
 21
1.9304
 31
0.0
  0
LINE
  5
5DD
330
18
100
AcDbEntity
  8
SK1
100
AcDbLine
 10
-21.58362
 20
-1.530969065657434
 30
0.0
 11
-21.58362
 21
-1.9304
 31
0.0
  0
LINE
  5
5DE
330
18
100
AcDbEntity
  8
SK1
100
AcDbLine
 10
-21.58362
 20
-1.9304
 30
0.0
 11
-15.48
 21
-1.9304
 31
0.0
  0
LINE
  5
5DF
330
18
100
AcDbEntity
  8
SK1
100
AcDbLine
 10
-21.82999999999999
 20
1.091103705611892
 30
0.0
 11
-21.83
 21
-1.091103705611891
 31
0.0
  0
LINE
  5
5E0
330
18
100
AcDbEntity
  8
SK1
100
AcDbLine
 10
-21.83
 20
1.9304
 30
0.0
 11
-21.83
 21
1.091103705611892
 31
0.0
  0
LINE
  5
5E1
330
18
100
AcDbEntity
  8
SK1
100
AcDbLine
 10
-21.83
 20
-1.091103705611891
 30
0.0
 11
-21.83000000000001
 21
-1.9304
 31
0.0
  0
ARC
  5
5E2
330
18
100
AcDbEntity
  8
SK1
100
AcDbCircle
 10
-17.3351079647714
 20
1.140050247657796
 30
0.0
 40
5.018211731604358
100
AcDbArc
 50
206.3986722342949
 51
212.1573798890776
  0
LINE
  5
5E3
330
18
100
AcDbEntity
  8
SK1
100
AcDbLine
 10
-21.83000000000001
 20
-1.9304
 30
0.0
 11
-21.58362
 21
-1.9304
 31
0.0
  0
LINE
  5
5E4
330
18
100
AcDbEntity
  8
SK1
100
AcDbLine
 10
-15.48
 20
1.53096906565758
 30
0.0
 11
-15.48
 21
-1.530969065657577
 31
0.0
  0
LINE
  5
5E5
330
18
100
AcDbEntity
  8
SK1
100
AcDbLine
 10
-21.58362
 20
-1.530969065657435
 30
0.0
 11
-15.48
 21
-1.530969065657435
 31
0.0
  0
LINE
  5
5E6
330
18
100
AcDbEntity
  8
SK1
100
AcDbLine
 10
-15.48
 20
-2.4638
 30
0.0
 11
0.0000000000000027
 21
-2.4638
 31
0.0
  0
DIMENSION
  5
5E7
330
18
100
AcDbEntity
  8
2
100
AcDbDimension
  2
*D0
 10
63.60000000000002
 20
-2.412999999999947
 30
0.0
 11
60.60725000000009
 21
-23.15099999999996
 31
0.0
 70
    32
  1
UNC#10-24
 71
     5
 42
4.826
  3
STANDARD
100
AcDbAlignedDimension
 13
48.6
 23
2.413
 33
0.0
 14
48.6
 24
-2.413
 34
0.0
 50
90.0000000000002
100
AcDbRotatedDimension
  0
DIMENSION
  5
5F5
330
18
100
AcDbEntity
  8
2
100
AcDbDimension
  2
*D1
 10
48.6
 20
75.0
 30
0.0
 11
24.3
 21
77.438
 31
0.0
 70
    32
  1
<>
 71
     5
 42
48.6
  3
STANDARD
100
AcDbAlignedDimension
 13
0.0
 23
0.0
 33
0.0
 14
48.6
 24
0.0
 34
0.0
100
AcDbRotatedDimension
  0
DIMENSION
  5
602
330
18
100
AcDbEntity
  8
SK2
100
AcDbDimension
  2
*D2
 10
-36.82999999998742
 20
-2.463800000108958
 30
0.0
 11
-39.26799999992254
 21
-15.1780500001214
 31
0.0
 70
    32
  1
%%c<>
 71
     5
 42
4.9276
  3
STANDARD
100
AcDbAlignedDimension
 13
-15.48
 23
2.4638
 33
0.0
 14
-15.48
 24
-2.4638
 34
0.0
 50
90.0000000002924
100
AcDbRotatedDimension
  0
DIMENSION
  5
610
330
18
100
AcDbEntity
  8
2
100
AcDbDimension
  2
*D3
 10
48.6
 20
60.0
 30
0.0
 11
41.13840846
 21
62.438
 31
0.0
 70
    32
  1
<>
 71
     5
 42
14.92318308
  3
STANDARD
100
AcDbAlignedDimension
 13
33.67681692
 23
1.88
 33
0.0
 14
48.6
 24
2.413
 34
0.0
100
AcDbRotatedDimension
  0
DIMENSION
  5
61D
330
18
100
AcDbEntity
  8
SK2
100
AcDbDimension
  2
*D4
 10
50.37
 20
90.0
 30
0.0
 11
14.27
 21
92.39775
 31
0.0
 70
    32
  1
<>
 71
     5
 42
72.2
  3
STANDARD
100
AcDbAlignedDimension
 13
-21.83
 23
2.413
 33
0.0
 14
50.37
 24
2.413
 34
0.0
100
AcDbRotatedDimension
  0
ENDSEC
  0
SECTION
  2
OBJECTS
  0
DICTIONARY
  5
C
330
0
100
AcDbDictionary
281
     1
  3
ACAD_COLOR
350
387
  3
ACAD_GROUP
350
D
  3
ACAD_LAYOUT
350
301
  3
ACAD_MATERIAL
350
386
  3
ACAD_MLEADERSTYLE
350
62A
  3
ACAD_MLINESTYLE
350
E
  3
ACAD_PLOTSETTINGS
350
302
  3
ACAD_PLOTSTYLENAME
350
2FF
  3
ACAD_SCALELIST
350
3A0
  3
ACAD_TABLESTYLE
350
388
  3
ACAD_VISUALSTYLE
350
3C5
  3
ACDBHEADERROUNDTRIPXREC
350
62B
  3
AcDbVariableDictionary
350
357
  0
DICTIONARY
  5
387
102
{ACAD_REACTORS
330
C
102
}
330
C
100
AcDbDictionary
281
     1
  0
DICTIONARY
  5
D
102
{ACAD_REACTORS
330
C
102
}
330
C
100
AcDbDictionary
281
     1
  0
DICTIONARY
  5
301
102
{ACAD_REACTORS
330
C
102
}
330
C
100
AcDbDictionary
281
     1
  3
Layout1
350
33B
  3
Model
350
303
  0
DICTIONARY
  5
386
102
{ACAD_REACTORS
330
C
102
}
330
C
100
AcDbDictionary
281
     1
  3
ByBlock
350
3C3
  3
ByLayer
350
3C2
  3
Global
350
3C4
  0
DICTIONARY
  5
62A
102
{ACAD_REACTORS
330
C
102
}
330
C
100
AcDbDictionary
281
     1
  0
DICTIONARY
  5
E
102
{ACAD_REACTORS
330
C
102
}
330
C
100
AcDbDictionary
281
     1
  3
STANDARD
350
1B
  0
DICTIONARY
  5
302
102
{ACAD_REACTORS
330
C
102
}
330
C
100
AcDbDictionary
281
     1
  0
ACDBDICTIONARYWDFLT
  5
2FF
102
{ACAD_REACTORS
330
C
102
}
330
C
100
AcDbDictionary
281
     1
  3
Normal
350
300
100
AcDbDictionaryWithDefault
340
300
  0
DICTIONARY
  5
3A0
102
{ACAD_REACTORS
330
C
102
}
330
C
100
AcDbDictionary
281
     1
  3
A0
350
3A1
  3
A1
350
3A2
  3
A2
350
3A3
  3
A3
350
3A4
  3
A4
350
3A5
  3
A5
350
3A6
  3
A6
350
3A7
  3
A7
350
3A8
  3
A8
350
3A9
  3
A9
350
3AA
  3
B0
350
3AB
  3
B1
350
3AC
  3
B2
350
3AD
  3
B3
350
3AE
  3
B4
350
3AF
  3
B5
350
3B0
  3
B6
350
3B1
  3
B7
350
3B2
  3
B8
350
3B3
  3
B9
350
3B4
  3
C0
350
3B5
  3
C1
350
3B6
  3
C2
350
3B7
  3
C3
350
3B8
  3
C4
350
3B9
  3
C5
350
3BA
  3
C6
350
3BB
  3
C7
350
3BC
  3
C8
350
3BD
  3
C9
350
3BE
  3
D0
350
3BF
  3
D1
350
3C0
  3
D2
350
3C1
  0
DICTIONARY
  5
388
102
{ACAD_REACTORS
330
C
102
}
330
C
100
AcDbDictionary
281
     1
  3
Standard
350
389
  0
DICTIONARY
  5
3C5
102
{ACAD_REACTORS
330
C
102
}
330
C
100
AcDbDictionary
281
     1
  3
2dWireframe
350
3CA
  3
3D Hidden
350
3CC
  3
3dWireframe
350
3CB
  3
Basic
350
3CD
  3
Brighten
350
3D1
  3
ColorChange
350
3D5
  3
Conceptual
350
3CF
  3
Dim
350
3D0
  3
Facepattern
350
3D4
  3
Flat
350
3C6
  3
FlatWithEdges
350
3C7
  3
Gouraud
350
3C8
  3
GouraudWithEdges
350
3C9
  3
Linepattern
350
3D3
  3
Realistic
350
3CE
  3
Thicken
350
3D2
  0
DICTIONARY
  5
62B
102
{ACAD_REACTORS
330
C
102
}
330
C
100
AcDbDictionary
281
     1
  3
COLORDICT
350
62C
  3
MATERIALDICT
350
62D
  0
DICTIONARY
  5
357
102
{ACAD_REACTORS
330
C
102
}
330
C
100
AcDbDictionary
281
     1
  3
CANNOSCALE
350
62E
  3
CTABLESTYLE
350
38D
  3
DIMASSOC
350
359
  3
HIDETEXT
350
358
  3
PROJECTNAME
350
38E
  0
LAYOUT
  5
33B
102
{ACAD_REACTORS
330
301
102
}
330
301
100
AcDbPlotSettings
  1

  2
Lexmark Optra PS2
  4

  6

 40
0.0
 41
0.0
 42
0.0
 43
0.0
 44
0.0
 45
0.0
 46
0.0
 47
0.0
 48
0.0
 49
0.0
140
0.0
141
0.0
142
1.0
143
1.0
 70
   688
 72
     0
 73
     0
 74
     5
  7
monochrome.ctb
 75
    16
147
1.0
148
0.0
149
0.0
100
AcDbLayout
  1
Layout1
 70
     1
 71
     1
 10
0.0
 20
0.0
 11
12.0
 21
9.0
 12
0.0
 22
0.0
 32
0.0
 14
0.0
 24
0.0
 34
0.0
 15
0.0
 25
0.0
 35
0.0
146
0.0
 13
0.0
 23
0.0
 33
0.0
 16
1.0
 26
0.0
 36
0.0
 17
0.0
 27
1.0
 37
0.0
 76
     0
330
338
  0
LAYOUT
  5
303
102
{ACAD_REACTORS
330
301
102
}
330
301
100
AcDbPlotSettings
  1

  2
Lexmark Optra Rx
  4
A4
  6

 40
6.805083274841307
 41
5.535083293914794
 42
6.974411010742187
 43
7.14373779296875
 44
209.9733276367186
 45
296.9259948730469
 46
0.0
 47
0.0
 48
0.0
 49
0.0
140
0.0
141
0.0
142
1.0
143
2.976565420630886
 70
 11952
 72
     1
 73
     1
 74
     0
  7
monochrome.ctb
 75
     0
147
0.335957675604539
148
204.1199660668592
149
172.3933209647495
100
AcDbLayout
  1
Model
 70
     1
 71
     0
 10
0.0
 20
0.0
 11
12.0
 21
9.0
 12
0.0
 22
0.0
 32
0.0
 14
0.0
 24
0.0
 34
0.0
 15
0.0
 25
0.0
 35
0.0
146
0.0
 13
0.0
 23
0.0
 33
0.0
 16
1.0
 26
0.0
 36
0.0
 17
0.0
 27
1.0
 37
0.0
 76
     0
330
18
331
39A
  0
MATERIAL
  5
3C3
102
{ACAD_REACTORS
330
386
102
}
102
{ACAD_XDICTIONARY
360
631
102
}
330
386
100
AcDbMaterial
  1
ByBlock
  0
MATERIAL
  5
3C2
102
{ACAD_REACTORS
330
386
102
}
102
{ACAD_XDICTIONARY
360
62F
102
}
330
386
100
AcDbMaterial
  1
ByLayer
  0
MATERIAL
  5
3C4
102
{ACAD_REACTORS
330
386
102
}
102
{ACAD_XDICTIONARY
360
633
102
}
330
386
100
AcDbMaterial
  1
Global
  0
MLINESTYLE
  5
1B
102
{ACAD_REACTORS
330
E
102
}
330
E
100
AcDbMlineStyle
  2
STANDARD
 70
     0
  3

 62
     0
 51
90.0
 52
90.0
 71
     2
 49
0.5
 62
   256
  6
BYLAYER
 49
-0.5
 62
   256
  6
BYLAYER
  0
ACDBPLACEHOLDER
  5
300
102
{ACAD_REACTORS
330
2FF
102
}
330
2FF
  0
SCALE
  5
3A1
102
{ACAD_REACTORS
330
3A0
102
}
330
3A0
100
AcDbScale
 70
     0
300
1:1
140
1.0
141
1.0
290
     1
  0
SCALE
  5
3A2
102
{ACAD_REACTORS
330
3A0
102
}
330
3A0
100
AcDbScale
 70
     0
300
1:2
140
1.0
141
2.0
290
     0
  0
SCALE
  5
3A3
102
{ACAD_REACTORS
330
3A0
102
}
330
3A0
100
AcDbScale
 70
     0
300
1:4
140
1.0
141
4.0
290
     0
  0
SCALE
  5
3A4
102
{ACAD_REACTORS
330
3A0
102
}
330
3A0
100
AcDbScale
 70
     0
300
1:5
140
1.0
141
5.0
290
     0
  0
SCALE
  5
3A5
102
{ACAD_REACTORS
330
3A0
102
}
330
3A0
100
AcDbScale
 70
     0
300
1:8
140
1.0
141
8.0
290
     0
  0
SCALE
  5
3A6
102
{ACAD_REACTORS
330
3A0
102
}
330
3A0
100
AcDbScale
 70
     0
300
1:10
140
1.0
141
10.0
290
     0
  0
SCALE
  5
3A7
102
{ACAD_REACTORS
330
3A0
102
}
330
3A0
100
AcDbScale
 70
     0
300
1:16
140
1.0
141
16.0
290
     0
  0
SCALE
  5
3A8
102
{ACAD_REACTORS
330
3A0
102
}
330
3A0
100
AcDbScale
 70
     0
300
1:20
140
1.0
141
20.0
290
     0
  0
SCALE
  5
3A9
102
{ACAD_REACTORS
330
3A0
102
}
330
3A0
100
AcDbScale
 70
     0
300
1:30
140
1.0
141
30.0
290
     0
  0
SCALE
  5
3AA
102
{ACAD_REACTORS
330
3A0
102
}
330
3A0
100
AcDbScale
 70
     0
300
1:40
140
1.0
141
40.0
290
     0
  0
SCALE
  5
3AB
102
{ACAD_REACTORS
330
3A0
102
}
330
3A0
100
AcDbScale
 70
     0
300
1:50
140
1.0
141
50.0
290
     0
  0
SCALE
  5
3AC
102
{ACAD_REACTORS
330
3A0
102
}
330
3A0
100
AcDbScale
 70
     0
300
1:100
140
1.0
141
100.0
290
     0
  0
SCALE
  5
3AD
102
{ACAD_REACTORS
330
3A0
102
}
330
3A0
100
AcDbScale
 70
     0
300
2:1
140
2.0
141
1.0
290
     0
  0
SCALE
  5
3AE
102
{ACAD_REACTORS
330
3A0
102
}
330
3A0
100
AcDbScale
 70
     0
300
4:1
140
4.0
141
1.0
290
     0
  0
SCALE
  5
3AF
102
{ACAD_REACTORS
330
3A0
102
}
330
3A0
100
AcDbScale
 70
     0
300
8:1
140
8.0
141
1.0
290
     0
  0
SCALE
  5
3B0
102
{ACAD_REACTORS
330
3A0
102
}
330
3A0
100
AcDbScale
 70
     0
300
10:1
140
10.0
141
1.0
290
     0
  0
SCALE
  5
3B1
102
{ACAD_REACTORS
330
3A0
102
}
330
3A0
100
AcDbScale
 70
     0
300
100:1
140
100.0
141
1.0
290
     0
  0
SCALE
  5
3B2
102
{ACAD_REACTORS
330
3A0
102
}
330
3A0
100
AcDbScale
 70
     0
300
1/128" = 1'-0"
140
0.0078125
141
12.0
290
     0
  0
SCALE
  5
3B3
102
{ACAD_REACTORS
330
3A0
102
}
330
3A0
100
AcDbScale
 70
     0
300
1/64" = 1'-0"
140
0.015625
141
12.0
290
     0
  0
SCALE
  5
3B4
102
{ACAD_REACTORS
330
3A0
102
}
330
3A0
100
AcDbScale
 70
     0
300
1/32" = 1'-0"
140
0.03125
141
12.0
290
     0
  0
SCALE
  5
3B5
102
{ACAD_REACTORS
330
3A0
102
}
330
3A0
100
AcDbScale
 70
     0
300
1/16" = 1'-0"
140
0.0625
141
12.0
290
     0
  0
SCALE
  5
3B6
102
{ACAD_REACTORS
330
3A0
102
}
330
3A0
100
AcDbScale
 70
     0
300
3/32" = 1'-0"
140
0.09375
141
12.0
290
     0
  0
SCALE
  5
3B7
102
{ACAD_REACTORS
330
3A0
102
}
330
3A0
100
AcDbScale
 70
     0
300
1/8" = 1'-0"
140
0.125
141
12.0
290
     0
  0
SCALE
  5
3B8
102
{ACAD_REACTORS
330
3A0
102
}
330
3A0
100
AcDbScale
 70
     0
300
3/16" = 1'-0"
140
0.1875
141
12.0
290
     0
  0
SCALE
  5
3B9
102
{ACAD_REACTORS
330
3A0
102
}
330
3A0
100
AcDbScale
 70
     0
300
1/4" = 1'-0"
140
0.25
141
12.0
290
     0
  0
SCALE
  5
3BA
102
{ACAD_REACTORS
330
3A0
102
}
330
3A0
100
AcDbScale
 70
     0
300
3/8" = 1'-0"
140
0.375
141
12.0
290
     0
  0
SCALE
  5
3BB
102
{ACAD_REACTORS
330
3A0
102
}
330
3A0
100
AcDbScale
 70
     0
300
1/2" = 1'-0"
140
0.5
141
12.0
290
     0
  0
SCALE
  5
3BC
102
{ACAD_REACTORS
330
3A0
102
}
330
3A0
100
AcDbScale
 70
     0
300
3/4" = 1'-0"
140
0.75
141
12.0
290
     0
  0
SCALE
  5
3BD
102
{ACAD_REACTORS
330
3A0
102
}
330
3A0
100
AcDbScale
 70
     0
300
1" = 1'-0"
140
1.0
141
12.0
290
     0
  0
SCALE
  5
3BE
102
{ACAD_REACTORS
330
3A0
102
}
330
3A0
100
AcDbScale
 70
     0
300
1-1/2" = 1'-0"
140
1.5
141
12.0
290
     0
  0
SCALE
  5
3BF
102
{ACAD_REACTORS
330
3A0
102
}
330
3A0
100
AcDbScale
 70
     0
300
3" = 1'-0"
140
3.0
141
12.0
290
     0
  0
SCALE
  5
3C0
102
{ACAD_REACTORS
330
3A0
102
}
330
3A0
100
AcDbScale
 70
     0
300
6" = 1'-0"
140
6.0
141
12.0
290
     0
  0
SCALE
  5
3C1
102
{ACAD_REACTORS
330
3A0
102
}
330
3A0
100
AcDbScale
 70
     0
300
1'-0" = 1'-0"
140
12.0
141
12.0
290
     0
  0
TABLESTYLE
  5
389
102
{ACAD_REACTORS
330
388
102
}
330
388
100
AcDbTableStyle
  3
Standard
 70
     0
 71
     0
 40
1.5
 41
1.5
280
     0
281
     0
  7
STANDARD
140
4.5
170
     2
 62
     0
 63
   257
283
     0
274
    -2
284
     1
 64
     0
275
    -2
285
     1
 65
     0
276
    -2
286
     1
 66
     0
277
    -2
287
     1
 67
     0
278
    -2
288
     1
 68
     0
279
    -2
289
     1
 69
     0
  7
STANDARD
140
6.0
170
     5
 62
     0
 63
   257
283
     0
274
    -2
284
     1
 64
     0
275
    -2
285
     1
 65
     0
276
    -2
286
     1
 66
     0
277
    -2
287
     1
 67
     0
278
    -2
288
     1
 68
     0
279
    -2
289
     1
 69
     0
  7
STANDARD
140
4.5
170
     5
 62
     0
 63
   257
283
     0
274
    -2
284
     1
 64
     0
275
    -2
285
     1
 65
     0
276
    -2
286
     1
 66
     0
277
    -2
287
     1
 67
     0
278
    -2
288
     1
 68
     0
279
    -2
289
     1
 69
     0
  0
VISUALSTYLE
  5
3CA
102
{ACAD_REACTORS
330
3C5
102
}
102
{ACAD_XDICTIONARY
360
63D
102
}
330
3C5
100
AcDbVisualStyle
  2
2dWireframe
 70
     4
 71
     0
 72
     2
 73
     0
 90
        0
 40
-0.6
 41
-30.0
 62
     5
 63
     7
 74
     1
 91
        4
 64
     7
 65
   257
 75
     1
175
     1
 42
1.0
 92
        0
 66
   257
 43
1.0
 76
     1
 77
     6
 78
     2
 67
     7
 79
     5
170
     0
171
     0
290
     0
174
     0
 93
        1
 44
0.0
173
     0
291
     0
 45
0.0
1001
ACAD
1000
AcDbSavedByObjectVersion
1070
     0
  0
VISUALSTYLE
  5
3CC
102
{ACAD_REACTORS
330
3C5
102
}
102
{ACAD_XDICTIONARY
360
641
102
}
330
3C5
100
AcDbVisualStyle
  2
3D Hidden
 70
     6
 71
     1
 72
     2
 73
     2
 90
        0
 40
-0.6
 41
-30.0
 62
     5
 63
     7
 74
     2
 91
        2
 64
     7
 65
   257
 75
     2
175
     1
 42
40.0
 92
        0
 66
   257
 43
1.0
 76
     1
 77
     6
 78
     2
 67
     7
 79
     3
170
     0
171
     0
290
     0
174
     0
 93
        1
 44
0.0
173
     0
291
     0
 45
0.0
1001
ACAD
1000
AcDbSavedByObjectVersion
1070
     0
  0
VISUALSTYLE
  5
3CB
102
{ACAD_REACTORS
330
3C5
102
}
102
{ACAD_XDICTIONARY
360
63F
102
}
330
3C5
100
AcDbVisualStyle
  2
3dWireframe
 70
     5
 71
     0
 72
     2
 73
     0
 90
        0
 40
-0.6
 41
-30.0
 62
     5
 63
     7
 74
     1
 91
        4
 64
     7
 65
   257
 75
     1
175
     1
 42
1.0
 92
        0
 66
   257
 43
1.0
 76
     1
 77
     6
 78
     2
 67
     7
 79
     5
170
     0
171
     0
290
     0
174
     0
 93
        1
 44
0.0
173
     0
291
     0
 45
0.0
1001
ACAD
1000
AcDbSavedByObjectVersion
1070
     0
  0
VISUALSTYLE
  5
3CD
102
{ACAD_REACTORS
330
3C5
102
}
102
{ACAD_XDICTIONARY
360
643
102
}
330
3C5
100
AcDbVisualStyle
  2
Basic
 70
     7
 71
     1
 72
     0
 73
     1
 90
        0
 40
-0.6
 41
-30.0
 62
     5
 63
     7
 74
     0
 91
        4
 64
     7
 65
   257
 75
     1
175
     1
 42
1.0
 92
        8
 66
     7
 43
1.0
 76
     1
 77
     6
 78
     2
 67
     7
 79
     5
170
     0
171
     0
290
     0
174
     0
 93
        1
 44
0.0
173
     0
291
     1
 45
0.0
1001
ACAD
1000
AcDbSavedByObjectVersion
1070
     0
  0
VISUALSTYLE
  5
3D1
102
{ACAD_REACTORS
330
3C5
102
}
102
{ACAD_XDICTIONARY
360
64B
102
}
330
3C5
100
AcDbVisualStyle
  2
Brighten
 70
    12
 71
     2
 72
     2
 73
     0
 90
        0
 40
-0.6
 41
-30.0
 62
     5
 63
     7
 74
     1
 91
        4
 64
     7
 65
   257
 75
     1
175
     1
 42
1.0
 92
        8
 66
     7
 43
1.0
 76
     1
 77
     6
 78
     2
 67
     7
 79
     5
170
     0
171
     0
290
     0
174
     0
 93
        1
 44
50.0
173
     0
291
     1
 45
0.0
1001
ACAD
1000
AcDbSavedByObjectVersion
1070
     0
  0
VISUALSTYLE
  5
3D5
102
{ACAD_REACTORS
330
3C5
102
}
102
{ACAD_XDICTIONARY
360
653
102
}
330
3C5
100
AcDbVisualStyle
  2
ColorChange
 70
    16
 71
     2
 72
     2
 73
     3
 90
        0
 40
-0.6
 41
-30.0
 62
     5
 63
     8
 74
     1
 91
        4
 64
     7
 65
   257
 75
     1
175
     1
 42
1.0
 92
        8
 66
     8
 43
1.0
 76
     1
 77
     6
 78
     2
 67
     7
 79
     5
170
     0
171
     0
290
     0
174
     0
 93
        1
 44
0.0
173
     0
291
     1
 45
0.0
1001
ACAD
1000
AcDbSavedByObjectVersion
1070
     0
  0
VISUALSTYLE
  5
3CF
102
{ACAD_REACTORS
330
3C5
102
}
102
{ACAD_XDICTIONARY
360
647
102
}
330
3C5
100
AcDbVisualStyle
  2
Conceptual
 70
     9
 71
     3
 72
     2
 73
     0
 90
        0
 40
-0.6
 41
-30.0
 62
     5
 63
     7
 74
     2
 91
        2
 64
     7
 65
   257
 75
     1
175
     1
 42
40.0
 92
        8
 66
     7
 43
1.0
 76
     1
 77
     6
 78
     2
 67
     7
 79
     3
170
     0
171
     0
290
     0
174
     0
 93
        1
 44
0.0
173
     0
291
     0
 45
0.0
1001
ACAD
1000
AcDbSavedByObjectVersion
1070
     0
  0
VISUALSTYLE
  5
3D0
102
{ACAD_REACTORS
330
3C5
102
}
102
{ACAD_XDICTIONARY
360
649
102
}
330
3C5
100
AcDbVisualStyle
  2
Dim
 70
    11
 71
     2
 72
     2
 73
     0
 90
        0
 40
-0.6
 41
-30.0
 62
     5
 63
     7
 74
     1
 91
        4
 64
     7
 65
   257
 75
     1
175
     1
 42
1.0
 92
        8
 66
     7
 43
1.0
 76
     1
 77
     6
 78
     2
 67
     7
 79
     5
170
     0
171
     0
290
     0
174
     0
 93
        1
 44
-50.0
173
     0
291
     1
 45
0.0
1001
ACAD
1000
AcDbSavedByObjectVersion
1070
     0
  0
VISUALSTYLE
  5
3D4
102
{ACAD_REACTORS
330
3C5
102
}
102
{ACAD_XDICTIONARY
360
651
102
}
330
3C5
100
AcDbVisualStyle
  2
Facepattern
 70
    15
 71
     2
 72
     2
 73
     0
 90
        0
 40
-0.6
 41
-30.0
 62
     5
 63
     7
 74
     1
 91
        4
 64
     7
 65
   257
 75
     1
175
     1
 42
1.0
 92
        8
 66
     7
 43
1.0
 76
     1
 77
     6
 78
     2
 67
     7
 79
     5
170
     0
171
     0
290
     0
174
     0
 93
        1
 44
0.0
173
     0
291
     1
 45
0.0
1001
ACAD
1000
AcDbSavedByObjectVersion
1070
     0
  0
VISUALSTYLE
  5
3C6
102
{ACAD_REACTORS
330
3C5
102
}
102
{ACAD_XDICTIONARY
360
635
102
}
330
3C5
100
AcDbVisualStyle
  2
Flat
 70
     0
 71
     2
 72
     1
 73
     1
 90
        2
 40
-0.6
 41
30.0
 62
     5
 63
     7
 74
     0
 91
        4
 64
     7
 65
   257
 75
     1
175
     1
 42
1.0
 92
        8
 66
     7
 43
1.0
 76
     1
 77
     6
 78
     2
 67
     7
 79
     5
170
     0
171
     0
290
     0
174
     0
 93
       13
 44
0.0
173
     0
291
     1
 45
0.0
1001
ACAD
1000
AcDbSavedByObjectVersion
1070
     0
  0
VISUALSTYLE
  5
3C7
102
{ACAD_REACTORS
330
3C5
102
}
102
{ACAD_XDICTIONARY
360
637
102
}
330
3C5
100
AcDbVisualStyle
  2
FlatWithEdges
 70
     1
 71
     2
 72
     1
 73
     1
 90
        2
 40
-0.6
 41
30.0
 62
     5
 63
     7
 74
     1
 91
        4
 64
     7
 65
   257
 75
     1
175
     1
 42
1.0
 92
        0
 66
   257
 43
1.0
 76
     1
 77
     6
 78
     2
 67
     7
 79
     5
170
     0
171
     0
290
     0
174
     0
 93
       13
 44
0.0
173
     0
291
     1
 45
0.0
1001
ACAD
1000
AcDbSavedByObjectVersion
1070
     0
  0
VISUALSTYLE
  5
3C8
102
{ACAD_REACTORS
330
3C5
102
}
102
{ACAD_XDICTIONARY
360
639
102
}
330
3C5
100
AcDbVisualStyle
  2
Gouraud
 70
     2
 71
     2
 72
     2
 73
     1
 90
        2
 40
-0.6
 41
30.0
 62
     5
 63
     7
 74
     0
 91
        4
 64
     7
 65
   257
 75
     1
175
     1
 42
1.0
 92
        0
 66
     7
 43
1.0
 76
     1
 77
     6
 78
     2
 67
     7
 79
     5
170
     0
171
     0
290
     0
174
     0
 93
       13
 44
0.0
173
     0
291
     1
 45
0.0
1001
ACAD
1000
AcDbSavedByObjectVersion
1070
     0
  0
VISUALSTYLE
  5
3C9
102
{ACAD_REACTORS
330
3C5
102
}
102
{ACAD_XDICTIONARY
360
63B
102
}
330
3C5
100
AcDbVisualStyle
  2
GouraudWithEdges
 70
     3
 71
     2
 72
     2
 73
     1
 90
        2
 40
-0.6
 41
30.0
 62
     5
 63
     7
 74
     1
 91
        4
 64
     7
 65
   257
 75
     1
175
     1
 42
1.0
 92
        0
 66
   257
 43
1.0
 76
     1
 77
     6
 78
     2
 67
     7
 79
     5
170
     0
171
     0
290
     0
174
     0
 93
       13
 44
0.0
173
     0
291
     1
 45
0.0
1001
ACAD
1000
AcDbSavedByObjectVersion
1070
     0
  0
VISUALSTYLE
  5
3D3
102
{ACAD_REACTORS
330
3C5
102
}
102
{ACAD_XDICTIONARY
360
64F
102
}
330
3C5
100
AcDbVisualStyle
  2
Linepattern
 70
    14
 71
     2
 72
     2
 73
     0
 90
        0
 40
-0.6
 41
-30.0
 62
     5
 63
     7
 74
     1
 91
        4
 64
     7
 65
   257
 75
     7
175
     7
 42
1.0
 92
        8
 66
     7
 43
1.0
 76
     1
 77
     6
 78
     2
 67
     7
 79
     5
170
     0
171
     0
290
     0
174
     0
 93
        1
 44
0.0
173
     0
291
     1
 45
0.0
1001
ACAD
1000
AcDbSavedByObjectVersion
1070
     0
  0
VISUALSTYLE
  5
3CE
102
{ACAD_REACTORS
330
3C5
102
}
102
{ACAD_XDICTIONARY
360
645
102
}
330
3C5
100
AcDbVisualStyle
  2
Realistic
 70
     8
 71
     2
 72
     2
 73
     0
 90
        0
 40
-0.6
 41
-30.0
 62
     5
 63
     7
 74
     1
 91
        0
 64
     7
 65
   257
 75
     1
175
     1
 42
1.0
 92
        8
 66
     8
 43
1.0
 76
     1
 77
     6
 78
     2
 67
     7
 79
     5
170
     0
171
     0
290
     0
174
     0
 93
       13
 44
0.0
173
     0
291
     0
 45
0.0
1001
ACAD
1000
AcDbSavedByObjectVersion
1070
     0
  0
VISUALSTYLE
  5
3D2
102
{ACAD_REACTORS
330
3C5
102
}
102
{ACAD_XDICTIONARY
360
64D
102
}
330
3C5
100
AcDbVisualStyle
  2
Thicken
 70
    13
 71
     2
 72
     2
 73
     0
 90
        0
 40
-0.6
 41
-30.0
 62
     5
 63
     7
 74
     1
 91
        4
 64
     7
 65
   257
 75
     1
175
     1
 42
1.0
 92
       12
 66
     7
 43
1.0
 76
     1
 77
     6
 78
     2
 67
     7
 79
     5
170
     0
171
     0
290
     0
174
     0
 93
        1
 44
0.0
173
     0
291
     1
 45
0.0
1001
ACAD
1000
AcDbSavedByObjectVersion
1070
     0
  0
XRECORD
  5
62C
102
{ACAD_REACTORS
330
62B
102
}
330
62B
100
AcDbXrecord
280
     1
340
387
  0
XRECORD
  5
62D
102
{ACAD_REACTORS
330
62B
102
}
330
62B
100
AcDbXrecord
280
     1
340
386
  0
DICTIONARYVAR
  5
62E
102
{ACAD_REACTORS
330
357
102
}
330
357
100
DictionaryVariables
280
     0
  1
1:1
  0
DICTIONARYVAR
  5
38D
102
{ACAD_REACTORS
330
357
102
}
330
357
100
DictionaryVariables
280
     0
  1
Standard
  0
DICTIONARYVAR
  5
359
102
{ACAD_REACTORS
330
357
102
}
330
357
100
DictionaryVariables
280
     0
  1
2
  0
DICTIONARYVAR
  5
358
102
{ACAD_REACTORS
330
357
102
}
330
357
100
DictionaryVariables
280
     0
  1
1
  0
DICTIONARYVAR
  5
38E
102
{ACAD_REACTORS
330
357
102
}
330
357
100
DictionaryVariables
280
     0
  1

  0
DICTIONARY
  5
631
330
3C3
100
AcDbDictionary
280
     1
281
     1
  3
ACAD_XREC_ROUNDTRIP
360
632
  0
DICTIONARY
  5
62F
330
3C2
100
AcDbDictionary
280
     1
281
     1
  3
ACAD_XREC_ROUNDTRIP
360
630
  0
DICTIONARY
  5
633
330
3C4
100
AcDbDictionary
280
     1
281
     1
  3
ACAD_XREC_ROUNDTRIP
360
634
  0
DICTIONARY
  5
63D
330
3CA
100
AcDbDictionary
280
     1
281
     1
  3
ACAD_XREC_ROUNDTRIP
360
63E
  0
DICTIONARY
  5
641
330
3CC
100
AcDbDictionary
280
     1
281
     1
  3
ACAD_XREC_ROUNDTRIP
360
642
  0
DICTIONARY
  5
63F
330
3CB
100
AcDbDictionary
280
     1
281
     1
  3
ACAD_XREC_ROUNDTRIP
360
640
  0
DICTIONARY
  5
643
330
3CD
100
AcDbDictionary
280
     1
281
     1
  3
ACAD_XREC_ROUNDTRIP
360
644
  0
DICTIONARY
  5
64B
330
3D1
100
AcDbDictionary
280
     1
281
     1
  3
ACAD_XREC_ROUNDTRIP
360
64C
  0
DICTIONARY
  5
653
330
3D5
100
AcDbDictionary
280
     1
281
     1
  3
ACAD_XREC_ROUNDTRIP
360
654
  0
DICTIONARY
  5
647
330
3CF
100
AcDbDictionary
280
     1
281
     1
  3
ACAD_XREC_ROUNDTRIP
360
648
  0
DICTIONARY
  5
649
330
3D0
100
AcDbDictionary
280
     1
281
     1
  3
ACAD_XREC_ROUNDTRIP
360
64A
  0
DICTIONARY
  5
651
330
3D4
100
AcDbDictionary
280
     1
281
     1
  3
ACAD_XREC_ROUNDTRIP
360
652
  0
DICTIONARY
  5
635
330
3C6
100
AcDbDictionary
280
     1
281
     1
  3
ACAD_XREC_ROUNDTRIP
360
636
  0
DICTIONARY
  5
637
330
3C7
100
AcDbDictionary
280
     1
281
     1
  3
ACAD_XREC_ROUNDTRIP
360
638
  0
DICTIONARY
  5
639
330
3C8
100
AcDbDictionary
280
     1
281
     1
  3
ACAD_XREC_ROUNDTRIP
360
63A
  0
DICTIONARY
  5
63B
330
3C9
100
AcDbDictionary
280
     1
281
     1
  3
ACAD_XREC_ROUNDTRIP
360
63C
  0
DICTIONARY
  5
64F
330
3D3
100
AcDbDictionary
280
     1
281
     1
  3
ACAD_XREC_ROUNDTRIP
360
650
  0
DICTIONARY
  5
645
330
3CE
100
AcDbDictionary
280
     1
281
     1
  3
ACAD_XREC_ROUNDTRIP
360
646
  0
DICTIONARY
  5
64D
330
3D2
100
AcDbDictionary
280
     1
281
     1
  3
ACAD_XREC_ROUNDTRIP
360
64E
  0
XRECORD
  5
632
102
{ACAD_REACTORS
330
631
102
}
330
631
100
AcDbXrecord
280
     1
102
MATERIAL
148
0.0
149
0.0
149
0.0
 93
        0
 94
      127
282
     0
 72
     1
 77
     1
171
     1
175
     1
179
     1
273
     0
  0
XRECORD
  5
630
102
{ACAD_REACTORS
330
62F
102
}
330
62F
100
AcDbXrecord
280
     1
102
MATERIAL
148
0.0
149
0.0
149
0.0
 93
        0
 94
      127
282
     0
 72
     1
 77
     1
171
     1
175
     1
179
     1
273
     0
  0
XRECORD
  5
634
102
{ACAD_REACTORS
330
633
102
}
330
633
100
AcDbXrecord
280
     1
102
MATERIAL
148
0.0
149
0.0
149
0.0
 93
        0
 94
      127
282
     0
 72
     1
 77
     1
171
     1
175
     1
179
     1
273
     0
  0
XRECORD
  5
63E
102
{ACAD_REACTORS
330
63D
102
}
330
63D
100
AcDbXrecord
280
     1
102
RTVSPropertyOp0
 70
     1
102
RTVSPropertyOp1
 70
     1
102
RTVSPropertyOp2
 70
     1
102
RTVSPropertyOp3
 70
     1
102
RTVSPropertyOp4
 70
     1
102
RTVSPropertyOp5
 70
     1
102
RTVSPropertyOp6
 70
     1
102
RTVSPropertyOp7
 70
     1
102
RTVSPropertyOp8
 70
     1
102
RTVSPropertyOp9
 70
     1
102
RTVSPropertyOp10
 70
     1
102
RTVSPropertyOp11
 70
     1
102
RTVSPropertyOp12
 70
     1
102
RTVSPropertyOp13
 70
     1
102
RTVSPropertyOp14
 70
     1
102
RTVSPropertyOp15
 70
     1
102
RTVSPropertyOp16
 70
     1
102
RTVSPropertyOp17
 70
     1
102
RTVSPropertyOp18
 70
     1
102
RTVSPropertyOp19
 70
     1
102
RTVSPropertyOp20
 70
     1
102
RTVSPropertyOp21
 70
     1
102
RTVSPropertyOp22
 70
     1
102
RTVSPropertyOp23
 70
     1
102
RTVSPropertyOp24
 70
     1
102
RTVSPropertyOp25
 70
     1
102
RTVSPropertyOp26
 70
     1
102
RTVSPropertyOp27
 70
     1
102
RTVSPropertyOp28
 70
     1
102
RTVSPropertyOp29
 70
     1
102
RTVSPropertyOp30
 70
     1
102
RTVSPropertyOp31
 70
     1
102
RTVSPropertyOp32
 70
     1
  0
XRECORD
  5
642
102
{ACAD_REACTORS
330
641
102
}
330
641
100
AcDbXrecord
280
     1
102
RTVSPropertyOp0
 70
     1
102
RTVSPropertyOp1
 70
     1
102
RTVSPropertyOp2
 70
     1
102
RTVSPropertyOp3
 70
     1
102
RTVSPropertyOp4
 70
     1
102
RTVSPropertyOp5
 70
     1
102
RTVSPropertyOp6
 70
     1
102
RTVSPropertyOp7
 70
     1
102
RTVSPropertyOp8
 70
     1
102
RTVSPropertyOp9
 70
     1
102
RTVSPropertyOp10
 70
     1
102
RTVSPropertyOp11
 70
     1
102
RTVSPropertyOp12
 70
     1
102
RTVSPropertyOp13
 70
     1
102
RTVSPropertyOp14
 70
     1
102
RTVSPropertyOp15
 70
     1
102
RTVSPropertyOp16
 70
     1
102
RTVSPropertyOp17
 70
     1
102
RTVSPropertyOp18
 70
     1
102
RTVSPropertyOp19
 70
     1
102
RTVSPropertyOp20
 70
     1
102
RTVSPropertyOp21
 70
     1
102
RTVSPropertyOp22
 70
     1
102
RTVSPropertyOp23
 70
     1
102
RTVSPropertyOp24
 70
     1
102
RTVSPropertyOp25
 70
     1
102
RTVSPropertyOp26
 70
     1
102
RTVSPropertyOp27
 70
     1
102
RTVSPropertyOp28
 70
     1
102
RTVSPropertyOp29
 70
     1
102
RTVSPropertyOp30
 70
     1
102
RTVSPropertyOp31
 70
     1
102
RTVSPropertyOp32
 70
     1
  0
XRECORD
  5
640
102
{ACAD_REACTORS
330
63F
102
}
330
63F
100
AcDbXrecord
280
     1
102
RTVSPropertyOp0
 70
     1
102
RTVSPropertyOp1
 70
     1
102
RTVSPropertyOp2
 70
     1
102
RTVSPropertyOp3
 70
     1
102
RTVSPropertyOp4
 70
     1
102
RTVSPropertyOp5
 70
     1
102
RTVSPropertyOp6
 70
     1
102
RTVSPropertyOp7
 70
     1
102
RTVSPropertyOp8
 70
     1
102
RTVSPropertyOp9
 70
     1
102
RTVSPropertyOp10
 70
     1
102
RTVSPropertyOp11
 70
     1
102
RTVSPropertyOp12
 70
     1
102
RTVSPropertyOp13
 70
     1
102
RTVSPropertyOp14
 70
     1
102
RTVSPropertyOp15
 70
     1
102
RTVSPropertyOp16
 70
     1
102
RTVSPropertyOp17
 70
     1
102
RTVSPropertyOp18
 70
     1
102
RTVSPropertyOp19
 70
     1
102
RTVSPropertyOp20
 70
     1
102
RTVSPropertyOp21
 70
     1
102
RTVSPropertyOp22
 70
     1
102
RTVSPropertyOp23
 70
     1
102
RTVSPropertyOp24
 70
     1
102
RTVSPropertyOp25
 70
     1
102
RTVSPropertyOp26
 70
     1
102
RTVSPropertyOp27
 70
     1
102
RTVSPropertyOp28
 70
     1
102
RTVSPropertyOp29
 70
     1
102
RTVSPropertyOp30
 70
     1
102
RTVSPropertyOp31
 70
     1
102
RTVSPropertyOp32
 70
     1
  0
XRECORD
  5
644
102
{ACAD_REACTORS
330
643
102
}
330
643
100
AcDbXrecord
280
     1
102
RTVSPropertyOp0
 70
     1
102
RTVSPropertyOp1
 70
     1
102
RTVSPropertyOp2
 70
     1
102
RTVSPropertyOp3
 70
     1
102
RTVSPropertyOp4
 70
     1
102
RTVSPropertyOp5
 70
     1
102
RTVSPropertyOp6
 70
     1
102
RTVSPropertyOp7
 70
     1
102
RTVSPropertyOp8
 70
     1
102
RTVSPropertyOp9
 70
     1
102
RTVSPropertyOp10
 70
     1
102
RTVSPropertyOp11
 70
     1
102
RTVSPropertyOp12
 70
     1
102
RTVSPropertyOp13
 70
     1
102
RTVSPropertyOp14
 70
     1
102
RTVSPropertyOp15
 70
     1
102
RTVSPropertyOp16
 70
     1
102
RTVSPropertyOp17
 70
     1
102
RTVSPropertyOp18
 70
     1
102
RTVSPropertyOp19
 70
     1
102
RTVSPropertyOp20
 70
     1
102
RTVSPropertyOp21
 70
     1
102
RTVSPropertyOp22
 70
     1
102
RTVSPropertyOp23
 70
     1
102
RTVSPropertyOp24
 70
     1
102
RTVSPropertyOp25
 70
     1
102
RTVSPropertyOp26
 70
     1
102
RTVSPropertyOp27
 70
     1
102
RTVSPropertyOp28
 70
     1
102
RTVSPropertyOp29
 70
     1
102
RTVSPropertyOp30
 70
     1
102
RTVSPropertyOp31
 70
     1
102
RTVSPropertyOp32
 70
     1
  0
XRECORD
  5
64C
102
{ACAD_REACTORS
330
64B
102
}
330
64B
100
AcDbXrecord
280
     1
102
RTVSPropertyOp0
 70
     1
102
RTVSPropertyOp1
 70
     1
102
RTVSPropertyOp2
 70
     1
102
RTVSPropertyOp3
 70
     1
102
RTVSPropertyOp4
 70
     1
102
RTVSPropertyOp5
 70
     1
102
RTVSPropertyOp6
 70
     1
102
RTVSPropertyOp7
 70
     1
102
RTVSPropertyOp8
 70
     1
102
RTVSPropertyOp9
 70
     1
102
RTVSPropertyOp10
 70
     1
102
RTVSPropertyOp11
 70
     1
102
RTVSPropertyOp12
 70
     1
102
RTVSPropertyOp13
 70
     1
102
RTVSPropertyOp14
 70
     1
102
RTVSPropertyOp15
 70
     1
102
RTVSPropertyOp16
 70
     1
102
RTVSPropertyOp17
 70
     1
102
RTVSPropertyOp18
 70
     1
102
RTVSPropertyOp19
 70
     1
102
RTVSPropertyOp20
 70
     1
102
RTVSPropertyOp21
 70
     1
102
RTVSPropertyOp22
 70
     1
102
RTVSPropertyOp23
 70
     1
102
RTVSPropertyOp24
 70
     1
102
RTVSPropertyOp25
 70
     1
102
RTVSPropertyOp26
 70
     1
102
RTVSPropertyOp27
 70
     1
102
RTVSPropertyOp28
 70
     1
102
RTVSPropertyOp29
 70
     1
102
RTVSPropertyOp30
 70
     1
102
RTVSPropertyOp31
 70
     1
102
RTVSPropertyOp32
 70
     1
  0
XRECORD
  5
654
102
{ACAD_REACTORS
330
653
102
}
330
653
100
AcDbXrecord
280
     1
102
RTVSPropertyOp0
 70
     1
102
RTVSPropertyOp1
 70
     1
102
RTVSPropertyOp2
 70
     1
102
RTVSPropertyOp3
 70
     1
102
RTVSPropertyOp4
 70
     1
102
RTVSPropertyOp5
 70
     1
102
RTVSPropertyOp6
 70
     1
102
RTVSPropertyOp7
 70
     1
102
RTVSPropertyOp8
 70
     1
102
RTVSPropertyOp9
 70
     1
102
RTVSPropertyOp10
 70
     1
102
RTVSPropertyOp11
 70
     1
102
RTVSPropertyOp12
 70
     1
102
RTVSPropertyOp13
 70
     1
102
RTVSPropertyOp14
 70
     1
102
RTVSPropertyOp15
 70
     1
102
RTVSPropertyOp16
 70
     1
102
RTVSPropertyOp17
 70
     1
102
RTVSPropertyOp18
 70
     1
102
RTVSPropertyOp19
 70
     1
102
RTVSPropertyOp20
 70
     1
102
RTVSPropertyOp21
 70
     1
102
RTVSPropertyOp22
 70
     1
102
RTVSPropertyOp23
 70
     1
102
RTVSPropertyOp24
 70
     1
102
RTVSPropertyOp25
 70
     1
102
RTVSPropertyOp26
 70
     1
102
RTVSPropertyOp27
 70
     1
102
RTVSPropertyOp28
 70
     1
102
RTVSPropertyOp29
 70
     1
102
RTVSPropertyOp30
 70
     1
102
RTVSPropertyOp31
 70
     1
102
RTVSPropertyOp32
 70
     1
  0
XRECORD
  5
648
102
{ACAD_REACTORS
330
647
102
}
330
647
100
AcDbXrecord
280
     1
102
RTVSPropertyOp0
 70
     1
102
RTVSPropertyOp1
 70
     1
102
RTVSPropertyOp2
 70
     1
102
RTVSPropertyOp3
 70
     1
102
RTVSPropertyOp4
 70
     1
102
RTVSPropertyOp5
 70
     1
102
RTVSPropertyOp6
 70
     1
102
RTVSPropertyOp7
 70
     1
102
RTVSPropertyOp8
 70
     1
102
RTVSPropertyOp9
 70
     1
102
RTVSPropertyOp10
 70
     1
102
RTVSPropertyOp11
 70
     1
102
RTVSPropertyOp12
 70
     1
102
RTVSPropertyOp13
 70
     1
102
RTVSPropertyOp14
 70
     1
102
RTVSPropertyOp15
 70
     1
102
RTVSPropertyOp16
 70
     1
102
RTVSPropertyOp17
 70
     1
102
RTVSPropertyOp18
 70
     1
102
RTVSPropertyOp19
 70
     1
102
RTVSPropertyOp20
 70
     1
102
RTVSPropertyOp21
 70
     1
102
RTVSPropertyOp22
 70
     1
102
RTVSPropertyOp23
 70
     1
102
RTVSPropertyOp24
 70
     1
102
RTVSPropertyOp25
 70
     1
102
RTVSPropertyOp26
 70
     1
102
RTVSPropertyOp27
 70
     1
102
RTVSPropertyOp28
 70
     1
102
RTVSPropertyOp29
 70
     1
102
RTVSPropertyOp30
 70
     1
102
RTVSPropertyOp31
 70
     1
102
RTVSPropertyOp32
 70
     1
  0
XRECORD
  5
64A
102
{ACAD_REACTORS
330
649
102
}
330
649
100
AcDbXrecord
280
     1
102
RTVSPropertyOp0
 70
     1
102
RTVSPropertyOp1
 70
     1
102
RTVSPropertyOp2
 70
     1
102
RTVSPropertyOp3
 70
     1
102
RTVSPropertyOp4
 70
     1
102
RTVSPropertyOp5
 70
     1
102
RTVSPropertyOp6
 70
     1
102
RTVSPropertyOp7
 70
     1
102
RTVSPropertyOp8
 70
     1
102
RTVSPropertyOp9
 70
     1
102
RTVSPropertyOp10
 70
     1
102
RTVSPropertyOp11
 70
     1
102
RTVSPropertyOp12
 70
     1
102
RTVSPropertyOp13
 70
     1
102
RTVSPropertyOp14
 70
     1
102
RTVSPropertyOp15
 70
     1
102
RTVSPropertyOp16
 70
     1
102
RTVSPropertyOp17
 70
     1
102
RTVSPropertyOp18
 70
     1
102
RTVSPropertyOp19
 70
     1
102
RTVSPropertyOp20
 70
     1
102
RTVSPropertyOp21
 70
     1
102
RTVSPropertyOp22
 70
     1
102
RTVSPropertyOp23
 70
     1
102
RTVSPropertyOp24
 70
     1
102
RTVSPropertyOp25
 70
     1
102
RTVSPropertyOp26
 70
     1
102
RTVSPropertyOp27
 70
     1
102
RTVSPropertyOp28
 70
     1
102
RTVSPropertyOp29
 70
     1
102
RTVSPropertyOp30
 70
     1
102
RTVSPropertyOp31
 70
     1
102
RTVSPropertyOp32
 70
     1
  0
XRECORD
  5
652
102
{ACAD_REACTORS
330
651
102
}
330
651
100
AcDbXrecord
280
     1
102
RTVSPropertyOp0
 70
     1
102
RTVSPropertyOp1
 70
     1
102
RTVSPropertyOp2
 70
     1
102
RTVSPropertyOp3
 70
     1
102
RTVSPropertyOp4
 70
     1
102
RTVSPropertyOp5
 70
     1
102
RTVSPropertyOp6
 70
     1
102
RTVSPropertyOp7
 70
     1
102
RTVSPropertyOp8
 70
     1
102
RTVSPropertyOp9
 70
     1
102
RTVSPropertyOp10
 70
     1
102
RTVSPropertyOp11
 70
     1
102
RTVSPropertyOp12
 70
     1
102
RTVSPropertyOp13
 70
     1
102
RTVSPropertyOp14
 70
     1
102
RTVSPropertyOp15
 70
     1
102
RTVSPropertyOp16
 70
     1
102
RTVSPropertyOp17
 70
     1
102
RTVSPropertyOp18
 70
     1
102
RTVSPropertyOp19
 70
     1
102
RTVSPropertyOp20
 70
     1
102
RTVSPropertyOp21
 70
     1
102
RTVSPropertyOp22
 70
     1
102
RTVSPropertyOp23
 70
     1
102
RTVSPropertyOp24
 70
     1
102
RTVSPropertyOp25
 70
     1
102
RTVSPropertyOp26
 70
     1
102
RTVSPropertyOp27
 70
     1
102
RTVSPropertyOp28
 70
     1
102
RTVSPropertyOp29
 70
     1
102
RTVSPropertyOp30
 70
     1
102
RTVSPropertyOp31
 70
     1
102
RTVSPropertyOp32
 70
     1
  0
XRECORD
  5
636
102
{ACAD_REACTORS
330
635
102
}
330
635
100
AcDbXrecord
280
     1
102
RTVSPropertyOp0
 70
     1
102
RTVSPropertyOp1
 70
     1
102
RTVSPropertyOp2
 70
     1
102
RTVSPropertyOp3
 70
     1
102
RTVSPropertyOp4
 70
     1
102
RTVSPropertyOp5
 70
     1
102
RTVSPropertyOp6
 70
     1
102
RTVSPropertyOp7
 70
     1
102
RTVSPropertyOp8
 70
     1
102
RTVSPropertyOp9
 70
     1
102
RTVSPropertyOp10
 70
     1
102
RTVSPropertyOp11
 70
     1
102
RTVSPropertyOp12
 70
     1
102
RTVSPropertyOp13
 70
     1
102
RTVSPropertyOp14
 70
     1
102
RTVSPropertyOp15
 70
     1
102
RTVSPropertyOp16
 70
     1
102
RTVSPropertyOp17
 70
     1
102
RTVSPropertyOp18
 70
     1
102
RTVSPropertyOp19
 70
     1
102
RTVSPropertyOp20
 70
     1
102
RTVSPropertyOp21
 70
     1
102
RTVSPropertyOp22
 70
     1
102
RTVSPropertyOp23
 70
     1
102
RTVSPropertyOp24
 70
     1
102
RTVSPropertyOp25
 70
     1
102
RTVSPropertyOp26
 70
     1
102
RTVSPropertyOp27
 70
     1
102
RTVSPropertyOp28
 70
     1
102
RTVSPropertyOp29
 70
     1
102
RTVSPropertyOp30
 70
     1
102
RTVSPropertyOp31
 70
     1
102
RTVSPropertyOp32
 70
     1
  0
XRECORD
  5
638
102
{ACAD_REACTORS
330
637
102
}
330
637
100
AcDbXrecord
280
     1
102
RTVSPropertyOp0
 70
     1
102
RTVSPropertyOp1
 70
     1
102
RTVSPropertyOp2
 70
     1
102
RTVSPropertyOp3
 70
     1
102
RTVSPropertyOp4
 70
     1
102
RTVSPropertyOp5
 70
     1
102
RTVSPropertyOp6
 70
     1
102
RTVSPropertyOp7
 70
     1
102
RTVSPropertyOp8
 70
     1
102
RTVSPropertyOp9
 70
     1
102
RTVSPropertyOp10
 70
     1
102
RTVSPropertyOp11
 70
     1
102
RTVSPropertyOp12
 70
     1
102
RTVSPropertyOp13
 70
     1
102
RTVSPropertyOp14
 70
     1
102
RTVSPropertyOp15
 70
     1
102
RTVSPropertyOp16
 70
     1
102
RTVSPropertyOp17
 70
     1
102
RTVSPropertyOp18
 70
     1
102
RTVSPropertyOp19
 70
     1
102
RTVSPropertyOp20
 70
     1
102
RTVSPropertyOp21
 70
     1
102
RTVSPropertyOp22
 70
     1
102
RTVSPropertyOp23
 70
     1
102
RTVSPropertyOp24
 70
     1
102
RTVSPropertyOp25
 70
     1
102
RTVSPropertyOp26
 70
     1
102
RTVSPropertyOp27
 70
     1
102
RTVSPropertyOp28
 70
     1
102
RTVSPropertyOp29
 70
     1
102
RTVSPropertyOp30
 70
     1
102
RTVSPropertyOp31
 70
     1
102
RTVSPropertyOp32
 70
     1
  0
XRECORD
  5
63A
102
{ACAD_REACTORS
330
639
102
}
330
639
100
AcDbXrecord
280
     1
102
RTVSPropertyOp0
 70
     1
102
RTVSPropertyOp1
 70
     1
102
RTVSPropertyOp2
 70
     1
102
RTVSPropertyOp3
 70
     1
102
RTVSPropertyOp4
 70
     1
102
RTVSPropertyOp5
 70
     1
102
RTVSPropertyOp6
 70
     1
102
RTVSPropertyOp7
 70
     1
102
RTVSPropertyOp8
 70
     1
102
RTVSPropertyOp9
 70
     1
102
RTVSPropertyOp10
 70
     1
102
RTVSPropertyOp11
 70
     1
102
RTVSPropertyOp12
 70
     1
102
RTVSPropertyOp13
 70
     1
102
RTVSPropertyOp14
 70
     1
102
RTVSPropertyOp15
 70
     1
102
RTVSPropertyOp16
 70
     1
102
RTVSPropertyOp17
 70
     1
102
RTVSPropertyOp18
 70
     1
102
RTVSPropertyOp19
 70
     1
102
RTVSPropertyOp20
 70
     1
102
RTVSPropertyOp21
 70
     1
102
RTVSPropertyOp22
 70
     1
102
RTVSPropertyOp23
 70
     1
102
RTVSPropertyOp24
 70
     1
102
RTVSPropertyOp25
 70
     1
102
RTVSPropertyOp26
 70
     1
102
RTVSPropertyOp27
 70
     1
102
RTVSPropertyOp28
 70
     1
102
RTVSPropertyOp29
 70
     1
102
RTVSPropertyOp30
 70
     1
102
RTVSPropertyOp31
 70
     1
102
RTVSPropertyOp32
 70
     1
  0
XRECORD
  5
63C
102
{ACAD_REACTORS
330
63B
102
}
330
63B
100
AcDbXrecord
280
     1
102
RTVSPropertyOp0
 70
     1
102
RTVSPropertyOp1
 70
     1
102
RTVSPropertyOp2
 70
     1
102
RTVSPropertyOp3
 70
     1
102
RTVSPropertyOp4
 70
     1
102
RTVSPropertyOp5
 70
     1
102
RTVSPropertyOp6
 70
     1
102
RTVSPropertyOp7
 70
     1
102
RTVSPropertyOp8
 70
     1
102
RTVSPropertyOp9
 70
     1
102
RTVSPropertyOp10
 70
     1
102
RTVSPropertyOp11
 70
     1
102
RTVSPropertyOp12
 70
     1
102
RTVSPropertyOp13
 70
     1
102
RTVSPropertyOp14
 70
     1
102
RTVSPropertyOp15
 70
     1
102
RTVSPropertyOp16
 70
     1
102
RTVSPropertyOp17
 70
     1
102
RTVSPropertyOp18
 70
     1
102
RTVSPropertyOp19
 70
     1
102
RTVSPropertyOp20
 70
     1
102
RTVSPropertyOp21
 70
     1
102
RTVSPropertyOp22
 70
     1
102
RTVSPropertyOp23
 70
     1
102
RTVSPropertyOp24
 70
     1
102
RTVSPropertyOp25
 70
     1
102
RTVSPropertyOp26
 70
     1
102
RTVSPropertyOp27
 70
     1
102
RTVSPropertyOp28
 70
     1
102
RTVSPropertyOp29
 70
     1
102
RTVSPropertyOp30
 70
     1
102
RTVSPropertyOp31
 70
     1
102
RTVSPropertyOp32
 70
     1
  0
XRECORD
  5
650
102
{ACAD_REACTORS
330
64F
102
}
330
64F
100
AcDbXrecord
280
     1
102
RTVSPropertyOp0
 70
     1
102
RTVSPropertyOp1
 70
     1
102
RTVSPropertyOp2
 70
     1
102
RTVSPropertyOp3
 70
     1
102
RTVSPropertyOp4
 70
     1
102
RTVSPropertyOp5
 70
     1
102
RTVSPropertyOp6
 70
     1
102
RTVSPropertyOp7
 70
     1
102
RTVSPropertyOp8
 70
     1
102
RTVSPropertyOp9
 70
     1
102
RTVSPropertyOp10
 70
     1
102
RTVSPropertyOp11
 70
     1
102
RTVSPropertyOp12
 70
     1
102
RTVSPropertyOp13
 70
     1
102
RTVSPropertyOp14
 70
     1
102
RTVSPropertyOp15
 70
     1
102
RTVSPropertyOp16
 70
     1
102
RTVSPropertyOp17
 70
     1
102
RTVSPropertyOp18
 70
     1
102
RTVSPropertyOp19
 70
     1
102
RTVSPropertyOp20
 70
     1
102
RTVSPropertyOp21
 70
     1
102
RTVSPropertyOp22
 70
     1
102
RTVSPropertyOp23
 70
     1
102
RTVSPropertyOp24
 70
     1
102
RTVSPropertyOp25
 70
     1
102
RTVSPropertyOp26
 70
     1
102
RTVSPropertyOp27
 70
     1
102
RTVSPropertyOp28
 70
     1
102
RTVSPropertyOp29
 70
     1
102
RTVSPropertyOp30
 70
     1
102
RTVSPropertyOp31
 70
     1
102
RTVSPropertyOp32
 70
     1
  0
XRECORD
  5
646
102
{ACAD_REACTORS
330
645
102
}
330
645
100
AcDbXrecord
280
     1
102
RTVSPropertyOp0
 70
     1
102
RTVSPropertyOp1
 70
     1
102
RTVSPropertyOp2
 70
     1
102
RTVSPropertyOp3
 70
     1
102
RTVSPropertyOp4
 70
     1
102
RTVSPropertyOp5
 70
     1
102
RTVSPropertyOp6
 70
     1
102
RTVSPropertyOp7
 70
     1
102
RTVSPropertyOp8
 70
     1
102
RTVSPropertyOp9
 70
     1
102
RTVSPropertyOp10
 70
     1
102
RTVSPropertyOp11
 70
     1
102
RTVSPropertyOp12
 70
     1
102
RTVSPropertyOp13
 70
     1
102
RTVSPropertyOp14
 70
     1
102
RTVSPropertyOp15
 70
     1
102
RTVSPropertyOp16
 70
     1
102
RTVSPropertyOp17
 70
     1
102
RTVSPropertyOp18
 70
     1
102
RTVSPropertyOp19
 70
     1
102
RTVSPropertyOp20
 70
     1
102
RTVSPropertyOp21
 70
     1
102
RTVSPropertyOp22
 70
     1
102
RTVSPropertyOp23
 70
     1
102
RTVSPropertyOp24
 70
     1
102
RTVSPropertyOp25
 70
     1
102
RTVSPropertyOp26
 70
     1
102
RTVSPropertyOp27
 70
     1
102
RTVSPropertyOp28
 70
     1
102
RTVSPropertyOp29
 70
     1
102
RTVSPropertyOp30
 70
     1
102
RTVSPropertyOp31
 70
     1
102
RTVSPropertyOp32
 70
     1
  0
XRECORD
  5
64E
102
{ACAD_REACTORS
330
64D
102
}
330
64D
100
AcDbXrecord
280
     1
102
RTVSPropertyOp0
 70
     1
102
RTVSPropertyOp1
 70
     1
102
RTVSPropertyOp2
 70
     1
102
RTVSPropertyOp3
 70
     1
102
RTVSPropertyOp4
 70
     1
102
RTVSPropertyOp5
 70
     1
102
RTVSPropertyOp6
 70
     1
102
RTVSPropertyOp7
 70
     1
102
RTVSPropertyOp8
 70
     1
102
RTVSPropertyOp9
 70
     1
102
RTVSPropertyOp10
 70
     1
102
RTVSPropertyOp11
 70
     1
102
RTVSPropertyOp12
 70
     1
102
RTVSPropertyOp13
 70
     1
102
RTVSPropertyOp14
 70
     1
102
RTVSPropertyOp15
 70
     1
102
RTVSPropertyOp16
 70
     1
102
RTVSPropertyOp17
 70
     1
102
RTVSPropertyOp18
 70
     1
102
RTVSPropertyOp19
 70
     1
102
RTVSPropertyOp20
 70
     1
102
RTVSPropertyOp21
 70
     1
102
RTVSPropertyOp22
 70
     1
102
RTVSPropertyOp23
 70
     1
102
RTVSPropertyOp24
 70
     1
102
RTVSPropertyOp25
 70
     1
102
RTVSPropertyOp26
 70
     1
102
RTVSPropertyOp27
 70
     1
102
RTVSPropertyOp28
 70
     1
102
RTVSPropertyOp29
 70
     1
102
RTVSPropertyOp30
 70
     1
102
RTVSPropertyOp31
 70
     1
102
RTVSPropertyOp32
 70
     1
  0
ENDSEC
  0
EOF
