  0
SECTION
  2
HEADER
  9
$ACADVER
  1
AC1015
  9
$ACADMAINTVER
 70
     6
  9
$DWGCODEPAGE
  3
ANSI_1252
  9
$INSBASE
 10
0.0
 20
0.0
 30
0.0
  9
$EXTMIN
 10
1.000000000000000E+20
 20
1.000000000000000E+20
 30
1.000000000000000E+20
  9
$EXTMAX
 10
-1.000000000000000E+20
 20
-1.000000000000000E+20
 30
-1.000000000000000E+20
  9
$LIMMIN
 10
-170.0
 20
-170.0
  9
$LIMMAX
 10
519.0
 20
260.0
  9
$ORTHOMODE
 70
     0
  9
$REGENMODE
 70
     1
  9
$FILLMODE
 70
     1
  9
$QTEXTMODE
 70
     0
  9
$MIRRTEXT
 70
     0
  9
$LTSCALE
 40
1.0
  9
$ATTMODE
 70
     1
  9
$TEXTSIZE
 40
3.5
  9
$TRACEWID
 40
1.0
  9
$TEXTSTYLE
  7
SIMPLEX
  9
$CLAYER
  8
1
  9
$CELTYPE
  6
BYLAYER
  9
$CECOLOR
 62
   256
  9
$CELTSCALE
 40
1.0
  9
$DISPSILH
 70
     0
  9
$DIMSCALE
 40
1.0
  9
$DIMASZ
 40
2.5
  9
$DIMEXO
 40
0.0
  9
$DIMDLI
 40
3.75
  9
$DIMRND
 40
0.0
  9
$DIMDLE
 40
0.0
  9
$DIMEXE
 40
1.25
  9
$DIMTP
 40
0.0
  9
$DIMTM
 40
0.0
  9
$DIMTXT
 40
3.5
  9
$DIMCEN
 40
0.0
  9
$DIMTSZ
 40
0.0
  9
$DIMTOL
 70
     0
  9
$DIMLIM
 70
     0
  9
$DIMTIH
 70
     0
  9
$DIMTOH
 70
     0
  9
$DIMSE1
 70
     0
  9
$DIMSE2
 70
     0
  9
$DIMTAD
 70
     1
  9
$DIMZIN
 70
     8
  9
$DIMBLK
  1

  9
$DIMASO
 70
     1
  9
$DIMSHO
 70
     1
  9
$DIMPOST
  1

  9
$DIMAPOST
  1

  9
$DIMALT
 70
     0
  9
$DIMALTD
 70
     3
  9
$DIMALTF
 40
0.039370078
  9
$DIMLFAC
 40
1.0
  9
$DIMTOFL
 70
     0
  9
$DIMTVP
 40
0.0
  9
$DIMTIX
 70
     0
  9
$DIMSOXD
 70
     0
  9
$DIMSAH
 70
     0
  9
$DIMBLK1
  1

  9
$DIMBLK2
  1

  9
$DIMSTYLE
  2
STANDARD
  9
$DIMCLRD
 70
     0
  9
$DIMCLRE
 70
     0
  9
$DIMCLRT
 70
     0
  9
$DIMTFAC
 40
1.0
  9
$DIMGAP
 40
0.625
  9
$DIMJUST
 70
     0
  9
$DIMSD1
 70
     0
  9
$DIMSD2
 70
     0
  9
$DIMTOLJ
 70
     0
  9
$DIMTZIN
 70
     8
  9
$DIMALTZ
 70
     0
  9
$DIMALTTZ
 70
     0
  9
$DIMUPT
 70
     0
  9
$DIMDEC
 70
     2
  9
$DIMTDEC
 70
     2
  9
$DIMALTU
 70
     2
  9
$DIMALTTD
 70
     3
  9
$DIMTXSTY
  7
SIMPLEX
  9
$DIMAUNIT
 70
     0
  9
$DIMADEC
 70
     2
  9
$DIMALTRND
 40
0.0
  9
$DIMAZIN
 70
     2
  9
$DIMDSEP
 70
    46
  9
$DIMATFIT
 70
     3
  9
$DIMFRAC
 70
     0
  9
$DIMLDRBLK
  1

  9
$DIMLUNIT
 70
     2
  9
$DIMLWD
 70
    -2
  9
$DIMLWE
 70
    -2
  9
$DIMTMOVE
 70
     0
  9
$LUNITS
 70
     2
  9
$LUPREC
 70
     4
  9
$SKETCHINC
 40
1.0
  9
$FILLETRAD
 40
0.0
  9
$AUNITS
 70
     0
  9
$AUPREC
 70
     0
  9
$MENU
  1
c:\tdm21\cad\caduti13\tdm13
  9
$ELEVATION
 40
0.0
  9
$PELEVATION
 40
0.0
  9
$THICKNESS
 40
0.0
  9
$LIMCHECK
 70
     0
  9
$CHAMFERA
 40
0.0
  9
$CHAMFERB
 40
0.0
  9
$CHAMFERC
 40
0.0
  9
$CHAMFERD
 40
0.0
  9
$SKPOLY
 70
     0
  9
$TDCREATE
 40
2454957.593642639
  9
$TDUCREATE
 40
2454957.510309306
  9
$TDUPDATE
 40
2456860.787139526
  9
$TDUUPDATE
 40
2456860.703806192
  9
$TDINDWG
 40
0.0009643519
  9
$TDUSRTIMER
 40
0.0009475231
  9
$USRTIMER
 70
     1
  9
$ANGBASE
 50
0.0
  9
$ANGDIR
 70
     0
  9
$PDMODE
 70
     1
  9
$PDSIZE
 40
0.0
  9
$PLINEWID
 40
0.0
  9
$SPLFRAME
 70
     0
  9
$SPLINETYPE
 70
     6
  9
$SPLINESEGS
 70
     8
  9
$HANDSEED
  5
664
  9
$SURFTAB1
 70
     6
  9
$SURFTAB2
 70
     6
  9
$SURFTYPE
 70
     6
  9
$SURFU
 70
     6
  9
$SURFV
 70
     6
  9
$UCSBASE
  2

  9
$UCSNAME
  2

  9
$UCSORG
 10
0.0
 20
0.0
 30
0.0
  9
$UCSXDIR
 10
1.0
 20
0.0
 30
0.0
  9
$UCSYDIR
 10
0.0
 20
1.0
 30
0.0
  9
$UCSORTHOREF
  2

  9
$UCSORTHOVIEW
 70
     0
  9
$UCSORGTOP
 10
0.0
 20
0.0
 30
0.0
  9
$UCSORGBOTTOM
 10
0.0
 20
0.0
 30
0.0
  9
$UCSORGLEFT
 10
0.0
 20
0.0
 30
0.0
  9
$UCSORGRIGHT
 10
0.0
 20
0.0
 30
0.0
  9
$UCSORGFRONT
 10
0.0
 20
0.0
 30
0.0
  9
$UCSORGBACK
 10
0.0
 20
0.0
 30
0.0
  9
$PUCSBASE
  2

  9
$PUCSNAME
  2

  9
$PUCSORG
 10
0.0
 20
0.0
 30
0.0
  9
$PUCSXDIR
 10
1.0
 20
0.0
 30
0.0
  9
$PUCSYDIR
 10
0.0
 20
1.0
 30
0.0
  9
$PUCSORTHOREF
  2

  9
$PUCSORTHOVIEW
 70
     0
  9
$PUCSORGTOP
 10
0.0
 20
0.0
 30
0.0
  9
$PUCSORGBOTTOM
 10
0.0
 20
0.0
 30
0.0
  9
$PUCSORGLEFT
 10
0.0
 20
0.0
 30
0.0
  9
$PUCSORGRIGHT
 10
0.0
 20
0.0
 30
0.0
  9
$PUCSORGFRONT
 10
0.0
 20
0.0
 30
0.0
  9
$PUCSORGBACK
 10
0.0
 20
0.0
 30
0.0
  9
$USERI1
 70
     0
  9
$USERI2
 70
     0
  9
$USERI3
 70
     0
  9
$USERI4
 70
     0
  9
$USERI5
 70
     0
  9
$USERR1
 40
0.0
  9
$USERR2
 40
0.0
  9
$USERR3
 40
0.0
  9
$USERR4
 40
0.0
  9
$USERR5
 40
0.0
  9
$WORLDVIEW
 70
     1
  9
$SHADEDGE
 70
     3
  9
$SHADEDIF
 70
    70
  9
$TILEMODE
 70
     1
  9
$MAXACTVP
 70
    64
  9
$PINSBASE
 10
0.0
 20
0.0
 30
0.0
  9
$PLIMCHECK
 70
     0
  9
$PEXTMIN
 10
0.0
 20
0.0
 30
0.0
  9
$PEXTMAX
 10
0.0
 20
0.0
 30
0.0
  9
$PLIMMIN
 10
0.0
 20
0.0
  9
$PLIMMAX
 10
12.0
 20
9.0
  9
$UNITMODE
 70
     0
  9
$VISRETAIN
 70
     0
  9
$PLINEGEN
 70
     0
  9
$PSLTSCALE
 70
     1
  9
$TREEDEPTH
 70
  3020
  9
$CMLSTYLE
  2
STANDARD
  9
$CMLJUST
 70
     0
  9
$CMLSCALE
 40
20.0
  9
$PROXYGRAPHICS
 70
     1
  9
$MEASUREMENT
 70
     1
  9
$CELWEIGHT
370
    -1
  9
$ENDCAPS
280
     0
  9
$JOINSTYLE
280
     0
  9
$LWDISPLAY
290
     0
  9
$INSUNITS
 70
     4
  9
$HYPERLINKBASE
  1

  9
$STYLESHEET
  1
MONOCHROME.CTB
  9
$XEDIT
290
     1
  9
$CEPSNTYPE
380
     0
  9
$PSTYLEMODE
290
     1
  9
$FINGERPRINTGUID
  2
{46B44192-1510-48B1-B61B-CBE2ADA013A7}
  9
$VERSIONGUID
  2
{6160D478-9A74-4C97-9D8A-D4A65CE74B12}
  9
$EXTNAMES
290
     1
  9
$PSVPSCALE
 40
0.0
  9
$OLESTARTUP
290
     0
  0
ENDSEC
  0
SECTION
  2
CLASSES
  0
CLASS
  1
ACDBDICTIONARYWDFLT
  2
AcDbDictionaryWithDefault
  3
ObjectDBX Classes
 90
        0
280
     0
281
     0
  0
CLASS
  1
ACDBPLACEHOLDER
  2
AcDbPlaceHolder
  3
ObjectDBX Classes
 90
        0
280
     0
281
     0
  0
CLASS
  1
LAYOUT
  2
AcDbLayout
  3
ObjectDBX Classes
 90
        0
280
     0
281
     0
  0
CLASS
  1
DICTIONARYVAR
  2
AcDbDictionaryVar
  3
ObjectDBX Classes
 90
        0
280
     0
281
     0
  0
CLASS
  1
TABLESTYLE
  2
AcDbTableStyle
  3
ObjectDBX Classes
 90
     4095
280
     0
281
     0
  0
CLASS
  1
SCALE
  2
AcDbScale
  3
ObjectDBX Classes
 90
     1153
280
     0
281
     0
  0
CLASS
  1
MATERIAL
  2
AcDbMaterial
  3
ObjectDBX Classes
 90
     1153
280
     0
281
     0
  0
CLASS
  1
VISUALSTYLE
  2
AcDbVisualStyle
  3
ObjectDBX Classes
 90
     4095
280
     0
281
     0
  0
ENDSEC
  0
SECTION
  2
TABLES
  0
TABLE
  2
VPORT
  5
8
330
0
100
AcDbSymbolTable
 70
     1
  0
VPORT
  5
39A
330
8
100
AcDbSymbolTableRecord
100
AcDbViewportTableRecord
  2
*Active
 70
     0
 10
0.0
 20
0.0
 11
1.0
 21
1.0
 12
218.9201881351169
 22
109.7549380673833
 13
0.0
 23
0.0
 14
5.0
 24
5.0
 15
5.0
 25
5.0
 16
0.0
 26
0.0
 36
1.0
 17
0.0
 27
0.0
 37
0.0
 40
564.6711112651689
 41
1.066073697585768
 42
50.0
 43
0.0
 44
0.0
 50
0.0
 51
0.0
 71
     0
 72
  2000
 73
     1
 74
     1
 75
     0
 76
     0
 77
     0
 78
     0
281
     0
 65
     1
110
0.0
120
0.0
130
0.0
111
1.0
121
0.0
131
0.0
112
0.0
122
1.0
132
0.0
 79
     0
146
0.0
  0
ENDTAB
  0
TABLE
  2
LTYPE
  5
5
330
0
100
AcDbSymbolTable
 70
     3
  0
LTYPE
  5
12
330
5
100
AcDbSymbolTableRecord
100
AcDbLinetypeTableRecord
  2
BYBLOCK
 70
     0
  3

 72
    65
 73
     0
 40
0.0
  0
LTYPE
  5
13
330
5
100
AcDbSymbolTableRecord
100
AcDbLinetypeTableRecord
  2
BYLAYER
 70
     0
  3

 72
    65
 73
     0
 40
0.0
  0
LTYPE
  5
14
330
5
100
AcDbSymbolTableRecord
100
AcDbLinetypeTableRecord
  2
CONTINUOUS
 70
     0
  3
Solid line
 72
    65
 73
     0
 40
0.0
  0
LTYPE
  5
20
330
5
100
AcDbSymbolTableRecord
100
AcDbLinetypeTableRecord
  2
HIDDEN
 70
     0
  3
Hidden __ __ __ __ __ __ __ __ __ __ __ __ __ _
 72
    65
 73
     2
 40
9.524999999999997
 49
6.349999999999998
 74
     0
 49
-3.174999999999998
 74
     0
  0
LTYPE
  5
351
330
5
100
AcDbSymbolTableRecord
100
AcDbLinetypeTableRecord
  2
CENTER
 70
     0
  3
Dash dot __ . __ . __ . __ . __ . __ . __ . __
 72
    65
 73
     4
 40
25.4
 49
12.7
 74
     0
 49
-6.349999999999998
 74
     0
 49
0.0
 74
     0
 49
-6.349999999999998
 74
     0
  0
ENDTAB
  0
TABLE
  2
LAYER
  5
2
330
0
100
AcDbSymbolTable
 70
    16
  0
LAYER
  5
F
330
2
100
AcDbSymbolTableRecord
100
AcDbLayerTableRecord
  2
0
 70
     0
 62
     7
  6
CONTINUOUS
370
    -3
390
300
  0
LAYER
  5
23
330
2
100
AcDbSymbolTableRecord
100
AcDbLayerTableRecord
  2
1
 70
     0
 62
     4
  6
CONTINUOUS
370
    -3
390
300
  0
LAYER
  5
24
330
2
100
AcDbSymbolTableRecord
100
AcDbLayerTableRecord
  2
SK1
 70
     0
 62
     4
  6
CONTINUOUS
370
    -3
390
300
  0
LAYER
  5
25
330
2
100
AcDbSymbolTableRecord
100
AcDbLayerTableRecord
  2
2
 70
     0
 62
     7
  6
CONTINUOUS
370
    -3
390
300
  0
LAYER
  5
26
330
2
100
AcDbSymbolTableRecord
100
AcDbLayerTableRecord
  2
2L
 70
     0
 62
     7
  6
CONTINUOUS
370
    -3
390
300
  0
LAYER
  5
27
330
2
100
AcDbSymbolTableRecord
100
AcDbLayerTableRecord
  2
SK2
 70
     0
 62
     7
  6
CONTINUOUS
370
    -3
390
300
  0
LAYER
  5
28
330
2
100
AcDbSymbolTableRecord
100
AcDbLayerTableRecord
  2
3
 70
     0
 62
     1
  6
HIDDEN
370
    -3
390
300
  0
LAYER
  5
29
330
2
100
AcDbSymbolTableRecord
100
AcDbLayerTableRecord
  2
SK3
 70
     0
 62
     1
  6
HIDDEN
370
    -3
390
300
  0
LAYER
  5
2A
330
2
100
AcDbSymbolTableRecord
100
AcDbLayerTableRecord
  2
4
 70
     0
 62
     2
  6
CENTER
370
    -3
390
300
  0
LAYER
  5
2B
330
2
100
AcDbSymbolTableRecord
100
AcDbLayerTableRecord
  2
SK4
 70
     0
 62
     2
  6
CENTER
370
    -3
390
300
  0
LAYER
  5
2C
330
2
100
AcDbSymbolTableRecord
100
AcDbLayerTableRecord
  2
5
 70
     0
 62
    -7
  6
CONTINUOUS
370
    -3
390
300
  0
LAYER
  5
2D
330
2
100
AcDbSymbolTableRecord
100
AcDbLayerTableRecord
  2
6
 70
     0
 62
     5
  6
CONTINUOUS
370
    -3
390
300
  0
LAYER
  5
2E
330
2
100
AcDbSymbolTableRecord
100
AcDbLayerTableRecord
  2
SK6
 70
     0
 62
     5
  6
CONTINUOUS
370
    -3
390
300
  0
LAYER
  5
2F
330
2
100
AcDbSymbolTableRecord
100
AcDbLayerTableRecord
  2
DEFPOINTS
 70
     0
 62
     7
  6
CONTINUOUS
290
     0
370
    -3
390
300
  0
LAYER
  5
375
330
2
100
AcDbSymbolTableRecord
100
AcDbLayerTableRecord
  2
CUT
 70
     0
 62
     1
  6
CONTINUOUS
370
    -3
390
300
  0
LAYER
  5
376
330
2
100
AcDbSymbolTableRecord
100
AcDbLayerTableRecord
  2
NOCUT
 70
     0
 62
     7
  6
CONTINUOUS
370
    -3
390
300
  0
ENDTAB
  0
TABLE
  2
STYLE
  5
3
330
0
100
AcDbSymbolTable
 70
     4
  0
STYLE
  5
10
330
3
100
AcDbSymbolTableRecord
100
AcDbTextStyleTableRecord
  2
STANDARD
 70
     0
 40
0.0
 41
1.0
 50
0.0
 71
     0
 42
5.0
  3
txt
  4

  0
STYLE
  5
1D
330
3
100
AcDbSymbolTableRecord
100
AcDbTextStyleTableRecord
  2
TXT
 70
     0
 40
8.0
 41
1.0
 50
0.0
 71
     0
 42
8.0
  3
txt
  4

  0
STYLE
  5
1E
330
3
100
AcDbSymbolTableRecord
100
AcDbTextStyleTableRecord
  2
SIMPLEX
 70
     0
 40
0.0
 41
1.0
 50
0.0
 71
     0
 42
3.5
  3
simplex
  4

  0
STYLE
  5
34C
330
3
100
AcDbSymbolTableRecord
100
AcDbTextStyleTableRecord
  2

 70
     1
 40
0.0
 41
1.0
 50
0.0
 71
     0
 42
2.5
  3
ltypeshp.shx
  4

  0
ENDTAB
  0
TABLE
  2
VIEW
  5
6
330
0
100
AcDbSymbolTable
 70
     0
  0
ENDTAB
  0
TABLE
  2
UCS
  5
7
330
0
100
AcDbSymbolTable
 70
     0
  0
ENDTAB
  0
TABLE
  2
APPID
  5
9
330
0
100
AcDbSymbolTable
 70
     1
  0
APPID
  5
11
330
9
100
AcDbSymbolTableRecord
100
AcDbRegAppTableRecord
  2
ACAD
 70
     0
  0
ENDTAB
  0
TABLE
  2
DIMSTYLE
  5
A
330
0
100
AcDbSymbolTable
 70
     1
100
AcDbDimStyleTable
  0
DIMSTYLE
105
3F
102
{ACAD_REACTORS
330
5F7
330
604
330
611
330
61F
330
62C
102
}
330
A
100
AcDbSymbolTableRecord
100
AcDbDimStyleTableRecord
  2
STANDARD
 70
     0
 41
2.5
 42
0.0
 43
3.75
 44
1.25
 73
     0
 74
     0
 77
     1
 78
     8
 79
     2
140
3.5
141
0.0
143
0.039370078
147
0.625
171
     3
178
     0
179
     2
271
     2
272
     2
274
     3
283
     0
284
     8
340
1E
  0
ENDTAB
  0
TABLE
  2
BLOCK_RECORD
  5
1
330
0
100
AcDbSymbolTable
 70
     5
  0
BLOCK_RECORD
  5
18
330
1
100
AcDbSymbolTableRecord
100
AcDbBlockTableRecord
  2
*MODEL_SPACE
340
303
  0
BLOCK_RECORD
  5
338
330
1
100
AcDbSymbolTableRecord
100
AcDbBlockTableRecord
  2
*Paper_Space
340
33B
  0
BLOCK_RECORD
  5
5F8
330
1
100
AcDbSymbolTableRecord
100
AcDbBlockTableRecord
  2
*D0
340
0
  0
BLOCK_RECORD
  5
605
330
1
100
AcDbSymbolTableRecord
100
AcDbBlockTableRecord
  2
*D1
340
0
  0
BLOCK_RECORD
  5
612
330
1
100
AcDbSymbolTableRecord
100
AcDbBlockTableRecord
  2
*D2
340
0
  0
BLOCK_RECORD
  5
620
330
1
100
AcDbSymbolTableRecord
100
AcDbBlockTableRecord
  2
*D3
340
0
  0
BLOCK_RECORD
  5
62D
330
1
100
AcDbSymbolTableRecord
100
AcDbBlockTableRecord
  2
*D4
340
0
  0
ENDTAB
  0
ENDSEC
  0
SECTION
  2
BLOCKS
  0
BLOCK
  5
32
330
18
100
AcDbEntity
  8
0
100
AcDbBlockBegin
  2
*MODEL_SPACE
 70
     0
 10
0.0
 20
0.0
 30
0.0
  3
*MODEL_SPACE
  1

  0
ENDBLK
  5
33
330
18
100
AcDbEntity
  8
0
100
AcDbBlockEnd
  0
BLOCK
  5
339
330
338
100
AcDbEntity
 67
     1
  8
0
100
AcDbBlockBegin
  2
*Paper_Space
 70
     0
 10
0.0
 20
0.0
 30
0.0
  3
*Paper_Space
  1

  0
ENDBLK
  5
33A
330
338
100
AcDbEntity
 67
     1
  8
0
100
AcDbBlockEnd
  0
BLOCK
  5
5F9
330
5F8
100
AcDbEntity
  8
0
100
AcDbBlockBegin
  2
*D0
 70
     1
 10
0.0
 20
0.0
 30
0.0
  3
*D0
  1

  0
LINE
  5
5FB
330
5F8
100
AcDbEntity
  8
2
 62
     0
370
    -2
100
AcDbLine
 10
79.1
 20
9.0
 30
0.0
 11
95.35000000000001
 21
9.000000000000057
 31
0.0
  0
LINE
  5
5FC
330
5F8
100
AcDbEntity
  8
2
 62
     0
370
    -2
100
AcDbLine
 10
79.1
 20
-9.0
 30
0.0
 11
95.35000000000007
 21
-8.999999999999943
 31
0.0
  0
LINE
  5
5FD
330
5F8
100
AcDbEntity
  8
2
 62
     0
370
    -2
100
AcDbLine
 10
94.10000000000002
 20
6.500000000000053
 30
0.0
 11
94.10000000000005
 21
-6.499999999999947
 31
0.0
  0
SOLID
  5
5FE
330
5F8
100
AcDbEntity
  8
2
 62
     0
100
AcDbTrace
 10
94.5166666666667
 20
6.500000000000054
 30
0.0
 11
93.68333333333335
 21
6.500000000000052
 31
0.0
 12
94.10000000000001
 22
9.000000000000053
 32
0.0
 13
94.10000000000001
 23
9.000000000000053
 33
0.0
  0
SOLID
  5
5FF
330
5F8
100
AcDbEntity
  8
2
 62
     0
100
AcDbTrace
 10
93.68333333333338
 20
-6.499999999999948
 30
0.0
 11
94.51666666666672
 21
-6.499999999999946
 31
0.0
 12
94.10000000000007
 22
-8.999999999999947
 32
0.0
 13
94.10000000000007
 23
-8.999999999999947
 33
0.0
  0
MTEXT
  5
600
330
5F8
100
AcDbEntity
  8
2
 62
     0
100
AcDbMText
 10
91.70925000000004
 20
0.0000000000000457
 30
0.0
 40
3.5
 41
0.0
 71
     5
 72
     1
  1
M18
  7
SIMPLEX
 11
-3.157967714489334E-15
 21
1.0
 31
0.0
 73
     1
 44
1.0
  0
POINT
  5
601
330
5F8
100
AcDbEntity
  8
DEFPOINTS
 62
     0
100
AcDbPoint
 10
79.1
 20
9.0
 30
0.0
  0
POINT
  5
602
330
5F8
100
AcDbEntity
  8
DEFPOINTS
 62
     0
100
AcDbPoint
 10
79.1
 20
-9.0
 30
0.0
  0
POINT
  5
603
330
5F8
100
AcDbEntity
  8
DEFPOINTS
 62
     0
100
AcDbPoint
 10
94.10000000000007
 20
-8.999999999999947
 30
0.0
  0
ENDBLK
  5
5FA
330
5F8
100
AcDbEntity
  8
0
100
AcDbBlockEnd
  0
BLOCK
  5
606
330
605
100
AcDbEntity
  8
0
100
AcDbBlockBegin
  2
*D1
 70
     1
 10
0.0
 20
0.0
 30
0.0
  3
*D1
  1

  0
LINE
  5
608
330
605
100
AcDbEntity
  8
2
 62
     0
370
    -2
100
AcDbLine
 10
0.0
 20
0.0
 30
0.0
 11
0.0
 21
76.25
 31
0.0
  0
LINE
  5
609
330
605
100
AcDbEntity
  8
2
 62
     0
370
    -2
100
AcDbLine
 10
79.1
 20
0.0
 30
0.0
 11
79.1
 21
76.25
 31
0.0
  0
LINE
  5
60A
330
605
100
AcDbEntity
  8
2
 62
     0
370
    -2
100
AcDbLine
 10
2.5
 20
75.0
 30
0.0
 11
76.6
 21
75.0
 31
0.0
  0
SOLID
  5
60B
330
605
100
AcDbEntity
  8
2
 62
     0
100
AcDbTrace
 10
2.5
 20
75.41666666666667
 30
0.0
 11
2.5
 21
74.58333333333333
 31
0.0
 12
0.0
 22
75.0
 32
0.0
 13
0.0
 23
75.0
 33
0.0
  0
SOLID
  5
60C
330
605
100
AcDbEntity
  8
2
 62
     0
100
AcDbTrace
 10
76.6
 20
74.58333333333333
 30
0.0
 11
76.6
 21
75.41666666666667
 31
0.0
 12
79.1
 22
75.0
 32
0.0
 13
79.1
 23
75.0
 33
0.0
  0
MTEXT
  5
60D
330
605
100
AcDbEntity
  8
2
 62
     0
100
AcDbMText
 10
39.55
 20
77.39775
 30
0.0
 40
3.5
 41
0.0
 71
     5
 72
     1
  1
79.1
  7
SIMPLEX
 73
     1
 44
1.0
  0
POINT
  5
60E
330
605
100
AcDbEntity
  8
DEFPOINTS
 62
     0
100
AcDbPoint
 10
0.0
 20
0.0
 30
0.0
  0
POINT
  5
60F
330
605
100
AcDbEntity
  8
DEFPOINTS
 62
     0
100
AcDbPoint
 10
79.1
 20
0.0
 30
0.0
  0
POINT
  5
610
330
605
100
AcDbEntity
  8
DEFPOINTS
 62
     0
100
AcDbPoint
 10
79.1
 20
75.0
 30
0.0
  0
ENDBLK
  5
607
330
605
100
AcDbEntity
  8
0
100
AcDbBlockEnd
  0
BLOCK
  5
613
330
612
100
AcDbEntity
  8
0
100
AcDbBlockBegin
  2
*D2
 70
     1
 10
0.0
 20
0.0
 30
0.0
  3
*D2
  1

  0
LINE
  5
615
330
612
100
AcDbEntity
  8
SK2
 62
     0
370
    -2
100
AcDbLine
 10
-29.89800000000001
 20
6.8834
 30
0.0
 11
-62.15000000003513
 21
6.883399999835405
 31
0.0
  0
LINE
  5
616
330
612
100
AcDbEntity
  8
SK2
 62
     0
370
    -2
100
AcDbLine
 10
-29.89800000000001
 20
-6.8834
 30
0.0
 11
-62.14999999996488
 21
-6.883400000164595
 31
0.0
  0
LINE
  5
617
330
612
100
AcDbEntity
  8
SK2
 62
     0
370
    -2
100
AcDbLine
 10
-60.89999999996488
 20
-6.883400000158216
 30
0.0
 11
-60.89999999985986
 21
-27.46140000015822
 31
0.0
  0
LINE
  5
618
330
612
100
AcDbEntity
  8
SK2
 62
     0
370
    -2
100
AcDbLine
 10
-60.90000000002237
 20
4.383399999841784
 30
0.0
 11
-60.89999999997764
 21
-4.383400000158216
 31
0.0
  0
SOLID
  5
619
330
612
100
AcDbEntity
  8
SK2
 62
     0
100
AcDbTrace
 10
-60.48333333335571
 20
4.383399999843911
 30
0.0
 11
-61.31666666668904
 21
4.383399999839658
 31
0.0
 12
-60.90000000003513
 22
6.883399999841784
 32
0.0
 13
-60.90000000003513
 23
6.883399999841784
 33
0.0
  0
SOLID
  5
61A
330
612
100
AcDbEntity
  8
SK2
 62
     0
100
AcDbTrace
 10
-61.3166666666443
 20
-4.383400000160342
 30
0.0
 11
-60.48333333331097
 21
-4.383400000156089
 31
0.0
 12
-60.89999999996488
 22
-6.883400000158216
 32
0.0
 13
-60.89999999996488
 23
-6.883400000158216
 33
0.0
  0
MTEXT
  5
61B
330
612
100
AcDbEntity
  8
SK2
 62
     0
100
AcDbMText
 10
-63.29774999990599
 20
-18.42240000017045
 30
0.0
 40
3.5
 41
0.0
 71
     5
 72
     1
  1
%%c13.77
  7
SIMPLEX
 11
-5.103471083473190E-12
 21
1.0
 31
0.0
 73
     1
 44
1.0
  0
POINT
  5
61C
330
612
100
AcDbEntity
  8
DEFPOINTS
 62
     0
100
AcDbPoint
 10
-29.89800000000001
 20
6.8834
 30
0.0
  0
POINT
  5
61D
330
612
100
AcDbEntity
  8
DEFPOINTS
 62
     0
100
AcDbPoint
 10
-29.89800000000001
 20
-6.8834
 30
0.0
  0
POINT
  5
61E
330
612
100
AcDbEntity
  8
DEFPOINTS
 62
     0
100
AcDbPoint
 10
-60.89999999996488
 20
-6.883400000158216
 30
0.0
  0
ENDBLK
  5
614
330
612
100
AcDbEntity
  8
0
100
AcDbBlockEnd
  0
BLOCK
  5
621
330
620
100
AcDbEntity
  8
0
100
AcDbBlockBegin
  2
*D3
 70
     1
 10
0.0
 20
0.0
 30
0.0
  3
*D3
  1

  0
LINE
  5
623
330
620
100
AcDbEntity
  8
2
 62
     0
370
    -2
100
AcDbLine
 10
47.75766062
 20
6.675
 30
0.0
 11
47.75766062
 21
61.25
 31
0.0
  0
LINE
  5
624
330
620
100
AcDbEntity
  8
2
 62
     0
370
    -2
100
AcDbLine
 10
79.1
 20
9.0
 30
0.0
 11
79.1
 21
61.25
 31
0.0
  0
LINE
  5
625
330
620
100
AcDbEntity
  8
2
 62
     0
370
    -2
100
AcDbLine
 10
50.25766062
 20
60.0
 30
0.0
 11
76.6
 21
60.0
 31
0.0
  0
SOLID
  5
626
330
620
100
AcDbEntity
  8
2
 62
     0
100
AcDbTrace
 10
50.25766062
 20
60.41666666666666
 30
0.0
 11
50.25766062
 21
59.58333333333334
 31
0.0
 12
47.75766062
 22
60.0
 32
0.0
 13
47.75766062
 23
60.0
 33
0.0
  0
SOLID
  5
627
330
620
100
AcDbEntity
  8
2
 62
     0
100
AcDbTrace
 10
76.6
 20
59.58333333333334
 30
0.0
 11
76.6
 21
60.41666666666666
 31
0.0
 12
79.1
 22
60.0
 32
0.0
 13
79.1
 23
60.0
 33
0.0
  0
MTEXT
  5
628
330
620
100
AcDbEntity
  8
2
 62
     0
100
AcDbMText
 10
63.42883031
 20
62.438
 30
0.0
 40
3.5
 41
0.0
 71
     5
 72
     1
  1
31.34
  7
SIMPLEX
 73
     1
 44
1.0
  0
POINT
  5
629
330
620
100
AcDbEntity
  8
DEFPOINTS
 62
     0
100
AcDbPoint
 10
47.75766062
 20
6.675
 30
0.0
  0
POINT
  5
62A
330
620
100
AcDbEntity
  8
DEFPOINTS
 62
     0
100
AcDbPoint
 10
79.1
 20
9.0
 30
0.0
  0
POINT
  5
62B
330
620
100
AcDbEntity
  8
DEFPOINTS
 62
     0
100
AcDbPoint
 10
79.1
 20
60.0
 30
0.0
  0
ENDBLK
  5
622
330
620
100
AcDbEntity
  8
0
100
AcDbBlockEnd
  0
BLOCK
  5
62E
330
62D
100
AcDbEntity
  8
0
100
AcDbBlockBegin
  2
*D4
 70
     1
 10
0.0
 20
0.0
 30
0.0
  3
*D4
  1

  0
LINE
  5
630
330
62D
100
AcDbEntity
  8
SK2
 62
     0
370
    -2
100
AcDbLine
 10
-45.90000000000001
 20
9.0
 30
0.0
 11
-45.90000000000001
 21
91.25
 31
0.0
  0
LINE
  5
631
330
62D
100
AcDbEntity
  8
SK2
 62
     0
370
    -2
100
AcDbLine
 10
79.1
 20
9.0
 30
0.0
 11
79.1
 21
91.25
 31
0.0
  0
LINE
  5
632
330
62D
100
AcDbEntity
  8
SK2
 62
     0
370
    -2
100
AcDbLine
 10
-43.40000000000001
 20
90.0
 30
0.0
 11
76.6
 21
90.0
 31
0.0
  0
SOLID
  5
633
330
62D
100
AcDbEntity
  8
SK2
 62
     0
100
AcDbTrace
 10
-43.40000000000001
 20
90.41666666666667
 30
0.0
 11
-43.40000000000001
 21
89.58333333333333
 31
0.0
 12
-45.90000000000001
 22
90.0
 32
0.0
 13
-45.90000000000001
 23
90.0
 33
0.0
  0
SOLID
  5
634
330
62D
100
AcDbEntity
  8
SK2
 62
     0
100
AcDbTrace
 10
76.6
 20
89.58333333333333
 30
0.0
 11
76.6
 21
90.41666666666667
 31
0.0
 12
79.1
 22
90.0
 32
0.0
 13
79.1
 23
90.0
 33
0.0
  0
MTEXT
  5
635
330
62D
100
AcDbEntity
  8
SK2
 62
     0
100
AcDbMText
 10
16.59999999999999
 20
92.39075
 30
0.0
 40
3.5
 41
0.0
 71
     5
 72
     1
  1
125
  7
SIMPLEX
 73
     1
 44
1.0
  0
POINT
  5
636
330
62D
100
AcDbEntity
  8
DEFPOINTS
 62
     0
100
AcDbPoint
 10
-45.90000000000001
 20
9.0
 30
0.0
  0
POINT
  5
637
330
62D
100
AcDbEntity
  8
DEFPOINTS
 62
     0
100
AcDbPoint
 10
79.1
 20
9.0
 30
0.0
  0
POINT
  5
638
330
62D
100
AcDbEntity
  8
DEFPOINTS
 62
     0
100
AcDbPoint
 10
79.1
 20
90.0
 30
0.0
  0
ENDBLK
  5
62F
330
62D
100
AcDbEntity
  8
0
100
AcDbBlockEnd
  0
ENDSEC
  0
SECTION
  2
ENTITIES
  0
LINE
  5
3D6
330
18
100
AcDbEntity
  8
SK4
100
AcDbLine
 10
-47.90000000000001
 20
0.0
 30
0.0
 11
7.099999999999994
 21
0.0
 31
0.0
  0
LINE
  5
3D7
330
18
100
AcDbEntity
  8
4
100
AcDbLine
 10
5.099999999999994
 20
0.0
 30
0.0
 11
81.1
 21
0.0
 31
0.0
  0
LINE
  5
3D8
330
18
100
AcDbEntity
  8
SK4
100
AcDbLine
 10
5.099999999999994
 20
0.0
 30
0.0
 11
81.1
 21
0.0
 31
0.0
  0
LINE
  5
3D9
330
18
100
AcDbEntity
  8
1
100
AcDbLine
 10
7.099999999999994
 20
6.8834
 30
0.0
 11
7.099999999999994
 21
6.876556569877807
 31
0.0
  0
LINE
  5
3DA
330
18
100
AcDbEntity
  8
1
100
AcDbLine
 10
7.099999999999994
 20
6.876556569877807
 30
0.0
 11
7.099999999999993
 21
6.265775837284837
 31
0.0
  0
LINE
  5
3DB
330
18
100
AcDbEntity
  8
1
100
AcDbLine
 10
7.099999999999993
 20
6.265775837284837
 30
0.0
 11
7.099999999999994
 21
-6.8834
 31
0.0
  0
LINE
  5
3DC
330
18
100
AcDbEntity
  8
1
100
AcDbLine
 10
7.099999999999994
 20
6.8834
 30
0.0
 11
0.0
 21
6.8834
 31
0.0
  0
LINE
  5
3DD
330
18
100
AcDbEntity
  8
1
100
AcDbLine
 10
38.09999999999999
 20
6.648942685872358
 30
0.0
 11
47.75766061999999
 21
6.648942685872358
 31
0.0
  0
LINE
  5
3DE
330
18
100
AcDbEntity
  8
1
100
AcDbLine
 10
7.099999999999994
 20
6.675
 30
0.0
 11
47.75766062
 21
6.675
 31
0.0
  0
LINE
  5
3DF
330
18
100
AcDbEntity
  8
1
100
AcDbLine
 10
38.1
 20
-0.5892250503708014
 30
0.0
 11
38.1
 21
-4.146408953333806
 31
0.0
  0
LINE
  5
3E0
330
18
100
AcDbEntity
  8
1
100
AcDbLine
 10
38.10000000000001
 20
6.648942685872359
 30
0.0
 11
38.1
 21
5.230957636199442
 31
0.0
  0
LINE
  5
3E1
330
18
100
AcDbEntity
  8
1
100
AcDbLine
 10
38.09999999999999
 20
-4.146408953333808
 30
0.0
 11
47.75766062
 21
-4.146408953333808
 31
0.0
  0
LINE
  5
3E2
330
18
100
AcDbEntity
  8
1
100
AcDbLine
 10
38.09999999999999
 20
-0.5892250503708001
 30
0.0
 11
47.75766062
 21
-0.5892250503708001
 31
0.0
  0
LINE
  5
3E3
330
18
100
AcDbEntity
  8
1
100
AcDbLine
 10
38.09999999999999
 20
5.23095763619944
 30
0.0
 11
47.75766061999998
 21
5.230957636199439
 31
0.0
  0
LINE
  5
3E4
330
18
100
AcDbEntity
  8
1
100
AcDbLine
 10
47.75766062
 20
6.675
 30
0.0
 11
47.75766062
 21
6.674998462859402
 31
0.0
  0
LINE
  5
3E5
330
18
100
AcDbEntity
  8
1
100
AcDbLine
 10
47.75766062
 20
6.674998462859402
 30
0.0
 11
47.75766062
 21
6.674553776441781
 31
0.0
  0
LINE
  5
3E6
330
18
100
AcDbEntity
  8
1
100
AcDbLine
 10
47.75766062
 20
6.674553776441781
 30
0.0
 11
47.75766062
 21
6.668593945640903
 31
0.0
  0
LINE
  5
3E7
330
18
100
AcDbEntity
  8
1
100
AcDbLine
 10
47.75766062
 20
6.668593945640903
 30
0.0
 11
47.75766061999999
 21
6.648942685872358
 31
0.0
  0
LINE
  5
3E8
330
18
100
AcDbEntity
  8
1
100
AcDbLine
 10
47.75766062
 20
6.648942685872357
 30
0.0
 11
47.75766061999999
 21
5.230957636200583
 31
0.0
  0
LINE
  5
3E9
330
18
100
AcDbEntity
  8
1
100
AcDbLine
 10
47.75766062
 20
5.23095763619944
 30
0.0
 11
47.75766062
 21
-0.5892250503708
 31
0.0
  0
LINE
  5
3EA
330
18
100
AcDbEntity
  8
1
100
AcDbLine
 10
47.75766062
 20
-1.88928445239452
 30
0.0
 11
47.75766062
 21
-4.146408953333808
 31
0.0
  0
LINE
  5
3EB
330
18
100
AcDbEntity
  8
1
100
AcDbLine
 10
47.75766062
 20
-4.146408953333806
 30
0.0
 11
47.75766062
 21
-6.639801250960772
 31
0.0
  0
LINE
  5
3EC
330
18
100
AcDbEntity
  8
1
100
AcDbLine
 10
47.75766062
 20
-6.639801250960772
 30
0.0
 11
47.75766062
 21
-6.675
 31
0.0
  0
LINE
  5
3ED
330
18
100
AcDbEntity
  8
1
100
AcDbLine
 10
-0.0000000000000013
 20
-6.8834
 30
0.0
 11
7.099999999999994
 21
-6.8834
 31
0.0
  0
LINE
  5
3EE
330
18
100
AcDbEntity
  8
1
100
AcDbLine
 10
7.099999999999994
 20
-6.675
 30
0.0
 11
47.75766062
 21
-6.675
 31
0.0
  0
LINE
  5
3EF
330
18
100
AcDbEntity
  8
1
100
AcDbLine
 10
47.75766062000001
 20
-0.5892250503708002
 30
0.0
 11
47.75766062
 21
-1.889284452394526
 31
0.0
  0
LINE
  5
3F0
330
18
100
AcDbEntity
  8
1
 62
     1
100
AcDbLine
 10
79.10000000000001
 20
6.854775584871774
 30
0.0
 11
79.1
 21
6.8849374993115
 31
0.0
  0
LINE
  5
3F1
330
18
100
AcDbEntity
  8
1
 62
     1
100
AcDbLine
 10
79.09999999999998
 20
6.854775584871777
 30
0.0
 11
79.09999999999998
 21
5.242033128036311
 31
0.0
  0
LINE
  5
3F2
330
18
100
AcDbEntity
  8
1
 62
     1
100
AcDbLine
 10
79.10000000000001
 20
-0.6437515514172144
 30
0.0
 11
79.1
 21
5.2420331280363
 31
0.0
  0
LINE
  5
3F3
330
18
100
AcDbEntity
  8
1
 62
     1
100
AcDbLine
 10
79.1
 20
-4.463569542807216
 30
0.0
 11
79.1
 21
-1.889284452394525
 31
0.0
  0
LINE
  5
3F4
330
18
100
AcDbEntity
  8
1
 62
     1
100
AcDbLine
 10
79.1
 20
-6.884937499999999
 30
0.0
 11
79.1
 21
-6.884429582010868
 31
0.0
  0
LINE
  5
3F5
330
18
100
AcDbEntity
  8
1
 62
     1
100
AcDbLine
 10
79.1
 20
-6.884429582010868
 30
0.0
 11
79.1
 21
-6.727395874273736
 31
0.0
  0
LINE
  5
3F6
330
18
100
AcDbEntity
  8
1
 62
     1
100
AcDbLine
 10
79.1
 20
-6.727395874273736
 30
0.0
 11
79.1
 21
-4.463569542807216
 31
0.0
  0
LINE
  5
3F7
330
18
100
AcDbEntity
  8
1
 62
     1
100
AcDbLine
 10
70.1896351444087
 20
8.772240051873052
 30
0.0
 11
70.53868668034164
 21
8.723185235314249
 31
0.0
  0
LINE
  5
3F8
330
18
100
AcDbEntity
  8
1
 62
     1
100
AcDbLine
 10
52.82113247308105
 20
9.0
 30
0.0
 11
52.87886752691899
 21
9.0
 31
0.0
  0
LINE
  5
3F9
330
18
100
AcDbEntity
  8
1
 62
     1
100
AcDbLine
 10
55.32113247308105
 20
9.0
 30
0.0
 11
55.37886752691898
 21
9.0
 31
0.0
  0
LINE
  5
3FA
330
18
100
AcDbEntity
  8
1
 62
     1
100
AcDbLine
 10
57.82113247308105
 20
9.0
 30
0.0
 11
57.87886752691899
 21
9.0
 31
0.0
  0
LINE
  5
3FB
330
18
100
AcDbEntity
  8
1
 62
     1
100
AcDbLine
 10
62.82113247308104
 20
9.0
 30
0.0
 11
62.87886752691896
 21
9.000000000000002
 31
0.0
  0
LINE
  5
3FC
330
18
100
AcDbEntity
  8
1
 62
     1
100
AcDbLine
 10
65.32113247308102
 20
9.0
 30
0.0
 11
65.37886752691897
 21
9.0
 31
0.0
  0
LINE
  5
3FD
330
18
100
AcDbEntity
  8
1
 62
     1
100
AcDbLine
 10
67.82113247308102
 20
9.0
 30
0.0
 11
67.87886752691897
 21
9.0
 31
0.0
  0
LINE
  5
3FE
330
18
100
AcDbEntity
  8
1
 62
     1
100
AcDbLine
 10
47.75766062
 20
6.675
 30
0.0
 11
48.48943390485759
 21
7.942468505091396
 31
0.0
  0
LINE
  5
3FF
330
18
100
AcDbEntity
  8
1
 62
     1
100
AcDbLine
 10
77.12676105800561
 20
-7.797313990518631
 30
0.0
 11
76.6
 21
-6.8849375
 31
0.0
  0
LINE
  5
400
330
18
100
AcDbEntity
  8
1
 62
     1
100
AcDbLine
 10
74.81438575347329
 20
-8.12228934430342
 30
0.0
 11
74.1
 21
-6.8849375
 31
0.0
  0
LINE
  5
401
330
18
100
AcDbEntity
  8
1
 62
     1
100
AcDbLine
 10
72.50201044894101
 20
-8.447264698088283
 30
0.0
 11
71.6
 21
-6.8849375
 31
0.0
  0
LINE
  5
402
330
18
100
AcDbEntity
  8
1
 62
     1
100
AcDbLine
 10
50.32113247308102
 20
-8.999999999999993
 30
0.0
 11
49.1
 21
-6.8849375
 31
0.0
  0
LINE
  5
403
330
18
100
AcDbEntity
  8
1
 62
     1
100
AcDbLine
 10
52.82113247308104
 20
-9.000000000000032
 30
0.0
 11
51.6
 21
-6.8849375
 31
0.0
  0
LINE
  5
404
330
18
100
AcDbEntity
  8
1
 62
     1
100
AcDbLine
 10
55.32113247308105
 20
-9.000000000000032
 30
0.0
 11
54.1
 21
-6.8849375
 31
0.0
  0
LINE
  5
405
330
18
100
AcDbEntity
  8
1
 62
     1
100
AcDbLine
 10
57.82113247308104
 20
-9.00000000000002
 30
0.0
 11
56.6
 21
-6.8849375
 31
0.0
  0
LINE
  5
406
330
18
100
AcDbEntity
  8
1
 62
     1
100
AcDbLine
 10
60.32113247308104
 20
-9.00000000000002
 30
0.0
 11
59.1
 21
-6.8849375
 31
0.0
  0
LINE
  5
407
330
18
100
AcDbEntity
  8
1
 62
     1
100
AcDbLine
 10
62.82113247308104
 20
-9.00000000000002
 30
0.0
 11
61.6
 21
-6.8849375
 31
0.0
  0
LINE
  5
408
330
18
100
AcDbEntity
  8
1
 62
     1
100
AcDbLine
 10
65.32113247308102
 20
-8.999999999999993
 30
0.0
 11
64.1
 21
-6.8849375
 31
0.0
  0
LINE
  5
409
330
18
100
AcDbEntity
  8
1
 62
     1
100
AcDbLine
 10
67.82113247308102
 20
-8.999999999999993
 30
0.0
 11
66.6
 21
-6.8849375
 31
0.0
  0
LINE
  5
40A
330
18
100
AcDbEntity
  8
1
 62
     1
100
AcDbLine
 10
78.7009692136443
 20
5.276024669342306
 30
0.0
 11
77.1267610580056
 21
5.286318904069869
 31
0.0
  0
LINE
  5
40B
330
18
100
AcDbEntity
  8
1
 62
     1
100
AcDbLine
 10
78.7009692136443
 20
-0.8872794513398641
 30
0.0
 11
77.12676105800558
 21
-0.9649622370130815
 31
0.0
  0
LINE
  5
40C
330
18
100
AcDbEntity
  8
1
 62
     1
100
AcDbLine
 10
78.70096921364431
 20
5.276024669342306
 30
0.0
 11
78.7009692136443
 21
-0.8872794513398965
 31
0.0
  0
LINE
  5
40D
330
18
100
AcDbEntity
  8
1
 62
     1
100
AcDbLine
 10
75.98020836921009
 20
5.293680083777383
 30
0.0
 11
74.81438575347329
 21
5.301060365360156
 31
0.0
  0
LINE
  5
40E
330
18
100
AcDbEntity
  8
1
 62
     1
100
AcDbLine
 10
75.98020836921006
 20
-1.021468164446842
 30
0.0
 11
74.81438575347329
 21
-1.07886494306278
 31
0.0
  0
LINE
  5
40F
330
18
100
AcDbEntity
  8
1
 62
     1
100
AcDbLine
 10
73.25944752477584
 20
5.31075717499882
 30
0.0
 11
72.50201044894101
 21
5.315425493682626
 31
0.0
  0
LINE
  5
410
330
18
100
AcDbEntity
  8
1
 62
     1
100
AcDbLine
 10
73.25944752477587
 20
-1.155332964606673
 30
0.0
 11
72.50201044921454
 21
-1.192548388177297
 31
0.0
  0
LINE
  5
411
330
18
100
AcDbEntity
  8
1
 62
     1
100
AcDbLine
 10
70.53868668034164
 20
5.32737572621958
 30
0.0
 11
70.1896351444087
 21
5.329479297171677
 31
0.0
  0
LINE
  5
412
330
18
100
AcDbEntity
  8
1
 62
     1
100
AcDbLine
 10
70.5386866808628
 20
-1.288918347414776
 30
0.0
 11
70.1896351444087
 21
-1.306037999498481
 31
0.0
  0
LINE
  5
413
330
18
100
AcDbEntity
  8
1
 62
     1
100
AcDbLine
 10
70.53868668034164
 20
5.327375726219581
 30
0.0
 11
70.53868668034166
 21
-1.288918346866857
 31
0.0
  0
ARC
  5
414
330
18
100
AcDbEntity
  8
1
 62
     1
100
AcDbCircle
 10
43.63475532364412
 20
8.490245489312876
 30
0.0
 40
35.41934362872978
100
AcDbArc
 50
335.9532032294851
 51
338.5474709449141
  0
LINE
  5
415
330
18
100
AcDbEntity
  8
1
 62
     1
100
AcDbLine
 10
75.98020836921009
 20
-5.942544848699828
 30
0.0
 11
75.98020836921009
 21
-7.958447594109681
 31
0.0
  0
LINE
  5
416
330
18
100
AcDbEntity
  8
1
 62
     1
100
AcDbLine
 10
76.6
 20
-6.8849375
 30
0.0
 11
75.98020836921009
 21
-7.958447594109655
 31
0.0
  0
ARC
  5
417
330
18
100
AcDbEntity
  8
1
 62
     1
100
AcDbCircle
 10
107.0407812862876
 20
7.442507159866504
 30
0.0
 40
32.68635940673624
100
AcDbArc
 50
201.3615897510805
 51
203.768886597901
  0
LINE
  5
418
330
18
100
AcDbEntity
  8
1
 62
     1
100
AcDbLine
 10
76.6
 20
-6.8849375
 30
0.0
 11
76.6
 21
-6.88442958201087
 31
0.0
  0
LINE
  5
419
330
18
100
AcDbEntity
  8
1
 62
     1
100
AcDbLine
 10
76.6
 20
-6.88442958201087
 30
0.0
 11
76.6
 21
-6.727395874273737
 31
0.0
  0
LINE
  5
41A
330
18
100
AcDbEntity
  8
1
 62
     1
100
AcDbLine
 10
76.6
 20
-6.727395874273737
 30
0.0
 11
76.60000000000001
 21
-4.463569542807216
 31
0.0
  0
LINE
  5
41B
330
18
100
AcDbEntity
  8
1
 62
     1
100
AcDbLine
 10
77.12676105800561
 20
-5.731748242134426
 30
0.0
 11
77.12676105800561
 21
-7.797313990518629
 31
0.0
  0
ARC
  5
41C
330
18
100
AcDbEntity
  8
1
 62
     1
100
AcDbCircle
 10
48.98620544935454
 20
7.316357244599137
 30
0.0
 40
32.33594290641967
100
AcDbArc
 50
336.7714128017288
 51
338.6355356931948
  0
LINE
  5
41D
330
18
100
AcDbEntity
  8
1
 62
     1
100
AcDbLine
 10
78.70096921364431
 20
-5.436959929122229
 30
0.0
 11
78.7009692136443
 21
-7.576078773507399
 31
0.0
  0
LINE
  5
41E
330
18
100
AcDbEntity
  8
1
 62
     1
100
AcDbLine
 10
79.1
 20
-6.8849375
 30
0.0
 11
78.7009692136443
 21
-7.576078773507382
 31
0.0
  0
LINE
  5
41F
330
18
100
AcDbEntity
  8
1
 62
     1
100
AcDbLine
 10
67.878867526919
 20
5.339170609352449
 30
0.0
 11
67.82113247308104
 21
5.339170609352449
 31
0.0
  0
LINE
  5
420
330
18
100
AcDbEntity
  8
1
 62
     1
100
AcDbLine
 10
67.82113247308102
 20
5.339170609352449
 30
0.0
 11
67.82113247308101
 21
-1.385473731282317
 31
0.0
  0
LINE
  5
421
330
18
100
AcDbEntity
  8
1
 62
     1
100
AcDbLine
 10
67.87886752691898
 20
-1.385473731282305
 30
0.0
 11
67.82113247308101
 21
-1.385473731282305
 31
0.0
  0
LINE
  5
422
330
18
100
AcDbEntity
  8
1
 62
     1
100
AcDbLine
 10
67.87886752691897
 20
5.339170609352449
 30
0.0
 11
67.87886752691895
 21
-1.385473731282317
 31
0.0
  0
LINE
  5
423
330
18
100
AcDbEntity
  8
1
 62
     1
100
AcDbLine
 10
65.32113247308101
 20
5.339170609352449
 30
0.0
 11
65.32113247308102
 21
-1.385473731282317
 31
0.0
  0
LINE
  5
424
330
18
100
AcDbEntity
  8
1
 62
     1
100
AcDbLine
 10
65.37886752691895
 20
-1.385473731282305
 30
0.0
 11
65.32113247308101
 21
-1.385473731282305
 31
0.0
  0
LINE
  5
425
330
18
100
AcDbEntity
  8
1
 62
     1
100
AcDbLine
 10
65.37886752691897
 20
5.339170609352449
 30
0.0
 11
65.37886752691895
 21
-1.385473731282317
 31
0.0
  0
LINE
  5
426
330
18
100
AcDbEntity
  8
1
 62
     1
100
AcDbLine
 10
62.87886752691894
 20
-1.385473731282305
 30
0.0
 11
62.82113247308103
 21
-1.385473731282305
 31
0.0
  0
LINE
  5
427
330
18
100
AcDbEntity
  8
1
 62
     1
100
AcDbLine
 10
62.87886752691897
 20
5.339170609352449
 30
0.0
 11
62.87886752691896
 21
-1.385473731282317
 31
0.0
  0
LINE
  5
428
330
18
100
AcDbEntity
  8
1
 62
     1
100
AcDbLine
 10
60.37886752691897
 20
5.339170609352449
 30
0.0
 11
60.32113247308104
 21
5.339170609352449
 31
0.0
  0
LINE
  5
429
330
18
100
AcDbEntity
  8
1
 62
     1
100
AcDbLine
 10
60.32113247308105
 20
5.339170609352449
 30
0.0
 11
60.32113247308104
 21
-1.385473731282317
 31
0.0
  0
LINE
  5
42A
330
18
100
AcDbEntity
  8
1
 62
     1
100
AcDbLine
 10
60.37886752691898
 20
-1.385473731282305
 30
0.0
 11
60.32113247308104
 21
-1.385473731282305
 31
0.0
  0
LINE
  5
42B
330
18
100
AcDbEntity
  8
1
 62
     1
100
AcDbLine
 10
55.37886752691901
 20
5.33917060935245
 30
0.0
 11
55.32113247308105
 21
5.339170609352447
 31
0.0
  0
LINE
  5
42C
330
18
100
AcDbEntity
  8
1
 62
     1
100
AcDbLine
 10
55.32113247308104
 20
5.33917060935245
 30
0.0
 11
55.32113247308104
 21
-1.385473731282317
 31
0.0
  0
LINE
  5
42D
330
18
100
AcDbEntity
  8
1
 62
     1
100
AcDbLine
 10
55.37886752691899
 20
-1.385473731282305
 30
0.0
 11
55.32113247308106
 21
-1.385473731282305
 31
0.0
  0
LINE
  5
42E
330
18
100
AcDbEntity
  8
1
 62
     1
100
AcDbLine
 10
52.878867526919
 20
5.33917060935245
 30
0.0
 11
52.82113247308106
 21
5.339170609352452
 31
0.0
  0
LINE
  5
42F
330
18
100
AcDbEntity
  8
1
 62
     1
100
AcDbLine
 10
52.87886752691899
 20
-1.385473731282305
 30
0.0
 11
52.82113247308106
 21
-1.385473731282305
 31
0.0
  0
LINE
  5
430
330
18
100
AcDbEntity
  8
1
 62
     1
100
AcDbLine
 10
50.378867526919
 20
-1.385473731282305
 30
0.0
 11
50.32113247308102
 21
-1.385473731282305
 31
0.0
  0
LINE
  5
431
330
18
100
AcDbEntity
  8
1
 62
     1
100
AcDbLine
 10
69.1
 20
-4.46356954280722
 30
0.0
 11
70.1896351444087
 21
-6.967700190787845
 31
0.0
  0
LINE
  5
432
330
18
100
AcDbEntity
  8
1
 62
     1
100
AcDbLine
 10
70.1896351444087
 20
-8.772240051873094
 30
0.0
 11
69.1
 21
-6.8849375
 31
0.0
  0
LINE
  5
433
330
18
100
AcDbEntity
  8
1
 62
     1
100
AcDbLine
 10
70.18963514440868
 20
-6.967700190787791
 30
0.0
 11
70.1896351444087
 21
-8.772240051873052
 31
0.0
  0
LINE
  5
434
330
18
100
AcDbEntity
  8
1
 62
     1
100
AcDbLine
 10
70.53868668034164
 20
-6.907461800204974
 30
0.0
 11
71.6
 21
-4.46356954280722
 31
0.0
  0
LINE
  5
435
330
18
100
AcDbEntity
  8
1
 62
     1
100
AcDbLine
 10
70.53868668034164
 20
-6.907461800204971
 30
0.0
 11
70.53868668034164
 21
-8.723185235314249
 31
0.0
  0
ARC
  5
436
330
18
100
AcDbEntity
  8
1
 62
     1
100
AcDbCircle
 10
105.9150771280699
 20
9.033780965734042
 30
0.0
 40
36.87428724548764
100
AcDbArc
 50
201.4714938906439
 51
205.0257195163124
  0
LINE
  5
437
330
18
100
AcDbEntity
  8
1
 62
     1
100
AcDbLine
 10
71.6
 20
-6.8849375
 30
0.0
 11
71.59999999999998
 21
-6.88442958201087
 31
0.0
  0
LINE
  5
438
330
18
100
AcDbEntity
  8
1
 62
     1
100
AcDbLine
 10
71.59999999999998
 20
-6.88442958201087
 30
0.0
 11
71.6
 21
-6.727395874273737
 31
0.0
  0
LINE
  5
439
330
18
100
AcDbEntity
  8
1
 62
     1
100
AcDbLine
 10
71.6
 20
-6.727395874273737
 30
0.0
 11
71.60000000000001
 21
-4.463569542807216
 31
0.0
  0
LINE
  5
43A
330
18
100
AcDbEntity
  8
1
 62
     1
100
AcDbLine
 10
72.50201044894101
 20
-6.565251914487111
 30
0.0
 11
72.50201044894101
 21
-8.447264698088244
 31
0.0
  0
ARC
  5
43B
330
18
100
AcDbEntity
  8
1
 62
     1
100
AcDbCircle
 10
38.18790956808656
 20
9.7266855805259
 30
0.0
 40
38.61467020915392
100
AcDbArc
 50
335.2634022219571
 51
338.4391082655201
  0
LINE
  5
43C
330
18
100
AcDbEntity
  8
1
 62
     1
100
AcDbLine
 10
73.25944752477587
 20
-6.431568758252304
 30
0.0
 11
73.25944752477587
 21
-8.340816414711965
 31
0.0
  0
LINE
  5
43D
330
18
100
AcDbEntity
  8
1
 62
     1
100
AcDbLine
 10
74.1
 20
-6.8849375
 30
0.0
 11
73.25944752477587
 21
-8.340816414711954
 31
0.0
  0
ARC
  5
43E
330
18
100
AcDbEntity
  8
1
 62
     1
100
AcDbCircle
 10
106.4636059449974
 20
8.227694261650765
 30
0.0
 40
34.76314809713957
100
AcDbArc
 50
201.4124380009033
 51
204.43731320577
  0
LINE
  5
43F
330
18
100
AcDbEntity
  8
1
 62
     1
100
AcDbLine
 10
74.1
 20
-6.8849375
 30
0.0
 11
74.1
 21
-6.88442958201087
 31
0.0
  0
LINE
  5
440
330
18
100
AcDbEntity
  8
1
 62
     1
100
AcDbLine
 10
74.1
 20
-6.88442958201087
 30
0.0
 11
74.10000000000001
 21
-6.727395874273737
 31
0.0
  0
LINE
  5
441
330
18
100
AcDbEntity
  8
1
 62
     1
100
AcDbLine
 10
74.10000000000001
 20
-6.727395874273737
 30
0.0
 11
74.1
 21
-4.463569542807216
 31
0.0
  0
LINE
  5
442
330
18
100
AcDbEntity
  8
1
 62
     1
100
AcDbLine
 10
74.81438575347329
 20
-6.153888461403313
 30
0.0
 11
74.81438575347329
 21
-8.12228934430344
 31
0.0
  0
LINE
  5
443
330
18
100
AcDbEntity
  8
1
 62
     1
100
AcDbLine
 10
67.87886752691897
 20
-7.245223061040079
 30
0.0
 11
68.51444518322238
 21
-5.865324819562354
 31
0.0
  0
LINE
  5
444
330
18
100
AcDbEntity
  8
1
 62
     1
100
AcDbLine
 10
68.51444518322238
 20
-5.865324819562354
 30
0.0
 11
69.1
 21
-4.46356954280722
 31
0.0
  0
LINE
  5
445
330
18
100
AcDbEntity
  8
1
 62
     1
100
AcDbLine
 10
67.87886752691897
 20
-7.245223061040082
 30
0.0
 11
67.87886752691897
 21
-9.0
 31
0.0
  0
LINE
  5
446
330
18
100
AcDbEntity
  8
1
 62
     1
100
AcDbLine
 10
69.1
 20
-6.8849375
 30
0.0
 11
67.87886752691897
 21
-8.999999999999995
 31
0.0
  0
LINE
  5
447
330
18
100
AcDbEntity
  8
1
 62
     1
100
AcDbLine
 10
69.1
 20
-6.8849375
 30
0.0
 11
69.1
 21
-6.88442958201087
 31
0.0
  0
LINE
  5
448
330
18
100
AcDbEntity
  8
1
 62
     1
100
AcDbLine
 10
69.1
 20
-6.88442958201087
 30
0.0
 11
69.10000000000001
 21
-6.727395874273737
 31
0.0
  0
LINE
  5
449
330
18
100
AcDbEntity
  8
1
 62
     1
100
AcDbLine
 10
69.10000000000001
 20
-6.727395874273737
 30
0.0
 11
69.1
 21
-4.463569542807216
 31
0.0
  0
LINE
  5
44A
330
18
100
AcDbEntity
  8
1
 62
     1
100
AcDbLine
 10
62.87886752691897
 20
-7.245223061040104
 30
0.0
 11
63.51444518322237
 21
-5.865324819562366
 31
0.0
  0
LINE
  5
44B
330
18
100
AcDbEntity
  8
1
 62
     1
100
AcDbLine
 10
63.51444518322237
 20
-5.865324819562366
 30
0.0
 11
64.1
 21
-4.46356954280722
 31
0.0
  0
LINE
  5
44C
330
18
100
AcDbEntity
  8
1
 62
     1
100
AcDbLine
 10
62.87886752691897
 20
-7.245223061040082
 30
0.0
 11
62.87886752691896
 21
-9.0
 31
0.0
  0
LINE
  5
44D
330
18
100
AcDbEntity
  8
1
 62
     1
100
AcDbLine
 10
64.1
 20
-6.8849375
 30
0.0
 11
62.87886752691896
 21
-9.000000000000018
 31
0.0
  0
LINE
  5
44E
330
18
100
AcDbEntity
  8
1
 62
     1
100
AcDbLine
 10
64.1
 20
-4.46356954280722
 30
0.0
 11
64.6855550132486
 21
-5.865325252228113
 31
0.0
  0
LINE
  5
44F
330
18
100
AcDbEntity
  8
1
 62
     1
100
AcDbLine
 10
64.6855550132486
 20
-5.865325252228113
 30
0.0
 11
65.32113247308101
 21
-7.245223061040081
 31
0.0
  0
LINE
  5
450
330
18
100
AcDbEntity
  8
1
 62
     1
100
AcDbLine
 10
64.1
 20
-6.8849375
 30
0.0
 11
64.1
 21
-6.88442958201087
 31
0.0
  0
LINE
  5
451
330
18
100
AcDbEntity
  8
1
 62
     1
100
AcDbLine
 10
64.1
 20
-6.88442958201087
 30
0.0
 11
64.1
 21
-6.727395874273737
 31
0.0
  0
LINE
  5
452
330
18
100
AcDbEntity
  8
1
 62
     1
100
AcDbLine
 10
64.1
 20
-6.727395874273737
 30
0.0
 11
64.1
 21
-4.463569542807216
 31
0.0
  0
LINE
  5
453
330
18
100
AcDbEntity
  8
1
 62
     1
100
AcDbLine
 10
65.32113247308101
 20
-7.245223061040082
 30
0.0
 11
65.32113247308102
 21
-9.0
 31
0.0
  0
LINE
  5
454
330
18
100
AcDbEntity
  8
1
 62
     1
100
AcDbLine
 10
65.37886752691897
 20
-7.245223061040079
 30
0.0
 11
66.01444518322238
 21
-5.865324819562352
 31
0.0
  0
LINE
  5
455
330
18
100
AcDbEntity
  8
1
 62
     1
100
AcDbLine
 10
66.01444518322238
 20
-5.865324819562352
 30
0.0
 11
66.6
 21
-4.46356954280722
 31
0.0
  0
LINE
  5
456
330
18
100
AcDbEntity
  8
1
 62
     1
100
AcDbLine
 10
65.37886752691897
 20
-7.245223061040082
 30
0.0
 11
65.37886752691897
 21
-9.0
 31
0.0
  0
LINE
  5
457
330
18
100
AcDbEntity
  8
1
 62
     1
100
AcDbLine
 10
66.6
 20
-6.8849375
 30
0.0
 11
65.37886752691897
 21
-8.999999999999995
 31
0.0
  0
LINE
  5
458
330
18
100
AcDbEntity
  8
1
 62
     1
100
AcDbLine
 10
66.6
 20
-4.46356954280722
 30
0.0
 11
67.1855550132486
 21
-5.865325252228113
 31
0.0
  0
LINE
  5
459
330
18
100
AcDbEntity
  8
1
 62
     1
100
AcDbLine
 10
67.1855550132486
 20
-5.865325252228113
 30
0.0
 11
67.82113247308102
 21
-7.245223061040081
 31
0.0
  0
LINE
  5
45A
330
18
100
AcDbEntity
  8
1
 62
     1
100
AcDbLine
 10
66.6
 20
-6.8849375
 30
0.0
 11
66.6
 21
-6.88442958201087
 31
0.0
  0
LINE
  5
45B
330
18
100
AcDbEntity
  8
1
 62
     1
100
AcDbLine
 10
66.6
 20
-6.88442958201087
 30
0.0
 11
66.60000000000001
 21
-6.727395874273737
 31
0.0
  0
LINE
  5
45C
330
18
100
AcDbEntity
  8
1
 62
     1
100
AcDbLine
 10
66.60000000000001
 20
-6.727395874273737
 30
0.0
 11
66.6
 21
-4.463569542807216
 31
0.0
  0
LINE
  5
45D
330
18
100
AcDbEntity
  8
1
 62
     1
100
AcDbLine
 10
67.82113247308102
 20
-7.245223061040082
 30
0.0
 11
67.82113247308102
 21
-9.0
 31
0.0
  0
LINE
  5
45E
330
18
100
AcDbEntity
  8
1
 62
     1
100
AcDbLine
 10
61.60000000000001
 20
-4.46356954280722
 30
0.0
 11
62.18555501324862
 21
-5.865325252228133
 31
0.0
  0
LINE
  5
45F
330
18
100
AcDbEntity
  8
1
 62
     1
100
AcDbLine
 10
62.18555501324862
 20
-5.865325252228133
 30
0.0
 11
62.82113247308105
 21
-7.245223061040106
 31
0.0
  0
LINE
  5
460
330
18
100
AcDbEntity
  8
1
 62
     1
100
AcDbLine
 10
61.6
 20
-6.8849375
 30
0.0
 11
61.6
 21
-6.88442958201087
 31
0.0
  0
LINE
  5
461
330
18
100
AcDbEntity
  8
1
 62
     1
100
AcDbLine
 10
61.6
 20
-6.88442958201087
 30
0.0
 11
61.60000000000001
 21
-6.727395874273737
 31
0.0
  0
LINE
  5
462
330
18
100
AcDbEntity
  8
1
 62
     1
100
AcDbLine
 10
61.60000000000001
 20
-6.727395874273737
 30
0.0
 11
61.60000000000002
 21
-4.463569542807216
 31
0.0
  0
LINE
  5
463
330
18
100
AcDbEntity
  8
1
 62
     1
100
AcDbLine
 10
62.82113247308104
 20
-7.245223061040082
 30
0.0
 11
62.82113247308104
 21
-9.0
 31
0.0
  0
LINE
  5
464
330
18
100
AcDbEntity
  8
1
 62
     1
100
AcDbLine
 10
56.60000000000001
 20
-4.46356954280722
 30
0.0
 11
57.18555501324862
 21
-5.865325252228129
 31
0.0
  0
LINE
  5
465
330
18
100
AcDbEntity
  8
1
 62
     1
100
AcDbLine
 10
57.18555501324862
 20
-5.865325252228129
 30
0.0
 11
57.82113247308104
 21
-7.245223061040106
 31
0.0
  0
LINE
  5
466
330
18
100
AcDbEntity
  8
1
 62
     1
100
AcDbLine
 10
57.82113247308104
 20
-7.245223061040082
 30
0.0
 11
57.82113247308104
 21
-9.0
 31
0.0
  0
LINE
  5
467
330
18
100
AcDbEntity
  8
1
 62
     1
100
AcDbLine
 10
57.87886752691898
 20
-7.245223061040079
 30
0.0
 11
58.5144451832224
 21
-5.865324819562356
 31
0.0
  0
LINE
  5
468
330
18
100
AcDbEntity
  8
1
 62
     1
100
AcDbLine
 10
58.5144451832224
 20
-5.865324819562356
 30
0.0
 11
59.10000000000001
 21
-4.46356954280722
 31
0.0
  0
LINE
  5
469
330
18
100
AcDbEntity
  8
1
 62
     1
100
AcDbLine
 10
57.87886752691897
 20
-7.245223061040082
 30
0.0
 11
57.87886752691897
 21
-9.0
 31
0.0
  0
LINE
  5
46A
330
18
100
AcDbEntity
  8
1
 62
     1
100
AcDbLine
 10
59.1
 20
-6.8849375
 30
0.0
 11
57.87886752691897
 21
-8.999999999999995
 31
0.0
  0
LINE
  5
46B
330
18
100
AcDbEntity
  8
1
 62
     1
100
AcDbLine
 10
59.10000000000001
 20
-4.46356954280722
 30
0.0
 11
59.68555501324862
 21
-5.865325252228135
 31
0.0
  0
LINE
  5
46C
330
18
100
AcDbEntity
  8
1
 62
     1
100
AcDbLine
 10
59.68555501324862
 20
-5.865325252228135
 30
0.0
 11
60.32113247308104
 21
-7.245223061040106
 31
0.0
  0
LINE
  5
46D
330
18
100
AcDbEntity
  8
1
 62
     1
100
AcDbLine
 10
59.1
 20
-6.8849375
 30
0.0
 11
59.09999999999999
 21
-6.88442958201087
 31
0.0
  0
LINE
  5
46E
330
18
100
AcDbEntity
  8
1
 62
     1
100
AcDbLine
 10
59.09999999999999
 20
-6.88442958201087
 30
0.0
 11
59.10000000000001
 21
-6.727395874273737
 31
0.0
  0
LINE
  5
46F
330
18
100
AcDbEntity
  8
1
 62
     1
100
AcDbLine
 10
59.10000000000001
 20
-6.727395874273737
 30
0.0
 11
59.10000000000002
 21
-4.463569542807216
 31
0.0
  0
LINE
  5
470
330
18
100
AcDbEntity
  8
1
 62
     1
100
AcDbLine
 10
60.32113247308105
 20
-7.245223061040082
 30
0.0
 11
60.32113247308104
 21
-9.0
 31
0.0
  0
LINE
  5
471
330
18
100
AcDbEntity
  8
1
 62
     1
100
AcDbLine
 10
60.37886752691897
 20
-7.245223061040079
 30
0.0
 11
61.01444518322241
 21
-5.865324819562358
 31
0.0
  0
LINE
  5
472
330
18
100
AcDbEntity
  8
1
 62
     1
100
AcDbLine
 10
61.01444518322241
 20
-5.865324819562358
 30
0.0
 11
61.60000000000001
 21
-4.46356954280722
 31
0.0
  0
LINE
  5
473
330
18
100
AcDbEntity
  8
1
 62
     1
100
AcDbLine
 10
60.37886752691898
 20
-7.245223061040082
 30
0.0
 11
60.37886752691897
 21
-9.0
 31
0.0
  0
LINE
  5
474
330
18
100
AcDbEntity
  8
1
 62
     1
100
AcDbLine
 10
61.6
 20
-6.8849375
 30
0.0
 11
60.37886752691898
 21
-8.999999999999995
 31
0.0
  0
LINE
  5
475
330
18
100
AcDbEntity
  8
1
 62
     1
100
AcDbLine
 10
55.37886752691898
 20
-7.245223061040077
 30
0.0
 11
56.01444518322241
 21
-5.865324819562356
 31
0.0
  0
LINE
  5
476
330
18
100
AcDbEntity
  8
1
 62
     1
100
AcDbLine
 10
56.01444518322241
 20
-5.865324819562356
 30
0.0
 11
56.60000000000001
 21
-4.46356954280722
 31
0.0
  0
LINE
  5
477
330
18
100
AcDbEntity
  8
1
 62
     1
100
AcDbLine
 10
55.37886752691898
 20
-7.245223061040082
 30
0.0
 11
55.37886752691899
 21
-9.0
 31
0.0
  0
LINE
  5
478
330
18
100
AcDbEntity
  8
1
 62
     1
100
AcDbLine
 10
56.6
 20
-6.8849375
 30
0.0
 11
55.37886752691899
 21
-8.99999999999997
 31
0.0
  0
LINE
  5
479
330
18
100
AcDbEntity
  8
1
 62
     1
100
AcDbLine
 10
56.6
 20
-6.8849375
 30
0.0
 11
56.6
 21
-6.88442958201087
 31
0.0
  0
LINE
  5
47A
330
18
100
AcDbEntity
  8
1
 62
     1
100
AcDbLine
 10
56.6
 20
-6.88442958201087
 30
0.0
 11
56.60000000000001
 21
-6.727395874273737
 31
0.0
  0
LINE
  5
47B
330
18
100
AcDbEntity
  8
1
 62
     1
100
AcDbLine
 10
56.60000000000001
 20
-6.727395874273737
 30
0.0
 11
56.60000000000001
 21
-4.463569542807216
 31
0.0
  0
LINE
  5
47C
330
18
100
AcDbEntity
  8
1
 62
     1
100
AcDbLine
 10
54.10000000000001
 20
-4.46356954280722
 30
0.0
 11
54.68555501324862
 21
-5.86532525222814
 31
0.0
  0
LINE
  5
47D
330
18
100
AcDbEntity
  8
1
 62
     1
100
AcDbLine
 10
54.68555501324862
 20
-5.86532525222814
 30
0.0
 11
55.32113247308106
 21
-7.24522306104012
 31
0.0
  0
LINE
  5
47E
330
18
100
AcDbEntity
  8
1
 62
     1
100
AcDbLine
 10
55.32113247308105
 20
-7.245223061040082
 30
0.0
 11
55.32113247308105
 21
-9.0
 31
0.0
  0
LINE
  5
47F
330
18
100
AcDbEntity
  8
1
 62
     1
100
AcDbLine
 10
52.87886752691898
 20
-7.245223061040077
 30
0.0
 11
53.51444518322241
 21
-5.865324819562354
 31
0.0
  0
LINE
  5
480
330
18
100
AcDbEntity
  8
1
 62
     1
100
AcDbLine
 10
53.51444518322241
 20
-5.865324819562354
 30
0.0
 11
54.10000000000001
 21
-4.46356954280722
 31
0.0
  0
LINE
  5
481
330
18
100
AcDbEntity
  8
1
 62
     1
100
AcDbLine
 10
52.878867526919
 20
-7.245223061040082
 30
0.0
 11
52.87886752691899
 21
-9.0
 31
0.0
  0
LINE
  5
482
330
18
100
AcDbEntity
  8
1
 62
     1
100
AcDbLine
 10
54.1
 20
-6.8849375
 30
0.0
 11
52.87886752691899
 21
-8.99999999999997
 31
0.0
  0
LINE
  5
483
330
18
100
AcDbEntity
  8
1
 62
     1
100
AcDbLine
 10
54.1
 20
-6.8849375
 30
0.0
 11
54.1
 21
-6.88442958201087
 31
0.0
  0
LINE
  5
484
330
18
100
AcDbEntity
  8
1
 62
     1
100
AcDbLine
 10
54.1
 20
-6.88442958201087
 30
0.0
 11
54.10000000000002
 21
-6.727395874273737
 31
0.0
  0
LINE
  5
485
330
18
100
AcDbEntity
  8
1
 62
     1
100
AcDbLine
 10
54.10000000000002
 20
-6.727395874273737
 30
0.0
 11
54.10000000000001
 21
-4.463569542807216
 31
0.0
  0
LINE
  5
486
330
18
100
AcDbEntity
  8
1
 62
     1
100
AcDbLine
 10
51.60000000000001
 20
-4.46356954280722
 30
0.0
 11
52.18555501324863
 21
-5.865325252228141
 31
0.0
  0
LINE
  5
487
330
18
100
AcDbEntity
  8
1
 62
     1
100
AcDbLine
 10
52.18555501324863
 20
-5.865325252228141
 30
0.0
 11
52.82113247308105
 21
-7.245223061040117
 31
0.0
  0
LINE
  5
488
330
18
100
AcDbEntity
  8
1
 62
     1
100
AcDbLine
 10
52.82113247308105
 20
-7.245223061040082
 30
0.0
 11
52.82113247308105
 21
-9.0
 31
0.0
  0
LINE
  5
489
330
18
100
AcDbEntity
  8
1
 62
     1
100
AcDbLine
 10
50.37886752691898
 20
-7.245223061040072
 30
0.0
 11
51.01444518322239
 21
-5.865324819562352
 31
0.0
  0
LINE
  5
48A
330
18
100
AcDbEntity
  8
1
 62
     1
100
AcDbLine
 10
51.01444518322239
 20
-5.865324819562352
 30
0.0
 11
51.60000000000001
 21
-4.46356954280722
 31
0.0
  0
LINE
  5
48B
330
18
100
AcDbEntity
  8
1
 62
     1
100
AcDbLine
 10
50.37886752691899
 20
-7.245223061040082
 30
0.0
 11
50.378867526919
 21
-9.0
 31
0.0
  0
LINE
  5
48C
330
18
100
AcDbEntity
  8
1
 62
     1
100
AcDbLine
 10
51.6
 20
-6.8849375
 30
0.0
 11
50.378867526919
 21
-8.999999999999957
 31
0.0
  0
LINE
  5
48D
330
18
100
AcDbEntity
  8
1
 62
     1
100
AcDbLine
 10
51.6
 20
-6.8849375
 30
0.0
 11
51.6
 21
-6.88442958201087
 31
0.0
  0
LINE
  5
48E
330
18
100
AcDbEntity
  8
1
 62
     1
100
AcDbLine
 10
51.6
 20
-6.88442958201087
 30
0.0
 11
51.60000000000001
 21
-6.727395874273737
 31
0.0
  0
LINE
  5
48F
330
18
100
AcDbEntity
  8
1
 62
     1
100
AcDbLine
 10
51.60000000000001
 20
-6.727395874273737
 30
0.0
 11
51.6
 21
-4.463569542807216
 31
0.0
  0
ARC
  5
490
330
18
100
AcDbEntity
  8
1
 62
     1
100
AcDbCircle
 10
16.25590764165052
 20
8.439896063905117
 30
0.0
 40
35.2881587315336
100
AcDbArc
 50
335.9846007498538
 51
338.551614866457
  0
LINE
  5
491
330
18
100
AcDbEntity
  8
1
 62
     1
100
AcDbLine
 10
49.10000000000001
 20
-4.46356954280722
 30
0.0
 11
49.6855550132486
 21
-5.865325252228118
 31
0.0
  0
LINE
  5
492
330
18
100
AcDbEntity
  8
1
 62
     1
100
AcDbLine
 10
49.6855550132486
 20
-5.865325252228118
 30
0.0
 11
50.32113247308102
 21
-7.245223061040081
 31
0.0
  0
LINE
  5
493
330
18
100
AcDbEntity
  8
1
 62
     1
100
AcDbLine
 10
49.1
 20
-6.8849375
 30
0.0
 11
49.1
 21
-6.88442958201087
 31
0.0
  0
LINE
  5
494
330
18
100
AcDbEntity
  8
1
 62
     1
100
AcDbLine
 10
49.1
 20
-6.88442958201087
 30
0.0
 11
49.10000000000001
 21
-6.727395874273737
 31
0.0
  0
LINE
  5
495
330
18
100
AcDbEntity
  8
1
 62
     1
100
AcDbLine
 10
49.10000000000001
 20
-6.727395874273737
 30
0.0
 11
49.1
 21
-4.463569542807216
 31
0.0
  0
LINE
  5
496
330
18
100
AcDbEntity
  8
1
 62
     1
100
AcDbLine
 10
50.32113247308102
 20
-7.245223061040082
 30
0.0
 11
50.32113247308103
 21
-9.0
 31
0.0
  0
ARC
  5
497
330
18
100
AcDbEntity
  8
1
 62
     1
100
AcDbCircle
 10
52.75903444287587
 20
-49.54147785663447
 30
0.0
 40
55.00038912117045
100
AcDbArc
 50
94.45226648261553
 51
95.21731678243933
  0
LINE
  5
498
330
18
100
AcDbEntity
  8
1
 62
     1
100
AcDbLine
 10
47.88351253713452
 20
-0.6465672104658506
 30
0.0
 11
48.48943390485759
 21
-1.015867281549222
 31
0.0
  0
LINE
  5
499
330
18
100
AcDbEntity
  8
1
 62
     1
100
AcDbLine
 10
48.48943390485758
 20
5.292954831716507
 30
0.0
 11
48.48943390485759
 21
-1.015867281549718
 31
0.0
  0
LINE
  5
49A
330
18
100
AcDbEntity
  8
1
 62
     1
100
AcDbLine
 10
79.09535555322559
 20
-0.6465672104658523
 30
0.0
 11
79.10000000000001
 21
-0.643751551417215
 31
0.0
  0
LINE
  5
49B
330
18
100
AcDbEntity
  8
1
 62
     1
100
AcDbLine
 10
76.60464444677439
 20
-0.6465672104658523
 30
0.0
 11
76.6
 21
-0.6437515514172152
 31
0.0
  0
LINE
  5
49C
330
18
100
AcDbEntity
  8
1
 62
     1
100
AcDbLine
 10
76.59535555322557
 20
-0.6465672104658524
 30
0.0
 11
76.6
 21
-0.6437515514172152
 31
0.0
  0
LINE
  5
49D
330
18
100
AcDbEntity
  8
1
 62
     1
100
AcDbLine
 10
74.1046444467744
 20
-0.6465672104658529
 30
0.0
 11
74.1
 21
-0.6437515514172143
 31
0.0
  0
LINE
  5
49E
330
18
100
AcDbEntity
  8
1
 62
     1
100
AcDbLine
 10
74.0953555532256
 20
-0.6465672104658524
 30
0.0
 11
74.1
 21
-0.6437515514172143
 31
0.0
  0
LINE
  5
49F
330
18
100
AcDbEntity
  8
1
 62
     1
100
AcDbLine
 10
71.60464444677439
 20
-0.6465672104658524
 30
0.0
 11
71.6
 21
-0.6437515514172143
 31
0.0
  0
LINE
  5
4A0
330
18
100
AcDbEntity
  8
1
 62
     1
100
AcDbLine
 10
71.5953555532256
 20
-0.6465672104658524
 30
0.0
 11
71.6
 21
-0.6437515514172143
 31
0.0
  0
LINE
  5
4A1
330
18
100
AcDbEntity
  8
1
 62
     1
100
AcDbLine
 10
69.10464444677442
 20
-0.6465672104658524
 30
0.0
 11
69.1
 21
-0.6437515514172141
 31
0.0
  0
LINE
  5
4A2
330
18
100
AcDbEntity
  8
1
 62
     1
100
AcDbLine
 10
69.0953555532256
 20
-0.6465672104658524
 30
0.0
 11
69.1
 21
-0.6437515514172141
 31
0.0
  0
LINE
  5
4A3
330
18
100
AcDbEntity
  8
1
 62
     1
100
AcDbLine
 10
66.6046444467744
 20
-0.6465672104658524
 30
0.0
 11
66.6
 21
-0.6437515514172151
 31
0.0
  0
LINE
  5
4A4
330
18
100
AcDbEntity
  8
1
 62
     1
100
AcDbLine
 10
66.5953555532256
 20
-0.6465672104658524
 30
0.0
 11
66.6
 21
-0.6437515514172151
 31
0.0
  0
LINE
  5
4A5
330
18
100
AcDbEntity
  8
1
 62
     1
100
AcDbLine
 10
64.1046444467744
 20
-0.6465672104658524
 30
0.0
 11
64.1
 21
-0.6437515514172143
 31
0.0
  0
LINE
  5
4A6
330
18
100
AcDbEntity
  8
1
 62
     1
100
AcDbLine
 10
64.0953555532256
 20
-0.6465672104658524
 30
0.0
 11
64.1
 21
-0.6437515514172143
 31
0.0
  0
LINE
  5
4A7
330
18
100
AcDbEntity
  8
1
 62
     1
100
AcDbLine
 10
61.6046444467744
 20
-0.6465672104658524
 30
0.0
 11
61.6
 21
-0.6437515514172143
 31
0.0
  0
LINE
  5
4A8
330
18
100
AcDbEntity
  8
1
 62
     1
100
AcDbLine
 10
61.5953555532256
 20
-0.6465672104658524
 30
0.0
 11
61.6
 21
-0.6437515514172143
 31
0.0
  0
LINE
  5
4A9
330
18
100
AcDbEntity
  8
1
 62
     1
100
AcDbLine
 10
59.1046444467744
 20
-0.6465672104658524
 30
0.0
 11
59.09999999999999
 21
-0.6437515514172141
 31
0.0
  0
LINE
  5
4AA
330
18
100
AcDbEntity
  8
1
 62
     1
100
AcDbLine
 10
59.0953555532256
 20
-0.6465672104658524
 30
0.0
 11
59.09999999999999
 21
-0.6437515514172141
 31
0.0
  0
LINE
  5
4AB
330
18
100
AcDbEntity
  8
1
 62
     1
100
AcDbLine
 10
56.6046444467744
 20
-0.6465672104658524
 30
0.0
 11
56.6
 21
-0.6437515514172141
 31
0.0
  0
LINE
  5
4AC
330
18
100
AcDbEntity
  8
1
 62
     1
100
AcDbLine
 10
56.5953555532256
 20
-0.6465672104658524
 30
0.0
 11
56.6
 21
-0.6437515514172141
 31
0.0
  0
LINE
  5
4AD
330
18
100
AcDbEntity
  8
1
 62
     1
100
AcDbLine
 10
54.1046444467744
 20
-0.6465672104658524
 30
0.0
 11
54.09999999999999
 21
-0.6437515514172143
 31
0.0
  0
LINE
  5
4AE
330
18
100
AcDbEntity
  8
1
 62
     1
100
AcDbLine
 10
54.0953555532256
 20
-0.6465672104658524
 30
0.0
 11
54.09999999999999
 21
-0.6437515514172143
 31
0.0
  0
LINE
  5
4AF
330
18
100
AcDbEntity
  8
1
 62
     1
100
AcDbLine
 10
51.60464444677442
 20
-0.6465672104658524
 30
0.0
 11
51.6
 21
-0.6437515514172152
 31
0.0
  0
LINE
  5
4B0
330
18
100
AcDbEntity
  8
1
 62
     1
100
AcDbLine
 10
51.59535555322559
 20
-0.6465672104658524
 30
0.0
 11
51.6
 21
-0.6437515514172152
 31
0.0
  0
LINE
  5
4B1
330
18
100
AcDbEntity
  8
1
 62
     1
100
AcDbLine
 10
49.1046444467744
 20
-0.6465672104658524
 30
0.0
 11
49.1
 21
-0.6437515514172141
 31
0.0
  0
LINE
  5
4B2
330
18
100
AcDbEntity
  8
1
 62
     1
100
AcDbLine
 10
49.0953555532256
 20
-0.6465672104658525
 30
0.0
 11
49.1
 21
-0.6437515514172141
 31
0.0
  0
ARC
  5
4B3
330
18
100
AcDbEntity
  8
1
 62
     1
100
AcDbCircle
 10
47.59369735473
 20
-1.115082839837057
 30
0.0
 40
0.5508949001652419
100
AcDbArc
 50
58.2598243218745
 51
72.68244135615488
  0
LINE
  5
4B4
330
18
100
AcDbEntity
  8
1
 62
     1
100
AcDbLine
 10
57.87886752691898
 20
-1.385473731282305
 30
0.0
 11
57.82113247308104
 21
-1.385473731282305
 31
0.0
  0
LINE
  5
4B5
330
18
100
AcDbEntity
  8
1
 62
     1
100
AcDbLine
 10
78.70096921364431
 20
7.523942102224035
 30
0.0
 11
77.1267610580056
 21
7.737373801741535
 31
0.0
  0
LINE
  5
4B6
330
18
100
AcDbEntity
  8
1
 62
     1
100
AcDbLine
 10
77.12676105800561
 20
7.797313990518629
 30
0.0
 11
78.7009692136443
 21
7.5760787735074
 31
0.0
  0
LINE
  5
4B7
330
18
100
AcDbEntity
  8
1
 62
     1
100
AcDbLine
 10
75.98020836921006
 20
7.892622561431141
 30
0.0
 11
74.81438575347329
 21
8.050318914627871
 31
0.0
  0
LINE
  5
4B8
330
18
100
AcDbEntity
  8
1
 62
     1
100
AcDbLine
 10
74.81438575347329
 20
8.12228934430344
 30
0.0
 11
75.98020836921009
 21
7.958447594109682
 31
0.0
  0
LINE
  5
4B9
330
18
100
AcDbEntity
  8
1
 62
     1
100
AcDbLine
 10
73.25944752477585
 20
8.260413077130085
 30
0.0
 11
72.50201044921455
 21
8.362661613045775
 31
0.0
  0
LINE
  5
4BA
330
18
100
AcDbEntity
  8
1
 62
     1
100
AcDbLine
 10
72.50201044894101
 20
8.447264698088244
 30
0.0
 11
73.25944752477587
 21
8.340816414711965
 31
0.0
  0
LINE
  5
4BB
330
18
100
AcDbEntity
  8
1
 62
     1
100
AcDbLine
 10
70.53868668086278
 20
8.627435899964562
 30
0.0
 11
70.18963514440868
 21
8.674471757493464
 31
0.0
  0
ARC
  5
4BC
330
18
100
AcDbEntity
  8
1
 62
     1
100
AcDbCircle
 10
74.51383299512949
 20
-46.26221354475665
 30
0.0
 40
51.70804420771692
100
AcDbArc
 50
84.91154948305147
 51
85.35530330310227
  0
LINE
  5
4BD
330
18
100
AcDbEntity
  8
1
 62
     1
100
AcDbLine
 10
79.0953555532256
 20
-0.6465672104658511
 30
0.0
 11
78.7009692136443
 21
-0.8872794513398616
 31
0.0
  0
ARC
  5
4BE
330
18
100
AcDbEntity
  8
1
 62
     1
100
AcDbCircle
 10
81.26835408361323
 20
-47.17027097128689
 30
0.0
 40
52.61980349349886
100
AcDbArc
 50
94.51429597449211
 51
95.08989257526366
  0
LINE
  5
4BF
330
18
100
AcDbEntity
  8
1
 62
     1
100
AcDbLine
 10
76.6
 20
-0.6437515514172152
 30
0.0
 11
76.60000000000001
 21
5.242033128036301
 31
0.0
  0
LINE
  5
4C0
330
18
100
AcDbEntity
  8
1
 62
     1
100
AcDbLine
 10
76.60464444677439
 20
-0.6465672104658511
 30
0.0
 11
77.12676105800561
 21
-0.964962237013083
 31
0.0
  0
LINE
  5
4C1
330
18
100
AcDbEntity
  8
1
 62
     1
100
AcDbLine
 10
77.12676105800561
 20
5.286318904069867
 30
0.0
 11
77.12676105800561
 21
-0.9649622370130787
 31
0.0
  0
ARC
  5
4C2
330
18
100
AcDbEntity
  8
1
 62
     1
100
AcDbCircle
 10
71.29763176879443
 20
-54.70553944452753
 30
0.0
 40
60.18165747861017
100
AcDbArc
 50
84.94533729817891
 51
85.53745613337529
  0
LINE
  5
4C3
330
18
100
AcDbEntity
  8
1
 62
     1
100
AcDbLine
 10
75.98020836921009
 20
5.293680083777382
 30
0.0
 11
75.98020836921009
 21
-1.021468164446839
 31
0.0
  0
LINE
  5
4C4
330
18
100
AcDbEntity
  8
1
 62
     1
100
AcDbLine
 10
76.5953555532256
 20
-0.6465672104658509
 30
0.0
 11
75.98020836921009
 21
-1.021468164446845
 31
0.0
  0
LINE
  5
4C5
330
18
100
AcDbEntity
  8
1
 62
     1
100
AcDbLine
 10
67.878867526919
 20
8.89271963686738
 30
0.0
 11
67.82113247308102
 21
8.89271963686738
 31
0.0
  0
LINE
  5
4C6
330
18
100
AcDbEntity
  8
1
 62
     1
100
AcDbLine
 10
65.37886752691897
 20
8.89271963686738
 30
0.0
 11
65.32113247308101
 21
8.89271963686738
 31
0.0
  0
LINE
  5
4C7
330
18
100
AcDbEntity
  8
1
 62
     1
100
AcDbLine
 10
60.37886752691895
 20
8.89271963686738
 30
0.0
 11
60.32113247308102
 21
8.89271963686738
 31
0.0
  0
LINE
  5
4C8
330
18
100
AcDbEntity
  8
1
 62
     1
100
AcDbLine
 10
60.32113247308104
 20
9.0
 30
0.0
 11
60.37886752691897
 21
8.999999999999998
 31
0.0
  0
LINE
  5
4C9
330
18
100
AcDbEntity
  8
1
 62
     1
100
AcDbLine
 10
57.87886752691898
 20
8.89271963686738
 30
0.0
 11
57.82113247308104
 21
8.89271963686738
 31
0.0
  0
LINE
  5
4CA
330
18
100
AcDbEntity
  8
1
 62
     1
100
AcDbLine
 10
52.87886752691898
 20
8.89271963686738
 30
0.0
 11
52.82113247308105
 21
8.89271963686738
 31
0.0
  0
LINE
  5
4CB
330
18
100
AcDbEntity
  8
1
 62
     1
100
AcDbLine
 10
50.32113247308103
 20
9.0
 30
0.0
 11
50.37886752691899
 21
8.999999999999998
 31
0.0
  0
ARC
  5
4CC
330
18
100
AcDbEntity
  8
1
 62
     1
100
AcDbCircle
 10
59.22294500316323
 20
-79.99937420945983
 30
0.0
 40
85.5602476507205
100
AcDbArc
 50
85.05377009288085
 51
85.87409756919371
  0
ARC
  5
4CD
330
18
100
AcDbEntity
  8
1
 62
     1
100
AcDbCircle
 10
-51.73727108468896
 20
192.8161099009357
 30
0.0
 40
226.7827652412248
100
AcDbArc
 50
301.0926995663239
 51
301.4522951318106
  0
LINE
  5
4CE
330
18
100
AcDbEntity
  8
1
 62
     1
100
AcDbLine
 10
66.6
 20
-0.6437515514172152
 30
0.0
 11
66.6
 21
5.242033128036301
 31
0.0
  0
ARC
  5
4CF
330
18
100
AcDbEntity
  8
1
 62
     1
100
AcDbCircle
 10
70.5940029179233
 20
-68.84335770212442
 30
0.0
 40
74.36950285674394
100
AcDbArc
 50
94.0657278078504
 51
95.00949467454483
  0
ARC
  5
4D0
330
18
100
AcDbEntity
  8
1
 62
     1
100
AcDbCircle
 10
182.4372710828848
 20
192.8161098979655
 30
0.0
 40
226.7827652377497
100
AcDbArc
 50
238.5477048681866
 51
238.9073004336789
  0
ARC
  5
4D1
330
18
100
AcDbEntity
  8
1
 62
     1
100
AcDbCircle
 10
56.7229450031931
 20
-79.99937420907636
 30
0.0
 40
85.56024765033587
100
AcDbArc
 50
85.05377009287864
 51
85.87409756919519
  0
ARC
  5
4D2
330
18
100
AcDbEntity
  8
1
 62
     1
100
AcDbCircle
 10
-54.23727108309384
 20
192.8161098983032
 30
0.0
 40
226.7827652381469
100
AcDbArc
 50
301.0926995663222
 51
301.4522951318139
  0
LINE
  5
4D3
330
18
100
AcDbEntity
  8
1
 62
     1
100
AcDbLine
 10
64.1
 20
-0.643751551417214
 30
0.0
 11
64.1
 21
5.242033128036301
 31
0.0
  0
ARC
  5
4D4
330
18
100
AcDbEntity
  8
1
 62
     1
100
AcDbCircle
 10
61.72294500319072
 20
-79.99937420910541
 30
0.0
 40
85.560247650365
100
AcDbArc
 50
85.05377009287871
 51
85.874097569195
  0
ARC
  5
4D5
330
18
100
AcDbEntity
  8
1
 62
     1
100
AcDbCircle
 10
-49.23727108303871
 20
192.8161098982238
 30
0.0
 40
226.7827652380504
100
AcDbArc
 50
301.0926995663207
 51
301.4522951318124
  0
LINE
  5
4D6
330
18
100
AcDbEntity
  8
1
 62
     1
100
AcDbLine
 10
69.1
 20
-0.643751551417214
 30
0.0
 11
69.1
 21
5.242033128036301
 31
0.0
  0
ARC
  5
4D7
330
18
100
AcDbEntity
  8
1
 62
     1
100
AcDbCircle
 10
79.25116961468424
 20
-52.81611681568033
 30
0.0
 40
58.28623040368369
100
AcDbArc
 50
94.36560875012859
 51
95.07025228493669
  0
LINE
  5
4D8
330
18
100
AcDbEntity
  8
1
 62
     1
100
AcDbLine
 10
74.1046444467744
 20
-0.6465672104658511
 30
0.0
 11
74.81438575347329
 21
-1.078864943062795
 31
0.0
  0
LINE
  5
4D9
330
18
100
AcDbEntity
  8
1
 62
     1
100
AcDbLine
 10
74.81438575347329
 20
5.301060365360159
 30
0.0
 11
74.81438575347329
 21
-1.078864943062784
 31
0.0
  0
ARC
  5
4DA
330
18
100
AcDbEntity
  8
1
 62
     1
100
AcDbCircle
 10
75.23962898454745
 20
-64.57112031311645
 30
0.0
 40
70.08263454661284
100
AcDbArc
 50
94.13217493253637
 51
95.02587420000579
  0
ARC
  5
4DB
330
18
100
AcDbEntity
  8
1
 62
     1
100
AcDbCircle
 10
183.0448633749671
 20
185.6056212074652
 30
0.0
 40
218.3397685727552
100
AcDbArc
 50
238.5436906766522
 51
238.876877055243
  0
LINE
  5
4DC
330
18
100
AcDbEntity
  8
1
 62
     1
100
AcDbLine
 10
70.18963514440868
 20
5.329479297171674
 30
0.0
 11
70.18963514440868
 21
-1.306037999498479
 31
0.0
  0
ARC
  5
4DD
330
18
100
AcDbEntity
  8
1
 62
     1
100
AcDbCircle
 10
64.79283374650032
 20
-72.94274445124714
 30
0.0
 40
78.48071142717056
100
AcDbArc
 50
85.02408437720098
 51
85.80141644799937
  0
ARC
  5
4DE
330
18
100
AcDbEntity
  8
1
 62
     1
100
AcDbCircle
 10
-41.40801464036558
 20
184.0681657051374
 30
0.0
 40
216.5393667436983
100
AcDbArc
 50
301.1299428882168
 51
301.4571429500729
  0
LINE
  5
4DF
330
18
100
AcDbEntity
  8
1
 62
     1
100
AcDbLine
 10
71.59999999999998
 20
-0.643751551417214
 30
0.0
 11
71.60000000000001
 21
5.242033128036301
 31
0.0
  0
ARC
  5
4E0
330
18
100
AcDbEntity
  8
1
 62
     1
100
AcDbCircle
 10
77.24129606096153
 20
-58.61366837808242
 30
0.0
 40
64.10442547637511
100
AcDbArc
 50
94.23977939310872
 51
95.04865618198733
  0
LINE
  5
4E1
330
18
100
AcDbEntity
  8
1
 62
     1
100
AcDbLine
 10
71.60464444677439
 20
-0.6465672104658511
 30
0.0
 11
72.50201044894101
 21
-1.192548387496959
 31
0.0
  0
LINE
  5
4E2
330
18
100
AcDbEntity
  8
1
 62
     1
100
AcDbLine
 10
72.50201044894101
 20
5.315425493682626
 30
0.0
 11
72.50201044894101
 21
-1.192548387902493
 31
0.0
  0
ARC
  5
4E3
330
18
100
AcDbEntity
  8
1
 62
     1
100
AcDbCircle
 10
68.05764593833699
 20
-63.59662397467032
 30
0.0
 40
69.10342687095523
100
AcDbArc
 50
84.98368534465159
 51
85.68294353798805
  0
LINE
  5
4E4
330
18
100
AcDbEntity
  8
1
 62
     1
100
AcDbLine
 10
73.25944752477588
 20
5.31075717499882
 30
0.0
 11
73.25944752477588
 21
-1.155332964606705
 31
0.0
  0
LINE
  5
4E5
330
18
100
AcDbEntity
  8
1
 62
     1
100
AcDbLine
 10
74.09535555322559
 20
-0.6465672104658511
 30
0.0
 11
73.25944752477585
 21
-1.15533296460667
 31
0.0
  0
LINE
  5
4E6
330
18
100
AcDbEntity
  8
1
 62
     1
100
AcDbLine
 10
74.1
 20
-0.643751551417214
 30
0.0
 11
74.10000000000001
 21
5.242033128036301
 31
0.0
  0
ARC
  5
4E7
330
18
100
AcDbEntity
  8
1
 62
     1
100
AcDbCircle
 10
73.09400291792822
 20
-68.84335770218615
 30
0.0
 40
74.36950285680585
100
AcDbArc
 50
94.0657278078508
 51
95.00949467454444
  0
ARC
  5
4E8
330
18
100
AcDbEntity
  8
1
 62
     1
100
AcDbCircle
 10
184.9372710820206
 20
192.8161098965433
 30
0.0
 40
226.7827652360855
100
AcDbArc
 50
238.5477048681853
 51
238.9073004336803
  0
ARC
  5
4E9
330
18
100
AcDbEntity
  8
1
 62
     1
100
AcDbCircle
 10
54.22294500318458
 20
-79.99937420918778
 30
0.0
 40
85.5602476504476
100
AcDbArc
 50
85.05377009287938
 51
85.87409756919484
  0
LINE
  5
4EA
330
18
100
AcDbEntity
  8
1
 62
     1
100
AcDbLine
 10
60.37886752691897
 20
5.33917060935245
 30
0.0
 11
60.37886752691897
 21
-1.385473731282317
 31
0.0
  0
ARC
  5
4EB
330
18
100
AcDbEntity
  8
1
 62
     1
100
AcDbCircle
 10
-56.73727108382942
 20
192.8161098995176
 30
0.0
 40
226.7827652395666
100
AcDbArc
 50
301.0926995663229
 51
301.4522951318123
  0
LINE
  5
4EC
330
18
100
AcDbEntity
  8
1
 62
     1
100
AcDbLine
 10
61.6
 20
-0.643751551417214
 30
0.0
 11
61.6
 21
5.242033128036301
 31
0.0
  0
ARC
  5
4ED
330
18
100
AcDbEntity
  8
1
 62
     1
100
AcDbCircle
 10
65.59400291792541
 20
-68.84335770214875
 30
0.0
 40
74.36950285676834
100
AcDbArc
 50
94.06572780785066
 51
95.00949467454477
  0
LINE
  5
4EE
330
18
100
AcDbEntity
  8
1
 62
     1
100
AcDbLine
 10
59.1
 20
-0.643751551417214
 30
0.0
 11
59.10000000000001
 21
5.242033128036301
 31
0.0
  0
ARC
  5
4EF
330
18
100
AcDbEntity
  8
1
 62
     1
100
AcDbCircle
 10
177.437271083932
 20
192.8161098996857
 30
0.0
 40
226.7827652397636
100
AcDbArc
 50
238.5477048681878
 51
238.9073004336768
  0
ARC
  5
4F0
330
18
100
AcDbEntity
  8
1
 62
     1
100
AcDbCircle
 10
51.72294500317579
 20
-79.99937420929655
 30
0.0
 40
85.5602476505567
100
AcDbArc
 50
85.05377009287977
 51
85.87409756919422
  0
LINE
  5
4F1
330
18
100
AcDbEntity
  8
1
 62
     1
100
AcDbLine
 10
57.87886752691897
 20
5.33917060935245
 30
0.0
 11
57.87886752691897
 21
-1.385473731282317
 31
0.0
  0
ARC
  5
4F2
330
18
100
AcDbEntity
  8
1
 62
     1
100
AcDbCircle
 10
-59.23727108411799
 20
192.8161098999942
 30
0.0
 40
226.7827652401238
100
AcDbArc
 50
301.0926995663232
 51
301.4522951318117
  0
ARC
  5
4F3
330
18
100
AcDbEntity
  8
1
 62
     1
100
AcDbCircle
 10
63.09400291793158
 20
-68.84335770222654
 30
0.0
 40
74.36950285684637
100
AcDbArc
 50
94.06572780785113
 51
95.00949467454429
  0
LINE
  5
4F4
330
18
100
AcDbEntity
  8
1
 62
     1
100
AcDbLine
 10
56.6
 20
-0.643751551417214
 30
0.0
 11
56.60000000000001
 21
5.242033128036301
 31
0.0
  0
ARC
  5
4F5
330
18
100
AcDbEntity
  8
1
 62
     1
100
AcDbCircle
 10
174.937271082572
 20
192.8161098974538
 30
0.0
 40
226.78276523715
100
AcDbArc
 50
238.5477048681866
 51
238.9073004336798
  0
LINE
  5
4F6
330
18
100
AcDbEntity
  8
1
 62
     1
100
AcDbLine
 10
57.82113247308104
 20
5.33917060935245
 30
0.0
 11
57.82113247308104
 21
-1.385473731282317
 31
0.0
  0
ARC
  5
4F7
330
18
100
AcDbEntity
  8
1
 62
     1
100
AcDbCircle
 10
68.09400291792072
 20
-68.84335770209194
 30
0.0
 40
74.36950285671134
100
AcDbArc
 50
94.06572780785018
 51
95.00949467454501
  0
ARC
  5
4F8
330
18
100
AcDbEntity
  8
1
 62
     1
100
AcDbCircle
 10
179.9372710833348
 20
192.8161098987044
 30
0.0
 40
226.7827652386149
100
AcDbArc
 50
238.5477048681871
 51
238.907300433678
  0
LINE
  5
4F9
330
18
100
AcDbEntity
  8
1
 62
     1
100
AcDbLine
 10
62.82113247308104
 20
5.339170609352449
 30
0.0
 11
62.82113247308104
 21
-1.385473731282317
 31
0.0
  0
LINE
  5
4FA
330
18
100
AcDbEntity
  8
1
 62
     1
100
AcDbLine
 10
47.88351253713452
 20
6.862590655836349
 30
0.0
 11
48.48943390485759
 21
7.877234262140914
 31
0.0
  0
ARC
  5
4FB
330
18
100
AcDbEntity
  8
1
 62
     1
100
AcDbCircle
 10
55.59400291792859
 20
-68.84335770218956
 30
0.0
 40
74.36950285680926
100
AcDbArc
 50
94.0657278078509
 51
95.00949467454448
  0
LINE
  5
4FC
330
18
100
AcDbEntity
  8
1
 62
     1
100
AcDbLine
 10
49.09999999999999
 20
-0.643751551417214
 30
0.0
 11
49.1
 21
5.242033128036301
 31
0.0
  0
ARC
  5
4FD
330
18
100
AcDbEntity
  8
1
 62
     1
100
AcDbCircle
 10
167.4372710843542
 20
192.8161099003799
 30
0.0
 40
226.7827652405761
100
AcDbArc
 50
238.5477048681883
 51
238.907300433676
  0
LINE
  5
4FE
330
18
100
AcDbEntity
  8
1
 62
     1
100
AcDbLine
 10
50.32113247308102
 20
5.33917060935245
 30
0.0
 11
50.32113247308104
 21
-1.385473731282305
 31
0.0
  0
ARC
  5
4FF
330
18
100
AcDbEntity
  8
1
 62
     1
100
AcDbCircle
 10
43.82804568939402
 20
-54.34358944475758
 30
0.0
 40
59.81843381037203
100
AcDbArc
 50
84.94381016925969
 51
85.53066067506464
  0
LINE
  5
500
330
18
100
AcDbEntity
  8
1
 62
     1
100
AcDbLine
 10
49.0953555532256
 20
-0.6465672104658511
 30
0.0
 11
48.48943390485759
 21
-1.015867281549228
 31
0.0
  0
ARC
  5
501
330
18
100
AcDbEntity
  8
1
 62
     1
100
AcDbCircle
 10
44.22294500318371
 20
-79.99937420919892
 30
0.0
 40
85.56024765045879
100
AcDbArc
 50
85.05377009287943
 51
85.87409756919482
  0
LINE
  5
502
330
18
100
AcDbEntity
  8
1
 62
     1
100
AcDbLine
 10
50.378867526919
 20
5.33917060935245
 30
0.0
 11
50.37886752691899
 21
-1.385473731282317
 31
0.0
  0
ARC
  5
503
330
18
100
AcDbEntity
  8
1
 62
     1
100
AcDbCircle
 10
-66.73727108351204
 20
192.8161098989976
 30
0.0
 40
226.7827652389574
100
AcDbArc
 50
301.0926995663222
 51
301.4522951318125
  0
LINE
  5
504
330
18
100
AcDbEntity
  8
1
 62
     1
100
AcDbLine
 10
51.59999999999999
 20
-0.6437515514172152
 30
0.0
 11
51.6
 21
5.242033128036301
 31
0.0
  0
ARC
  5
505
330
18
100
AcDbEntity
  8
1
 62
     1
100
AcDbCircle
 10
58.09400291792898
 20
-68.84335770219259
 30
0.0
 40
74.36950285681233
100
AcDbArc
 50
94.065727807851
 51
95.00949467454457
  0
ARC
  5
506
330
18
100
AcDbEntity
  8
1
 62
     1
100
AcDbCircle
 10
169.9372710832773
 20
192.8161098986094
 30
0.0
 40
226.7827652385038
100
AcDbArc
 50
238.547704868187
 51
238.907300433678
  0
LINE
  5
507
330
18
100
AcDbEntity
  8
1
 62
     1
100
AcDbLine
 10
52.82113247308105
 20
5.33917060935245
 30
0.0
 11
52.82113247308105
 21
-1.385473731282317
 31
0.0
  0
ARC
  5
508
330
18
100
AcDbEntity
  8
1
 62
     1
100
AcDbCircle
 10
46.7229450031871
 20
-79.99937420915057
 30
0.0
 40
85.56024765041032
100
AcDbArc
 50
85.0537700928789
 51
85.87409756919475
  0
LINE
  5
509
330
18
100
AcDbEntity
  8
1
 62
     1
100
AcDbLine
 10
52.878867526919
 20
5.33917060935245
 30
0.0
 11
52.87886752691899
 21
-1.385473731282317
 31
0.0
  0
ARC
  5
50A
330
18
100
AcDbEntity
  8
1
 62
     1
100
AcDbCircle
 10
-64.23727108469214
 20
192.8161099009352
 30
0.0
 40
226.7827652412261
100
AcDbArc
 50
301.0926995663247
 51
301.4522951318114
  0
ARC
  5
50B
330
18
100
AcDbEntity
  8
1
 62
     1
100
AcDbCircle
 10
60.59400291792704
 20
-68.84335770217007
 30
0.0
 40
74.36950285678971
100
AcDbArc
 50
94.06572780785076
 51
95.00949467454461
  0
LINE
  5
50C
330
18
100
AcDbEntity
  8
1
 62
     1
100
AcDbLine
 10
54.1
 20
-0.643751551417214
 30
0.0
 11
54.1
 21
5.242033128036301
 31
0.0
  0
ARC
  5
50D
330
18
100
AcDbEntity
  8
1
 62
     1
100
AcDbCircle
 10
172.4372710842159
 20
192.8161099001541
 30
0.0
 40
226.7827652403112
100
AcDbArc
 50
238.5477048681883
 51
238.9073004336765
  0
ARC
  5
50E
330
18
100
AcDbEntity
  8
1
 62
     1
100
AcDbCircle
 10
49.22294500319025
 20
-79.99937420911351
 30
0.0
 40
85.5602476503731
100
AcDbArc
 50
85.05377009287886
 51
85.87409756919506
  0
LINE
  5
50F
330
18
100
AcDbEntity
  8
1
 62
     1
100
AcDbLine
 10
55.37886752691899
 20
5.33917060935245
 30
0.0
 11
55.37886752691897
 21
-1.385473731282317
 31
0.0
  0
ARC
  5
510
330
18
100
AcDbEntity
  8
1
 62
     1
100
AcDbCircle
 10
-61.73727108392237
 20
192.816109899673
 30
0.0
 40
226.7827652397477
100
AcDbArc
 50
301.0926995663228
 51
301.4522951318119
  0
LINE
  5
511
330
18
100
AcDbEntity
  8
1
 62
     1
100
AcDbLine
 10
50.378867526919
 20
5.33917060935245
 30
0.0
 11
50.32113247308104
 21
5.33917060935245
 31
0.0
  0
LINE
  5
512
330
18
100
AcDbEntity
  8
1
 62
     1
100
AcDbLine
 10
57.87886752691898
 20
5.339170609352449
 30
0.0
 11
57.82113247308105
 21
5.339170609352449
 31
0.0
  0
LINE
  5
513
330
18
100
AcDbEntity
  8
1
 62
     1
100
AcDbLine
 10
62.87886752691898
 20
5.339170609352449
 30
0.0
 11
62.82113247308105
 21
5.339170609352451
 31
0.0
  0
LINE
  5
514
330
18
100
AcDbEntity
  8
1
 62
     1
100
AcDbLine
 10
65.37886752691898
 20
5.339170609352449
 30
0.0
 11
65.32113247308105
 21
5.339170609352449
 31
0.0
  0
LINE
  5
515
330
18
100
AcDbEntity
  8
1
 62
     1
100
AcDbLine
 10
79.0953555532256
 20
6.86259065583635
 30
0.0
 11
79.1
 21
6.854775584871776
 31
0.0
  0
LINE
  5
516
330
18
100
AcDbEntity
  8
1
 62
     1
100
AcDbLine
 10
76.60464444677439
 20
6.86259065583635
 30
0.0
 11
76.59999999999998
 21
6.854775584871776
 31
0.0
  0
LINE
  5
517
330
18
100
AcDbEntity
  8
1
 62
     1
100
AcDbLine
 10
76.59535555322557
 20
6.86259065583635
 30
0.0
 11
76.59999999999998
 21
6.854775584871776
 31
0.0
  0
LINE
  5
518
330
18
100
AcDbEntity
  8
1
 62
     1
100
AcDbLine
 10
74.10464444677442
 20
6.862590655836351
 30
0.0
 11
74.1
 21
6.854775584871775
 31
0.0
  0
LINE
  5
519
330
18
100
AcDbEntity
  8
1
 62
     1
100
AcDbLine
 10
74.09535555322557
 20
6.86259065583635
 30
0.0
 11
74.1
 21
6.854775584871775
 31
0.0
  0
LINE
  5
51A
330
18
100
AcDbEntity
  8
1
 62
     1
100
AcDbLine
 10
71.6046444467744
 20
6.86259065583635
 30
0.0
 11
71.6
 21
6.854775584871776
 31
0.0
  0
LINE
  5
51B
330
18
100
AcDbEntity
  8
1
 62
     1
100
AcDbLine
 10
71.59535555322559
 20
6.862590655836351
 30
0.0
 11
71.6
 21
6.854775584871776
 31
0.0
  0
LINE
  5
51C
330
18
100
AcDbEntity
  8
1
 62
     1
100
AcDbLine
 10
69.10464444677442
 20
6.862590655836351
 30
0.0
 11
69.1
 21
6.854775584871774
 31
0.0
  0
LINE
  5
51D
330
18
100
AcDbEntity
  8
1
 62
     1
100
AcDbLine
 10
69.0953555532256
 20
6.862590655836351
 30
0.0
 11
69.1
 21
6.854775584871774
 31
0.0
  0
LINE
  5
51E
330
18
100
AcDbEntity
  8
1
 62
     1
100
AcDbLine
 10
66.60464444677442
 20
6.86259065583635
 30
0.0
 11
66.6
 21
6.854775584871776
 31
0.0
  0
LINE
  5
51F
330
18
100
AcDbEntity
  8
1
 62
     1
100
AcDbLine
 10
66.5953555532256
 20
6.86259065583635
 30
0.0
 11
66.6
 21
6.854775584871776
 31
0.0
  0
LINE
  5
520
330
18
100
AcDbEntity
  8
1
 62
     1
100
AcDbLine
 10
64.1046444467744
 20
6.862590655836351
 30
0.0
 11
64.1
 21
6.854775584871775
 31
0.0
  0
LINE
  5
521
330
18
100
AcDbEntity
  8
1
 62
     1
100
AcDbLine
 10
64.09535555322559
 20
6.86259065583635
 30
0.0
 11
64.1
 21
6.854775584871775
 31
0.0
  0
LINE
  5
522
330
18
100
AcDbEntity
  8
1
 62
     1
100
AcDbLine
 10
61.6046444467744
 20
6.862590655836351
 30
0.0
 11
61.60000000000001
 21
6.854775584871777
 31
0.0
  0
LINE
  5
523
330
18
100
AcDbEntity
  8
1
 62
     1
100
AcDbLine
 10
61.5953555532256
 20
6.86259065583635
 30
0.0
 11
61.60000000000001
 21
6.854775584871777
 31
0.0
  0
LINE
  5
524
330
18
100
AcDbEntity
  8
1
 62
     1
100
AcDbLine
 10
59.1046444467744
 20
6.862590655836351
 30
0.0
 11
59.09999999999998
 21
6.854775584871774
 31
0.0
  0
LINE
  5
525
330
18
100
AcDbEntity
  8
1
 62
     1
100
AcDbLine
 10
59.0953555532256
 20
6.862590655836351
 30
0.0
 11
59.09999999999998
 21
6.854775584871774
 31
0.0
  0
LINE
  5
526
330
18
100
AcDbEntity
  8
1
 62
     1
100
AcDbLine
 10
56.6046444467744
 20
6.86259065583635
 30
0.0
 11
56.60000000000001
 21
6.854775584871776
 31
0.0
  0
LINE
  5
527
330
18
100
AcDbEntity
  8
1
 62
     1
100
AcDbLine
 10
56.59535555322559
 20
6.86259065583635
 30
0.0
 11
56.60000000000001
 21
6.854775584871776
 31
0.0
  0
LINE
  5
528
330
18
100
AcDbEntity
  8
1
 62
     1
100
AcDbLine
 10
54.10464444677441
 20
6.86259065583635
 30
0.0
 11
54.1
 21
6.854775584871775
 31
0.0
  0
LINE
  5
529
330
18
100
AcDbEntity
  8
1
 62
     1
100
AcDbLine
 10
54.0953555532256
 20
6.86259065583635
 30
0.0
 11
54.1
 21
6.854775584871775
 31
0.0
  0
LINE
  5
52A
330
18
100
AcDbEntity
  8
1
 62
     1
100
AcDbLine
 10
51.60464444677442
 20
6.86259065583635
 30
0.0
 11
51.59999999999999
 21
6.854775584871774
 31
0.0
  0
LINE
  5
52B
330
18
100
AcDbEntity
  8
1
 62
     1
100
AcDbLine
 10
51.5953555532256
 20
6.862590655836351
 30
0.0
 11
51.59999999999999
 21
6.854775584871774
 31
0.0
  0
LINE
  5
52C
330
18
100
AcDbEntity
  8
1
 62
     1
100
AcDbLine
 10
49.10464444677441
 20
6.862590655836351
 30
0.0
 11
49.1
 21
6.854775584871774
 31
0.0
  0
LINE
  5
52D
330
18
100
AcDbEntity
  8
1
 62
     1
100
AcDbLine
 10
49.0953555532256
 20
6.862590655836351
 30
0.0
 11
49.1
 21
6.854775584871774
 31
0.0
  0
LINE
  5
52E
330
18
100
AcDbEntity
  8
1
 62
     1
100
AcDbLine
 10
47.88351253713452
 20
6.86259065583635
 30
0.0
 11
47.75766061999998
 21
6.648942685872358
 31
0.0
  0
LINE
  5
52F
330
18
100
AcDbEntity
  8
1
 62
     1
100
AcDbLine
 10
55.37886752691898
 20
8.89271963686738
 30
0.0
 11
55.32113247308105
 21
8.892719636867385
 31
0.0
  0
LINE
  5
530
330
18
100
AcDbEntity
  8
1
 62
     1
100
AcDbLine
 10
50.378867526919
 20
8.89271963686738
 30
0.0
 11
50.32113247308102
 21
8.89271963686738
 31
0.0
  0
LINE
  5
531
330
18
100
AcDbEntity
  8
1
 62
     1
100
AcDbLine
 10
62.87886752691895
 20
8.89271963686738
 30
0.0
 11
62.82113247308102
 21
8.89271963686738
 31
0.0
  0
LINE
  5
532
330
18
100
AcDbEntity
  8
1
 62
     1
100
AcDbLine
 10
75.98020836921009
 20
7.958447594109681
 30
0.0
 11
75.98020836921009
 21
7.958432272564872
 31
0.0
  0
LINE
  5
533
330
18
100
AcDbEntity
  8
1
 62
     1
100
AcDbLine
 10
75.98020836921009
 20
7.958432272564872
 30
0.0
 11
75.98020836921009
 21
7.95396277745547
 31
0.0
  0
LINE
  5
534
330
18
100
AcDbEntity
  8
1
 62
     1
100
AcDbLine
 10
75.98020836921009
 20
7.95396277745547
 30
0.0
 11
75.98020836921008
 21
7.892622561431135
 31
0.0
  0
LINE
  5
535
330
18
100
AcDbEntity
  8
1
 62
     1
100
AcDbLine
 10
76.5953555532256
 20
6.86259065583635
 30
0.0
 11
75.98020836921009
 21
7.892622561431136
 31
0.0
  0
LINE
  5
536
330
18
100
AcDbEntity
  8
1
 62
     1
100
AcDbLine
 10
76.6
 20
6.854775584871775
 30
0.0
 11
76.6
 21
6.8849375
 31
0.0
  0
LINE
  5
537
330
18
100
AcDbEntity
  8
1
 62
     1
100
AcDbLine
 10
76.60464444677439
 20
6.86259065583635
 30
0.0
 11
77.1267610580056
 21
7.737373801741541
 31
0.0
  0
LINE
  5
538
330
18
100
AcDbEntity
  8
1
 62
     1
100
AcDbLine
 10
77.12676105800561
 20
7.797313990518629
 30
0.0
 11
77.1267610580056
 21
7.797300017024076
 31
0.0
  0
LINE
  5
539
330
18
100
AcDbEntity
  8
1
 62
     1
100
AcDbLine
 10
77.1267610580056
 20
7.797300017024076
 30
0.0
 11
77.12676105800561
 21
7.793225569234188
 31
0.0
  0
LINE
  5
53A
330
18
100
AcDbEntity
  8
1
 62
     1
100
AcDbLine
 10
77.12676105800561
 20
7.793225569234188
 30
0.0
 11
77.12676105800563
 21
7.737373801741535
 31
0.0
  0
LINE
  5
53B
330
18
100
AcDbEntity
  8
1
 62
     1
100
AcDbLine
 10
78.7009692136443
 20
7.576078773507399
 30
0.0
 11
78.7009692136443
 21
7.576066591612724
 31
0.0
  0
LINE
  5
53C
330
18
100
AcDbEntity
  8
1
 62
     1
100
AcDbLine
 10
78.7009692136443
 20
7.576066591612724
 30
0.0
 11
78.7009692136443
 21
7.572516823171137
 31
0.0
  0
LINE
  5
53D
330
18
100
AcDbEntity
  8
1
 62
     1
100
AcDbLine
 10
78.7009692136443
 20
7.572516823171137
 30
0.0
 11
78.7009692136443
 21
7.52394210222403
 31
0.0
  0
LINE
  5
53E
330
18
100
AcDbEntity
  8
1
 62
     1
100
AcDbLine
 10
79.0953555532256
 20
6.86259065583635
 30
0.0
 11
78.7009692136443
 21
7.52394210222403
 31
0.0
  0
LINE
  5
53F
330
18
100
AcDbEntity
  8
1
 62
     1
100
AcDbLine
 10
65.37886752691897
 20
9.0
 30
0.0
 11
65.37886752691897
 21
8.999975239668396
 31
0.0
  0
LINE
  5
540
330
18
100
AcDbEntity
  8
1
 62
     1
100
AcDbLine
 10
65.37886752691897
 20
8.999975239668396
 30
0.0
 11
65.37886752691897
 21
8.992734634749391
 31
0.0
  0
LINE
  5
541
330
18
100
AcDbEntity
  8
1
 62
     1
100
AcDbLine
 10
65.37886752691897
 20
8.992734634749391
 30
0.0
 11
65.37886752691897
 21
8.892719636867378
 31
0.0
  0
ARC
  5
542
330
18
100
AcDbEntity
  8
1
 62
     1
100
AcDbCircle
 10
-259.8078829363172
 20
-187.3622738306619
 30
0.0
 40
379.8188839921243
100
AcDbArc
 50
30.75458203174056
 51
31.11159983617497
  0
LINE
  5
543
330
18
100
AcDbEntity
  8
1
 62
     1
100
AcDbLine
 10
66.6
 20
6.854775584871775
 30
0.0
 11
66.6
 21
6.8849375
 31
0.0
  0
ARC
  5
544
330
18
100
AcDbEntity
  8
1
 62
     1
100
AcDbCircle
 10
390.5078829351502
 20
-187.3622738299578
 30
0.0
 40
379.8188839907614
100
AcDbArc
 50
148.888400163825
 51
149.2454179682607
  0
LINE
  5
545
330
18
100
AcDbEntity
  8
1
 62
     1
100
AcDbLine
 10
65.32113247308102
 20
9.0
 30
0.0
 11
65.32113247308102
 21
8.999975239668396
 31
0.0
  0
LINE
  5
546
330
18
100
AcDbEntity
  8
1
 62
     1
100
AcDbLine
 10
65.32113247308102
 20
8.999975239668396
 30
0.0
 11
65.32113247308102
 21
8.992734634749393
 31
0.0
  0
LINE
  5
547
330
18
100
AcDbEntity
  8
1
 62
     1
100
AcDbLine
 10
65.32113247308102
 20
8.992734634749393
 30
0.0
 11
65.32113247308102
 21
8.892719636867376
 31
0.0
  0
LINE
  5
548
330
18
100
AcDbEntity
  8
1
 62
     1
100
AcDbLine
 10
62.87886752691896
 20
9.0
 30
0.0
 11
62.87886752691895
 21
8.999975239668396
 31
0.0
  0
LINE
  5
549
330
18
100
AcDbEntity
  8
1
 62
     1
100
AcDbLine
 10
62.87886752691895
 20
8.999975239668396
 30
0.0
 11
62.87886752691896
 21
8.99273463474939
 31
0.0
  0
LINE
  5
54A
330
18
100
AcDbEntity
  8
1
 62
     1
100
AcDbLine
 10
62.87886752691896
 20
8.99273463474939
 30
0.0
 11
62.87886752691896
 21
8.892719636867376
 31
0.0
  0
ARC
  5
54B
330
18
100
AcDbEntity
  8
1
 62
     1
100
AcDbCircle
 10
-262.3078829336688
 20
-187.3622738290702
 30
0.0
 40
379.8188839890344
100
AcDbArc
 50
30.75458203173852
 51
31.11159983617583
  0
LINE
  5
54C
330
18
100
AcDbEntity
  8
1
 62
     1
100
AcDbLine
 10
64.09999999999998
 20
6.854775584871775
 30
0.0
 11
64.1
 21
6.8849375
 31
0.0
  0
LINE
  5
54D
330
18
100
AcDbEntity
  8
1
 62
     1
100
AcDbLine
 10
67.87886752691897
 20
9.0
 30
0.0
 11
67.87886752691895
 21
8.999975239668396
 31
0.0
  0
LINE
  5
54E
330
18
100
AcDbEntity
  8
1
 62
     1
100
AcDbLine
 10
67.87886752691895
 20
8.999975239668396
 30
0.0
 11
67.87886752691897
 21
8.992734634749393
 31
0.0
  0
LINE
  5
54F
330
18
100
AcDbEntity
  8
1
 62
     1
100
AcDbLine
 10
67.87886752691897
 20
8.992734634749393
 30
0.0
 11
67.87886752691897
 21
8.89271963686738
 31
0.0
  0
ARC
  5
550
330
18
100
AcDbEntity
  8
1
 62
     1
100
AcDbCircle
 10
-257.3078829343778
 20
-187.3622738295038
 30
0.0
 40
379.8188839898655
100
AcDbArc
 50
30.75458203174003
 51
31.11159983617657
  0
LINE
  5
551
330
18
100
AcDbEntity
  8
1
 62
     1
100
AcDbLine
 10
69.1
 20
6.854775584871775
 30
0.0
 11
69.1
 21
6.8849375
 31
0.0
  0
LINE
  5
552
330
18
100
AcDbEntity
  8
1
 62
     1
100
AcDbLine
 10
74.1046444467744
 20
6.86259065583635
 30
0.0
 11
74.81438575347329
 21
8.050318914627887
 31
0.0
  0
LINE
  5
553
330
18
100
AcDbEntity
  8
1
 62
     1
100
AcDbLine
 10
74.81438575347329
 20
8.12228934430344
 30
0.0
 11
74.81438575347329
 21
8.122272617540373
 31
0.0
  0
LINE
  5
554
330
18
100
AcDbEntity
  8
1
 62
     1
100
AcDbLine
 10
74.81438575347329
 20
8.122272617540373
 30
0.0
 11
74.81438575347329
 21
8.117391101982161
 31
0.0
  0
LINE
  5
555
330
18
100
AcDbEntity
  8
1
 62
     1
100
AcDbLine
 10
74.81438575347329
 20
8.117391101982161
 30
0.0
 11
74.81438575347329
 21
8.050318914627875
 31
0.0
  0
ARC
  5
556
330
18
100
AcDbEntity
  8
1
 62
     1
100
AcDbCircle
 10
383.6434889560725
 20
-180.2734615041396
 30
0.0
 40
365.9980816896912
100
AcDbArc
 50
148.9187020952331
 51
149.2493133003416
  0
LINE
  5
557
330
18
100
AcDbEntity
  8
1
 62
     1
100
AcDbLine
 10
70.1896351444087
 20
8.772240051873052
 30
0.0
 11
70.1896351444087
 21
8.772217449758331
 31
0.0
  0
LINE
  5
558
330
18
100
AcDbEntity
  8
1
 62
     1
100
AcDbLine
 10
70.1896351444087
 20
8.772217449758331
 30
0.0
 11
70.18963514440868
 21
8.76561114659943
 31
0.0
  0
LINE
  5
559
330
18
100
AcDbEntity
  8
1
 62
     1
100
AcDbLine
 10
70.18963514440868
 20
8.76561114659943
 30
0.0
 11
70.18963514440868
 21
8.674471757493464
 31
0.0
  0
LINE
  5
55A
330
18
100
AcDbEntity
  8
1
 62
     1
100
AcDbLine
 10
70.53868668034164
 20
8.723185235314249
 30
0.0
 11
70.53868668034164
 21
8.723163091796456
 31
0.0
  0
LINE
  5
55B
330
18
100
AcDbEntity
  8
1
 62
     1
100
AcDbLine
 10
70.53868668034164
 20
8.723163091796456
 30
0.0
 11
70.53868668034166
 21
8.716691524314655
 31
0.0
  0
LINE
  5
55C
330
18
100
AcDbEntity
  8
1
 62
     1
100
AcDbLine
 10
70.53868668034166
 20
8.716691524314655
 30
0.0
 11
70.53868668034164
 21
8.627435896297028
 31
0.0
  0
ARC
  5
55D
330
18
100
AcDbEntity
  8
1
 62
     1
100
AcDbCircle
 10
-240.4129309956781
 20
-178.7619369043249
 30
0.0
 40
363.0504710517867
100
AcDbArc
 50
30.74987838663508
 51
31.07450893613055
  0
LINE
  5
55E
330
18
100
AcDbEntity
  8
1
 62
     1
100
AcDbLine
 10
71.60000000000001
 20
6.854775584871775
 30
0.0
 11
71.60000000000001
 21
6.8849374993115
 31
0.0
  0
LINE
  5
55F
330
18
100
AcDbEntity
  8
1
 62
     1
100
AcDbLine
 10
71.6046444467744
 20
6.86259065583635
 30
0.0
 11
72.50201044894101
 21
8.362661611176609
 31
0.0
  0
LINE
  5
560
330
18
100
AcDbEntity
  8
1
 62
     1
100
AcDbLine
 10
72.50201044894101
 20
8.447264698088244
 30
0.0
 11
72.502010448941
 21
8.447245089903657
 31
0.0
  0
LINE
  5
561
330
18
100
AcDbEntity
  8
1
 62
     1
100
AcDbLine
 10
72.502010448941
 20
8.447245089903657
 30
0.0
 11
72.50201044894101
 21
8.441518086548719
 31
0.0
  0
LINE
  5
562
330
18
100
AcDbEntity
  8
1
 62
     1
100
AcDbLine
 10
72.50201044894101
 20
8.441518086548719
 30
0.0
 11
72.50201044894101
 21
8.362661611118739
 31
0.0
  0
LINE
  5
563
330
18
100
AcDbEntity
  8
1
 62
     1
100
AcDbLine
 10
73.25944752477587
 20
8.340816414711965
 30
0.0
 11
73.25944752477587
 21
8.34079776345746
 31
0.0
  0
LINE
  5
564
330
18
100
AcDbEntity
  8
1
 62
     1
100
AcDbLine
 10
73.25944752477587
 20
8.34079776345746
 30
0.0
 11
73.25944752477588
 21
8.335351638605925
 31
0.0
  0
LINE
  5
565
330
18
100
AcDbEntity
  8
1
 62
     1
100
AcDbLine
 10
73.25944752477588
 20
8.335351638605925
 30
0.0
 11
73.25944752477587
 21
8.260413077130082
 31
0.0
  0
LINE
  5
566
330
18
100
AcDbEntity
  8
1
 62
     1
100
AcDbLine
 10
74.09535555322559
 20
6.86259065583635
 30
0.0
 11
73.25944752477585
 21
8.260413077130082
 31
0.0
  0
LINE
  5
567
330
18
100
AcDbEntity
  8
1
 62
     1
100
AcDbLine
 10
74.1
 20
6.854775584871775
 30
0.0
 11
74.1
 21
6.8849375
 31
0.0
  0
ARC
  5
568
330
18
100
AcDbEntity
  8
1
 62
     1
100
AcDbCircle
 10
393.0078829344264
 20
-187.3622738295271
 30
0.0
 40
379.8188839899191
100
AcDbArc
 50
148.8884001638242
 51
149.2454179682607
  0
LINE
  5
569
330
18
100
AcDbEntity
  8
1
 62
     1
100
AcDbLine
 10
67.82113247308102
 20
9.0
 30
0.0
 11
67.82113247308102
 21
8.999975239668396
 31
0.0
  0
LINE
  5
56A
330
18
100
AcDbEntity
  8
1
 62
     1
100
AcDbLine
 10
67.82113247308102
 20
8.999975239668396
 30
0.0
 11
67.82113247308102
 21
8.992734634749391
 31
0.0
  0
LINE
  5
56B
330
18
100
AcDbEntity
  8
1
 62
     1
100
AcDbLine
 10
67.82113247308102
 20
8.992734634749391
 30
0.0
 11
67.82113247308102
 21
8.892719636867378
 31
0.0
  0
LINE
  5
56C
330
18
100
AcDbEntity
  8
1
 62
     1
100
AcDbLine
 10
60.37886752691897
 20
9.0
 30
0.0
 11
60.37886752691897
 21
8.999975239668396
 31
0.0
  0
LINE
  5
56D
330
18
100
AcDbEntity
  8
1
 62
     1
100
AcDbLine
 10
60.37886752691897
 20
8.999975239668396
 30
0.0
 11
60.37886752691897
 21
8.992734634749393
 31
0.0
  0
LINE
  5
56E
330
18
100
AcDbEntity
  8
1
 62
     1
100
AcDbLine
 10
60.37886752691897
 20
8.992734634749393
 30
0.0
 11
60.37886752691897
 21
8.892719636867376
 31
0.0
  0
ARC
  5
56F
330
18
100
AcDbEntity
  8
1
 62
     1
100
AcDbCircle
 10
-264.8078829374905
 20
-187.3622738313618
 30
0.0
 40
379.8188839934905
100
AcDbArc
 50
30.75458203174078
 51
31.11159983617391
  0
LINE
  5
570
330
18
100
AcDbEntity
  8
1
 62
     1
100
AcDbLine
 10
59.09999999999999
 20
6.854775584871775
 30
0.0
 11
59.1
 21
6.8849375
 31
0.0
  0
ARC
  5
571
330
18
100
AcDbEntity
  8
1
 62
     1
100
AcDbCircle
 10
385.5078829361526
 20
-187.3622738305616
 30
0.0
 40
379.8188839919316
100
AcDbArc
 50
148.8884001638251
 51
149.2454179682597
  0
LINE
  5
572
330
18
100
AcDbEntity
  8
1
 62
     1
100
AcDbLine
 10
60.32113247308104
 20
9.0
 30
0.0
 11
60.32113247308104
 21
8.999975239668396
 31
0.0
  0
LINE
  5
573
330
18
100
AcDbEntity
  8
1
 62
     1
100
AcDbLine
 10
60.32113247308104
 20
8.999975239668396
 30
0.0
 11
60.32113247308105
 21
8.99273463474939
 31
0.0
  0
LINE
  5
574
330
18
100
AcDbEntity
  8
1
 62
     1
100
AcDbLine
 10
60.32113247308105
 20
8.99273463474939
 30
0.0
 11
60.32113247308104
 21
8.892719636867376
 31
0.0
  0
LINE
  5
575
330
18
100
AcDbEntity
  8
1
 62
     1
100
AcDbLine
 10
57.87886752691897
 20
9.0
 30
0.0
 11
57.87886752691897
 21
8.999975239668396
 31
0.0
  0
LINE
  5
576
330
18
100
AcDbEntity
  8
1
 62
     1
100
AcDbLine
 10
57.87886752691897
 20
8.999975239668396
 30
0.0
 11
57.87886752691898
 21
8.992734634749393
 31
0.0
  0
LINE
  5
577
330
18
100
AcDbEntity
  8
1
 62
     1
100
AcDbLine
 10
57.87886752691898
 20
8.992734634749393
 30
0.0
 11
57.87886752691897
 21
8.892719636867376
 31
0.0
  0
ARC
  5
578
330
18
100
AcDbEntity
  8
1
 62
     1
100
AcDbCircle
 10
-267.3078829350068
 20
-187.3622738298762
 30
0.0
 40
379.8188839905964
100
AcDbArc
 50
30.7545820317398
 51
31.11159983617565
  0
ARC
  5
579
330
18
100
AcDbEntity
  8
1
 62
     1
100
AcDbCircle
 10
383.0078829352922
 20
-187.3622738300479
 30
0.0
 40
379.8188839909295
100
AcDbArc
 50
148.8884001638244
 51
149.24541796826
  0
LINE
  5
57A
330
18
100
AcDbEntity
  8
1
 62
     1
100
AcDbLine
 10
57.82113247308104
 20
9.0
 30
0.0
 11
57.82113247308104
 21
8.999975239668396
 31
0.0
  0
LINE
  5
57B
330
18
100
AcDbEntity
  8
1
 62
     1
100
AcDbLine
 10
57.82113247308104
 20
8.999975239668396
 30
0.0
 11
57.82113247308104
 21
8.992734634749393
 31
0.0
  0
LINE
  5
57C
330
18
100
AcDbEntity
  8
1
 62
     1
100
AcDbLine
 10
57.82113247308104
 20
8.992734634749393
 30
0.0
 11
57.82113247308104
 21
8.892719636867376
 31
0.0
  0
LINE
  5
57D
330
18
100
AcDbEntity
  8
1
 62
     1
100
AcDbLine
 10
61.59999999999999
 20
6.854775584871775
 30
0.0
 11
61.6
 21
6.8849375
 31
0.0
  0
ARC
  5
57E
330
18
100
AcDbEntity
  8
1
 62
     1
100
AcDbCircle
 10
388.0078829365252
 20
-187.3622738307838
 30
0.0
 40
379.8188839923654
100
AcDbArc
 50
148.8884001638255
 51
149.2454179682597
  0
LINE
  5
57F
330
18
100
AcDbEntity
  8
1
 62
     1
100
AcDbLine
 10
62.82113247308104
 20
9.0
 30
0.0
 11
62.82113247308104
 21
8.999975239668396
 31
0.0
  0
LINE
  5
580
330
18
100
AcDbEntity
  8
1
 62
     1
100
AcDbLine
 10
62.82113247308104
 20
8.999975239668396
 30
0.0
 11
62.82113247308105
 21
8.992734634749391
 31
0.0
  0
LINE
  5
581
330
18
100
AcDbEntity
  8
1
 62
     1
100
AcDbLine
 10
62.82113247308105
 20
8.992734634749391
 30
0.0
 11
62.82113247308105
 21
8.892719636867378
 31
0.0
  0
LINE
  5
582
330
18
100
AcDbEntity
  8
1
 62
     1
100
AcDbLine
 10
55.37886752691899
 20
9.0
 30
0.0
 11
55.37886752691899
 21
8.999975239668396
 31
0.0
  0
LINE
  5
583
330
18
100
AcDbEntity
  8
1
 62
     1
100
AcDbLine
 10
55.37886752691899
 20
8.999975239668396
 30
0.0
 11
55.37886752691898
 21
8.99273463474939
 31
0.0
  0
LINE
  5
584
330
18
100
AcDbEntity
  8
1
 62
     1
100
AcDbLine
 10
55.37886752691898
 20
8.99273463474939
 30
0.0
 11
55.37886752691897
 21
8.892719636867376
 31
0.0
  0
ARC
  5
585
330
18
100
AcDbEntity
  8
1
 62
     1
100
AcDbCircle
 10
-269.8078829366157
 20
-187.3622738308374
 30
0.0
 40
379.8188839924705
100
AcDbArc
 50
30.75458203174029
 51
31.11159983617438
  0
LINE
  5
586
330
18
100
AcDbEntity
  8
1
 62
     1
100
AcDbLine
 10
56.6
 20
6.854775584871775
 30
0.0
 11
56.6
 21
6.8849375
 31
0.0
  0
ARC
  5
587
330
18
100
AcDbEntity
  8
1
 62
     1
100
AcDbCircle
 10
380.5078829370998
 20
-187.3622738311302
 30
0.0
 40
379.8188839930364
100
AcDbArc
 50
148.8884001638256
 51
149.2454179682591
  0
LINE
  5
588
330
18
100
AcDbEntity
  8
1
 62
     1
100
AcDbLine
 10
55.32113247308105
 20
9.0
 30
0.0
 11
55.32113247308104
 21
8.999975239668396
 31
0.0
  0
LINE
  5
589
330
18
100
AcDbEntity
  8
1
 62
     1
100
AcDbLine
 10
55.32113247308104
 20
8.999975239668396
 30
0.0
 11
55.32113247308104
 21
8.99273463474939
 31
0.0
  0
LINE
  5
58A
330
18
100
AcDbEntity
  8
1
 62
     1
100
AcDbLine
 10
55.32113247308104
 20
8.99273463474939
 30
0.0
 11
55.32113247308104
 21
8.892719636867376
 31
0.0
  0
LINE
  5
58B
330
18
100
AcDbEntity
  8
1
 62
     1
100
AcDbLine
 10
52.87886752691899
 20
9.0
 30
0.0
 11
52.87886752691898
 21
8.999975239668396
 31
0.0
  0
LINE
  5
58C
330
18
100
AcDbEntity
  8
1
 62
     1
100
AcDbLine
 10
52.87886752691898
 20
8.999975239668396
 30
0.0
 11
52.87886752691898
 21
8.99273463474939
 31
0.0
  0
LINE
  5
58D
330
18
100
AcDbEntity
  8
1
 62
     1
100
AcDbLine
 10
52.87886752691898
 20
8.99273463474939
 30
0.0
 11
52.87886752691899
 21
8.892719636867376
 31
0.0
  0
ARC
  5
58E
330
18
100
AcDbEntity
  8
1
 62
     1
100
AcDbCircle
 10
-272.3078829336615
 20
-187.3622738290712
 30
0.0
 40
379.8188839890287
100
AcDbArc
 50
30.7545820317392
 51
31.11159983617653
  0
LINE
  5
58F
330
18
100
AcDbEntity
  8
1
 62
     1
100
AcDbLine
 10
54.1
 20
6.854775584871775
 30
0.0
 11
54.1
 21
6.8849375
 31
0.0
  0
ARC
  5
590
330
18
100
AcDbEntity
  8
1
 62
     1
100
AcDbCircle
 10
378.0078829359732
 20
-187.3622738304532
 30
0.0
 40
379.8188839917219
100
AcDbArc
 50
148.8884001638252
 51
149.24541796826
  0
LINE
  5
591
330
18
100
AcDbEntity
  8
1
 62
     1
100
AcDbLine
 10
52.82113247308105
 20
9.0
 30
0.0
 11
52.82113247308105
 21
8.999975239668396
 31
0.0
  0
LINE
  5
592
330
18
100
AcDbEntity
  8
1
 62
     1
100
AcDbLine
 10
52.82113247308105
 20
8.999975239668396
 30
0.0
 11
52.82113247308105
 21
8.99273463474939
 31
0.0
  0
LINE
  5
593
330
18
100
AcDbEntity
  8
1
 62
     1
100
AcDbLine
 10
52.82113247308105
 20
8.99273463474939
 30
0.0
 11
52.82113247308105
 21
8.892719636867376
 31
0.0
  0
LINE
  5
594
330
18
100
AcDbEntity
  8
1
 62
     1
100
AcDbLine
 10
50.378867526919
 20
9.0
 30
0.0
 11
50.378867526919
 21
8.999975239668396
 31
0.0
  0
LINE
  5
595
330
18
100
AcDbEntity
  8
1
 62
     1
100
AcDbLine
 10
50.378867526919
 20
8.999975239668396
 30
0.0
 11
50.378867526919
 21
8.99273463474939
 31
0.0
  0
LINE
  5
596
330
18
100
AcDbEntity
  8
1
 62
     1
100
AcDbLine
 10
50.378867526919
 20
8.99273463474939
 30
0.0
 11
50.37886752691899
 21
8.892719636867376
 31
0.0
  0
ARC
  5
597
330
18
100
AcDbEntity
  8
1
 62
     1
100
AcDbCircle
 10
-274.8078829369211
 20
-187.3622738310226
 30
0.0
 40
379.8188839928279
100
AcDbArc
 50
30.75458203174072
 51
31.11159983617448
  0
LINE
  5
598
330
18
100
AcDbEntity
  8
1
 62
     1
100
AcDbLine
 10
51.59999999999999
 20
6.854775584871775
 30
0.0
 11
51.6
 21
6.8849375
 31
0.0
  0
LINE
  5
599
330
18
100
AcDbEntity
  8
1
 62
     1
100
AcDbLine
 10
48.48943390485759
 20
7.942468505091401
 30
0.0
 11
48.48943390485759
 21
7.942453318769595
 31
0.0
  0
LINE
  5
59A
330
18
100
AcDbEntity
  8
1
 62
     1
100
AcDbLine
 10
48.48943390485759
 20
7.942453318769595
 30
0.0
 11
48.48943390485759
 21
7.938023460484979
 31
0.0
  0
LINE
  5
59B
330
18
100
AcDbEntity
  8
1
 62
     1
100
AcDbLine
 10
48.48943390485759
 20
7.938023460484979
 30
0.0
 11
48.48943390485759
 21
7.877234262140845
 31
0.0
  0
LINE
  5
59C
330
18
100
AcDbEntity
  8
1
 62
     1
100
AcDbLine
 10
49.0953555532256
 20
6.86259065583635
 30
0.0
 11
48.48943390485759
 21
7.877234262140925
 31
0.0
  0
LINE
  5
59D
330
18
100
AcDbEntity
  8
1
 62
     1
100
AcDbLine
 10
49.09999999999999
 20
6.854775584871775
 30
0.0
 11
49.1
 21
6.8849375
 31
0.0
  0
ARC
  5
59E
330
18
100
AcDbEntity
  8
1
 62
     1
100
AcDbCircle
 10
375.5078829383237
 20
-187.362273831861
 30
0.0
 40
379.8188839944618
100
AcDbArc
 50
148.8884001638266
 51
149.2454179682588
  0
LINE
  5
59F
330
18
100
AcDbEntity
  8
1
 62
     1
100
AcDbLine
 10
50.32113247308103
 20
9.0
 30
0.0
 11
50.32113247308103
 21
8.999975239668396
 31
0.0
  0
LINE
  5
5A0
330
18
100
AcDbEntity
  8
1
 62
     1
100
AcDbLine
 10
50.32113247308103
 20
8.999975239668396
 30
0.0
 11
50.32113247308104
 21
8.992734634749393
 31
0.0
  0
LINE
  5
5A1
330
18
100
AcDbEntity
  8
1
 62
     1
100
AcDbLine
 10
50.32113247308104
 20
8.992734634749393
 30
0.0
 11
50.32113247308104
 21
8.892719636867382
 31
0.0
  0
LINE
  5
5A2
330
18
100
AcDbEntity
  8
1
 62
     1
100
AcDbLine
 10
78.70096921364431
 20
-5.43695992912223
 30
0.0
 11
77.1267610580056
 21
-5.73174824213443
 31
0.0
  0
LINE
  5
5A3
330
18
100
AcDbEntity
  8
1
 62
     1
100
AcDbLine
 10
75.98020836921009
 20
-5.942544848699828
 30
0.0
 11
74.81438575347327
 21
-6.153888461403314
 31
0.0
  0
LINE
  5
5A4
330
18
100
AcDbEntity
  8
1
 62
     1
100
AcDbLine
 10
73.25944752477588
 20
-6.431568758252302
 30
0.0
 11
72.50201044894098
 21
-6.565251914487119
 31
0.0
  0
LINE
  5
5A5
330
18
100
AcDbEntity
  8
1
 62
     1
100
AcDbLine
 10
70.53868668034163
 20
-6.907461800204975
 30
0.0
 11
70.1896351444087
 21
-6.967700190787793
 31
0.0
  0
LINE
  5
5A6
330
18
100
AcDbEntity
  8
1
 62
     1
100
AcDbLine
 10
67.87886752691898
 20
-7.245223061040083
 30
0.0
 11
67.82113247308102
 21
-7.245223061040083
 31
0.0
  0
LINE
  5
5A7
330
18
100
AcDbEntity
  8
1
 62
     1
100
AcDbLine
 10
65.37886752691898
 20
-7.245223061040083
 30
0.0
 11
65.32113247308105
 21
-7.245223061040083
 31
0.0
  0
LINE
  5
5A8
330
18
100
AcDbEntity
  8
1
 62
     1
100
AcDbLine
 10
62.87886752691895
 20
-7.245223061040083
 30
0.0
 11
62.82113247308104
 21
-7.245223061040083
 31
0.0
  0
LINE
  5
5A9
330
18
100
AcDbEntity
  8
1
 62
     1
100
AcDbLine
 10
60.37886752691897
 20
-7.245223061040083
 30
0.0
 11
60.32113247308106
 21
-7.245223061040083
 31
0.0
  0
LINE
  5
5AA
330
18
100
AcDbEntity
  8
1
 62
     1
100
AcDbLine
 10
57.878867526919
 20
-7.245223061040083
 30
0.0
 11
57.82113247308104
 21
-7.24522306104008
 31
0.0
  0
LINE
  5
5AB
330
18
100
AcDbEntity
  8
1
 62
     1
100
AcDbLine
 10
55.37886752691898
 20
-7.245223061040083
 30
0.0
 11
55.32113247308104
 21
-7.245223061040083
 31
0.0
  0
LINE
  5
5AC
330
18
100
AcDbEntity
  8
1
 62
     1
100
AcDbLine
 10
52.878867526919
 20
-7.245223061040083
 30
0.0
 11
52.82113247308106
 21
-7.245223061040083
 31
0.0
  0
LINE
  5
5AD
330
18
100
AcDbEntity
  8
1
 62
     1
100
AcDbLine
 10
50.378867526919
 20
-7.245223061040083
 30
0.0
 11
50.32113247308103
 21
-7.245223061040083
 31
0.0
  0
LINE
  5
5AE
330
18
100
AcDbEntity
  8
1
 62
     1
100
AcDbLine
 10
71.6
 20
-6.8849375
 30
0.0
 11
70.53868668034164
 21
-8.72318523531425
 31
0.0
  0
LINE
  5
5AF
330
18
100
AcDbEntity
  8
1
 62
     1
100
AcDbLine
 10
49.1
 20
-6.8849375
 30
0.0
 11
48.48943390485759
 21
-7.942468505091412
 31
0.0
  0
LINE
  5
5B0
330
18
100
AcDbEntity
  8
1
 62
     1
100
AcDbLine
 10
48.48943390485759
 20
-5.921776346990637
 30
0.0
 11
48.48943390485759
 21
-7.942468505091401
 31
0.0
  0
ARC
  5
5B1
330
18
100
AcDbEntity
  8
1
 62
     1
100
AcDbCircle
 10
79.16341240767929
 20
7.772371037461556
 30
0.0
 40
33.59190211794412
100
AcDbArc
 50
200.7822276726433
 51
204.0579833163191
  0
LINE
  5
5B2
330
18
100
AcDbEntity
  8
1
 62
     1
100
AcDbLine
 10
47.75766062
 20
-1.88928445239452
 30
0.0
 11
47.75766062
 21
-4.146408953333808
 31
0.0
  0
LINE
  5
5B3
330
18
100
AcDbEntity
  8
1
 62
     1
100
AcDbLine
 10
47.75766062
 20
5.23095763619944
 30
0.0
 11
47.75766062
 21
-0.5892250503708
 31
0.0
  0
LINE
  5
5B4
330
18
100
AcDbEntity
  8
1
 62
     1
100
AcDbLine
 10
47.75766062
 20
6.648942685872357
 30
0.0
 11
47.75766061999999
 21
5.230957636200583
 31
0.0
  0
LINE
  5
5B5
330
18
100
AcDbEntity
  8
1
 62
     1
100
AcDbLine
 10
47.75766062
 20
6.675
 30
0.0
 11
47.75766062
 21
6.674998462859402
 31
0.0
  0
LINE
  5
5B6
330
18
100
AcDbEntity
  8
1
 62
     1
100
AcDbLine
 10
47.75766062
 20
6.674998462859402
 30
0.0
 11
47.75766062
 21
6.674553776441781
 31
0.0
  0
LINE
  5
5B7
330
18
100
AcDbEntity
  8
1
 62
     1
100
AcDbLine
 10
47.75766062
 20
6.674553776441781
 30
0.0
 11
47.75766062
 21
6.668593945640903
 31
0.0
  0
LINE
  5
5B8
330
18
100
AcDbEntity
  8
1
 62
     1
100
AcDbLine
 10
47.75766062
 20
6.668593945640903
 30
0.0
 11
47.75766061999999
 21
6.648942685872358
 31
0.0
  0
LINE
  5
5B9
330
18
100
AcDbEntity
  8
1
 62
     1
100
AcDbLine
 10
47.75766062
 20
-4.146408953333806
 30
0.0
 11
47.75766062
 21
-6.639801250960772
 31
0.0
  0
LINE
  5
5BA
330
18
100
AcDbEntity
  8
1
 62
     1
100
AcDbLine
 10
47.75766062
 20
-6.639801250960772
 30
0.0
 11
47.75766062
 21
-6.674999990839664
 31
0.0
  0
LINE
  5
5BB
330
18
100
AcDbEntity
  8
1
 62
     1
100
AcDbLine
 10
79.1
 20
-0.6437515514172261
 30
0.0
 11
79.10000000000001
 21
-1.889284452394526
 31
0.0
  0
LINE
  5
5BC
330
18
100
AcDbEntity
  8
1
 62
     1
100
AcDbLine
 10
47.75766062000001
 20
-0.5892250503708002
 30
0.0
 11
47.75766062
 21
-1.889284452394526
 31
0.0
  0
LINE
  5
5BD
330
18
100
AcDbEntity
  8
1
 62
     1
100
AcDbLine
 10
76.6
 20
6.8849375
 30
0.0
 11
75.98020836921009
 21
7.958447594109675
 31
0.0
  0
LINE
  5
5BE
330
18
100
AcDbEntity
  8
1
 62
     1
100
AcDbLine
 10
77.12676105800561
 20
7.797313990518632
 30
0.0
 11
76.6
 21
6.884937500000001
 31
0.0
  0
LINE
  5
5BF
330
18
100
AcDbEntity
  8
1
 62
     1
100
AcDbLine
 10
79.1
 20
6.8849375
 30
0.0
 11
78.7009692136443
 21
7.576078773507396
 31
0.0
  0
LINE
  5
5C0
330
18
100
AcDbEntity
  8
1
 62
     1
100
AcDbLine
 10
66.6
 20
6.8849375
 30
0.0
 11
65.37886752691897
 21
8.999999999999998
 31
0.0
  0
LINE
  5
5C1
330
18
100
AcDbEntity
  8
1
 62
     1
100
AcDbLine
 10
65.32113247308101
 20
8.999999999999996
 30
0.0
 11
64.1
 21
6.8849375
 31
0.0
  0
LINE
  5
5C2
330
18
100
AcDbEntity
  8
1
 62
     1
100
AcDbLine
 10
64.1
 20
6.884937499999999
 30
0.0
 11
62.87886752691895
 21
9.000000000000018
 31
0.0
  0
LINE
  5
5C3
330
18
100
AcDbEntity
  8
1
 62
     1
100
AcDbLine
 10
69.1
 20
6.8849375
 30
0.0
 11
67.87886752691898
 21
8.999999999999998
 31
0.0
  0
LINE
  5
5C4
330
18
100
AcDbEntity
  8
1
 62
     1
100
AcDbLine
 10
74.81438575347329
 20
8.122289344303436
 30
0.0
 11
74.1
 21
6.8849375
 31
0.0
  0
LINE
  5
5C5
330
18
100
AcDbEntity
  8
1
 62
     1
100
AcDbLine
 10
70.1896351444087
 20
8.772240051873094
 30
0.0
 11
69.1
 21
6.884937499999999
 31
0.0
  0
LINE
  5
5C6
330
18
100
AcDbEntity
  8
1
 62
     1
100
AcDbLine
 10
71.6
 20
6.884937499999999
 30
0.0
 11
70.53868668034164
 21
8.72318523531425
 31
0.0
  0
LINE
  5
5C7
330
18
100
AcDbEntity
  8
1
 62
     1
100
AcDbLine
 10
72.50201044894101
 20
8.447264698088281
 30
0.0
 11
71.6
 21
6.8849375
 31
0.0
  0
LINE
  5
5C8
330
18
100
AcDbEntity
  8
1
 62
     1
100
AcDbLine
 10
74.10000000000001
 20
6.8849375
 30
0.0
 11
73.25944752477587
 21
8.340816414711963
 31
0.0
  0
LINE
  5
5C9
330
18
100
AcDbEntity
  8
1
 62
     1
100
AcDbLine
 10
67.82113247308102
 20
8.999999999999998
 30
0.0
 11
66.6
 21
6.8849375
 31
0.0
  0
LINE
  5
5CA
330
18
100
AcDbEntity
  8
1
 62
     1
100
AcDbLine
 10
61.6
 20
6.8849375
 30
0.0
 11
60.37886752691897
 21
8.999999999999998
 31
0.0
  0
LINE
  5
5CB
330
18
100
AcDbEntity
  8
1
 62
     1
100
AcDbLine
 10
60.32113247308104
 20
9.00000000000002
 30
0.0
 11
59.1
 21
6.8849375
 31
0.0
  0
LINE
  5
5CC
330
18
100
AcDbEntity
  8
1
 62
     1
100
AcDbLine
 10
59.09999999999999
 20
6.8849375
 30
0.0
 11
57.87886752691898
 21
8.999999999999998
 31
0.0
  0
LINE
  5
5CD
330
18
100
AcDbEntity
  8
1
 62
     1
100
AcDbLine
 10
57.82113247308103
 20
9.00000000000002
 30
0.0
 11
56.6
 21
6.8849375
 31
0.0
  0
LINE
  5
5CE
330
18
100
AcDbEntity
  8
1
 62
     1
100
AcDbLine
 10
62.82113247308104
 20
9.00000000000002
 30
0.0
 11
61.59999999999999
 21
6.8849375
 31
0.0
  0
LINE
  5
5CF
330
18
100
AcDbEntity
  8
1
 62
     1
100
AcDbLine
 10
56.59999999999999
 20
6.884937499999999
 30
0.0
 11
55.37886752691897
 21
8.999999999999995
 31
0.0
  0
LINE
  5
5D0
330
18
100
AcDbEntity
  8
1
 62
     1
100
AcDbLine
 10
55.32113247308105
 20
9.000000000000032
 30
0.0
 11
54.09999999999999
 21
6.8849375
 31
0.0
  0
LINE
  5
5D1
330
18
100
AcDbEntity
  8
1
 62
     1
100
AcDbLine
 10
54.09999999999999
 20
6.884937499999999
 30
0.0
 11
52.87886752691898
 21
8.999999999999995
 31
0.0
  0
LINE
  5
5D2
330
18
100
AcDbEntity
  8
1
 62
     1
100
AcDbLine
 10
52.82113247308104
 20
9.000000000000028
 30
0.0
 11
51.6
 21
6.8849375
 31
0.0
  0
LINE
  5
5D3
330
18
100
AcDbEntity
  8
1
 62
     1
100
AcDbLine
 10
51.6
 20
6.8849375
 30
0.0
 11
50.37886752691897
 21
8.999999999999991
 31
0.0
  0
LINE
  5
5D4
330
18
100
AcDbEntity
  8
1
 62
     1
100
AcDbLine
 10
49.1
 20
6.8849375
 30
0.0
 11
48.48943390485759
 21
7.942468505091412
 31
0.0
  0
LINE
  5
5D5
330
18
100
AcDbEntity
  8
1
 62
     1
100
AcDbLine
 10
50.32113247308104
 20
8.999999999999996
 30
0.0
 11
49.1
 21
6.8849375
 31
0.0
  0
LINE
  5
5D6
330
18
100
AcDbEntity
  8
1
 62
     1
100
AcDbLine
 10
77.12676105800561
 20
-7.79731399051863
 30
0.0
 11
78.7009692136443
 21
-7.5760787735074
 31
0.0
  0
LINE
  5
5D7
330
18
100
AcDbEntity
  8
1
 62
     1
100
AcDbLine
 10
74.81438575347329
 20
-8.12228934430344
 30
0.0
 11
75.98020836921009
 21
-7.958447594109682
 31
0.0
  0
LINE
  5
5D8
330
18
100
AcDbEntity
  8
1
 62
     1
100
AcDbLine
 10
72.50201044894101
 20
-8.447264698088244
 30
0.0
 11
73.25944752477587
 21
-8.340816414711965
 31
0.0
  0
LINE
  5
5D9
330
18
100
AcDbEntity
  8
1
 62
     1
100
AcDbLine
 10
70.18963514440868
 20
-8.77224005187305
 30
0.0
 11
70.53868668034166
 21
-8.72318523531425
 31
0.0
  0
LINE
  5
5DA
330
18
100
AcDbEntity
  8
1
 62
     1
100
AcDbLine
 10
67.82113247308104
 20
-9.0
 30
0.0
 11
67.878867526919
 21
-9.0
 31
0.0
  0
LINE
  5
5DB
330
18
100
AcDbEntity
  8
1
 62
     1
100
AcDbLine
 10
65.32113247308102
 20
-8.999999999999998
 30
0.0
 11
65.378867526919
 21
-8.999999999999998
 31
0.0
  0
LINE
  5
5DC
330
18
100
AcDbEntity
  8
1
 62
     1
100
AcDbLine
 10
62.82113247308104
 20
-9.0
 30
0.0
 11
62.87886752691897
 21
-9.0
 31
0.0
  0
LINE
  5
5DD
330
18
100
AcDbEntity
  8
1
 62
     1
100
AcDbLine
 10
60.32113247308102
 20
-9.0
 30
0.0
 11
60.37886752691897
 21
-9.0
 31
0.0
  0
LINE
  5
5DE
330
18
100
AcDbEntity
  8
1
 62
     1
100
AcDbLine
 10
57.82113247308104
 20
-9.0
 30
0.0
 11
57.878867526919
 21
-8.999999999999998
 31
0.0
  0
LINE
  5
5DF
330
18
100
AcDbEntity
  8
1
 62
     1
100
AcDbLine
 10
55.32113247308106
 20
-9.0
 30
0.0
 11
55.37886752691901
 21
-9.0
 31
0.0
  0
LINE
  5
5E0
330
18
100
AcDbEntity
  8
1
 62
     1
100
AcDbLine
 10
52.82113247308105
 20
-9.0
 30
0.0
 11
52.878867526919
 21
-9.0
 31
0.0
  0
LINE
  5
5E1
330
18
100
AcDbEntity
  8
1
 62
     1
100
AcDbLine
 10
50.32113247308103
 20
-9.0
 30
0.0
 11
50.37886752691901
 21
-9.000000000000002
 31
0.0
  0
LINE
  5
5E2
330
18
100
AcDbEntity
  8
1
 62
     1
100
AcDbLine
 10
47.75766062
 20
-6.675
 30
0.0
 11
48.48943390485759
 21
-7.9424685050914
 31
0.0
  0
LINE
  5
5E3
330
18
100
AcDbEntity
  8
SK1
100
AcDbLine
 10
0.0000000000000018
 20
6.883400000000001
 30
0.0
 11
-29.89800000000001
 21
6.8834
 31
0.0
  0
LINE
  5
5E4
330
18
100
AcDbEntity
  8
SK1
100
AcDbLine
 10
-29.89800000000001
 20
-5.156199999999999
 30
0.0
 11
-29.89800000000001
 21
-6.8834
 31
0.0
  0
LINE
  5
5E5
330
18
100
AcDbEntity
  8
SK1
100
AcDbLine
 10
-45.21166000000001
 20
4.560131261268694
 30
0.0
 11
-29.89800000000001
 21
4.560131261268694
 31
0.0
  0
LINE
  5
5E6
330
18
100
AcDbEntity
  8
SK1
100
AcDbLine
 10
-45.21166000000001
 20
5.156200000000002
 30
0.0
 11
-29.89800000000001
 21
5.156200000000002
 31
0.0
  0
ARC
  5
5E7
330
18
100
AcDbEntity
  8
SK1
100
AcDbCircle
 10
-31.5438033267607
 20
-4.5737987869469
 30
0.0
 40
16.43859845502926
100
AcDbArc
 50
146.2460581912005
 51
150.8474826901917
  0
LINE
  5
5E8
330
18
100
AcDbEntity
  8
SK1
100
AcDbLine
 10
-45.21166000000001
 20
5.156200000000002
 30
0.0
 11
-45.21166
 21
4.560131261268693
 31
0.0
  0
LINE
  5
5E9
330
18
100
AcDbEntity
  8
SK1
100
AcDbLine
 10
-45.90000000000001
 20
5.156200000000001
 30
0.0
 11
-45.21166000000001
 21
5.156200000000002
 31
0.0
  0
LINE
  5
5EA
330
18
100
AcDbEntity
  8
SK1
100
AcDbLine
 10
-29.89800000000001
 20
6.8834
 30
0.0
 11
-29.89800000000001
 21
6.8830382137527
 31
0.0
  0
LINE
  5
5EB
330
18
100
AcDbEntity
  8
SK1
100
AcDbLine
 10
-29.89800000000001
 20
6.8830382137527
 30
0.0
 11
-29.89800000000001
 21
6.772261552920098
 31
0.0
  0
LINE
  5
5EC
330
18
100
AcDbEntity
  8
SK1
100
AcDbLine
 10
-29.89800000000001
 20
6.772261552920098
 30
0.0
 11
-29.89800000000001
 21
5.156200000000002
 31
0.0
  0
LINE
  5
5ED
330
18
100
AcDbEntity
  8
SK1
100
AcDbLine
 10
-45.21166000000001
 20
-4.560131261268692
 30
0.0
 11
-29.89800000000001
 21
-4.560131261268692
 31
0.0
  0
LINE
  5
5EE
330
18
100
AcDbEntity
  8
SK1
100
AcDbLine
 10
-45.21166000000001
 20
-4.560131261268691
 30
0.0
 11
-45.21166000000002
 21
-5.156199999999999
 31
0.0
  0
LINE
  5
5EF
330
18
100
AcDbEntity
  8
SK1
100
AcDbLine
 10
-45.21166000000001
 20
-5.1562
 30
0.0
 11
-29.89800000000001
 21
-5.1562
 31
0.0
  0
LINE
  5
5F0
330
18
100
AcDbEntity
  8
SK1
100
AcDbLine
 10
-45.90000000000001
 20
3.434002033138595
 30
0.0
 11
-45.90000000000001
 21
-3.434002033138594
 31
0.0
  0
LINE
  5
5F1
330
18
100
AcDbEntity
  8
SK1
100
AcDbLine
 10
-45.9
 20
5.1562
 30
0.0
 11
-45.90000000000001
 21
3.434002033138594
 31
0.0
  0
LINE
  5
5F2
330
18
100
AcDbEntity
  8
SK1
100
AcDbLine
 10
-45.90000000000001
 20
-3.434002033138594
 30
0.0
 11
-45.90000000000001
 21
-5.156199999999998
 31
0.0
  0
ARC
  5
5F3
330
18
100
AcDbEntity
  8
SK1
100
AcDbCircle
 10
-31.54380332674891
 20
4.573798786954431
 30
0.0
 40
16.43859845504323
100
AcDbArc
 50
209.1525173098112
 51
213.7539418087986
  0
LINE
  5
5F4
330
18
100
AcDbEntity
  8
SK1
100
AcDbLine
 10
-45.90000000000001
 20
-5.1562
 30
0.0
 11
-45.21166000000001
 21
-5.1562
 31
0.0
  0
LINE
  5
5F5
330
18
100
AcDbEntity
  8
SK1
100
AcDbLine
 10
-29.89800000000001
 20
4.560131261268672
 30
0.0
 11
-29.89800000000001
 21
-4.560131261268674
 31
0.0
  0
LINE
  5
5F6
330
18
100
AcDbEntity
  8
SK1
100
AcDbLine
 10
-29.89800000000001
 20
-6.8834
 30
0.0
 11
-0.0000000000000013
 21
-6.8834
 31
0.0
  0
DIMENSION
  5
5F7
330
18
100
AcDbEntity
  8
2
100
AcDbDimension
  2
*D0
 10
94.10000000000007
 20
-8.999999999999947
 30
0.0
 11
91.70925000000004
 21
0.0000000000000457
 31
0.0
 70
    32
  1
M18
 71
     5
 42
18.0
  3
STANDARD
100
AcDbAlignedDimension
 13
79.1
 23
9.0
 33
0.0
 14
79.1
 24
-9.0
 34
0.0
 50
90.0000000000002
100
AcDbRotatedDimension
  0
DIMENSION
  5
604
330
18
100
AcDbEntity
  8
2
100
AcDbDimension
  2
*D1
 10
79.1
 20
75.0
 30
0.0
 11
39.55
 21
77.39775
 31
0.0
 70
    32
  1
<>
 71
     5
 42
79.1
  3
STANDARD
100
AcDbAlignedDimension
 13
0.0
 23
0.0
 33
0.0
 14
79.1
 24
0.0
 34
0.0
100
AcDbRotatedDimension
  0
DIMENSION
  5
611
330
18
100
AcDbEntity
  8
SK2
100
AcDbDimension
  2
*D2
 10
-60.89999999996488
 20
-6.883400000158216
 30
0.0
 11
-63.29774999990599
 21
-18.42240000017045
 31
0.0
 70
    32
  1
%%c<>
 71
     5
 42
13.7668
  3
STANDARD
100
AcDbAlignedDimension
 13
-29.89800000000001
 23
6.8834
 33
0.0
 14
-29.89800000000001
 24
-6.8834
 34
0.0
 50
90.0000000002924
100
AcDbRotatedDimension
  0
DIMENSION
  5
61F
330
18
100
AcDbEntity
  8
2
100
AcDbDimension
  2
*D3
 10
79.1
 20
60.0
 30
0.0
 11
63.42883031
 21
62.438
 31
0.0
 70
    32
  1
<>
 71
     5
 42
31.34233938
  3
STANDARD
100
AcDbAlignedDimension
 13
47.75766062
 23
6.675
 33
0.0
 14
79.1
 24
9.0
 34
0.0
100
AcDbRotatedDimension
  0
DIMENSION
  5
62C
330
18
100
AcDbEntity
  8
SK2
100
AcDbDimension
  2
*D4
 10
79.1
 20
90.0
 30
0.0
 11
16.59999999999999
 21
92.39075
 31
0.0
 70
    32
  1
<>
 71
     5
 42
125.0
  3
STANDARD
100
AcDbAlignedDimension
 13
-45.90000000000001
 23
9.0
 33
0.0
 14
79.1
 24
9.0
 34
0.0
100
AcDbRotatedDimension
  0
ENDSEC
  0
SECTION
  2
OBJECTS
  0
DICTIONARY
  5
C
330
0
100
AcDbDictionary
281
     1
  3
ACAD_COLOR
350
387
  3
ACAD_GROUP
350
D
  3
ACAD_LAYOUT
350
301
  3
ACAD_MATERIAL
350
386
  3
ACAD_MLEADERSTYLE
350
639
  3
ACAD_MLINESTYLE
350
E
  3
ACAD_PLOTSETTINGS
350
302
  3
ACAD_PLOTSTYLENAME
350
2FF
  3
ACAD_SCALELIST
350
3A0
  3
ACAD_TABLESTYLE
350
388
  3
ACAD_VISUALSTYLE
350
3C5
  3
ACDBHEADERROUNDTRIPXREC
350
63A
  3
AcDbVariableDictionary
350
357
  0
DICTIONARY
  5
387
102
{ACAD_REACTORS
330
C
102
}
330
C
100
AcDbDictionary
281
     1
  0
DICTIONARY
  5
D
102
{ACAD_REACTORS
330
C
102
}
330
C
100
AcDbDictionary
281
     1
  0
DICTIONARY
  5
301
102
{ACAD_REACTORS
330
C
102
}
330
C
100
AcDbDictionary
281
     1
  3
Layout1
350
33B
  3
Model
350
303
  0
DICTIONARY
  5
386
102
{ACAD_REACTORS
330
C
102
}
330
C
100
AcDbDictionary
281
     1
  3
ByBlock
350
3C3
  3
ByLayer
350
3C2
  3
Global
350
3C4
  0
DICTIONARY
  5
639
102
{ACAD_REACTORS
330
C
102
}
330
C
100
AcDbDictionary
281
     1
  0
DICTIONARY
  5
E
102
{ACAD_REACTORS
330
C
102
}
330
C
100
AcDbDictionary
281
     1
  3
STANDARD
350
1B
  0
DICTIONARY
  5
302
102
{ACAD_REACTORS
330
C
102
}
330
C
100
AcDbDictionary
281
     1
  0
ACDBDICTIONARYWDFLT
  5
2FF
102
{ACAD_REACTORS
330
C
102
}
330
C
100
AcDbDictionary
281
     1
  3
Normal
350
300
100
AcDbDictionaryWithDefault
340
300
  0
DICTIONARY
  5
3A0
102
{ACAD_REACTORS
330
C
102
}
330
C
100
AcDbDictionary
281
     1
  3
A0
350
3A1
  3
A1
350
3A2
  3
A2
350
3A3
  3
A3
350
3A4
  3
A4
350
3A5
  3
A5
350
3A6
  3
A6
350
3A7
  3
A7
350
3A8
  3
A8
350
3A9
  3
A9
350
3AA
  3
B0
350
3AB
  3
B1
350
3AC
  3
B2
350
3AD
  3
B3
350
3AE
  3
B4
350
3AF
  3
B5
350
3B0
  3
B6
350
3B1
  3
B7
350
3B2
  3
B8
350
3B3
  3
B9
350
3B4
  3
C0
350
3B5
  3
C1
350
3B6
  3
C2
350
3B7
  3
C3
350
3B8
  3
C4
350
3B9
  3
C5
350
3BA
  3
C6
350
3BB
  3
C7
350
3BC
  3
C8
350
3BD
  3
C9
350
3BE
  3
D0
350
3BF
  3
D1
350
3C0
  3
D2
350
3C1
  0
DICTIONARY
  5
388
102
{ACAD_REACTORS
330
C
102
}
330
C
100
AcDbDictionary
281
     1
  3
Standard
350
389
  0
DICTIONARY
  5
3C5
102
{ACAD_REACTORS
330
C
102
}
330
C
100
AcDbDictionary
281
     1
  3
2dWireframe
350
3CA
  3
3D Hidden
350
3CC
  3
3dWireframe
350
3CB
  3
Basic
350
3CD
  3
Brighten
350
3D1
  3
ColorChange
350
3D5
  3
Conceptual
350
3CF
  3
Dim
350
3D0
  3
Facepattern
350
3D4
  3
Flat
350
3C6
  3
FlatWithEdges
350
3C7
  3
Gouraud
350
3C8
  3
GouraudWithEdges
350
3C9
  3
Linepattern
350
3D3
  3
Realistic
350
3CE
  3
Thicken
350
3D2
  0
DICTIONARY
  5
63A
102
{ACAD_REACTORS
330
C
102
}
330
C
100
AcDbDictionary
281
     1
  3
COLORDICT
350
63B
  3
MATERIALDICT
350
63C
  0
DICTIONARY
  5
357
102
{ACAD_REACTORS
330
C
102
}
330
C
100
AcDbDictionary
281
     1
  3
CANNOSCALE
350
63D
  3
CTABLESTYLE
350
38D
  3
DIMASSOC
350
359
  3
HIDETEXT
350
358
  3
PROJECTNAME
350
38E
  0
LAYOUT
  5
33B
102
{ACAD_REACTORS
330
301
102
}
330
301
100
AcDbPlotSettings
  1

  2
Lexmark Optra PS2
  4

  6

 40
0.0
 41
0.0
 42
0.0
 43
0.0
 44
0.0
 45
0.0
 46
0.0
 47
0.0
 48
0.0
 49
0.0
140
0.0
141
0.0
142
1.0
143
1.0
 70
   688
 72
     0
 73
     0
 74
     5
  7
monochrome.ctb
 75
    16
147
1.0
148
0.0
149
0.0
100
AcDbLayout
  1
Layout1
 70
     1
 71
     1
 10
0.0
 20
0.0
 11
12.0
 21
9.0
 12
0.0
 22
0.0
 32
0.0
 14
0.0
 24
0.0
 34
0.0
 15
0.0
 25
0.0
 35
0.0
146
0.0
 13
0.0
 23
0.0
 33
0.0
 16
1.0
 26
0.0
 36
0.0
 17
0.0
 27
1.0
 37
0.0
 76
     0
330
338
  0
LAYOUT
  5
303
102
{ACAD_REACTORS
330
301
102
}
330
301
100
AcDbPlotSettings
  1

  2
Lexmark Optra Rx
  4
A4
  6

 40
6.805083274841307
 41
5.535083293914794
 42
6.974411010742187
 43
7.14373779296875
 44
209.9733276367186
 45
296.9259948730469
 46
0.0
 47
0.0
 48
0.0
 49
0.0
140
0.0
141
0.0
142
1.0
143
2.976565420630886
 70
 11952
 72
     1
 73
     1
 74
     0
  7
monochrome.ctb
 75
     0
147
0.335957675604539
148
204.1199660668592
149
172.3933209647495
100
AcDbLayout
  1
Model
 70
     1
 71
     0
 10
0.0
 20
0.0
 11
12.0
 21
9.0
 12
0.0
 22
0.0
 32
0.0
 14
0.0
 24
0.0
 34
0.0
 15
0.0
 25
0.0
 35
0.0
146
0.0
 13
0.0
 23
0.0
 33
0.0
 16
1.0
 26
0.0
 36
0.0
 17
0.0
 27
1.0
 37
0.0
 76
     0
330
18
331
39A
  0
MATERIAL
  5
3C3
102
{ACAD_REACTORS
330
386
102
}
102
{ACAD_XDICTIONARY
360
640
102
}
330
386
100
AcDbMaterial
  1
ByBlock
  0
MATERIAL
  5
3C2
102
{ACAD_REACTORS
330
386
102
}
102
{ACAD_XDICTIONARY
360
63E
102
}
330
386
100
AcDbMaterial
  1
ByLayer
  0
MATERIAL
  5
3C4
102
{ACAD_REACTORS
330
386
102
}
102
{ACAD_XDICTIONARY
360
642
102
}
330
386
100
AcDbMaterial
  1
Global
  0
MLINESTYLE
  5
1B
102
{ACAD_REACTORS
330
E
102
}
330
E
100
AcDbMlineStyle
  2
STANDARD
 70
     0
  3

 62
     0
 51
90.0
 52
90.0
 71
     2
 49
0.5
 62
   256
  6
BYLAYER
 49
-0.5
 62
   256
  6
BYLAYER
  0
ACDBPLACEHOLDER
  5
300
102
{ACAD_REACTORS
330
2FF
102
}
330
2FF
  0
SCALE
  5
3A1
102
{ACAD_REACTORS
330
3A0
102
}
330
3A0
100
AcDbScale
 70
     0
300
1:1
140
1.0
141
1.0
290
     1
  0
SCALE
  5
3A2
102
{ACAD_REACTORS
330
3A0
102
}
330
3A0
100
AcDbScale
 70
     0
300
1:2
140
1.0
141
2.0
290
     0
  0
SCALE
  5
3A3
102
{ACAD_REACTORS
330
3A0
102
}
330
3A0
100
AcDbScale
 70
     0
300
1:4
140
1.0
141
4.0
290
     0
  0
SCALE
  5
3A4
102
{ACAD_REACTORS
330
3A0
102
}
330
3A0
100
AcDbScale
 70
     0
300
1:5
140
1.0
141
5.0
290
     0
  0
SCALE
  5
3A5
102
{ACAD_REACTORS
330
3A0
102
}
330
3A0
100
AcDbScale
 70
     0
300
1:8
140
1.0
141
8.0
290
     0
  0
SCALE
  5
3A6
102
{ACAD_REACTORS
330
3A0
102
}
330
3A0
100
AcDbScale
 70
     0
300
1:10
140
1.0
141
10.0
290
     0
  0
SCALE
  5
3A7
102
{ACAD_REACTORS
330
3A0
102
}
330
3A0
100
AcDbScale
 70
     0
300
1:16
140
1.0
141
16.0
290
     0
  0
SCALE
  5
3A8
102
{ACAD_REACTORS
330
3A0
102
}
330
3A0
100
AcDbScale
 70
     0
300
1:20
140
1.0
141
20.0
290
     0
  0
SCALE
  5
3A9
102
{ACAD_REACTORS
330
3A0
102
}
330
3A0
100
AcDbScale
 70
     0
300
1:30
140
1.0
141
30.0
290
     0
  0
SCALE
  5
3AA
102
{ACAD_REACTORS
330
3A0
102
}
330
3A0
100
AcDbScale
 70
     0
300
1:40
140
1.0
141
40.0
290
     0
  0
SCALE
  5
3AB
102
{ACAD_REACTORS
330
3A0
102
}
330
3A0
100
AcDbScale
 70
     0
300
1:50
140
1.0
141
50.0
290
     0
  0
SCALE
  5
3AC
102
{ACAD_REACTORS
330
3A0
102
}
330
3A0
100
AcDbScale
 70
     0
300
1:100
140
1.0
141
100.0
290
     0
  0
SCALE
  5
3AD
102
{ACAD_REACTORS
330
3A0
102
}
330
3A0
100
AcDbScale
 70
     0
300
2:1
140
2.0
141
1.0
290
     0
  0
SCALE
  5
3AE
102
{ACAD_REACTORS
330
3A0
102
}
330
3A0
100
AcDbScale
 70
     0
300
4:1
140
4.0
141
1.0
290
     0
  0
SCALE
  5
3AF
102
{ACAD_REACTORS
330
3A0
102
}
330
3A0
100
AcDbScale
 70
     0
300
8:1
140
8.0
141
1.0
290
     0
  0
SCALE
  5
3B0
102
{ACAD_REACTORS
330
3A0
102
}
330
3A0
100
AcDbScale
 70
     0
300
10:1
140
10.0
141
1.0
290
     0
  0
SCALE
  5
3B1
102
{ACAD_REACTORS
330
3A0
102
}
330
3A0
100
AcDbScale
 70
     0
300
100:1
140
100.0
141
1.0
290
     0
  0
SCALE
  5
3B2
102
{ACAD_REACTORS
330
3A0
102
}
330
3A0
100
AcDbScale
 70
     0
300
1/128" = 1'-0"
140
0.0078125
141
12.0
290
     0
  0
SCALE
  5
3B3
102
{ACAD_REACTORS
330
3A0
102
}
330
3A0
100
AcDbScale
 70
     0
300
1/64" = 1'-0"
140
0.015625
141
12.0
290
     0
  0
SCALE
  5
3B4
102
{ACAD_REACTORS
330
3A0
102
}
330
3A0
100
AcDbScale
 70
     0
300
1/32" = 1'-0"
140
0.03125
141
12.0
290
     0
  0
SCALE
  5
3B5
102
{ACAD_REACTORS
330
3A0
102
}
330
3A0
100
AcDbScale
 70
     0
300
1/16" = 1'-0"
140
0.0625
141
12.0
290
     0
  0
SCALE
  5
3B6
102
{ACAD_REACTORS
330
3A0
102
}
330
3A0
100
AcDbScale
 70
     0
300
3/32" = 1'-0"
140
0.09375
141
12.0
290
     0
  0
SCALE
  5
3B7
102
{ACAD_REACTORS
330
3A0
102
}
330
3A0
100
AcDbScale
 70
     0
300
1/8" = 1'-0"
140
0.125
141
12.0
290
     0
  0
SCALE
  5
3B8
102
{ACAD_REACTORS
330
3A0
102
}
330
3A0
100
AcDbScale
 70
     0
300
3/16" = 1'-0"
140
0.1875
141
12.0
290
     0
  0
SCALE
  5
3B9
102
{ACAD_REACTORS
330
3A0
102
}
330
3A0
100
AcDbScale
 70
     0
300
1/4" = 1'-0"
140
0.25
141
12.0
290
     0
  0
SCALE
  5
3BA
102
{ACAD_REACTORS
330
3A0
102
}
330
3A0
100
AcDbScale
 70
     0
300
3/8" = 1'-0"
140
0.375
141
12.0
290
     0
  0
SCALE
  5
3BB
102
{ACAD_REACTORS
330
3A0
102
}
330
3A0
100
AcDbScale
 70
     0
300
1/2" = 1'-0"
140
0.5
141
12.0
290
     0
  0
SCALE
  5
3BC
102
{ACAD_REACTORS
330
3A0
102
}
330
3A0
100
AcDbScale
 70
     0
300
3/4" = 1'-0"
140
0.75
141
12.0
290
     0
  0
SCALE
  5
3BD
102
{ACAD_REACTORS
330
3A0
102
}
330
3A0
100
AcDbScale
 70
     0
300
1" = 1'-0"
140
1.0
141
12.0
290
     0
  0
SCALE
  5
3BE
102
{ACAD_REACTORS
330
3A0
102
}
330
3A0
100
AcDbScale
 70
     0
300
1-1/2" = 1'-0"
140
1.5
141
12.0
290
     0
  0
SCALE
  5
3BF
102
{ACAD_REACTORS
330
3A0
102
}
330
3A0
100
AcDbScale
 70
     0
300
3" = 1'-0"
140
3.0
141
12.0
290
     0
  0
SCALE
  5
3C0
102
{ACAD_REACTORS
330
3A0
102
}
330
3A0
100
AcDbScale
 70
     0
300
6" = 1'-0"
140
6.0
141
12.0
290
     0
  0
SCALE
  5
3C1
102
{ACAD_REACTORS
330
3A0
102
}
330
3A0
100
AcDbScale
 70
     0
300
1'-0" = 1'-0"
140
12.0
141
12.0
290
     0
  0
TABLESTYLE
  5
389
102
{ACAD_REACTORS
330
388
102
}
330
388
100
AcDbTableStyle
  3
Standard
 70
     0
 71
     0
 40
1.5
 41
1.5
280
     0
281
     0
  7
STANDARD
140
4.5
170
     2
 62
     0
 63
   257
283
     0
274
    -2
284
     1
 64
     0
275
    -2
285
     1
 65
     0
276
    -2
286
     1
 66
     0
277
    -2
287
     1
 67
     0
278
    -2
288
     1
 68
     0
279
    -2
289
     1
 69
     0
  7
STANDARD
140
6.0
170
     5
 62
     0
 63
   257
283
     0
274
    -2
284
     1
 64
     0
275
    -2
285
     1
 65
     0
276
    -2
286
     1
 66
     0
277
    -2
287
     1
 67
     0
278
    -2
288
     1
 68
     0
279
    -2
289
     1
 69
     0
  7
STANDARD
140
4.5
170
     5
 62
     0
 63
   257
283
     0
274
    -2
284
     1
 64
     0
275
    -2
285
     1
 65
     0
276
    -2
286
     1
 66
     0
277
    -2
287
     1
 67
     0
278
    -2
288
     1
 68
     0
279
    -2
289
     1
 69
     0
  0
VISUALSTYLE
  5
3CA
102
{ACAD_REACTORS
330
3C5
102
}
102
{ACAD_XDICTIONARY
360
64C
102
}
330
3C5
100
AcDbVisualStyle
  2
2dWireframe
 70
     4
 71
     0
 72
     2
 73
     0
 90
        0
 40
-0.6
 41
-30.0
 62
     5
 63
     7
 74
     1
 91
        4
 64
     7
 65
   257
 75
     1
175
     1
 42
1.0
 92
        0
 66
   257
 43
1.0
 76
     1
 77
     6
 78
     2
 67
     7
 79
     5
170
     0
171
     0
290
     0
174
     0
 93
        1
 44
0.0
173
     0
291
     0
 45
0.0
1001
ACAD
1000
AcDbSavedByObjectVersion
1070
     0
  0
VISUALSTYLE
  5
3CC
102
{ACAD_REACTORS
330
3C5
102
}
102
{ACAD_XDICTIONARY
360
650
102
}
330
3C5
100
AcDbVisualStyle
  2
3D Hidden
 70
     6
 71
     1
 72
     2
 73
     2
 90
        0
 40
-0.6
 41
-30.0
 62
     5
 63
     7
 74
     2
 91
        2
 64
     7
 65
   257
 75
     2
175
     1
 42
40.0
 92
        0
 66
   257
 43
1.0
 76
     1
 77
     6
 78
     2
 67
     7
 79
     3
170
     0
171
     0
290
     0
174
     0
 93
        1
 44
0.0
173
     0
291
     0
 45
0.0
1001
ACAD
1000
AcDbSavedByObjectVersion
1070
     0
  0
VISUALSTYLE
  5
3CB
102
{ACAD_REACTORS
330
3C5
102
}
102
{ACAD_XDICTIONARY
360
64E
102
}
330
3C5
100
AcDbVisualStyle
  2
3dWireframe
 70
     5
 71
     0
 72
     2
 73
     0
 90
        0
 40
-0.6
 41
-30.0
 62
     5
 63
     7
 74
     1
 91
        4
 64
     7
 65
   257
 75
     1
175
     1
 42
1.0
 92
        0
 66
   257
 43
1.0
 76
     1
 77
     6
 78
     2
 67
     7
 79
     5
170
     0
171
     0
290
     0
174
     0
 93
        1
 44
0.0
173
     0
291
     0
 45
0.0
1001
ACAD
1000
AcDbSavedByObjectVersion
1070
     0
  0
VISUALSTYLE
  5
3CD
102
{ACAD_REACTORS
330
3C5
102
}
102
{ACAD_XDICTIONARY
360
652
102
}
330
3C5
100
AcDbVisualStyle
  2
Basic
 70
     7
 71
     1
 72
     0
 73
     1
 90
        0
 40
-0.6
 41
-30.0
 62
     5
 63
     7
 74
     0
 91
        4
 64
     7
 65
   257
 75
     1
175
     1
 42
1.0
 92
        8
 66
     7
 43
1.0
 76
     1
 77
     6
 78
     2
 67
     7
 79
     5
170
     0
171
     0
290
     0
174
     0
 93
        1
 44
0.0
173
     0
291
     1
 45
0.0
1001
ACAD
1000
AcDbSavedByObjectVersion
1070
     0
  0
VISUALSTYLE
  5
3D1
102
{ACAD_REACTORS
330
3C5
102
}
102
{ACAD_XDICTIONARY
360
65A
102
}
330
3C5
100
AcDbVisualStyle
  2
Brighten
 70
    12
 71
     2
 72
     2
 73
     0
 90
        0
 40
-0.6
 41
-30.0
 62
     5
 63
     7
 74
     1
 91
        4
 64
     7
 65
   257
 75
     1
175
     1
 42
1.0
 92
        8
 66
     7
 43
1.0
 76
     1
 77
     6
 78
     2
 67
     7
 79
     5
170
     0
171
     0
290
     0
174
     0
 93
        1
 44
50.0
173
     0
291
     1
 45
0.0
1001
ACAD
1000
AcDbSavedByObjectVersion
1070
     0
  0
VISUALSTYLE
  5
3D5
102
{ACAD_REACTORS
330
3C5
102
}
102
{ACAD_XDICTIONARY
360
662
102
}
330
3C5
100
AcDbVisualStyle
  2
ColorChange
 70
    16
 71
     2
 72
     2
 73
     3
 90
        0
 40
-0.6
 41
-30.0
 62
     5
 63
     8
 74
     1
 91
        4
 64
     7
 65
   257
 75
     1
175
     1
 42
1.0
 92
        8
 66
     8
 43
1.0
 76
     1
 77
     6
 78
     2
 67
     7
 79
     5
170
     0
171
     0
290
     0
174
     0
 93
        1
 44
0.0
173
     0
291
     1
 45
0.0
1001
ACAD
1000
AcDbSavedByObjectVersion
1070
     0
  0
VISUALSTYLE
  5
3CF
102
{ACAD_REACTORS
330
3C5
102
}
102
{ACAD_XDICTIONARY
360
656
102
}
330
3C5
100
AcDbVisualStyle
  2
Conceptual
 70
     9
 71
     3
 72
     2
 73
     0
 90
        0
 40
-0.6
 41
-30.0
 62
     5
 63
     7
 74
     2
 91
        2
 64
     7
 65
   257
 75
     1
175
     1
 42
40.0
 92
        8
 66
     7
 43
1.0
 76
     1
 77
     6
 78
     2
 67
     7
 79
     3
170
     0
171
     0
290
     0
174
     0
 93
        1
 44
0.0
173
     0
291
     0
 45
0.0
1001
ACAD
1000
AcDbSavedByObjectVersion
1070
     0
  0
VISUALSTYLE
  5
3D0
102
{ACAD_REACTORS
330
3C5
102
}
102
{ACAD_XDICTIONARY
360
658
102
}
330
3C5
100
AcDbVisualStyle
  2
Dim
 70
    11
 71
     2
 72
     2
 73
     0
 90
        0
 40
-0.6
 41
-30.0
 62
     5
 63
     7
 74
     1
 91
        4
 64
     7
 65
   257
 75
     1
175
     1
 42
1.0
 92
        8
 66
     7
 43
1.0
 76
     1
 77
     6
 78
     2
 67
     7
 79
     5
170
     0
171
     0
290
     0
174
     0
 93
        1
 44
-50.0
173
     0
291
     1
 45
0.0
1001
ACAD
1000
AcDbSavedByObjectVersion
1070
     0
  0
VISUALSTYLE
  5
3D4
102
{ACAD_REACTORS
330
3C5
102
}
102
{ACAD_XDICTIONARY
360
660
102
}
330
3C5
100
AcDbVisualStyle
  2
Facepattern
 70
    15
 71
     2
 72
     2
 73
     0
 90
        0
 40
-0.6
 41
-30.0
 62
     5
 63
     7
 74
     1
 91
        4
 64
     7
 65
   257
 75
     1
175
     1
 42
1.0
 92
        8
 66
     7
 43
1.0
 76
     1
 77
     6
 78
     2
 67
     7
 79
     5
170
     0
171
     0
290
     0
174
     0
 93
        1
 44
0.0
173
     0
291
     1
 45
0.0
1001
ACAD
1000
AcDbSavedByObjectVersion
1070
     0
  0
VISUALSTYLE
  5
3C6
102
{ACAD_REACTORS
330
3C5
102
}
102
{ACAD_XDICTIONARY
360
644
102
}
330
3C5
100
AcDbVisualStyle
  2
Flat
 70
     0
 71
     2
 72
     1
 73
     1
 90
        2
 40
-0.6
 41
30.0
 62
     5
 63
     7
 74
     0
 91
        4
 64
     7
 65
   257
 75
     1
175
     1
 42
1.0
 92
        8
 66
     7
 43
1.0
 76
     1
 77
     6
 78
     2
 67
     7
 79
     5
170
     0
171
     0
290
     0
174
     0
 93
       13
 44
0.0
173
     0
291
     1
 45
0.0
1001
ACAD
1000
AcDbSavedByObjectVersion
1070
     0
  0
VISUALSTYLE
  5
3C7
102
{ACAD_REACTORS
330
3C5
102
}
102
{ACAD_XDICTIONARY
360
646
102
}
330
3C5
100
AcDbVisualStyle
  2
FlatWithEdges
 70
     1
 71
     2
 72
     1
 73
     1
 90
        2
 40
-0.6
 41
30.0
 62
     5
 63
     7
 74
     1
 91
        4
 64
     7
 65
   257
 75
     1
175
     1
 42
1.0
 92
        0
 66
   257
 43
1.0
 76
     1
 77
     6
 78
     2
 67
     7
 79
     5
170
     0
171
     0
290
     0
174
     0
 93
       13
 44
0.0
173
     0
291
     1
 45
0.0
1001
ACAD
1000
AcDbSavedByObjectVersion
1070
     0
  0
VISUALSTYLE
  5
3C8
102
{ACAD_REACTORS
330
3C5
102
}
102
{ACAD_XDICTIONARY
360
648
102
}
330
3C5
100
AcDbVisualStyle
  2
Gouraud
 70
     2
 71
     2
 72
     2
 73
     1
 90
        2
 40
-0.6
 41
30.0
 62
     5
 63
     7
 74
     0
 91
        4
 64
     7
 65
   257
 75
     1
175
     1
 42
1.0
 92
        0
 66
     7
 43
1.0
 76
     1
 77
     6
 78
     2
 67
     7
 79
     5
170
     0
171
     0
290
     0
174
     0
 93
       13
 44
0.0
173
     0
291
     1
 45
0.0
1001
ACAD
1000
AcDbSavedByObjectVersion
1070
     0
  0
VISUALSTYLE
  5
3C9
102
{ACAD_REACTORS
330
3C5
102
}
102
{ACAD_XDICTIONARY
360
64A
102
}
330
3C5
100
AcDbVisualStyle
  2
GouraudWithEdges
 70
     3
 71
     2
 72
     2
 73
     1
 90
        2
 40
-0.6
 41
30.0
 62
     5
 63
     7
 74
     1
 91
        4
 64
     7
 65
   257
 75
     1
175
     1
 42
1.0
 92
        0
 66
   257
 43
1.0
 76
     1
 77
     6
 78
     2
 67
     7
 79
     5
170
     0
171
     0
290
     0
174
     0
 93
       13
 44
0.0
173
     0
291
     1
 45
0.0
1001
ACAD
1000
AcDbSavedByObjectVersion
1070
     0
  0
VISUALSTYLE
  5
3D3
102
{ACAD_REACTORS
330
3C5
102
}
102
{ACAD_XDICTIONARY
360
65E
102
}
330
3C5
100
AcDbVisualStyle
  2
Linepattern
 70
    14
 71
     2
 72
     2
 73
     0
 90
        0
 40
-0.6
 41
-30.0
 62
     5
 63
     7
 74
     1
 91
        4
 64
     7
 65
   257
 75
     7
175
     7
 42
1.0
 92
        8
 66
     7
 43
1.0
 76
     1
 77
     6
 78
     2
 67
     7
 79
     5
170
     0
171
     0
290
     0
174
     0
 93
        1
 44
0.0
173
     0
291
     1
 45
0.0
1001
ACAD
1000
AcDbSavedByObjectVersion
1070
     0
  0
VISUALSTYLE
  5
3CE
102
{ACAD_REACTORS
330
3C5
102
}
102
{ACAD_XDICTIONARY
360
654
102
}
330
3C5
100
AcDbVisualStyle
  2
Realistic
 70
     8
 71
     2
 72
     2
 73
     0
 90
        0
 40
-0.6
 41
-30.0
 62
     5
 63
     7
 74
     1
 91
        0
 64
     7
 65
   257
 75
     1
175
     1
 42
1.0
 92
        8
 66
     8
 43
1.0
 76
     1
 77
     6
 78
     2
 67
     7
 79
     5
170
     0
171
     0
290
     0
174
     0
 93
       13
 44
0.0
173
     0
291
     0
 45
0.0
1001
ACAD
1000
AcDbSavedByObjectVersion
1070
     0
  0
VISUALSTYLE
  5
3D2
102
{ACAD_REACTORS
330
3C5
102
}
102
{ACAD_XDICTIONARY
360
65C
102
}
330
3C5
100
AcDbVisualStyle
  2
Thicken
 70
    13
 71
     2
 72
     2
 73
     0
 90
        0
 40
-0.6
 41
-30.0
 62
     5
 63
     7
 74
     1
 91
        4
 64
     7
 65
   257
 75
     1
175
     1
 42
1.0
 92
       12
 66
     7
 43
1.0
 76
     1
 77
     6
 78
     2
 67
     7
 79
     5
170
     0
171
     0
290
     0
174
     0
 93
        1
 44
0.0
173
     0
291
     1
 45
0.0
1001
ACAD
1000
AcDbSavedByObjectVersion
1070
     0
  0
XRECORD
  5
63B
102
{ACAD_REACTORS
330
63A
102
}
330
63A
100
AcDbXrecord
280
     1
340
387
  0
XRECORD
  5
63C
102
{ACAD_REACTORS
330
63A
102
}
330
63A
100
AcDbXrecord
280
     1
340
386
  0
DICTIONARYVAR
  5
63D
102
{ACAD_REACTORS
330
357
102
}
330
357
100
DictionaryVariables
280
     0
  1
1:1
  0
DICTIONARYVAR
  5
38D
102
{ACAD_REACTORS
330
357
102
}
330
357
100
DictionaryVariables
280
     0
  1
Standard
  0
DICTIONARYVAR
  5
359
102
{ACAD_REACTORS
330
357
102
}
330
357
100
DictionaryVariables
280
     0
  1
2
  0
DICTIONARYVAR
  5
358
102
{ACAD_REACTORS
330
357
102
}
330
357
100
DictionaryVariables
280
     0
  1
1
  0
DICTIONARYVAR
  5
38E
102
{ACAD_REACTORS
330
357
102
}
330
357
100
DictionaryVariables
280
     0
  1

  0
DICTIONARY
  5
640
330
3C3
100
AcDbDictionary
280
     1
281
     1
  3
ACAD_XREC_ROUNDTRIP
360
641
  0
DICTIONARY
  5
63E
330
3C2
100
AcDbDictionary
280
     1
281
     1
  3
ACAD_XREC_ROUNDTRIP
360
63F
  0
DICTIONARY
  5
642
330
3C4
100
AcDbDictionary
280
     1
281
     1
  3
ACAD_XREC_ROUNDTRIP
360
643
  0
DICTIONARY
  5
64C
330
3CA
100
AcDbDictionary
280
     1
281
     1
  3
ACAD_XREC_ROUNDTRIP
360
64D
  0
DICTIONARY
  5
650
330
3CC
100
AcDbDictionary
280
     1
281
     1
  3
ACAD_XREC_ROUNDTRIP
360
651
  0
DICTIONARY
  5
64E
330
3CB
100
AcDbDictionary
280
     1
281
     1
  3
ACAD_XREC_ROUNDTRIP
360
64F
  0
DICTIONARY
  5
652
330
3CD
100
AcDbDictionary
280
     1
281
     1
  3
ACAD_XREC_ROUNDTRIP
360
653
  0
DICTIONARY
  5
65A
330
3D1
100
AcDbDictionary
280
     1
281
     1
  3
ACAD_XREC_ROUNDTRIP
360
65B
  0
DICTIONARY
  5
662
330
3D5
100
AcDbDictionary
280
     1
281
     1
  3
ACAD_XREC_ROUNDTRIP
360
663
  0
DICTIONARY
  5
656
330
3CF
100
AcDbDictionary
280
     1
281
     1
  3
ACAD_XREC_ROUNDTRIP
360
657
  0
DICTIONARY
  5
658
330
3D0
100
AcDbDictionary
280
     1
281
     1
  3
ACAD_XREC_ROUNDTRIP
360
659
  0
DICTIONARY
  5
660
330
3D4
100
AcDbDictionary
280
     1
281
     1
  3
ACAD_XREC_ROUNDTRIP
360
661
  0
DICTIONARY
  5
644
330
3C6
100
AcDbDictionary
280
     1
281
     1
  3
ACAD_XREC_ROUNDTRIP
360
645
  0
DICTIONARY
  5
646
330
3C7
100
AcDbDictionary
280
     1
281
     1
  3
ACAD_XREC_ROUNDTRIP
360
647
  0
DICTIONARY
  5
648
330
3C8
100
AcDbDictionary
280
     1
281
     1
  3
ACAD_XREC_ROUNDTRIP
360
649
  0
DICTIONARY
  5
64A
330
3C9
100
AcDbDictionary
280
     1
281
     1
  3
ACAD_XREC_ROUNDTRIP
360
64B
  0
DICTIONARY
  5
65E
330
3D3
100
AcDbDictionary
280
     1
281
     1
  3
ACAD_XREC_ROUNDTRIP
360
65F
  0
DICTIONARY
  5
654
330
3CE
100
AcDbDictionary
280
     1
281
     1
  3
ACAD_XREC_ROUNDTRIP
360
655
  0
DICTIONARY
  5
65C
330
3D2
100
AcDbDictionary
280
     1
281
     1
  3
ACAD_XREC_ROUNDTRIP
360
65D
  0
XRECORD
  5
641
102
{ACAD_REACTORS
330
640
102
}
330
640
100
AcDbXrecord
280
     1
102
MATERIAL
148
0.0
149
0.0
149
0.0
 93
        0
 94
      127
282
     0
 72
     1
 77
     1
171
     1
175
     1
179
     1
273
     0
  0
XRECORD
  5
63F
102
{ACAD_REACTORS
330
63E
102
}
330
63E
100
AcDbXrecord
280
     1
102
MATERIAL
148
0.0
149
0.0
149
0.0
 93
        0
 94
      127
282
     0
 72
     1
 77
     1
171
     1
175
     1
179
     1
273
     0
  0
XRECORD
  5
643
102
{ACAD_REACTORS
330
642
102
}
330
642
100
AcDbXrecord
280
     1
102
MATERIAL
148
0.0
149
0.0
149
0.0
 93
        0
 94
      127
282
     0
 72
     1
 77
     1
171
     1
175
     1
179
     1
273
     0
  0
XRECORD
  5
64D
102
{ACAD_REACTORS
330
64C
102
}
330
64C
100
AcDbXrecord
280
     1
102
RTVSPropertyOp0
 70
     1
102
RTVSPropertyOp1
 70
     1
102
RTVSPropertyOp2
 70
     1
102
RTVSPropertyOp3
 70
     1
102
RTVSPropertyOp4
 70
     1
102
RTVSPropertyOp5
 70
     1
102
RTVSPropertyOp6
 70
     1
102
RTVSPropertyOp7
 70
     1
102
RTVSPropertyOp8
 70
     1
102
RTVSPropertyOp9
 70
     1
102
RTVSPropertyOp10
 70
     1
102
RTVSPropertyOp11
 70
     1
102
RTVSPropertyOp12
 70
     1
102
RTVSPropertyOp13
 70
     1
102
RTVSPropertyOp14
 70
     1
102
RTVSPropertyOp15
 70
     1
102
RTVSPropertyOp16
 70
     1
102
RTVSPropertyOp17
 70
     1
102
RTVSPropertyOp18
 70
     1
102
RTVSPropertyOp19
 70
     1
102
RTVSPropertyOp20
 70
     1
102
RTVSPropertyOp21
 70
     1
102
RTVSPropertyOp22
 70
     1
102
RTVSPropertyOp23
 70
     1
102
RTVSPropertyOp24
 70
     1
102
RTVSPropertyOp25
 70
     1
102
RTVSPropertyOp26
 70
     1
102
RTVSPropertyOp27
 70
     1
102
RTVSPropertyOp28
 70
     1
102
RTVSPropertyOp29
 70
     1
102
RTVSPropertyOp30
 70
     1
102
RTVSPropertyOp31
 70
     1
102
RTVSPropertyOp32
 70
     1
  0
XRECORD
  5
651
102
{ACAD_REACTORS
330
650
102
}
330
650
100
AcDbXrecord
280
     1
102
RTVSPropertyOp0
 70
     1
102
RTVSPropertyOp1
 70
     1
102
RTVSPropertyOp2
 70
     1
102
RTVSPropertyOp3
 70
     1
102
RTVSPropertyOp4
 70
     1
102
RTVSPropertyOp5
 70
     1
102
RTVSPropertyOp6
 70
     1
102
RTVSPropertyOp7
 70
     1
102
RTVSPropertyOp8
 70
     1
102
RTVSPropertyOp9
 70
     1
102
RTVSPropertyOp10
 70
     1
102
RTVSPropertyOp11
 70
     1
102
RTVSPropertyOp12
 70
     1
102
RTVSPropertyOp13
 70
     1
102
RTVSPropertyOp14
 70
     1
102
RTVSPropertyOp15
 70
     1
102
RTVSPropertyOp16
 70
     1
102
RTVSPropertyOp17
 70
     1
102
RTVSPropertyOp18
 70
     1
102
RTVSPropertyOp19
 70
     1
102
RTVSPropertyOp20
 70
     1
102
RTVSPropertyOp21
 70
     1
102
RTVSPropertyOp22
 70
     1
102
RTVSPropertyOp23
 70
     1
102
RTVSPropertyOp24
 70
     1
102
RTVSPropertyOp25
 70
     1
102
RTVSPropertyOp26
 70
     1
102
RTVSPropertyOp27
 70
     1
102
RTVSPropertyOp28
 70
     1
102
RTVSPropertyOp29
 70
     1
102
RTVSPropertyOp30
 70
     1
102
RTVSPropertyOp31
 70
     1
102
RTVSPropertyOp32
 70
     1
  0
XRECORD
  5
64F
102
{ACAD_REACTORS
330
64E
102
}
330
64E
100
AcDbXrecord
280
     1
102
RTVSPropertyOp0
 70
     1
102
RTVSPropertyOp1
 70
     1
102
RTVSPropertyOp2
 70
     1
102
RTVSPropertyOp3
 70
     1
102
RTVSPropertyOp4
 70
     1
102
RTVSPropertyOp5
 70
     1
102
RTVSPropertyOp6
 70
     1
102
RTVSPropertyOp7
 70
     1
102
RTVSPropertyOp8
 70
     1
102
RTVSPropertyOp9
 70
     1
102
RTVSPropertyOp10
 70
     1
102
RTVSPropertyOp11
 70
     1
102
RTVSPropertyOp12
 70
     1
102
RTVSPropertyOp13
 70
     1
102
RTVSPropertyOp14
 70
     1
102
RTVSPropertyOp15
 70
     1
102
RTVSPropertyOp16
 70
     1
102
RTVSPropertyOp17
 70
     1
102
RTVSPropertyOp18
 70
     1
102
RTVSPropertyOp19
 70
     1
102
RTVSPropertyOp20
 70
     1
102
RTVSPropertyOp21
 70
     1
102
RTVSPropertyOp22
 70
     1
102
RTVSPropertyOp23
 70
     1
102
RTVSPropertyOp24
 70
     1
102
RTVSPropertyOp25
 70
     1
102
RTVSPropertyOp26
 70
     1
102
RTVSPropertyOp27
 70
     1
102
RTVSPropertyOp28
 70
     1
102
RTVSPropertyOp29
 70
     1
102
RTVSPropertyOp30
 70
     1
102
RTVSPropertyOp31
 70
     1
102
RTVSPropertyOp32
 70
     1
  0
XRECORD
  5
653
102
{ACAD_REACTORS
330
652
102
}
330
652
100
AcDbXrecord
280
     1
102
RTVSPropertyOp0
 70
     1
102
RTVSPropertyOp1
 70
     1
102
RTVSPropertyOp2
 70
     1
102
RTVSPropertyOp3
 70
     1
102
RTVSPropertyOp4
 70
     1
102
RTVSPropertyOp5
 70
     1
102
RTVSPropertyOp6
 70
     1
102
RTVSPropertyOp7
 70
     1
102
RTVSPropertyOp8
 70
     1
102
RTVSPropertyOp9
 70
     1
102
RTVSPropertyOp10
 70
     1
102
RTVSPropertyOp11
 70
     1
102
RTVSPropertyOp12
 70
     1
102
RTVSPropertyOp13
 70
     1
102
RTVSPropertyOp14
 70
     1
102
RTVSPropertyOp15
 70
     1
102
RTVSPropertyOp16
 70
     1
102
RTVSPropertyOp17
 70
     1
102
RTVSPropertyOp18
 70
     1
102
RTVSPropertyOp19
 70
     1
102
RTVSPropertyOp20
 70
     1
102
RTVSPropertyOp21
 70
     1
102
RTVSPropertyOp22
 70
     1
102
RTVSPropertyOp23
 70
     1
102
RTVSPropertyOp24
 70
     1
102
RTVSPropertyOp25
 70
     1
102
RTVSPropertyOp26
 70
     1
102
RTVSPropertyOp27
 70
     1
102
RTVSPropertyOp28
 70
     1
102
RTVSPropertyOp29
 70
     1
102
RTVSPropertyOp30
 70
     1
102
RTVSPropertyOp31
 70
     1
102
RTVSPropertyOp32
 70
     1
  0
XRECORD
  5
65B
102
{ACAD_REACTORS
330
65A
102
}
330
65A
100
AcDbXrecord
280
     1
102
RTVSPropertyOp0
 70
     1
102
RTVSPropertyOp1
 70
     1
102
RTVSPropertyOp2
 70
     1
102
RTVSPropertyOp3
 70
     1
102
RTVSPropertyOp4
 70
     1
102
RTVSPropertyOp5
 70
     1
102
RTVSPropertyOp6
 70
     1
102
RTVSPropertyOp7
 70
     1
102
RTVSPropertyOp8
 70
     1
102
RTVSPropertyOp9
 70
     1
102
RTVSPropertyOp10
 70
     1
102
RTVSPropertyOp11
 70
     1
102
RTVSPropertyOp12
 70
     1
102
RTVSPropertyOp13
 70
     1
102
RTVSPropertyOp14
 70
     1
102
RTVSPropertyOp15
 70
     1
102
RTVSPropertyOp16
 70
     1
102
RTVSPropertyOp17
 70
     1
102
RTVSPropertyOp18
 70
     1
102
RTVSPropertyOp19
 70
     1
102
RTVSPropertyOp20
 70
     1
102
RTVSPropertyOp21
 70
     1
102
RTVSPropertyOp22
 70
     1
102
RTVSPropertyOp23
 70
     1
102
RTVSPropertyOp24
 70
     1
102
RTVSPropertyOp25
 70
     1
102
RTVSPropertyOp26
 70
     1
102
RTVSPropertyOp27
 70
     1
102
RTVSPropertyOp28
 70
     1
102
RTVSPropertyOp29
 70
     1
102
RTVSPropertyOp30
 70
     1
102
RTVSPropertyOp31
 70
     1
102
RTVSPropertyOp32
 70
     1
  0
XRECORD
  5
663
102
{ACAD_REACTORS
330
662
102
}
330
662
100
AcDbXrecord
280
     1
102
RTVSPropertyOp0
 70
     1
102
RTVSPropertyOp1
 70
     1
102
RTVSPropertyOp2
 70
     1
102
RTVSPropertyOp3
 70
     1
102
RTVSPropertyOp4
 70
     1
102
RTVSPropertyOp5
 70
     1
102
RTVSPropertyOp6
 70
     1
102
RTVSPropertyOp7
 70
     1
102
RTVSPropertyOp8
 70
     1
102
RTVSPropertyOp9
 70
     1
102
RTVSPropertyOp10
 70
     1
102
RTVSPropertyOp11
 70
     1
102
RTVSPropertyOp12
 70
     1
102
RTVSPropertyOp13
 70
     1
102
RTVSPropertyOp14
 70
     1
102
RTVSPropertyOp15
 70
     1
102
RTVSPropertyOp16
 70
     1
102
RTVSPropertyOp17
 70
     1
102
RTVSPropertyOp18
 70
     1
102
RTVSPropertyOp19
 70
     1
102
RTVSPropertyOp20
 70
     1
102
RTVSPropertyOp21
 70
     1
102
RTVSPropertyOp22
 70
     1
102
RTVSPropertyOp23
 70
     1
102
RTVSPropertyOp24
 70
     1
102
RTVSPropertyOp25
 70
     1
102
RTVSPropertyOp26
 70
     1
102
RTVSPropertyOp27
 70
     1
102
RTVSPropertyOp28
 70
     1
102
RTVSPropertyOp29
 70
     1
102
RTVSPropertyOp30
 70
     1
102
RTVSPropertyOp31
 70
     1
102
RTVSPropertyOp32
 70
     1
  0
XRECORD
  5
657
102
{ACAD_REACTORS
330
656
102
}
330
656
100
AcDbXrecord
280
     1
102
RTVSPropertyOp0
 70
     1
102
RTVSPropertyOp1
 70
     1
102
RTVSPropertyOp2
 70
     1
102
RTVSPropertyOp3
 70
     1
102
RTVSPropertyOp4
 70
     1
102
RTVSPropertyOp5
 70
     1
102
RTVSPropertyOp6
 70
     1
102
RTVSPropertyOp7
 70
     1
102
RTVSPropertyOp8
 70
     1
102
RTVSPropertyOp9
 70
     1
102
RTVSPropertyOp10
 70
     1
102
RTVSPropertyOp11
 70
     1
102
RTVSPropertyOp12
 70
     1
102
RTVSPropertyOp13
 70
     1
102
RTVSPropertyOp14
 70
     1
102
RTVSPropertyOp15
 70
     1
102
RTVSPropertyOp16
 70
     1
102
RTVSPropertyOp17
 70
     1
102
RTVSPropertyOp18
 70
     1
102
RTVSPropertyOp19
 70
     1
102
RTVSPropertyOp20
 70
     1
102
RTVSPropertyOp21
 70
     1
102
RTVSPropertyOp22
 70
     1
102
RTVSPropertyOp23
 70
     1
102
RTVSPropertyOp24
 70
     1
102
RTVSPropertyOp25
 70
     1
102
RTVSPropertyOp26
 70
     1
102
RTVSPropertyOp27
 70
     1
102
RTVSPropertyOp28
 70
     1
102
RTVSPropertyOp29
 70
     1
102
RTVSPropertyOp30
 70
     1
102
RTVSPropertyOp31
 70
     1
102
RTVSPropertyOp32
 70
     1
  0
XRECORD
  5
659
102
{ACAD_REACTORS
330
658
102
}
330
658
100
AcDbXrecord
280
     1
102
RTVSPropertyOp0
 70
     1
102
RTVSPropertyOp1
 70
     1
102
RTVSPropertyOp2
 70
     1
102
RTVSPropertyOp3
 70
     1
102
RTVSPropertyOp4
 70
     1
102
RTVSPropertyOp5
 70
     1
102
RTVSPropertyOp6
 70
     1
102
RTVSPropertyOp7
 70
     1
102
RTVSPropertyOp8
 70
     1
102
RTVSPropertyOp9
 70
     1
102
RTVSPropertyOp10
 70
     1
102
RTVSPropertyOp11
 70
     1
102
RTVSPropertyOp12
 70
     1
102
RTVSPropertyOp13
 70
     1
102
RTVSPropertyOp14
 70
     1
102
RTVSPropertyOp15
 70
     1
102
RTVSPropertyOp16
 70
     1
102
RTVSPropertyOp17
 70
     1
102
RTVSPropertyOp18
 70
     1
102
RTVSPropertyOp19
 70
     1
102
RTVSPropertyOp20
 70
     1
102
RTVSPropertyOp21
 70
     1
102
RTVSPropertyOp22
 70
     1
102
RTVSPropertyOp23
 70
     1
102
RTVSPropertyOp24
 70
     1
102
RTVSPropertyOp25
 70
     1
102
RTVSPropertyOp26
 70
     1
102
RTVSPropertyOp27
 70
     1
102
RTVSPropertyOp28
 70
     1
102
RTVSPropertyOp29
 70
     1
102
RTVSPropertyOp30
 70
     1
102
RTVSPropertyOp31
 70
     1
102
RTVSPropertyOp32
 70
     1
  0
XRECORD
  5
661
102
{ACAD_REACTORS
330
660
102
}
330
660
100
AcDbXrecord
280
     1
102
RTVSPropertyOp0
 70
     1
102
RTVSPropertyOp1
 70
     1
102
RTVSPropertyOp2
 70
     1
102
RTVSPropertyOp3
 70
     1
102
RTVSPropertyOp4
 70
     1
102
RTVSPropertyOp5
 70
     1
102
RTVSPropertyOp6
 70
     1
102
RTVSPropertyOp7
 70
     1
102
RTVSPropertyOp8
 70
     1
102
RTVSPropertyOp9
 70
     1
102
RTVSPropertyOp10
 70
     1
102
RTVSPropertyOp11
 70
     1
102
RTVSPropertyOp12
 70
     1
102
RTVSPropertyOp13
 70
     1
102
RTVSPropertyOp14
 70
     1
102
RTVSPropertyOp15
 70
     1
102
RTVSPropertyOp16
 70
     1
102
RTVSPropertyOp17
 70
     1
102
RTVSPropertyOp18
 70
     1
102
RTVSPropertyOp19
 70
     1
102
RTVSPropertyOp20
 70
     1
102
RTVSPropertyOp21
 70
     1
102
RTVSPropertyOp22
 70
     1
102
RTVSPropertyOp23
 70
     1
102
RTVSPropertyOp24
 70
     1
102
RTVSPropertyOp25
 70
     1
102
RTVSPropertyOp26
 70
     1
102
RTVSPropertyOp27
 70
     1
102
RTVSPropertyOp28
 70
     1
102
RTVSPropertyOp29
 70
     1
102
RTVSPropertyOp30
 70
     1
102
RTVSPropertyOp31
 70
     1
102
RTVSPropertyOp32
 70
     1
  0
XRECORD
  5
645
102
{ACAD_REACTORS
330
644
102
}
330
644
100
AcDbXrecord
280
     1
102
RTVSPropertyOp0
 70
     1
102
RTVSPropertyOp1
 70
     1
102
RTVSPropertyOp2
 70
     1
102
RTVSPropertyOp3
 70
     1
102
RTVSPropertyOp4
 70
     1
102
RTVSPropertyOp5
 70
     1
102
RTVSPropertyOp6
 70
     1
102
RTVSPropertyOp7
 70
     1
102
RTVSPropertyOp8
 70
     1
102
RTVSPropertyOp9
 70
     1
102
RTVSPropertyOp10
 70
     1
102
RTVSPropertyOp11
 70
     1
102
RTVSPropertyOp12
 70
     1
102
RTVSPropertyOp13
 70
     1
102
RTVSPropertyOp14
 70
     1
102
RTVSPropertyOp15
 70
     1
102
RTVSPropertyOp16
 70
     1
102
RTVSPropertyOp17
 70
     1
102
RTVSPropertyOp18
 70
     1
102
RTVSPropertyOp19
 70
     1
102
RTVSPropertyOp20
 70
     1
102
RTVSPropertyOp21
 70
     1
102
RTVSPropertyOp22
 70
     1
102
RTVSPropertyOp23
 70
     1
102
RTVSPropertyOp24
 70
     1
102
RTVSPropertyOp25
 70
     1
102
RTVSPropertyOp26
 70
     1
102
RTVSPropertyOp27
 70
     1
102
RTVSPropertyOp28
 70
     1
102
RTVSPropertyOp29
 70
     1
102
RTVSPropertyOp30
 70
     1
102
RTVSPropertyOp31
 70
     1
102
RTVSPropertyOp32
 70
     1
  0
XRECORD
  5
647
102
{ACAD_REACTORS
330
646
102
}
330
646
100
AcDbXrecord
280
     1
102
RTVSPropertyOp0
 70
     1
102
RTVSPropertyOp1
 70
     1
102
RTVSPropertyOp2
 70
     1
102
RTVSPropertyOp3
 70
     1
102
RTVSPropertyOp4
 70
     1
102
RTVSPropertyOp5
 70
     1
102
RTVSPropertyOp6
 70
     1
102
RTVSPropertyOp7
 70
     1
102
RTVSPropertyOp8
 70
     1
102
RTVSPropertyOp9
 70
     1
102
RTVSPropertyOp10
 70
     1
102
RTVSPropertyOp11
 70
     1
102
RTVSPropertyOp12
 70
     1
102
RTVSPropertyOp13
 70
     1
102
RTVSPropertyOp14
 70
     1
102
RTVSPropertyOp15
 70
     1
102
RTVSPropertyOp16
 70
     1
102
RTVSPropertyOp17
 70
     1
102
RTVSPropertyOp18
 70
     1
102
RTVSPropertyOp19
 70
     1
102
RTVSPropertyOp20
 70
     1
102
RTVSPropertyOp21
 70
     1
102
RTVSPropertyOp22
 70
     1
102
RTVSPropertyOp23
 70
     1
102
RTVSPropertyOp24
 70
     1
102
RTVSPropertyOp25
 70
     1
102
RTVSPropertyOp26
 70
     1
102
RTVSPropertyOp27
 70
     1
102
RTVSPropertyOp28
 70
     1
102
RTVSPropertyOp29
 70
     1
102
RTVSPropertyOp30
 70
     1
102
RTVSPropertyOp31
 70
     1
102
RTVSPropertyOp32
 70
     1
  0
XRECORD
  5
649
102
{ACAD_REACTORS
330
648
102
}
330
648
100
AcDbXrecord
280
     1
102
RTVSPropertyOp0
 70
     1
102
RTVSPropertyOp1
 70
     1
102
RTVSPropertyOp2
 70
     1
102
RTVSPropertyOp3
 70
     1
102
RTVSPropertyOp4
 70
     1
102
RTVSPropertyOp5
 70
     1
102
RTVSPropertyOp6
 70
     1
102
RTVSPropertyOp7
 70
     1
102
RTVSPropertyOp8
 70
     1
102
RTVSPropertyOp9
 70
     1
102
RTVSPropertyOp10
 70
     1
102
RTVSPropertyOp11
 70
     1
102
RTVSPropertyOp12
 70
     1
102
RTVSPropertyOp13
 70
     1
102
RTVSPropertyOp14
 70
     1
102
RTVSPropertyOp15
 70
     1
102
RTVSPropertyOp16
 70
     1
102
RTVSPropertyOp17
 70
     1
102
RTVSPropertyOp18
 70
     1
102
RTVSPropertyOp19
 70
     1
102
RTVSPropertyOp20
 70
     1
102
RTVSPropertyOp21
 70
     1
102
RTVSPropertyOp22
 70
     1
102
RTVSPropertyOp23
 70
     1
102
RTVSPropertyOp24
 70
     1
102
RTVSPropertyOp25
 70
     1
102
RTVSPropertyOp26
 70
     1
102
RTVSPropertyOp27
 70
     1
102
RTVSPropertyOp28
 70
     1
102
RTVSPropertyOp29
 70
     1
102
RTVSPropertyOp30
 70
     1
102
RTVSPropertyOp31
 70
     1
102
RTVSPropertyOp32
 70
     1
  0
XRECORD
  5
64B
102
{ACAD_REACTORS
330
64A
102
}
330
64A
100
AcDbXrecord
280
     1
102
RTVSPropertyOp0
 70
     1
102
RTVSPropertyOp1
 70
     1
102
RTVSPropertyOp2
 70
     1
102
RTVSPropertyOp3
 70
     1
102
RTVSPropertyOp4
 70
     1
102
RTVSPropertyOp5
 70
     1
102
RTVSPropertyOp6
 70
     1
102
RTVSPropertyOp7
 70
     1
102
RTVSPropertyOp8
 70
     1
102
RTVSPropertyOp9
 70
     1
102
RTVSPropertyOp10
 70
     1
102
RTVSPropertyOp11
 70
     1
102
RTVSPropertyOp12
 70
     1
102
RTVSPropertyOp13
 70
     1
102
RTVSPropertyOp14
 70
     1
102
RTVSPropertyOp15
 70
     1
102
RTVSPropertyOp16
 70
     1
102
RTVSPropertyOp17
 70
     1
102
RTVSPropertyOp18
 70
     1
102
RTVSPropertyOp19
 70
     1
102
RTVSPropertyOp20
 70
     1
102
RTVSPropertyOp21
 70
     1
102
RTVSPropertyOp22
 70
     1
102
RTVSPropertyOp23
 70
     1
102
RTVSPropertyOp24
 70
     1
102
RTVSPropertyOp25
 70
     1
102
RTVSPropertyOp26
 70
     1
102
RTVSPropertyOp27
 70
     1
102
RTVSPropertyOp28
 70
     1
102
RTVSPropertyOp29
 70
     1
102
RTVSPropertyOp30
 70
     1
102
RTVSPropertyOp31
 70
     1
102
RTVSPropertyOp32
 70
     1
  0
XRECORD
  5
65F
102
{ACAD_REACTORS
330
65E
102
}
330
65E
100
AcDbXrecord
280
     1
102
RTVSPropertyOp0
 70
     1
102
RTVSPropertyOp1
 70
     1
102
RTVSPropertyOp2
 70
     1
102
RTVSPropertyOp3
 70
     1
102
RTVSPropertyOp4
 70
     1
102
RTVSPropertyOp5
 70
     1
102
RTVSPropertyOp6
 70
     1
102
RTVSPropertyOp7
 70
     1
102
RTVSPropertyOp8
 70
     1
102
RTVSPropertyOp9
 70
     1
102
RTVSPropertyOp10
 70
     1
102
RTVSPropertyOp11
 70
     1
102
RTVSPropertyOp12
 70
     1
102
RTVSPropertyOp13
 70
     1
102
RTVSPropertyOp14
 70
     1
102
RTVSPropertyOp15
 70
     1
102
RTVSPropertyOp16
 70
     1
102
RTVSPropertyOp17
 70
     1
102
RTVSPropertyOp18
 70
     1
102
RTVSPropertyOp19
 70
     1
102
RTVSPropertyOp20
 70
     1
102
RTVSPropertyOp21
 70
     1
102
RTVSPropertyOp22
 70
     1
102
RTVSPropertyOp23
 70
     1
102
RTVSPropertyOp24
 70
     1
102
RTVSPropertyOp25
 70
     1
102
RTVSPropertyOp26
 70
     1
102
RTVSPropertyOp27
 70
     1
102
RTVSPropertyOp28
 70
     1
102
RTVSPropertyOp29
 70
     1
102
RTVSPropertyOp30
 70
     1
102
RTVSPropertyOp31
 70
     1
102
RTVSPropertyOp32
 70
     1
  0
XRECORD
  5
655
102
{ACAD_REACTORS
330
654
102
}
330
654
100
AcDbXrecord
280
     1
102
RTVSPropertyOp0
 70
     1
102
RTVSPropertyOp1
 70
     1
102
RTVSPropertyOp2
 70
     1
102
RTVSPropertyOp3
 70
     1
102
RTVSPropertyOp4
 70
     1
102
RTVSPropertyOp5
 70
     1
102
RTVSPropertyOp6
 70
     1
102
RTVSPropertyOp7
 70
     1
102
RTVSPropertyOp8
 70
     1
102
RTVSPropertyOp9
 70
     1
102
RTVSPropertyOp10
 70
     1
102
RTVSPropertyOp11
 70
     1
102
RTVSPropertyOp12
 70
     1
102
RTVSPropertyOp13
 70
     1
102
RTVSPropertyOp14
 70
     1
102
RTVSPropertyOp15
 70
     1
102
RTVSPropertyOp16
 70
     1
102
RTVSPropertyOp17
 70
     1
102
RTVSPropertyOp18
 70
     1
102
RTVSPropertyOp19
 70
     1
102
RTVSPropertyOp20
 70
     1
102
RTVSPropertyOp21
 70
     1
102
RTVSPropertyOp22
 70
     1
102
RTVSPropertyOp23
 70
     1
102
RTVSPropertyOp24
 70
     1
102
RTVSPropertyOp25
 70
     1
102
RTVSPropertyOp26
 70
     1
102
RTVSPropertyOp27
 70
     1
102
RTVSPropertyOp28
 70
     1
102
RTVSPropertyOp29
 70
     1
102
RTVSPropertyOp30
 70
     1
102
RTVSPropertyOp31
 70
     1
102
RTVSPropertyOp32
 70
     1
  0
XRECORD
  5
65D
102
{ACAD_REACTORS
330
65C
102
}
330
65C
100
AcDbXrecord
280
     1
102
RTVSPropertyOp0
 70
     1
102
RTVSPropertyOp1
 70
     1
102
RTVSPropertyOp2
 70
     1
102
RTVSPropertyOp3
 70
     1
102
RTVSPropertyOp4
 70
     1
102
RTVSPropertyOp5
 70
     1
102
RTVSPropertyOp6
 70
     1
102
RTVSPropertyOp7
 70
     1
102
RTVSPropertyOp8
 70
     1
102
RTVSPropertyOp9
 70
     1
102
RTVSPropertyOp10
 70
     1
102
RTVSPropertyOp11
 70
     1
102
RTVSPropertyOp12
 70
     1
102
RTVSPropertyOp13
 70
     1
102
RTVSPropertyOp14
 70
     1
102
RTVSPropertyOp15
 70
     1
102
RTVSPropertyOp16
 70
     1
102
RTVSPropertyOp17
 70
     1
102
RTVSPropertyOp18
 70
     1
102
RTVSPropertyOp19
 70
     1
102
RTVSPropertyOp20
 70
     1
102
RTVSPropertyOp21
 70
     1
102
RTVSPropertyOp22
 70
     1
102
RTVSPropertyOp23
 70
     1
102
RTVSPropertyOp24
 70
     1
102
RTVSPropertyOp25
 70
     1
102
RTVSPropertyOp26
 70
     1
102
RTVSPropertyOp27
 70
     1
102
RTVSPropertyOp28
 70
     1
102
RTVSPropertyOp29
 70
     1
102
RTVSPropertyOp30
 70
     1
102
RTVSPropertyOp31
 70
     1
102
RTVSPropertyOp32
 70
     1
  0
ENDSEC
  0
EOF
