  0
SECTION
  2
HEADER
  9
$ACADVER
  1
AC1015
  9
$ACADMAINTVER
 70
     6
  9
$DWGCODEPAGE
  3
ANSI_1252
  9
$INSBASE
 10
0.0
 20
0.0
 30
0.0
  9
$EXTMIN
 10
1.000000000000000E+20
 20
1.000000000000000E+20
 30
1.000000000000000E+20
  9
$EXTMAX
 10
-1.000000000000000E+20
 20
-1.000000000000000E+20
 30
-1.000000000000000E+20
  9
$LIMMIN
 10
-170.0
 20
-170.0
  9
$LIMMAX
 10
519.0
 20
260.0
  9
$ORTHOMODE
 70
     0
  9
$REGENMODE
 70
     1
  9
$FILLMODE
 70
     1
  9
$QTEXTMODE
 70
     0
  9
$MIRRTEXT
 70
     0
  9
$LTSCALE
 40
1.0
  9
$ATTMODE
 70
     1
  9
$TEXTSIZE
 40
3.5
  9
$TRACEWID
 40
1.0
  9
$TEXTSTYLE
  7
SIMPLEX
  9
$CLAYER
  8
1
  9
$CELTYPE
  6
BYLAYER
  9
$CECOLOR
 62
   256
  9
$CELTSCALE
 40
1.0
  9
$DISPSILH
 70
     0
  9
$DIMSCALE
 40
1.0
  9
$DIMASZ
 40
2.5
  9
$DIMEXO
 40
0.0
  9
$DIMDLI
 40
3.75
  9
$DIMRND
 40
0.0
  9
$DIMDLE
 40
0.0
  9
$DIMEXE
 40
1.25
  9
$DIMTP
 40
0.0
  9
$DIMTM
 40
0.0
  9
$DIMTXT
 40
3.5
  9
$DIMCEN
 40
0.0
  9
$DIMTSZ
 40
0.0
  9
$DIMTOL
 70
     0
  9
$DIMLIM
 70
     0
  9
$DIMTIH
 70
     0
  9
$DIMTOH
 70
     0
  9
$DIMSE1
 70
     0
  9
$DIMSE2
 70
     0
  9
$DIMTAD
 70
     1
  9
$DIMZIN
 70
     8
  9
$DIMBLK
  1

  9
$DIMASO
 70
     1
  9
$DIMSHO
 70
     1
  9
$DIMPOST
  1

  9
$DIMAPOST
  1

  9
$DIMALT
 70
     0
  9
$DIMALTD
 70
     3
  9
$DIMALTF
 40
0.039370078
  9
$DIMLFAC
 40
1.0
  9
$DIMTOFL
 70
     0
  9
$DIMTVP
 40
0.0
  9
$DIMTIX
 70
     0
  9
$DIMSOXD
 70
     0
  9
$DIMSAH
 70
     0
  9
$DIMBLK1
  1

  9
$DIMBLK2
  1

  9
$DIMSTYLE
  2
STANDARD
  9
$DIMCLRD
 70
     0
  9
$DIMCLRE
 70
     0
  9
$DIMCLRT
 70
     0
  9
$DIMTFAC
 40
1.0
  9
$DIMGAP
 40
0.625
  9
$DIMJUST
 70
     0
  9
$DIMSD1
 70
     0
  9
$DIMSD2
 70
     0
  9
$DIMTOLJ
 70
     0
  9
$DIMTZIN
 70
     8
  9
$DIMALTZ
 70
     0
  9
$DIMALTTZ
 70
     0
  9
$DIMUPT
 70
     0
  9
$DIMDEC
 70
     2
  9
$DIMTDEC
 70
     2
  9
$DIMALTU
 70
     2
  9
$DIMALTTD
 70
     3
  9
$DIMTXSTY
  7
SIMPLEX
  9
$DIMAUNIT
 70
     0
  9
$DIMADEC
 70
     2
  9
$DIMALTRND
 40
0.0
  9
$DIMAZIN
 70
     2
  9
$DIMDSEP
 70
    46
  9
$DIMATFIT
 70
     3
  9
$DIMFRAC
 70
     0
  9
$DIMLDRBLK
  1

  9
$DIMLUNIT
 70
     2
  9
$DIMLWD
 70
    -2
  9
$DIMLWE
 70
    -2
  9
$DIMTMOVE
 70
     0
  9
$LUNITS
 70
     2
  9
$LUPREC
 70
     4
  9
$SKETCHINC
 40
1.0
  9
$FILLETRAD
 40
0.0
  9
$AUNITS
 70
     0
  9
$AUPREC
 70
     0
  9
$MENU
  1
c:\tdm21\cad\caduti13\tdm13
  9
$ELEVATION
 40
0.0
  9
$PELEVATION
 40
0.0
  9
$THICKNESS
 40
0.0
  9
$LIMCHECK
 70
     0
  9
$CHAMFERA
 40
0.0
  9
$CHAMFERB
 40
0.0
  9
$CHAMFERC
 40
0.0
  9
$CHAMFERD
 40
0.0
  9
$SKPOLY
 70
     0
  9
$TDCREATE
 40
2454957.593642639
  9
$TDUCREATE
 40
2454957.510309306
  9
$TDUPDATE
 40
2456860.656478345
  9
$TDUUPDATE
 40
2456860.573145011
  9
$TDINDWG
 40
0.0009643519
  9
$TDUSRTIMER
 40
0.0009475231
  9
$USRTIMER
 70
     1
  9
$ANGBASE
 50
0.0
  9
$ANGDIR
 70
     0
  9
$PDMODE
 70
     1
  9
$PDSIZE
 40
0.0
  9
$PLINEWID
 40
0.0
  9
$SPLFRAME
 70
     0
  9
$SPLINETYPE
 70
     6
  9
$SPLINESEGS
 70
     8
  9
$HANDSEED
  5
67C
  9
$SURFTAB1
 70
     6
  9
$SURFTAB2
 70
     6
  9
$SURFTYPE
 70
     6
  9
$SURFU
 70
     6
  9
$SURFV
 70
     6
  9
$UCSBASE
  2

  9
$UCSNAME
  2

  9
$UCSORG
 10
0.0
 20
0.0
 30
0.0
  9
$UCSXDIR
 10
1.0
 20
0.0
 30
0.0
  9
$UCSYDIR
 10
0.0
 20
1.0
 30
0.0
  9
$UCSORTHOREF
  2

  9
$UCSORTHOVIEW
 70
     0
  9
$UCSORGTOP
 10
0.0
 20
0.0
 30
0.0
  9
$UCSORGBOTTOM
 10
0.0
 20
0.0
 30
0.0
  9
$UCSORGLEFT
 10
0.0
 20
0.0
 30
0.0
  9
$UCSORGRIGHT
 10
0.0
 20
0.0
 30
0.0
  9
$UCSORGFRONT
 10
0.0
 20
0.0
 30
0.0
  9
$UCSORGBACK
 10
0.0
 20
0.0
 30
0.0
  9
$PUCSBASE
  2

  9
$PUCSNAME
  2

  9
$PUCSORG
 10
0.0
 20
0.0
 30
0.0
  9
$PUCSXDIR
 10
1.0
 20
0.0
 30
0.0
  9
$PUCSYDIR
 10
0.0
 20
1.0
 30
0.0
  9
$PUCSORTHOREF
  2

  9
$PUCSORTHOVIEW
 70
     0
  9
$PUCSORGTOP
 10
0.0
 20
0.0
 30
0.0
  9
$PUCSORGBOTTOM
 10
0.0
 20
0.0
 30
0.0
  9
$PUCSORGLEFT
 10
0.0
 20
0.0
 30
0.0
  9
$PUCSORGRIGHT
 10
0.0
 20
0.0
 30
0.0
  9
$PUCSORGFRONT
 10
0.0
 20
0.0
 30
0.0
  9
$PUCSORGBACK
 10
0.0
 20
0.0
 30
0.0
  9
$USERI1
 70
     0
  9
$USERI2
 70
     0
  9
$USERI3
 70
     0
  9
$USERI4
 70
     0
  9
$USERI5
 70
     0
  9
$USERR1
 40
0.0
  9
$USERR2
 40
0.0
  9
$USERR3
 40
0.0
  9
$USERR4
 40
0.0
  9
$USERR5
 40
0.0
  9
$WORLDVIEW
 70
     1
  9
$SHADEDGE
 70
     3
  9
$SHADEDIF
 70
    70
  9
$TILEMODE
 70
     1
  9
$MAXACTVP
 70
    64
  9
$PINSBASE
 10
0.0
 20
0.0
 30
0.0
  9
$PLIMCHECK
 70
     0
  9
$PEXTMIN
 10
0.0
 20
0.0
 30
0.0
  9
$PEXTMAX
 10
0.0
 20
0.0
 30
0.0
  9
$PLIMMIN
 10
0.0
 20
0.0
  9
$PLIMMAX
 10
12.0
 20
9.0
  9
$UNITMODE
 70
     0
  9
$VISRETAIN
 70
     0
  9
$PLINEGEN
 70
     0
  9
$PSLTSCALE
 70
     1
  9
$TREEDEPTH
 70
  3020
  9
$CMLSTYLE
  2
STANDARD
  9
$CMLJUST
 70
     0
  9
$CMLSCALE
 40
20.0
  9
$PROXYGRAPHICS
 70
     1
  9
$MEASUREMENT
 70
     1
  9
$CELWEIGHT
370
    -1
  9
$ENDCAPS
280
     0
  9
$JOINSTYLE
280
     0
  9
$LWDISPLAY
290
     0
  9
$INSUNITS
 70
     4
  9
$HYPERLINKBASE
  1

  9
$STYLESHEET
  1
MONOCHROME.CTB
  9
$XEDIT
290
     1
  9
$CEPSNTYPE
380
     0
  9
$PSTYLEMODE
290
     1
  9
$FINGERPRINTGUID
  2
{46B44192-1510-48B1-B61B-CBE2ADA013A7}
  9
$VERSIONGUID
  2
{6160D478-9A74-4C97-9D8A-D4A65CE74B12}
  9
$EXTNAMES
290
     1
  9
$PSVPSCALE
 40
0.0
  9
$OLESTARTUP
290
     0
  0
ENDSEC
  0
SECTION
  2
CLASSES
  0
CLASS
  1
ACDBDICTIONARYWDFLT
  2
AcDbDictionaryWithDefault
  3
ObjectDBX Classes
 90
        0
280
     0
281
     0
  0
CLASS
  1
ACDBPLACEHOLDER
  2
AcDbPlaceHolder
  3
ObjectDBX Classes
 90
        0
280
     0
281
     0
  0
CLASS
  1
LAYOUT
  2
AcDbLayout
  3
ObjectDBX Classes
 90
        0
280
     0
281
     0
  0
CLASS
  1
DICTIONARYVAR
  2
AcDbDictionaryVar
  3
ObjectDBX Classes
 90
        0
280
     0
281
     0
  0
CLASS
  1
TABLESTYLE
  2
AcDbTableStyle
  3
ObjectDBX Classes
 90
     4095
280
     0
281
     0
  0
CLASS
  1
SCALE
  2
AcDbScale
  3
ObjectDBX Classes
 90
     1153
280
     0
281
     0
  0
CLASS
  1
MATERIAL
  2
AcDbMaterial
  3
ObjectDBX Classes
 90
     1153
280
     0
281
     0
  0
CLASS
  1
VISUALSTYLE
  2
AcDbVisualStyle
  3
ObjectDBX Classes
 90
     4095
280
     0
281
     0
  0
ENDSEC
  0
SECTION
  2
TABLES
  0
TABLE
  2
VPORT
  5
8
330
0
100
AcDbSymbolTable
 70
     1
  0
VPORT
  5
39A
330
8
100
AcDbSymbolTableRecord
100
AcDbViewportTableRecord
  2
*Active
 70
     0
 10
0.0
 20
0.0
 11
1.0
 21
1.0
 12
218.9201881351169
 22
109.7549380673833
 13
0.0
 23
0.0
 14
5.0
 24
5.0
 15
5.0
 25
5.0
 16
0.0
 26
0.0
 36
1.0
 17
0.0
 27
0.0
 37
0.0
 40
564.6711112651689
 41
1.066073697585768
 42
50.0
 43
0.0
 44
0.0
 50
0.0
 51
0.0
 71
     0
 72
  2000
 73
     1
 74
     1
 75
     0
 76
     0
 77
     0
 78
     0
281
     0
 65
     1
110
0.0
120
0.0
130
0.0
111
1.0
121
0.0
131
0.0
112
0.0
122
1.0
132
0.0
 79
     0
146
0.0
  0
ENDTAB
  0
TABLE
  2
LTYPE
  5
5
330
0
100
AcDbSymbolTable
 70
     3
  0
LTYPE
  5
12
330
5
100
AcDbSymbolTableRecord
100
AcDbLinetypeTableRecord
  2
BYBLOCK
 70
     0
  3

 72
    65
 73
     0
 40
0.0
  0
LTYPE
  5
13
330
5
100
AcDbSymbolTableRecord
100
AcDbLinetypeTableRecord
  2
BYLAYER
 70
     0
  3

 72
    65
 73
     0
 40
0.0
  0
LTYPE
  5
14
330
5
100
AcDbSymbolTableRecord
100
AcDbLinetypeTableRecord
  2
CONTINUOUS
 70
     0
  3
Solid line
 72
    65
 73
     0
 40
0.0
  0
LTYPE
  5
20
330
5
100
AcDbSymbolTableRecord
100
AcDbLinetypeTableRecord
  2
HIDDEN
 70
     0
  3
Hidden __ __ __ __ __ __ __ __ __ __ __ __ __ _
 72
    65
 73
     2
 40
9.524999999999997
 49
6.349999999999998
 74
     0
 49
-3.174999999999998
 74
     0
  0
LTYPE
  5
351
330
5
100
AcDbSymbolTableRecord
100
AcDbLinetypeTableRecord
  2
CENTER
 70
     0
  3
Dash dot __ . __ . __ . __ . __ . __ . __ . __
 72
    65
 73
     4
 40
25.4
 49
12.7
 74
     0
 49
-6.349999999999998
 74
     0
 49
0.0
 74
     0
 49
-6.349999999999998
 74
     0
  0
ENDTAB
  0
TABLE
  2
LAYER
  5
2
330
0
100
AcDbSymbolTable
 70
    16
  0
LAYER
  5
F
330
2
100
AcDbSymbolTableRecord
100
AcDbLayerTableRecord
  2
0
 70
     0
 62
     7
  6
CONTINUOUS
370
    -3
390
300
  0
LAYER
  5
23
330
2
100
AcDbSymbolTableRecord
100
AcDbLayerTableRecord
  2
1
 70
     0
 62
     4
  6
CONTINUOUS
370
    -3
390
300
  0
LAYER
  5
24
330
2
100
AcDbSymbolTableRecord
100
AcDbLayerTableRecord
  2
SK1
 70
     0
 62
     4
  6
CONTINUOUS
370
    -3
390
300
  0
LAYER
  5
25
330
2
100
AcDbSymbolTableRecord
100
AcDbLayerTableRecord
  2
2
 70
     0
 62
     7
  6
CONTINUOUS
370
    -3
390
300
  0
LAYER
  5
26
330
2
100
AcDbSymbolTableRecord
100
AcDbLayerTableRecord
  2
2L
 70
     0
 62
     7
  6
CONTINUOUS
370
    -3
390
300
  0
LAYER
  5
27
330
2
100
AcDbSymbolTableRecord
100
AcDbLayerTableRecord
  2
SK2
 70
     0
 62
     7
  6
CONTINUOUS
370
    -3
390
300
  0
LAYER
  5
28
330
2
100
AcDbSymbolTableRecord
100
AcDbLayerTableRecord
  2
3
 70
     0
 62
     1
  6
HIDDEN
370
    -3
390
300
  0
LAYER
  5
29
330
2
100
AcDbSymbolTableRecord
100
AcDbLayerTableRecord
  2
SK3
 70
     0
 62
     1
  6
HIDDEN
370
    -3
390
300
  0
LAYER
  5
2A
330
2
100
AcDbSymbolTableRecord
100
AcDbLayerTableRecord
  2
4
 70
     0
 62
     2
  6
CENTER
370
    -3
390
300
  0
LAYER
  5
2B
330
2
100
AcDbSymbolTableRecord
100
AcDbLayerTableRecord
  2
SK4
 70
     0
 62
     2
  6
CENTER
370
    -3
390
300
  0
LAYER
  5
2C
330
2
100
AcDbSymbolTableRecord
100
AcDbLayerTableRecord
  2
5
 70
     0
 62
    -7
  6
CONTINUOUS
370
    -3
390
300
  0
LAYER
  5
2D
330
2
100
AcDbSymbolTableRecord
100
AcDbLayerTableRecord
  2
6
 70
     0
 62
     5
  6
CONTINUOUS
370
    -3
390
300
  0
LAYER
  5
2E
330
2
100
AcDbSymbolTableRecord
100
AcDbLayerTableRecord
  2
SK6
 70
     0
 62
     5
  6
CONTINUOUS
370
    -3
390
300
  0
LAYER
  5
2F
330
2
100
AcDbSymbolTableRecord
100
AcDbLayerTableRecord
  2
DEFPOINTS
 70
     0
 62
     7
  6
CONTINUOUS
290
     0
370
    -3
390
300
  0
LAYER
  5
375
330
2
100
AcDbSymbolTableRecord
100
AcDbLayerTableRecord
  2
CUT
 70
     0
 62
     1
  6
CONTINUOUS
370
    -3
390
300
  0
LAYER
  5
376
330
2
100
AcDbSymbolTableRecord
100
AcDbLayerTableRecord
  2
NOCUT
 70
     0
 62
     7
  6
CONTINUOUS
370
    -3
390
300
  0
ENDTAB
  0
TABLE
  2
STYLE
  5
3
330
0
100
AcDbSymbolTable
 70
     4
  0
STYLE
  5
10
330
3
100
AcDbSymbolTableRecord
100
AcDbTextStyleTableRecord
  2
STANDARD
 70
     0
 40
0.0
 41
1.0
 50
0.0
 71
     0
 42
5.0
  3
txt
  4

  0
STYLE
  5
1D
330
3
100
AcDbSymbolTableRecord
100
AcDbTextStyleTableRecord
  2
TXT
 70
     0
 40
8.0
 41
1.0
 50
0.0
 71
     0
 42
8.0
  3
txt
  4

  0
STYLE
  5
1E
330
3
100
AcDbSymbolTableRecord
100
AcDbTextStyleTableRecord
  2
SIMPLEX
 70
     0
 40
0.0
 41
1.0
 50
0.0
 71
     0
 42
3.5
  3
simplex
  4

  0
STYLE
  5
34C
330
3
100
AcDbSymbolTableRecord
100
AcDbTextStyleTableRecord
  2

 70
     1
 40
0.0
 41
1.0
 50
0.0
 71
     0
 42
2.5
  3
ltypeshp.shx
  4

  0
ENDTAB
  0
TABLE
  2
VIEW
  5
6
330
0
100
AcDbSymbolTable
 70
     0
  0
ENDTAB
  0
TABLE
  2
UCS
  5
7
330
0
100
AcDbSymbolTable
 70
     0
  0
ENDTAB
  0
TABLE
  2
APPID
  5
9
330
0
100
AcDbSymbolTable
 70
     1
  0
APPID
  5
11
330
9
100
AcDbSymbolTableRecord
100
AcDbRegAppTableRecord
  2
ACAD
 70
     0
  0
ENDTAB
  0
TABLE
  2
DIMSTYLE
  5
A
330
0
100
AcDbSymbolTable
 70
     1
100
AcDbDimStyleTable
  0
DIMSTYLE
105
3F
102
{ACAD_REACTORS
330
60F
330
61D
330
62A
330
637
330
644
102
}
330
A
100
AcDbSymbolTableRecord
100
AcDbDimStyleTableRecord
  2
STANDARD
 70
     0
 41
2.5
 42
0.0
 43
3.75
 44
1.25
 73
     0
 74
     0
 77
     1
 78
     8
 79
     2
140
3.5
141
0.0
143
0.039370078
147
0.625
171
     3
178
     0
179
     2
271
     2
272
     2
274
     3
283
     0
284
     8
340
1E
  0
ENDTAB
  0
TABLE
  2
BLOCK_RECORD
  5
1
330
0
100
AcDbSymbolTable
 70
     5
  0
BLOCK_RECORD
  5
18
330
1
100
AcDbSymbolTableRecord
100
AcDbBlockTableRecord
  2
*MODEL_SPACE
340
303
  0
BLOCK_RECORD
  5
338
330
1
100
AcDbSymbolTableRecord
100
AcDbBlockTableRecord
  2
*Paper_Space
340
33B
  0
BLOCK_RECORD
  5
610
330
1
100
AcDbSymbolTableRecord
100
AcDbBlockTableRecord
  2
*D0
340
0
  0
BLOCK_RECORD
  5
61E
330
1
100
AcDbSymbolTableRecord
100
AcDbBlockTableRecord
  2
*D1
340
0
  0
BLOCK_RECORD
  5
62B
330
1
100
AcDbSymbolTableRecord
100
AcDbBlockTableRecord
  2
*D2
340
0
  0
BLOCK_RECORD
  5
638
330
1
100
AcDbSymbolTableRecord
100
AcDbBlockTableRecord
  2
*D3
340
0
  0
BLOCK_RECORD
  5
645
330
1
100
AcDbSymbolTableRecord
100
AcDbBlockTableRecord
  2
*D4
340
0
  0
ENDTAB
  0
ENDSEC
  0
SECTION
  2
BLOCKS
  0
BLOCK
  5
32
330
18
100
AcDbEntity
  8
0
100
AcDbBlockBegin
  2
*MODEL_SPACE
 70
     0
 10
0.0
 20
0.0
 30
0.0
  3
*MODEL_SPACE
  1

  0
ENDBLK
  5
33
330
18
100
AcDbEntity
  8
0
100
AcDbBlockEnd
  0
BLOCK
  5
339
330
338
100
AcDbEntity
 67
     1
  8
0
100
AcDbBlockBegin
  2
*Paper_Space
 70
     0
 10
0.0
 20
0.0
 30
0.0
  3
*Paper_Space
  1

  0
ENDBLK
  5
33A
330
338
100
AcDbEntity
 67
     1
  8
0
100
AcDbBlockEnd
  0
BLOCK
  5
611
330
610
100
AcDbEntity
  8
0
100
AcDbBlockBegin
  2
*D0
 70
     1
 10
0.0
 20
0.0
 30
0.0
  3
*D0
  1

  0
LINE
  5
613
330
610
100
AcDbEntity
  8
2
 62
     0
370
    -2
100
AcDbLine
 10
80.0
 20
10.0
 30
0.0
 11
96.25000000000001
 21
10.00000000000006
 31
0.0
  0
LINE
  5
614
330
610
100
AcDbEntity
  8
2
 62
     0
370
    -2
100
AcDbLine
 10
80.0
 20
-10.0
 30
0.0
 11
96.25000000000009
 21
-9.999999999999943
 31
0.0
  0
LINE
  5
615
330
610
100
AcDbEntity
  8
2
 62
     0
370
    -2
100
AcDbLine
 10
95.00000000000009
 20
-9.999999999999947
 30
0.0
 11
95.00000000000018
 21
-36.44749999999993
 31
0.0
  0
LINE
  5
616
330
610
100
AcDbEntity
  8
2
 62
     0
370
    -2
100
AcDbLine
 10
95.00000000000003
 20
7.500000000000053
 30
0.0
 11
95.00000000000007
 21
-7.499999999999947
 31
0.0
  0
SOLID
  5
617
330
610
100
AcDbEntity
  8
2
 62
     0
100
AcDbTrace
 10
95.4166666666667
 20
7.500000000000055
 30
0.0
 11
94.58333333333336
 21
7.500000000000052
 31
0.0
 12
95.00000000000001
 22
10.00000000000005
 32
0.0
 13
95.00000000000001
 23
10.00000000000005
 33
0.0
  0
SOLID
  5
618
330
610
100
AcDbEntity
  8
2
 62
     0
100
AcDbTrace
 10
94.5833333333334
 20
-7.499999999999948
 30
0.0
 11
95.41666666666674
 21
-7.499999999999945
 31
0.0
 12
95.00000000000009
 22
-9.999999999999947
 32
0.0
 13
95.00000000000009
 23
-9.999999999999947
 33
0.0
  0
MTEXT
  5
619
330
610
100
AcDbEntity
  8
2
 62
     0
100
AcDbMText
 10
92.60225000000014
 20
-24.47374999999995
 30
0.0
 40
3.5
 41
0.0
 71
     5
 72
     1
  1
MF20x1.5
  7
SIMPLEX
 11
-3.552713678800501E-15
 21
1.0
 31
0.0
 73
     1
 44
1.0
  0
POINT
  5
61A
330
610
100
AcDbEntity
  8
DEFPOINTS
 62
     0
100
AcDbPoint
 10
80.0
 20
10.0
 30
0.0
  0
POINT
  5
61B
330
610
100
AcDbEntity
  8
DEFPOINTS
 62
     0
100
AcDbPoint
 10
80.0
 20
-10.0
 30
0.0
  0
POINT
  5
61C
330
610
100
AcDbEntity
  8
DEFPOINTS
 62
     0
100
AcDbPoint
 10
95.00000000000009
 20
-9.999999999999947
 30
0.0
  0
ENDBLK
  5
612
330
610
100
AcDbEntity
  8
0
100
AcDbBlockEnd
  0
BLOCK
  5
61F
330
61E
100
AcDbEntity
  8
0
100
AcDbBlockBegin
  2
*D1
 70
     1
 10
0.0
 20
0.0
 30
0.0
  3
*D1
  1

  0
LINE
  5
621
330
61E
100
AcDbEntity
  8
2
 62
     0
370
    -2
100
AcDbLine
 10
0.0
 20
0.0
 30
0.0
 11
0.0
 21
76.25
 31
0.0
  0
LINE
  5
622
330
61E
100
AcDbEntity
  8
2
 62
     0
370
    -2
100
AcDbLine
 10
80.0
 20
0.0
 30
0.0
 11
80.0
 21
76.25
 31
0.0
  0
LINE
  5
623
330
61E
100
AcDbEntity
  8
2
 62
     0
370
    -2
100
AcDbLine
 10
2.5
 20
75.0
 30
0.0
 11
77.5
 21
75.0
 31
0.0
  0
SOLID
  5
624
330
61E
100
AcDbEntity
  8
2
 62
     0
100
AcDbTrace
 10
2.5
 20
75.41666666666667
 30
0.0
 11
2.5
 21
74.58333333333333
 31
0.0
 12
0.0
 22
75.0
 32
0.0
 13
0.0
 23
75.0
 33
0.0
  0
SOLID
  5
625
330
61E
100
AcDbEntity
  8
2
 62
     0
100
AcDbTrace
 10
77.5
 20
74.58333333333333
 30
0.0
 11
77.5
 21
75.41666666666667
 31
0.0
 12
80.0
 22
75.0
 32
0.0
 13
80.0
 23
75.0
 33
0.0
  0
MTEXT
  5
626
330
61E
100
AcDbEntity
  8
2
 62
     0
100
AcDbMText
 10
40.0
 20
77.39075
 30
0.0
 40
3.5
 41
0.0
 71
     5
 72
     1
  1
80
  7
SIMPLEX
 73
     1
 44
1.0
  0
POINT
  5
627
330
61E
100
AcDbEntity
  8
DEFPOINTS
 62
     0
100
AcDbPoint
 10
0.0
 20
0.0
 30
0.0
  0
POINT
  5
628
330
61E
100
AcDbEntity
  8
DEFPOINTS
 62
     0
100
AcDbPoint
 10
80.0
 20
0.0
 30
0.0
  0
POINT
  5
629
330
61E
100
AcDbEntity
  8
DEFPOINTS
 62
     0
100
AcDbPoint
 10
80.0
 20
75.0
 30
0.0
  0
ENDBLK
  5
620
330
61E
100
AcDbEntity
  8
0
100
AcDbBlockEnd
  0
BLOCK
  5
62C
330
62B
100
AcDbEntity
  8
0
100
AcDbBlockBegin
  2
*D2
 70
     1
 10
0.0
 20
0.0
 30
0.0
  3
*D2
  1

  0
LINE
  5
62E
330
62B
100
AcDbEntity
  8
SK2
 62
     0
370
    -2
100
AcDbLine
 10
-30.0
 20
8.0
 30
0.0
 11
-61.25000000004083
 21
7.999999999840519
 31
0.0
  0
LINE
  5
62F
330
62B
100
AcDbEntity
  8
SK2
 62
     0
370
    -2
100
AcDbLine
 10
-30.0
 20
-8.0
 30
0.0
 11
-61.24999999995917
 21
-8.000000000159481
 31
0.0
  0
LINE
  5
630
330
62B
100
AcDbEntity
  8
SK2
 62
     0
370
    -2
100
AcDbLine
 10
-60.00000000002807
 20
5.499999999846898
 30
0.0
 11
-59.99999999997193
 21
-5.500000000153102
 31
0.0
  0
SOLID
  5
631
330
62B
100
AcDbEntity
  8
SK2
 62
     0
100
AcDbTrace
 10
-59.5833333333614
 20
5.499999999849024
 30
0.0
 11
-60.41666666669473
 21
5.499999999844771
 31
0.0
 12
-60.00000000004083
 22
7.999999999846898
 32
0.0
 13
-60.00000000004083
 23
7.999999999846898
 33
0.0
  0
SOLID
  5
632
330
62B
100
AcDbEntity
  8
SK2
 62
     0
100
AcDbTrace
 10
-60.4166666666386
 20
-5.500000000155229
 30
0.0
 11
-59.58333333330527
 21
-5.500000000150976
 31
0.0
 12
-59.99999999995917
 22
-8.000000000153102
 32
0.0
 13
-59.99999999995917
 23
-8.000000000153102
 33
0.0
  0
MTEXT
  5
633
330
62B
100
AcDbEntity
  8
SK2
 62
     0
100
AcDbMText
 10
-62.39075
 20
-0.0000000001653035
 30
0.0
 40
3.5
 41
0.0
 71
     5
 72
     1
  1
%%c16
  7
SIMPLEX
 11
-5.103473199596920E-12
 21
1.0
 31
0.0
 73
     1
 44
1.0
  0
POINT
  5
634
330
62B
100
AcDbEntity
  8
DEFPOINTS
 62
     0
100
AcDbPoint
 10
-30.0
 20
8.0
 30
0.0
  0
POINT
  5
635
330
62B
100
AcDbEntity
  8
DEFPOINTS
 62
     0
100
AcDbPoint
 10
-30.0
 20
-8.0
 30
0.0
  0
POINT
  5
636
330
62B
100
AcDbEntity
  8
DEFPOINTS
 62
     0
100
AcDbPoint
 10
-59.99999999995917
 20
-8.000000000153102
 30
0.0
  0
ENDBLK
  5
62D
330
62B
100
AcDbEntity
  8
0
100
AcDbBlockEnd
  0
BLOCK
  5
639
330
638
100
AcDbEntity
  8
0
100
AcDbBlockBegin
  2
*D3
 70
     1
 10
0.0
 20
0.0
 30
0.0
  3
*D3
  1

  0
LINE
  5
63B
330
638
100
AcDbEntity
  8
2
 62
     0
370
    -2
100
AcDbLine
 10
52.27609076
 20
7.85
 30
0.0
 11
52.27609076
 21
61.25
 31
0.0
  0
LINE
  5
63C
330
638
100
AcDbEntity
  8
2
 62
     0
370
    -2
100
AcDbLine
 10
80.0
 20
10.0
 30
0.0
 11
80.0
 21
61.25
 31
0.0
  0
LINE
  5
63D
330
638
100
AcDbEntity
  8
2
 62
     0
370
    -2
100
AcDbLine
 10
54.77609076
 20
60.0
 30
0.0
 11
77.5
 21
60.0
 31
0.0
  0
SOLID
  5
63E
330
638
100
AcDbEntity
  8
2
 62
     0
100
AcDbTrace
 10
54.77609076
 20
60.41666666666666
 30
0.0
 11
54.77609076
 21
59.58333333333334
 31
0.0
 12
52.27609076
 22
60.0
 32
0.0
 13
52.27609076
 23
60.0
 33
0.0
  0
SOLID
  5
63F
330
638
100
AcDbEntity
  8
2
 62
     0
100
AcDbTrace
 10
77.5
 20
59.58333333333334
 30
0.0
 11
77.5
 21
60.41666666666666
 31
0.0
 12
80.0
 22
60.0
 32
0.0
 13
80.0
 23
60.0
 33
0.0
  0
MTEXT
  5
640
330
638
100
AcDbEntity
  8
2
 62
     0
100
AcDbMText
 10
66.13804538
 20
62.39775
 30
0.0
 40
3.5
 41
0.0
 71
     5
 72
     1
  1
27.72
  7
SIMPLEX
 73
     1
 44
1.0
  0
POINT
  5
641
330
638
100
AcDbEntity
  8
DEFPOINTS
 62
     0
100
AcDbPoint
 10
52.27609076
 20
7.85
 30
0.0
  0
POINT
  5
642
330
638
100
AcDbEntity
  8
DEFPOINTS
 62
     0
100
AcDbPoint
 10
80.0
 20
10.0
 30
0.0
  0
POINT
  5
643
330
638
100
AcDbEntity
  8
DEFPOINTS
 62
     0
100
AcDbPoint
 10
80.0
 20
60.0
 30
0.0
  0
ENDBLK
  5
63A
330
638
100
AcDbEntity
  8
0
100
AcDbBlockEnd
  0
BLOCK
  5
646
330
645
100
AcDbEntity
  8
0
100
AcDbBlockBegin
  2
*D4
 70
     1
 10
0.0
 20
0.0
 30
0.0
  3
*D4
  1

  0
LINE
  5
648
330
645
100
AcDbEntity
  8
SK2
 62
     0
370
    -2
100
AcDbLine
 10
-45.0
 20
10.0
 30
0.0
 11
-45.0
 21
91.25
 31
0.0
  0
LINE
  5
649
330
645
100
AcDbEntity
  8
SK2
 62
     0
370
    -2
100
AcDbLine
 10
80.0
 20
10.0
 30
0.0
 11
80.0
 21
91.25
 31
0.0
  0
LINE
  5
64A
330
645
100
AcDbEntity
  8
SK2
 62
     0
370
    -2
100
AcDbLine
 10
-42.5
 20
90.0
 30
0.0
 11
77.5
 21
90.0
 31
0.0
  0
SOLID
  5
64B
330
645
100
AcDbEntity
  8
SK2
 62
     0
100
AcDbTrace
 10
-42.5
 20
90.41666666666667
 30
0.0
 11
-42.5
 21
89.58333333333333
 31
0.0
 12
-45.0
 22
90.0
 32
0.0
 13
-45.0
 23
90.0
 33
0.0
  0
SOLID
  5
64C
330
645
100
AcDbEntity
  8
SK2
 62
     0
100
AcDbTrace
 10
77.5
 20
89.58333333333333
 30
0.0
 11
77.5
 21
90.41666666666667
 31
0.0
 12
80.0
 22
90.0
 32
0.0
 13
80.0
 23
90.0
 33
0.0
  0
MTEXT
  5
64D
330
645
100
AcDbEntity
  8
SK2
 62
     0
100
AcDbMText
 10
17.5
 20
92.39075
 30
0.0
 40
3.5
 41
0.0
 71
     5
 72
     1
  1
125
  7
SIMPLEX
 73
     1
 44
1.0
  0
POINT
  5
64E
330
645
100
AcDbEntity
  8
DEFPOINTS
 62
     0
100
AcDbPoint
 10
-45.0
 20
10.0
 30
0.0
  0
POINT
  5
64F
330
645
100
AcDbEntity
  8
DEFPOINTS
 62
     0
100
AcDbPoint
 10
80.0
 20
10.0
 30
0.0
  0
POINT
  5
650
330
645
100
AcDbEntity
  8
DEFPOINTS
 62
     0
100
AcDbPoint
 10
80.0
 20
90.0
 30
0.0
  0
ENDBLK
  5
647
330
645
100
AcDbEntity
  8
0
100
AcDbBlockEnd
  0
ENDSEC
  0
SECTION
  2
ENTITIES
  0
LINE
  5
3D6
330
18
100
AcDbEntity
  8
SK4
100
AcDbLine
 10
-47.0
 20
0.0
 30
0.0
 11
52.27609076
 21
0.0
 31
0.0
  0
LINE
  5
3D7
330
18
100
AcDbEntity
  8
4
100
AcDbLine
 10
50.27609076
 20
0.0
 30
0.0
 11
82.0
 21
0.0
 31
0.0
  0
LINE
  5
3D8
330
18
100
AcDbEntity
  8
SK4
100
AcDbLine
 10
50.27609076
 20
0.0
 30
0.0
 11
82.0
 21
0.0
 31
0.0
  0
LINE
  5
3D9
330
18
100
AcDbEntity
  8
1
100
AcDbLine
 10
39.0
 20
-3.279232333662742
 30
0.0
 11
39.00000000000001
 21
-7.019015029227084
 31
0.0
  0
LINE
  5
3DA
330
18
100
AcDbEntity
  8
1
100
AcDbLine
 10
39.00000000000001
 20
5.926548660830086
 30
0.0
 11
39.00000000000001
 21
1.481554460482774
 31
0.0
  0
LINE
  5
3DB
330
18
100
AcDbEntity
  8
1
100
AcDbLine
 10
39.0
 20
-7.019015029227079
 30
0.0
 11
52.27609076
 21
-7.019015029227081
 31
0.0
  0
LINE
  5
3DC
330
18
100
AcDbEntity
  8
1
100
AcDbLine
 10
39.0
 20
-3.279232333662727
 30
0.0
 11
52.27609076
 21
-3.279232333662737
 31
0.0
  0
LINE
  5
3DD
330
18
100
AcDbEntity
  8
1
100
AcDbLine
 10
39.0
 20
1.481554460482806
 30
0.0
 11
52.27609076000001
 21
1.481554460482805
 31
0.0
  0
LINE
  5
3DE
330
18
100
AcDbEntity
  8
1
100
AcDbLine
 10
39.00000000000001
 20
5.92654866083009
 30
0.0
 11
52.27609076
 21
5.926548660830091
 31
0.0
  0
LINE
  5
3DF
330
18
100
AcDbEntity
  8
1
100
AcDbLine
 10
39.0
 20
7.934666041989467
 30
0.0
 11
52.27609076
 21
7.934666041989466
 31
0.0
  0
LINE
  5
3E0
330
18
100
AcDbEntity
  8
1
100
AcDbLine
 10
39.00000000000001
 20
8.0
 30
0.0
 11
-0.0000000000000036
 21
8.0
 31
0.0
  0
LINE
  5
3E1
330
18
100
AcDbEntity
  8
1
100
AcDbLine
 10
39.00000000000001
 20
8.0
 30
0.0
 11
39.00000000000001
 21
7.999984788606361
 31
0.0
  0
LINE
  5
3E2
330
18
100
AcDbEntity
  8
1
100
AcDbLine
 10
39.00000000000001
 20
7.999984788606361
 30
0.0
 11
39.00000000000001
 21
7.995547771375363
 31
0.0
  0
LINE
  5
3E3
330
18
100
AcDbEntity
  8
1
100
AcDbLine
 10
39.00000000000001
 20
7.995547771375363
 30
0.0
 11
39.00000000000001
 21
7.934666041989467
 31
0.0
  0
LINE
  5
3E4
330
18
100
AcDbEntity
  8
1
100
AcDbLine
 10
52.27609076
 20
-3.761560357625569
 30
0.0
 11
52.27609076
 21
-7.019015029227077
 31
0.0
  0
LINE
  5
3E5
330
18
100
AcDbEntity
  8
1
100
AcDbLine
 10
52.27609076
 20
7.934666041989408
 30
0.0
 11
52.27609076
 21
5.926548660830091
 31
0.0
  0
LINE
  5
3E6
330
18
100
AcDbEntity
  8
1
100
AcDbLine
 10
52.27609076
 20
5.926548660830081
 30
0.0
 11
52.27609076
 21
5.696445383434705
 31
0.0
  0
LINE
  5
3E7
330
18
100
AcDbEntity
  8
1
100
AcDbLine
 10
52.27609076
 20
5.696445383434703
 30
0.0
 11
52.27609076
 21
3.3473212648089
 31
0.0
  0
LINE
  5
3E8
330
18
100
AcDbEntity
  8
1
100
AcDbLine
 10
52.27609076
 20
3.347321264808897
 30
0.0
 11
52.27609076
 21
1.481554460482814
 31
0.0
  0
LINE
  5
3E9
330
18
100
AcDbEntity
  8
1
100
AcDbLine
 10
52.27609076
 20
1.481554460482805
 30
0.0
 11
52.27609076
 21
-3.27923233366276
 31
0.0
  0
LINE
  5
3EA
330
18
100
AcDbEntity
  8
1
100
AcDbLine
 10
52.27609076
 20
-7.019015029227081
 30
0.0
 11
52.27609076
 21
-7.999999999300611
 31
0.0
  0
LINE
  5
3EB
330
18
100
AcDbEntity
  8
1
100
AcDbLine
 10
0.0000000000000009
 20
-8.0
 30
0.0
 11
52.27609076
 21
-8.0
 31
0.0
  0
LINE
  5
3EC
330
18
100
AcDbEntity
  8
1
100
AcDbLine
 10
52.27609076
 20
-3.27923233366278
 30
0.0
 11
52.27609076
 21
-3.761560357625638
 31
0.0
  0
LINE
  5
3ED
330
18
100
AcDbEntity
  8
1
 62
     1
100
AcDbLine
 10
80.0
 20
-8.7509625
 30
0.0
 11
79.73277252391088
 21
-9.213813849960157
 31
0.0
  0
LINE
  5
3EE
330
18
100
AcDbEntity
  8
1
 62
     1
100
AcDbLine
 10
76.07404180269724
 20
-9.745231604361752
 30
0.0
 11
75.5
 21
-8.7509625
 31
0.0
  0
LINE
  5
3EF
330
18
100
AcDbEntity
  8
1
 62
     1
100
AcDbLine
 10
75.5
 20
-8.7509625
 30
0.0
 11
74.82086950868096
 21
-9.927250467489149
 31
0.0
  0
LINE
  5
3F0
330
18
100
AcDbEntity
  8
1
 62
     1
100
AcDbLine
 10
59.0
 20
-8.7509625
 30
0.0
 11
58.27886752691898
 21
-9.999999999999995
 31
0.0
  0
LINE
  5
3F1
330
18
100
AcDbEntity
  8
1
 62
     1
100
AcDbLine
 10
62.0
 20
-8.7509625
 30
0.0
 11
61.27886752691898
 21
-9.999999999999995
 31
0.0
  0
LINE
  5
3F2
330
18
100
AcDbEntity
  8
1
 62
     1
100
AcDbLine
 10
64.22113247308103
 20
-9.999999999999995
 30
0.0
 11
63.5
 21
-8.7509625
 31
0.0
  0
LINE
  5
3F3
330
18
100
AcDbEntity
  8
1
 62
     1
100
AcDbLine
 10
65.72113247308103
 20
-9.999999999999995
 30
0.0
 11
65.0
 21
-8.7509625
 31
0.0
  0
LINE
  5
3F4
330
18
100
AcDbEntity
  8
1
 62
     1
100
AcDbLine
 10
68.72113247308103
 20
-9.999999999999995
 30
0.0
 11
68.0
 21
-8.7509625
 31
0.0
  0
LINE
  5
3F5
330
18
100
AcDbEntity
  8
1
 62
     1
100
AcDbLine
 10
70.22113247308103
 20
-9.999999999999995
 30
0.0
 11
69.5
 21
-8.7509625
 31
0.0
  0
LINE
  5
3F6
330
18
100
AcDbEntity
  8
1
 62
     1
100
AcDbLine
 10
79.73277252391088
 20
0.5994754260142992
 30
0.0
 11
78.8419317223112
 21
0.5101361808752319
 31
0.0
  0
LINE
  5
3F7
330
18
100
AcDbEntity
  8
1
 62
     1
100
AcDbLine
 10
78.8419317223112
 20
0.5101361808752308
 30
0.0
 11
78.8419317223112
 21
-4.127113830270981
 31
0.0
  0
LINE
  5
3F8
330
18
100
AcDbEntity
  8
1
 62
     1
100
AcDbLine
 10
79.73277252391088
 20
-4.045711908431543
 30
0.0
 11
78.84193172231119
 21
-4.127113830270982
 31
0.0
  0
LINE
  5
3F9
330
18
100
AcDbEntity
  8
1
 62
     1
100
AcDbLine
 10
78.09547151883426
 20
0.4358029683761062
 30
0.0
 11
77.45798676278854
 21
0.3726816273922849
 31
0.0
  0
LINE
  5
3FA
330
18
100
AcDbEntity
  8
1
 62
     1
100
AcDbLine
 10
78.09547151883426
 20
-4.195284879745406
 30
0.0
 11
77.45798676250422
 21
-4.253477307499155
 31
0.0
  0
LINE
  5
3FB
330
18
100
AcDbEntity
  8
1
 62
     1
100
AcDbLine
 10
76.4581705137576
 20
0.274315531894552
 30
0.0
 11
76.07404180269725
 21
0.2367193127238774
 31
0.0
  0
LINE
  5
3FC
330
18
100
AcDbEntity
  8
1
 62
     1
100
AcDbLine
 10
76.07404180269724
 20
0.2367193127238751
 30
0.0
 11
76.07404180269724
 21
-4.379729940509416
 31
0.0
  0
LINE
  5
3FD
330
18
100
AcDbEntity
  8
1
 62
     1
100
AcDbLine
 10
76.45817051381445
 20
-4.344697873174917
 30
0.0
 11
76.07404180299407
 21
-4.379729941427916
 31
0.0
  0
LINE
  5
3FE
330
18
100
AcDbEntity
  8
1
 62
     1
100
AcDbLine
 10
74.82086950882262
 20
0.1147796264210708
 30
0.0
 11
74.69009684289027
 21
0.1021153550363219
 31
0.0
  0
LINE
  5
3FF
330
18
100
AcDbEntity
  8
1
 62
     1
100
AcDbLine
 10
74.82086950874131
 20
-4.493962843993083
 30
0.0
 11
74.69009684289026
 21
-4.505878714079843
 31
0.0
  0
ARC
  5
400
330
18
100
AcDbEntity
  8
1
 62
     1
100
AcDbCircle
 10
26.28930942455646
 20
15.48915144371705
 30
0.0
 40
55.88251255054132
100
AcDbArc
 50
333.8646238446054
 51
335.1557350794336
  0
LINE
  5
401
330
18
100
AcDbEntity
  8
1
 62
     1
100
AcDbLine
 10
76.4581705137576
 20
-9.126741503162982
 30
0.0
 11
76.45817051375761
 21
-9.689438261646123
 31
0.0
  0
LINE
  5
402
330
18
100
AcDbEntity
  8
1
 62
     1
100
AcDbLine
 10
77.0
 20
-8.7509625
 30
0.0
 11
76.45817051375761
 21
-9.689438261646135
 31
0.0
  0
ARC
  5
403
330
18
100
AcDbEntity
  8
1
 62
     1
100
AcDbCircle
 10
124.9281502219955
 20
14.16915791761327
 30
0.0
 40
52.80282579207369
100
AcDbArc
 50
204.813080710654
 51
205.9721225575344
  0
LINE
  5
404
330
18
100
AcDbEntity
  8
1
 62
     1
100
AcDbLine
 10
77.0
 20
-8.7509625
 30
0.0
 11
77.0
 21
-8.750798108056626
 31
0.0
  0
LINE
  5
405
330
18
100
AcDbEntity
  8
1
 62
     1
100
AcDbLine
 10
77.0
 20
-8.750798108056626
 30
0.0
 11
77.0
 21
-8.701601956414992
 31
0.0
  0
LINE
  5
406
330
18
100
AcDbEntity
  8
1
 62
     1
100
AcDbLine
 10
77.0
 20
-8.701601956414992
 30
0.0
 11
77.0
 21
-7.990036218258574
 31
0.0
  0
LINE
  5
407
330
18
100
AcDbEntity
  8
1
 62
     1
100
AcDbLine
 10
77.45798676250422
 20
-9.544218471995434
 30
0.0
 11
77.0
 21
-8.7509625
 31
0.0
  0
LINE
  5
408
330
18
100
AcDbEntity
  8
1
 62
     1
100
AcDbLine
 10
77.45798676250422
 20
-8.955003481661537
 30
0.0
 11
77.45798676250422
 21
-9.544218471995427
 31
0.0
  0
ARC
  5
409
330
18
100
AcDbEntity
  8
1
 62
     1
100
AcDbCircle
 10
30.04809294507388
 20
14.4199349704185
 30
0.0
 40
53.38349720255585
100
AcDbArc
 50
334.1635471515496
 51
335.1785194181268
  0
LINE
  5
40A
330
18
100
AcDbEntity
  8
1
 62
     1
100
AcDbLine
 10
78.09547151883426
 20
-8.844799513868269
 30
0.0
 11
78.09547151883424
 21
-9.451626055803125
 31
0.0
  0
LINE
  5
40B
330
18
100
AcDbEntity
  8
1
 62
     1
100
AcDbLine
 10
78.5
 20
-8.7509625
 30
0.0
 11
78.09547151883424
 21
-9.451626055803146
 31
0.0
  0
ARC
  5
40C
330
18
100
AcDbEntity
  8
1
 62
     1
100
AcDbCircle
 10
124.9079498343227
 20
13.45642790960053
 30
0.0
 40
51.12385971268404
100
AcDbArc
 50
204.803032602495
 51
205.7013847602046
  0
LINE
  5
40D
330
18
100
AcDbEntity
  8
1
 62
     1
100
AcDbLine
 10
78.5
 20
-8.7509625
 30
0.0
 11
78.49999999999999
 21
-8.750798108056626
 31
0.0
  0
LINE
  5
40E
330
18
100
AcDbEntity
  8
1
 62
     1
100
AcDbLine
 10
78.49999999999999
 20
-8.750798108056626
 30
0.0
 11
78.5
 21
-8.701601956414992
 31
0.0
  0
LINE
  5
40F
330
18
100
AcDbEntity
  8
1
 62
     1
100
AcDbLine
 10
78.5
 20
-8.701601956414992
 30
0.0
 11
78.5
 21
-7.990036218258574
 31
0.0
  0
LINE
  5
410
330
18
100
AcDbEntity
  8
1
 62
     1
100
AcDbLine
 10
78.84193172231119
 20
-9.343205339629092
 30
0.0
 11
78.5
 21
-8.7509625
 31
0.0
  0
LINE
  5
411
330
18
100
AcDbEntity
  8
1
 62
     1
100
AcDbLine
 10
78.84193172231119
 20
-8.715020663827099
 30
0.0
 11
78.84193172231119
 21
-9.343205339629097
 31
0.0
  0
LINE
  5
412
330
18
100
AcDbEntity
  8
1
 62
     1
100
AcDbLine
 10
79.73277252391088
 20
-8.55904268160512
 30
0.0
 11
80.0
 21
-7.990036218258594
 31
0.0
  0
LINE
  5
413
330
18
100
AcDbEntity
  8
1
 62
     1
100
AcDbLine
 10
79.73277252391087
 20
-8.559042681605085
 30
0.0
 11
79.73277252391088
 21
-9.213813849960129
 31
0.0
  0
LINE
  5
414
330
18
100
AcDbEntity
  8
1
 62
     1
100
AcDbLine
 10
73.22113247308104
 20
0.0663341799392575
 30
0.0
 11
73.22113247308103
 21
-4.539596859617377
 31
0.0
  0
LINE
  5
415
330
18
100
AcDbEntity
  8
1
 62
     1
100
AcDbLine
 10
73.27886752691894
 20
-4.539596859617376
 30
0.0
 11
73.22113247308101
 21
-4.539596859617373
 31
0.0
  0
LINE
  5
416
330
18
100
AcDbEntity
  8
1
 62
     1
100
AcDbLine
 10
71.77886752691897
 20
0.0663341799392569
 30
0.0
 11
71.72113247308104
 21
0.0663341799392569
 31
0.0
  0
LINE
  5
417
330
18
100
AcDbEntity
  8
1
 62
     1
100
AcDbLine
 10
71.72113247308103
 20
0.0663341799392575
 30
0.0
 11
71.72113247308101
 21
-4.539596859617379
 31
0.0
  0
LINE
  5
418
330
18
100
AcDbEntity
  8
1
 62
     1
100
AcDbLine
 10
71.77886752691894
 20
-4.539596859617376
 30
0.0
 11
71.72113247308101
 21
-4.539596859617376
 31
0.0
  0
LINE
  5
419
330
18
100
AcDbEntity
  8
1
 62
     1
100
AcDbLine
 10
71.77886752691896
 20
0.0663341799392575
 30
0.0
 11
71.77886752691896
 21
-4.539596859617379
 31
0.0
  0
LINE
  5
41A
330
18
100
AcDbEntity
  8
1
 62
     1
100
AcDbLine
 10
70.22113247308101
 20
0.0663341799392575
 30
0.0
 11
70.22113247308101
 21
-4.539596859617379
 31
0.0
  0
LINE
  5
41B
330
18
100
AcDbEntity
  8
1
 62
     1
100
AcDbLine
 10
70.27886752691894
 20
-4.539596859617376
 30
0.0
 11
70.221132473081
 21
-4.539596859617376
 31
0.0
  0
LINE
  5
41C
330
18
100
AcDbEntity
  8
1
 62
     1
100
AcDbLine
 10
70.27886752691896
 20
0.0663341799392575
 30
0.0
 11
70.27886752691896
 21
-4.539596859617379
 31
0.0
  0
LINE
  5
41D
330
18
100
AcDbEntity
  8
1
 62
     1
100
AcDbLine
 10
68.77886752691896
 20
0.0663341799392569
 30
0.0
 11
68.721132473081
 21
0.0663341799392569
 31
0.0
  0
LINE
  5
41E
330
18
100
AcDbEntity
  8
1
 62
     1
100
AcDbLine
 10
68.72113247308103
 20
0.0663341799392575
 30
0.0
 11
68.72113247308103
 21
-4.539596859617379
 31
0.0
  0
LINE
  5
41F
330
18
100
AcDbEntity
  8
1
 62
     1
100
AcDbLine
 10
68.77886752691896
 20
-4.539596859617376
 30
0.0
 11
68.72113247308103
 21
-4.539596859617376
 31
0.0
  0
LINE
  5
420
330
18
100
AcDbEntity
  8
1
 62
     1
100
AcDbLine
 10
68.77886752691897
 20
0.0663341799392575
 30
0.0
 11
68.77886752691896
 21
-4.539596859617379
 31
0.0
  0
LINE
  5
421
330
18
100
AcDbEntity
  8
1
 62
     1
100
AcDbLine
 10
67.27886752691896
 20
0.0663341799392569
 30
0.0
 11
67.22113247308101
 21
0.0663341799392569
 31
0.0
  0
LINE
  5
422
330
18
100
AcDbEntity
  8
1
 62
     1
100
AcDbLine
 10
67.22113247308103
 20
0.0663341799392575
 30
0.0
 11
67.22113247308103
 21
-4.539596859617377
 31
0.0
  0
LINE
  5
423
330
18
100
AcDbEntity
  8
1
 62
     1
100
AcDbLine
 10
67.27886752691896
 20
-4.539596859617376
 30
0.0
 11
67.22113247308101
 21
-4.539596859617376
 31
0.0
  0
LINE
  5
424
330
18
100
AcDbEntity
  8
1
 62
     1
100
AcDbLine
 10
65.72113247308104
 20
0.0663341799392575
 30
0.0
 11
65.72113247308103
 21
-4.539596859617379
 31
0.0
  0
LINE
  5
425
330
18
100
AcDbEntity
  8
1
 62
     1
100
AcDbLine
 10
65.77886752691896
 20
-4.539596859617376
 30
0.0
 11
65.72113247308101
 21
-4.539596859617379
 31
0.0
  0
LINE
  5
426
330
18
100
AcDbEntity
  8
1
 62
     1
100
AcDbLine
 10
64.27886752691894
 20
0.0663341799392569
 30
0.0
 11
64.22113247308101
 21
0.0663341799392569
 31
0.0
  0
LINE
  5
427
330
18
100
AcDbEntity
  8
1
 62
     1
100
AcDbLine
 10
64.22113247308103
 20
0.0663341799392575
 30
0.0
 11
64.22113247308103
 21
-4.539596859617379
 31
0.0
  0
LINE
  5
428
330
18
100
AcDbEntity
  8
1
 62
     1
100
AcDbLine
 10
64.27886752691896
 20
-4.539596859617376
 30
0.0
 11
64.22113247308103
 21
-4.539596859617376
 31
0.0
  0
LINE
  5
429
330
18
100
AcDbEntity
  8
1
 62
     1
100
AcDbLine
 10
62.72113247308105
 20
0.0663341799392575
 30
0.0
 11
62.72113247308103
 21
-4.539596859617379
 31
0.0
  0
LINE
  5
42A
330
18
100
AcDbEntity
  8
1
 62
     1
100
AcDbLine
 10
62.778867526919
 20
-4.539596859617376
 30
0.0
 11
62.72113247308102
 21
-4.539596859617376
 31
0.0
  0
LINE
  5
42B
330
18
100
AcDbEntity
  8
1
 62
     1
100
AcDbLine
 10
62.77886752691899
 20
0.0663341799392575
 30
0.0
 11
62.77886752691897
 21
-4.539596859617379
 31
0.0
  0
LINE
  5
42C
330
18
100
AcDbEntity
  8
1
 62
     1
100
AcDbLine
 10
61.22113247308105
 20
0.0663341799392575
 30
0.0
 11
61.22113247308104
 21
-4.539596859617379
 31
0.0
  0
LINE
  5
42D
330
18
100
AcDbEntity
  8
1
 62
     1
100
AcDbLine
 10
61.27886752691899
 20
-4.539596859617376
 30
0.0
 11
61.22113247308105
 21
-4.539596859617376
 31
0.0
  0
LINE
  5
42E
330
18
100
AcDbEntity
  8
1
 62
     1
100
AcDbLine
 10
61.27886752691898
 20
0.0663341799392575
 30
0.0
 11
61.27886752691898
 21
-4.539596859617379
 31
0.0
  0
LINE
  5
42F
330
18
100
AcDbEntity
  8
1
 62
     1
100
AcDbLine
 10
59.72113247308104
 20
0.0663341799392575
 30
0.0
 11
59.72113247308103
 21
-4.539596859617379
 31
0.0
  0
LINE
  5
430
330
18
100
AcDbEntity
  8
1
 62
     1
100
AcDbLine
 10
59.77886752691899
 20
-4.539596859617376
 30
0.0
 11
59.72113247308103
 21
-4.539596859617376
 31
0.0
  0
LINE
  5
431
330
18
100
AcDbEntity
  8
1
 62
     1
100
AcDbLine
 10
59.77886752691897
 20
0.0663341799392575
 30
0.0
 11
59.77886752691897
 21
-4.539596859617379
 31
0.0
  0
LINE
  5
432
330
18
100
AcDbEntity
  8
1
 62
     1
100
AcDbLine
 10
58.27886752691896
 20
0.0663341799392569
 30
0.0
 11
58.22113247308106
 21
0.0663341799392569
 31
0.0
  0
LINE
  5
433
330
18
100
AcDbEntity
  8
1
 62
     1
100
AcDbLine
 10
58.22113247308104
 20
0.0663341799392575
 30
0.0
 11
58.22113247308104
 21
-4.539596859617379
 31
0.0
  0
LINE
  5
434
330
18
100
AcDbEntity
  8
1
 62
     1
100
AcDbLine
 10
58.27886752691898
 20
-4.539596859617376
 30
0.0
 11
58.22113247308101
 21
-4.539596859617376
 31
0.0
  0
LINE
  5
435
330
18
100
AcDbEntity
  8
1
 62
     1
100
AcDbLine
 10
58.27886752691899
 20
0.0663341799392575
 30
0.0
 11
58.27886752691897
 21
-4.539596859617379
 31
0.0
  0
LINE
  5
436
330
18
100
AcDbEntity
  8
1
 62
     1
100
AcDbLine
 10
56.77886752691897
 20
-4.539596859617376
 30
0.0
 11
56.72113247308104
 21
-4.539596859617376
 31
0.0
  0
LINE
  5
437
330
18
100
AcDbEntity
  8
1
 62
     1
100
AcDbLine
 10
56.77886752691899
 20
0.0663341799392575
 30
0.0
 11
56.77886752691897
 21
-4.539596859617379
 31
0.0
  0
ARC
  5
438
330
18
100
AcDbEntity
  8
1
 62
     1
100
AcDbCircle
 10
123.8885956366561
 20
15.80194454281941
 30
0.0
 40
56.62905247418851
100
AcDbArc
 50
204.8432744446746
 51
206.5271068401186
  0
LINE
  5
439
330
18
100
AcDbEntity
  8
1
 62
     1
100
AcDbLine
 10
73.22113247308103
 20
-9.999999999999995
 30
0.0
 11
72.5
 21
-8.7509625
 31
0.0
  0
LINE
  5
43A
330
18
100
AcDbEntity
  8
1
 62
     1
100
AcDbLine
 10
73.22113247308103
 20
-9.489857528682306
 30
0.0
 11
73.22113247308103
 21
-10.0
 31
0.0
  0
ARC
  5
43B
330
18
100
AcDbEntity
  8
1
 62
     1
100
AcDbCircle
 10
18.80263798106172
 20
16.91306403112416
 30
0.0
 40
59.19114343211813
100
AcDbArc
 50
333.5087079528429
 51
335.1196543612845
  0
LINE
  5
43C
330
18
100
AcDbEntity
  8
1
 62
     1
100
AcDbLine
 10
71.77886752691894
 20
-9.489857528682306
 30
0.0
 11
71.77886752691896
 21
-10.0
 31
0.0
  0
LINE
  5
43D
330
18
100
AcDbEntity
  8
1
 62
     1
100
AcDbLine
 10
72.5
 20
-8.7509625
 30
0.0
 11
71.77886752691896
 21
-10.00000000000002
 31
0.0
  0
LINE
  5
43E
330
18
100
AcDbEntity
  8
1
 62
     1
100
AcDbLine
 10
72.5
 20
-8.7509625
 30
0.0
 11
72.5
 21
-8.750798108056626
 31
0.0
  0
LINE
  5
43F
330
18
100
AcDbEntity
  8
1
 62
     1
100
AcDbLine
 10
72.5
 20
-8.750798108056626
 30
0.0
 11
72.5
 21
-8.701601956414992
 31
0.0
  0
LINE
  5
440
330
18
100
AcDbEntity
  8
1
 62
     1
100
AcDbLine
 10
72.5
 20
-8.701601956414992
 30
0.0
 11
72.5
 21
-7.990036218258574
 31
0.0
  0
ARC
  5
441
330
18
100
AcDbEntity
  8
1
 62
     1
100
AcDbCircle
 10
122.3885956370517
 20
15.8019445430079
 30
0.0
 40
56.62905247462671
100
AcDbArc
 50
204.8432744446795
 51
206.5271068401104
  0
LINE
  5
442
330
18
100
AcDbEntity
  8
1
 62
     1
100
AcDbLine
 10
71.72113247308103
 20
-9.999999999999995
 30
0.0
 11
71.0
 21
-8.7509625
 31
0.0
  0
LINE
  5
443
330
18
100
AcDbEntity
  8
1
 62
     1
100
AcDbLine
 10
71.72113247308101
 20
-9.489857528682306
 30
0.0
 11
71.72113247308103
 21
-10.0
 31
0.0
  0
ARC
  5
444
330
18
100
AcDbEntity
  8
1
 62
     1
100
AcDbCircle
 10
17.30263798106172
 20
16.91306403112416
 30
0.0
 40
59.19114343211813
100
AcDbArc
 50
333.5087079528429
 51
335.1196543612845
  0
LINE
  5
445
330
18
100
AcDbEntity
  8
1
 62
     1
100
AcDbLine
 10
70.27886752691894
 20
-9.489857528682306
 30
0.0
 11
70.27886752691896
 21
-10.0
 31
0.0
  0
LINE
  5
446
330
18
100
AcDbEntity
  8
1
 62
     1
100
AcDbLine
 10
71.0
 20
-8.7509625
 30
0.0
 11
70.27886752691896
 21
-10.00000000000002
 31
0.0
  0
LINE
  5
447
330
18
100
AcDbEntity
  8
1
 62
     1
100
AcDbLine
 10
71.0
 20
-8.7509625
 30
0.0
 11
71.0
 21
-8.750798108056626
 31
0.0
  0
LINE
  5
448
330
18
100
AcDbEntity
  8
1
 62
     1
100
AcDbLine
 10
71.0
 20
-8.750798108056626
 30
0.0
 11
71.0
 21
-8.701601956414992
 31
0.0
  0
LINE
  5
449
330
18
100
AcDbEntity
  8
1
 62
     1
100
AcDbLine
 10
71.0
 20
-8.701601956414992
 30
0.0
 11
71.0
 21
-7.990036218258574
 31
0.0
  0
ARC
  5
44A
330
18
100
AcDbEntity
  8
1
 62
     1
100
AcDbCircle
 10
120.8885956370479
 20
15.80194454300616
 30
0.0
 40
56.6290524746225
100
AcDbArc
 50
204.8432744446795
 51
206.5271068401105
  0
LINE
  5
44B
330
18
100
AcDbEntity
  8
1
 62
     1
100
AcDbLine
 10
70.22113247308101
 20
-9.489857528682306
 30
0.0
 11
70.22113247308103
 21
-10.0
 31
0.0
  0
ARC
  5
44C
330
18
100
AcDbEntity
  8
1
 62
     1
100
AcDbCircle
 10
15.80263798121003
 20
16.91306403105254
 30
0.0
 40
59.19114343195344
100
AcDbArc
 50
333.508707952841
 51
335.119654361287
  0
LINE
  5
44D
330
18
100
AcDbEntity
  8
1
 62
     1
100
AcDbLine
 10
68.77886752691896
 20
-9.489857528682306
 30
0.0
 11
68.77886752691896
 21
-10.0
 31
0.0
  0
LINE
  5
44E
330
18
100
AcDbEntity
  8
1
 62
     1
100
AcDbLine
 10
69.5
 20
-8.7509625
 30
0.0
 11
68.77886752691896
 21
-10.00000000000002
 31
0.0
  0
LINE
  5
44F
330
18
100
AcDbEntity
  8
1
 62
     1
100
AcDbLine
 10
69.5
 20
-8.7509625
 30
0.0
 11
69.5
 21
-8.750798108056626
 31
0.0
  0
LINE
  5
450
330
18
100
AcDbEntity
  8
1
 62
     1
100
AcDbLine
 10
69.5
 20
-8.750798108056626
 30
0.0
 11
69.5
 21
-8.701601956414992
 31
0.0
  0
LINE
  5
451
330
18
100
AcDbEntity
  8
1
 62
     1
100
AcDbLine
 10
69.5
 20
-8.701601956414992
 30
0.0
 11
69.5
 21
-7.990036218258574
 31
0.0
  0
ARC
  5
452
330
18
100
AcDbEntity
  8
1
 62
     1
100
AcDbCircle
 10
20.30263798128586
 20
16.91306403101535
 30
0.0
 40
59.19114343186899
100
AcDbArc
 50
333.5087079528404
 51
335.1196543612887
  0
LINE
  5
453
330
18
100
AcDbEntity
  8
1
 62
     1
100
AcDbLine
 10
73.27886752691894
 20
-9.489857528682306
 30
0.0
 11
73.27886752691896
 21
-10.0
 31
0.0
  0
LINE
  5
454
330
18
100
AcDbEntity
  8
1
 62
     1
100
AcDbLine
 10
74.0
 20
-8.7509625
 30
0.0
 11
73.27886752691896
 21
-10.00000000000002
 31
0.0
  0
ARC
  5
455
330
18
100
AcDbEntity
  8
1
 62
     1
100
AcDbCircle
 10
124.9784132676271
 20
15.60768422975879
 30
0.0
 40
56.17520896996259
100
AcDbArc
 50
204.8392451265339
 51
206.4655346380805
  0
LINE
  5
456
330
18
100
AcDbEntity
  8
1
 62
     1
100
AcDbLine
 10
74.0
 20
-8.7509625
 30
0.0
 11
74.0
 21
-8.750798108056626
 31
0.0
  0
LINE
  5
457
330
18
100
AcDbEntity
  8
1
 62
     1
100
AcDbLine
 10
74.0
 20
-8.750798108056626
 30
0.0
 11
74.0
 21
-8.701601956414992
 31
0.0
  0
LINE
  5
458
330
18
100
AcDbEntity
  8
1
 62
     1
100
AcDbLine
 10
74.0
 20
-8.701601956414992
 30
0.0
 11
73.99999999999999
 21
-7.990036218258574
 31
0.0
  0
LINE
  5
459
330
18
100
AcDbEntity
  8
1
 62
     1
100
AcDbLine
 10
74.69009684289027
 20
-9.946244736728094
 30
0.0
 11
74.0
 21
-8.7509625
 31
0.0
  0
LINE
  5
45A
330
18
100
AcDbEntity
  8
1
 62
     1
100
AcDbLine
 10
74.69009684289028
 20
-9.427386937124353
 30
0.0
 11
74.69009684289027
 21
-9.946244736728087
 31
0.0
  0
ARC
  5
45B
330
18
100
AcDbEntity
  8
1
 62
     1
100
AcDbCircle
 10
22.5081419750469
 20
16.57570047240436
 30
0.0
 40
58.40915611834536
100
AcDbArc
 50
333.5888296117606
 51
335.1287078446069
  0
LINE
  5
45C
330
18
100
AcDbEntity
  8
1
 62
     1
100
AcDbLine
 10
74.82086950868096
 20
-9.40527630056847
 30
0.0
 11
74.82086950868096
 21
-9.927250467489122
 31
0.0
  0
ARC
  5
45D
330
18
100
AcDbEntity
  8
1
 62
     1
100
AcDbCircle
 10
124.953153700507
 20
14.88699770068126
 30
0.0
 40
54.48830071060856
100
AcDbArc
 50
204.8252658946842
 51
206.2262986775962
  0
LINE
  5
45E
330
18
100
AcDbEntity
  8
1
 62
     1
100
AcDbLine
 10
75.5
 20
-8.7509625
 30
0.0
 11
75.5
 21
-8.750798108056626
 31
0.0
  0
LINE
  5
45F
330
18
100
AcDbEntity
  8
1
 62
     1
100
AcDbLine
 10
75.5
 20
-8.750798108056626
 30
0.0
 11
75.5
 21
-8.701601956414992
 31
0.0
  0
LINE
  5
460
330
18
100
AcDbEntity
  8
1
 62
     1
100
AcDbLine
 10
75.5
 20
-8.701601956414992
 30
0.0
 11
75.5
 21
-7.990036218258574
 31
0.0
  0
LINE
  5
461
330
18
100
AcDbEntity
  8
1
 62
     1
100
AcDbLine
 10
76.07404180269724
 20
-9.192380992239613
 30
0.0
 11
76.07404180269724
 21
-9.745231604361758
 31
0.0
  0
ARC
  5
462
330
18
100
AcDbEntity
  8
1
 62
     1
100
AcDbCircle
 10
11.30263798112991
 20
16.91306403109059
 30
0.0
 40
59.19114343204211
100
AcDbArc
 50
333.5087079528425
 51
335.1196543612862
  0
LINE
  5
463
330
18
100
AcDbEntity
  8
1
 62
     1
100
AcDbLine
 10
64.27886752691896
 20
-9.489857528682306
 30
0.0
 11
64.27886752691896
 21
-10.0
 31
0.0
  0
LINE
  5
464
330
18
100
AcDbEntity
  8
1
 62
     1
100
AcDbLine
 10
65.0
 20
-8.7509625
 30
0.0
 11
64.27886752691896
 21
-10.00000000000002
 31
0.0
  0
ARC
  5
465
330
18
100
AcDbEntity
  8
1
 62
     1
100
AcDbCircle
 10
116.3885956368458
 20
15.80194454290977
 30
0.0
 40
56.62905247439862
100
AcDbArc
 50
204.843274444677
 51
206.5271068401146
  0
LINE
  5
466
330
18
100
AcDbEntity
  8
1
 62
     1
100
AcDbLine
 10
65.0
 20
-8.7509625
 30
0.0
 11
65.0
 21
-8.750798108056626
 31
0.0
  0
LINE
  5
467
330
18
100
AcDbEntity
  8
1
 62
     1
100
AcDbLine
 10
65.0
 20
-8.750798108056626
 30
0.0
 11
65.0
 21
-8.701601956414992
 31
0.0
  0
LINE
  5
468
330
18
100
AcDbEntity
  8
1
 62
     1
100
AcDbLine
 10
65.0
 20
-8.701601956414992
 30
0.0
 11
65.0
 21
-7.990036218258574
 31
0.0
  0
LINE
  5
469
330
18
100
AcDbEntity
  8
1
 62
     1
100
AcDbLine
 10
65.72113247308103
 20
-9.489857528682306
 30
0.0
 11
65.72113247308103
 21
-10.0
 31
0.0
  0
ARC
  5
46A
330
18
100
AcDbEntity
  8
1
 62
     1
100
AcDbCircle
 10
12.80263798104929
 20
16.91306403113013
 30
0.0
 40
59.19114343213192
100
AcDbArc
 50
333.5087079528431
 51
335.1196543612843
  0
LINE
  5
46B
330
18
100
AcDbEntity
  8
1
 62
     1
100
AcDbLine
 10
65.77886752691896
 20
-9.489857528682306
 30
0.0
 11
65.77886752691896
 21
-10.0
 31
0.0
  0
LINE
  5
46C
330
18
100
AcDbEntity
  8
1
 62
     1
100
AcDbLine
 10
66.5
 20
-8.7509625
 30
0.0
 11
65.77886752691896
 21
-10.00000000000002
 31
0.0
  0
ARC
  5
46D
330
18
100
AcDbEntity
  8
1
 62
     1
100
AcDbCircle
 10
117.8885956368497
 20
15.80194454291168
 30
0.0
 40
56.62905247440297
100
AcDbArc
 50
204.843274444677
 51
206.5271068401146
  0
LINE
  5
46E
330
18
100
AcDbEntity
  8
1
 62
     1
100
AcDbLine
 10
66.5
 20
-8.7509625
 30
0.0
 11
66.5
 21
-8.750798108056626
 31
0.0
  0
LINE
  5
46F
330
18
100
AcDbEntity
  8
1
 62
     1
100
AcDbLine
 10
66.5
 20
-8.750798108056626
 30
0.0
 11
66.5
 21
-8.701601956414992
 31
0.0
  0
LINE
  5
470
330
18
100
AcDbEntity
  8
1
 62
     1
100
AcDbLine
 10
66.5
 20
-8.701601956414992
 30
0.0
 11
66.49999999999999
 21
-7.990036218258574
 31
0.0
  0
LINE
  5
471
330
18
100
AcDbEntity
  8
1
 62
     1
100
AcDbLine
 10
67.22113247308103
 20
-9.999999999999995
 30
0.0
 11
66.5
 21
-8.7509625
 31
0.0
  0
LINE
  5
472
330
18
100
AcDbEntity
  8
1
 62
     1
100
AcDbLine
 10
67.22113247308103
 20
-9.489857528682306
 30
0.0
 11
67.22113247308103
 21
-10.0
 31
0.0
  0
ARC
  5
473
330
18
100
AcDbEntity
  8
1
 62
     1
100
AcDbCircle
 10
14.302637981223
 20
16.91306403104505
 30
0.0
 40
59.19114343193851
100
AcDbArc
 50
333.5087079528419
 51
335.1196543612882
  0
LINE
  5
474
330
18
100
AcDbEntity
  8
1
 62
     1
100
AcDbLine
 10
67.27886752691896
 20
-9.489857528682306
 30
0.0
 11
67.27886752691896
 21
-10.0
 31
0.0
  0
LINE
  5
475
330
18
100
AcDbEntity
  8
1
 62
     1
100
AcDbLine
 10
68.0
 20
-8.7509625
 30
0.0
 11
67.27886752691896
 21
-10.00000000000002
 31
0.0
  0
ARC
  5
476
330
18
100
AcDbEntity
  8
1
 62
     1
100
AcDbCircle
 10
119.3885956367798
 20
15.80194454287869
 30
0.0
 40
56.62905247432568
100
AcDbArc
 50
204.8432744446765
 51
206.5271068401163
  0
LINE
  5
477
330
18
100
AcDbEntity
  8
1
 62
     1
100
AcDbLine
 10
68.0
 20
-8.7509625
 30
0.0
 11
68.0
 21
-8.750798108056626
 31
0.0
  0
LINE
  5
478
330
18
100
AcDbEntity
  8
1
 62
     1
100
AcDbLine
 10
68.0
 20
-8.750798108056626
 30
0.0
 11
68.0
 21
-8.701601956414992
 31
0.0
  0
LINE
  5
479
330
18
100
AcDbEntity
  8
1
 62
     1
100
AcDbLine
 10
68.0
 20
-8.701601956414992
 30
0.0
 11
68.0
 21
-7.990036218258574
 31
0.0
  0
LINE
  5
47A
330
18
100
AcDbEntity
  8
1
 62
     1
100
AcDbLine
 10
68.72113247308103
 20
-9.489857528682306
 30
0.0
 11
68.72113247308103
 21
-10.0
 31
0.0
  0
ARC
  5
47B
330
18
100
AcDbEntity
  8
1
 62
     1
100
AcDbCircle
 10
114.8885956367801
 20
15.80194454287831
 30
0.0
 40
56.62905247432583
100
AcDbArc
 50
204.843274444676
 51
206.5271068401158
  0
LINE
  5
47C
330
18
100
AcDbEntity
  8
1
 62
     1
100
AcDbLine
 10
64.22113247308101
 20
-9.489857528682306
 30
0.0
 11
64.22113247308103
 21
-10.0
 31
0.0
  0
ARC
  5
47D
330
18
100
AcDbEntity
  8
1
 62
     1
100
AcDbCircle
 10
9.80263798113527
 20
16.91306403108846
 30
0.0
 40
59.19114343203638
100
AcDbArc
 50
333.5087079528421
 51
335.1196543612859
  0
LINE
  5
47E
330
18
100
AcDbEntity
  8
1
 62
     1
100
AcDbLine
 10
62.77886752691897
 20
-9.489857528682306
 30
0.0
 11
62.77886752691898
 21
-10.0
 31
0.0
  0
LINE
  5
47F
330
18
100
AcDbEntity
  8
1
 62
     1
100
AcDbLine
 10
63.5
 20
-8.7509625
 30
0.0
 11
62.77886752691898
 21
-9.999999999999995
 31
0.0
  0
LINE
  5
480
330
18
100
AcDbEntity
  8
1
 62
     1
100
AcDbLine
 10
63.5
 20
-8.7509625
 30
0.0
 11
63.5
 21
-8.750798108056626
 31
0.0
  0
LINE
  5
481
330
18
100
AcDbEntity
  8
1
 62
     1
100
AcDbLine
 10
63.5
 20
-8.750798108056626
 30
0.0
 11
63.5
 21
-8.701601956414992
 31
0.0
  0
LINE
  5
482
330
18
100
AcDbEntity
  8
1
 62
     1
100
AcDbLine
 10
63.5
 20
-8.701601956414992
 30
0.0
 11
63.5
 21
-7.990036218258574
 31
0.0
  0
ARC
  5
483
330
18
100
AcDbEntity
  8
1
 62
     1
100
AcDbCircle
 10
5.302637981364491
 20
16.91306403097721
 30
0.0
 40
59.1911434317816
100
AcDbArc
 50
333.5087079528395
 51
335.1196543612902
  0
LINE
  5
484
330
18
100
AcDbEntity
  8
1
 62
     1
100
AcDbLine
 10
58.27886752691898
 20
-9.489857528682306
 30
0.0
 11
58.27886752691898
 21
-10.0
 31
0.0
  0
ARC
  5
485
330
18
100
AcDbEntity
  8
1
 62
     1
100
AcDbCircle
 10
110.3885956369533
 20
15.80194454296095
 30
0.0
 40
56.6290524745177
100
AcDbArc
 50
204.8432744446783
 51
206.5271068401124
  0
LINE
  5
486
330
18
100
AcDbEntity
  8
1
 62
     1
100
AcDbLine
 10
59.0
 20
-8.7509625
 30
0.0
 11
58.99999999999999
 21
-8.750798108056626
 31
0.0
  0
LINE
  5
487
330
18
100
AcDbEntity
  8
1
 62
     1
100
AcDbLine
 10
58.99999999999999
 20
-8.750798108056626
 30
0.0
 11
59.0
 21
-8.701601956414992
 31
0.0
  0
LINE
  5
488
330
18
100
AcDbEntity
  8
1
 62
     1
100
AcDbLine
 10
59.0
 20
-8.701601956414992
 30
0.0
 11
59.0
 21
-7.990036218258574
 31
0.0
  0
LINE
  5
489
330
18
100
AcDbEntity
  8
1
 62
     1
100
AcDbLine
 10
59.72113247308104
 20
-10.00000000000001
 30
0.0
 11
59.0
 21
-8.7509625
 31
0.0
  0
LINE
  5
48A
330
18
100
AcDbEntity
  8
1
 62
     1
100
AcDbLine
 10
59.72113247308103
 20
-9.489857528682306
 30
0.0
 11
59.72113247308104
 21
-10.0
 31
0.0
  0
ARC
  5
48B
330
18
100
AcDbEntity
  8
1
 62
     1
100
AcDbCircle
 10
6.802637980968932
 20
16.91306403116857
 30
0.0
 40
59.191143432221
100
AcDbArc
 50
333.5087079528445
 51
335.1196543612833
  0
LINE
  5
48C
330
18
100
AcDbEntity
  8
1
 62
     1
100
AcDbLine
 10
59.77886752691896
 20
-9.489857528682306
 30
0.0
 11
59.77886752691897
 21
-10.0
 31
0.0
  0
LINE
  5
48D
330
18
100
AcDbEntity
  8
1
 62
     1
100
AcDbLine
 10
60.5
 20
-8.7509625
 30
0.0
 11
59.77886752691897
 21
-10.00000000000001
 31
0.0
  0
ARC
  5
48E
330
18
100
AcDbEntity
  8
1
 62
     1
100
AcDbCircle
 10
111.8885956365946
 20
15.80194454278906
 30
0.0
 40
56.62905247411997
100
AcDbArc
 50
204.8432744446729
 51
206.5271068401188
  0
LINE
  5
48F
330
18
100
AcDbEntity
  8
1
 62
     1
100
AcDbLine
 10
60.5
 20
-8.7509625
 30
0.0
 11
60.5
 21
-8.750798108056626
 31
0.0
  0
LINE
  5
490
330
18
100
AcDbEntity
  8
1
 62
     1
100
AcDbLine
 10
60.5
 20
-8.750798108056626
 30
0.0
 11
60.50000000000001
 21
-8.701601956414992
 31
0.0
  0
LINE
  5
491
330
18
100
AcDbEntity
  8
1
 62
     1
100
AcDbLine
 10
60.50000000000001
 20
-8.701601956414992
 30
0.0
 11
60.49999999999999
 21
-7.990036218258574
 31
0.0
  0
LINE
  5
492
330
18
100
AcDbEntity
  8
1
 62
     1
100
AcDbLine
 10
61.22113247308104
 20
-10.00000000000001
 30
0.0
 11
60.5
 21
-8.7509625
 31
0.0
  0
LINE
  5
493
330
18
100
AcDbEntity
  8
1
 62
     1
100
AcDbLine
 10
61.22113247308103
 20
-9.489857528682306
 30
0.0
 11
61.22113247308104
 21
-10.0
 31
0.0
  0
ARC
  5
494
330
18
100
AcDbEntity
  8
1
 62
     1
100
AcDbCircle
 10
8.30263798120253
 20
16.91306403105541
 30
0.0
 40
59.19114343196143
100
AcDbArc
 50
333.5087079528417
 51
335.1196543612875
  0
LINE
  5
495
330
18
100
AcDbEntity
  8
1
 62
     1
100
AcDbLine
 10
61.27886752691897
 20
-9.489857528682306
 30
0.0
 11
61.27886752691898
 21
-10.0
 31
0.0
  0
ARC
  5
496
330
18
100
AcDbEntity
  8
1
 62
     1
100
AcDbCircle
 10
113.3885956368055
 20
15.80194454289065
 30
0.0
 40
56.629052474354
100
AcDbArc
 50
204.8432744446766
 51
206.5271068401156
  0
LINE
  5
497
330
18
100
AcDbEntity
  8
1
 62
     1
100
AcDbLine
 10
62.0
 20
-8.7509625
 30
0.0
 11
62.0
 21
-8.750798108056626
 31
0.0
  0
LINE
  5
498
330
18
100
AcDbEntity
  8
1
 62
     1
100
AcDbLine
 10
62.0
 20
-8.750798108056626
 30
0.0
 11
62.0
 21
-8.701601956414992
 31
0.0
  0
LINE
  5
499
330
18
100
AcDbEntity
  8
1
 62
     1
100
AcDbLine
 10
62.0
 20
-8.701601956414992
 30
0.0
 11
62.0
 21
-7.990036218258574
 31
0.0
  0
LINE
  5
49A
330
18
100
AcDbEntity
  8
1
 62
     1
100
AcDbLine
 10
62.72113247308104
 20
-10.00000000000001
 30
0.0
 11
62.0
 21
-8.7509625
 31
0.0
  0
LINE
  5
49B
330
18
100
AcDbEntity
  8
1
 62
     1
100
AcDbLine
 10
62.72113247308104
 20
-9.489857528682306
 30
0.0
 11
62.72113247308104
 21
-10.0
 31
0.0
  0
LINE
  5
49C
330
18
100
AcDbEntity
  8
1
 62
     1
100
AcDbLine
 10
55.44954982968293
 20
0.2642436058508699
 30
0.0
 11
54.87107941593565
 21
0.4754655302737092
 31
0.0
  0
LINE
  5
49D
330
18
100
AcDbEntity
  8
1
 62
     1
100
AcDbLine
 10
54.87107941593555
 20
0.4754655302736142
 30
0.0
 11
54.87107941593553
 21
-4.158861359887942
 31
0.0
  0
LINE
  5
49E
330
18
100
AcDbEntity
  8
1
 62
     1
100
AcDbLine
 10
55.44954982968294
 20
-4.354073972705574
 30
0.0
 11
54.87107941593554
 21
-4.158861359887942
 31
0.0
  0
LINE
  5
49F
330
18
100
AcDbEntity
  8
1
 62
     1
100
AcDbLine
 10
55.44954982968292
 20
0.2642436058508673
 30
0.0
 11
55.44954982968293
 21
-4.354073972705574
 31
0.0
  0
ARC
  5
4A0
330
18
100
AcDbEntity
  8
1
 62
     1
100
AcDbCircle
 10
78.58863008750346
 20
65.62998965627773
 30
0.0
 40
69.33558306461194
100
AcDbArc
 50
247.6974397396404
 51
249.4980642153098
  0
LINE
  5
4A1
330
18
100
AcDbEntity
  8
1
 62
     1
100
AcDbLine
 10
54.30457954156384
 20
-3.967418672506918
 30
0.0
 11
52.27609076
 21
-3.279232333662736
 31
0.0
  0
LINE
  5
4A2
330
18
100
AcDbEntity
  8
1
 62
     1
100
AcDbLine
 10
54.30457954156385
 20
0.6860351760738046
 30
0.0
 11
54.30457954156385
 21
-3.96741867250692
 31
0.0
  0
ARC
  5
4A3
330
18
100
AcDbEntity
  8
1
 62
     1
100
AcDbCircle
 10
101.2892583924713
 20
13.63492445795464
 30
0.0
 40
51.54487495015785
100
AcDbArc
 50
204.8053359931326
 51
205.7710301536686
  0
LINE
  5
4A4
330
18
100
AcDbEntity
  8
1
 62
     1
100
AcDbLine
 10
54.87107941593555
 20
-9.393690602371159
 30
0.0
 11
54.5
 21
-8.7509625
 31
0.0
  0
LINE
  5
4A5
330
18
100
AcDbEntity
  8
1
 62
     1
100
AcDbLine
 10
54.87107941593554
 20
-8.775552385206526
 30
0.0
 11
54.87107941593555
 21
-9.393690602371148
 31
0.0
  0
LINE
  5
4A6
330
18
100
AcDbEntity
  8
1
 62
     1
100
AcDbLine
 10
54.30457954156384
 20
-8.40791743832698
 30
0.0
 11
54.50000000000001
 21
-7.990036218258594
 31
0.0
  0
LINE
  5
4A7
330
18
100
AcDbEntity
  8
1
 62
     1
100
AcDbLine
 10
54.30457954156385
 20
-8.407917438326981
 30
0.0
 11
54.30457954156385
 21
-9.08944050503435
 31
0.0
  0
LINE
  5
4A8
330
18
100
AcDbEntity
  8
1
 62
     1
100
AcDbLine
 10
54.5
 20
-8.7509625
 30
0.0
 11
54.30457954156385
 21
-9.089440505034343
 31
0.0
  0
LINE
  5
4A9
330
18
100
AcDbEntity
  8
1
 62
     1
100
AcDbLine
 10
54.5
 20
-8.7509625
 30
0.0
 11
54.49999999999999
 21
-8.750798108056626
 31
0.0
  0
LINE
  5
4AA
330
18
100
AcDbEntity
  8
1
 62
     1
100
AcDbLine
 10
54.49999999999999
 20
-8.750798108056626
 30
0.0
 11
54.49999999999999
 21
-8.701601956414992
 31
0.0
  0
LINE
  5
4AB
330
18
100
AcDbEntity
  8
1
 62
     1
100
AcDbLine
 10
54.49999999999999
 20
-8.701601956414992
 30
0.0
 11
54.5
 21
-7.990036218258574
 31
0.0
  0
ARC
  5
4AC
330
18
100
AcDbEntity
  8
1
 62
     1
100
AcDbCircle
 10
108.8885956368792
 20
15.801944542926
 30
0.0
 40
56.6290524744358
100
AcDbArc
 50
204.8432744446777
 51
206.5271068401142
  0
LINE
  5
4AD
330
18
100
AcDbEntity
  8
1
 62
     1
100
AcDbLine
 10
58.22113247308104
 20
-10.00000000000001
 30
0.0
 11
57.5
 21
-8.7509625
 31
0.0
  0
LINE
  5
4AE
330
18
100
AcDbEntity
  8
1
 62
     1
100
AcDbLine
 10
58.22113247308103
 20
-9.489857528682306
 30
0.0
 11
58.22113247308104
 21
-10.0
 31
0.0
  0
ARC
  5
4AF
330
18
100
AcDbEntity
  8
1
 62
     1
100
AcDbCircle
 10
3.802637981220144
 20
16.91306403104746
 30
0.0
 40
59.19114343194211
100
AcDbArc
 50
333.508707952841
 51
335.1196543612873
  0
LINE
  5
4B0
330
18
100
AcDbEntity
  8
1
 62
     1
100
AcDbLine
 10
56.77886752691898
 20
-9.489857528682306
 30
0.0
 11
56.77886752691898
 21
-10.0
 31
0.0
  0
LINE
  5
4B1
330
18
100
AcDbEntity
  8
1
 62
     1
100
AcDbLine
 10
57.5
 20
-8.7509625
 30
0.0
 11
56.77886752691898
 21
-9.999999999999995
 31
0.0
  0
LINE
  5
4B2
330
18
100
AcDbEntity
  8
1
 62
     1
100
AcDbLine
 10
57.5
 20
-8.7509625
 30
0.0
 11
57.5
 21
-8.750798108056626
 31
0.0
  0
LINE
  5
4B3
330
18
100
AcDbEntity
  8
1
 62
     1
100
AcDbLine
 10
57.5
 20
-8.750798108056626
 30
0.0
 11
57.49999999999999
 21
-8.701601956414992
 31
0.0
  0
LINE
  5
4B4
330
18
100
AcDbEntity
  8
1
 62
     1
100
AcDbLine
 10
57.49999999999999
 20
-8.701601956414992
 30
0.0
 11
57.49999999999999
 21
-7.990036218258574
 31
0.0
  0
ARC
  5
4B5
330
18
100
AcDbEntity
  8
1
 62
     1
100
AcDbCircle
 10
5.146563435702888
 20
15.55695169657108
 30
0.0
 40
56.04053794243653
100
AcDbArc
 50
333.8466567741802
 51
335.1541499928286
  0
LINE
  5
4B6
330
18
100
AcDbEntity
  8
1
 62
     1
100
AcDbLine
 10
55.44954982968292
 20
-9.144326145824062
 30
0.0
 11
55.44954982968293
 21
-9.704369717497691
 31
0.0
  0
LINE
  5
4B7
330
18
100
AcDbEntity
  8
1
 62
     1
100
AcDbLine
 10
56.0
 20
-8.7509625
 30
0.0
 11
55.44954982968293
 21
-9.704369717497691
 31
0.0
  0
ARC
  5
4B8
330
18
100
AcDbEntity
  8
1
 62
     1
100
AcDbCircle
 10
107.388595636794
 20
15.80194454288552
 30
0.0
 40
56.62905247434143
100
AcDbArc
 50
204.8432744446767
 51
206.5271068401161
  0
LINE
  5
4B9
330
18
100
AcDbEntity
  8
1
 62
     1
100
AcDbLine
 10
56.0
 20
-8.7509625
 30
0.0
 11
56.00000000000001
 21
-8.750798108056626
 31
0.0
  0
LINE
  5
4BA
330
18
100
AcDbEntity
  8
1
 62
     1
100
AcDbLine
 10
56.00000000000001
 20
-8.750798108056626
 30
0.0
 11
56.0
 21
-8.701601956414992
 31
0.0
  0
LINE
  5
4BB
330
18
100
AcDbEntity
  8
1
 62
     1
100
AcDbLine
 10
56.0
 20
-8.701601956414992
 30
0.0
 11
56.0
 21
-7.990036218258574
 31
0.0
  0
LINE
  5
4BC
330
18
100
AcDbEntity
  8
1
 62
     1
100
AcDbLine
 10
56.72113247308105
 20
-10.00000000000003
 30
0.0
 11
56.0
 21
-8.7509625
 31
0.0
  0
LINE
  5
4BD
330
18
100
AcDbEntity
  8
1
 62
     1
100
AcDbLine
 10
56.72113247308105
 20
-9.489857528682306
 30
0.0
 11
56.72113247308106
 21
-10.0
 31
0.0
  0
LINE
  5
4BE
330
18
100
AcDbEntity
  8
1
 62
     1
100
AcDbLine
 10
52.27609076
 20
-3.761560357625569
 30
0.0
 11
52.27609076
 21
-7.019015029227077
 31
0.0
  0
LINE
  5
4BF
330
18
100
AcDbEntity
  8
1
 62
     1
100
AcDbLine
 10
56.77886752691898
 20
-9.489857528682315
 30
0.0
 11
56.72113247308105
 21
-9.489857528682313
 31
0.0
  0
LINE
  5
4C0
330
18
100
AcDbEntity
  8
1
 62
     1
100
AcDbLine
 10
59.77886752691898
 20
-9.489857528682313
 30
0.0
 11
59.72113247308103
 21
-9.489857528682313
 31
0.0
  0
ARC
  5
4C1
330
18
100
AcDbEntity
  8
1
 62
     1
100
AcDbCircle
 10
98.73270269193411
 20
18.47032855707506
 30
0.0
 40
27.9309131989524
100
AcDbArc
 50
218.9141506128411
 51
220.3866347848528
  0
LINE
  5
4C2
330
18
100
AcDbEntity
  8
1
 62
     1
100
AcDbLine
 10
77.0
 20
-3.754089447389253
 30
0.0
 11
77.45798676250422
 21
-4.253477307499161
 31
0.0
  0
LINE
  5
4C3
330
18
100
AcDbEntity
  8
1
 62
     1
100
AcDbLine
 10
77.45798676250422
 20
0.3726816282692444
 30
0.0
 11
77.4579867625042
 21
-4.253477307499153
 31
0.0
  0
ARC
  5
4C4
330
18
100
AcDbEntity
  8
1
 62
     1
100
AcDbCircle
 10
53.86112788235261
 20
19.6349602532223
 30
0.0
 40
29.75668144038276
100
AcDbArc
 50
319.4107647594282
 51
321.0417687955078
  0
LINE
  5
4C5
330
18
100
AcDbEntity
  8
1
 62
     1
100
AcDbLine
 10
76.45817051375761
 20
0.2743155318945317
 30
0.0
 11
76.4581705137576
 21
-4.344697872999357
 31
0.0
  0
LINE
  5
4C6
330
18
100
AcDbEntity
  8
1
 62
     1
100
AcDbLine
 10
76.45817051375761
 20
-4.344697872929025
 30
0.0
 11
77.0
 21
-3.754089447389253
 31
0.0
  0
LINE
  5
4C7
330
18
100
AcDbEntity
  8
1
 62
     1
100
AcDbLine
 10
77.0
 20
-3.754089447389253
 30
0.0
 11
77.0
 21
0.9253842959102373
 31
0.0
  0
LINE
  5
4C8
330
18
100
AcDbEntity
  8
1
 62
     1
100
AcDbLine
 10
79.73277252391088
 20
8.929538870302256
 30
0.0
 11
78.84193172231117
 21
9.030302162499053
 31
0.0
  0
LINE
  5
4C9
330
18
100
AcDbEntity
  8
1
 62
     1
100
AcDbLine
 10
79.73277252391088
 20
6.622726602838384
 30
0.0
 11
78.84193172231119
 21
6.696662327007934
 31
0.0
  0
LINE
  5
4CA
330
18
100
AcDbEntity
  8
1
 62
     1
100
AcDbLine
 10
78.09547151883424
 20
9.114140560722797
 30
0.0
 11
77.4579867626929
 21
9.185333395586635
 31
0.0
  0
LINE
  5
4CB
330
18
100
AcDbEntity
  8
1
 62
     1
100
AcDbLine
 10
78.09547151883426
 20
6.758580716603593
 30
0.0
 11
77.45798677287311
 21
6.811435764419064
 31
0.0
  0
LINE
  5
4CC
330
18
100
AcDbEntity
  8
1
 62
     1
100
AcDbLine
 10
76.45817051375758
 20
9.296277825515826
 30
0.0
 11
76.07404180269725
 21
9.338681573296482
 31
0.0
  0
LINE
  5
4CD
330
18
100
AcDbEntity
  8
1
 62
     1
100
AcDbLine
 10
76.07404180269724
 20
9.338681573296487
 30
0.0
 11
76.07404180269725
 21
6.926108445416325
 31
0.0
  0
LINE
  5
4CE
330
18
100
AcDbEntity
  8
1
 62
     1
100
AcDbLine
 10
76.45817051381671
 20
6.894289525682127
 30
0.0
 11
76.07404180299412
 21
6.926108446868879
 31
0.0
  0
LINE
  5
4CF
330
18
100
AcDbEntity
  8
1
 62
     1
100
AcDbLine
 10
76.45817051375761
 20
9.29627782551583
 30
0.0
 11
76.4581705137576
 21
6.894289525458983
 31
0.0
  0
LINE
  5
4D0
330
18
100
AcDbEntity
  8
1
 62
     1
100
AcDbLine
 10
74.82086950882247
 20
9.476214011836078
 30
0.0
 11
74.69009684289027
 21
9.490497697310134
 31
0.0
  0
LINE
  5
4D1
330
18
100
AcDbEntity
  8
1
 62
     1
100
AcDbLine
 10
74.69009684289027
 20
9.49049769731013
 30
0.0
 11
74.69009684289027
 21
7.040686833329046
 31
0.0
  0
LINE
  5
4D2
330
18
100
AcDbEntity
  8
1
 62
     1
100
AcDbLine
 10
74.82086950874131
 20
7.029863888808022
 30
0.0
 11
74.69009684289027
 21
7.040686833329068
 31
0.0
  0
LINE
  5
4D3
330
18
100
AcDbEntity
  8
1
 62
     1
100
AcDbLine
 10
74.82086950868097
 20
9.476214010905947
 30
0.0
 11
74.82086950868096
 21
7.029863888513729
 31
0.0
  0
ARC
  5
4D4
330
18
100
AcDbEntity
  8
1
 62
     1
100
AcDbCircle
 10
56.50221471102175
 20
18.69192177841491
 30
0.0
 40
28.27639063553865
100
AcDbArc
 50
319.7869965048106
 51
321.0738821648071
  0
LINE
  5
4D5
330
18
100
AcDbEntity
  8
1
 62
     1
100
AcDbLine
 10
78.09547151883426
 20
0.4358029683761061
 30
0.0
 11
78.09547151883424
 21
-4.195284879745407
 31
0.0
  0
LINE
  5
4D6
330
18
100
AcDbEntity
  8
1
 62
     1
100
AcDbLine
 10
78.09547151883424
 20
-4.195284879745421
 30
0.0
 11
78.5
 21
-3.754089447389253
 31
0.0
  0
LINE
  5
4D7
330
18
100
AcDbEntity
  8
1
 62
     1
100
AcDbLine
 10
78.5
 20
-3.754089447389253
 30
0.0
 11
78.49999999999999
 21
0.9253842959102373
 31
0.0
  0
ARC
  5
4D8
330
18
100
AcDbEntity
  8
1
 62
     1
100
AcDbCircle
 10
99.46522970407392
 20
17.84211415155289
 30
0.0
 40
26.93913154041132
100
AcDbArc
 50
218.8998710193418
 51
220.043951545905
  0
LINE
  5
4D9
330
18
100
AcDbEntity
  8
1
 62
     1
100
AcDbLine
 10
78.5
 20
-3.754089447389253
 30
0.0
 11
78.84193172231119
 21
-4.127113830270982
 31
0.0
  0
LINE
  5
4DA
330
18
100
AcDbEntity
  8
1
 62
     1
100
AcDbLine
 10
79.73277252391088
 20
0.5994754260142774
 30
0.0
 11
80.0
 21
0.9253842959102372
 31
0.0
  0
LINE
  5
4DB
330
18
100
AcDbEntity
  8
1
 62
     1
100
AcDbLine
 10
79.73277252391088
 20
0.5994754260143187
 30
0.0
 11
79.73277252391088
 21
-4.045711908431545
 31
0.0
  0
LINE
  5
4DC
330
18
100
AcDbEntity
  8
1
 62
     1
100
AcDbLine
 10
79.73277252391088
 20
-4.045711908431562
 30
0.0
 11
80.0
 21
-3.754089447389253
 31
0.0
  0
LINE
  5
4DD
330
18
100
AcDbEntity
  8
1
 62
     1
100
AcDbLine
 10
73.22113247308101
 20
9.53085430650061
 30
0.0
 11
73.22113247308101
 21
7.071312345007865
 31
0.0
  0
LINE
  5
4DE
330
18
100
AcDbEntity
  8
1
 62
     1
100
AcDbLine
 10
71.77886752691894
 20
9.53085430650063
 30
0.0
 11
71.72113247308101
 21
9.53085430650063
 31
0.0
  0
LINE
  5
4DF
330
18
100
AcDbEntity
  8
1
 62
     1
100
AcDbLine
 10
71.72113247308103
 20
9.530854306500611
 30
0.0
 11
71.72113247308103
 21
7.071312345007866
 31
0.0
  0
LINE
  5
4E0
330
18
100
AcDbEntity
  8
1
 62
     1
100
AcDbLine
 10
71.77886752691893
 20
7.071312345007865
 30
0.0
 11
71.72113247308103
 21
7.071312345007865
 31
0.0
  0
LINE
  5
4E1
330
18
100
AcDbEntity
  8
1
 62
     1
100
AcDbLine
 10
71.77886752691896
 20
9.530854306500611
 30
0.0
 11
71.77886752691897
 21
7.071312345007866
 31
0.0
  0
LINE
  5
4E2
330
18
100
AcDbEntity
  8
1
 62
     1
100
AcDbLine
 10
70.27886752691896
 20
9.53085430650063
 30
0.0
 11
70.22113247308101
 21
9.53085430650063
 31
0.0
  0
LINE
  5
4E3
330
18
100
AcDbEntity
  8
1
 62
     1
100
AcDbLine
 10
70.22113247308103
 20
9.530854306500611
 30
0.0
 11
70.22113247308104
 21
7.071312345007866
 31
0.0
  0
LINE
  5
4E4
330
18
100
AcDbEntity
  8
1
 62
     1
100
AcDbLine
 10
68.77886752691896
 20
9.530854306500633
 30
0.0
 11
68.721132473081
 21
9.530854306500633
 31
0.0
  0
LINE
  5
4E5
330
18
100
AcDbEntity
  8
1
 62
     1
100
AcDbLine
 10
68.72113247308101
 20
9.53085430650061
 30
0.0
 11
68.72113247308103
 21
7.071312345007866
 31
0.0
  0
LINE
  5
4E6
330
18
100
AcDbEntity
  8
1
 62
     1
100
AcDbLine
 10
68.77886752691896
 20
7.071312345007865
 30
0.0
 11
68.72113247308098
 21
7.071312345007865
 31
0.0
  0
LINE
  5
4E7
330
18
100
AcDbEntity
  8
1
 62
     1
100
AcDbLine
 10
67.27886752691896
 20
9.530854306500629
 30
0.0
 11
67.22113247308103
 21
9.530854306500629
 31
0.0
  0
LINE
  5
4E8
330
18
100
AcDbEntity
  8
1
 62
     1
100
AcDbLine
 10
67.22113247308104
 20
9.530854306500611
 30
0.0
 11
67.22113247308104
 21
7.071312345007866
 31
0.0
  0
LINE
  5
4E9
330
18
100
AcDbEntity
  8
1
 62
     1
100
AcDbLine
 10
67.27886752691893
 20
7.071312345007865
 30
0.0
 11
67.22113247308098
 21
7.071312345007865
 31
0.0
  0
LINE
  5
4EA
330
18
100
AcDbEntity
  8
1
 62
     1
100
AcDbLine
 10
65.77886752691894
 20
9.530854306500629
 30
0.0
 11
65.72113247308101
 21
9.530854306500629
 31
0.0
  0
LINE
  5
4EB
330
18
100
AcDbEntity
  8
1
 62
     1
100
AcDbLine
 10
65.77886752691896
 20
9.530854306500611
 30
0.0
 11
65.77886752691896
 21
7.071312345007866
 31
0.0
  0
LINE
  5
4EC
330
18
100
AcDbEntity
  8
1
 62
     1
100
AcDbLine
 10
64.27886752691896
 20
9.530854306500629
 30
0.0
 11
64.22113247308103
 21
9.530854306500624
 31
0.0
  0
LINE
  5
4ED
330
18
100
AcDbEntity
  8
1
 62
     1
100
AcDbLine
 10
64.22113247308103
 20
9.530854306500611
 30
0.0
 11
64.22113247308101
 21
7.071312345007865
 31
0.0
  0
LINE
  5
4EE
330
18
100
AcDbEntity
  8
1
 62
     1
100
AcDbLine
 10
64.27886752691894
 20
7.071312345007865
 30
0.0
 11
64.22113247308101
 21
7.071312345007865
 31
0.0
  0
LINE
  5
4EF
330
18
100
AcDbEntity
  8
1
 62
     1
100
AcDbLine
 10
64.27886752691896
 20
9.53085430650061
 30
0.0
 11
64.27886752691896
 21
7.071312345007866
 31
0.0
  0
LINE
  5
4F0
330
18
100
AcDbEntity
  8
1
 62
     1
100
AcDbLine
 10
62.72113247308104
 20
9.53085430650061
 30
0.0
 11
62.72113247308103
 21
7.071312345007866
 31
0.0
  0
LINE
  5
4F1
330
18
100
AcDbEntity
  8
1
 62
     1
100
AcDbLine
 10
62.77886752691898
 20
9.53085430650061
 30
0.0
 11
62.77886752691898
 21
7.071312345007866
 31
0.0
  0
LINE
  5
4F2
330
18
100
AcDbEntity
  8
1
 62
     1
100
AcDbLine
 10
61.27886752691897
 20
9.530854306500629
 30
0.0
 11
61.22113247308103
 21
9.530854306500629
 31
0.0
  0
LINE
  5
4F3
330
18
100
AcDbEntity
  8
1
 62
     1
100
AcDbLine
 10
61.22113247308103
 20
9.53085430650061
 30
0.0
 11
61.22113247308103
 21
7.071312345007866
 31
0.0
  0
LINE
  5
4F4
330
18
100
AcDbEntity
  8
1
 62
     1
100
AcDbLine
 10
61.27886752691897
 20
9.53085430650061
 30
0.0
 11
61.27886752691898
 21
7.071312345007866
 31
0.0
  0
LINE
  5
4F5
330
18
100
AcDbEntity
  8
1
 62
     1
100
AcDbLine
 10
59.72113247308103
 20
9.53085430650061
 30
0.0
 11
59.72113247308103
 21
7.071312345007866
 31
0.0
  0
LINE
  5
4F6
330
18
100
AcDbEntity
  8
1
 62
     1
100
AcDbLine
 10
59.77886752691897
 20
7.071312345007865
 30
0.0
 11
59.72113247308103
 21
7.071312345007865
 31
0.0
  0
LINE
  5
4F7
330
18
100
AcDbEntity
  8
1
 62
     1
100
AcDbLine
 10
59.77886752691897
 20
9.53085430650061
 30
0.0
 11
59.77886752691897
 21
7.071312345007866
 31
0.0
  0
LINE
  5
4F8
330
18
100
AcDbEntity
  8
1
 62
     1
100
AcDbLine
 10
58.27886752691897
 20
9.530854306500629
 30
0.0
 11
58.22113247308107
 21
9.530854306500629
 31
0.0
  0
LINE
  5
4F9
330
18
100
AcDbEntity
  8
1
 62
     1
100
AcDbLine
 10
58.22113247308103
 20
9.53085430650061
 30
0.0
 11
58.22113247308103
 21
7.071312345007866
 31
0.0
  0
LINE
  5
4FA
330
18
100
AcDbEntity
  8
1
 62
     1
100
AcDbLine
 10
58.27886752691897
 20
7.071312345007865
 30
0.0
 11
58.22113247308104
 21
7.071312345007865
 31
0.0
  0
LINE
  5
4FB
330
18
100
AcDbEntity
  8
1
 62
     1
100
AcDbLine
 10
58.27886752691897
 20
9.53085430650061
 30
0.0
 11
58.27886752691897
 21
7.071312345007866
 31
0.0
  0
LINE
  5
4FC
330
18
100
AcDbEntity
  8
1
 62
     1
100
AcDbLine
 10
56.72113247308106
 20
9.530854306500615
 30
0.0
 11
56.72113247308106
 21
7.071312345007866
 31
0.0
  0
LINE
  5
4FD
330
18
100
AcDbEntity
  8
1
 62
     1
100
AcDbLine
 10
56.77886752691898
 20
7.071312345007865
 30
0.0
 11
56.72113247308106
 21
7.071312345007865
 31
0.0
  0
LINE
  5
4FE
330
18
100
AcDbEntity
  8
1
 62
     1
100
AcDbLine
 10
56.77886752691898
 20
9.53085430650061
 30
0.0
 11
56.77886752691898
 21
7.071312345007866
 31
0.0
  0
ARC
  5
4FF
330
18
100
AcDbEntity
  8
1
 62
     1
100
AcDbCircle
 10
91.48169487924608
 20
19.9111365730002
 30
0.0
 40
30.19686307228596
100
AcDbArc
 50
218.9567225433976
 51
221.0849845612757
  0
LINE
  5
500
330
18
100
AcDbEntity
  8
1
 62
     1
100
AcDbLine
 10
68.0
 20
-3.754089447389253
 30
0.0
 11
68.0
 21
0.9253842959102373
 31
0.0
  0
LINE
  5
501
330
18
100
AcDbEntity
  8
1
 62
     1
100
AcDbLine
 10
68.0
 20
-3.754089447389253
 30
0.0
 11
68.72113247308104
 21
-4.539596859617376
 31
0.0
  0
ARC
  5
502
330
18
100
AcDbEntity
  8
1
 62
     1
100
AcDbCircle
 10
43.35108392616163
 20
20.89187893526312
 30
0.0
 40
31.72129048221814
100
AcDbArc
 50
318.9653211199636
 51
320.991302674707
  0
LINE
  5
503
330
18
100
AcDbEntity
  8
1
 62
     1
100
AcDbLine
 10
67.27886752691896
 20
0.0663341799392575
 30
0.0
 11
67.27886752691896
 21
-4.539596859617379
 31
0.0
  0
LINE
  5
504
330
18
100
AcDbEntity
  8
1
 62
     1
100
AcDbLine
 10
67.27886752691896
 20
-4.539596859617387
 30
0.0
 11
68.0
 21
-3.754089447389253
 31
0.0
  0
ARC
  5
505
330
18
100
AcDbEntity
  8
1
 62
     1
100
AcDbCircle
 10
89.98169487929665
 20
19.91113657304251
 30
0.0
 40
30.1968630723519
100
AcDbArc
 50
218.9567225433997
 51
221.0849845612732
  0
LINE
  5
506
330
18
100
AcDbEntity
  8
1
 62
     1
100
AcDbLine
 10
66.5
 20
-3.754089447389253
 30
0.0
 11
66.49999999999999
 21
0.9253842959102373
 31
0.0
  0
LINE
  5
507
330
18
100
AcDbEntity
  8
1
 62
     1
100
AcDbLine
 10
66.5
 20
-3.754089447389253
 30
0.0
 11
67.22113247308103
 21
-4.539596859617376
 31
0.0
  0
ARC
  5
508
330
18
100
AcDbEntity
  8
1
 62
     1
100
AcDbCircle
 10
41.85108392615939
 20
20.89187893526505
 30
0.0
 40
31.7212904822211
100
AcDbArc
 50
318.9653211199636
 51
320.9913026747068
  0
LINE
  5
509
330
18
100
AcDbEntity
  8
1
 62
     1
100
AcDbLine
 10
65.77886752691896
 20
0.0663341799392575
 30
0.0
 11
65.77886752691896
 21
-4.539596859617379
 31
0.0
  0
LINE
  5
50A
330
18
100
AcDbEntity
  8
1
 62
     1
100
AcDbLine
 10
65.77886752691896
 20
-4.539596859617387
 30
0.0
 11
66.5
 21
-3.754089447389253
 31
0.0
  0
ARC
  5
50B
330
18
100
AcDbEntity
  8
1
 62
     1
100
AcDbCircle
 10
88.48169487924484
 20
19.91113657299917
 30
0.0
 40
30.19686307228435
100
AcDbArc
 50
218.9567225433975
 51
221.0849845612757
  0
LINE
  5
50C
330
18
100
AcDbEntity
  8
1
 62
     1
100
AcDbLine
 10
65.0
 20
-3.754089447389253
 30
0.0
 11
64.99999999999999
 21
0.9253842959102373
 31
0.0
  0
LINE
  5
50D
330
18
100
AcDbEntity
  8
1
 62
     1
100
AcDbLine
 10
65.0
 20
-3.754089447389253
 30
0.0
 11
65.72113247308103
 21
-4.539596859617376
 31
0.0
  0
ARC
  5
50E
330
18
100
AcDbEntity
  8
1
 62
     1
100
AcDbCircle
 10
40.35108392618876
 20
20.89187893523986
 30
0.0
 40
31.72129048218241
100
AcDbArc
 50
318.9653211199631
 51
320.9913026747088
  0
LINE
  5
50F
330
18
100
AcDbEntity
  8
1
 62
     1
100
AcDbLine
 10
64.27886752691897
 20
0.0663341799392575
 30
0.0
 11
64.27886752691896
 21
-4.539596859617379
 31
0.0
  0
LINE
  5
510
330
18
100
AcDbEntity
  8
1
 62
     1
100
AcDbLine
 10
64.27886752691896
 20
-4.539596859617387
 30
0.0
 11
65.0
 21
-3.754089447389253
 31
0.0
  0
ARC
  5
511
330
18
100
AcDbEntity
  8
1
 62
     1
100
AcDbCircle
 10
51.20779821127493
 20
20.59406809626619
 30
0.0
 40
31.25662850193131
100
AcDbArc
 50
319.065355400326
 51
321.0039223356028
  0
LINE
  5
512
330
18
100
AcDbEntity
  8
1
 62
     1
100
AcDbLine
 10
74.82086950868096
 20
0.1147796264097952
 30
0.0
 11
74.82086950868097
 21
-4.493962843804991
 31
0.0
  0
LINE
  5
513
330
18
100
AcDbEntity
  8
1
 62
     1
100
AcDbLine
 10
74.82086950868096
 20
-4.493962843732399
 30
0.0
 11
75.5
 21
-3.754089447389253
 31
0.0
  0
LINE
  5
514
330
18
100
AcDbEntity
  8
1
 62
     1
100
AcDbLine
 10
75.50000000000001
 20
-3.754089447389253
 30
0.0
 11
75.5
 21
0.9253842959102373
 31
0.0
  0
ARC
  5
515
330
18
100
AcDbEntity
  8
1
 62
     1
100
AcDbCircle
 10
97.27429250880812
 20
19.73964489357165
 30
0.0
 40
29.92775711768194
100
AcDbArc
 50
218.9510656855141
 51
221.0077845735607
  0
LINE
  5
516
330
18
100
AcDbEntity
  8
1
 62
     1
100
AcDbLine
 10
74.00000000000001
 20
-3.754089447389253
 30
0.0
 11
73.99999999999999
 21
0.9253842959102373
 31
0.0
  0
LINE
  5
517
330
18
100
AcDbEntity
  8
1
 62
     1
100
AcDbLine
 10
74.0
 20
-3.754089447389253
 30
0.0
 11
74.69009684289026
 21
-4.505878714079849
 31
0.0
  0
LINE
  5
518
330
18
100
AcDbEntity
  8
1
 62
     1
100
AcDbLine
 10
74.69009684289027
 20
0.1021153550363215
 30
0.0
 11
74.69009684289026
 21
-4.505878714079846
 31
0.0
  0
ARC
  5
519
330
18
100
AcDbEntity
  8
1
 62
     1
100
AcDbCircle
 10
49.35108392628493
 20
20.89187893515876
 30
0.0
 40
31.72129048205663
100
AcDbArc
 50
318.9653211199595
 51
320.9913026747133
  0
LINE
  5
51A
330
18
100
AcDbEntity
  8
1
 62
     1
100
AcDbLine
 10
73.27886752691896
 20
0.0663341799392564
 30
0.0
 11
73.27886752691894
 21
-4.539596859617379
 31
0.0
  0
LINE
  5
51B
330
18
100
AcDbEntity
  8
1
 62
     1
100
AcDbLine
 10
73.27886752691896
 20
-4.539596859617387
 30
0.0
 11
74.0
 21
-3.754089447389253
 31
0.0
  0
ARC
  5
51C
330
18
100
AcDbEntity
  8
1
 62
     1
100
AcDbCircle
 10
44.8510839262805
 20
20.89187893516255
 30
0.0
 40
31.72129048206246
100
AcDbArc
 50
318.9653211199596
 51
320.991302674713
  0
LINE
  5
51D
330
18
100
AcDbEntity
  8
1
 62
     1
100
AcDbLine
 10
68.77886752691896
 20
-4.539596859617387
 30
0.0
 11
69.5
 21
-3.754089447389253
 31
0.0
  0
ARC
  5
51E
330
18
100
AcDbEntity
  8
1
 62
     1
100
AcDbCircle
 10
92.98169487928185
 20
19.91113657302973
 30
0.0
 40
30.19686307233234
100
AcDbArc
 50
218.9567225433985
 51
221.0849845612733
  0
LINE
  5
51F
330
18
100
AcDbEntity
  8
1
 62
     1
100
AcDbLine
 10
69.50000000000001
 20
-3.754089447389253
 30
0.0
 11
69.5
 21
0.9253842959102373
 31
0.0
  0
LINE
  5
520
330
18
100
AcDbEntity
  8
1
 62
     1
100
AcDbLine
 10
69.5
 20
-3.754089447389253
 30
0.0
 11
70.22113247308103
 21
-4.539596859617376
 31
0.0
  0
ARC
  5
521
330
18
100
AcDbEntity
  8
1
 62
     1
100
AcDbCircle
 10
46.35108392632139
 20
20.89187893512851
 30
0.0
 40
31.72129048200925
100
AcDbArc
 50
318.9653211199575
 51
320.9913026747143
  0
LINE
  5
522
330
18
100
AcDbEntity
  8
1
 62
     1
100
AcDbLine
 10
70.27886752691896
 20
-4.539596859617387
 30
0.0
 11
71.0
 21
-3.754089447389253
 31
0.0
  0
ARC
  5
523
330
18
100
AcDbEntity
  8
1
 62
     1
100
AcDbCircle
 10
94.48169487936426
 20
19.91113657309906
 30
0.0
 40
30.19686307244003
100
AcDbArc
 50
218.9567225434024
 51
221.0849845612697
  0
LINE
  5
524
330
18
100
AcDbEntity
  8
1
 62
     1
100
AcDbLine
 10
71.0
 20
-3.754089447389253
 30
0.0
 11
71.0
 21
0.9253842959102373
 31
0.0
  0
LINE
  5
525
330
18
100
AcDbEntity
  8
1
 62
     1
100
AcDbLine
 10
71.0
 20
-3.754089447389253
 30
0.0
 11
71.72113247308104
 21
-4.539596859617376
 31
0.0
  0
ARC
  5
526
330
18
100
AcDbEntity
  8
1
 62
     1
100
AcDbCircle
 10
95.98169487929397
 20
19.91113657304031
 30
0.0
 40
30.19686307234843
100
AcDbArc
 50
218.9567225433996
 51
221.0849845612733
  0
LINE
  5
527
330
18
100
AcDbEntity
  8
1
 62
     1
100
AcDbLine
 10
72.50000000000001
 20
-3.754089447389253
 30
0.0
 11
72.49999999999997
 21
0.9253842959102373
 31
0.0
  0
LINE
  5
528
330
18
100
AcDbEntity
  8
1
 62
     1
100
AcDbLine
 10
72.5
 20
-3.754089447389253
 30
0.0
 11
73.22113247308103
 21
-4.539596859617376
 31
0.0
  0
ARC
  5
529
330
18
100
AcDbEntity
  8
1
 62
     1
100
AcDbCircle
 10
47.85108392619419
 20
20.89187893523524
 30
0.0
 40
31.72129048217528
100
AcDbArc
 50
318.9653211199629
 51
320.9913026747091
  0
LINE
  5
52A
330
18
100
AcDbEntity
  8
1
 62
     1
100
AcDbLine
 10
71.77886752691896
 20
-4.539596859617387
 30
0.0
 11
72.5
 21
-3.754089447389253
 31
0.0
  0
ARC
  5
52B
330
18
100
AcDbEntity
  8
1
 62
     1
100
AcDbCircle
 10
98.00307249802664
 20
19.1034332284161
 30
0.0
 40
28.92802542809738
100
AcDbArc
 50
218.9313808051622
 51
220.7071653465727
  0
LINE
  5
52C
330
18
100
AcDbEntity
  8
1
 62
     1
100
AcDbLine
 10
75.5
 20
-3.754089447389253
 30
0.0
 11
76.07404180269725
 21
-4.379729940144793
 31
0.0
  0
ARC
  5
52D
330
18
100
AcDbEntity
  8
1
 62
     1
100
AcDbCircle
 10
85.48169487919142
 20
19.9111365729551
 30
0.0
 40
30.1968630722151
100
AcDbArc
 50
218.9567225433962
 51
221.0849845612794
  0
LINE
  5
52E
330
18
100
AcDbEntity
  8
1
 62
     1
100
AcDbLine
 10
62.0
 20
-3.754089447389253
 30
0.0
 11
62.72113247308104
 21
-4.539596859617379
 31
0.0
  0
ARC
  5
52F
330
18
100
AcDbEntity
  8
1
 62
     1
100
AcDbCircle
 10
37.35108392619717
 20
20.89187893523262
 30
0.0
 40
31.72129048217133
100
AcDbArc
 50
318.965321119963
 51
320.9913026747094
  0
LINE
  5
530
330
18
100
AcDbEntity
  8
1
 62
     1
100
AcDbLine
 10
61.27886752691897
 20
-4.539596859617374
 30
0.0
 11
62.0
 21
-3.754089447389253
 31
0.0
  0
LINE
  5
531
330
18
100
AcDbEntity
  8
1
 62
     1
100
AcDbLine
 10
62.0
 20
-3.754089447389253
 30
0.0
 11
61.99999999999999
 21
0.9253842959102373
 31
0.0
  0
ARC
  5
532
330
18
100
AcDbEntity
  8
1
 62
     1
100
AcDbCircle
 10
83.98169487921459
 20
19.91113657297425
 30
0.0
 40
30.19686307224516
100
AcDbArc
 50
218.9567225433968
 51
221.0849845612778
  0
LINE
  5
533
330
18
100
AcDbEntity
  8
1
 62
     1
100
AcDbLine
 10
60.5
 20
-3.754089447389253
 30
0.0
 11
60.49999999999999
 21
0.9253842959102373
 31
0.0
  0
LINE
  5
534
330
18
100
AcDbEntity
  8
1
 62
     1
100
AcDbLine
 10
60.5
 20
-3.754089447389253
 30
0.0
 11
61.22113247308104
 21
-4.539596859617379
 31
0.0
  0
ARC
  5
535
330
18
100
AcDbEntity
  8
1
 62
     1
100
AcDbCircle
 10
35.85108392624123
 20
20.89187893519631
 30
0.0
 40
31.72129048211424
100
AcDbArc
 50
318.9653211199602
 51
320.9913026747103
  0
LINE
  5
536
330
18
100
AcDbEntity
  8
1
 62
     1
100
AcDbLine
 10
59.77886752691897
 20
-4.539596859617379
 30
0.0
 11
60.5
 21
-3.754089447389253
 31
0.0
  0
ARC
  5
537
330
18
100
AcDbEntity
  8
1
 62
     1
100
AcDbCircle
 10
82.48169487920367
 20
19.91113657296513
 30
0.0
 40
30.19686307223094
100
AcDbArc
 50
218.9567225433964
 51
221.0849845612784
  0
LINE
  5
538
330
18
100
AcDbEntity
  8
1
 62
     1
100
AcDbLine
 10
59.0
 20
-3.754089447389253
 30
0.0
 11
59.72113247308104
 21
-4.539596859617379
 31
0.0
  0
ARC
  5
539
330
18
100
AcDbEntity
  8
1
 62
     1
100
AcDbCircle
 10
34.35108392627251
 20
20.89187893516954
 30
0.0
 40
31.72129048207307
100
AcDbArc
 50
318.9653211199596
 51
320.9913026747122
  0
LINE
  5
53A
330
18
100
AcDbEntity
  8
1
 62
     1
100
AcDbLine
 10
58.27886752691897
 20
-4.539596859617374
 30
0.0
 11
59.0
 21
-3.754089447389253
 31
0.0
  0
LINE
  5
53B
330
18
100
AcDbEntity
  8
1
 62
     1
100
AcDbLine
 10
59.0
 20
-3.754089447389253
 30
0.0
 11
59.0
 21
0.9253842959102373
 31
0.0
  0
ARC
  5
53C
330
18
100
AcDbEntity
  8
1
 62
     1
100
AcDbCircle
 10
38.85108392627032
 20
20.89187893517138
 30
0.0
 40
31.72129048207593
100
AcDbArc
 50
318.9653211199597
 51
320.9913026747122
  0
LINE
  5
53D
330
18
100
AcDbEntity
  8
1
 62
     1
100
AcDbLine
 10
62.77886752691897
 20
-4.539596859617374
 30
0.0
 11
63.5
 21
-3.754089447389253
 31
0.0
  0
ARC
  5
53E
330
18
100
AcDbEntity
  8
1
 62
     1
100
AcDbCircle
 10
86.98169487921984
 20
19.91113657297781
 30
0.0
 40
30.19686307225148
100
AcDbArc
 50
218.9567225433958
 51
221.0849845612763
  0
LINE
  5
53F
330
18
100
AcDbEntity
  8
1
 62
     1
100
AcDbLine
 10
63.50000000000001
 20
-3.754089447389253
 30
0.0
 11
63.49999999999999
 21
0.9253842959102373
 31
0.0
  0
LINE
  5
540
330
18
100
AcDbEntity
  8
1
 62
     1
100
AcDbLine
 10
63.5
 20
-3.754089447389253
 30
0.0
 11
64.22113247308104
 21
-4.539596859617376
 31
0.0
  0
ARC
  5
541
330
18
100
AcDbEntity
  8
1
 62
     1
100
AcDbCircle
 10
79.48169487921436
 20
19.91113657297368
 30
0.0
 40
30.19686307224463
100
AcDbArc
 50
218.9567225433962
 51
221.0849845612773
  0
LINE
  5
542
330
18
100
AcDbEntity
  8
1
 62
     1
100
AcDbLine
 10
56.00000000000001
 20
-3.754089447389253
 30
0.0
 11
56.0
 21
0.9253842959102373
 31
0.0
  0
LINE
  5
543
330
18
100
AcDbEntity
  8
1
 62
     1
100
AcDbLine
 10
56.0
 20
-3.754089447389253
 30
0.0
 11
56.72113247308106
 21
-4.539596859617394
 31
0.0
  0
LINE
  5
544
330
18
100
AcDbEntity
  8
1
 62
     1
100
AcDbLine
 10
56.72113247308106
 20
0.0663341799392563
 30
0.0
 11
56.72113247308105
 21
-4.539596859617379
 31
0.0
  0
ARC
  5
545
330
18
100
AcDbEntity
  8
1
 62
     1
100
AcDbCircle
 10
32.78899280915246
 20
19.69477835643178
 30
0.0
 40
29.85038823791283
100
AcDbArc
 50
319.3882122682626
 51
321.0395429491325
  0
LINE
  5
546
330
18
100
AcDbEntity
  8
1
 62
     1
100
AcDbLine
 10
55.44954982968292
 20
-4.354073972705574
 30
0.0
 11
56.0
 21
-3.754089447389253
 31
0.0
  0
ARC
  5
547
330
18
100
AcDbEntity
  8
1
 62
     1
100
AcDbCircle
 10
32.85108392621753
 20
20.89187893521609
 30
0.0
 40
31.72129048214511
100
AcDbArc
 50
318.9653211199614
 51
320.9913026747095
  0
LINE
  5
548
330
18
100
AcDbEntity
  8
1
 62
     1
100
AcDbLine
 10
56.77886752691897
 20
-4.539596859617374
 30
0.0
 11
57.5
 21
-3.754089447389253
 31
0.0
  0
LINE
  5
549
330
18
100
AcDbEntity
  8
1
 62
     1
100
AcDbLine
 10
57.50000000000001
 20
-3.754089447389253
 30
0.0
 11
57.49999999999999
 21
0.9253842959102373
 31
0.0
  0
ARC
  5
54A
330
18
100
AcDbEntity
  8
1
 62
     1
100
AcDbCircle
 10
80.98169487927393
 20
19.91113657302351
 30
0.0
 40
30.19686307232228
100
AcDbArc
 50
218.9567225433987
 51
221.0849845612743
  0
LINE
  5
54B
330
18
100
AcDbEntity
  8
1
 62
     1
100
AcDbLine
 10
57.5
 20
-3.754089447389253
 30
0.0
 11
58.22113247308103
 21
-4.539596859617379
 31
0.0
  0
LINE
  5
54C
330
18
100
AcDbEntity
  8
1
 62
     1
100
AcDbLine
 10
54.30457954156384
 20
0.6860351760738046
 30
0.0
 11
54.50000000000001
 21
0.9253842959102372
 31
0.0
  0
LINE
  5
54D
330
18
100
AcDbEntity
  8
1
 62
     1
100
AcDbLine
 10
54.30457954156384
 20
-3.967418672506918
 30
0.0
 11
54.5
 21
-3.754089447389253
 31
0.0
  0
LINE
  5
54E
330
18
100
AcDbEntity
  8
1
 62
     1
100
AcDbLine
 10
54.5
 20
-3.754089447389253
 30
0.0
 11
54.49999999999999
 21
0.9253842959102373
 31
0.0
  0
ARC
  5
54F
330
18
100
AcDbEntity
  8
1
 62
     1
100
AcDbCircle
 10
75.65769112082887
 20
17.99941045128002
 30
0.0
 40
27.18769059561303
100
AcDbArc
 50
218.903151565889
 51
220.1322280912997
  0
LINE
  5
550
330
18
100
AcDbEntity
  8
1
 62
     1
100
AcDbLine
 10
54.5
 20
-3.754089447389253
 30
0.0
 11
54.87107941593555
 21
-4.15886135988795
 31
0.0
  0
LINE
  5
551
330
18
100
AcDbEntity
  8
1
 62
     1
100
AcDbLine
 10
55.44954982968292
 20
9.307637675549744
 30
0.0
 11
54.87107941047381
 21
9.069406246566581
 31
0.0
  0
LINE
  5
552
330
18
100
AcDbEntity
  8
1
 62
     1
100
AcDbLine
 10
55.44954982968294
 20
6.902805647820728
 30
0.0
 11
54.87107938756609
 21
6.725497996904803
 31
0.0
  0
ARC
  5
553
330
18
100
AcDbEntity
  8
1
 62
     1
100
AcDbCircle
 10
79.49495389405243
 20
-50.8947656450139
 30
0.0
 40
64.82145711623572
100
AcDbArc
 50
112.8681133571297
 51
114.8287652641324
  0
LINE
  5
554
330
18
100
AcDbEntity
  8
1
 62
     1
100
AcDbLine
 10
54.30457950847931
 20
6.551614469079333
 30
0.0
 11
52.27609076
 21
5.926548660830091
 31
0.0
  0
LINE
  5
555
330
18
100
AcDbEntity
  8
1
 62
     1
100
AcDbLine
 10
56.77886752691899
 20
0.0663341799392569
 30
0.0
 11
56.72113247308107
 21
0.0663341799392569
 31
0.0
  0
LINE
  5
556
330
18
100
AcDbEntity
  8
1
 62
     1
100
AcDbLine
 10
59.77886752691898
 20
0.0663341799392569
 30
0.0
 11
59.72113247308104
 21
0.0663341799392569
 31
0.0
  0
LINE
  5
557
330
18
100
AcDbEntity
  8
1
 62
     1
100
AcDbLine
 10
61.278867526919
 20
0.0663341799392569
 30
0.0
 11
61.22113247308103
 21
0.0663341799392569
 31
0.0
  0
LINE
  5
558
330
18
100
AcDbEntity
  8
1
 62
     1
100
AcDbLine
 10
62.77886752691899
 20
0.0663341799392569
 30
0.0
 11
62.72113247308106
 21
0.0663341799392569
 31
0.0
  0
LINE
  5
559
330
18
100
AcDbEntity
  8
1
 62
     1
100
AcDbLine
 10
65.77886752691896
 20
0.0663341799392569
 30
0.0
 11
65.72113247308103
 21
0.0663341799392569
 31
0.0
  0
LINE
  5
55A
330
18
100
AcDbEntity
  8
1
 62
     1
100
AcDbLine
 10
70.27886752691896
 20
0.0663341799392569
 30
0.0
 11
70.22113247308104
 21
0.0663341799392569
 31
0.0
  0
LINE
  5
55B
330
18
100
AcDbEntity
  8
1
 62
     1
100
AcDbLine
 10
73.27886752691896
 20
0.0663341799392569
 30
0.0
 11
73.22113247308104
 21
0.0663341799392569
 31
0.0
  0
LINE
  5
55C
330
18
100
AcDbEntity
  8
1
 62
     1
100
AcDbLine
 10
80.0
 20
5.696445383434696
 30
0.0
 11
80.0
 21
6.357851801924017
 31
0.0
  0
LINE
  5
55D
330
18
100
AcDbEntity
  8
1
 62
     1
100
AcDbLine
 10
73.27886752691896
 20
7.071312345007865
 30
0.0
 11
73.22113247308101
 21
7.071312345007865
 31
0.0
  0
LINE
  5
55E
330
18
100
AcDbEntity
  8
1
 62
     1
100
AcDbLine
 10
70.27886752691893
 20
7.071312345007865
 30
0.0
 11
70.22113247308097
 21
7.071312345007865
 31
0.0
  0
LINE
  5
55F
330
18
100
AcDbEntity
  8
1
 62
     1
100
AcDbLine
 10
65.77886752691896
 20
7.071312345007865
 30
0.0
 11
65.72113247308103
 21
7.071312345007867
 31
0.0
  0
LINE
  5
560
330
18
100
AcDbEntity
  8
1
 62
     1
100
AcDbLine
 10
62.77886752691896
 20
7.071312345007865
 30
0.0
 11
62.72113247308105
 21
7.071312345007865
 31
0.0
  0
LINE
  5
561
330
18
100
AcDbEntity
  8
1
 62
     1
100
AcDbLine
 10
61.27886752691897
 20
7.071312345007865
 30
0.0
 11
61.22113247308105
 21
7.071312345007865
 31
0.0
  0
ARC
  5
562
330
18
100
AcDbEntity
  8
1
 62
     1
100
AcDbCircle
 10
50.1990891145196
 20
-10.65042502159787
 30
0.0
 40
32.97589101773449
100
AcDbArc
 50
35.63505443002268
 51
37.22072532211858
  0
LINE
  5
563
330
18
100
AcDbEntity
  8
1
 62
     1
100
AcDbLine
 10
76.45817051375761
 20
6.894289525458993
 30
0.0
 11
77.0
 21
6.357851801924029
 31
0.0
  0
LINE
  5
564
330
18
100
AcDbEntity
  8
1
 62
     1
100
AcDbLine
 10
77.0
 20
6.357851801924011
 30
0.0
 11
77.00000000000001
 21
8.561955165786513
 31
0.0
  0
ARC
  5
565
330
18
100
AcDbEntity
  8
1
 62
     1
100
AcDbCircle
 10
102.2173437854582
 20
-9.487574340815772
 30
0.0
 40
31.01129604542804
100
AcDbArc
 50
142.9772855913265
 51
144.4064829405064
  0
LINE
  5
566
330
18
100
AcDbEntity
  8
1
 62
     1
100
AcDbLine
 10
77.0
 20
6.357851801924029
 30
0.0
 11
77.45798676250422
 21
6.811435725305284
 31
0.0
  0
LINE
  5
567
330
18
100
AcDbEntity
  8
1
 62
     1
100
AcDbLine
 10
77.45798676250423
 20
9.185333394336462
 30
0.0
 11
77.45798676250423
 21
6.811435725305277
 31
0.0
  0
ARC
  5
568
330
18
100
AcDbEntity
  8
1
 62
     1
100
AcDbCircle
 10
52.97964306214204
 20
-9.712135669131923
 30
0.0
 40
31.38842347353055
100
AcDbArc
 50
35.60491243907631
 51
36.85442556894618
  0
LINE
  5
569
330
18
100
AcDbEntity
  8
1
 62
     1
100
AcDbLine
 10
78.09547151883424
 20
9.114140560722795
 30
0.0
 11
78.09547151883426
 21
6.758580716603594
 31
0.0
  0
LINE
  5
56A
330
18
100
AcDbEntity
  8
1
 62
     1
100
AcDbLine
 10
78.09547151883424
 20
6.758580716603604
 30
0.0
 11
78.5
 21
6.357851801924029
 31
0.0
  0
LINE
  5
56B
330
18
100
AcDbEntity
  8
1
 62
     1
100
AcDbLine
 10
78.5
 20
6.357851801924011
 30
0.0
 11
78.50000000000001
 21
8.561955165786513
 31
0.0
  0
ARC
  5
56C
330
18
100
AcDbEntity
  8
1
 62
     1
100
AcDbCircle
 10
102.8593257930476
 20
-8.864873877927431
 30
0.0
 40
29.95114947030769
100
AcDbArc
 50
143.3104876123543
 51
144.4198090883715
  0
LINE
  5
56D
330
18
100
AcDbEntity
  8
1
 62
     1
100
AcDbLine
 10
78.5
 20
6.357851801924029
 30
0.0
 11
78.84193172231119
 21
6.696662327007934
 31
0.0
  0
LINE
  5
56E
330
18
100
AcDbEntity
  8
1
 62
     1
100
AcDbLine
 10
78.84193172231117
 20
9.030302162499051
 30
0.0
 11
78.8419317223112
 21
6.696662327007934
 31
0.0
  0
LINE
  5
56F
330
18
100
AcDbEntity
  8
1
 62
     1
100
AcDbLine
 10
79.73277252391088
 20
8.929538870302279
 30
0.0
 11
80.0
 21
8.561955165786511
 31
0.0
  0
LINE
  5
570
330
18
100
AcDbEntity
  8
1
 62
     1
100
AcDbLine
 10
79.7327725239109
 20
8.929538870302236
 30
0.0
 11
79.73277252391091
 21
6.622726602838386
 31
0.0
  0
LINE
  5
571
330
18
100
AcDbEntity
  8
1
 62
     1
100
AcDbLine
 10
79.73277252391088
 20
6.6227266028384
 30
0.0
 11
80.0
 21
6.357851801924029
 31
0.0
  0
ARC
  5
572
330
18
100
AcDbEntity
  8
1
 62
     1
100
AcDbCircle
 10
95.18957312981837
 20
-10.92807365063224
 30
0.0
 40
33.4534913425513
100
AcDbArc
 50
142.2975712559059
 51
144.366290280453
  0
LINE
  5
573
330
18
100
AcDbEntity
  8
1
 62
     1
100
AcDbLine
 10
68.0
 20
6.357851801924011
 30
0.0
 11
68.0
 21
8.561955165786513
 31
0.0
  0
LINE
  5
574
330
18
100
AcDbEntity
  8
1
 62
     1
100
AcDbLine
 10
68.0
 20
6.357851801924029
 30
0.0
 11
68.72113247308104
 21
7.071312345007867
 31
0.0
  0
ARC
  5
575
330
18
100
AcDbEntity
  8
1
 62
     1
100
AcDbCircle
 10
39.49129157986632
 20
-11.91079990867062
 30
0.0
 40
35.09831602973139
100
AcDbArc
 50
35.68299139874446
 51
37.65476085115409
  0
LINE
  5
576
330
18
100
AcDbEntity
  8
1
 62
     1
100
AcDbLine
 10
67.27886752691897
 20
9.530854306500611
 30
0.0
 11
67.27886752691897
 21
7.071312345007865
 31
0.0
  0
LINE
  5
577
330
18
100
AcDbEntity
  8
1
 62
     1
100
AcDbLine
 10
67.27886752691896
 20
7.071312345007877
 30
0.0
 11
68.0
 21
6.357851801924029
 31
0.0
  0
ARC
  5
578
330
18
100
AcDbEntity
  8
1
 62
     1
100
AcDbCircle
 10
93.68957312988778
 20
-10.92807365068371
 30
0.0
 40
33.45349134263772
100
AcDbArc
 50
142.2975712559088
 51
144.3662902804506
  0
LINE
  5
579
330
18
100
AcDbEntity
  8
1
 62
     1
100
AcDbLine
 10
66.5
 20
6.357851801924011
 30
0.0
 11
66.5
 21
8.561955165786513
 31
0.0
  0
LINE
  5
57A
330
18
100
AcDbEntity
  8
1
 62
     1
100
AcDbLine
 10
66.5
 20
6.357851801924029
 30
0.0
 11
67.22113247308103
 21
7.071312345007867
 31
0.0
  0
ARC
  5
57B
330
18
100
AcDbEntity
  8
1
 62
     1
100
AcDbCircle
 10
37.99129157987292
 20
-11.91079990866569
 30
0.0
 40
35.09831602972315
100
AcDbArc
 50
35.68299139874421
 51
37.65476085115429
  0
LINE
  5
57C
330
18
100
AcDbEntity
  8
1
 62
     1
100
AcDbLine
 10
65.77886752691896
 20
7.071312345007877
 30
0.0
 11
66.5
 21
6.357851801924029
 31
0.0
  0
ARC
  5
57D
330
18
100
AcDbEntity
  8
1
 62
     1
100
AcDbCircle
 10
92.18957313002645
 20
-10.9280736507857
 30
0.0
 40
33.45349134280983
100
AcDbArc
 50
142.2975712559159
 51
144.366290280447
  0
LINE
  5
57E
330
18
100
AcDbEntity
  8
1
 62
     1
100
AcDbLine
 10
65.0
 20
6.357851801924011
 30
0.0
 11
65.0
 21
8.561955165786513
 31
0.0
  0
LINE
  5
57F
330
18
100
AcDbEntity
  8
1
 62
     1
100
AcDbLine
 10
65.0
 20
6.357851801924029
 30
0.0
 11
65.72113247308104
 21
7.071312345007867
 31
0.0
  0
LINE
  5
580
330
18
100
AcDbEntity
  8
1
 62
     1
100
AcDbLine
 10
65.72113247308101
 20
9.53085430650061
 30
0.0
 11
65.72113247308103
 21
7.071312345007866
 31
0.0
  0
ARC
  5
581
330
18
100
AcDbEntity
  8
1
 62
     1
100
AcDbCircle
 10
36.49129157995969
 20
-11.91079990860081
 30
0.0
 40
35.09831602961482
100
AcDbArc
 50
35.6829913987408
 51
37.65476085115697
  0
LINE
  5
582
330
18
100
AcDbEntity
  8
1
 62
     1
100
AcDbLine
 10
64.27886752691896
 20
7.071312345007877
 30
0.0
 11
65.0
 21
6.357851801924029
 31
0.0
  0
ARC
  5
583
330
18
100
AcDbEntity
  8
1
 62
     1
100
AcDbCircle
 10
47.39524007093861
 20
-11.61178373252718
 30
0.0
 40
34.59576587793579
100
AcDbArc
 50
35.67097648233785
 51
37.55724989772505
  0
LINE
  5
584
330
18
100
AcDbEntity
  8
1
 62
     1
100
AcDbLine
 10
74.82086950868096
 20
7.029863888571231
 30
0.0
 11
75.5
 21
6.357851801924029
 31
0.0
  0
LINE
  5
585
330
18
100
AcDbEntity
  8
1
 62
     1
100
AcDbLine
 10
75.49999999999999
 20
6.357851801924011
 30
0.0
 11
75.50000000000001
 21
8.561955165786513
 31
0.0
  0
ARC
  5
586
330
18
100
AcDbEntity
  8
1
 62
     1
100
AcDbCircle
 10
100.9546238412072
 20
-10.75582490725811
 30
0.0
 40
33.16217897917038
100
AcDbArc
 50
142.3727404686689
 51
144.3716718926827
  0
LINE
  5
587
330
18
100
AcDbEntity
  8
1
 62
     1
100
AcDbLine
 10
74.0
 20
6.357851801924029
 30
0.0
 11
74.69009684289026
 21
7.040686833329071
 31
0.0
  0
ARC
  5
588
330
18
100
AcDbEntity
  8
1
 62
     1
100
AcDbCircle
 10
45.49129157987649
 20
-11.91079990866298
 30
0.0
 40
35.09831602971867
100
AcDbArc
 50
35.68299139874401
 51
37.65476085115434
  0
LINE
  5
589
330
18
100
AcDbEntity
  8
1
 62
     1
100
AcDbLine
 10
73.27886752691896
 20
9.530854306500615
 30
0.0
 11
73.27886752691896
 21
7.071312345007867
 31
0.0
  0
LINE
  5
58A
330
18
100
AcDbEntity
  8
1
 62
     1
100
AcDbLine
 10
73.27886752691896
 20
7.071312345007877
 30
0.0
 11
74.0
 21
6.357851801924029
 31
0.0
  0
LINE
  5
58B
330
18
100
AcDbEntity
  8
1
 62
     1
100
AcDbLine
 10
74.0
 20
6.357851801924011
 30
0.0
 11
73.99999999999999
 21
8.561955165786513
 31
0.0
  0
ARC
  5
58C
330
18
100
AcDbEntity
  8
1
 62
     1
100
AcDbCircle
 10
40.99129157979652
 20
-11.9107999087227
 30
0.0
 40
35.09831602981848
100
AcDbArc
 50
35.68299139874706
 51
37.65476085115177
  0
LINE
  5
58D
330
18
100
AcDbEntity
  8
1
 62
     1
100
AcDbLine
 10
68.77886752691893
 20
9.53085430650061
 30
0.0
 11
68.77886752691894
 21
7.071312345007866
 31
0.0
  0
LINE
  5
58E
330
18
100
AcDbEntity
  8
1
 62
     1
100
AcDbLine
 10
68.77886752691896
 20
7.071312345007877
 30
0.0
 11
69.5
 21
6.357851801924029
 31
0.0
  0
LINE
  5
58F
330
18
100
AcDbEntity
  8
1
 62
     1
100
AcDbLine
 10
69.5
 20
6.357851801924011
 30
0.0
 11
69.5
 21
8.561955165786513
 31
0.0
  0
ARC
  5
590
330
18
100
AcDbEntity
  8
1
 62
     1
100
AcDbCircle
 10
96.68957313003575
 20
-10.92807365079257
 30
0.0
 40
33.4534913428214
100
AcDbArc
 50
142.2975712559164
 51
144.3662902804468
  0
LINE
  5
591
330
18
100
AcDbEntity
  8
1
 62
     1
100
AcDbLine
 10
69.5
 20
6.357851801924029
 30
0.0
 11
70.22113247308104
 21
7.071312345007867
 31
0.0
  0
ARC
  5
592
330
18
100
AcDbEntity
  8
1
 62
     1
100
AcDbCircle
 10
42.4912915798174
 20
-11.91079990870767
 30
0.0
 40
35.09831602979276
100
AcDbArc
 50
35.682991398747
 51
37.65476085115317
  0
LINE
  5
593
330
18
100
AcDbEntity
  8
1
 62
     1
100
AcDbLine
 10
70.27886752691894
 20
9.53085430650061
 30
0.0
 11
70.27886752691896
 21
7.071312345007863
 31
0.0
  0
LINE
  5
594
330
18
100
AcDbEntity
  8
1
 62
     1
100
AcDbLine
 10
70.27886752691896
 20
7.071312345007877
 30
0.0
 11
71.0
 21
6.357851801924029
 31
0.0
  0
ARC
  5
595
330
18
100
AcDbEntity
  8
1
 62
     1
100
AcDbCircle
 10
98.18957312995383
 20
-10.92807365073267
 30
0.0
 40
33.45349134271992
100
AcDbArc
 50
142.2975712559116
 51
144.3662902804484
  0
LINE
  5
596
330
18
100
AcDbEntity
  8
1
 62
     1
100
AcDbLine
 10
70.99999999999999
 20
6.357851801924011
 30
0.0
 11
71.0
 21
8.561955165786513
 31
0.0
  0
LINE
  5
597
330
18
100
AcDbEntity
  8
1
 62
     1
100
AcDbLine
 10
71.0
 20
6.357851801924029
 30
0.0
 11
71.72113247308104
 21
7.071312345007867
 31
0.0
  0
ARC
  5
598
330
18
100
AcDbEntity
  8
1
 62
     1
100
AcDbCircle
 10
99.68957312989443
 20
-10.92807365068856
 30
0.0
 40
33.45349134264593
100
AcDbArc
 50
142.2975712559092
 51
144.3662902804506
  0
LINE
  5
599
330
18
100
AcDbEntity
  8
1
 62
     1
100
AcDbLine
 10
72.5
 20
6.357851801924011
 30
0.0
 11
72.5
 21
8.561955165786513
 31
0.0
  0
LINE
  5
59A
330
18
100
AcDbEntity
  8
1
 62
     1
100
AcDbLine
 10
72.5
 20
6.357851801924029
 30
0.0
 11
73.22113247308104
 21
7.071312345007867
 31
0.0
  0
ARC
  5
59B
330
18
100
AcDbEntity
  8
1
 62
     1
100
AcDbCircle
 10
43.99129157998689
 20
-11.91079990857998
 30
0.0
 40
35.09831602958056
100
AcDbArc
 50
35.68299139873909
 51
37.65476085115718
  0
LINE
  5
59C
330
18
100
AcDbEntity
  8
1
 62
     1
100
AcDbLine
 10
71.77886752691896
 20
7.071312345007877
 30
0.0
 11
72.5
 21
6.357851801924029
 31
0.0
  0
ARC
  5
59D
330
18
100
AcDbEntity
  8
1
 62
     1
100
AcDbCircle
 10
101.5820088989157
 20
-10.11758364925326
 30
0.0
 40
32.08110638543509
100
AcDbArc
 50
142.6653329661422
 51
144.3903365975267
  0
LINE
  5
59E
330
18
100
AcDbEntity
  8
1
 62
     1
100
AcDbLine
 10
75.5
 20
6.357851801924029
 30
0.0
 11
76.07404180269725
 21
6.926108445703443
 31
0.0
  0
ARC
  5
59F
330
18
100
AcDbEntity
  8
1
 62
     1
100
AcDbCircle
 10
89.18957313002706
 20
-10.92807365078694
 30
0.0
 40
33.45349134281106
100
AcDbArc
 50
142.2975712559148
 51
144.3662902804459
  0
LINE
  5
5A0
330
18
100
AcDbEntity
  8
1
 62
     1
100
AcDbLine
 10
62.0
 20
6.357851801924029
 30
0.0
 11
62.72113247308104
 21
7.071312345007869
 31
0.0
  0
ARC
  5
5A1
330
18
100
AcDbEntity
  8
1
 62
     1
100
AcDbCircle
 10
33.49129157989643
 20
-11.91079990864821
 30
0.0
 40
35.09831602969386
100
AcDbArc
 50
35.6829913987434
 51
37.6547608511551
  0
LINE
  5
5A2
330
18
100
AcDbEntity
  8
1
 62
     1
100
AcDbLine
 10
61.27886752691899
 20
7.071312345007866
 30
0.0
 11
62.0
 21
6.357851801924029
 31
0.0
  0
LINE
  5
5A3
330
18
100
AcDbEntity
  8
1
 62
     1
100
AcDbLine
 10
62.0
 20
6.357851801924011
 30
0.0
 11
62.0
 21
8.561955165786513
 31
0.0
  0
ARC
  5
5A4
330
18
100
AcDbEntity
  8
1
 62
     1
100
AcDbCircle
 10
87.6895731299465
 20
-10.9280736507274
 30
0.0
 40
33.45349134271089
100
AcDbArc
 50
142.2975712559111
 51
144.3662902804484
  0
LINE
  5
5A5
330
18
100
AcDbEntity
  8
1
 62
     1
100
AcDbLine
 10
60.5
 20
6.357851801924029
 30
0.0
 11
61.22113247308104
 21
7.071312345007869
 31
0.0
  0
ARC
  5
5A6
330
18
100
AcDbEntity
  8
1
 62
     1
100
AcDbCircle
 10
31.99129157987369
 20
-11.9107999086653
 30
0.0
 40
35.09831602972231
100
AcDbArc
 50
35.68299139874442
 51
37.65476085115452
  0
LINE
  5
5A7
330
18
100
AcDbEntity
  8
1
 62
     1
100
AcDbLine
 10
59.77886752691897
 20
7.071312345007871
 30
0.0
 11
60.5
 21
6.357851801924029
 31
0.0
  0
LINE
  5
5A8
330
18
100
AcDbEntity
  8
1
 62
     1
100
AcDbLine
 10
60.50000000000001
 20
6.357851801924011
 30
0.0
 11
60.50000000000001
 21
8.561955165786513
 31
0.0
  0
ARC
  5
5A9
330
18
100
AcDbEntity
  8
1
 62
     1
100
AcDbCircle
 10
86.18957313001005
 20
-10.92807365077394
 30
0.0
 40
33.45349134278965
100
AcDbArc
 50
142.2975712559146
 51
144.3662902804471
  0
LINE
  5
5AA
330
18
100
AcDbEntity
  8
1
 62
     1
100
AcDbLine
 10
59.00000000000001
 20
6.357851801924029
 30
0.0
 11
59.72113247308104
 21
7.071312345007869
 31
0.0
  0
ARC
  5
5AB
330
18
100
AcDbEntity
  8
1
 62
     1
100
AcDbCircle
 10
30.49129157984592
 20
-11.91079990868663
 30
0.0
 40
35.09831602975732
100
AcDbArc
 50
35.68299139874627
 51
37.65476085115441
  0
LINE
  5
5AC
330
18
100
AcDbEntity
  8
1
 62
     1
100
AcDbLine
 10
58.27886752691897
 20
7.071312345007866
 30
0.0
 11
59.00000000000001
 21
6.357851801924029
 31
0.0
  0
LINE
  5
5AD
330
18
100
AcDbEntity
  8
1
 62
     1
100
AcDbLine
 10
58.99999999999999
 20
6.357851801924011
 30
0.0
 11
59.0
 21
8.561955165786513
 31
0.0
  0
ARC
  5
5AE
330
18
100
AcDbEntity
  8
1
 62
     1
100
AcDbCircle
 10
34.99129157984618
 20
-11.91079990868544
 30
0.0
 40
35.0983160297564
100
AcDbArc
 50
35.68299139874494
 51
37.65476085115311
  0
LINE
  5
5AF
330
18
100
AcDbEntity
  8
1
 62
     1
100
AcDbLine
 10
62.77886752691898
 20
7.071312345007866
 30
0.0
 11
63.5
 21
6.357851801924029
 31
0.0
  0
LINE
  5
5B0
330
18
100
AcDbEntity
  8
1
 62
     1
100
AcDbLine
 10
63.49999999999999
 20
6.357851801924011
 30
0.0
 11
63.5
 21
8.561955165786513
 31
0.0
  0
ARC
  5
5B1
330
18
100
AcDbEntity
  8
1
 62
     1
100
AcDbCircle
 10
90.68957312998181
 20
-10.92807365075307
 30
0.0
 40
33.45349134275455
100
AcDbArc
 50
142.2975712559134
 51
144.3662902804479
  0
LINE
  5
5B2
330
18
100
AcDbEntity
  8
1
 62
     1
100
AcDbLine
 10
63.5
 20
6.357851801924029
 30
0.0
 11
64.22113247308104
 21
7.071312345007867
 31
0.0
  0
ARC
  5
5B3
330
18
100
AcDbEntity
  8
1
 62
     1
100
AcDbCircle
 10
83.18957313005144
 20
-10.92807365080492
 30
0.0
 40
33.45349134284135
100
AcDbArc
 50
142.297571255916
 51
144.3662902804452
  0
LINE
  5
5B4
330
18
100
AcDbEntity
  8
1
 62
     1
100
AcDbLine
 10
56.0
 20
6.357851801924029
 30
0.0
 11
56.72113247308106
 21
7.071312345007883
 31
0.0
  0
ARC
  5
5B5
330
18
100
AcDbEntity
  8
1
 62
     1
100
AcDbCircle
 10
29.11787131630437
 20
-10.71013687990376
 30
0.0
 40
33.07669308924142
100
AcDbArc
 50
35.63715273309779
 51
37.24269342559109
  0
LINE
  5
5B6
330
18
100
AcDbEntity
  8
1
 62
     1
100
AcDbLine
 10
55.44954982968293
 20
9.307637675549746
 30
0.0
 11
55.44954982968294
 21
6.902805647820728
 31
0.0
  0
LINE
  5
5B7
330
18
100
AcDbEntity
  8
1
 62
     1
100
AcDbLine
 10
55.44954982968292
 20
6.902805647820729
 30
0.0
 11
56.0
 21
6.357851801924029
 31
0.0
  0
LINE
  5
5B8
330
18
100
AcDbEntity
  8
1
 62
     1
100
AcDbLine
 10
55.99999999999999
 20
6.357851801924011
 30
0.0
 11
56.00000000000001
 21
8.561955165786513
 31
0.0
  0
ARC
  5
5B9
330
18
100
AcDbEntity
  8
1
 62
     1
100
AcDbCircle
 10
28.99129157987408
 20
-11.91079990866464
 30
0.0
 40
35.0983160297216
100
AcDbArc
 50
35.68299139874392
 51
37.65476085115406
  0
LINE
  5
5BA
330
18
100
AcDbEntity
  8
1
 62
     1
100
AcDbLine
 10
56.77886752691898
 20
7.071312345007866
 30
0.0
 11
57.5
 21
6.357851801924029
 31
0.0
  0
LINE
  5
5BB
330
18
100
AcDbEntity
  8
1
 62
     1
100
AcDbLine
 10
57.5
 20
6.357851801924011
 30
0.0
 11
57.5
 21
8.561955165786513
 31
0.0
  0
ARC
  5
5BC
330
18
100
AcDbEntity
  8
1
 62
     1
100
AcDbCircle
 10
84.68957312992677
 20
-10.92807365071199
 30
0.0
 40
33.45349134268587
100
AcDbArc
 50
142.2975712559114
 51
144.3662902804502
  0
LINE
  5
5BD
330
18
100
AcDbEntity
  8
1
 62
     1
100
AcDbLine
 10
57.5
 20
6.357851801924029
 30
0.0
 11
58.22113247308103
 21
7.071312345007869
 31
0.0
  0
LINE
  5
5BE
330
18
100
AcDbEntity
  8
1
 62
     1
100
AcDbLine
 10
54.30457954156384
 20
8.831910494618612
 30
0.0
 11
54.5
 21
8.561955165786511
 31
0.0
  0
LINE
  5
5BF
330
18
100
AcDbEntity
  8
1
 62
     1
100
AcDbLine
 10
54.30457954156384
 20
8.831910494618588
 30
0.0
 11
54.30457954156385
 21
6.551614435399852
 31
0.0
  0
LINE
  5
5C0
330
18
100
AcDbEntity
  8
1
 62
     1
100
AcDbLine
 10
54.30457954156384
 20
6.55161443539985
 30
0.0
 11
54.50000000000001
 21
6.357851801924029
 31
0.0
  0
LINE
  5
5C1
330
18
100
AcDbEntity
  8
1
 62
     1
100
AcDbLine
 10
54.5
 20
6.357851801924011
 30
0.0
 11
54.49999999999999
 21
8.561955165786513
 31
0.0
  0
ARC
  5
5C2
330
18
100
AcDbEntity
  8
1
 62
     1
100
AcDbCircle
 10
79.07482611550091
 20
-9.021035067669667
 30
0.0
 40
30.21727846439979
100
AcDbArc
 50
143.2247094938466
 51
144.4167390620819
  0
LINE
  5
5C3
330
18
100
AcDbEntity
  8
1
 62
     1
100
AcDbLine
 10
54.50000000000001
 20
6.357851801924029
 30
0.0
 11
54.87107941593555
 21
6.725497967982783
 31
0.0
  0
LINE
  5
5C4
330
18
100
AcDbEntity
  8
1
 62
     1
100
AcDbLine
 10
54.87107941593554
 20
9.069406241471135
 30
0.0
 11
54.87107941593554
 21
6.725497967982774
 31
0.0
  0
LINE
  5
5C5
330
18
100
AcDbEntity
  8
1
 62
     1
100
AcDbLine
 10
56.77886752691901
 20
9.530854306500629
 30
0.0
 11
56.72113247308106
 21
9.530854306500629
 31
0.0
  0
LINE
  5
5C6
330
18
100
AcDbEntity
  8
1
 62
     1
100
AcDbLine
 10
59.77886752691899
 20
9.530854306500629
 30
0.0
 11
59.72113247308104
 21
9.530854306500629
 31
0.0
  0
LINE
  5
5C7
330
18
100
AcDbEntity
  8
1
 62
     1
100
AcDbLine
 10
62.77886752691897
 20
9.530854306500629
 30
0.0
 11
62.72113247308104
 21
9.530854306500624
 31
0.0
  0
LINE
  5
5C8
330
18
100
AcDbEntity
  8
1
 62
     1
100
AcDbLine
 10
73.27886752691896
 20
9.53085430650063
 30
0.0
 11
73.22113247308101
 21
9.530854306500625
 31
0.0
  0
LINE
  5
5C9
330
18
100
AcDbEntity
  8
1
 62
     1
100
AcDbLine
 10
80.0
 20
6.357851801924017
 30
0.0
 11
79.99999999999999
 21
8.561955165786513
 31
0.0
  0
LINE
  5
5CA
330
18
100
AcDbEntity
  8
1
 62
     1
100
AcDbLine
 10
80.0
 20
5.696445383434703
 30
0.0
 11
80.0
 21
3.3473212648089
 31
0.0
  0
LINE
  5
5CB
330
18
100
AcDbEntity
  8
1
 62
     1
100
AcDbLine
 10
80.00000000000001
 20
0.9253842959102472
 30
0.0
 11
80.00000000000001
 21
3.347321264808905
 31
0.0
  0
LINE
  5
5CC
330
18
100
AcDbEntity
  8
1
 62
     1
100
AcDbLine
 10
80.00000000000001
 20
-3.754089447389254
 30
0.0
 11
79.99999999999999
 21
0.9253842959102461
 31
0.0
  0
LINE
  5
5CD
330
18
100
AcDbEntity
  8
1
 62
     1
100
AcDbLine
 10
80.0
 20
-7.990036218258568
 30
0.0
 11
80.0
 21
-3.76156035762564
 31
0.0
  0
LINE
  5
5CE
330
18
100
AcDbEntity
  8
1
 62
     1
100
AcDbLine
 10
80.0
 20
-8.7509625
 30
0.0
 11
80.0
 21
-8.750798108056626
 31
0.0
  0
LINE
  5
5CF
330
18
100
AcDbEntity
  8
1
 62
     1
100
AcDbLine
 10
80.0
 20
-8.750798108056626
 30
0.0
 11
80.0
 21
-8.70160195641499
 31
0.0
  0
LINE
  5
5D0
330
18
100
AcDbEntity
  8
1
 62
     1
100
AcDbLine
 10
80.0
 20
-8.70160195641499
 30
0.0
 11
80.0
 21
-7.990036218258573
 31
0.0
  0
LINE
  5
5D1
330
18
100
AcDbEntity
  8
1
 62
     1
100
AcDbLine
 10
79.73277252391088
 20
-8.559042681605083
 30
0.0
 11
78.84193172231122
 21
-8.715020663827097
 31
0.0
  0
LINE
  5
5D2
330
18
100
AcDbEntity
  8
1
 62
     1
100
AcDbLine
 10
78.09547151883424
 20
-8.844799513868264
 30
0.0
 11
77.4579867626934
 21
-8.955003482883566
 31
0.0
  0
LINE
  5
5D3
330
18
100
AcDbEntity
  8
1
 62
     1
100
AcDbLine
 10
76.45817051375761
 20
-9.126741503162984
 30
0.0
 11
76.07404180269725
 21
-9.192380992239615
 31
0.0
  0
LINE
  5
5D4
330
18
100
AcDbEntity
  8
1
 62
     1
100
AcDbLine
 10
74.8208695088226
 20
-9.405276301492215
 30
0.0
 11
74.69009684289027
 21
-9.427386937124428
 31
0.0
  0
LINE
  5
5D5
330
18
100
AcDbEntity
  8
1
 62
     1
100
AcDbLine
 10
73.27886752691896
 20
-9.489857528682313
 30
0.0
 11
73.22113247308104
 21
-9.489857528682318
 31
0.0
  0
LINE
  5
5D6
330
18
100
AcDbEntity
  8
1
 62
     1
100
AcDbLine
 10
71.77886752691896
 20
-9.489857528682316
 30
0.0
 11
71.72113247308103
 21
-9.489857528682316
 31
0.0
  0
LINE
  5
5D7
330
18
100
AcDbEntity
  8
1
 62
     1
100
AcDbLine
 10
70.27886752691896
 20
-9.489857528682313
 30
0.0
 11
70.22113247308103
 21
-9.489857528682313
 31
0.0
  0
LINE
  5
5D8
330
18
100
AcDbEntity
  8
1
 62
     1
100
AcDbLine
 10
68.77886752691899
 20
-9.489857528682313
 30
0.0
 11
68.72113247308108
 21
-9.489857528682318
 31
0.0
  0
LINE
  5
5D9
330
18
100
AcDbEntity
  8
1
 62
     1
100
AcDbLine
 10
67.27886752691894
 20
-9.489857528682311
 30
0.0
 11
67.22113247308106
 21
-9.489857528682316
 31
0.0
  0
LINE
  5
5DA
330
18
100
AcDbEntity
  8
1
 62
     1
100
AcDbLine
 10
65.77886752691896
 20
-9.489857528682313
 30
0.0
 11
65.721132473081
 21
-9.489857528682313
 31
0.0
  0
LINE
  5
5DB
330
18
100
AcDbEntity
  8
1
 62
     1
100
AcDbLine
 10
64.27886752691896
 20
-9.489857528682313
 30
0.0
 11
64.22113247308103
 21
-9.489857528682318
 31
0.0
  0
LINE
  5
5DC
330
18
100
AcDbEntity
  8
1
 62
     1
100
AcDbLine
 10
62.77886752691897
 20
-9.489857528682313
 30
0.0
 11
62.72113247308103
 21
-9.489857528682313
 31
0.0
  0
LINE
  5
5DD
330
18
100
AcDbEntity
  8
1
 62
     1
100
AcDbLine
 10
61.27886752691899
 20
-9.489857528682313
 30
0.0
 11
61.22113247308105
 21
-9.489857528682318
 31
0.0
  0
LINE
  5
5DE
330
18
100
AcDbEntity
  8
1
 62
     1
100
AcDbLine
 10
58.27886752691899
 20
-9.489857528682313
 30
0.0
 11
58.22113247308103
 21
-9.489857528682313
 31
0.0
  0
LINE
  5
5DF
330
18
100
AcDbEntity
  8
1
 62
     1
100
AcDbLine
 10
55.44954982968292
 20
-9.144326145824063
 30
0.0
 11
54.8710794120082
 21
-8.775552392037886
 31
0.0
  0
ARC
  5
5E0
330
18
100
AcDbEntity
  8
1
 62
     1
100
AcDbCircle
 10
85.40667227677886
 20
39.2179318000274
 30
0.0
 40
56.88190265634957
100
AcDbArc
 50
234.3769208477987
 51
236.8534281133687
  0
LINE
  5
5E1
330
18
100
AcDbEntity
  8
1
 62
     1
100
AcDbLine
 10
52.27609076
 20
1.481554460482805
 30
0.0
 11
52.27609076
 21
-3.27923233366276
 31
0.0
  0
LINE
  5
5E2
330
18
100
AcDbEntity
  8
1
 62
     1
100
AcDbLine
 10
52.27609076
 20
3.347321264808897
 30
0.0
 11
52.27609076
 21
1.481554460482814
 31
0.0
  0
LINE
  5
5E3
330
18
100
AcDbEntity
  8
1
 62
     1
100
AcDbLine
 10
52.27609076
 20
5.696445383434703
 30
0.0
 11
52.27609076
 21
3.3473212648089
 31
0.0
  0
LINE
  5
5E4
330
18
100
AcDbEntity
  8
1
 62
     1
100
AcDbLine
 10
52.27609076
 20
5.926548660830081
 30
0.0
 11
52.27609076
 21
5.696445383434705
 31
0.0
  0
LINE
  5
5E5
330
18
100
AcDbEntity
  8
1
 62
     1
100
AcDbLine
 10
52.27609076
 20
7.934666041989408
 30
0.0
 11
52.27609076
 21
5.926548660830091
 31
0.0
  0
LINE
  5
5E6
330
18
100
AcDbEntity
  8
1
 62
     1
100
AcDbLine
 10
52.27609076
 20
-7.019015029227081
 30
0.0
 11
52.27609076
 21
-8.0
 31
0.0
  0
LINE
  5
5E7
330
18
100
AcDbEntity
  8
1
 62
     1
100
AcDbLine
 10
80.0
 20
-3.754089447389253
 30
0.0
 11
80.0
 21
-3.761560357625638
 31
0.0
  0
LINE
  5
5E8
330
18
100
AcDbEntity
  8
1
 62
     1
100
AcDbLine
 10
52.27609076
 20
-3.27923233366278
 30
0.0
 11
52.27609076
 21
-3.761560357625638
 31
0.0
  0
LINE
  5
5E9
330
18
100
AcDbEntity
  8
1
 62
     1
100
AcDbLine
 10
78.84193172231119
 20
-9.343205339629097
 30
0.0
 11
79.73277252391088
 21
-9.213813849960127
 31
0.0
  0
LINE
  5
5EA
330
18
100
AcDbEntity
  8
1
 62
     1
100
AcDbLine
 10
77.45798676250422
 20
-9.544218471995423
 30
0.0
 11
78.09547151883424
 21
-9.451626055803123
 31
0.0
  0
LINE
  5
5EB
330
18
100
AcDbEntity
  8
1
 62
     1
100
AcDbLine
 10
76.07404180269722
 20
-9.74523160436176
 30
0.0
 11
76.45817051375761
 21
-9.68943826164612
 31
0.0
  0
LINE
  5
5EC
330
18
100
AcDbEntity
  8
1
 62
     1
100
AcDbLine
 10
74.69009684289027
 20
-9.946244736728087
 30
0.0
 11
74.82086950868097
 21
-9.927250467489122
 31
0.0
  0
LINE
  5
5ED
330
18
100
AcDbEntity
  8
1
 62
     1
100
AcDbLine
 10
73.22113247308101
 20
-10.0
 30
0.0
 11
73.27886752691896
 21
-10.0
 31
0.0
  0
LINE
  5
5EE
330
18
100
AcDbEntity
  8
1
 62
     1
100
AcDbLine
 10
71.72113247308101
 20
-10.0
 30
0.0
 11
71.77886752691896
 21
-10.0
 31
0.0
  0
LINE
  5
5EF
330
18
100
AcDbEntity
  8
1
 62
     1
100
AcDbLine
 10
70.22113247308103
 20
-10.0
 30
0.0
 11
70.27886752691896
 21
-10.0
 31
0.0
  0
LINE
  5
5F0
330
18
100
AcDbEntity
  8
1
 62
     1
100
AcDbLine
 10
68.72113247308104
 20
-10.0
 30
0.0
 11
68.77886752691899
 21
-10.0
 31
0.0
  0
LINE
  5
5F1
330
18
100
AcDbEntity
  8
1
 62
     1
100
AcDbLine
 10
67.22113247308103
 20
-10.0
 30
0.0
 11
67.27886752691896
 21
-10.0
 31
0.0
  0
LINE
  5
5F2
330
18
100
AcDbEntity
  8
1
 62
     1
100
AcDbLine
 10
65.72113247308101
 20
-10.0
 30
0.0
 11
65.77886752691896
 21
-10.0
 31
0.0
  0
LINE
  5
5F3
330
18
100
AcDbEntity
  8
1
 62
     1
100
AcDbLine
 10
64.22113247308103
 20
-10.0
 30
0.0
 11
64.27886752691897
 21
-10.0
 31
0.0
  0
LINE
  5
5F4
330
18
100
AcDbEntity
  8
1
 62
     1
100
AcDbLine
 10
62.72113247308104
 20
-10.0
 30
0.0
 11
62.77886752691898
 21
-10.0
 31
0.0
  0
LINE
  5
5F5
330
18
100
AcDbEntity
  8
1
 62
     1
100
AcDbLine
 10
61.22113247308105
 20
-10.0
 30
0.0
 11
61.27886752691899
 21
-10.0
 31
0.0
  0
LINE
  5
5F6
330
18
100
AcDbEntity
  8
1
 62
     1
100
AcDbLine
 10
59.72113247308105
 20
-10.0
 30
0.0
 11
59.77886752691899
 21
-9.999999999999998
 31
0.0
  0
LINE
  5
5F7
330
18
100
AcDbEntity
  8
1
 62
     1
100
AcDbLine
 10
58.22113247308106
 20
-10.0
 30
0.0
 11
58.278867526919
 21
-10.0
 31
0.0
  0
LINE
  5
5F8
330
18
100
AcDbEntity
  8
1
 62
     1
100
AcDbLine
 10
56.72113247308106
 20
-10.0
 30
0.0
 11
56.77886752691898
 21
-10.0
 31
0.0
  0
LINE
  5
5F9
330
18
100
AcDbEntity
  8
1
 62
     1
100
AcDbLine
 10
54.87107941593555
 20
-9.393690602371148
 30
0.0
 11
55.44954982968293
 21
-9.704369717497691
 31
0.0
  0
LINE
  5
5FA
330
18
100
AcDbEntity
  8
1
 62
     1
100
AcDbLine
 10
52.27609076
 20
-8.0
 30
0.0
 11
54.30457954156385
 21
-9.08944050503435
 31
0.0
  0
LINE
  5
5FB
330
18
100
AcDbEntity
  8
SK1
100
AcDbLine
 10
-44.2
 20
-6.0
 30
0.0
 11
-30.0
 21
-6.0
 31
0.0
  0
LINE
  5
5FC
330
18
100
AcDbEntity
  8
SK1
100
AcDbLine
 10
-30.0
 20
-6.000000000000001
 30
0.0
 11
-30.0
 21
-8.0
 31
0.0
  0
LINE
  5
5FD
330
18
100
AcDbEntity
  8
SK1
100
AcDbLine
 10
-44.2
 20
5.291502622129183
 30
0.0
 11
-30.0
 21
5.291502622129183
 31
0.0
  0
LINE
  5
5FE
330
18
100
AcDbEntity
  8
SK1
100
AcDbLine
 10
-44.2
 20
6.0
 30
0.0
 11
-30.0
 21
6.0
 31
0.0
  0
ARC
  5
5FF
330
18
100
AcDbEntity
  8
SK1
100
AcDbCircle
 10
-28.37461810038426
 20
-5.268278464119851
 30
0.0
 40
19.02461876913062
100
AcDbArc
 50
146.2860609758307
 51
150.9140540140714
  0
LINE
  5
600
330
18
100
AcDbEntity
  8
SK1
100
AcDbLine
 10
-44.2
 20
6.000000000000002
 30
0.0
 11
-44.2
 21
5.291502622129183
 31
0.0
  0
LINE
  5
601
330
18
100
AcDbEntity
  8
SK1
100
AcDbLine
 10
-45.0
 20
6.000000000000002
 30
0.0
 11
-44.2
 21
6.000000000000002
 31
0.0
  0
LINE
  5
602
330
18
100
AcDbEntity
  8
SK1
100
AcDbLine
 10
-30.0
 20
8.0
 30
0.0
 11
-30.0
 21
7.999581057069505
 31
0.0
  0
LINE
  5
603
330
18
100
AcDbEntity
  8
SK1
100
AcDbLine
 10
-30.0
 20
7.999581057069505
 30
0.0
 11
-30.0
 21
7.871315972465617
 31
0.0
  0
LINE
  5
604
330
18
100
AcDbEntity
  8
SK1
100
AcDbLine
 10
-30.0
 20
7.871315972465617
 30
0.0
 11
-30.0
 21
6.000000000000001
 31
0.0
  0
LINE
  5
605
330
18
100
AcDbEntity
  8
SK1
100
AcDbLine
 10
-44.2
 20
-5.291502622129179
 30
0.0
 11
-44.19999999999999
 21
-6.000000000000002
 31
0.0
  0
LINE
  5
606
330
18
100
AcDbEntity
  8
SK1
100
AcDbLine
 10
-45.0
 20
3.979949748426483
 30
0.0
 11
-45.00000000000001
 21
-3.979949748426481
 31
0.0
  0
LINE
  5
607
330
18
100
AcDbEntity
  8
SK1
100
AcDbLine
 10
-45.0
 20
6.000000000000001
 30
0.0
 11
-44.99999999999999
 21
3.979949748426481
 31
0.0
  0
LINE
  5
608
330
18
100
AcDbEntity
  8
SK1
100
AcDbLine
 10
-45.0
 20
-3.97994974842648
 30
0.0
 11
-44.99999999999999
 21
-5.999999999999999
 31
0.0
  0
ARC
  5
609
330
18
100
AcDbEntity
  8
SK1
100
AcDbCircle
 10
-28.37461810040418
 20
5.268278464108
 30
0.0
 40
19.02461876910746
100
AcDbArc
 50
209.0859459859266
 51
213.7139390241729
  0
LINE
  5
60A
330
18
100
AcDbEntity
  8
SK1
100
AcDbLine
 10
-45.0
 20
-6.0
 30
0.0
 11
-44.2
 21
-6.000000000000001
 31
0.0
  0
LINE
  5
60B
330
18
100
AcDbEntity
  8
SK1
100
AcDbLine
 10
-30.0
 20
5.291502622129259
 30
0.0
 11
-30.00000000000001
 21
-5.291502622129201
 31
0.0
  0
LINE
  5
60C
330
18
100
AcDbEntity
  8
SK1
100
AcDbLine
 10
-44.2
 20
-5.291502622129178
 30
0.0
 11
-30.0
 21
-5.291502622129178
 31
0.0
  0
LINE
  5
60D
330
18
100
AcDbEntity
  8
SK1
100
AcDbLine
 10
0.0000000000000071
 20
8.0
 30
0.0
 11
-30.0
 21
8.0
 31
0.0
  0
LINE
  5
60E
330
18
100
AcDbEntity
  8
SK1
100
AcDbLine
 10
-30.0
 20
-8.0
 30
0.0
 11
0.0000000000000027
 21
-8.0
 31
0.0
  0
DIMENSION
  5
60F
330
18
100
AcDbEntity
  8
2
100
AcDbDimension
  2
*D0
 10
95.00000000000009
 20
-9.999999999999947
 30
0.0
 11
92.60225000000014
 21
-24.47374999999995
 31
0.0
 70
    32
  1
MF20x1.5
 71
     5
 42
20.0
  3
STANDARD
100
AcDbAlignedDimension
 13
80.0
 23
10.0
 33
0.0
 14
80.0
 24
-10.0
 34
0.0
 50
90.0000000000002
100
AcDbRotatedDimension
  0
DIMENSION
  5
61D
330
18
100
AcDbEntity
  8
2
100
AcDbDimension
  2
*D1
 10
80.0
 20
75.0
 30
0.0
 11
40.0
 21
77.39075
 31
0.0
 70
    32
  1
<>
 71
     5
 42
80.0
  3
STANDARD
100
AcDbAlignedDimension
 13
0.0
 23
0.0
 33
0.0
 14
80.0
 24
0.0
 34
0.0
100
AcDbRotatedDimension
  0
DIMENSION
  5
62A
330
18
100
AcDbEntity
  8
SK2
100
AcDbDimension
  2
*D2
 10
-59.99999999995917
 20
-8.000000000153102
 30
0.0
 11
-62.39075
 21
-0.0000000001653035
 31
0.0
 70
    32
  1
%%c<>
 71
     5
 42
16.0
  3
STANDARD
100
AcDbAlignedDimension
 13
-30.0
 23
8.0
 33
0.0
 14
-30.0
 24
-8.0
 34
0.0
 50
90.0000000002924
100
AcDbRotatedDimension
  0
DIMENSION
  5
637
330
18
100
AcDbEntity
  8
2
100
AcDbDimension
  2
*D3
 10
80.0
 20
60.0
 30
0.0
 11
66.13804538
 21
62.39775
 31
0.0
 70
    32
  1
<>
 71
     5
 42
27.72390924
  3
STANDARD
100
AcDbAlignedDimension
 13
52.27609076
 23
7.85
 33
0.0
 14
80.0
 24
10.0
 34
0.0
100
AcDbRotatedDimension
  0
DIMENSION
  5
644
330
18
100
AcDbEntity
  8
SK2
100
AcDbDimension
  2
*D4
 10
80.0
 20
90.0
 30
0.0
 11
17.5
 21
92.39075
 31
0.0
 70
    32
  1
<>
 71
     5
 42
125.0
  3
STANDARD
100
AcDbAlignedDimension
 13
-45.0
 23
10.0
 33
0.0
 14
80.0
 24
10.0
 34
0.0
100
AcDbRotatedDimension
  0
ENDSEC
  0
SECTION
  2
OBJECTS
  0
DICTIONARY
  5
C
330
0
100
AcDbDictionary
281
     1
  3
ACAD_COLOR
350
387
  3
ACAD_GROUP
350
D
  3
ACAD_LAYOUT
350
301
  3
ACAD_MATERIAL
350
386
  3
ACAD_MLEADERSTYLE
350
651
  3
ACAD_MLINESTYLE
350
E
  3
ACAD_PLOTSETTINGS
350
302
  3
ACAD_PLOTSTYLENAME
350
2FF
  3
ACAD_SCALELIST
350
3A0
  3
ACAD_TABLESTYLE
350
388
  3
ACAD_VISUALSTYLE
350
3C5
  3
ACDBHEADERROUNDTRIPXREC
350
652
  3
AcDbVariableDictionary
350
357
  0
DICTIONARY
  5
387
102
{ACAD_REACTORS
330
C
102
}
330
C
100
AcDbDictionary
281
     1
  0
DICTIONARY
  5
D
102
{ACAD_REACTORS
330
C
102
}
330
C
100
AcDbDictionary
281
     1
  0
DICTIONARY
  5
301
102
{ACAD_REACTORS
330
C
102
}
330
C
100
AcDbDictionary
281
     1
  3
Layout1
350
33B
  3
Model
350
303
  0
DICTIONARY
  5
386
102
{ACAD_REACTORS
330
C
102
}
330
C
100
AcDbDictionary
281
     1
  3
ByBlock
350
3C3
  3
ByLayer
350
3C2
  3
Global
350
3C4
  0
DICTIONARY
  5
651
102
{ACAD_REACTORS
330
C
102
}
330
C
100
AcDbDictionary
281
     1
  0
DICTIONARY
  5
E
102
{ACAD_REACTORS
330
C
102
}
330
C
100
AcDbDictionary
281
     1
  3
STANDARD
350
1B
  0
DICTIONARY
  5
302
102
{ACAD_REACTORS
330
C
102
}
330
C
100
AcDbDictionary
281
     1
  0
ACDBDICTIONARYWDFLT
  5
2FF
102
{ACAD_REACTORS
330
C
102
}
330
C
100
AcDbDictionary
281
     1
  3
Normal
350
300
100
AcDbDictionaryWithDefault
340
300
  0
DICTIONARY
  5
3A0
102
{ACAD_REACTORS
330
C
102
}
330
C
100
AcDbDictionary
281
     1
  3
A0
350
3A1
  3
A1
350
3A2
  3
A2
350
3A3
  3
A3
350
3A4
  3
A4
350
3A5
  3
A5
350
3A6
  3
A6
350
3A7
  3
A7
350
3A8
  3
A8
350
3A9
  3
A9
350
3AA
  3
B0
350
3AB
  3
B1
350
3AC
  3
B2
350
3AD
  3
B3
350
3AE
  3
B4
350
3AF
  3
B5
350
3B0
  3
B6
350
3B1
  3
B7
350
3B2
  3
B8
350
3B3
  3
B9
350
3B4
  3
C0
350
3B5
  3
C1
350
3B6
  3
C2
350
3B7
  3
C3
350
3B8
  3
C4
350
3B9
  3
C5
350
3BA
  3
C6
350
3BB
  3
C7
350
3BC
  3
C8
350
3BD
  3
C9
350
3BE
  3
D0
350
3BF
  3
D1
350
3C0
  3
D2
350
3C1
  0
DICTIONARY
  5
388
102
{ACAD_REACTORS
330
C
102
}
330
C
100
AcDbDictionary
281
     1
  3
Standard
350
389
  0
DICTIONARY
  5
3C5
102
{ACAD_REACTORS
330
C
102
}
330
C
100
AcDbDictionary
281
     1
  3
2dWireframe
350
3CA
  3
3D Hidden
350
3CC
  3
3dWireframe
350
3CB
  3
Basic
350
3CD
  3
Brighten
350
3D1
  3
ColorChange
350
3D5
  3
Conceptual
350
3CF
  3
Dim
350
3D0
  3
Facepattern
350
3D4
  3
Flat
350
3C6
  3
FlatWithEdges
350
3C7
  3
Gouraud
350
3C8
  3
GouraudWithEdges
350
3C9
  3
Linepattern
350
3D3
  3
Realistic
350
3CE
  3
Thicken
350
3D2
  0
DICTIONARY
  5
652
102
{ACAD_REACTORS
330
C
102
}
330
C
100
AcDbDictionary
281
     1
  3
COLORDICT
350
653
  3
MATERIALDICT
350
654
  0
DICTIONARY
  5
357
102
{ACAD_REACTORS
330
C
102
}
330
C
100
AcDbDictionary
281
     1
  3
CANNOSCALE
350
655
  3
CTABLESTYLE
350
38D
  3
DIMASSOC
350
359
  3
HIDETEXT
350
358
  3
PROJECTNAME
350
38E
  0
LAYOUT
  5
33B
102
{ACAD_REACTORS
330
301
102
}
330
301
100
AcDbPlotSettings
  1

  2
Lexmark Optra PS2
  4

  6

 40
0.0
 41
0.0
 42
0.0
 43
0.0
 44
0.0
 45
0.0
 46
0.0
 47
0.0
 48
0.0
 49
0.0
140
0.0
141
0.0
142
1.0
143
1.0
 70
   688
 72
     0
 73
     0
 74
     5
  7
monochrome.ctb
 75
    16
147
1.0
148
0.0
149
0.0
100
AcDbLayout
  1
Layout1
 70
     1
 71
     1
 10
0.0
 20
0.0
 11
12.0
 21
9.0
 12
0.0
 22
0.0
 32
0.0
 14
0.0
 24
0.0
 34
0.0
 15
0.0
 25
0.0
 35
0.0
146
0.0
 13
0.0
 23
0.0
 33
0.0
 16
1.0
 26
0.0
 36
0.0
 17
0.0
 27
1.0
 37
0.0
 76
     0
330
338
  0
LAYOUT
  5
303
102
{ACAD_REACTORS
330
301
102
}
330
301
100
AcDbPlotSettings
  1

  2
Lexmark Optra Rx
  4
A4
  6

 40
6.805083274841307
 41
5.535083293914794
 42
6.974411010742187
 43
7.14373779296875
 44
209.9733276367186
 45
296.9259948730469
 46
0.0
 47
0.0
 48
0.0
 49
0.0
140
0.0
141
0.0
142
1.0
143
2.976565420630886
 70
 11952
 72
     1
 73
     1
 74
     0
  7
monochrome.ctb
 75
     0
147
0.335957675604539
148
204.1199660668592
149
172.3933209647495
100
AcDbLayout
  1
Model
 70
     1
 71
     0
 10
0.0
 20
0.0
 11
12.0
 21
9.0
 12
0.0
 22
0.0
 32
0.0
 14
0.0
 24
0.0
 34
0.0
 15
0.0
 25
0.0
 35
0.0
146
0.0
 13
0.0
 23
0.0
 33
0.0
 16
1.0
 26
0.0
 36
0.0
 17
0.0
 27
1.0
 37
0.0
 76
     0
330
18
331
39A
  0
MATERIAL
  5
3C3
102
{ACAD_REACTORS
330
386
102
}
102
{ACAD_XDICTIONARY
360
658
102
}
330
386
100
AcDbMaterial
  1
ByBlock
  0
MATERIAL
  5
3C2
102
{ACAD_REACTORS
330
386
102
}
102
{ACAD_XDICTIONARY
360
656
102
}
330
386
100
AcDbMaterial
  1
ByLayer
  0
MATERIAL
  5
3C4
102
{ACAD_REACTORS
330
386
102
}
102
{ACAD_XDICTIONARY
360
65A
102
}
330
386
100
AcDbMaterial
  1
Global
  0
MLINESTYLE
  5
1B
102
{ACAD_REACTORS
330
E
102
}
330
E
100
AcDbMlineStyle
  2
STANDARD
 70
     0
  3

 62
     0
 51
90.0
 52
90.0
 71
     2
 49
0.5
 62
   256
  6
BYLAYER
 49
-0.5
 62
   256
  6
BYLAYER
  0
ACDBPLACEHOLDER
  5
300
102
{ACAD_REACTORS
330
2FF
102
}
330
2FF
  0
SCALE
  5
3A1
102
{ACAD_REACTORS
330
3A0
102
}
330
3A0
100
AcDbScale
 70
     0
300
1:1
140
1.0
141
1.0
290
     1
  0
SCALE
  5
3A2
102
{ACAD_REACTORS
330
3A0
102
}
330
3A0
100
AcDbScale
 70
     0
300
1:2
140
1.0
141
2.0
290
     0
  0
SCALE
  5
3A3
102
{ACAD_REACTORS
330
3A0
102
}
330
3A0
100
AcDbScale
 70
     0
300
1:4
140
1.0
141
4.0
290
     0
  0
SCALE
  5
3A4
102
{ACAD_REACTORS
330
3A0
102
}
330
3A0
100
AcDbScale
 70
     0
300
1:5
140
1.0
141
5.0
290
     0
  0
SCALE
  5
3A5
102
{ACAD_REACTORS
330
3A0
102
}
330
3A0
100
AcDbScale
 70
     0
300
1:8
140
1.0
141
8.0
290
     0
  0
SCALE
  5
3A6
102
{ACAD_REACTORS
330
3A0
102
}
330
3A0
100
AcDbScale
 70
     0
300
1:10
140
1.0
141
10.0
290
     0
  0
SCALE
  5
3A7
102
{ACAD_REACTORS
330
3A0
102
}
330
3A0
100
AcDbScale
 70
     0
300
1:16
140
1.0
141
16.0
290
     0
  0
SCALE
  5
3A8
102
{ACAD_REACTORS
330
3A0
102
}
330
3A0
100
AcDbScale
 70
     0
300
1:20
140
1.0
141
20.0
290
     0
  0
SCALE
  5
3A9
102
{ACAD_REACTORS
330
3A0
102
}
330
3A0
100
AcDbScale
 70
     0
300
1:30
140
1.0
141
30.0
290
     0
  0
SCALE
  5
3AA
102
{ACAD_REACTORS
330
3A0
102
}
330
3A0
100
AcDbScale
 70
     0
300
1:40
140
1.0
141
40.0
290
     0
  0
SCALE
  5
3AB
102
{ACAD_REACTORS
330
3A0
102
}
330
3A0
100
AcDbScale
 70
     0
300
1:50
140
1.0
141
50.0
290
     0
  0
SCALE
  5
3AC
102
{ACAD_REACTORS
330
3A0
102
}
330
3A0
100
AcDbScale
 70
     0
300
1:100
140
1.0
141
100.0
290
     0
  0
SCALE
  5
3AD
102
{ACAD_REACTORS
330
3A0
102
}
330
3A0
100
AcDbScale
 70
     0
300
2:1
140
2.0
141
1.0
290
     0
  0
SCALE
  5
3AE
102
{ACAD_REACTORS
330
3A0
102
}
330
3A0
100
AcDbScale
 70
     0
300
4:1
140
4.0
141
1.0
290
     0
  0
SCALE
  5
3AF
102
{ACAD_REACTORS
330
3A0
102
}
330
3A0
100
AcDbScale
 70
     0
300
8:1
140
8.0
141
1.0
290
     0
  0
SCALE
  5
3B0
102
{ACAD_REACTORS
330
3A0
102
}
330
3A0
100
AcDbScale
 70
     0
300
10:1
140
10.0
141
1.0
290
     0
  0
SCALE
  5
3B1
102
{ACAD_REACTORS
330
3A0
102
}
330
3A0
100
AcDbScale
 70
     0
300
100:1
140
100.0
141
1.0
290
     0
  0
SCALE
  5
3B2
102
{ACAD_REACTORS
330
3A0
102
}
330
3A0
100
AcDbScale
 70
     0
300
1/128" = 1'-0"
140
0.0078125
141
12.0
290
     0
  0
SCALE
  5
3B3
102
{ACAD_REACTORS
330
3A0
102
}
330
3A0
100
AcDbScale
 70
     0
300
1/64" = 1'-0"
140
0.015625
141
12.0
290
     0
  0
SCALE
  5
3B4
102
{ACAD_REACTORS
330
3A0
102
}
330
3A0
100
AcDbScale
 70
     0
300
1/32" = 1'-0"
140
0.03125
141
12.0
290
     0
  0
SCALE
  5
3B5
102
{ACAD_REACTORS
330
3A0
102
}
330
3A0
100
AcDbScale
 70
     0
300
1/16" = 1'-0"
140
0.0625
141
12.0
290
     0
  0
SCALE
  5
3B6
102
{ACAD_REACTORS
330
3A0
102
}
330
3A0
100
AcDbScale
 70
     0
300
3/32" = 1'-0"
140
0.09375
141
12.0
290
     0
  0
SCALE
  5
3B7
102
{ACAD_REACTORS
330
3A0
102
}
330
3A0
100
AcDbScale
 70
     0
300
1/8" = 1'-0"
140
0.125
141
12.0
290
     0
  0
SCALE
  5
3B8
102
{ACAD_REACTORS
330
3A0
102
}
330
3A0
100
AcDbScale
 70
     0
300
3/16" = 1'-0"
140
0.1875
141
12.0
290
     0
  0
SCALE
  5
3B9
102
{ACAD_REACTORS
330
3A0
102
}
330
3A0
100
AcDbScale
 70
     0
300
1/4" = 1'-0"
140
0.25
141
12.0
290
     0
  0
SCALE
  5
3BA
102
{ACAD_REACTORS
330
3A0
102
}
330
3A0
100
AcDbScale
 70
     0
300
3/8" = 1'-0"
140
0.375
141
12.0
290
     0
  0
SCALE
  5
3BB
102
{ACAD_REACTORS
330
3A0
102
}
330
3A0
100
AcDbScale
 70
     0
300
1/2" = 1'-0"
140
0.5
141
12.0
290
     0
  0
SCALE
  5
3BC
102
{ACAD_REACTORS
330
3A0
102
}
330
3A0
100
AcDbScale
 70
     0
300
3/4" = 1'-0"
140
0.75
141
12.0
290
     0
  0
SCALE
  5
3BD
102
{ACAD_REACTORS
330
3A0
102
}
330
3A0
100
AcDbScale
 70
     0
300
1" = 1'-0"
140
1.0
141
12.0
290
     0
  0
SCALE
  5
3BE
102
{ACAD_REACTORS
330
3A0
102
}
330
3A0
100
AcDbScale
 70
     0
300
1-1/2" = 1'-0"
140
1.5
141
12.0
290
     0
  0
SCALE
  5
3BF
102
{ACAD_REACTORS
330
3A0
102
}
330
3A0
100
AcDbScale
 70
     0
300
3" = 1'-0"
140
3.0
141
12.0
290
     0
  0
SCALE
  5
3C0
102
{ACAD_REACTORS
330
3A0
102
}
330
3A0
100
AcDbScale
 70
     0
300
6" = 1'-0"
140
6.0
141
12.0
290
     0
  0
SCALE
  5
3C1
102
{ACAD_REACTORS
330
3A0
102
}
330
3A0
100
AcDbScale
 70
     0
300
1'-0" = 1'-0"
140
12.0
141
12.0
290
     0
  0
TABLESTYLE
  5
389
102
{ACAD_REACTORS
330
388
102
}
330
388
100
AcDbTableStyle
  3
Standard
 70
     0
 71
     0
 40
1.5
 41
1.5
280
     0
281
     0
  7
STANDARD
140
4.5
170
     2
 62
     0
 63
   257
283
     0
274
    -2
284
     1
 64
     0
275
    -2
285
     1
 65
     0
276
    -2
286
     1
 66
     0
277
    -2
287
     1
 67
     0
278
    -2
288
     1
 68
     0
279
    -2
289
     1
 69
     0
  7
STANDARD
140
6.0
170
     5
 62
     0
 63
   257
283
     0
274
    -2
284
     1
 64
     0
275
    -2
285
     1
 65
     0
276
    -2
286
     1
 66
     0
277
    -2
287
     1
 67
     0
278
    -2
288
     1
 68
     0
279
    -2
289
     1
 69
     0
  7
STANDARD
140
4.5
170
     5
 62
     0
 63
   257
283
     0
274
    -2
284
     1
 64
     0
275
    -2
285
     1
 65
     0
276
    -2
286
     1
 66
     0
277
    -2
287
     1
 67
     0
278
    -2
288
     1
 68
     0
279
    -2
289
     1
 69
     0
  0
VISUALSTYLE
  5
3CA
102
{ACAD_REACTORS
330
3C5
102
}
102
{ACAD_XDICTIONARY
360
664
102
}
330
3C5
100
AcDbVisualStyle
  2
2dWireframe
 70
     4
 71
     0
 72
     2
 73
     0
 90
        0
 40
-0.6
 41
-30.0
 62
     5
 63
     7
 74
     1
 91
        4
 64
     7
 65
   257
 75
     1
175
     1
 42
1.0
 92
        0
 66
   257
 43
1.0
 76
     1
 77
     6
 78
     2
 67
     7
 79
     5
170
     0
171
     0
290
     0
174
     0
 93
        1
 44
0.0
173
     0
291
     0
 45
0.0
1001
ACAD
1000
AcDbSavedByObjectVersion
1070
     0
  0
VISUALSTYLE
  5
3CC
102
{ACAD_REACTORS
330
3C5
102
}
102
{ACAD_XDICTIONARY
360
668
102
}
330
3C5
100
AcDbVisualStyle
  2
3D Hidden
 70
     6
 71
     1
 72
     2
 73
     2
 90
        0
 40
-0.6
 41
-30.0
 62
     5
 63
     7
 74
     2
 91
        2
 64
     7
 65
   257
 75
     2
175
     1
 42
40.0
 92
        0
 66
   257
 43
1.0
 76
     1
 77
     6
 78
     2
 67
     7
 79
     3
170
     0
171
     0
290
     0
174
     0
 93
        1
 44
0.0
173
     0
291
     0
 45
0.0
1001
ACAD
1000
AcDbSavedByObjectVersion
1070
     0
  0
VISUALSTYLE
  5
3CB
102
{ACAD_REACTORS
330
3C5
102
}
102
{ACAD_XDICTIONARY
360
666
102
}
330
3C5
100
AcDbVisualStyle
  2
3dWireframe
 70
     5
 71
     0
 72
     2
 73
     0
 90
        0
 40
-0.6
 41
-30.0
 62
     5
 63
     7
 74
     1
 91
        4
 64
     7
 65
   257
 75
     1
175
     1
 42
1.0
 92
        0
 66
   257
 43
1.0
 76
     1
 77
     6
 78
     2
 67
     7
 79
     5
170
     0
171
     0
290
     0
174
     0
 93
        1
 44
0.0
173
     0
291
     0
 45
0.0
1001
ACAD
1000
AcDbSavedByObjectVersion
1070
     0
  0
VISUALSTYLE
  5
3CD
102
{ACAD_REACTORS
330
3C5
102
}
102
{ACAD_XDICTIONARY
360
66A
102
}
330
3C5
100
AcDbVisualStyle
  2
Basic
 70
     7
 71
     1
 72
     0
 73
     1
 90
        0
 40
-0.6
 41
-30.0
 62
     5
 63
     7
 74
     0
 91
        4
 64
     7
 65
   257
 75
     1
175
     1
 42
1.0
 92
        8
 66
     7
 43
1.0
 76
     1
 77
     6
 78
     2
 67
     7
 79
     5
170
     0
171
     0
290
     0
174
     0
 93
        1
 44
0.0
173
     0
291
     1
 45
0.0
1001
ACAD
1000
AcDbSavedByObjectVersion
1070
     0
  0
VISUALSTYLE
  5
3D1
102
{ACAD_REACTORS
330
3C5
102
}
102
{ACAD_XDICTIONARY
360
672
102
}
330
3C5
100
AcDbVisualStyle
  2
Brighten
 70
    12
 71
     2
 72
     2
 73
     0
 90
        0
 40
-0.6
 41
-30.0
 62
     5
 63
     7
 74
     1
 91
        4
 64
     7
 65
   257
 75
     1
175
     1
 42
1.0
 92
        8
 66
     7
 43
1.0
 76
     1
 77
     6
 78
     2
 67
     7
 79
     5
170
     0
171
     0
290
     0
174
     0
 93
        1
 44
50.0
173
     0
291
     1
 45
0.0
1001
ACAD
1000
AcDbSavedByObjectVersion
1070
     0
  0
VISUALSTYLE
  5
3D5
102
{ACAD_REACTORS
330
3C5
102
}
102
{ACAD_XDICTIONARY
360
67A
102
}
330
3C5
100
AcDbVisualStyle
  2
ColorChange
 70
    16
 71
     2
 72
     2
 73
     3
 90
        0
 40
-0.6
 41
-30.0
 62
     5
 63
     8
 74
     1
 91
        4
 64
     7
 65
   257
 75
     1
175
     1
 42
1.0
 92
        8
 66
     8
 43
1.0
 76
     1
 77
     6
 78
     2
 67
     7
 79
     5
170
     0
171
     0
290
     0
174
     0
 93
        1
 44
0.0
173
     0
291
     1
 45
0.0
1001
ACAD
1000
AcDbSavedByObjectVersion
1070
     0
  0
VISUALSTYLE
  5
3CF
102
{ACAD_REACTORS
330
3C5
102
}
102
{ACAD_XDICTIONARY
360
66E
102
}
330
3C5
100
AcDbVisualStyle
  2
Conceptual
 70
     9
 71
     3
 72
     2
 73
     0
 90
        0
 40
-0.6
 41
-30.0
 62
     5
 63
     7
 74
     2
 91
        2
 64
     7
 65
   257
 75
     1
175
     1
 42
40.0
 92
        8
 66
     7
 43
1.0
 76
     1
 77
     6
 78
     2
 67
     7
 79
     3
170
     0
171
     0
290
     0
174
     0
 93
        1
 44
0.0
173
     0
291
     0
 45
0.0
1001
ACAD
1000
AcDbSavedByObjectVersion
1070
     0
  0
VISUALSTYLE
  5
3D0
102
{ACAD_REACTORS
330
3C5
102
}
102
{ACAD_XDICTIONARY
360
670
102
}
330
3C5
100
AcDbVisualStyle
  2
Dim
 70
    11
 71
     2
 72
     2
 73
     0
 90
        0
 40
-0.6
 41
-30.0
 62
     5
 63
     7
 74
     1
 91
        4
 64
     7
 65
   257
 75
     1
175
     1
 42
1.0
 92
        8
 66
     7
 43
1.0
 76
     1
 77
     6
 78
     2
 67
     7
 79
     5
170
     0
171
     0
290
     0
174
     0
 93
        1
 44
-50.0
173
     0
291
     1
 45
0.0
1001
ACAD
1000
AcDbSavedByObjectVersion
1070
     0
  0
VISUALSTYLE
  5
3D4
102
{ACAD_REACTORS
330
3C5
102
}
102
{ACAD_XDICTIONARY
360
678
102
}
330
3C5
100
AcDbVisualStyle
  2
Facepattern
 70
    15
 71
     2
 72
     2
 73
     0
 90
        0
 40
-0.6
 41
-30.0
 62
     5
 63
     7
 74
     1
 91
        4
 64
     7
 65
   257
 75
     1
175
     1
 42
1.0
 92
        8
 66
     7
 43
1.0
 76
     1
 77
     6
 78
     2
 67
     7
 79
     5
170
     0
171
     0
290
     0
174
     0
 93
        1
 44
0.0
173
     0
291
     1
 45
0.0
1001
ACAD
1000
AcDbSavedByObjectVersion
1070
     0
  0
VISUALSTYLE
  5
3C6
102
{ACAD_REACTORS
330
3C5
102
}
102
{ACAD_XDICTIONARY
360
65C
102
}
330
3C5
100
AcDbVisualStyle
  2
Flat
 70
     0
 71
     2
 72
     1
 73
     1
 90
        2
 40
-0.6
 41
30.0
 62
     5
 63
     7
 74
     0
 91
        4
 64
     7
 65
   257
 75
     1
175
     1
 42
1.0
 92
        8
 66
     7
 43
1.0
 76
     1
 77
     6
 78
     2
 67
     7
 79
     5
170
     0
171
     0
290
     0
174
     0
 93
       13
 44
0.0
173
     0
291
     1
 45
0.0
1001
ACAD
1000
AcDbSavedByObjectVersion
1070
     0
  0
VISUALSTYLE
  5
3C7
102
{ACAD_REACTORS
330
3C5
102
}
102
{ACAD_XDICTIONARY
360
65E
102
}
330
3C5
100
AcDbVisualStyle
  2
FlatWithEdges
 70
     1
 71
     2
 72
     1
 73
     1
 90
        2
 40
-0.6
 41
30.0
 62
     5
 63
     7
 74
     1
 91
        4
 64
     7
 65
   257
 75
     1
175
     1
 42
1.0
 92
        0
 66
   257
 43
1.0
 76
     1
 77
     6
 78
     2
 67
     7
 79
     5
170
     0
171
     0
290
     0
174
     0
 93
       13
 44
0.0
173
     0
291
     1
 45
0.0
1001
ACAD
1000
AcDbSavedByObjectVersion
1070
     0
  0
VISUALSTYLE
  5
3C8
102
{ACAD_REACTORS
330
3C5
102
}
102
{ACAD_XDICTIONARY
360
660
102
}
330
3C5
100
AcDbVisualStyle
  2
Gouraud
 70
     2
 71
     2
 72
     2
 73
     1
 90
        2
 40
-0.6
 41
30.0
 62
     5
 63
     7
 74
     0
 91
        4
 64
     7
 65
   257
 75
     1
175
     1
 42
1.0
 92
        0
 66
     7
 43
1.0
 76
     1
 77
     6
 78
     2
 67
     7
 79
     5
170
     0
171
     0
290
     0
174
     0
 93
       13
 44
0.0
173
     0
291
     1
 45
0.0
1001
ACAD
1000
AcDbSavedByObjectVersion
1070
     0
  0
VISUALSTYLE
  5
3C9
102
{ACAD_REACTORS
330
3C5
102
}
102
{ACAD_XDICTIONARY
360
662
102
}
330
3C5
100
AcDbVisualStyle
  2
GouraudWithEdges
 70
     3
 71
     2
 72
     2
 73
     1
 90
        2
 40
-0.6
 41
30.0
 62
     5
 63
     7
 74
     1
 91
        4
 64
     7
 65
   257
 75
     1
175
     1
 42
1.0
 92
        0
 66
   257
 43
1.0
 76
     1
 77
     6
 78
     2
 67
     7
 79
     5
170
     0
171
     0
290
     0
174
     0
 93
       13
 44
0.0
173
     0
291
     1
 45
0.0
1001
ACAD
1000
AcDbSavedByObjectVersion
1070
     0
  0
VISUALSTYLE
  5
3D3
102
{ACAD_REACTORS
330
3C5
102
}
102
{ACAD_XDICTIONARY
360
676
102
}
330
3C5
100
AcDbVisualStyle
  2
Linepattern
 70
    14
 71
     2
 72
     2
 73
     0
 90
        0
 40
-0.6
 41
-30.0
 62
     5
 63
     7
 74
     1
 91
        4
 64
     7
 65
   257
 75
     7
175
     7
 42
1.0
 92
        8
 66
     7
 43
1.0
 76
     1
 77
     6
 78
     2
 67
     7
 79
     5
170
     0
171
     0
290
     0
174
     0
 93
        1
 44
0.0
173
     0
291
     1
 45
0.0
1001
ACAD
1000
AcDbSavedByObjectVersion
1070
     0
  0
VISUALSTYLE
  5
3CE
102
{ACAD_REACTORS
330
3C5
102
}
102
{ACAD_XDICTIONARY
360
66C
102
}
330
3C5
100
AcDbVisualStyle
  2
Realistic
 70
     8
 71
     2
 72
     2
 73
     0
 90
        0
 40
-0.6
 41
-30.0
 62
     5
 63
     7
 74
     1
 91
        0
 64
     7
 65
   257
 75
     1
175
     1
 42
1.0
 92
        8
 66
     8
 43
1.0
 76
     1
 77
     6
 78
     2
 67
     7
 79
     5
170
     0
171
     0
290
     0
174
     0
 93
       13
 44
0.0
173
     0
291
     0
 45
0.0
1001
ACAD
1000
AcDbSavedByObjectVersion
1070
     0
  0
VISUALSTYLE
  5
3D2
102
{ACAD_REACTORS
330
3C5
102
}
102
{ACAD_XDICTIONARY
360
674
102
}
330
3C5
100
AcDbVisualStyle
  2
Thicken
 70
    13
 71
     2
 72
     2
 73
     0
 90
        0
 40
-0.6
 41
-30.0
 62
     5
 63
     7
 74
     1
 91
        4
 64
     7
 65
   257
 75
     1
175
     1
 42
1.0
 92
       12
 66
     7
 43
1.0
 76
     1
 77
     6
 78
     2
 67
     7
 79
     5
170
     0
171
     0
290
     0
174
     0
 93
        1
 44
0.0
173
     0
291
     1
 45
0.0
1001
ACAD
1000
AcDbSavedByObjectVersion
1070
     0
  0
XRECORD
  5
653
102
{ACAD_REACTORS
330
652
102
}
330
652
100
AcDbXrecord
280
     1
340
387
  0
XRECORD
  5
654
102
{ACAD_REACTORS
330
652
102
}
330
652
100
AcDbXrecord
280
     1
340
386
  0
DICTIONARYVAR
  5
655
102
{ACAD_REACTORS
330
357
102
}
330
357
100
DictionaryVariables
280
     0
  1
1:1
  0
DICTIONARYVAR
  5
38D
102
{ACAD_REACTORS
330
357
102
}
330
357
100
DictionaryVariables
280
     0
  1
Standard
  0
DICTIONARYVAR
  5
359
102
{ACAD_REACTORS
330
357
102
}
330
357
100
DictionaryVariables
280
     0
  1
2
  0
DICTIONARYVAR
  5
358
102
{ACAD_REACTORS
330
357
102
}
330
357
100
DictionaryVariables
280
     0
  1
1
  0
DICTIONARYVAR
  5
38E
102
{ACAD_REACTORS
330
357
102
}
330
357
100
DictionaryVariables
280
     0
  1

  0
DICTIONARY
  5
658
330
3C3
100
AcDbDictionary
280
     1
281
     1
  3
ACAD_XREC_ROUNDTRIP
360
659
  0
DICTIONARY
  5
656
330
3C2
100
AcDbDictionary
280
     1
281
     1
  3
ACAD_XREC_ROUNDTRIP
360
657
  0
DICTIONARY
  5
65A
330
3C4
100
AcDbDictionary
280
     1
281
     1
  3
ACAD_XREC_ROUNDTRIP
360
65B
  0
DICTIONARY
  5
664
330
3CA
100
AcDbDictionary
280
     1
281
     1
  3
ACAD_XREC_ROUNDTRIP
360
665
  0
DICTIONARY
  5
668
330
3CC
100
AcDbDictionary
280
     1
281
     1
  3
ACAD_XREC_ROUNDTRIP
360
669
  0
DICTIONARY
  5
666
330
3CB
100
AcDbDictionary
280
     1
281
     1
  3
ACAD_XREC_ROUNDTRIP
360
667
  0
DICTIONARY
  5
66A
330
3CD
100
AcDbDictionary
280
     1
281
     1
  3
ACAD_XREC_ROUNDTRIP
360
66B
  0
DICTIONARY
  5
672
330
3D1
100
AcDbDictionary
280
     1
281
     1
  3
ACAD_XREC_ROUNDTRIP
360
673
  0
DICTIONARY
  5
67A
330
3D5
100
AcDbDictionary
280
     1
281
     1
  3
ACAD_XREC_ROUNDTRIP
360
67B
  0
DICTIONARY
  5
66E
330
3CF
100
AcDbDictionary
280
     1
281
     1
  3
ACAD_XREC_ROUNDTRIP
360
66F
  0
DICTIONARY
  5
670
330
3D0
100
AcDbDictionary
280
     1
281
     1
  3
ACAD_XREC_ROUNDTRIP
360
671
  0
DICTIONARY
  5
678
330
3D4
100
AcDbDictionary
280
     1
281
     1
  3
ACAD_XREC_ROUNDTRIP
360
679
  0
DICTIONARY
  5
65C
330
3C6
100
AcDbDictionary
280
     1
281
     1
  3
ACAD_XREC_ROUNDTRIP
360
65D
  0
DICTIONARY
  5
65E
330
3C7
100
AcDbDictionary
280
     1
281
     1
  3
ACAD_XREC_ROUNDTRIP
360
65F
  0
DICTIONARY
  5
660
330
3C8
100
AcDbDictionary
280
     1
281
     1
  3
ACAD_XREC_ROUNDTRIP
360
661
  0
DICTIONARY
  5
662
330
3C9
100
AcDbDictionary
280
     1
281
     1
  3
ACAD_XREC_ROUNDTRIP
360
663
  0
DICTIONARY
  5
676
330
3D3
100
AcDbDictionary
280
     1
281
     1
  3
ACAD_XREC_ROUNDTRIP
360
677
  0
DICTIONARY
  5
66C
330
3CE
100
AcDbDictionary
280
     1
281
     1
  3
ACAD_XREC_ROUNDTRIP
360
66D
  0
DICTIONARY
  5
674
330
3D2
100
AcDbDictionary
280
     1
281
     1
  3
ACAD_XREC_ROUNDTRIP
360
675
  0
XRECORD
  5
659
102
{ACAD_REACTORS
330
658
102
}
330
658
100
AcDbXrecord
280
     1
102
MATERIAL
148
0.0
149
0.0
149
0.0
 93
        0
 94
      127
282
     0
 72
     1
 77
     1
171
     1
175
     1
179
     1
273
     0
  0
XRECORD
  5
657
102
{ACAD_REACTORS
330
656
102
}
330
656
100
AcDbXrecord
280
     1
102
MATERIAL
148
0.0
149
0.0
149
0.0
 93
        0
 94
      127
282
     0
 72
     1
 77
     1
171
     1
175
     1
179
     1
273
     0
  0
XRECORD
  5
65B
102
{ACAD_REACTORS
330
65A
102
}
330
65A
100
AcDbXrecord
280
     1
102
MATERIAL
148
0.0
149
0.0
149
0.0
 93
        0
 94
      127
282
     0
 72
     1
 77
     1
171
     1
175
     1
179
     1
273
     0
  0
XRECORD
  5
665
102
{ACAD_REACTORS
330
664
102
}
330
664
100
AcDbXrecord
280
     1
102
RTVSPropertyOp0
 70
     1
102
RTVSPropertyOp1
 70
     1
102
RTVSPropertyOp2
 70
     1
102
RTVSPropertyOp3
 70
     1
102
RTVSPropertyOp4
 70
     1
102
RTVSPropertyOp5
 70
     1
102
RTVSPropertyOp6
 70
     1
102
RTVSPropertyOp7
 70
     1
102
RTVSPropertyOp8
 70
     1
102
RTVSPropertyOp9
 70
     1
102
RTVSPropertyOp10
 70
     1
102
RTVSPropertyOp11
 70
     1
102
RTVSPropertyOp12
 70
     1
102
RTVSPropertyOp13
 70
     1
102
RTVSPropertyOp14
 70
     1
102
RTVSPropertyOp15
 70
     1
102
RTVSPropertyOp16
 70
     1
102
RTVSPropertyOp17
 70
     1
102
RTVSPropertyOp18
 70
     1
102
RTVSPropertyOp19
 70
     1
102
RTVSPropertyOp20
 70
     1
102
RTVSPropertyOp21
 70
     1
102
RTVSPropertyOp22
 70
     1
102
RTVSPropertyOp23
 70
     1
102
RTVSPropertyOp24
 70
     1
102
RTVSPropertyOp25
 70
     1
102
RTVSPropertyOp26
 70
     1
102
RTVSPropertyOp27
 70
     1
102
RTVSPropertyOp28
 70
     1
102
RTVSPropertyOp29
 70
     1
102
RTVSPropertyOp30
 70
     1
102
RTVSPropertyOp31
 70
     1
102
RTVSPropertyOp32
 70
     1
  0
XRECORD
  5
669
102
{ACAD_REACTORS
330
668
102
}
330
668
100
AcDbXrecord
280
     1
102
RTVSPropertyOp0
 70
     1
102
RTVSPropertyOp1
 70
     1
102
RTVSPropertyOp2
 70
     1
102
RTVSPropertyOp3
 70
     1
102
RTVSPropertyOp4
 70
     1
102
RTVSPropertyOp5
 70
     1
102
RTVSPropertyOp6
 70
     1
102
RTVSPropertyOp7
 70
     1
102
RTVSPropertyOp8
 70
     1
102
RTVSPropertyOp9
 70
     1
102
RTVSPropertyOp10
 70
     1
102
RTVSPropertyOp11
 70
     1
102
RTVSPropertyOp12
 70
     1
102
RTVSPropertyOp13
 70
     1
102
RTVSPropertyOp14
 70
     1
102
RTVSPropertyOp15
 70
     1
102
RTVSPropertyOp16
 70
     1
102
RTVSPropertyOp17
 70
     1
102
RTVSPropertyOp18
 70
     1
102
RTVSPropertyOp19
 70
     1
102
RTVSPropertyOp20
 70
     1
102
RTVSPropertyOp21
 70
     1
102
RTVSPropertyOp22
 70
     1
102
RTVSPropertyOp23
 70
     1
102
RTVSPropertyOp24
 70
     1
102
RTVSPropertyOp25
 70
     1
102
RTVSPropertyOp26
 70
     1
102
RTVSPropertyOp27
 70
     1
102
RTVSPropertyOp28
 70
     1
102
RTVSPropertyOp29
 70
     1
102
RTVSPropertyOp30
 70
     1
102
RTVSPropertyOp31
 70
     1
102
RTVSPropertyOp32
 70
     1
  0
XRECORD
  5
667
102
{ACAD_REACTORS
330
666
102
}
330
666
100
AcDbXrecord
280
     1
102
RTVSPropertyOp0
 70
     1
102
RTVSPropertyOp1
 70
     1
102
RTVSPropertyOp2
 70
     1
102
RTVSPropertyOp3
 70
     1
102
RTVSPropertyOp4
 70
     1
102
RTVSPropertyOp5
 70
     1
102
RTVSPropertyOp6
 70
     1
102
RTVSPropertyOp7
 70
     1
102
RTVSPropertyOp8
 70
     1
102
RTVSPropertyOp9
 70
     1
102
RTVSPropertyOp10
 70
     1
102
RTVSPropertyOp11
 70
     1
102
RTVSPropertyOp12
 70
     1
102
RTVSPropertyOp13
 70
     1
102
RTVSPropertyOp14
 70
     1
102
RTVSPropertyOp15
 70
     1
102
RTVSPropertyOp16
 70
     1
102
RTVSPropertyOp17
 70
     1
102
RTVSPropertyOp18
 70
     1
102
RTVSPropertyOp19
 70
     1
102
RTVSPropertyOp20
 70
     1
102
RTVSPropertyOp21
 70
     1
102
RTVSPropertyOp22
 70
     1
102
RTVSPropertyOp23
 70
     1
102
RTVSPropertyOp24
 70
     1
102
RTVSPropertyOp25
 70
     1
102
RTVSPropertyOp26
 70
     1
102
RTVSPropertyOp27
 70
     1
102
RTVSPropertyOp28
 70
     1
102
RTVSPropertyOp29
 70
     1
102
RTVSPropertyOp30
 70
     1
102
RTVSPropertyOp31
 70
     1
102
RTVSPropertyOp32
 70
     1
  0
XRECORD
  5
66B
102
{ACAD_REACTORS
330
66A
102
}
330
66A
100
AcDbXrecord
280
     1
102
RTVSPropertyOp0
 70
     1
102
RTVSPropertyOp1
 70
     1
102
RTVSPropertyOp2
 70
     1
102
RTVSPropertyOp3
 70
     1
102
RTVSPropertyOp4
 70
     1
102
RTVSPropertyOp5
 70
     1
102
RTVSPropertyOp6
 70
     1
102
RTVSPropertyOp7
 70
     1
102
RTVSPropertyOp8
 70
     1
102
RTVSPropertyOp9
 70
     1
102
RTVSPropertyOp10
 70
     1
102
RTVSPropertyOp11
 70
     1
102
RTVSPropertyOp12
 70
     1
102
RTVSPropertyOp13
 70
     1
102
RTVSPropertyOp14
 70
     1
102
RTVSPropertyOp15
 70
     1
102
RTVSPropertyOp16
 70
     1
102
RTVSPropertyOp17
 70
     1
102
RTVSPropertyOp18
 70
     1
102
RTVSPropertyOp19
 70
     1
102
RTVSPropertyOp20
 70
     1
102
RTVSPropertyOp21
 70
     1
102
RTVSPropertyOp22
 70
     1
102
RTVSPropertyOp23
 70
     1
102
RTVSPropertyOp24
 70
     1
102
RTVSPropertyOp25
 70
     1
102
RTVSPropertyOp26
 70
     1
102
RTVSPropertyOp27
 70
     1
102
RTVSPropertyOp28
 70
     1
102
RTVSPropertyOp29
 70
     1
102
RTVSPropertyOp30
 70
     1
102
RTVSPropertyOp31
 70
     1
102
RTVSPropertyOp32
 70
     1
  0
XRECORD
  5
673
102
{ACAD_REACTORS
330
672
102
}
330
672
100
AcDbXrecord
280
     1
102
RTVSPropertyOp0
 70
     1
102
RTVSPropertyOp1
 70
     1
102
RTVSPropertyOp2
 70
     1
102
RTVSPropertyOp3
 70
     1
102
RTVSPropertyOp4
 70
     1
102
RTVSPropertyOp5
 70
     1
102
RTVSPropertyOp6
 70
     1
102
RTVSPropertyOp7
 70
     1
102
RTVSPropertyOp8
 70
     1
102
RTVSPropertyOp9
 70
     1
102
RTVSPropertyOp10
 70
     1
102
RTVSPropertyOp11
 70
     1
102
RTVSPropertyOp12
 70
     1
102
RTVSPropertyOp13
 70
     1
102
RTVSPropertyOp14
 70
     1
102
RTVSPropertyOp15
 70
     1
102
RTVSPropertyOp16
 70
     1
102
RTVSPropertyOp17
 70
     1
102
RTVSPropertyOp18
 70
     1
102
RTVSPropertyOp19
 70
     1
102
RTVSPropertyOp20
 70
     1
102
RTVSPropertyOp21
 70
     1
102
RTVSPropertyOp22
 70
     1
102
RTVSPropertyOp23
 70
     1
102
RTVSPropertyOp24
 70
     1
102
RTVSPropertyOp25
 70
     1
102
RTVSPropertyOp26
 70
     1
102
RTVSPropertyOp27
 70
     1
102
RTVSPropertyOp28
 70
     1
102
RTVSPropertyOp29
 70
     1
102
RTVSPropertyOp30
 70
     1
102
RTVSPropertyOp31
 70
     1
102
RTVSPropertyOp32
 70
     1
  0
XRECORD
  5
67B
102
{ACAD_REACTORS
330
67A
102
}
330
67A
100
AcDbXrecord
280
     1
102
RTVSPropertyOp0
 70
     1
102
RTVSPropertyOp1
 70
     1
102
RTVSPropertyOp2
 70
     1
102
RTVSPropertyOp3
 70
     1
102
RTVSPropertyOp4
 70
     1
102
RTVSPropertyOp5
 70
     1
102
RTVSPropertyOp6
 70
     1
102
RTVSPropertyOp7
 70
     1
102
RTVSPropertyOp8
 70
     1
102
RTVSPropertyOp9
 70
     1
102
RTVSPropertyOp10
 70
     1
102
RTVSPropertyOp11
 70
     1
102
RTVSPropertyOp12
 70
     1
102
RTVSPropertyOp13
 70
     1
102
RTVSPropertyOp14
 70
     1
102
RTVSPropertyOp15
 70
     1
102
RTVSPropertyOp16
 70
     1
102
RTVSPropertyOp17
 70
     1
102
RTVSPropertyOp18
 70
     1
102
RTVSPropertyOp19
 70
     1
102
RTVSPropertyOp20
 70
     1
102
RTVSPropertyOp21
 70
     1
102
RTVSPropertyOp22
 70
     1
102
RTVSPropertyOp23
 70
     1
102
RTVSPropertyOp24
 70
     1
102
RTVSPropertyOp25
 70
     1
102
RTVSPropertyOp26
 70
     1
102
RTVSPropertyOp27
 70
     1
102
RTVSPropertyOp28
 70
     1
102
RTVSPropertyOp29
 70
     1
102
RTVSPropertyOp30
 70
     1
102
RTVSPropertyOp31
 70
     1
102
RTVSPropertyOp32
 70
     1
  0
XRECORD
  5
66F
102
{ACAD_REACTORS
330
66E
102
}
330
66E
100
AcDbXrecord
280
     1
102
RTVSPropertyOp0
 70
     1
102
RTVSPropertyOp1
 70
     1
102
RTVSPropertyOp2
 70
     1
102
RTVSPropertyOp3
 70
     1
102
RTVSPropertyOp4
 70
     1
102
RTVSPropertyOp5
 70
     1
102
RTVSPropertyOp6
 70
     1
102
RTVSPropertyOp7
 70
     1
102
RTVSPropertyOp8
 70
     1
102
RTVSPropertyOp9
 70
     1
102
RTVSPropertyOp10
 70
     1
102
RTVSPropertyOp11
 70
     1
102
RTVSPropertyOp12
 70
     1
102
RTVSPropertyOp13
 70
     1
102
RTVSPropertyOp14
 70
     1
102
RTVSPropertyOp15
 70
     1
102
RTVSPropertyOp16
 70
     1
102
RTVSPropertyOp17
 70
     1
102
RTVSPropertyOp18
 70
     1
102
RTVSPropertyOp19
 70
     1
102
RTVSPropertyOp20
 70
     1
102
RTVSPropertyOp21
 70
     1
102
RTVSPropertyOp22
 70
     1
102
RTVSPropertyOp23
 70
     1
102
RTVSPropertyOp24
 70
     1
102
RTVSPropertyOp25
 70
     1
102
RTVSPropertyOp26
 70
     1
102
RTVSPropertyOp27
 70
     1
102
RTVSPropertyOp28
 70
     1
102
RTVSPropertyOp29
 70
     1
102
RTVSPropertyOp30
 70
     1
102
RTVSPropertyOp31
 70
     1
102
RTVSPropertyOp32
 70
     1
  0
XRECORD
  5
671
102
{ACAD_REACTORS
330
670
102
}
330
670
100
AcDbXrecord
280
     1
102
RTVSPropertyOp0
 70
     1
102
RTVSPropertyOp1
 70
     1
102
RTVSPropertyOp2
 70
     1
102
RTVSPropertyOp3
 70
     1
102
RTVSPropertyOp4
 70
     1
102
RTVSPropertyOp5
 70
     1
102
RTVSPropertyOp6
 70
     1
102
RTVSPropertyOp7
 70
     1
102
RTVSPropertyOp8
 70
     1
102
RTVSPropertyOp9
 70
     1
102
RTVSPropertyOp10
 70
     1
102
RTVSPropertyOp11
 70
     1
102
RTVSPropertyOp12
 70
     1
102
RTVSPropertyOp13
 70
     1
102
RTVSPropertyOp14
 70
     1
102
RTVSPropertyOp15
 70
     1
102
RTVSPropertyOp16
 70
     1
102
RTVSPropertyOp17
 70
     1
102
RTVSPropertyOp18
 70
     1
102
RTVSPropertyOp19
 70
     1
102
RTVSPropertyOp20
 70
     1
102
RTVSPropertyOp21
 70
     1
102
RTVSPropertyOp22
 70
     1
102
RTVSPropertyOp23
 70
     1
102
RTVSPropertyOp24
 70
     1
102
RTVSPropertyOp25
 70
     1
102
RTVSPropertyOp26
 70
     1
102
RTVSPropertyOp27
 70
     1
102
RTVSPropertyOp28
 70
     1
102
RTVSPropertyOp29
 70
     1
102
RTVSPropertyOp30
 70
     1
102
RTVSPropertyOp31
 70
     1
102
RTVSPropertyOp32
 70
     1
  0
XRECORD
  5
679
102
{ACAD_REACTORS
330
678
102
}
330
678
100
AcDbXrecord
280
     1
102
RTVSPropertyOp0
 70
     1
102
RTVSPropertyOp1
 70
     1
102
RTVSPropertyOp2
 70
     1
102
RTVSPropertyOp3
 70
     1
102
RTVSPropertyOp4
 70
     1
102
RTVSPropertyOp5
 70
     1
102
RTVSPropertyOp6
 70
     1
102
RTVSPropertyOp7
 70
     1
102
RTVSPropertyOp8
 70
     1
102
RTVSPropertyOp9
 70
     1
102
RTVSPropertyOp10
 70
     1
102
RTVSPropertyOp11
 70
     1
102
RTVSPropertyOp12
 70
     1
102
RTVSPropertyOp13
 70
     1
102
RTVSPropertyOp14
 70
     1
102
RTVSPropertyOp15
 70
     1
102
RTVSPropertyOp16
 70
     1
102
RTVSPropertyOp17
 70
     1
102
RTVSPropertyOp18
 70
     1
102
RTVSPropertyOp19
 70
     1
102
RTVSPropertyOp20
 70
     1
102
RTVSPropertyOp21
 70
     1
102
RTVSPropertyOp22
 70
     1
102
RTVSPropertyOp23
 70
     1
102
RTVSPropertyOp24
 70
     1
102
RTVSPropertyOp25
 70
     1
102
RTVSPropertyOp26
 70
     1
102
RTVSPropertyOp27
 70
     1
102
RTVSPropertyOp28
 70
     1
102
RTVSPropertyOp29
 70
     1
102
RTVSPropertyOp30
 70
     1
102
RTVSPropertyOp31
 70
     1
102
RTVSPropertyOp32
 70
     1
  0
XRECORD
  5
65D
102
{ACAD_REACTORS
330
65C
102
}
330
65C
100
AcDbXrecord
280
     1
102
RTVSPropertyOp0
 70
     1
102
RTVSPropertyOp1
 70
     1
102
RTVSPropertyOp2
 70
     1
102
RTVSPropertyOp3
 70
     1
102
RTVSPropertyOp4
 70
     1
102
RTVSPropertyOp5
 70
     1
102
RTVSPropertyOp6
 70
     1
102
RTVSPropertyOp7
 70
     1
102
RTVSPropertyOp8
 70
     1
102
RTVSPropertyOp9
 70
     1
102
RTVSPropertyOp10
 70
     1
102
RTVSPropertyOp11
 70
     1
102
RTVSPropertyOp12
 70
     1
102
RTVSPropertyOp13
 70
     1
102
RTVSPropertyOp14
 70
     1
102
RTVSPropertyOp15
 70
     1
102
RTVSPropertyOp16
 70
     1
102
RTVSPropertyOp17
 70
     1
102
RTVSPropertyOp18
 70
     1
102
RTVSPropertyOp19
 70
     1
102
RTVSPropertyOp20
 70
     1
102
RTVSPropertyOp21
 70
     1
102
RTVSPropertyOp22
 70
     1
102
RTVSPropertyOp23
 70
     1
102
RTVSPropertyOp24
 70
     1
102
RTVSPropertyOp25
 70
     1
102
RTVSPropertyOp26
 70
     1
102
RTVSPropertyOp27
 70
     1
102
RTVSPropertyOp28
 70
     1
102
RTVSPropertyOp29
 70
     1
102
RTVSPropertyOp30
 70
     1
102
RTVSPropertyOp31
 70
     1
102
RTVSPropertyOp32
 70
     1
  0
XRECORD
  5
65F
102
{ACAD_REACTORS
330
65E
102
}
330
65E
100
AcDbXrecord
280
     1
102
RTVSPropertyOp0
 70
     1
102
RTVSPropertyOp1
 70
     1
102
RTVSPropertyOp2
 70
     1
102
RTVSPropertyOp3
 70
     1
102
RTVSPropertyOp4
 70
     1
102
RTVSPropertyOp5
 70
     1
102
RTVSPropertyOp6
 70
     1
102
RTVSPropertyOp7
 70
     1
102
RTVSPropertyOp8
 70
     1
102
RTVSPropertyOp9
 70
     1
102
RTVSPropertyOp10
 70
     1
102
RTVSPropertyOp11
 70
     1
102
RTVSPropertyOp12
 70
     1
102
RTVSPropertyOp13
 70
     1
102
RTVSPropertyOp14
 70
     1
102
RTVSPropertyOp15
 70
     1
102
RTVSPropertyOp16
 70
     1
102
RTVSPropertyOp17
 70
     1
102
RTVSPropertyOp18
 70
     1
102
RTVSPropertyOp19
 70
     1
102
RTVSPropertyOp20
 70
     1
102
RTVSPropertyOp21
 70
     1
102
RTVSPropertyOp22
 70
     1
102
RTVSPropertyOp23
 70
     1
102
RTVSPropertyOp24
 70
     1
102
RTVSPropertyOp25
 70
     1
102
RTVSPropertyOp26
 70
     1
102
RTVSPropertyOp27
 70
     1
102
RTVSPropertyOp28
 70
     1
102
RTVSPropertyOp29
 70
     1
102
RTVSPropertyOp30
 70
     1
102
RTVSPropertyOp31
 70
     1
102
RTVSPropertyOp32
 70
     1
  0
XRECORD
  5
661
102
{ACAD_REACTORS
330
660
102
}
330
660
100
AcDbXrecord
280
     1
102
RTVSPropertyOp0
 70
     1
102
RTVSPropertyOp1
 70
     1
102
RTVSPropertyOp2
 70
     1
102
RTVSPropertyOp3
 70
     1
102
RTVSPropertyOp4
 70
     1
102
RTVSPropertyOp5
 70
     1
102
RTVSPropertyOp6
 70
     1
102
RTVSPropertyOp7
 70
     1
102
RTVSPropertyOp8
 70
     1
102
RTVSPropertyOp9
 70
     1
102
RTVSPropertyOp10
 70
     1
102
RTVSPropertyOp11
 70
     1
102
RTVSPropertyOp12
 70
     1
102
RTVSPropertyOp13
 70
     1
102
RTVSPropertyOp14
 70
     1
102
RTVSPropertyOp15
 70
     1
102
RTVSPropertyOp16
 70
     1
102
RTVSPropertyOp17
 70
     1
102
RTVSPropertyOp18
 70
     1
102
RTVSPropertyOp19
 70
     1
102
RTVSPropertyOp20
 70
     1
102
RTVSPropertyOp21
 70
     1
102
RTVSPropertyOp22
 70
     1
102
RTVSPropertyOp23
 70
     1
102
RTVSPropertyOp24
 70
     1
102
RTVSPropertyOp25
 70
     1
102
RTVSPropertyOp26
 70
     1
102
RTVSPropertyOp27
 70
     1
102
RTVSPropertyOp28
 70
     1
102
RTVSPropertyOp29
 70
     1
102
RTVSPropertyOp30
 70
     1
102
RTVSPropertyOp31
 70
     1
102
RTVSPropertyOp32
 70
     1
  0
XRECORD
  5
663
102
{ACAD_REACTORS
330
662
102
}
330
662
100
AcDbXrecord
280
     1
102
RTVSPropertyOp0
 70
     1
102
RTVSPropertyOp1
 70
     1
102
RTVSPropertyOp2
 70
     1
102
RTVSPropertyOp3
 70
     1
102
RTVSPropertyOp4
 70
     1
102
RTVSPropertyOp5
 70
     1
102
RTVSPropertyOp6
 70
     1
102
RTVSPropertyOp7
 70
     1
102
RTVSPropertyOp8
 70
     1
102
RTVSPropertyOp9
 70
     1
102
RTVSPropertyOp10
 70
     1
102
RTVSPropertyOp11
 70
     1
102
RTVSPropertyOp12
 70
     1
102
RTVSPropertyOp13
 70
     1
102
RTVSPropertyOp14
 70
     1
102
RTVSPropertyOp15
 70
     1
102
RTVSPropertyOp16
 70
     1
102
RTVSPropertyOp17
 70
     1
102
RTVSPropertyOp18
 70
     1
102
RTVSPropertyOp19
 70
     1
102
RTVSPropertyOp20
 70
     1
102
RTVSPropertyOp21
 70
     1
102
RTVSPropertyOp22
 70
     1
102
RTVSPropertyOp23
 70
     1
102
RTVSPropertyOp24
 70
     1
102
RTVSPropertyOp25
 70
     1
102
RTVSPropertyOp26
 70
     1
102
RTVSPropertyOp27
 70
     1
102
RTVSPropertyOp28
 70
     1
102
RTVSPropertyOp29
 70
     1
102
RTVSPropertyOp30
 70
     1
102
RTVSPropertyOp31
 70
     1
102
RTVSPropertyOp32
 70
     1
  0
XRECORD
  5
677
102
{ACAD_REACTORS
330
676
102
}
330
676
100
AcDbXrecord
280
     1
102
RTVSPropertyOp0
 70
     1
102
RTVSPropertyOp1
 70
     1
102
RTVSPropertyOp2
 70
     1
102
RTVSPropertyOp3
 70
     1
102
RTVSPropertyOp4
 70
     1
102
RTVSPropertyOp5
 70
     1
102
RTVSPropertyOp6
 70
     1
102
RTVSPropertyOp7
 70
     1
102
RTVSPropertyOp8
 70
     1
102
RTVSPropertyOp9
 70
     1
102
RTVSPropertyOp10
 70
     1
102
RTVSPropertyOp11
 70
     1
102
RTVSPropertyOp12
 70
     1
102
RTVSPropertyOp13
 70
     1
102
RTVSPropertyOp14
 70
     1
102
RTVSPropertyOp15
 70
     1
102
RTVSPropertyOp16
 70
     1
102
RTVSPropertyOp17
 70
     1
102
RTVSPropertyOp18
 70
     1
102
RTVSPropertyOp19
 70
     1
102
RTVSPropertyOp20
 70
     1
102
RTVSPropertyOp21
 70
     1
102
RTVSPropertyOp22
 70
     1
102
RTVSPropertyOp23
 70
     1
102
RTVSPropertyOp24
 70
     1
102
RTVSPropertyOp25
 70
     1
102
RTVSPropertyOp26
 70
     1
102
RTVSPropertyOp27
 70
     1
102
RTVSPropertyOp28
 70
     1
102
RTVSPropertyOp29
 70
     1
102
RTVSPropertyOp30
 70
     1
102
RTVSPropertyOp31
 70
     1
102
RTVSPropertyOp32
 70
     1
  0
XRECORD
  5
66D
102
{ACAD_REACTORS
330
66C
102
}
330
66C
100
AcDbXrecord
280
     1
102
RTVSPropertyOp0
 70
     1
102
RTVSPropertyOp1
 70
     1
102
RTVSPropertyOp2
 70
     1
102
RTVSPropertyOp3
 70
     1
102
RTVSPropertyOp4
 70
     1
102
RTVSPropertyOp5
 70
     1
102
RTVSPropertyOp6
 70
     1
102
RTVSPropertyOp7
 70
     1
102
RTVSPropertyOp8
 70
     1
102
RTVSPropertyOp9
 70
     1
102
RTVSPropertyOp10
 70
     1
102
RTVSPropertyOp11
 70
     1
102
RTVSPropertyOp12
 70
     1
102
RTVSPropertyOp13
 70
     1
102
RTVSPropertyOp14
 70
     1
102
RTVSPropertyOp15
 70
     1
102
RTVSPropertyOp16
 70
     1
102
RTVSPropertyOp17
 70
     1
102
RTVSPropertyOp18
 70
     1
102
RTVSPropertyOp19
 70
     1
102
RTVSPropertyOp20
 70
     1
102
RTVSPropertyOp21
 70
     1
102
RTVSPropertyOp22
 70
     1
102
RTVSPropertyOp23
 70
     1
102
RTVSPropertyOp24
 70
     1
102
RTVSPropertyOp25
 70
     1
102
RTVSPropertyOp26
 70
     1
102
RTVSPropertyOp27
 70
     1
102
RTVSPropertyOp28
 70
     1
102
RTVSPropertyOp29
 70
     1
102
RTVSPropertyOp30
 70
     1
102
RTVSPropertyOp31
 70
     1
102
RTVSPropertyOp32
 70
     1
  0
XRECORD
  5
675
102
{ACAD_REACTORS
330
674
102
}
330
674
100
AcDbXrecord
280
     1
102
RTVSPropertyOp0
 70
     1
102
RTVSPropertyOp1
 70
     1
102
RTVSPropertyOp2
 70
     1
102
RTVSPropertyOp3
 70
     1
102
RTVSPropertyOp4
 70
     1
102
RTVSPropertyOp5
 70
     1
102
RTVSPropertyOp6
 70
     1
102
RTVSPropertyOp7
 70
     1
102
RTVSPropertyOp8
 70
     1
102
RTVSPropertyOp9
 70
     1
102
RTVSPropertyOp10
 70
     1
102
RTVSPropertyOp11
 70
     1
102
RTVSPropertyOp12
 70
     1
102
RTVSPropertyOp13
 70
     1
102
RTVSPropertyOp14
 70
     1
102
RTVSPropertyOp15
 70
     1
102
RTVSPropertyOp16
 70
     1
102
RTVSPropertyOp17
 70
     1
102
RTVSPropertyOp18
 70
     1
102
RTVSPropertyOp19
 70
     1
102
RTVSPropertyOp20
 70
     1
102
RTVSPropertyOp21
 70
     1
102
RTVSPropertyOp22
 70
     1
102
RTVSPropertyOp23
 70
     1
102
RTVSPropertyOp24
 70
     1
102
RTVSPropertyOp25
 70
     1
102
RTVSPropertyOp26
 70
     1
102
RTVSPropertyOp27
 70
     1
102
RTVSPropertyOp28
 70
     1
102
RTVSPropertyOp29
 70
     1
102
RTVSPropertyOp30
 70
     1
102
RTVSPropertyOp31
 70
     1
102
RTVSPropertyOp32
 70
     1
  0
ENDSEC
  0
EOF
