  0
SECTION
  2
HEADER
  9
$ACADVER
  1
AC1015
  9
$ACADMAINTVER
 70
     6
  9
$DWGCODEPAGE
  3
ANSI_1252
  9
$INSBASE
 10
0.0
 20
0.0
 30
0.0
  9
$EXTMIN
 10
1.000000000000000E+20
 20
1.000000000000000E+20
 30
1.000000000000000E+20
  9
$EXTMAX
 10
-1.000000000000000E+20
 20
-1.000000000000000E+20
 30
-1.000000000000000E+20
  9
$LIMMIN
 10
-170.0
 20
-170.0
  9
$LIMMAX
 10
519.0
 20
260.0
  9
$ORTHOMODE
 70
     0
  9
$REGENMODE
 70
     1
  9
$FILLMODE
 70
     1
  9
$QTEXTMODE
 70
     0
  9
$MIRRTEXT
 70
     0
  9
$LTSCALE
 40
1.0
  9
$ATTMODE
 70
     1
  9
$TEXTSIZE
 40
3.5
  9
$TRACEWID
 40
1.0
  9
$TEXTSTYLE
  7
SIMPLEX
  9
$CLAYER
  8
1
  9
$CELTYPE
  6
BYLAYER
  9
$CECOLOR
 62
   256
  9
$CELTSCALE
 40
1.0
  9
$DISPSILH
 70
     0
  9
$DIMSCALE
 40
1.0
  9
$DIMASZ
 40
2.5
  9
$DIMEXO
 40
0.0
  9
$DIMDLI
 40
3.75
  9
$DIMRND
 40
0.0
  9
$DIMDLE
 40
0.0
  9
$DIMEXE
 40
1.25
  9
$DIMTP
 40
0.0
  9
$DIMTM
 40
0.0
  9
$DIMTXT
 40
3.5
  9
$DIMCEN
 40
0.0
  9
$DIMTSZ
 40
0.0
  9
$DIMTOL
 70
     0
  9
$DIMLIM
 70
     0
  9
$DIMTIH
 70
     0
  9
$DIMTOH
 70
     0
  9
$DIMSE1
 70
     0
  9
$DIMSE2
 70
     0
  9
$DIMTAD
 70
     1
  9
$DIMZIN
 70
     8
  9
$DIMBLK
  1

  9
$DIMASO
 70
     1
  9
$DIMSHO
 70
     1
  9
$DIMPOST
  1

  9
$DIMAPOST
  1

  9
$DIMALT
 70
     0
  9
$DIMALTD
 70
     3
  9
$DIMALTF
 40
0.039370078
  9
$DIMLFAC
 40
1.0
  9
$DIMTOFL
 70
     0
  9
$DIMTVP
 40
0.0
  9
$DIMTIX
 70
     0
  9
$DIMSOXD
 70
     0
  9
$DIMSAH
 70
     0
  9
$DIMBLK1
  1

  9
$DIMBLK2
  1

  9
$DIMSTYLE
  2
STANDARD
  9
$DIMCLRD
 70
     0
  9
$DIMCLRE
 70
     0
  9
$DIMCLRT
 70
     0
  9
$DIMTFAC
 40
1.0
  9
$DIMGAP
 40
0.625
  9
$DIMJUST
 70
     0
  9
$DIMSD1
 70
     0
  9
$DIMSD2
 70
     0
  9
$DIMTOLJ
 70
     0
  9
$DIMTZIN
 70
     8
  9
$DIMALTZ
 70
     0
  9
$DIMALTTZ
 70
     0
  9
$DIMUPT
 70
     0
  9
$DIMDEC
 70
     2
  9
$DIMTDEC
 70
     2
  9
$DIMALTU
 70
     2
  9
$DIMALTTD
 70
     3
  9
$DIMTXSTY
  7
SIMPLEX
  9
$DIMAUNIT
 70
     0
  9
$DIMADEC
 70
     2
  9
$DIMALTRND
 40
0.0
  9
$DIMAZIN
 70
     2
  9
$DIMDSEP
 70
    46
  9
$DIMATFIT
 70
     3
  9
$DIMFRAC
 70
     0
  9
$DIMLDRBLK
  1

  9
$DIMLUNIT
 70
     2
  9
$DIMLWD
 70
    -2
  9
$DIMLWE
 70
    -2
  9
$DIMTMOVE
 70
     0
  9
$LUNITS
 70
     2
  9
$LUPREC
 70
     4
  9
$SKETCHINC
 40
1.0
  9
$FILLETRAD
 40
0.0
  9
$AUNITS
 70
     0
  9
$AUPREC
 70
     0
  9
$MENU
  1
c:\tdm21\cad\caduti13\tdm13
  9
$ELEVATION
 40
0.0
  9
$PELEVATION
 40
0.0
  9
$THICKNESS
 40
0.0
  9
$LIMCHECK
 70
     0
  9
$CHAMFERA
 40
0.0
  9
$CHAMFERB
 40
0.0
  9
$CHAMFERC
 40
0.0
  9
$CHAMFERD
 40
0.0
  9
$SKPOLY
 70
     0
  9
$TDCREATE
 40
2454957.593642639
  9
$TDUCREATE
 40
2454957.510309306
  9
$TDUPDATE
 40
2456860.656207604
  9
$TDUUPDATE
 40
2456860.572874271
  9
$TDINDWG
 40
0.0009643519
  9
$TDUSRTIMER
 40
0.0009475231
  9
$USRTIMER
 70
     1
  9
$ANGBASE
 50
0.0
  9
$ANGDIR
 70
     0
  9
$PDMODE
 70
     1
  9
$PDSIZE
 40
0.0
  9
$PLINEWID
 40
0.0
  9
$SPLFRAME
 70
     0
  9
$SPLINETYPE
 70
     6
  9
$SPLINESEGS
 70
     8
  9
$HANDSEED
  5
688
  9
$SURFTAB1
 70
     6
  9
$SURFTAB2
 70
     6
  9
$SURFTYPE
 70
     6
  9
$SURFU
 70
     6
  9
$SURFV
 70
     6
  9
$UCSBASE
  2

  9
$UCSNAME
  2

  9
$UCSORG
 10
0.0
 20
0.0
 30
0.0
  9
$UCSXDIR
 10
1.0
 20
0.0
 30
0.0
  9
$UCSYDIR
 10
0.0
 20
1.0
 30
0.0
  9
$UCSORTHOREF
  2

  9
$UCSORTHOVIEW
 70
     0
  9
$UCSORGTOP
 10
0.0
 20
0.0
 30
0.0
  9
$UCSORGBOTTOM
 10
0.0
 20
0.0
 30
0.0
  9
$UCSORGLEFT
 10
0.0
 20
0.0
 30
0.0
  9
$UCSORGRIGHT
 10
0.0
 20
0.0
 30
0.0
  9
$UCSORGFRONT
 10
0.0
 20
0.0
 30
0.0
  9
$UCSORGBACK
 10
0.0
 20
0.0
 30
0.0
  9
$PUCSBASE
  2

  9
$PUCSNAME
  2

  9
$PUCSORG
 10
0.0
 20
0.0
 30
0.0
  9
$PUCSXDIR
 10
1.0
 20
0.0
 30
0.0
  9
$PUCSYDIR
 10
0.0
 20
1.0
 30
0.0
  9
$PUCSORTHOREF
  2

  9
$PUCSORTHOVIEW
 70
     0
  9
$PUCSORGTOP
 10
0.0
 20
0.0
 30
0.0
  9
$PUCSORGBOTTOM
 10
0.0
 20
0.0
 30
0.0
  9
$PUCSORGLEFT
 10
0.0
 20
0.0
 30
0.0
  9
$PUCSORGRIGHT
 10
0.0
 20
0.0
 30
0.0
  9
$PUCSORGFRONT
 10
0.0
 20
0.0
 30
0.0
  9
$PUCSORGBACK
 10
0.0
 20
0.0
 30
0.0
  9
$USERI1
 70
     0
  9
$USERI2
 70
     0
  9
$USERI3
 70
     0
  9
$USERI4
 70
     0
  9
$USERI5
 70
     0
  9
$USERR1
 40
0.0
  9
$USERR2
 40
0.0
  9
$USERR3
 40
0.0
  9
$USERR4
 40
0.0
  9
$USERR5
 40
0.0
  9
$WORLDVIEW
 70
     1
  9
$SHADEDGE
 70
     3
  9
$SHADEDIF
 70
    70
  9
$TILEMODE
 70
     1
  9
$MAXACTVP
 70
    64
  9
$PINSBASE
 10
0.0
 20
0.0
 30
0.0
  9
$PLIMCHECK
 70
     0
  9
$PEXTMIN
 10
0.0
 20
0.0
 30
0.0
  9
$PEXTMAX
 10
0.0
 20
0.0
 30
0.0
  9
$PLIMMIN
 10
0.0
 20
0.0
  9
$PLIMMAX
 10
12.0
 20
9.0
  9
$UNITMODE
 70
     0
  9
$VISRETAIN
 70
     0
  9
$PLINEGEN
 70
     0
  9
$PSLTSCALE
 70
     1
  9
$TREEDEPTH
 70
  3020
  9
$CMLSTYLE
  2
STANDARD
  9
$CMLJUST
 70
     0
  9
$CMLSCALE
 40
20.0
  9
$PROXYGRAPHICS
 70
     1
  9
$MEASUREMENT
 70
     1
  9
$CELWEIGHT
370
    -1
  9
$ENDCAPS
280
     0
  9
$JOINSTYLE
280
     0
  9
$LWDISPLAY
290
     0
  9
$INSUNITS
 70
     4
  9
$HYPERLINKBASE
  1

  9
$STYLESHEET
  1
MONOCHROME.CTB
  9
$XEDIT
290
     1
  9
$CEPSNTYPE
380
     0
  9
$PSTYLEMODE
290
     1
  9
$FINGERPRINTGUID
  2
{46B44192-1510-48B1-B61B-CBE2ADA013A7}
  9
$VERSIONGUID
  2
{6160D478-9A74-4C97-9D8A-D4A65CE74B12}
  9
$EXTNAMES
290
     1
  9
$PSVPSCALE
 40
0.0
  9
$OLESTARTUP
290
     0
  0
ENDSEC
  0
SECTION
  2
CLASSES
  0
CLASS
  1
ACDBDICTIONARYWDFLT
  2
AcDbDictionaryWithDefault
  3
ObjectDBX Classes
 90
        0
280
     0
281
     0
  0
CLASS
  1
ACDBPLACEHOLDER
  2
AcDbPlaceHolder
  3
ObjectDBX Classes
 90
        0
280
     0
281
     0
  0
CLASS
  1
LAYOUT
  2
AcDbLayout
  3
ObjectDBX Classes
 90
        0
280
     0
281
     0
  0
CLASS
  1
DICTIONARYVAR
  2
AcDbDictionaryVar
  3
ObjectDBX Classes
 90
        0
280
     0
281
     0
  0
CLASS
  1
TABLESTYLE
  2
AcDbTableStyle
  3
ObjectDBX Classes
 90
     4095
280
     0
281
     0
  0
CLASS
  1
SCALE
  2
AcDbScale
  3
ObjectDBX Classes
 90
     1153
280
     0
281
     0
  0
CLASS
  1
MATERIAL
  2
AcDbMaterial
  3
ObjectDBX Classes
 90
     1153
280
     0
281
     0
  0
CLASS
  1
VISUALSTYLE
  2
AcDbVisualStyle
  3
ObjectDBX Classes
 90
     4095
280
     0
281
     0
  0
ENDSEC
  0
SECTION
  2
TABLES
  0
TABLE
  2
VPORT
  5
8
330
0
100
AcDbSymbolTable
 70
     1
  0
VPORT
  5
39A
330
8
100
AcDbSymbolTableRecord
100
AcDbViewportTableRecord
  2
*Active
 70
     0
 10
0.0
 20
0.0
 11
1.0
 21
1.0
 12
218.9201881351169
 22
109.7549380673833
 13
0.0
 23
0.0
 14
5.0
 24
5.0
 15
5.0
 25
5.0
 16
0.0
 26
0.0
 36
1.0
 17
0.0
 27
0.0
 37
0.0
 40
564.6711112651689
 41
1.066073697585768
 42
50.0
 43
0.0
 44
0.0
 50
0.0
 51
0.0
 71
     0
 72
  2000
 73
     1
 74
     1
 75
     0
 76
     0
 77
     0
 78
     0
281
     0
 65
     1
110
0.0
120
0.0
130
0.0
111
1.0
121
0.0
131
0.0
112
0.0
122
1.0
132
0.0
 79
     0
146
0.0
  0
ENDTAB
  0
TABLE
  2
LTYPE
  5
5
330
0
100
AcDbSymbolTable
 70
     3
  0
LTYPE
  5
12
330
5
100
AcDbSymbolTableRecord
100
AcDbLinetypeTableRecord
  2
BYBLOCK
 70
     0
  3

 72
    65
 73
     0
 40
0.0
  0
LTYPE
  5
13
330
5
100
AcDbSymbolTableRecord
100
AcDbLinetypeTableRecord
  2
BYLAYER
 70
     0
  3

 72
    65
 73
     0
 40
0.0
  0
LTYPE
  5
14
330
5
100
AcDbSymbolTableRecord
100
AcDbLinetypeTableRecord
  2
CONTINUOUS
 70
     0
  3
Solid line
 72
    65
 73
     0
 40
0.0
  0
LTYPE
  5
20
330
5
100
AcDbSymbolTableRecord
100
AcDbLinetypeTableRecord
  2
HIDDEN
 70
     0
  3
Hidden __ __ __ __ __ __ __ __ __ __ __ __ __ _
 72
    65
 73
     2
 40
9.524999999999997
 49
6.349999999999998
 74
     0
 49
-3.174999999999998
 74
     0
  0
LTYPE
  5
351
330
5
100
AcDbSymbolTableRecord
100
AcDbLinetypeTableRecord
  2
CENTER
 70
     0
  3
Dash dot __ . __ . __ . __ . __ . __ . __ . __
 72
    65
 73
     4
 40
25.4
 49
12.7
 74
     0
 49
-6.349999999999998
 74
     0
 49
0.0
 74
     0
 49
-6.349999999999998
 74
     0
  0
ENDTAB
  0
TABLE
  2
LAYER
  5
2
330
0
100
AcDbSymbolTable
 70
    16
  0
LAYER
  5
F
330
2
100
AcDbSymbolTableRecord
100
AcDbLayerTableRecord
  2
0
 70
     0
 62
     7
  6
CONTINUOUS
370
    -3
390
300
  0
LAYER
  5
23
330
2
100
AcDbSymbolTableRecord
100
AcDbLayerTableRecord
  2
1
 70
     0
 62
     4
  6
CONTINUOUS
370
    -3
390
300
  0
LAYER
  5
24
330
2
100
AcDbSymbolTableRecord
100
AcDbLayerTableRecord
  2
SK1
 70
     0
 62
     4
  6
CONTINUOUS
370
    -3
390
300
  0
LAYER
  5
25
330
2
100
AcDbSymbolTableRecord
100
AcDbLayerTableRecord
  2
2
 70
     0
 62
     7
  6
CONTINUOUS
370
    -3
390
300
  0
LAYER
  5
26
330
2
100
AcDbSymbolTableRecord
100
AcDbLayerTableRecord
  2
2L
 70
     0
 62
     7
  6
CONTINUOUS
370
    -3
390
300
  0
LAYER
  5
27
330
2
100
AcDbSymbolTableRecord
100
AcDbLayerTableRecord
  2
SK2
 70
     0
 62
     7
  6
CONTINUOUS
370
    -3
390
300
  0
LAYER
  5
28
330
2
100
AcDbSymbolTableRecord
100
AcDbLayerTableRecord
  2
3
 70
     0
 62
     1
  6
HIDDEN
370
    -3
390
300
  0
LAYER
  5
29
330
2
100
AcDbSymbolTableRecord
100
AcDbLayerTableRecord
  2
SK3
 70
     0
 62
     1
  6
HIDDEN
370
    -3
390
300
  0
LAYER
  5
2A
330
2
100
AcDbSymbolTableRecord
100
AcDbLayerTableRecord
  2
4
 70
     0
 62
     2
  6
CENTER
370
    -3
390
300
  0
LAYER
  5
2B
330
2
100
AcDbSymbolTableRecord
100
AcDbLayerTableRecord
  2
SK4
 70
     0
 62
     2
  6
CENTER
370
    -3
390
300
  0
LAYER
  5
2C
330
2
100
AcDbSymbolTableRecord
100
AcDbLayerTableRecord
  2
5
 70
     0
 62
    -7
  6
CONTINUOUS
370
    -3
390
300
  0
LAYER
  5
2D
330
2
100
AcDbSymbolTableRecord
100
AcDbLayerTableRecord
  2
6
 70
     0
 62
     5
  6
CONTINUOUS
370
    -3
390
300
  0
LAYER
  5
2E
330
2
100
AcDbSymbolTableRecord
100
AcDbLayerTableRecord
  2
SK6
 70
     0
 62
     5
  6
CONTINUOUS
370
    -3
390
300
  0
LAYER
  5
2F
330
2
100
AcDbSymbolTableRecord
100
AcDbLayerTableRecord
  2
DEFPOINTS
 70
     0
 62
     7
  6
CONTINUOUS
290
     0
370
    -3
390
300
  0
LAYER
  5
375
330
2
100
AcDbSymbolTableRecord
100
AcDbLayerTableRecord
  2
CUT
 70
     0
 62
     1
  6
CONTINUOUS
370
    -3
390
300
  0
LAYER
  5
376
330
2
100
AcDbSymbolTableRecord
100
AcDbLayerTableRecord
  2
NOCUT
 70
     0
 62
     7
  6
CONTINUOUS
370
    -3
390
300
  0
ENDTAB
  0
TABLE
  2
STYLE
  5
3
330
0
100
AcDbSymbolTable
 70
     4
  0
STYLE
  5
10
330
3
100
AcDbSymbolTableRecord
100
AcDbTextStyleTableRecord
  2
STANDARD
 70
     0
 40
0.0
 41
1.0
 50
0.0
 71
     0
 42
5.0
  3
txt
  4

  0
STYLE
  5
1D
330
3
100
AcDbSymbolTableRecord
100
AcDbTextStyleTableRecord
  2
TXT
 70
     0
 40
8.0
 41
1.0
 50
0.0
 71
     0
 42
8.0
  3
txt
  4

  0
STYLE
  5
1E
330
3
100
AcDbSymbolTableRecord
100
AcDbTextStyleTableRecord
  2
SIMPLEX
 70
     0
 40
0.0
 41
1.0
 50
0.0
 71
     0
 42
3.5
  3
simplex
  4

  0
STYLE
  5
34C
330
3
100
AcDbSymbolTableRecord
100
AcDbTextStyleTableRecord
  2

 70
     1
 40
0.0
 41
1.0
 50
0.0
 71
     0
 42
2.5
  3
ltypeshp.shx
  4

  0
ENDTAB
  0
TABLE
  2
VIEW
  5
6
330
0
100
AcDbSymbolTable
 70
     0
  0
ENDTAB
  0
TABLE
  2
UCS
  5
7
330
0
100
AcDbSymbolTable
 70
     0
  0
ENDTAB
  0
TABLE
  2
APPID
  5
9
330
0
100
AcDbSymbolTable
 70
     1
  0
APPID
  5
11
330
9
100
AcDbSymbolTableRecord
100
AcDbRegAppTableRecord
  2
ACAD
 70
     0
  0
ENDTAB
  0
TABLE
  2
DIMSTYLE
  5
A
330
0
100
AcDbSymbolTable
 70
     1
100
AcDbDimStyleTable
  0
DIMSTYLE
105
3F
102
{ACAD_REACTORS
330
61B
330
629
330
636
330
643
330
650
102
}
330
A
100
AcDbSymbolTableRecord
100
AcDbDimStyleTableRecord
  2
STANDARD
 70
     0
 41
2.5
 42
0.0
 43
3.75
 44
1.25
 73
     0
 74
     0
 77
     1
 78
     8
 79
     2
140
3.5
141
0.0
143
0.039370078
147
0.625
171
     3
178
     0
179
     2
271
     2
272
     2
274
     3
283
     0
284
     8
340
1E
  0
ENDTAB
  0
TABLE
  2
BLOCK_RECORD
  5
1
330
0
100
AcDbSymbolTable
 70
     5
  0
BLOCK_RECORD
  5
18
330
1
100
AcDbSymbolTableRecord
100
AcDbBlockTableRecord
  2
*MODEL_SPACE
340
303
  0
BLOCK_RECORD
  5
338
330
1
100
AcDbSymbolTableRecord
100
AcDbBlockTableRecord
  2
*Paper_Space
340
33B
  0
BLOCK_RECORD
  5
61C
330
1
100
AcDbSymbolTableRecord
100
AcDbBlockTableRecord
  2
*D0
340
0
  0
BLOCK_RECORD
  5
62A
330
1
100
AcDbSymbolTableRecord
100
AcDbBlockTableRecord
  2
*D1
340
0
  0
BLOCK_RECORD
  5
637
330
1
100
AcDbSymbolTableRecord
100
AcDbBlockTableRecord
  2
*D2
340
0
  0
BLOCK_RECORD
  5
644
330
1
100
AcDbSymbolTableRecord
100
AcDbBlockTableRecord
  2
*D3
340
0
  0
BLOCK_RECORD
  5
651
330
1
100
AcDbSymbolTableRecord
100
AcDbBlockTableRecord
  2
*D4
340
0
  0
ENDTAB
  0
ENDSEC
  0
SECTION
  2
BLOCKS
  0
BLOCK
  5
32
330
18
100
AcDbEntity
  8
0
100
AcDbBlockBegin
  2
*MODEL_SPACE
 70
     0
 10
0.0
 20
0.0
 30
0.0
  3
*MODEL_SPACE
  1

  0
ENDBLK
  5
33
330
18
100
AcDbEntity
  8
0
100
AcDbBlockEnd
  0
BLOCK
  5
339
330
338
100
AcDbEntity
 67
     1
  8
0
100
AcDbBlockBegin
  2
*Paper_Space
 70
     0
 10
0.0
 20
0.0
 30
0.0
  3
*Paper_Space
  1

  0
ENDBLK
  5
33A
330
338
100
AcDbEntity
 67
     1
  8
0
100
AcDbBlockEnd
  0
BLOCK
  5
61D
330
61C
100
AcDbEntity
  8
0
100
AcDbBlockBegin
  2
*D0
 70
     1
 10
0.0
 20
0.0
 30
0.0
  3
*D0
  1

  0
LINE
  5
61F
330
61C
100
AcDbEntity
  8
2
 62
     0
370
    -2
100
AcDbLine
 10
71.0
 20
7.0
 30
0.0
 11
87.25000000000001
 21
7.000000000000058
 31
0.0
  0
LINE
  5
620
330
61C
100
AcDbEntity
  8
2
 62
     0
370
    -2
100
AcDbLine
 10
71.0
 20
-7.0
 30
0.0
 11
87.25000000000006
 21
-6.999999999999943
 31
0.0
  0
LINE
  5
621
330
61C
100
AcDbEntity
  8
2
 62
     0
370
    -2
100
AcDbLine
 10
86.00000000000006
 20
-6.999999999999948
 30
0.0
 11
86.00000000000014
 21
-32.78949999999995
 31
0.0
  0
LINE
  5
622
330
61C
100
AcDbEntity
  8
2
 62
     0
370
    -2
100
AcDbLine
 10
86.00000000000003
 20
4.500000000000053
 30
0.0
 11
86.00000000000004
 21
-4.499999999999948
 31
0.0
  0
SOLID
  5
623
330
61C
100
AcDbEntity
  8
2
 62
     0
100
AcDbTrace
 10
86.4166666666667
 20
4.500000000000054
 30
0.0
 11
85.58333333333336
 21
4.500000000000052
 31
0.0
 12
86.00000000000001
 22
7.000000000000053
 32
0.0
 13
86.00000000000001
 23
7.000000000000053
 33
0.0
  0
SOLID
  5
624
330
61C
100
AcDbEntity
  8
2
 62
     0
100
AcDbTrace
 10
85.58333333333337
 20
-4.499999999999948
 30
0.0
 11
86.41666666666671
 21
-4.499999999999947
 31
0.0
 12
86.00000000000006
 22
-6.999999999999948
 32
0.0
 13
86.00000000000006
 23
-6.999999999999948
 33
0.0
  0
MTEXT
  5
625
330
61C
100
AcDbEntity
  8
2
 62
     0
100
AcDbMText
 10
83.5620000000001
 20
-21.14474999999996
 30
0.0
 40
3.5
 41
0.0
 71
     5
 72
     1
  1
MF14x1.5
  7
SIMPLEX
 11
-3.045183153257572E-15
 21
1.0
 31
0.0
 73
     1
 44
1.0
  0
POINT
  5
626
330
61C
100
AcDbEntity
  8
DEFPOINTS
 62
     0
100
AcDbPoint
 10
71.0
 20
7.0
 30
0.0
  0
POINT
  5
627
330
61C
100
AcDbEntity
  8
DEFPOINTS
 62
     0
100
AcDbPoint
 10
71.0
 20
-7.0
 30
0.0
  0
POINT
  5
628
330
61C
100
AcDbEntity
  8
DEFPOINTS
 62
     0
100
AcDbPoint
 10
86.00000000000006
 20
-6.999999999999948
 30
0.0
  0
ENDBLK
  5
61E
330
61C
100
AcDbEntity
  8
0
100
AcDbBlockEnd
  0
BLOCK
  5
62B
330
62A
100
AcDbEntity
  8
0
100
AcDbBlockBegin
  2
*D1
 70
     1
 10
0.0
 20
0.0
 30
0.0
  3
*D1
  1

  0
LINE
  5
62D
330
62A
100
AcDbEntity
  8
2
 62
     0
370
    -2
100
AcDbLine
 10
0.0
 20
0.0
 30
0.0
 11
0.0
 21
76.25
 31
0.0
  0
LINE
  5
62E
330
62A
100
AcDbEntity
  8
2
 62
     0
370
    -2
100
AcDbLine
 10
71.0
 20
0.0
 30
0.0
 11
71.0
 21
76.25
 31
0.0
  0
LINE
  5
62F
330
62A
100
AcDbEntity
  8
2
 62
     0
370
    -2
100
AcDbLine
 10
2.5
 20
75.0
 30
0.0
 11
68.5
 21
75.0
 31
0.0
  0
SOLID
  5
630
330
62A
100
AcDbEntity
  8
2
 62
     0
100
AcDbTrace
 10
2.5
 20
75.41666666666667
 30
0.0
 11
2.5
 21
74.58333333333333
 31
0.0
 12
0.0
 22
75.0
 32
0.0
 13
0.0
 23
75.0
 33
0.0
  0
SOLID
  5
631
330
62A
100
AcDbEntity
  8
2
 62
     0
100
AcDbTrace
 10
68.5
 20
74.58333333333333
 30
0.0
 11
68.5
 21
75.41666666666667
 31
0.0
 12
71.0
 22
75.0
 32
0.0
 13
71.0
 23
75.0
 33
0.0
  0
MTEXT
  5
632
330
62A
100
AcDbEntity
  8
2
 62
     0
100
AcDbMText
 10
35.5
 20
77.38025
 30
0.0
 40
3.5
 41
0.0
 71
     5
 72
     1
  1
71
  7
SIMPLEX
 73
     1
 44
1.0
  0
POINT
  5
633
330
62A
100
AcDbEntity
  8
DEFPOINTS
 62
     0
100
AcDbPoint
 10
0.0
 20
0.0
 30
0.0
  0
POINT
  5
634
330
62A
100
AcDbEntity
  8
DEFPOINTS
 62
     0
100
AcDbPoint
 10
71.0
 20
0.0
 30
0.0
  0
POINT
  5
635
330
62A
100
AcDbEntity
  8
DEFPOINTS
 62
     0
100
AcDbPoint
 10
71.0
 20
75.0
 30
0.0
  0
ENDBLK
  5
62C
330
62A
100
AcDbEntity
  8
0
100
AcDbBlockEnd
  0
BLOCK
  5
638
330
637
100
AcDbEntity
  8
0
100
AcDbBlockBegin
  2
*D2
 70
     1
 10
0.0
 20
0.0
 30
0.0
  3
*D2
  1

  0
LINE
  5
63A
330
637
100
AcDbEntity
  8
SK2
 62
     0
370
    -2
100
AcDbLine
 10
-17.00000000000001
 20
5.5
 30
0.0
 11
-45.25000000002808
 21
5.499999999855829
 31
0.0
  0
LINE
  5
63B
330
637
100
AcDbEntity
  8
SK2
 62
     0
370
    -2
100
AcDbLine
 10
-17.00000000000001
 20
-5.5
 30
0.0
 11
-45.24999999997194
 21
-5.500000000144171
 31
0.0
  0
LINE
  5
63C
330
637
100
AcDbEntity
  8
SK2
 62
     0
370
    -2
100
AcDbLine
 10
-44.00000000001532
 20
2.999999999862208
 30
0.0
 11
-43.9999999999847
 21
-3.000000000137792
 31
0.0
  0
SOLID
  5
63D
330
637
100
AcDbEntity
  8
SK2
 62
     0
100
AcDbTrace
 10
-43.58333333334866
 20
2.999999999864334
 30
0.0
 11
-44.41666666668198
 21
2.999999999860082
 31
0.0
 12
-44.00000000002808
 22
5.499999999862208
 32
0.0
 13
-44.00000000002808
 23
5.499999999862208
 33
0.0
  0
SOLID
  5
63E
330
637
100
AcDbEntity
  8
SK2
 62
     0
100
AcDbTrace
 10
-44.41666666665137
 20
-3.000000000139918
 30
0.0
 11
-43.58333333331804
 21
-3.000000000135666
 31
0.0
 12
-43.99999999997194
 22
-5.500000000137792
 32
0.0
 13
-43.99999999997194
 23
-5.500000000137792
 33
0.0
  0
MTEXT
  5
63F
330
637
100
AcDbEntity
  8
SK2
 62
     0
100
AcDbMText
 10
-46.39075000000001
 20
-0.0000000001499935
 30
0.0
 40
3.5
 41
0.0
 71
     5
 72
     1
  1
%%c11
  7
SIMPLEX
 11
-5.103634686582319E-12
 21
1.0
 31
0.0
 73
     1
 44
1.0
  0
POINT
  5
640
330
637
100
AcDbEntity
  8
DEFPOINTS
 62
     0
100
AcDbPoint
 10
-17.00000000000001
 20
5.5
 30
0.0
  0
POINT
  5
641
330
637
100
AcDbEntity
  8
DEFPOINTS
 62
     0
100
AcDbPoint
 10
-17.00000000000001
 20
-5.5
 30
0.0
  0
POINT
  5
642
330
637
100
AcDbEntity
  8
DEFPOINTS
 62
     0
100
AcDbPoint
 10
-43.99999999997194
 20
-5.500000000137792
 30
0.0
  0
ENDBLK
  5
639
330
637
100
AcDbEntity
  8
0
100
AcDbBlockEnd
  0
BLOCK
  5
645
330
644
100
AcDbEntity
  8
0
100
AcDbBlockBegin
  2
*D3
 70
     1
 10
0.0
 20
0.0
 30
0.0
  3
*D3
  1

  0
LINE
  5
647
330
644
100
AcDbEntity
  8
2
 62
     0
370
    -2
100
AcDbLine
 10
47.14211617
 20
5.35
 30
0.0
 11
47.14211617
 21
61.25
 31
0.0
  0
LINE
  5
648
330
644
100
AcDbEntity
  8
2
 62
     0
370
    -2
100
AcDbLine
 10
71.0
 20
7.0
 30
0.0
 11
71.0
 21
61.25
 31
0.0
  0
LINE
  5
649
330
644
100
AcDbEntity
  8
2
 62
     0
370
    -2
100
AcDbLine
 10
49.64211617
 20
60.0
 30
0.0
 11
68.5
 21
60.0
 31
0.0
  0
SOLID
  5
64A
330
644
100
AcDbEntity
  8
2
 62
     0
100
AcDbTrace
 10
49.64211617
 20
60.41666666666666
 30
0.0
 11
49.64211617
 21
59.58333333333334
 31
0.0
 12
47.14211617
 22
60.0
 32
0.0
 13
47.14211617
 23
60.0
 33
0.0
  0
SOLID
  5
64B
330
644
100
AcDbEntity
  8
2
 62
     0
100
AcDbTrace
 10
68.5
 20
59.58333333333334
 30
0.0
 11
68.5
 21
60.41666666666666
 31
0.0
 12
71.0
 22
60.0
 32
0.0
 13
71.0
 23
60.0
 33
0.0
  0
MTEXT
  5
64C
330
644
100
AcDbEntity
  8
2
 62
     0
100
AcDbMText
 10
59.071058085
 20
62.39775
 30
0.0
 40
3.5
 41
0.0
 71
     5
 72
     1
  1
23.86
  7
SIMPLEX
 73
     1
 44
1.0
  0
POINT
  5
64D
330
644
100
AcDbEntity
  8
DEFPOINTS
 62
     0
100
AcDbPoint
 10
47.14211617
 20
5.35
 30
0.0
  0
POINT
  5
64E
330
644
100
AcDbEntity
  8
DEFPOINTS
 62
     0
100
AcDbPoint
 10
71.0
 20
7.0
 30
0.0
  0
POINT
  5
64F
330
644
100
AcDbEntity
  8
DEFPOINTS
 62
     0
100
AcDbPoint
 10
71.0
 20
60.0
 30
0.0
  0
ENDBLK
  5
646
330
644
100
AcDbEntity
  8
0
100
AcDbBlockEnd
  0
BLOCK
  5
652
330
651
100
AcDbEntity
  8
0
100
AcDbBlockBegin
  2
*D4
 70
     1
 10
0.0
 20
0.0
 30
0.0
  3
*D4
  1

  0
LINE
  5
654
330
651
100
AcDbEntity
  8
SK2
 62
     0
370
    -2
100
AcDbLine
 10
-29.0
 20
7.0
 30
0.0
 11
-29.0
 21
91.25
 31
0.0
  0
LINE
  5
655
330
651
100
AcDbEntity
  8
SK2
 62
     0
370
    -2
100
AcDbLine
 10
71.0
 20
7.0
 30
0.0
 11
71.0
 21
91.25
 31
0.0
  0
LINE
  5
656
330
651
100
AcDbEntity
  8
SK2
 62
     0
370
    -2
100
AcDbLine
 10
-26.5
 20
90.0
 30
0.0
 11
68.5
 21
90.0
 31
0.0
  0
SOLID
  5
657
330
651
100
AcDbEntity
  8
SK2
 62
     0
100
AcDbTrace
 10
-26.5
 20
90.41666666666667
 30
0.0
 11
-26.5
 21
89.58333333333333
 31
0.0
 12
-29.0
 22
90.0
 32
0.0
 13
-29.0
 23
90.0
 33
0.0
  0
SOLID
  5
658
330
651
100
AcDbEntity
  8
SK2
 62
     0
100
AcDbTrace
 10
68.5
 20
89.58333333333333
 30
0.0
 11
68.5
 21
90.41666666666667
 31
0.0
 12
71.0
 22
90.0
 32
0.0
 13
71.0
 23
90.0
 33
0.0
  0
MTEXT
  5
659
330
651
100
AcDbEntity
  8
SK2
 62
     0
100
AcDbMText
 10
21.0
 20
92.39075
 30
0.0
 40
3.5
 41
0.0
 71
     5
 72
     1
  1
100
  7
SIMPLEX
 73
     1
 44
1.0
  0
POINT
  5
65A
330
651
100
AcDbEntity
  8
DEFPOINTS
 62
     0
100
AcDbPoint
 10
-29.0
 20
7.0
 30
0.0
  0
POINT
  5
65B
330
651
100
AcDbEntity
  8
DEFPOINTS
 62
     0
100
AcDbPoint
 10
71.0
 20
7.0
 30
0.0
  0
POINT
  5
65C
330
651
100
AcDbEntity
  8
DEFPOINTS
 62
     0
100
AcDbPoint
 10
71.0
 20
90.0
 30
0.0
  0
ENDBLK
  5
653
330
651
100
AcDbEntity
  8
0
100
AcDbBlockEnd
  0
ENDSEC
  0
SECTION
  2
ENTITIES
  0
LINE
  5
3D6
330
18
100
AcDbEntity
  8
SK4
100
AcDbLine
 10
-31.00000000000001
 20
0.0
 30
0.0
 11
47.14211617
 21
0.0
 31
0.0
  0
LINE
  5
3D7
330
18
100
AcDbEntity
  8
4
100
AcDbLine
 10
45.14211617
 20
0.0
 30
0.0
 11
73.0
 21
0.0
 31
0.0
  0
LINE
  5
3D8
330
18
100
AcDbEntity
  8
SK4
100
AcDbLine
 10
45.14211617
 20
0.0
 30
0.0
 11
73.0
 21
0.0
 31
0.0
  0
LINE
  5
3D9
330
18
100
AcDbEntity
  8
1
100
AcDbLine
 10
34.0
 20
-3.683291847928285
 30
0.0
 11
47.14211616999999
 21
-3.683291847928284
 31
0.0
  0
LINE
  5
3DA
330
18
100
AcDbEntity
  8
1
100
AcDbLine
 10
34.0
 20
-0.5519011124983895
 30
0.0
 11
47.14211617
 21
-0.5519011124983819
 31
0.0
  0
LINE
  5
3DB
330
18
100
AcDbEntity
  8
1
100
AcDbLine
 10
34.0
 20
4.084527042753548
 30
0.0
 11
47.14211617
 21
4.084527042753548
 31
0.0
  0
LINE
  5
3DC
330
18
100
AcDbEntity
  8
1
100
AcDbLine
 10
34.0
 20
5.472239501522489
 30
0.0
 11
47.14211616999999
 21
5.472239501522483
 31
0.0
  0
LINE
  5
3DD
330
18
100
AcDbEntity
  8
1
100
AcDbLine
 10
47.14211617
 20
5.5
 30
0.0
 11
0.0000000000000018
 21
5.5
 31
0.0
  0
LINE
  5
3DE
330
18
100
AcDbEntity
  8
1
100
AcDbLine
 10
34.0
 20
-0.5519011124983914
 30
0.0
 11
34.00000000000001
 21
-3.683291847928297
 31
0.0
  0
LINE
  5
3DF
330
18
100
AcDbEntity
  8
1
100
AcDbLine
 10
33.99999999999999
 20
5.472239501522483
 30
0.0
 11
34.0
 21
4.084527042753524
 31
0.0
  0
LINE
  5
3E0
330
18
100
AcDbEntity
  8
1
100
AcDbLine
 10
47.14211617
 20
5.5
 30
0.0
 11
47.14211616999999
 21
5.49999347575103
 31
0.0
  0
LINE
  5
3E1
330
18
100
AcDbEntity
  8
1
100
AcDbLine
 10
47.14211616999999
 20
5.49999347575103
 30
0.0
 11
47.14211616999999
 21
5.498095424987298
 31
0.0
  0
LINE
  5
3E2
330
18
100
AcDbEntity
  8
1
100
AcDbLine
 10
47.14211616999999
 20
5.498095424987298
 30
0.0
 11
47.14211617
 21
5.472239501522484
 31
0.0
  0
LINE
  5
3E3
330
18
100
AcDbEntity
  8
1
100
AcDbLine
 10
47.14211617
 20
5.472239501522489
 30
0.0
 11
47.14211617
 21
5.337570510094967
 31
0.0
  0
LINE
  5
3E4
330
18
100
AcDbEntity
  8
1
100
AcDbLine
 10
47.14211617
 20
5.33757051009494
 30
0.0
 11
47.14211617
 21
4.084527042753548
 31
0.0
  0
LINE
  5
3E5
330
18
100
AcDbEntity
  8
1
100
AcDbLine
 10
47.14211616999999
 20
4.084527042753548
 30
0.0
 11
47.14211616999999
 21
-0.5519011124983811
 31
0.0
  0
LINE
  5
3E6
330
18
100
AcDbEntity
  8
1
100
AcDbLine
 10
47.14211617
 20
-1.469443462973516
 30
0.0
 11
47.14211617
 21
-3.683291847928283
 31
0.0
  0
LINE
  5
3E7
330
18
100
AcDbEntity
  8
1
100
AcDbLine
 10
47.14211616999999
 20
-3.683291847928284
 30
0.0
 11
47.14211617
 21
-5.5
 31
0.0
  0
LINE
  5
3E8
330
18
100
AcDbEntity
  8
1
100
AcDbLine
 10
-0.0000000000000018
 20
-5.5
 30
0.0
 11
47.14211617
 21
-5.5
 31
0.0
  0
LINE
  5
3E9
330
18
100
AcDbEntity
  8
1
100
AcDbLine
 10
47.14211617
 20
-0.5519011124984172
 30
0.0
 11
47.14211617
 21
-1.469443462973521
 31
0.0
  0
LINE
  5
3EA
330
18
100
AcDbEntity
  8
1
 62
     1
100
AcDbLine
 10
50.72113247308103
 20
7.0
 30
0.0
 11
50.77886752691897
 21
7.000000000000001
 31
0.0
  0
LINE
  5
3EB
330
18
100
AcDbEntity
  8
1
 62
     1
100
AcDbLine
 10
52.22113247308103
 20
6.999999999999999
 30
0.0
 11
52.27886752691897
 21
6.999999999999999
 31
0.0
  0
LINE
  5
3EC
330
18
100
AcDbEntity
  8
1
 62
     1
100
AcDbLine
 10
53.72113247308103
 20
7.0
 30
0.0
 11
53.77886752691897
 21
7.0
 31
0.0
  0
LINE
  5
3ED
330
18
100
AcDbEntity
  8
1
 62
     1
100
AcDbLine
 10
55.22113247308106
 20
7.0
 30
0.0
 11
55.27886752691897
 21
6.999999999999999
 31
0.0
  0
LINE
  5
3EE
330
18
100
AcDbEntity
  8
1
 62
     1
100
AcDbLine
 10
56.72113247308105
 20
7.0
 30
0.0
 11
56.77886752691898
 21
7.0
 31
0.0
  0
LINE
  5
3EF
330
18
100
AcDbEntity
  8
1
 62
     1
100
AcDbLine
 10
58.22113247308103
 20
7.0
 30
0.0
 11
58.27886752691897
 21
7.0
 31
0.0
  0
LINE
  5
3F0
330
18
100
AcDbEntity
  8
1
 62
     1
100
AcDbLine
 10
59.72113247308104
 20
7.0
 30
0.0
 11
59.77886752691897
 21
7.0
 31
0.0
  0
LINE
  5
3F1
330
18
100
AcDbEntity
  8
1
 62
     1
100
AcDbLine
 10
62.72113247308104
 20
7.0
 30
0.0
 11
62.77886752691897
 21
7.0
 31
0.0
  0
LINE
  5
3F2
330
18
100
AcDbEntity
  8
1
 62
     1
100
AcDbLine
 10
64.22113247308103
 20
7.0
 30
0.0
 11
64.27886752691896
 21
7.0
 31
0.0
  0
LINE
  5
3F3
330
18
100
AcDbEntity
  8
1
 62
     1
100
AcDbLine
 10
68.45798676250422
 20
-6.544218471995434
 30
0.0
 11
68.0
 21
-5.7509625
 31
0.0
  0
LINE
  5
3F4
330
18
100
AcDbEntity
  8
1
 62
     1
100
AcDbLine
 10
65.69009684289027
 20
-6.946244736728091
 30
0.0
 11
65.0
 21
-5.7509625
 31
0.0
  0
LINE
  5
3F5
330
18
100
AcDbEntity
  8
1
 62
     1
100
AcDbLine
 10
65.0
 20
-5.7509625
 30
0.0
 11
64.27886752691896
 21
-7.000000000000019
 31
0.0
  0
LINE
  5
3F6
330
18
100
AcDbEntity
  8
1
 62
     1
100
AcDbLine
 10
56.72113247308104
 20
-7.000000000000019
 30
0.0
 11
56.00000000000001
 21
-5.7509625
 31
0.0
  0
LINE
  5
3F7
330
18
100
AcDbEntity
  8
1
 62
     1
100
AcDbLine
 10
48.88249419093775
 20
-6.413461563413726
 30
0.0
 11
48.5
 21
-5.7509625
 31
0.0
  0
LINE
  5
3F8
330
18
100
AcDbEntity
  8
1
 62
     1
100
AcDbLine
 10
70.73277252391091
 20
4.118389769704605
 30
0.0
 11
69.8419317223112
 21
4.124202942861226
 31
0.0
  0
LINE
  5
3F9
330
18
100
AcDbEntity
  8
1
 62
     1
100
AcDbLine
 10
70.7327725239109
 20
-0.8028548377273628
 30
0.0
 11
69.84193172231119
 21
-0.8481742538269015
 31
0.0
  0
LINE
  5
3FA
330
18
100
AcDbEntity
  8
1
 62
     1
100
AcDbLine
 10
69.0954715221191
 20
4.129015974741558
 30
0.0
 11
68.45798676250422
 21
4.133087870251145
 31
0.0
  0
LINE
  5
3FB
330
18
100
AcDbEntity
  8
1
 62
     1
100
AcDbLine
 10
69.09547151883426
 20
-0.8861146045040109
 30
0.0
 11
68.4579867625746
 21
-0.9184927799579674
 31
0.0
  0
LINE
  5
3FC
330
18
100
AcDbEntity
  8
1
 62
     1
100
AcDbLine
 10
67.45817051375762
 20
4.139408501430149
 30
0.0
 11
67.07404180269722
 21
4.141816997680986
 31
0.0
  0
LINE
  5
3FD
330
18
100
AcDbEntity
  8
1
 62
     1
100
AcDbLine
 10
67.45817051375762
 20
-0.9692330979906836
 30
0.0
 11
67.07404180269724
 21
-0.9887148268646797
 31
0.0
  0
LINE
  5
3FE
330
18
100
AcDbEntity
  8
1
 62
     1
100
AcDbLine
 10
65.82086950914099
 20
4.149604054436911
 30
0.0
 11
65.69009684289027
 21
4.150410795216695
 31
0.0
  0
LINE
  5
3FF
330
18
100
AcDbEntity
  8
1
 62
     1
100
AcDbLine
 10
65.82086950869683
 20
-1.052225478732179
 30
0.0
 11
65.69009684289027
 21
-1.058849117233144
 31
0.0
  0
ARC
  5
400
330
18
100
AcDbEntity
  8
1
 62
     1
100
AcDbCircle
 10
98.08363067392796
 20
8.623717531047395
 30
0.0
 40
32.63886182225173
100
AcDbArc
 50
202.8222365876489
 51
204.8137686413382
  0
LINE
  5
401
330
18
100
AcDbEntity
  8
1
 62
     1
100
AcDbLine
 10
68.0
 20
-5.7509625
 30
0.0
 11
67.99999999999999
 21
-5.750603477785223
 31
0.0
  0
LINE
  5
402
330
18
100
AcDbEntity
  8
1
 62
     1
100
AcDbLine
 10
67.99999999999999
 20
-5.750603477785223
 30
0.0
 11
68.00000000000001
 21
-5.640146975809819
 31
0.0
  0
LINE
  5
403
330
18
100
AcDbEntity
  8
1
 62
     1
100
AcDbLine
 10
68.00000000000001
 20
-5.640146975809819
 30
0.0
 11
68.0
 21
-4.036017213878077
 31
0.0
  0
LINE
  5
404
330
18
100
AcDbEntity
  8
1
 62
     1
100
AcDbLine
 10
68.4579867625042
 20
-5.073892003776698
 30
0.0
 11
68.45798676250422
 21
-6.544218471995425
 31
0.0
  0
ARC
  5
405
330
18
100
AcDbEntity
  8
1
 62
     1
100
AcDbCircle
 10
38.89769365343671
 20
8.856080303520873
 30
0.0
 40
33.2071343355947
100
AcDbArc
 50
335.4192236057291
 51
337.1553481641784
  0
LINE
  5
406
330
18
100
AcDbEntity
  8
1
 62
     1
100
AcDbLine
 10
69.09547151883426
 20
-4.957288154767279
 30
0.0
 11
69.09547151883426
 21
-6.451626055803122
 31
0.0
  0
LINE
  5
407
330
18
100
AcDbEntity
  8
1
 62
     1
100
AcDbLine
 10
69.5
 20
-5.7509625
 30
0.0
 11
69.09547151883426
 21
-6.451626055803121
 31
0.0
  0
ARC
  5
408
330
18
100
AcDbEntity
  8
1
 62
     1
100
AcDbCircle
 10
98.21248140412358
 20
8.031795569619316
 30
0.0
 40
31.14545528241536
100
AcDbArc
 50
202.7969422859803
 51
204.3695168333938
  0
LINE
  5
409
330
18
100
AcDbEntity
  8
1
 62
     1
100
AcDbLine
 10
69.5
 20
-5.7509625
 30
0.0
 11
69.5
 21
-5.750603477785223
 31
0.0
  0
LINE
  5
40A
330
18
100
AcDbEntity
  8
1
 62
     1
100
AcDbLine
 10
69.5
 20
-5.750603477785223
 30
0.0
 11
69.50000000000001
 21
-5.640146975809819
 31
0.0
  0
LINE
  5
40B
330
18
100
AcDbEntity
  8
1
 62
     1
100
AcDbLine
 10
69.50000000000001
 20
-5.640146975809819
 30
0.0
 11
69.5
 21
-4.036017213878077
 31
0.0
  0
LINE
  5
40C
330
18
100
AcDbEntity
  8
1
 62
     1
100
AcDbLine
 10
69.84193172231119
 20
-6.343205339629092
 30
0.0
 11
69.5
 21
-5.7509625
 31
0.0
  0
LINE
  5
40D
330
18
100
AcDbEntity
  8
1
 62
     1
100
AcDbLine
 10
69.84193172231119
 20
-4.819460972639355
 30
0.0
 11
69.84193172231119
 21
-6.343205339629097
 31
0.0
  0
ARC
  5
40E
330
18
100
AcDbEntity
  8
1
 62
     1
100
AcDbCircle
 10
42.43602721076304
 20
7.97119277598252
 30
0.0
 40
30.98508547936875
100
AcDbArc
 50
335.956647260764
 51
337.1999634309624
  0
LINE
  5
40F
330
18
100
AcDbEntity
  8
1
 62
     1
100
AcDbLine
 10
70.7327725239109
 20
-4.652993473748778
 30
0.0
 11
70.7327725239109
 21
-6.213813849960125
 31
0.0
  0
LINE
  5
410
330
18
100
AcDbEntity
  8
1
 62
     1
100
AcDbLine
 10
71.0
 20
-5.7509625
 30
0.0
 11
70.7327725239109
 21
-6.213813849960134
 31
0.0
  0
LINE
  5
411
330
18
100
AcDbEntity
  8
1
 62
     1
100
AcDbLine
 10
64.27886752691896
 20
4.152688251718572
 30
0.0
 11
64.22113247308103
 21
4.152688251718572
 31
0.0
  0
LINE
  5
412
330
18
100
AcDbEntity
  8
1
 62
     1
100
AcDbLine
 10
64.27886752691896
 20
-1.077590679886238
 30
0.0
 11
64.22113247308104
 21
-1.077590679886238
 31
0.0
  0
LINE
  5
413
330
18
100
AcDbEntity
  8
1
 62
     1
100
AcDbLine
 10
64.27886752691896
 20
4.152688251718573
 30
0.0
 11
64.27886752691896
 21
-1.077590679886237
 31
0.0
  0
LINE
  5
414
330
18
100
AcDbEntity
  8
1
 62
     1
100
AcDbLine
 10
62.77886752691899
 20
4.152688251718573
 30
0.0
 11
62.72113247308106
 21
4.152688251718573
 31
0.0
  0
LINE
  5
415
330
18
100
AcDbEntity
  8
1
 62
     1
100
AcDbLine
 10
62.77886752691898
 20
-1.077590679886238
 30
0.0
 11
62.72113247308103
 21
-1.077590679886238
 31
0.0
  0
LINE
  5
416
330
18
100
AcDbEntity
  8
1
 62
     1
100
AcDbLine
 10
62.77886752691898
 20
4.152688251718573
 30
0.0
 11
62.77886752691896
 21
-1.077590679886246
 31
0.0
  0
LINE
  5
417
330
18
100
AcDbEntity
  8
1
 62
     1
100
AcDbLine
 10
61.27886752691897
 20
4.152688251718572
 30
0.0
 11
61.22113247308104
 21
4.152688251718572
 31
0.0
  0
LINE
  5
418
330
18
100
AcDbEntity
  8
1
 62
     1
100
AcDbLine
 10
61.22113247308103
 20
4.152688251718573
 30
0.0
 11
61.22113247308103
 21
-1.077590679886246
 31
0.0
  0
LINE
  5
419
330
18
100
AcDbEntity
  8
1
 62
     1
100
AcDbLine
 10
61.27886752691897
 20
-1.077590679886238
 30
0.0
 11
61.22113247308105
 21
-1.077590679886238
 31
0.0
  0
LINE
  5
41A
330
18
100
AcDbEntity
  8
1
 62
     1
100
AcDbLine
 10
61.27886752691897
 20
4.152688251718573
 30
0.0
 11
61.27886752691897
 21
-1.077590679886246
 31
0.0
  0
LINE
  5
41B
330
18
100
AcDbEntity
  8
1
 62
     1
100
AcDbLine
 10
59.778867526919
 20
4.152688251718572
 30
0.0
 11
59.72113247308106
 21
4.152688251718572
 31
0.0
  0
LINE
  5
41C
330
18
100
AcDbEntity
  8
1
 62
     1
100
AcDbLine
 10
59.77886752691897
 20
-1.077590679886238
 30
0.0
 11
59.72113247308102
 21
-1.077590679886238
 31
0.0
  0
LINE
  5
41D
330
18
100
AcDbEntity
  8
1
 62
     1
100
AcDbLine
 10
59.77886752691897
 20
4.152688251718573
 30
0.0
 11
59.77886752691897
 21
-1.077590679886246
 31
0.0
  0
LINE
  5
41E
330
18
100
AcDbEntity
  8
1
 62
     1
100
AcDbLine
 10
58.27886752691898
 20
4.152688251718572
 30
0.0
 11
58.22113247308105
 21
4.152688251718572
 31
0.0
  0
LINE
  5
41F
330
18
100
AcDbEntity
  8
1
 62
     1
100
AcDbLine
 10
58.27886752691898
 20
-1.077590679886238
 30
0.0
 11
58.22113247308106
 21
-1.077590679886238
 31
0.0
  0
LINE
  5
420
330
18
100
AcDbEntity
  8
1
 62
     1
100
AcDbLine
 10
56.77886752691898
 20
-1.077590679886238
 30
0.0
 11
56.72113247308104
 21
-1.077590679886237
 31
0.0
  0
LINE
  5
421
330
18
100
AcDbEntity
  8
1
 62
     1
100
AcDbLine
 10
55.27886752691898
 20
4.152688251718572
 30
0.0
 11
55.22113247308105
 21
4.152688251718572
 31
0.0
  0
LINE
  5
422
330
18
100
AcDbEntity
  8
1
 62
     1
100
AcDbLine
 10
55.22113247308105
 20
4.152688251718573
 30
0.0
 11
55.22113247308105
 21
-1.077590679886246
 31
0.0
  0
LINE
  5
423
330
18
100
AcDbEntity
  8
1
 62
     1
100
AcDbLine
 10
53.77886752691897
 20
-1.077590679886238
 30
0.0
 11
53.72113247308103
 21
-1.077590679886238
 31
0.0
  0
LINE
  5
424
330
18
100
AcDbEntity
  8
1
 62
     1
100
AcDbLine
 10
52.27886752691896
 20
4.152688251718572
 30
0.0
 11
52.27886752691897
 21
-1.077590679886246
 31
0.0
  0
LINE
  5
425
330
18
100
AcDbEntity
  8
1
 62
     1
100
AcDbLine
 10
50.77886752691896
 20
4.152688251718572
 30
0.0
 11
50.72113247308103
 21
4.152688251718572
 31
0.0
  0
LINE
  5
426
330
18
100
AcDbEntity
  8
1
 62
     1
100
AcDbLine
 10
50.72113247308103
 20
4.152688251718573
 30
0.0
 11
50.72113247308104
 21
-1.077590679886237
 31
0.0
  0
LINE
  5
427
330
18
100
AcDbEntity
  8
1
 62
     1
100
AcDbLine
 10
50.77886752691896
 20
-1.077590679886238
 30
0.0
 11
50.72113247308103
 21
-1.077590679886238
 31
0.0
  0
ARC
  5
428
330
18
100
AcDbEntity
  8
1
 62
     1
100
AcDbCircle
 10
96.75711752906159
 20
10.00940133277697
 30
0.0
 40
36.10145772564425
100
AcDbArc
 50
202.8957047854103
 51
205.6800687316217
  0
LINE
  5
429
330
18
100
AcDbEntity
  8
1
 62
     1
100
AcDbLine
 10
64.22113247308103
 20
-6.999999999999993
 30
0.0
 11
63.50000000000001
 21
-5.7509625
 31
0.0
  0
LINE
  5
42A
330
18
100
AcDbEntity
  8
1
 62
     1
100
AcDbLine
 10
64.22113247308101
 20
-5.635173491920061
 30
0.0
 11
64.22113247308103
 21
-7.0
 31
0.0
  0
ARC
  5
42B
330
18
100
AcDbEntity
  8
1
 62
     1
100
AcDbCircle
 10
28.01171445868001
 20
11.01791371059611
 30
0.0
 40
38.54963021220135
100
AcDbArc
 50
334.4060873140528
 51
337.0136165883565
  0
LINE
  5
42C
330
18
100
AcDbEntity
  8
1
 62
     1
100
AcDbLine
 10
62.77886752691898
 20
-5.635173491920061
 30
0.0
 11
62.77886752691897
 21
-7.0
 31
0.0
  0
LINE
  5
42D
330
18
100
AcDbEntity
  8
1
 62
     1
100
AcDbLine
 10
63.50000000000001
 20
-5.7509625
 30
0.0
 11
62.77886752691897
 21
-7.000000000000006
 31
0.0
  0
LINE
  5
42E
330
18
100
AcDbEntity
  8
1
 62
     1
100
AcDbLine
 10
63.50000000000001
 20
-5.7509625
 30
0.0
 11
63.5
 21
-5.750603477785223
 31
0.0
  0
LINE
  5
42F
330
18
100
AcDbEntity
  8
1
 62
     1
100
AcDbLine
 10
63.5
 20
-5.750603477785223
 30
0.0
 11
63.50000000000001
 21
-5.640146975809819
 31
0.0
  0
LINE
  5
430
330
18
100
AcDbEntity
  8
1
 62
     1
100
AcDbLine
 10
63.50000000000001
 20
-5.640146975809819
 30
0.0
 11
63.50000000000001
 21
-4.036017213878077
 31
0.0
  0
ARC
  5
431
330
18
100
AcDbEntity
  8
1
 62
     1
100
AcDbCircle
 10
95.257117529065
 20
10.0094013327781
 30
0.0
 40
36.10145772564781
100
AcDbArc
 50
202.8957047854099
 51
205.680068731621
  0
LINE
  5
432
330
18
100
AcDbEntity
  8
1
 62
     1
100
AcDbLine
 10
62.72113247308104
 20
-7.000000000000006
 30
0.0
 11
62.00000000000001
 21
-5.7509625
 31
0.0
  0
LINE
  5
433
330
18
100
AcDbEntity
  8
1
 62
     1
100
AcDbLine
 10
62.72113247308104
 20
-5.635173491920061
 30
0.0
 11
62.72113247308104
 21
-7.0
 31
0.0
  0
ARC
  5
434
330
18
100
AcDbEntity
  8
1
 62
     1
100
AcDbCircle
 10
29.51171445877151
 20
11.01791371055456
 30
0.0
 40
38.54963021210087
100
AcDbArc
 50
334.4060873140496
 51
337.0136165883603
  0
LINE
  5
435
330
18
100
AcDbEntity
  8
1
 62
     1
100
AcDbLine
 10
64.27886752691896
 20
-5.635173491920061
 30
0.0
 11
64.27886752691896
 21
-7.0
 31
0.0
  0
ARC
  5
436
330
18
100
AcDbEntity
  8
1
 62
     1
100
AcDbCircle
 10
97.8773167701308
 20
9.842476984174244
 30
0.0
 40
35.68662942450479
100
AcDbArc
 50
202.886055882587
 51
205.5868252769705
  0
LINE
  5
437
330
18
100
AcDbEntity
  8
1
 62
     1
100
AcDbLine
 10
65.0
 20
-5.7509625
 30
0.0
 11
65.0
 21
-5.750603477785223
 31
0.0
  0
LINE
  5
438
330
18
100
AcDbEntity
  8
1
 62
     1
100
AcDbLine
 10
65.0
 20
-5.750603477785223
 30
0.0
 11
65.0
 21
-5.640146975809819
 31
0.0
  0
LINE
  5
439
330
18
100
AcDbEntity
  8
1
 62
     1
100
AcDbLine
 10
65.0
 20
-5.640146975809819
 30
0.0
 11
65.00000000000001
 21
-4.036017213878077
 31
0.0
  0
LINE
  5
43A
330
18
100
AcDbEntity
  8
1
 62
     1
100
AcDbLine
 10
65.69009684289026
 20
-5.569955670691773
 30
0.0
 11
65.69009684289027
 21
-6.946244736728085
 31
0.0
  0
ARC
  5
43B
330
18
100
AcDbEntity
  8
1
 62
     1
100
AcDbCircle
 10
31.67800500658159
 20
10.72002505974312
 30
0.0
 40
37.81985295633404
100
AcDbArc
 50
334.5252040054939
 51
337.0348883047342
  0
LINE
  5
43C
330
18
100
AcDbEntity
  8
1
 62
     1
100
AcDbLine
 10
65.82086950868096
 20
-5.546853634852305
 30
0.0
 11
65.82086950868097
 21
-6.927250467489118
 31
0.0
  0
LINE
  5
43D
330
18
100
AcDbEntity
  8
1
 62
     1
100
AcDbLine
 10
66.5
 20
-5.7509625
 30
0.0
 11
65.82086950868097
 21
-6.927250467489124
 31
0.0
  0
ARC
  5
43E
330
18
100
AcDbEntity
  8
1
 62
     1
100
AcDbCircle
 10
97.97029348343213
 20
9.226600083587
 30
0.0
 40
34.1508325569665
100
AcDbArc
 50
202.8521588414752
 51
205.2178964045655
  0
LINE
  5
43F
330
18
100
AcDbEntity
  8
1
 62
     1
100
AcDbLine
 10
66.5
 20
-5.7509625
 30
0.0
 11
66.5
 21
-5.750603477785223
 31
0.0
  0
LINE
  5
440
330
18
100
AcDbEntity
  8
1
 62
     1
100
AcDbLine
 10
66.5
 20
-5.750603477785223
 30
0.0
 11
66.5
 21
-5.640146975809819
 31
0.0
  0
LINE
  5
441
330
18
100
AcDbEntity
  8
1
 62
     1
100
AcDbLine
 10
66.5
 20
-5.640146975809819
 30
0.0
 11
66.5
 21
-4.036017213878077
 31
0.0
  0
LINE
  5
442
330
18
100
AcDbEntity
  8
1
 62
     1
100
AcDbLine
 10
67.07404180269724
 20
-6.74523160436175
 30
0.0
 11
66.5
 21
-5.7509625
 31
0.0
  0
LINE
  5
443
330
18
100
AcDbEntity
  8
1
 62
     1
100
AcDbLine
 10
67.07404180269722
 20
-5.323861507796904
 30
0.0
 11
67.07404180269724
 21
-6.745231604361756
 31
0.0
  0
ARC
  5
444
330
18
100
AcDbEntity
  8
1
 62
     1
100
AcDbCircle
 10
35.31562285053336
 20
9.770726827451844
 30
0.0
 40
35.48111916260594
100
AcDbArc
 50
334.9454076785517
 51
337.0995201278322
  0
LINE
  5
445
330
18
100
AcDbEntity
  8
1
 62
     1
100
AcDbLine
 10
67.45817051375761
 20
-5.254891199127046
 30
0.0
 11
67.45817051375761
 21
-6.689438261646122
 31
0.0
  0
LINE
  5
446
330
18
100
AcDbEntity
  8
1
 62
     1
100
AcDbLine
 10
68.0
 20
-5.7509625
 30
0.0
 11
67.45817051375761
 21
-6.689438261646135
 31
0.0
  0
ARC
  5
447
330
18
100
AcDbEntity
  8
1
 62
     1
100
AcDbCircle
 10
23.51171445869253
 20
11.01791371059096
 30
0.0
 40
38.54963021218781
100
AcDbArc
 50
334.4060873140516
 51
337.0136165883564
  0
LINE
  5
448
330
18
100
AcDbEntity
  8
1
 62
     1
100
AcDbLine
 10
58.27886752691897
 20
-5.635173491920061
 30
0.0
 11
58.27886752691897
 21
-7.0
 31
0.0
  0
LINE
  5
449
330
18
100
AcDbEntity
  8
1
 62
     1
100
AcDbLine
 10
59.00000000000001
 20
-5.7509625
 30
0.0
 11
58.27886752691897
 21
-7.000000000000006
 31
0.0
  0
ARC
  5
44A
330
18
100
AcDbEntity
  8
1
 62
     1
100
AcDbCircle
 10
92.25711752904411
 20
10.00940133276937
 30
0.0
 40
36.10145772562519
100
AcDbArc
 50
202.89570478541
 51
205.6800687316229
  0
LINE
  5
44B
330
18
100
AcDbEntity
  8
1
 62
     1
100
AcDbLine
 10
59.00000000000001
 20
-5.7509625
 30
0.0
 11
59.0
 21
-5.750603477785223
 31
0.0
  0
LINE
  5
44C
330
18
100
AcDbEntity
  8
1
 62
     1
100
AcDbLine
 10
59.0
 20
-5.750603477785223
 30
0.0
 11
59.00000000000001
 21
-5.640146975809819
 31
0.0
  0
LINE
  5
44D
330
18
100
AcDbEntity
  8
1
 62
     1
100
AcDbLine
 10
59.00000000000001
 20
-5.640146975809819
 30
0.0
 11
59.00000000000001
 21
-4.036017213878077
 31
0.0
  0
LINE
  5
44E
330
18
100
AcDbEntity
  8
1
 62
     1
100
AcDbLine
 10
59.72113247308104
 20
-7.000000000000006
 30
0.0
 11
59.00000000000001
 21
-5.7509625
 31
0.0
  0
LINE
  5
44F
330
18
100
AcDbEntity
  8
1
 62
     1
100
AcDbLine
 10
59.72113247308103
 20
-5.635173491920061
 30
0.0
 11
59.72113247308104
 21
-7.0
 31
0.0
  0
ARC
  5
450
330
18
100
AcDbEntity
  8
1
 62
     1
100
AcDbCircle
 10
25.01171445868697
 20
11.01791371059313
 30
0.0
 40
38.54963021219377
100
AcDbArc
 50
334.4060873140523
 51
337.0136165883566
  0
LINE
  5
451
330
18
100
AcDbEntity
  8
1
 62
     1
100
AcDbLine
 10
59.77886752691897
 20
-5.635173491920061
 30
0.0
 11
59.77886752691897
 21
-7.0
 31
0.0
  0
LINE
  5
452
330
18
100
AcDbEntity
  8
1
 62
     1
100
AcDbLine
 10
60.50000000000001
 20
-5.7509625
 30
0.0
 11
59.77886752691897
 21
-7.000000000000006
 31
0.0
  0
ARC
  5
453
330
18
100
AcDbEntity
  8
1
 62
     1
100
AcDbCircle
 10
93.7571175290499
 20
10.00940133277153
 30
0.0
 40
36.10145772563136
100
AcDbArc
 50
202.8957047854096
 51
205.680068731622
  0
LINE
  5
454
330
18
100
AcDbEntity
  8
1
 62
     1
100
AcDbLine
 10
60.50000000000001
 20
-5.7509625
 30
0.0
 11
60.50000000000001
 21
-5.750603477785223
 31
0.0
  0
LINE
  5
455
330
18
100
AcDbEntity
  8
1
 62
     1
100
AcDbLine
 10
60.50000000000001
 20
-5.750603477785223
 30
0.0
 11
60.50000000000001
 21
-5.640146975809819
 31
0.0
  0
LINE
  5
456
330
18
100
AcDbEntity
  8
1
 62
     1
100
AcDbLine
 10
60.50000000000001
 20
-5.640146975809819
 30
0.0
 11
60.50000000000001
 21
-4.036017213878077
 31
0.0
  0
LINE
  5
457
330
18
100
AcDbEntity
  8
1
 62
     1
100
AcDbLine
 10
61.22113247308104
 20
-7.000000000000006
 30
0.0
 11
60.50000000000001
 21
-5.7509625
 31
0.0
  0
LINE
  5
458
330
18
100
AcDbEntity
  8
1
 62
     1
100
AcDbLine
 10
61.22113247308103
 20
-5.635173491920061
 30
0.0
 11
61.22113247308104
 21
-7.0
 31
0.0
  0
ARC
  5
459
330
18
100
AcDbEntity
  8
1
 62
     1
100
AcDbCircle
 10
26.511714458657
 20
11.01791371060706
 30
0.0
 40
38.54963021222681
100
AcDbArc
 50
334.4060873140528
 51
337.0136165883549
  0
LINE
  5
45A
330
18
100
AcDbEntity
  8
1
 62
     1
100
AcDbLine
 10
61.27886752691897
 20
-5.635173491920061
 30
0.0
 11
61.27886752691897
 21
-7.0
 31
0.0
  0
LINE
  5
45B
330
18
100
AcDbEntity
  8
1
 62
     1
100
AcDbLine
 10
62.00000000000001
 20
-5.7509625
 30
0.0
 11
61.27886752691897
 21
-7.000000000000006
 31
0.0
  0
LINE
  5
45C
330
18
100
AcDbEntity
  8
1
 62
     1
100
AcDbLine
 10
62.00000000000001
 20
-5.7509625
 30
0.0
 11
62.0
 21
-5.750603477785223
 31
0.0
  0
LINE
  5
45D
330
18
100
AcDbEntity
  8
1
 62
     1
100
AcDbLine
 10
62.0
 20
-5.750603477785223
 30
0.0
 11
62.0
 21
-5.640146975809819
 31
0.0
  0
LINE
  5
45E
330
18
100
AcDbEntity
  8
1
 62
     1
100
AcDbLine
 10
62.0
 20
-5.640146975809819
 30
0.0
 11
62.00000000000001
 21
-4.036017213878077
 31
0.0
  0
ARC
  5
45F
330
18
100
AcDbEntity
  8
1
 62
     1
100
AcDbCircle
 10
90.7571175290374
 20
10.00940133276611
 30
0.0
 40
36.10145772561775
100
AcDbArc
 50
202.8957047854094
 51
205.6800687316228
  0
LINE
  5
460
330
18
100
AcDbEntity
  8
1
 62
     1
100
AcDbLine
 10
58.22113247308103
 20
-6.999999999999993
 30
0.0
 11
57.50000000000001
 21
-5.7509625
 31
0.0
  0
LINE
  5
461
330
18
100
AcDbEntity
  8
1
 62
     1
100
AcDbLine
 10
58.22113247308103
 20
-5.635173491920061
 30
0.0
 11
58.22113247308103
 21
-7.0
 31
0.0
  0
ARC
  5
462
330
18
100
AcDbEntity
  8
1
 62
     1
100
AcDbCircle
 10
19.01171445867528
 20
11.01791371059895
 30
0.0
 40
38.54963021220682
100
AcDbArc
 50
334.406087314052
 51
337.0136165883554
  0
LINE
  5
463
330
18
100
AcDbEntity
  8
1
 62
     1
100
AcDbLine
 10
53.77886752691896
 20
-5.635173491920061
 30
0.0
 11
53.77886752691897
 21
-7.0
 31
0.0
  0
LINE
  5
464
330
18
100
AcDbEntity
  8
1
 62
     1
100
AcDbLine
 10
54.5
 20
-5.7509625
 30
0.0
 11
53.77886752691897
 21
-7.000000000000006
 31
0.0
  0
ARC
  5
465
330
18
100
AcDbEntity
  8
1
 62
     1
100
AcDbCircle
 10
87.75711752901158
 20
10.00940133275482
 30
0.0
 40
36.10145772558956
100
AcDbArc
 50
202.8957047854088
 51
205.6800687316245
  0
LINE
  5
466
330
18
100
AcDbEntity
  8
1
 62
     1
100
AcDbLine
 10
54.5
 20
-5.7509625
 30
0.0
 11
54.49999999999999
 21
-5.750603477785223
 31
0.0
  0
LINE
  5
467
330
18
100
AcDbEntity
  8
1
 62
     1
100
AcDbLine
 10
54.49999999999999
 20
-5.750603477785223
 30
0.0
 11
54.50000000000001
 21
-5.640146975809819
 31
0.0
  0
LINE
  5
468
330
18
100
AcDbEntity
  8
1
 62
     1
100
AcDbLine
 10
54.50000000000001
 20
-5.640146975809819
 30
0.0
 11
54.50000000000001
 21
-4.036017213878077
 31
0.0
  0
LINE
  5
469
330
18
100
AcDbEntity
  8
1
 62
     1
100
AcDbLine
 10
55.22113247308106
 20
-7.00000000000003
 30
0.0
 11
54.5
 21
-5.7509625
 31
0.0
  0
LINE
  5
46A
330
18
100
AcDbEntity
  8
1
 62
     1
100
AcDbLine
 10
55.22113247308105
 20
-5.635173491920061
 30
0.0
 11
55.22113247308106
 21
-7.0
 31
0.0
  0
ARC
  5
46B
330
18
100
AcDbEntity
  8
1
 62
     1
100
AcDbCircle
 10
20.51171445867843
 20
11.01791371059754
 30
0.0
 40
38.54963021220338
100
AcDbArc
 50
334.4060873140518
 51
337.0136165883555
  0
LINE
  5
46C
330
18
100
AcDbEntity
  8
1
 62
     1
100
AcDbLine
 10
55.27886752691897
 20
-5.635173491920061
 30
0.0
 11
55.27886752691897
 21
-7.0
 31
0.0
  0
LINE
  5
46D
330
18
100
AcDbEntity
  8
1
 62
     1
100
AcDbLine
 10
56.00000000000001
 20
-5.7509625
 30
0.0
 11
55.27886752691897
 21
-7.000000000000006
 31
0.0
  0
ARC
  5
46E
330
18
100
AcDbEntity
  8
1
 62
     1
100
AcDbCircle
 10
89.25711752900193
 20
10.00940133275019
 30
0.0
 40
36.10145772557886
100
AcDbArc
 50
202.895704785408
 51
205.6800687316245
  0
LINE
  5
46F
330
18
100
AcDbEntity
  8
1
 62
     1
100
AcDbLine
 10
56.00000000000001
 20
-5.7509625
 30
0.0
 11
56.00000000000001
 21
-5.750603477785223
 31
0.0
  0
LINE
  5
470
330
18
100
AcDbEntity
  8
1
 62
     1
100
AcDbLine
 10
56.00000000000001
 20
-5.750603477785223
 30
0.0
 11
56.00000000000001
 21
-5.640146975809819
 31
0.0
  0
LINE
  5
471
330
18
100
AcDbEntity
  8
1
 62
     1
100
AcDbLine
 10
56.00000000000001
 20
-5.640146975809819
 30
0.0
 11
56.00000000000001
 21
-4.036017213878077
 31
0.0
  0
LINE
  5
472
330
18
100
AcDbEntity
  8
1
 62
     1
100
AcDbLine
 10
56.72113247308105
 20
-5.635173491920061
 30
0.0
 11
56.72113247308105
 21
-7.0
 31
0.0
  0
ARC
  5
473
330
18
100
AcDbEntity
  8
1
 62
     1
100
AcDbCircle
 10
22.01171445867404
 20
11.01791371059892
 30
0.0
 40
38.54963021220794
100
AcDbArc
 50
334.4060873140528
 51
337.0136165883561
  0
LINE
  5
474
330
18
100
AcDbEntity
  8
1
 62
     1
100
AcDbLine
 10
56.77886752691897
 20
-5.635173491920061
 30
0.0
 11
56.77886752691898
 21
-7.0
 31
0.0
  0
LINE
  5
475
330
18
100
AcDbEntity
  8
1
 62
     1
100
AcDbLine
 10
57.50000000000001
 20
-5.7509625
 30
0.0
 11
56.77886752691898
 21
-6.999999999999994
 31
0.0
  0
LINE
  5
476
330
18
100
AcDbEntity
  8
1
 62
     1
100
AcDbLine
 10
57.50000000000001
 20
-5.7509625
 30
0.0
 11
57.5
 21
-5.750603477785223
 31
0.0
  0
LINE
  5
477
330
18
100
AcDbEntity
  8
1
 62
     1
100
AcDbLine
 10
57.5
 20
-5.750603477785223
 30
0.0
 11
57.50000000000001
 21
-5.640146975809819
 31
0.0
  0
LINE
  5
478
330
18
100
AcDbEntity
  8
1
 62
     1
100
AcDbLine
 10
57.50000000000001
 20
-5.640146975809819
 30
0.0
 11
57.50000000000001
 21
-4.036017213878077
 31
0.0
  0
LINE
  5
479
330
18
100
AcDbEntity
  8
1
 62
     1
100
AcDbLine
 10
49.44657281333724
 20
4.140276878390537
 30
0.0
 11
48.8824941888337
 21
4.127327495217548
 31
0.0
  0
LINE
  5
47A
330
18
100
AcDbEntity
  8
1
 62
     1
100
AcDbLine
 10
49.44657281333724
 20
-0.9762480755894878
 30
0.0
 11
48.88249419093776
 21
-0.8727628859253842
 31
0.0
  0
LINE
  5
47B
330
18
100
AcDbEntity
  8
1
 62
     1
100
AcDbLine
 10
49.44657281333723
 20
4.140276878390536
 30
0.0
 11
49.44657281333724
 21
-0.9762480755894877
 31
0.0
  0
ARC
  5
47C
330
18
100
AcDbEntity
  8
1
 62
     1
100
AcDbCircle
 10
60.76084784037283
 20
-516.184700363181
 30
0.0
 40
520.4474536993837
100
AcDbArc
 50
91.37244455000678
 51
91.4994500149687
  0
LINE
  5
47D
330
18
100
AcDbEntity
  8
1
 62
     1
100
AcDbLine
 10
48.29541014769362
 20
-0.7648195452298179
 30
0.0
 11
47.14211617
 21
-0.5519011124983825
 31
0.0
  0
LINE
  5
47E
330
18
100
AcDbEntity
  8
1
 62
     1
100
AcDbLine
 10
48.29541014769361
 20
4.113451966284935
 30
0.0
 11
48.29541014769361
 21
-0.7648195452298157
 31
0.0
  0
ARC
  5
47F
330
18
100
AcDbEntity
  8
1
 62
     1
100
AcDbCircle
 10
77.69064396141643
 20
8.237729104048082
 30
0.0
 40
31.66606228271242
100
AcDbArc
 50
202.8052199565903
 51
204.5296943841853
  0
LINE
  5
480
330
18
100
AcDbEntity
  8
1
 62
     1
100
AcDbLine
 10
48.5
 20
-5.7509625
 30
0.0
 11
48.49999999999999
 21
-5.750603477785223
 31
0.0
  0
LINE
  5
481
330
18
100
AcDbEntity
  8
1
 62
     1
100
AcDbLine
 10
48.49999999999999
 20
-5.750603477785223
 30
0.0
 11
48.5
 21
-5.640146975809819
 31
0.0
  0
LINE
  5
482
330
18
100
AcDbEntity
  8
1
 62
     1
100
AcDbLine
 10
48.5
 20
-5.640146975809819
 30
0.0
 11
48.50000000000001
 21
-4.036017213878077
 31
0.0
  0
LINE
  5
483
330
18
100
AcDbEntity
  8
1
 62
     1
100
AcDbLine
 10
48.88249419093774
 20
-4.908936442234925
 30
0.0
 11
48.88249419093775
 21
-6.413461563413732
 31
0.0
  0
LINE
  5
484
330
18
100
AcDbEntity
  8
1
 62
     1
100
AcDbLine
 10
48.2954101476936
 20
-4.511593284361991
 30
0.0
 11
48.5
 21
-4.036017213878078
 31
0.0
  0
LINE
  5
485
330
18
100
AcDbEntity
  8
1
 62
     1
100
AcDbLine
 10
48.29541014769362
 20
-4.511593284361982
 30
0.0
 11
48.29541014769361
 21
-6.105322353687278
 31
0.0
  0
LINE
  5
486
330
18
100
AcDbEntity
  8
1
 62
     1
100
AcDbLine
 10
48.5
 20
-5.7509625
 30
0.0
 11
48.29541014769362
 21
-6.105322353687286
 31
0.0
  0
ARC
  5
487
330
18
100
AcDbEntity
  8
1
 62
     1
100
AcDbCircle
 10
86.25711752903791
 20
10.00940133276657
 30
0.0
 40
36.1014577256184
100
AcDbArc
 50
202.8957047854097
 51
205.6800687316232
  0
LINE
  5
488
330
18
100
AcDbEntity
  8
1
 62
     1
100
AcDbLine
 10
53.72113247308103
 20
-7.000000000000006
 30
0.0
 11
53.0
 21
-5.7509625
 31
0.0
  0
LINE
  5
489
330
18
100
AcDbEntity
  8
1
 62
     1
100
AcDbLine
 10
53.72113247308103
 20
-5.635173491920061
 30
0.0
 11
53.72113247308103
 21
-7.0
 31
0.0
  0
ARC
  5
48A
330
18
100
AcDbEntity
  8
1
 62
     1
100
AcDbCircle
 10
17.51171445868849
 20
11.01791371059279
 30
0.0
 40
38.54963021219224
100
AcDbArc
 50
334.4060873140518
 51
337.0136165883562
  0
LINE
  5
48B
330
18
100
AcDbEntity
  8
1
 62
     1
100
AcDbLine
 10
52.27886752691896
 20
-5.635173491920061
 30
0.0
 11
52.27886752691897
 21
-7.0
 31
0.0
  0
LINE
  5
48C
330
18
100
AcDbEntity
  8
1
 62
     1
100
AcDbLine
 10
53.0
 20
-5.7509625
 30
0.0
 11
52.27886752691897
 21
-7.000000000000006
 31
0.0
  0
LINE
  5
48D
330
18
100
AcDbEntity
  8
1
 62
     1
100
AcDbLine
 10
53.0
 20
-5.7509625
 30
0.0
 11
53.0
 21
-5.750603477785223
 31
0.0
  0
LINE
  5
48E
330
18
100
AcDbEntity
  8
1
 62
     1
100
AcDbLine
 10
53.0
 20
-5.750603477785223
 30
0.0
 11
53.0
 21
-5.640146975809819
 31
0.0
  0
LINE
  5
48F
330
18
100
AcDbEntity
  8
1
 62
     1
100
AcDbLine
 10
53.0
 20
-5.640146975809819
 30
0.0
 11
53.00000000000001
 21
-4.036017213878077
 31
0.0
  0
ARC
  5
490
330
18
100
AcDbEntity
  8
1
 62
     1
100
AcDbCircle
 10
84.75711752907901
 20
10.00940133278455
 30
0.0
 40
36.10145772566325
100
AcDbArc
 50
202.8957047854107
 51
205.6800687316207
  0
LINE
  5
491
330
18
100
AcDbEntity
  8
1
 62
     1
100
AcDbLine
 10
52.22113247308103
 20
-7.000000000000006
 30
0.0
 11
51.5
 21
-5.7509625
 31
0.0
  0
LINE
  5
492
330
18
100
AcDbEntity
  8
1
 62
     1
100
AcDbLine
 10
52.22113247308104
 20
-5.635173491920061
 30
0.0
 11
52.22113247308103
 21
-7.0
 31
0.0
  0
ARC
  5
493
330
18
100
AcDbEntity
  8
1
 62
     1
100
AcDbCircle
 10
16.01171445870004
 20
11.01791371058738
 30
0.0
 40
38.54963021217949
100
AcDbArc
 50
334.4060873140516
 51
337.013616588357
  0
LINE
  5
494
330
18
100
AcDbEntity
  8
1
 62
     1
100
AcDbLine
 10
50.77886752691897
 20
-5.635173491920061
 30
0.0
 11
50.77886752691897
 21
-7.0
 31
0.0
  0
LINE
  5
495
330
18
100
AcDbEntity
  8
1
 62
     1
100
AcDbLine
 10
51.5
 20
-5.7509625
 30
0.0
 11
50.77886752691897
 21
-7.000000000000006
 31
0.0
  0
LINE
  5
496
330
18
100
AcDbEntity
  8
1
 62
     1
100
AcDbLine
 10
51.5
 20
-5.7509625
 30
0.0
 11
51.5
 21
-5.750603477785223
 31
0.0
  0
LINE
  5
497
330
18
100
AcDbEntity
  8
1
 62
     1
100
AcDbLine
 10
51.5
 20
-5.750603477785223
 30
0.0
 11
51.5
 21
-5.640146975809819
 31
0.0
  0
LINE
  5
498
330
18
100
AcDbEntity
  8
1
 62
     1
100
AcDbLine
 10
51.5
 20
-5.640146975809819
 30
0.0
 11
51.5
 21
-4.036017213878077
 31
0.0
  0
ARC
  5
499
330
18
100
AcDbEntity
  8
1
 62
     1
100
AcDbCircle
 10
17.13700637929611
 20
9.849668779080844
 30
0.0
 40
35.67638885257146
100
AcDbArc
 50
334.9079694639898
 51
337.0943575063195
  0
LINE
  5
49A
330
18
100
AcDbEntity
  8
1
 62
     1
100
AcDbLine
 10
49.44657281333723
 20
-5.279758261709718
 30
0.0
 11
49.44657281333724
 21
-6.709526058659235
 31
0.0
  0
LINE
  5
49B
330
18
100
AcDbEntity
  8
1
 62
     1
100
AcDbLine
 10
50.0
 20
-5.7509625
 30
0.0
 11
49.44657281333724
 21
-6.709526058659232
 31
0.0
  0
ARC
  5
49C
330
18
100
AcDbEntity
  8
1
 62
     1
100
AcDbCircle
 10
83.25711752905158
 20
10.00940133277224
 30
0.0
 40
36.10145772563319
100
AcDbArc
 50
202.8957047854096
 51
205.6800687316219
  0
LINE
  5
49D
330
18
100
AcDbEntity
  8
1
 62
     1
100
AcDbLine
 10
50.0
 20
-5.7509625
 30
0.0
 11
50.0
 21
-5.750603477785223
 31
0.0
  0
LINE
  5
49E
330
18
100
AcDbEntity
  8
1
 62
     1
100
AcDbLine
 10
50.0
 20
-5.750603477785223
 30
0.0
 11
50.0
 21
-5.640146975809819
 31
0.0
  0
LINE
  5
49F
330
18
100
AcDbEntity
  8
1
 62
     1
100
AcDbLine
 10
50.0
 20
-5.640146975809819
 30
0.0
 11
50.0
 21
-4.036017213878077
 31
0.0
  0
LINE
  5
4A0
330
18
100
AcDbEntity
  8
1
 62
     1
100
AcDbLine
 10
50.72113247308103
 20
-7.000000000000006
 30
0.0
 11
50.0
 21
-5.7509625
 31
0.0
  0
LINE
  5
4A1
330
18
100
AcDbEntity
  8
1
 62
     1
100
AcDbLine
 10
50.72113247308103
 20
-5.635173491920061
 30
0.0
 11
50.72113247308103
 21
-7.0
 31
0.0
  0
LINE
  5
4A2
330
18
100
AcDbEntity
  8
1
 62
     1
100
AcDbLine
 10
58.27886752691897
 20
-5.635173491920062
 30
0.0
 11
58.22113247308103
 21
-5.635173491920062
 31
0.0
  0
LINE
  5
4A3
330
18
100
AcDbEntity
  8
1
 62
     1
100
AcDbLine
 10
62.77886752691896
 20
-5.635173491920062
 30
0.0
 11
62.72113247308103
 21
-5.635173491920059
 31
0.0
  0
LINE
  5
4A4
330
18
100
AcDbEntity
  8
1
 62
     1
100
AcDbLine
 10
55.27886752691897
 20
-1.077590679886238
 30
0.0
 11
55.22113247308106
 21
-1.077590679886238
 31
0.0
  0
LINE
  5
4A5
330
18
100
AcDbEntity
  8
1
 62
     1
100
AcDbLine
 10
52.27886752691896
 20
-1.077590679886238
 30
0.0
 11
52.22113247308103
 21
-1.077590679886238
 31
0.0
  0
ARC
  5
4A6
330
18
100
AcDbEntity
  8
1
 62
     1
100
AcDbCircle
 10
64.30088426487363
 20
-58.74780733764955
 30
0.0
 40
63.05935840902215
100
AcDbArc
 50
85.27071027183524
 51
85.63942633085716
  0
LINE
  5
4A7
330
18
100
AcDbEntity
  8
1
 62
     1
100
AcDbLine
 10
69.09547151883426
 20
4.129015974118021
 30
0.0
 11
69.09547151883426
 21
-0.8861146045040128
 31
0.0
  0
LINE
  5
4A8
330
18
100
AcDbEntity
  8
1
 62
     1
100
AcDbLine
 10
69.09547151883426
 20
-0.886114604504037
 30
0.0
 11
69.5
 21
-0.6403325485032978
 31
0.0
  0
LINE
  5
4A9
330
18
100
AcDbEntity
  8
1
 62
     1
100
AcDbLine
 10
69.49999999999999
 20
-0.6403325485033018
 30
0.0
 11
69.5
 21
4.096844483951776
 31
0.0
  0
ARC
  5
4AA
330
18
100
AcDbEntity
  8
1
 62
     1
100
AcDbCircle
 10
73.0689199491397
 20
-57.07753560288024
 30
0.0
 40
61.38402988804014
100
AcDbArc
 50
94.30789600020911
 51
94.73671773020185
  0
LINE
  5
4AB
330
18
100
AcDbEntity
  8
1
 62
     1
100
AcDbLine
 10
68.0
 20
-0.6403325485032978
 30
0.0
 11
68.45798676250422
 21
-0.9184927797885176
 31
0.0
  0
LINE
  5
4AC
330
18
100
AcDbEntity
  8
1
 62
     1
100
AcDbLine
 10
68.45798676250423
 20
4.133087870251141
 30
0.0
 11
68.45798676250422
 21
-0.9184927798899347
 31
0.0
  0
LINE
  5
4AD
330
18
100
AcDbEntity
  8
1
 62
     1
100
AcDbLine
 10
70.7327725239109
 20
6.161729194917131
 30
0.0
 11
69.84193172231119
 21
6.286243267313498
 31
0.0
  0
LINE
  5
4AE
330
18
100
AcDbEntity
  8
1
 62
     1
100
AcDbLine
 10
69.84193172231119
 20
6.343205339629097
 30
0.0
 11
70.7327725239109
 21
6.213813849960125
 31
0.0
  0
LINE
  5
4AF
330
18
100
AcDbEntity
  8
1
 62
     1
100
AcDbLine
 10
69.0954715248369
 20
6.390483562056295
 30
0.0
 11
68.45798676257772
 21
6.479441830027482
 31
0.0
  0
LINE
  5
4B0
330
18
100
AcDbEntity
  8
1
 62
     1
100
AcDbLine
 10
68.45798676250422
 20
6.544218471995425
 30
0.0
 11
69.09547151883426
 21
6.451626055803122
 31
0.0
  0
LINE
  5
4B1
330
18
100
AcDbEntity
  8
1
 62
     1
100
AcDbLine
 10
67.45817051375762
 20
6.618849708078768
 30
0.0
 11
67.07404180269724
 21
6.67237531825201
 31
0.0
  0
LINE
  5
4B2
330
18
100
AcDbEntity
  8
1
 62
     1
100
AcDbLine
 10
67.07404180269724
 20
6.745231604361757
 30
0.0
 11
67.45817051375761
 21
6.689438261646122
 31
0.0
  0
LINE
  5
4B3
330
18
100
AcDbEntity
  8
1
 62
     1
100
AcDbLine
 10
65.82086950869684
 20
6.846869400152814
 30
0.0
 11
65.69009684289027
 21
6.865067697368847
 31
0.0
  0
LINE
  5
4B4
330
18
100
AcDbEntity
  8
1
 62
     1
100
AcDbLine
 10
65.69009684289027
 20
6.946244736728086
 30
0.0
 11
65.82086950868097
 21
6.92725046748912
 31
0.0
  0
ARC
  5
4B5
330
18
100
AcDbEntity
  8
1
 62
     1
100
AcDbCircle
 10
74.22455145209095
 20
-52.82038691853736
 30
0.0
 40
57.11298267465863
100
AcDbArc
 50
94.40097257507341
 51
94.7450954352402
  0
LINE
  5
4B6
330
18
100
AcDbEntity
  8
1
 62
     1
100
AcDbLine
 10
69.5
 20
-0.6403325485032978
 30
0.0
 11
69.84193172231119
 21
-0.8481742538269157
 31
0.0
  0
LINE
  5
4B7
330
18
100
AcDbEntity
  8
1
 62
     1
100
AcDbLine
 10
69.84193172231117
 20
4.124202942861224
 30
0.0
 11
69.84193172231117
 21
-0.8481742538269003
 31
0.0
  0
ARC
  5
4B8
330
18
100
AcDbEntity
  8
1
 62
     1
100
AcDbCircle
 10
66.31212964341206
 20
-52.3921818826648
 30
0.0
 40
56.68321359665958
100
AcDbArc
 50
85.25604982082736
 51
85.52704195111993
  0
LINE
  5
4B9
330
18
100
AcDbEntity
  8
1
 62
     1
100
AcDbLine
 10
70.73277252391088
 20
4.118389769704605
 30
0.0
 11
70.7327725239109
 21
-0.8028548377278664
 31
0.0
  0
LINE
  5
4BA
330
18
100
AcDbEntity
  8
1
 62
     1
100
AcDbLine
 10
70.7327725239109
 20
-0.8028548377273661
 30
0.0
 11
71.0
 21
-0.6403325485032978
 31
0.0
  0
LINE
  5
4BB
330
18
100
AcDbEntity
  8
1
 62
     1
100
AcDbLine
 10
64.27886752691896
 20
6.916559717563517
 30
0.0
 11
64.22113247308104
 21
6.916559717563517
 31
0.0
  0
LINE
  5
4BC
330
18
100
AcDbEntity
  8
1
 62
     1
100
AcDbLine
 10
62.77886752691897
 20
6.916559717563517
 30
0.0
 11
62.72113247308104
 21
6.916559717563517
 31
0.0
  0
LINE
  5
4BD
330
18
100
AcDbEntity
  8
1
 62
     1
100
AcDbLine
 10
61.22113247308104
 20
7.0
 30
0.0
 11
61.27886752691897
 21
6.999999999999999
 31
0.0
  0
LINE
  5
4BE
330
18
100
AcDbEntity
  8
1
 62
     1
100
AcDbLine
 10
59.77886752691897
 20
6.916559717563517
 30
0.0
 11
59.72113247308103
 21
6.916559717563517
 31
0.0
  0
LINE
  5
4BF
330
18
100
AcDbEntity
  8
1
 62
     1
100
AcDbLine
 10
58.27886752691899
 20
6.916559717563517
 30
0.0
 11
58.22113247308105
 21
6.91655971756352
 31
0.0
  0
LINE
  5
4C0
330
18
100
AcDbEntity
  8
1
 62
     1
100
AcDbLine
 10
56.77886752691897
 20
6.916559717563517
 30
0.0
 11
56.72113247308103
 21
6.916559717563517
 31
0.0
  0
LINE
  5
4C1
330
18
100
AcDbEntity
  8
1
 62
     1
100
AcDbLine
 10
53.77886752691896
 20
6.916559717563517
 30
0.0
 11
53.72113247308104
 21
6.916559717563515
 31
0.0
  0
LINE
  5
4C2
330
18
100
AcDbEntity
  8
1
 62
     1
100
AcDbLine
 10
52.27886752691897
 20
6.916559717563517
 30
0.0
 11
52.22113247308103
 21
6.916559717563517
 31
0.0
  0
LINE
  5
4C3
330
18
100
AcDbEntity
  8
1
 62
     1
100
AcDbLine
 10
50.77886752691897
 20
6.916559717563517
 30
0.0
 11
50.72113247308103
 21
6.916559717563517
 31
0.0
  0
ARC
  5
4C4
330
18
100
AcDbEntity
  8
1
 62
     1
100
AcDbCircle
 10
55.57382428670471
 20
-74.29498977002032
 30
0.0
 40
78.65484178089375
100
AcDbArc
 50
85.31365327977298
 51
85.84053384113601
  0
LINE
  5
4C5
330
18
100
AcDbEntity
  8
1
 62
     1
100
AcDbLine
 10
61.27886752691897
 20
-1.077590679886241
 30
0.0
 11
62.00000000000001
 21
-0.6403325485032978
 31
0.0
  0
LINE
  5
4C6
330
18
100
AcDbEntity
  8
1
 62
     1
100
AcDbLine
 10
62.0
 20
-0.6403325485033018
 30
0.0
 11
62.00000000000001
 21
4.096844483951776
 31
0.0
  0
ARC
  5
4C7
330
18
100
AcDbEntity
  8
1
 62
     1
100
AcDbCircle
 10
66.36588280936273
 20
-67.04265499476135
 30
0.0
 40
71.38093845767187
100
AcDbArc
 50
94.13314947253816
 51
94.71372064578355
  0
LINE
  5
4C8
330
18
100
AcDbEntity
  8
1
 62
     1
100
AcDbLine
 10
60.50000000000001
 20
-0.6403325485032978
 30
0.0
 11
61.22113247308104
 21
-1.077590679886241
 31
0.0
  0
ARC
  5
4C9
330
18
100
AcDbEntity
  8
1
 62
     1
100
AcDbCircle
 10
54.07382428666394
 20
-74.29498977055582
 30
0.0
 40
78.65484178143078
100
AcDbArc
 50
85.31365327977525
 51
85.84053384113466
  0
LINE
  5
4CA
330
18
100
AcDbEntity
  8
1
 62
     1
100
AcDbLine
 10
59.77886752691897
 20
-1.077590679886241
 30
0.0
 11
60.50000000000001
 21
-0.6403325485032978
 31
0.0
  0
LINE
  5
4CB
330
18
100
AcDbEntity
  8
1
 62
     1
100
AcDbLine
 10
60.50000000000001
 20
-0.6403325485033018
 30
0.0
 11
60.50000000000001
 21
4.096844483951776
 31
0.0
  0
ARC
  5
4CC
330
18
100
AcDbEntity
  8
1
 62
     1
100
AcDbCircle
 10
52.57382428667519
 20
-74.29498977040726
 30
0.0
 40
78.65484178128179
100
AcDbArc
 50
85.31365327977456
 51
85.84053384113498
  0
LINE
  5
4CD
330
18
100
AcDbEntity
  8
1
 62
     1
100
AcDbLine
 10
58.27886752691897
 20
4.152688251718573
 30
0.0
 11
58.27886752691897
 21
-1.077590679886246
 31
0.0
  0
LINE
  5
4CE
330
18
100
AcDbEntity
  8
1
 62
     1
100
AcDbLine
 10
58.27886752691897
 20
-1.077590679886241
 30
0.0
 11
59.00000000000001
 21
-0.6403325485032978
 31
0.0
  0
LINE
  5
4CF
330
18
100
AcDbEntity
  8
1
 62
     1
100
AcDbLine
 10
59.00000000000001
 20
-0.6403325485033018
 30
0.0
 11
59.00000000000001
 21
4.096844483951776
 31
0.0
  0
ARC
  5
4D0
330
18
100
AcDbEntity
  8
1
 62
     1
100
AcDbCircle
 10
62.27788562502339
 20
-65.32702032888335
 30
0.0
 40
69.6593094696193
100
AcDbArc
 50
85.28816798561546
 51
85.73520469204482
  0
LINE
  5
4D1
330
18
100
AcDbEntity
  8
1
 62
     1
100
AcDbLine
 10
67.45817051375761
 20
4.13940850143015
 30
0.0
 11
67.45817051375761
 21
-0.969233097990685
 31
0.0
  0
LINE
  5
4D2
330
18
100
AcDbEntity
  8
1
 62
     1
100
AcDbLine
 10
67.45817051375761
 20
-0.9692330979906902
 30
0.0
 11
68.0
 21
-0.6403325485032978
 31
0.0
  0
LINE
  5
4D3
330
18
100
AcDbEntity
  8
1
 62
     1
100
AcDbLine
 10
68.0
 20
-0.6403325485033018
 30
0.0
 11
68.0
 21
4.096844483951776
 31
0.0
  0
ARC
  5
4D4
330
18
100
AcDbEntity
  8
1
 62
     1
100
AcDbCircle
 10
71.91729214552302
 20
-61.41489918971797
 30
0.0
 40
65.73535091916983
100
AcDbArc
 50
94.22526628749809
 51
94.72714317348536
  0
LINE
  5
4D5
330
18
100
AcDbEntity
  8
1
 62
     1
100
AcDbLine
 10
66.5
 20
-0.6403325485033018
 30
0.0
 11
66.5
 21
4.096844483951776
 31
0.0
  0
LINE
  5
4D6
330
18
100
AcDbEntity
  8
1
 62
     1
100
AcDbLine
 10
66.5
 20
-0.6403325485032978
 30
0.0
 11
67.07404180269724
 21
-0.9887148268646784
 31
0.0
  0
LINE
  5
4D7
330
18
100
AcDbEntity
  8
1
 62
     1
100
AcDbLine
 10
67.07404180269722
 20
4.141816997680986
 30
0.0
 11
67.07404180269725
 21
-0.9887148268646794
 31
0.0
  0
ARC
  5
4D8
330
18
100
AcDbEntity
  8
1
 62
     1
100
AcDbCircle
 10
60.24106054186733
 20
-72.15392182414121
 30
0.0
 40
76.50726115231859
100
AcDbArc
 50
85.30747471480169
 51
85.81760528813973
  0
LINE
  5
4D9
330
18
100
AcDbEntity
  8
1
 62
     1
100
AcDbLine
 10
65.82086950868096
 20
4.149604052539707
 30
0.0
 11
65.82086950868097
 21
-1.05222547871561
 31
0.0
  0
LINE
  5
4DA
330
18
100
AcDbEntity
  8
1
 62
     1
100
AcDbLine
 10
65.82086950868097
 20
-1.052225478694073
 30
0.0
 11
66.5
 21
-0.6403325485032978
 31
0.0
  0
ARC
  5
4DB
330
18
100
AcDbEntity
  8
1
 62
     1
100
AcDbCircle
 10
70.77055922868827
 20
-65.84293871669624
 30
0.0
 40
70.17744562585736
100
AcDbArc
 50
94.15152949196462
 51
94.71665013553076
  0
LINE
  5
4DC
330
18
100
AcDbEntity
  8
1
 62
     1
100
AcDbLine
 10
65.0
 20
-0.6403325485032978
 30
0.0
 11
65.69009684289027
 21
-1.058849117233147
 31
0.0
  0
LINE
  5
4DD
330
18
100
AcDbEntity
  8
1
 62
     1
100
AcDbLine
 10
65.69009684289028
 20
4.150410795216685
 30
0.0
 11
65.69009684289027
 21
-1.058849117233144
 31
0.0
  0
ARC
  5
4DE
330
18
100
AcDbEntity
  8
1
 62
     1
100
AcDbCircle
 10
58.57382428667403
 20
-74.29498977042263
 30
0.0
 40
78.65484178129722
100
AcDbArc
 50
85.31365327977461
 51
85.84053384113496
  0
LINE
  5
4DF
330
18
100
AcDbEntity
  8
1
 62
     1
100
AcDbLine
 10
64.27886752691896
 20
-1.077590679886245
 30
0.0
 11
65.0
 21
-0.6403325485032978
 31
0.0
  0
LINE
  5
4E0
330
18
100
AcDbEntity
  8
1
 62
     1
100
AcDbLine
 10
65.0
 20
-0.6403325485033018
 30
0.0
 11
65.00000000000001
 21
4.096844483951776
 31
0.0
  0
ARC
  5
4E1
330
18
100
AcDbEntity
  8
1
 62
     1
100
AcDbCircle
 10
69.3658828093583
 20
-67.04265499470297
 30
0.0
 40
71.38093845761334
100
AcDbArc
 50
94.13314947253802
 51
94.71372064578385
  0
LINE
  5
4E2
330
18
100
AcDbEntity
  8
1
 62
     1
100
AcDbLine
 10
63.50000000000001
 20
-0.6403325485032978
 30
0.0
 11
64.22113247308103
 21
-1.077590679886238
 31
0.0
  0
LINE
  5
4E3
330
18
100
AcDbEntity
  8
1
 62
     1
100
AcDbLine
 10
64.22113247308101
 20
4.152688251718573
 30
0.0
 11
64.22113247308101
 21
-1.077590679886246
 31
0.0
  0
ARC
  5
4E4
330
18
100
AcDbEntity
  8
1
 62
     1
100
AcDbCircle
 10
57.07382428670702
 20
-74.29498976999098
 30
0.0
 40
78.6548417808643
100
AcDbArc
 50
85.31365327977291
 51
85.84053384113614
  0
LINE
  5
4E5
330
18
100
AcDbEntity
  8
1
 62
     1
100
AcDbLine
 10
62.77886752691897
 20
-1.077590679886241
 30
0.0
 11
63.50000000000001
 21
-0.6403325485032978
 31
0.0
  0
LINE
  5
4E6
330
18
100
AcDbEntity
  8
1
 62
     1
100
AcDbLine
 10
63.50000000000001
 20
-0.6403325485033018
 30
0.0
 11
63.50000000000001
 21
4.096844483951776
 31
0.0
  0
ARC
  5
4E7
330
18
100
AcDbEntity
  8
1
 62
     1
100
AcDbCircle
 10
67.86588280935632
 20
-67.04265499467836
 30
0.0
 40
71.38093845758864
100
AcDbArc
 50
94.13314947253784
 51
94.7137206457839
  0
LINE
  5
4E8
330
18
100
AcDbEntity
  8
1
 62
     1
100
AcDbLine
 10
62.00000000000001
 20
-0.6403325485032978
 30
0.0
 11
62.72113247308104
 21
-1.077590679886241
 31
0.0
  0
LINE
  5
4E9
330
18
100
AcDbEntity
  8
1
 62
     1
100
AcDbLine
 10
62.72113247308104
 20
4.152688251718573
 30
0.0
 11
62.72113247308103
 21
-1.077590679886246
 31
0.0
  0
ARC
  5
4EA
330
18
100
AcDbEntity
  8
1
 62
     1
100
AcDbCircle
 10
64.86588280935774
 20
-67.04265499469746
 30
0.0
 40
71.3809384576078
100
AcDbArc
 50
94.13314947253787
 51
94.71372064578375
  0
LINE
  5
4EB
330
18
100
AcDbEntity
  8
1
 62
     1
100
AcDbLine
 10
59.00000000000001
 20
-0.6403325485032978
 30
0.0
 11
59.72113247308104
 21
-1.077590679886241
 31
0.0
  0
LINE
  5
4EC
330
18
100
AcDbEntity
  8
1
 62
     1
100
AcDbLine
 10
59.72113247308103
 20
4.152688251718573
 30
0.0
 11
59.72113247308103
 21
-1.077590679886246
 31
0.0
  0
ARC
  5
4ED
330
18
100
AcDbEntity
  8
1
 62
     1
100
AcDbCircle
 10
51.07382428667632
 20
-74.29498977038656
 30
0.0
 40
78.65484178126107
100
AcDbArc
 50
85.31365327977417
 51
85.84053384113473
  0
LINE
  5
4EE
330
18
100
AcDbEntity
  8
1
 62
     1
100
AcDbLine
 10
56.77886752691897
 20
4.152688251718572
 30
0.0
 11
56.77886752691897
 21
-1.077590679886246
 31
0.0
  0
LINE
  5
4EF
330
18
100
AcDbEntity
  8
1
 62
     1
100
AcDbLine
 10
56.77886752691899
 20
-1.077590679886238
 30
0.0
 11
57.50000000000001
 21
-0.6403325485032978
 31
0.0
  0
LINE
  5
4F0
330
18
100
AcDbEntity
  8
1
 62
     1
100
AcDbLine
 10
57.50000000000001
 20
-0.6403325485033018
 30
0.0
 11
57.50000000000001
 21
4.096844483951776
 31
0.0
  0
ARC
  5
4F1
330
18
100
AcDbEntity
  8
1
 62
     1
100
AcDbCircle
 10
61.86588280935588
 20
-67.04265499466958
 30
0.0
 40
71.38093845757984
100
AcDbArc
 50
94.13314947253798
 51
94.71372064578411
  0
LINE
  5
4F2
330
18
100
AcDbEntity
  8
1
 62
     1
100
AcDbLine
 10
56.00000000000001
 20
-0.6403325485032978
 30
0.0
 11
56.72113247308104
 21
-1.077590679886243
 31
0.0
  0
LINE
  5
4F3
330
18
100
AcDbEntity
  8
1
 62
     1
100
AcDbLine
 10
56.72113247308105
 20
4.152688251718573
 30
0.0
 11
56.72113247308103
 21
-1.077590679886246
 31
0.0
  0
ARC
  5
4F4
330
18
100
AcDbEntity
  8
1
 62
     1
100
AcDbCircle
 10
49.57382428666857
 20
-74.29498977049745
 30
0.0
 40
78.65484178137224
100
AcDbArc
 50
85.31365327977511
 51
85.84053384113493
  0
LINE
  5
4F5
330
18
100
AcDbEntity
  8
1
 62
     1
100
AcDbLine
 10
55.27886752691899
 20
4.152688251718572
 30
0.0
 11
55.27886752691897
 21
-1.077590679886246
 31
0.0
  0
LINE
  5
4F6
330
18
100
AcDbEntity
  8
1
 62
     1
100
AcDbLine
 10
55.27886752691897
 20
-1.077590679886241
 30
0.0
 11
56.00000000000001
 21
-0.6403325485032978
 31
0.0
  0
LINE
  5
4F7
330
18
100
AcDbEntity
  8
1
 62
     1
100
AcDbLine
 10
56.00000000000001
 20
-0.6403325485033018
 30
0.0
 11
56.00000000000001
 21
4.096844483951776
 31
0.0
  0
ARC
  5
4F8
330
18
100
AcDbEntity
  8
1
 62
     1
100
AcDbCircle
 10
60.36588280935632
 20
-67.04265499467813
 30
0.0
 40
71.38093845758841
100
AcDbArc
 50
94.13314947253784
 51
94.71372064578392
  0
LINE
  5
4F9
330
18
100
AcDbEntity
  8
1
 62
     1
100
AcDbLine
 10
54.5
 20
-0.6403325485032978
 30
0.0
 11
55.22113247308106
 21
-1.077590679886249
 31
0.0
  0
ARC
  5
4FA
330
18
100
AcDbEntity
  8
1
 62
     1
100
AcDbCircle
 10
48.0738242866932
 20
-74.29498977017396
 30
0.0
 40
78.6548417810478
100
AcDbArc
 50
85.31365327977376
 51
85.84053384113575
  0
LINE
  5
4FB
330
18
100
AcDbEntity
  8
1
 62
     1
100
AcDbLine
 10
53.77886752691896
 20
4.152688251718573
 30
0.0
 11
53.77886752691896
 21
-1.077590679886246
 31
0.0
  0
LINE
  5
4FC
330
18
100
AcDbEntity
  8
1
 62
     1
100
AcDbLine
 10
53.77886752691897
 20
-1.077590679886241
 30
0.0
 11
54.5
 21
-0.6403325485032978
 31
0.0
  0
LINE
  5
4FD
330
18
100
AcDbEntity
  8
1
 62
     1
100
AcDbLine
 10
54.49999999999999
 20
-0.6403325485033018
 30
0.0
 11
54.50000000000001
 21
4.096844483951776
 31
0.0
  0
ARC
  5
4FE
330
18
100
AcDbEntity
  8
1
 62
     1
100
AcDbCircle
 10
63.3658828093611
 20
-67.04265499473945
 30
0.0
 40
71.38093845764992
100
AcDbArc
 50
94.13314947253812
 51
94.71372064578368
  0
LINE
  5
4FF
330
18
100
AcDbEntity
  8
1
 62
     1
100
AcDbLine
 10
57.50000000000001
 20
-0.6403325485032978
 30
0.0
 11
58.22113247308103
 21
-1.077590679886238
 31
0.0
  0
LINE
  5
500
330
18
100
AcDbEntity
  8
1
 62
     1
100
AcDbLine
 10
58.22113247308103
 20
4.152688251718573
 30
0.0
 11
58.22113247308103
 21
-1.077590679886246
 31
0.0
  0
LINE
  5
501
330
18
100
AcDbEntity
  8
1
 62
     1
100
AcDbLine
 10
49.44657281333724
 20
6.638123200629463
 30
0.0
 11
48.88249419093776
 21
6.353799978779357
 31
0.0
  0
LINE
  5
502
330
18
100
AcDbEntity
  8
1
 62
     1
100
AcDbLine
 10
48.88249419093775
 20
6.413461563413732
 30
0.0
 11
49.44657281333724
 21
6.709526058659236
 31
0.0
  0
LINE
  5
503
330
18
100
AcDbEntity
  8
1
 62
     1
100
AcDbLine
 10
48.29541014769362
 20
6.057228087637782
 30
0.0
 11
47.14211616999999
 21
5.472239501522483
 31
0.0
  0
LINE
  5
504
330
18
100
AcDbEntity
  8
1
 62
     1
100
AcDbLine
 10
47.14211617
 20
5.5
 30
0.0
 11
48.29541014769361
 21
6.105322353687278
 31
0.0
  0
ARC
  5
505
330
18
100
AcDbEntity
  8
1
 62
     1
100
AcDbCircle
 10
53.34457613357677
 20
-54.30062512625703
 30
0.0
 40
58.59807687950136
100
AcDbArc
 50
94.36714218280822
 51
94.74232217906545
  0
LINE
  5
506
330
18
100
AcDbEntity
  8
1
 62
     1
100
AcDbLine
 10
48.5
 20
-0.6403325485032978
 30
0.0
 11
48.88249419093775
 21
-0.8727628859254044
 31
0.0
  0
LINE
  5
507
330
18
100
AcDbEntity
  8
1
 62
     1
100
AcDbLine
 10
48.88249419093775
 20
4.127327492637724
 30
0.0
 11
48.88249419093776
 21
-0.8727628859253816
 31
0.0
  0
LINE
  5
508
330
18
100
AcDbEntity
  8
1
 62
     1
100
AcDbLine
 10
48.29541014769361
 20
4.113451966284938
 30
0.0
 11
48.5
 21
4.096844483951775
 31
0.0
  0
LINE
  5
509
330
18
100
AcDbEntity
  8
1
 62
     1
100
AcDbLine
 10
48.29541014769362
 20
-0.7648195452298221
 30
0.0
 11
48.5
 21
-0.6403325485032978
 31
0.0
  0
LINE
  5
50A
330
18
100
AcDbEntity
  8
1
 62
     1
100
AcDbLine
 10
48.49999999999999
 20
-0.6403325485033018
 30
0.0
 11
48.50000000000001
 21
4.096844483951776
 31
0.0
  0
ARC
  5
50B
330
18
100
AcDbEntity
  8
1
 62
     1
100
AcDbCircle
 10
58.86588280936165
 20
-67.04265499474725
 30
0.0
 40
71.38093845765775
100
AcDbArc
 50
94.13314947253812
 51
94.71372064578361
  0
LINE
  5
50C
330
18
100
AcDbEntity
  8
1
 62
     1
100
AcDbLine
 10
53.0
 20
-0.6403325485032978
 30
0.0
 11
53.72113247308104
 21
-1.077590679886241
 31
0.0
  0
LINE
  5
50D
330
18
100
AcDbEntity
  8
1
 62
     1
100
AcDbLine
 10
53.72113247308103
 20
4.152688251718573
 30
0.0
 11
53.72113247308103
 21
-1.077590679886246
 31
0.0
  0
ARC
  5
50E
330
18
100
AcDbEntity
  8
1
 62
     1
100
AcDbCircle
 10
46.57382428668907
 20
-74.29498977023054
 30
0.0
 40
78.65484178110455
100
AcDbArc
 50
85.31365327977413
 51
85.84053384113575
  0
LINE
  5
50F
330
18
100
AcDbEntity
  8
1
 62
     1
100
AcDbLine
 10
52.27886752691897
 20
-1.077590679886241
 30
0.0
 11
53.0
 21
-0.6403325485032978
 31
0.0
  0
LINE
  5
510
330
18
100
AcDbEntity
  8
1
 62
     1
100
AcDbLine
 10
53.0
 20
-0.6403325485033018
 30
0.0
 11
53.00000000000001
 21
4.096844483951776
 31
0.0
  0
ARC
  5
511
330
18
100
AcDbEntity
  8
1
 62
     1
100
AcDbCircle
 10
57.36588280935666
 20
-67.0426549946823
 30
0.0
 40
71.3809384575926
100
AcDbArc
 50
94.13314947253791
 51
94.7137206457839
  0
LINE
  5
512
330
18
100
AcDbEntity
  8
1
 62
     1
100
AcDbLine
 10
51.5
 20
-0.6403325485032978
 30
0.0
 11
52.22113247308103
 21
-1.077590679886241
 31
0.0
  0
LINE
  5
513
330
18
100
AcDbEntity
  8
1
 62
     1
100
AcDbLine
 10
52.22113247308104
 20
4.152688251718573
 30
0.0
 11
52.22113247308103
 21
-1.077590679886246
 31
0.0
  0
ARC
  5
514
330
18
100
AcDbEntity
  8
1
 62
     1
100
AcDbCircle
 10
45.07382428666784
 20
-74.2949897705035
 30
0.0
 40
78.65484178137834
100
AcDbArc
 50
85.31365327977497
 51
85.84053384113476
  0
LINE
  5
515
330
18
100
AcDbEntity
  8
1
 62
     1
100
AcDbLine
 10
50.77886752691897
 20
4.152688251718572
 30
0.0
 11
50.77886752691897
 21
-1.077590679886246
 31
0.0
  0
LINE
  5
516
330
18
100
AcDbEntity
  8
1
 62
     1
100
AcDbLine
 10
50.77886752691897
 20
-1.077590679886241
 30
0.0
 11
51.5
 21
-0.6403325485032978
 31
0.0
  0
LINE
  5
517
330
18
100
AcDbEntity
  8
1
 62
     1
100
AcDbLine
 10
51.5
 20
-0.6403325485033018
 30
0.0
 11
51.5
 21
4.096844483951776
 31
0.0
  0
ARC
  5
518
330
18
100
AcDbEntity
  8
1
 62
     1
100
AcDbCircle
 10
44.23304220491062
 20
-65.89455980199749
 30
0.0
 40
70.22861607992724
100
AcDbArc
 50
85.28974116278971
 51
85.74264240454669
  0
LINE
  5
519
330
18
100
AcDbEntity
  8
1
 62
     1
100
AcDbLine
 10
49.44657281333724
 20
-0.9762480755894865
 30
0.0
 11
50.0
 21
-0.6403325485032978
 31
0.0
  0
LINE
  5
51A
330
18
100
AcDbEntity
  8
1
 62
     1
100
AcDbLine
 10
50.0
 20
-0.6403325485033018
 30
0.0
 11
50.0
 21
4.096844483951776
 31
0.0
  0
ARC
  5
51B
330
18
100
AcDbEntity
  8
1
 62
     1
100
AcDbCircle
 10
55.86588280936136
 20
-67.0426549947433
 30
0.0
 40
71.38093845765378
100
AcDbArc
 50
94.13314947253816
 51
94.71372064578365
  0
LINE
  5
51C
330
18
100
AcDbEntity
  8
1
 62
     1
100
AcDbLine
 10
50.0
 20
-0.6403325485032978
 30
0.0
 11
50.72113247308103
 21
-1.077590679886241
 31
0.0
  0
LINE
  5
51D
330
18
100
AcDbEntity
  8
1
 62
     1
100
AcDbLine
 10
52.27886752691894
 20
4.152688251718572
 30
0.0
 11
52.22113247308103
 21
4.152688251718572
 31
0.0
  0
LINE
  5
51E
330
18
100
AcDbEntity
  8
1
 62
     1
100
AcDbLine
 10
53.77886752691898
 20
4.152688251718572
 30
0.0
 11
53.72113247308103
 21
4.152688251718572
 31
0.0
  0
LINE
  5
51F
330
18
100
AcDbEntity
  8
1
 62
     1
100
AcDbLine
 10
56.77886752691898
 20
4.152688251718572
 30
0.0
 11
56.72113247308107
 21
4.152688251718572
 31
0.0
  0
LINE
  5
520
330
18
100
AcDbEntity
  8
1
 62
     1
100
AcDbLine
 10
61.27886752691897
 20
6.916559717563517
 30
0.0
 11
61.22113247308104
 21
6.916559717563517
 31
0.0
  0
LINE
  5
521
330
18
100
AcDbEntity
  8
1
 62
     1
100
AcDbLine
 10
55.27886752691899
 20
6.916559717563517
 30
0.0
 11
55.22113247308103
 21
6.916559717563517
 31
0.0
  0
LINE
  5
522
330
18
100
AcDbEntity
  8
1
 62
     1
100
AcDbLine
 10
67.99999999999999
 20
5.71520287511594
 30
0.0
 11
68.0
 21
5.7509625
 31
0.0
  0
LINE
  5
523
330
18
100
AcDbEntity
  8
1
 62
     1
100
AcDbLine
 10
68.0
 20
5.71520287511594
 30
0.0
 11
68.45798676250422
 21
6.479441829562376
 31
0.0
  0
LINE
  5
524
330
18
100
AcDbEntity
  8
1
 62
     1
100
AcDbLine
 10
68.45798676250422
 20
6.544218471995425
 30
0.0
 11
68.4579867625042
 21
6.544203454828777
 31
0.0
  0
LINE
  5
525
330
18
100
AcDbEntity
  8
1
 62
     1
100
AcDbLine
 10
68.4579867625042
 20
6.544203454828777
 30
0.0
 11
68.45798676250422
 21
6.539817705147991
 31
0.0
  0
LINE
  5
526
330
18
100
AcDbEntity
  8
1
 62
     1
100
AcDbLine
 10
68.45798676250422
 20
6.539817705147991
 30
0.0
 11
68.45798676250423
 21
6.479441829562366
 31
0.0
  0
LINE
  5
527
330
18
100
AcDbEntity
  8
1
 62
     1
100
AcDbLine
 10
69.09547151883426
 20
6.451626055803122
 30
0.0
 11
69.09547151883426
 21
6.451611866992849
 31
0.0
  0
LINE
  5
528
330
18
100
AcDbEntity
  8
1
 62
     1
100
AcDbLine
 10
69.09547151883426
 20
6.451611866992849
 30
0.0
 11
69.09547151883424
 21
6.447469229262858
 31
0.0
  0
LINE
  5
529
330
18
100
AcDbEntity
  8
1
 62
     1
100
AcDbLine
 10
69.09547151883424
 20
6.447469229262858
 30
0.0
 11
69.09547151883426
 21
6.390483524085044
 31
0.0
  0
LINE
  5
52A
330
18
100
AcDbEntity
  8
1
 62
     1
100
AcDbLine
 10
69.09547151883426
 20
6.390483524085072
 30
0.0
 11
69.5
 21
5.71520287511594
 31
0.0
  0
LINE
  5
52B
330
18
100
AcDbEntity
  8
1
 62
     1
100
AcDbLine
 10
69.5
 20
5.71520287511594
 30
0.0
 11
69.5
 21
5.7509625
 31
0.0
  0
LINE
  5
52C
330
18
100
AcDbEntity
  8
1
 62
     1
100
AcDbLine
 10
69.5
 20
5.71520287511594
 30
0.0
 11
69.84193172231119
 21
6.28624326731351
 31
0.0
  0
LINE
  5
52D
330
18
100
AcDbEntity
  8
1
 62
     1
100
AcDbLine
 10
69.84193172231119
 20
6.343205339629097
 30
0.0
 11
69.84193172231119
 21
6.343192104908949
 31
0.0
  0
LINE
  5
52E
330
18
100
AcDbEntity
  8
1
 62
     1
100
AcDbLine
 10
69.84193172231119
 20
6.343192104908949
 30
0.0
 11
69.84193172231119
 21
6.339329373894131
 31
0.0
  0
LINE
  5
52F
330
18
100
AcDbEntity
  8
1
 62
     1
100
AcDbLine
 10
69.84193172231119
 20
6.339329373894131
 30
0.0
 11
69.84193172231119
 21
6.286243267313497
 31
0.0
  0
LINE
  5
530
330
18
100
AcDbEntity
  8
1
 62
     1
100
AcDbLine
 10
70.7327725239109
 20
6.213813849960125
 30
0.0
 11
70.7327725239109
 21
6.213801730140853
 31
0.0
  0
LINE
  5
531
330
18
100
AcDbEntity
  8
1
 62
     1
100
AcDbLine
 10
70.7327725239109
 20
6.213801730140853
 30
0.0
 11
70.7327725239109
 21
6.210265929621787
 31
0.0
  0
LINE
  5
532
330
18
100
AcDbEntity
  8
1
 62
     1
100
AcDbLine
 10
70.7327725239109
 20
6.210265929621787
 30
0.0
 11
70.7327725239109
 21
6.161729194917061
 31
0.0
  0
LINE
  5
533
330
18
100
AcDbEntity
  8
1
 62
     1
100
AcDbLine
 10
70.7327725239109
 20
6.16172919491714
 30
0.0
 11
71.0
 21
5.71520287511594
 31
0.0
  0
LINE
  5
534
330
18
100
AcDbEntity
  8
1
 62
     1
100
AcDbLine
 10
61.27886752691897
 20
7.0
 30
0.0
 11
61.27886752691897
 21
6.999980741964308
 31
0.0
  0
LINE
  5
535
330
18
100
AcDbEntity
  8
1
 62
     1
100
AcDbLine
 10
61.27886752691897
 20
6.999980741964308
 30
0.0
 11
61.27886752691897
 21
6.994349160360636
 31
0.0
  0
LINE
  5
536
330
18
100
AcDbEntity
  8
1
 62
     1
100
AcDbLine
 10
61.27886752691897
 20
6.994349160360636
 30
0.0
 11
61.27886752691897
 21
6.916559717563515
 31
0.0
  0
LINE
  5
537
330
18
100
AcDbEntity
  8
1
 62
     1
100
AcDbLine
 10
61.27886752691897
 20
6.916559717563525
 30
0.0
 11
62.0
 21
5.71520287511594
 31
0.0
  0
LINE
  5
538
330
18
100
AcDbEntity
  8
1
 62
     1
100
AcDbLine
 10
62.00000000000001
 20
5.71520287511594
 30
0.0
 11
62.00000000000001
 21
5.7509625
 31
0.0
  0
LINE
  5
539
330
18
100
AcDbEntity
  8
1
 62
     1
100
AcDbLine
 10
60.50000000000001
 20
5.71520287511594
 30
0.0
 11
61.22113247308104
 21
6.916559717563523
 31
0.0
  0
LINE
  5
53A
330
18
100
AcDbEntity
  8
1
 62
     1
100
AcDbLine
 10
61.22113247308104
 20
7.0
 30
0.0
 11
61.22113247308104
 21
6.999980741964308
 31
0.0
  0
LINE
  5
53B
330
18
100
AcDbEntity
  8
1
 62
     1
100
AcDbLine
 10
61.22113247308104
 20
6.999980741964308
 30
0.0
 11
61.22113247308104
 21
6.994349160360636
 31
0.0
  0
LINE
  5
53C
330
18
100
AcDbEntity
  8
1
 62
     1
100
AcDbLine
 10
61.22113247308104
 20
6.994349160360636
 30
0.0
 11
61.22113247308105
 21
6.916559717563516
 31
0.0
  0
LINE
  5
53D
330
18
100
AcDbEntity
  8
1
 62
     1
100
AcDbLine
 10
59.77886752691897
 20
7.0
 30
0.0
 11
59.77886752691897
 21
6.999980741964308
 31
0.0
  0
LINE
  5
53E
330
18
100
AcDbEntity
  8
1
 62
     1
100
AcDbLine
 10
59.77886752691897
 20
6.999980741964308
 30
0.0
 11
59.77886752691897
 21
6.994349160360636
 31
0.0
  0
LINE
  5
53F
330
18
100
AcDbEntity
  8
1
 62
     1
100
AcDbLine
 10
59.77886752691897
 20
6.994349160360636
 30
0.0
 11
59.77886752691898
 21
6.916559717563516
 31
0.0
  0
LINE
  5
540
330
18
100
AcDbEntity
  8
1
 62
     1
100
AcDbLine
 10
59.77886752691897
 20
6.916559717563525
 30
0.0
 11
60.50000000000001
 21
5.71520287511594
 31
0.0
  0
LINE
  5
541
330
18
100
AcDbEntity
  8
1
 62
     1
100
AcDbLine
 10
60.5
 20
5.71520287511594
 30
0.0
 11
60.50000000000001
 21
5.7509625
 31
0.0
  0
LINE
  5
542
330
18
100
AcDbEntity
  8
1
 62
     1
100
AcDbLine
 10
58.27886752691897
 20
7.0
 30
0.0
 11
58.27886752691897
 21
6.999980741964308
 31
0.0
  0
LINE
  5
543
330
18
100
AcDbEntity
  8
1
 62
     1
100
AcDbLine
 10
58.27886752691897
 20
6.999980741964308
 30
0.0
 11
58.27886752691897
 21
6.994349160360636
 31
0.0
  0
LINE
  5
544
330
18
100
AcDbEntity
  8
1
 62
     1
100
AcDbLine
 10
58.27886752691897
 20
6.994349160360636
 30
0.0
 11
58.27886752691897
 21
6.916559717563515
 31
0.0
  0
LINE
  5
545
330
18
100
AcDbEntity
  8
1
 62
     1
100
AcDbLine
 10
58.27886752691897
 20
6.916559717563525
 30
0.0
 11
59.00000000000001
 21
5.71520287511594
 31
0.0
  0
LINE
  5
546
330
18
100
AcDbEntity
  8
1
 62
     1
100
AcDbLine
 10
59.00000000000001
 20
5.71520287511594
 30
0.0
 11
59.00000000000001
 21
5.750962499182235
 31
0.0
  0
LINE
  5
547
330
18
100
AcDbEntity
  8
1
 62
     1
100
AcDbLine
 10
67.45817051375761
 20
6.689438261646122
 30
0.0
 11
67.45817051375761
 21
6.689421921587369
 31
0.0
  0
LINE
  5
548
330
18
100
AcDbEntity
  8
1
 62
     1
100
AcDbLine
 10
67.45817051375761
 20
6.689421921587369
 30
0.0
 11
67.45817051375761
 21
6.68464775326574
 31
0.0
  0
LINE
  5
549
330
18
100
AcDbEntity
  8
1
 62
     1
100
AcDbLine
 10
67.45817051375761
 20
6.68464775326574
 30
0.0
 11
67.45817051375761
 21
6.618849708078772
 31
0.0
  0
LINE
  5
54A
330
18
100
AcDbEntity
  8
1
 62
     1
100
AcDbLine
 10
67.45817051375761
 20
6.618849708078786
 30
0.0
 11
68.0
 21
5.71520287511594
 31
0.0
  0
LINE
  5
54B
330
18
100
AcDbEntity
  8
1
 62
     1
100
AcDbLine
 10
66.5
 20
5.71520287511594
 30
0.0
 11
67.07404180269725
 21
6.672375318252008
 31
0.0
  0
LINE
  5
54C
330
18
100
AcDbEntity
  8
1
 62
     1
100
AcDbLine
 10
67.07404180269724
 20
6.745231604361756
 30
0.0
 11
67.07404180269724
 21
6.745214748714523
 31
0.0
  0
LINE
  5
54D
330
18
100
AcDbEntity
  8
1
 62
     1
100
AcDbLine
 10
67.07404180269724
 20
6.745214748714523
 30
0.0
 11
67.07404180269724
 21
6.740289144166357
 31
0.0
  0
LINE
  5
54E
330
18
100
AcDbEntity
  8
1
 62
     1
100
AcDbLine
 10
67.07404180269724
 20
6.740289144166357
 30
0.0
 11
67.07404180269724
 21
6.67237531825201
 31
0.0
  0
LINE
  5
54F
330
18
100
AcDbEntity
  8
1
 62
     1
100
AcDbLine
 10
65.82086950868097
 20
6.927250467489118
 30
0.0
 11
65.82086950868097
 21
6.927231903201883
 31
0.0
  0
LINE
  5
550
330
18
100
AcDbEntity
  8
1
 62
     1
100
AcDbLine
 10
65.82086950868097
 20
6.927231903201883
 30
0.0
 11
65.82086950868097
 21
6.921804247957997
 31
0.0
  0
LINE
  5
551
330
18
100
AcDbEntity
  8
1
 62
     1
100
AcDbLine
 10
65.82086950868097
 20
6.921804247957997
 30
0.0
 11
65.82086950868097
 21
6.846869400044805
 31
0.0
  0
LINE
  5
552
330
18
100
AcDbEntity
  8
1
 62
     1
100
AcDbLine
 10
65.82086950868097
 20
6.84686940004812
 30
0.0
 11
66.5
 21
5.71520287511594
 31
0.0
  0
LINE
  5
553
330
18
100
AcDbEntity
  8
1
 62
     1
100
AcDbLine
 10
66.5
 20
5.71520287511594
 30
0.0
 11
66.5
 21
5.7509625
 31
0.0
  0
LINE
  5
554
330
18
100
AcDbEntity
  8
1
 62
     1
100
AcDbLine
 10
65.0
 20
5.71520287511594
 30
0.0
 11
65.69009684289027
 21
6.865067697368854
 31
0.0
  0
LINE
  5
555
330
18
100
AcDbEntity
  8
1
 62
     1
100
AcDbLine
 10
65.69009684289027
 20
6.946244736728085
 30
0.0
 11
65.69009684289027
 21
6.946225991887334
 31
0.0
  0
LINE
  5
556
330
18
100
AcDbEntity
  8
1
 62
     1
100
AcDbLine
 10
65.69009684289027
 20
6.946225991887334
 30
0.0
 11
65.69009684289026
 21
6.940745267593547
 31
0.0
  0
LINE
  5
557
330
18
100
AcDbEntity
  8
1
 62
     1
100
AcDbLine
 10
65.69009684289026
 20
6.940745267593547
 30
0.0
 11
65.69009684289027
 21
6.865067697368848
 31
0.0
  0
LINE
  5
558
330
18
100
AcDbEntity
  8
1
 62
     1
100
AcDbLine
 10
64.27886752691896
 20
7.0
 30
0.0
 11
64.27886752691896
 21
6.999980741964308
 31
0.0
  0
LINE
  5
559
330
18
100
AcDbEntity
  8
1
 62
     1
100
AcDbLine
 10
64.27886752691896
 20
6.999980741964308
 30
0.0
 11
64.27886752691896
 21
6.994349160360637
 31
0.0
  0
LINE
  5
55A
330
18
100
AcDbEntity
  8
1
 62
     1
100
AcDbLine
 10
64.27886752691896
 20
6.994349160360637
 30
0.0
 11
64.27886752691894
 21
6.916559717563517
 31
0.0
  0
LINE
  5
55B
330
18
100
AcDbEntity
  8
1
 62
     1
100
AcDbLine
 10
64.27886752691896
 20
6.916559717563533
 30
0.0
 11
65.0
 21
5.71520287511594
 31
0.0
  0
LINE
  5
55C
330
18
100
AcDbEntity
  8
1
 62
     1
100
AcDbLine
 10
65.0
 20
5.71520287511594
 30
0.0
 11
65.0
 21
5.7509625
 31
0.0
  0
LINE
  5
55D
330
18
100
AcDbEntity
  8
1
 62
     1
100
AcDbLine
 10
63.50000000000001
 20
5.71520287511594
 30
0.0
 11
64.22113247308103
 21
6.916559717563516
 31
0.0
  0
LINE
  5
55E
330
18
100
AcDbEntity
  8
1
 62
     1
100
AcDbLine
 10
64.22113247308103
 20
7.0
 30
0.0
 11
64.22113247308101
 21
6.999980741964308
 31
0.0
  0
LINE
  5
55F
330
18
100
AcDbEntity
  8
1
 62
     1
100
AcDbLine
 10
64.22113247308101
 20
6.999980741964308
 30
0.0
 11
64.22113247308103
 21
6.994349160360636
 31
0.0
  0
LINE
  5
560
330
18
100
AcDbEntity
  8
1
 62
     1
100
AcDbLine
 10
64.22113247308103
 20
6.994349160360636
 30
0.0
 11
64.22113247308103
 21
6.916559717563515
 31
0.0
  0
LINE
  5
561
330
18
100
AcDbEntity
  8
1
 62
     1
100
AcDbLine
 10
62.77886752691897
 20
7.0
 30
0.0
 11
62.77886752691897
 21
6.999980741964308
 31
0.0
  0
LINE
  5
562
330
18
100
AcDbEntity
  8
1
 62
     1
100
AcDbLine
 10
62.77886752691897
 20
6.999980741964308
 30
0.0
 11
62.77886752691897
 21
6.994349160360636
 31
0.0
  0
LINE
  5
563
330
18
100
AcDbEntity
  8
1
 62
     1
100
AcDbLine
 10
62.77886752691897
 20
6.994349160360636
 30
0.0
 11
62.77886752691896
 21
6.916559717563515
 31
0.0
  0
LINE
  5
564
330
18
100
AcDbEntity
  8
1
 62
     1
100
AcDbLine
 10
62.77886752691898
 20
6.916559717563525
 30
0.0
 11
63.50000000000001
 21
5.71520287511594
 31
0.0
  0
LINE
  5
565
330
18
100
AcDbEntity
  8
1
 62
     1
100
AcDbLine
 10
63.5
 20
5.71520287511594
 30
0.0
 11
63.50000000000001
 21
5.7509625
 31
0.0
  0
LINE
  5
566
330
18
100
AcDbEntity
  8
1
 62
     1
100
AcDbLine
 10
62.0
 20
5.71520287511594
 30
0.0
 11
62.72113247308104
 21
6.916559717563523
 31
0.0
  0
LINE
  5
567
330
18
100
AcDbEntity
  8
1
 62
     1
100
AcDbLine
 10
62.72113247308104
 20
7.0
 30
0.0
 11
62.72113247308103
 21
6.999980741964308
 31
0.0
  0
LINE
  5
568
330
18
100
AcDbEntity
  8
1
 62
     1
100
AcDbLine
 10
62.72113247308103
 20
6.999980741964308
 30
0.0
 11
62.72113247308104
 21
6.994349160360636
 31
0.0
  0
LINE
  5
569
330
18
100
AcDbEntity
  8
1
 62
     1
100
AcDbLine
 10
62.72113247308104
 20
6.994349160360636
 30
0.0
 11
62.72113247308103
 21
6.916559717563515
 31
0.0
  0
LINE
  5
56A
330
18
100
AcDbEntity
  8
1
 62
     1
100
AcDbLine
 10
59.00000000000001
 20
5.71520287511594
 30
0.0
 11
59.72113247308104
 21
6.916559717563523
 31
0.0
  0
LINE
  5
56B
330
18
100
AcDbEntity
  8
1
 62
     1
100
AcDbLine
 10
59.72113247308104
 20
7.0
 30
0.0
 11
59.72113247308104
 21
6.999980741964308
 31
0.0
  0
LINE
  5
56C
330
18
100
AcDbEntity
  8
1
 62
     1
100
AcDbLine
 10
59.72113247308104
 20
6.999980741964308
 30
0.0
 11
59.72113247308104
 21
6.994349160360636
 31
0.0
  0
LINE
  5
56D
330
18
100
AcDbEntity
  8
1
 62
     1
100
AcDbLine
 10
59.72113247308104
 20
6.994349160360636
 30
0.0
 11
59.72113247308104
 21
6.916559717563515
 31
0.0
  0
LINE
  5
56E
330
18
100
AcDbEntity
  8
1
 62
     1
100
AcDbLine
 10
56.77886752691898
 20
7.0
 30
0.0
 11
56.77886752691898
 21
6.999980741964308
 31
0.0
  0
LINE
  5
56F
330
18
100
AcDbEntity
  8
1
 62
     1
100
AcDbLine
 10
56.77886752691898
 20
6.999980741964308
 30
0.0
 11
56.77886752691898
 21
6.994349160360636
 31
0.0
  0
LINE
  5
570
330
18
100
AcDbEntity
  8
1
 62
     1
100
AcDbLine
 10
56.77886752691898
 20
6.994349160360636
 30
0.0
 11
56.77886752691897
 21
6.916559717563515
 31
0.0
  0
LINE
  5
571
330
18
100
AcDbEntity
  8
1
 62
     1
100
AcDbLine
 10
56.77886752691898
 20
6.916559717563516
 30
0.0
 11
57.50000000000001
 21
5.71520287511594
 31
0.0
  0
LINE
  5
572
330
18
100
AcDbEntity
  8
1
 62
     1
100
AcDbLine
 10
57.50000000000001
 20
5.71520287511594
 30
0.0
 11
57.50000000000001
 21
5.7509625
 31
0.0
  0
LINE
  5
573
330
18
100
AcDbEntity
  8
1
 62
     1
100
AcDbLine
 10
56.00000000000001
 20
5.71520287511594
 30
0.0
 11
56.72113247308104
 21
6.916559717563531
 31
0.0
  0
LINE
  5
574
330
18
100
AcDbEntity
  8
1
 62
     1
100
AcDbLine
 10
56.72113247308105
 20
7.0
 30
0.0
 11
56.72113247308104
 21
6.999980741964308
 31
0.0
  0
LINE
  5
575
330
18
100
AcDbEntity
  8
1
 62
     1
100
AcDbLine
 10
56.72113247308104
 20
6.999980741964308
 30
0.0
 11
56.72113247308104
 21
6.994349160360636
 31
0.0
  0
LINE
  5
576
330
18
100
AcDbEntity
  8
1
 62
     1
100
AcDbLine
 10
56.72113247308104
 20
6.994349160360636
 30
0.0
 11
56.72113247308104
 21
6.916559717563515
 31
0.0
  0
LINE
  5
577
330
18
100
AcDbEntity
  8
1
 62
     1
100
AcDbLine
 10
55.27886752691897
 20
7.0
 30
0.0
 11
55.27886752691897
 21
6.999980741964308
 31
0.0
  0
LINE
  5
578
330
18
100
AcDbEntity
  8
1
 62
     1
100
AcDbLine
 10
55.27886752691897
 20
6.999980741964308
 30
0.0
 11
55.27886752691898
 21
6.994349160360636
 31
0.0
  0
LINE
  5
579
330
18
100
AcDbEntity
  8
1
 62
     1
100
AcDbLine
 10
55.27886752691898
 20
6.994349160360636
 30
0.0
 11
55.27886752691897
 21
6.916559717563515
 31
0.0
  0
LINE
  5
57A
330
18
100
AcDbEntity
  8
1
 62
     1
100
AcDbLine
 10
55.27886752691897
 20
6.916559717563525
 30
0.0
 11
56.00000000000001
 21
5.71520287511594
 31
0.0
  0
LINE
  5
57B
330
18
100
AcDbEntity
  8
1
 62
     1
100
AcDbLine
 10
56.00000000000001
 20
5.71520287511594
 30
0.0
 11
56.00000000000001
 21
5.7509625
 31
0.0
  0
LINE
  5
57C
330
18
100
AcDbEntity
  8
1
 62
     1
100
AcDbLine
 10
54.5
 20
5.71520287511594
 30
0.0
 11
55.22113247308106
 21
6.916559717563546
 31
0.0
  0
LINE
  5
57D
330
18
100
AcDbEntity
  8
1
 62
     1
100
AcDbLine
 10
55.22113247308106
 20
7.0
 30
0.0
 11
55.22113247308106
 21
6.999980741964308
 31
0.0
  0
LINE
  5
57E
330
18
100
AcDbEntity
  8
1
 62
     1
100
AcDbLine
 10
55.22113247308106
 20
6.999980741964308
 30
0.0
 11
55.22113247308106
 21
6.994349160360636
 31
0.0
  0
LINE
  5
57F
330
18
100
AcDbEntity
  8
1
 62
     1
100
AcDbLine
 10
55.22113247308106
 20
6.994349160360636
 30
0.0
 11
55.22113247308106
 21
6.916559717563516
 31
0.0
  0
LINE
  5
580
330
18
100
AcDbEntity
  8
1
 62
     1
100
AcDbLine
 10
53.77886752691897
 20
7.0
 30
0.0
 11
53.77886752691896
 21
6.999980741964308
 31
0.0
  0
LINE
  5
581
330
18
100
AcDbEntity
  8
1
 62
     1
100
AcDbLine
 10
53.77886752691896
 20
6.999980741964308
 30
0.0
 11
53.77886752691897
 21
6.994349160360636
 31
0.0
  0
LINE
  5
582
330
18
100
AcDbEntity
  8
1
 62
     1
100
AcDbLine
 10
53.77886752691897
 20
6.994349160360636
 30
0.0
 11
53.77886752691897
 21
6.916559717563516
 31
0.0
  0
LINE
  5
583
330
18
100
AcDbEntity
  8
1
 62
     1
100
AcDbLine
 10
53.77886752691897
 20
6.916559717563525
 30
0.0
 11
54.5
 21
5.71520287511594
 31
0.0
  0
LINE
  5
584
330
18
100
AcDbEntity
  8
1
 62
     1
100
AcDbLine
 10
54.5
 20
5.71520287511594
 30
0.0
 11
54.5
 21
5.7509625
 31
0.0
  0
LINE
  5
585
330
18
100
AcDbEntity
  8
1
 62
     1
100
AcDbLine
 10
57.50000000000001
 20
5.71520287511594
 30
0.0
 11
58.22113247308103
 21
6.916559717563517
 31
0.0
  0
LINE
  5
586
330
18
100
AcDbEntity
  8
1
 62
     1
100
AcDbLine
 10
58.22113247308103
 20
7.0
 30
0.0
 11
58.22113247308103
 21
6.999980741964308
 31
0.0
  0
LINE
  5
587
330
18
100
AcDbEntity
  8
1
 62
     1
100
AcDbLine
 10
58.22113247308103
 20
6.999980741964308
 30
0.0
 11
58.22113247308103
 21
6.994349160360636
 31
0.0
  0
LINE
  5
588
330
18
100
AcDbEntity
  8
1
 62
     1
100
AcDbLine
 10
58.22113247308103
 20
6.994349160360636
 30
0.0
 11
58.22113247308103
 21
6.916559717563515
 31
0.0
  0
LINE
  5
589
330
18
100
AcDbEntity
  8
1
 62
     1
100
AcDbLine
 10
50.0
 20
5.71520287511594
 30
0.0
 11
50.0
 21
5.7509625
 31
0.0
  0
LINE
  5
58A
330
18
100
AcDbEntity
  8
1
 62
     1
100
AcDbLine
 10
50.0
 20
5.71520287511594
 30
0.0
 11
50.72113247308103
 21
6.916559717563523
 31
0.0
  0
LINE
  5
58B
330
18
100
AcDbEntity
  8
1
 62
     1
100
AcDbLine
 10
50.72113247308103
 20
7.0
 30
0.0
 11
50.72113247308103
 21
6.999980741964308
 31
0.0
  0
LINE
  5
58C
330
18
100
AcDbEntity
  8
1
 62
     1
100
AcDbLine
 10
50.72113247308103
 20
6.999980741964308
 30
0.0
 11
50.72113247308104
 21
6.994349160360637
 31
0.0
  0
LINE
  5
58D
330
18
100
AcDbEntity
  8
1
 62
     1
100
AcDbLine
 10
50.72113247308104
 20
6.994349160360637
 30
0.0
 11
50.72113247308103
 21
6.916559717563517
 31
0.0
  0
LINE
  5
58E
330
18
100
AcDbEntity
  8
1
 62
     1
100
AcDbLine
 10
48.5
 20
5.71520287511594
 30
0.0
 11
48.88249419093775
 21
6.353799978779373
 31
0.0
  0
LINE
  5
58F
330
18
100
AcDbEntity
  8
1
 62
     1
100
AcDbLine
 10
48.88249419093775
 20
6.413461563413732
 30
0.0
 11
48.88249419093775
 21
6.413447712443228
 31
0.0
  0
LINE
  5
590
330
18
100
AcDbEntity
  8
1
 62
     1
100
AcDbLine
 10
48.88249419093775
 20
6.413447712443228
 30
0.0
 11
48.88249419093775
 21
6.409404202011348
 31
0.0
  0
LINE
  5
591
330
18
100
AcDbEntity
  8
1
 62
     1
100
AcDbLine
 10
48.88249419093775
 20
6.409404202011348
 30
0.0
 11
48.88249419093774
 21
6.353799978779352
 31
0.0
  0
LINE
  5
592
330
18
100
AcDbEntity
  8
1
 62
     1
100
AcDbLine
 10
48.29541014769361
 20
6.105322353687278
 30
0.0
 11
48.29541014769361
 21
6.105311147524266
 31
0.0
  0
LINE
  5
593
330
18
100
AcDbEntity
  8
1
 62
     1
100
AcDbLine
 10
48.29541014769361
 20
6.105311147524266
 30
0.0
 11
48.29541014769361
 21
6.102043132128217
 31
0.0
  0
LINE
  5
594
330
18
100
AcDbEntity
  8
1
 62
     1
100
AcDbLine
 10
48.29541014769361
 20
6.102043132128217
 30
0.0
 11
48.29541014769361
 21
6.057228087637778
 31
0.0
  0
LINE
  5
595
330
18
100
AcDbEntity
  8
1
 62
     1
100
AcDbLine
 10
48.29541014769362
 20
6.057228087637789
 30
0.0
 11
48.5
 21
5.71520287511594
 31
0.0
  0
LINE
  5
596
330
18
100
AcDbEntity
  8
1
 62
     1
100
AcDbLine
 10
48.49999999999999
 20
5.71520287511594
 30
0.0
 11
48.5
 21
5.7509625
 31
0.0
  0
LINE
  5
597
330
18
100
AcDbEntity
  8
1
 62
     1
100
AcDbLine
 10
53.0
 20
5.71520287511594
 30
0.0
 11
53.72113247308103
 21
6.916559717563523
 31
0.0
  0
LINE
  5
598
330
18
100
AcDbEntity
  8
1
 62
     1
100
AcDbLine
 10
53.72113247308103
 20
7.0
 30
0.0
 11
53.72113247308103
 21
6.999980741964308
 31
0.0
  0
LINE
  5
599
330
18
100
AcDbEntity
  8
1
 62
     1
100
AcDbLine
 10
53.72113247308103
 20
6.999980741964308
 30
0.0
 11
53.72113247308103
 21
6.994349160360636
 31
0.0
  0
LINE
  5
59A
330
18
100
AcDbEntity
  8
1
 62
     1
100
AcDbLine
 10
53.72113247308103
 20
6.994349160360636
 30
0.0
 11
53.72113247308103
 21
6.916559717563515
 31
0.0
  0
LINE
  5
59B
330
18
100
AcDbEntity
  8
1
 62
     1
100
AcDbLine
 10
52.27886752691897
 20
7.0
 30
0.0
 11
52.27886752691897
 21
6.999980741964308
 31
0.0
  0
LINE
  5
59C
330
18
100
AcDbEntity
  8
1
 62
     1
100
AcDbLine
 10
52.27886752691897
 20
6.999980741964308
 30
0.0
 11
52.27886752691897
 21
6.994349160360636
 31
0.0
  0
LINE
  5
59D
330
18
100
AcDbEntity
  8
1
 62
     1
100
AcDbLine
 10
52.27886752691897
 20
6.994349160360636
 30
0.0
 11
52.27886752691897
 21
6.916559717563515
 31
0.0
  0
LINE
  5
59E
330
18
100
AcDbEntity
  8
1
 62
     1
100
AcDbLine
 10
52.27886752691897
 20
6.916559717563525
 30
0.0
 11
53.0
 21
5.71520287511594
 31
0.0
  0
LINE
  5
59F
330
18
100
AcDbEntity
  8
1
 62
     1
100
AcDbLine
 10
52.99999999999999
 20
5.71520287511594
 30
0.0
 11
53.0
 21
5.7509625
 31
0.0
  0
LINE
  5
5A0
330
18
100
AcDbEntity
  8
1
 62
     1
100
AcDbLine
 10
51.5
 20
5.71520287511594
 30
0.0
 11
52.22113247308103
 21
6.916559717563523
 31
0.0
  0
LINE
  5
5A1
330
18
100
AcDbEntity
  8
1
 62
     1
100
AcDbLine
 10
52.22113247308103
 20
7.0
 30
0.0
 11
52.22113247308103
 21
6.999980741964308
 31
0.0
  0
LINE
  5
5A2
330
18
100
AcDbEntity
  8
1
 62
     1
100
AcDbLine
 10
52.22113247308103
 20
6.999980741964308
 30
0.0
 11
52.22113247308103
 21
6.994349160360636
 31
0.0
  0
LINE
  5
5A3
330
18
100
AcDbEntity
  8
1
 62
     1
100
AcDbLine
 10
52.22113247308103
 20
6.994349160360636
 30
0.0
 11
52.22113247308103
 21
6.916559717563515
 31
0.0
  0
LINE
  5
5A4
330
18
100
AcDbEntity
  8
1
 62
     1
100
AcDbLine
 10
50.77886752691897
 20
7.0
 30
0.0
 11
50.77886752691897
 21
6.999980741964308
 31
0.0
  0
LINE
  5
5A5
330
18
100
AcDbEntity
  8
1
 62
     1
100
AcDbLine
 10
50.77886752691897
 20
6.999980741964308
 30
0.0
 11
50.77886752691897
 21
6.994349160360636
 31
0.0
  0
LINE
  5
5A6
330
18
100
AcDbEntity
  8
1
 62
     1
100
AcDbLine
 10
50.77886752691897
 20
6.994349160360636
 30
0.0
 11
50.77886752691896
 21
6.916559717563515
 31
0.0
  0
LINE
  5
5A7
330
18
100
AcDbEntity
  8
1
 62
     1
100
AcDbLine
 10
50.77886752691897
 20
6.916559717563525
 30
0.0
 11
51.5
 21
5.71520287511594
 31
0.0
  0
LINE
  5
5A8
330
18
100
AcDbEntity
  8
1
 62
     1
100
AcDbLine
 10
51.5
 20
5.71520287511594
 30
0.0
 11
51.5
 21
5.7509625
 31
0.0
  0
LINE
  5
5A9
330
18
100
AcDbEntity
  8
1
 62
     1
100
AcDbLine
 10
49.44657281333724
 20
6.709526058659235
 30
0.0
 11
49.44657281333724
 21
6.709509533424729
 31
0.0
  0
LINE
  5
5AA
330
18
100
AcDbEntity
  8
1
 62
     1
100
AcDbLine
 10
49.44657281333724
 20
6.709509533424729
 30
0.0
 11
49.44657281333724
 21
6.7046809794461
 31
0.0
  0
LINE
  5
5AB
330
18
100
AcDbEntity
  8
1
 62
     1
100
AcDbLine
 10
49.44657281333724
 20
6.7046809794461
 30
0.0
 11
49.44657281333724
 21
6.638123200629463
 31
0.0
  0
LINE
  5
5AC
330
18
100
AcDbEntity
  8
1
 62
     1
100
AcDbLine
 10
49.44657281333724
 20
6.638123200629463
 30
0.0
 11
50.0
 21
5.71520287511594
 31
0.0
  0
LINE
  5
5AD
330
18
100
AcDbEntity
  8
1
 62
     1
100
AcDbLine
 10
71.00000000000001
 20
5.715202875115942
 30
0.0
 11
71.0
 21
5.742205283325932
 31
0.0
  0
LINE
  5
5AE
330
18
100
AcDbEntity
  8
1
 62
     1
100
AcDbLine
 10
71.0
 20
5.742205283325932
 30
0.0
 11
71.0
 21
5.748796773325472
 31
0.0
  0
LINE
  5
5AF
330
18
100
AcDbEntity
  8
1
 62
     1
100
AcDbLine
 10
71.0
 20
5.748796773325472
 30
0.0
 11
71.0
 21
5.750424056771625
 31
0.0
  0
LINE
  5
5B0
330
18
100
AcDbEntity
  8
1
 62
     1
100
AcDbLine
 10
71.0
 20
5.750424056771625
 30
0.0
 11
71.0
 21
5.750828265170092
 31
0.0
  0
LINE
  5
5B1
330
18
100
AcDbEntity
  8
1
 62
     1
100
AcDbLine
 10
71.0
 20
5.750828265170092
 30
0.0
 11
71.0
 21
5.75092898843622
 31
0.0
  0
LINE
  5
5B2
330
18
100
AcDbEntity
  8
1
 62
     1
100
AcDbLine
 10
71.0
 20
5.75092898843622
 30
0.0
 11
71.0
 21
5.750954128011027
 31
0.0
  0
LINE
  5
5B3
330
18
100
AcDbEntity
  8
1
 62
     1
100
AcDbLine
 10
71.0
 20
5.750954128011027
 30
0.0
 11
71.0
 21
5.750960407741061
 31
0.0
  0
LINE
  5
5B4
330
18
100
AcDbEntity
  8
1
 62
     1
100
AcDbLine
 10
71.0
 20
5.750960407741061
 30
0.0
 11
71.0
 21
5.750961977027588
 31
0.0
  0
LINE
  5
5B5
330
18
100
AcDbEntity
  8
1
 62
     1
100
AcDbLine
 10
71.0
 20
5.750961977027588
 30
0.0
 11
71.00000000000001
 21
5.75096236926844
 31
0.0
  0
LINE
  5
5B6
330
18
100
AcDbEntity
  8
1
 62
     1
100
AcDbLine
 10
71.00000000000001
 20
5.75096236926844
 30
0.0
 11
71.0
 21
5.7509625
 31
0.0
  0
LINE
  5
5B7
330
18
100
AcDbEntity
  8
1
 62
     1
100
AcDbLine
 10
71.0
 20
5.33757051009494
 30
0.0
 11
71.0
 21
5.715202875115941
 31
0.0
  0
LINE
  5
5B8
330
18
100
AcDbEntity
  8
1
 62
     1
100
AcDbLine
 10
71.0
 20
5.33757051009494
 30
0.0
 11
71.0
 21
4.096844483951842
 31
0.0
  0
LINE
  5
5B9
330
18
100
AcDbEntity
  8
1
 62
     1
100
AcDbLine
 10
71.0
 20
-0.6403325485033013
 30
0.0
 11
70.99999999999999
 21
4.096844483951776
 31
0.0
  0
LINE
  5
5BA
330
18
100
AcDbEntity
  8
1
 62
     1
100
AcDbLine
 10
71.0
 20
-4.036017213878078
 30
0.0
 11
71.0
 21
-1.46944346297352
 31
0.0
  0
LINE
  5
5BB
330
18
100
AcDbEntity
  8
1
 62
     1
100
AcDbLine
 10
71.0
 20
-5.7509625
 30
0.0
 11
70.99999999999999
 21
-5.750603477785223
 31
0.0
  0
LINE
  5
5BC
330
18
100
AcDbEntity
  8
1
 62
     1
100
AcDbLine
 10
70.99999999999999
 20
-5.750603477785223
 30
0.0
 11
71.0
 21
-5.64014697580982
 31
0.0
  0
LINE
  5
5BD
330
18
100
AcDbEntity
  8
1
 62
     1
100
AcDbLine
 10
71.0
 20
-5.64014697580982
 30
0.0
 11
70.99999999999999
 21
-4.036017213878078
 31
0.0
  0
LINE
  5
5BE
330
18
100
AcDbEntity
  8
1
 62
     1
100
AcDbLine
 10
70.7327725239109
 20
-4.652993473748778
 30
0.0
 11
69.84193172231119
 21
-4.819460972639354
 31
0.0
  0
LINE
  5
5BF
330
18
100
AcDbEntity
  8
1
 62
     1
100
AcDbLine
 10
69.09547151883424
 20
-4.957288154767279
 30
0.0
 11
68.45798676250422
 21
-5.073892003776701
 31
0.0
  0
LINE
  5
5C0
330
18
100
AcDbEntity
  8
1
 62
     1
100
AcDbLine
 10
67.45817051375762
 20
-5.254891199127043
 30
0.0
 11
67.07404180269724
 21
-5.323861507796903
 31
0.0
  0
LINE
  5
5C1
330
18
100
AcDbEntity
  8
1
 62
     1
100
AcDbLine
 10
65.82086950914099
 20
-5.546853637388335
 30
0.0
 11
65.69009684289027
 21
-5.569955670691789
 31
0.0
  0
LINE
  5
5C2
330
18
100
AcDbEntity
  8
1
 62
     1
100
AcDbLine
 10
64.27886752691896
 20
-5.635173491920062
 30
0.0
 11
64.22113247308103
 21
-5.635173491920062
 31
0.0
  0
LINE
  5
5C3
330
18
100
AcDbEntity
  8
1
 62
     1
100
AcDbLine
 10
61.278867526919
 20
-5.635173491920062
 30
0.0
 11
61.22113247308106
 21
-5.635173491920062
 31
0.0
  0
LINE
  5
5C4
330
18
100
AcDbEntity
  8
1
 62
     1
100
AcDbLine
 10
59.77886752691897
 20
-5.635173491920062
 30
0.0
 11
59.72113247308104
 21
-5.635173491920062
 31
0.0
  0
LINE
  5
5C5
330
18
100
AcDbEntity
  8
1
 62
     1
100
AcDbLine
 10
56.77886752691899
 20
-5.635173491920062
 30
0.0
 11
56.72113247308105
 21
-5.635173491920061
 31
0.0
  0
LINE
  5
5C6
330
18
100
AcDbEntity
  8
1
 62
     1
100
AcDbLine
 10
55.27886752691899
 20
-5.635173491920062
 30
0.0
 11
55.22113247308107
 21
-5.635173491920062
 31
0.0
  0
LINE
  5
5C7
330
18
100
AcDbEntity
  8
1
 62
     1
100
AcDbLine
 10
53.77886752691897
 20
-5.635173491920062
 30
0.0
 11
53.72113247308103
 21
-5.635173491920062
 31
0.0
  0
LINE
  5
5C8
330
18
100
AcDbEntity
  8
1
 62
     1
100
AcDbLine
 10
52.27886752691895
 20
-5.635173491920062
 30
0.0
 11
52.22113247308103
 21
-5.635173491920062
 31
0.0
  0
LINE
  5
5C9
330
18
100
AcDbEntity
  8
1
 62
     1
100
AcDbLine
 10
50.77886752691897
 20
-5.635173491920062
 30
0.0
 11
50.72113247308103
 21
-5.635173491920062
 31
0.0
  0
LINE
  5
5CA
330
18
100
AcDbEntity
  8
1
 62
     1
100
AcDbLine
 10
49.44657281333724
 20
-5.279758261709718
 30
0.0
 11
48.8824941888337
 21
-4.908936445303299
 31
0.0
  0
ARC
  5
5CB
330
18
100
AcDbEntity
  8
1
 62
     1
100
AcDbCircle
 10
67.38069491373571
 20
23.2910641829869
 30
0.0
 40
33.72288255260801
100
AcDbArc
 50
233.1194844732706
 51
235.5321379000001
  0
LINE
  5
5CC
330
18
100
AcDbEntity
  8
1
 62
     1
100
AcDbLine
 10
47.14211617
 20
-1.469443462973516
 30
0.0
 11
47.14211617
 21
-3.683291847928283
 31
0.0
  0
LINE
  5
5CD
330
18
100
AcDbEntity
  8
1
 62
     1
100
AcDbLine
 10
47.14211616999999
 20
4.084527042753548
 30
0.0
 11
47.14211616999999
 21
-0.5519011124983811
 31
0.0
  0
LINE
  5
5CE
330
18
100
AcDbEntity
  8
1
 62
     1
100
AcDbLine
 10
47.14211617
 20
5.33757051009494
 30
0.0
 11
47.14211617
 21
4.084527042753548
 31
0.0
  0
LINE
  5
5CF
330
18
100
AcDbEntity
  8
1
 62
     1
100
AcDbLine
 10
47.14211617
 20
5.472239501522489
 30
0.0
 11
47.14211617
 21
5.337570510094967
 31
0.0
  0
LINE
  5
5D0
330
18
100
AcDbEntity
  8
1
 62
     1
100
AcDbLine
 10
47.14211617
 20
5.5
 30
0.0
 11
47.14211616999999
 21
5.49999347575103
 31
0.0
  0
LINE
  5
5D1
330
18
100
AcDbEntity
  8
1
 62
     1
100
AcDbLine
 10
47.14211616999999
 20
5.49999347575103
 30
0.0
 11
47.14211616999999
 21
5.498095424987298
 31
0.0
  0
LINE
  5
5D2
330
18
100
AcDbEntity
  8
1
 62
     1
100
AcDbLine
 10
47.14211616999999
 20
5.498095424987298
 30
0.0
 11
47.14211617
 21
5.472239501522484
 31
0.0
  0
LINE
  5
5D3
330
18
100
AcDbEntity
  8
1
 62
     1
100
AcDbLine
 10
47.14211616999999
 20
-3.683291847928284
 30
0.0
 11
47.14211617
 21
-5.5
 31
0.0
  0
LINE
  5
5D4
330
18
100
AcDbEntity
  8
1
 62
     1
100
AcDbLine
 10
71.00000000000001
 20
-0.6403325485033015
 30
0.0
 11
71.0
 21
-1.469443462973521
 31
0.0
  0
LINE
  5
5D5
330
18
100
AcDbEntity
  8
1
 62
     1
100
AcDbLine
 10
47.14211617
 20
-0.5519011124984172
 30
0.0
 11
47.14211617
 21
-1.469443462973521
 31
0.0
  0
LINE
  5
5D6
330
18
100
AcDbEntity
  8
1
 62
     1
100
AcDbLine
 10
68.45798676250422
 20
6.544218471995434
 30
0.0
 11
68.0
 21
5.7509625
 31
0.0
  0
LINE
  5
5D7
330
18
100
AcDbEntity
  8
1
 62
     1
100
AcDbLine
 10
69.5
 20
5.750962499999999
 30
0.0
 11
69.09547151883426
 21
6.45162605580312
 31
0.0
  0
LINE
  5
5D8
330
18
100
AcDbEntity
  8
1
 62
     1
100
AcDbLine
 10
69.84193172231119
 20
6.343205339629096
 30
0.0
 11
69.5
 21
5.7509625
 31
0.0
  0
LINE
  5
5D9
330
18
100
AcDbEntity
  8
1
 62
     1
100
AcDbLine
 10
71.0
 20
5.7509625
 30
0.0
 11
70.7327725239109
 21
6.213813849960134
 31
0.0
  0
LINE
  5
5DA
330
18
100
AcDbEntity
  8
1
 62
     1
100
AcDbLine
 10
62.0
 20
5.7509625
 30
0.0
 11
61.27886752691897
 21
7.000000000000005
 31
0.0
  0
LINE
  5
5DB
330
18
100
AcDbEntity
  8
1
 62
     1
100
AcDbLine
 10
61.22113247308103
 20
7.000000000000006
 30
0.0
 11
60.50000000000001
 21
5.7509625
 31
0.0
  0
LINE
  5
5DC
330
18
100
AcDbEntity
  8
1
 62
     1
100
AcDbLine
 10
60.50000000000001
 20
5.7509625
 30
0.0
 11
59.77886752691897
 21
7.000000000000005
 31
0.0
  0
LINE
  5
5DD
330
18
100
AcDbEntity
  8
1
 62
     1
100
AcDbLine
 10
59.00000000000001
 20
5.7509625
 30
0.0
 11
58.27886752691897
 21
7.000000000000005
 31
0.0
  0
LINE
  5
5DE
330
18
100
AcDbEntity
  8
1
 62
     1
100
AcDbLine
 10
68.00000000000001
 20
5.7509625
 30
0.0
 11
67.45817051375761
 21
6.689438261646135
 31
0.0
  0
LINE
  5
5DF
330
18
100
AcDbEntity
  8
1
 62
     1
100
AcDbLine
 10
67.07404180269724
 20
6.745231604361755
 30
0.0
 11
66.5
 21
5.7509625
 31
0.0
  0
LINE
  5
5E0
330
18
100
AcDbEntity
  8
1
 62
     1
100
AcDbLine
 10
66.5
 20
5.7509625
 30
0.0
 11
65.82086950868099
 21
6.927250467489124
 31
0.0
  0
LINE
  5
5E1
330
18
100
AcDbEntity
  8
1
 62
     1
100
AcDbLine
 10
65.69009684289027
 20
6.94624473672809
 30
0.0
 11
65.0
 21
5.7509625
 31
0.0
  0
LINE
  5
5E2
330
18
100
AcDbEntity
  8
1
 62
     1
100
AcDbLine
 10
65.0
 20
5.7509625
 30
0.0
 11
64.27886752691896
 21
7.000000000000019
 31
0.0
  0
LINE
  5
5E3
330
18
100
AcDbEntity
  8
1
 62
     1
100
AcDbLine
 10
64.22113247308103
 20
6.999999999999998
 30
0.0
 11
63.50000000000001
 21
5.7509625
 31
0.0
  0
LINE
  5
5E4
330
18
100
AcDbEntity
  8
1
 62
     1
100
AcDbLine
 10
63.50000000000001
 20
5.7509625
 30
0.0
 11
62.77886752691897
 21
7.000000000000005
 31
0.0
  0
LINE
  5
5E5
330
18
100
AcDbEntity
  8
1
 62
     1
100
AcDbLine
 10
62.72113247308103
 20
7.000000000000006
 30
0.0
 11
62.00000000000001
 21
5.750962500000001
 31
0.0
  0
LINE
  5
5E6
330
18
100
AcDbEntity
  8
1
 62
     1
100
AcDbLine
 10
59.72113247308105
 20
7.000000000000007
 30
0.0
 11
59.00000000000001
 21
5.750962500000001
 31
0.0
  0
LINE
  5
5E7
330
18
100
AcDbEntity
  8
1
 62
     1
100
AcDbLine
 10
57.50000000000001
 20
5.7509625
 30
0.0
 11
56.77886752691898
 21
6.999999999999998
 31
0.0
  0
LINE
  5
5E8
330
18
100
AcDbEntity
  8
1
 62
     1
100
AcDbLine
 10
56.72113247308104
 20
7.000000000000016
 30
0.0
 11
56.00000000000001
 21
5.7509625
 31
0.0
  0
LINE
  5
5E9
330
18
100
AcDbEntity
  8
1
 62
     1
100
AcDbLine
 10
56.00000000000001
 20
5.7509625
 30
0.0
 11
55.27886752691897
 21
7.000000000000005
 31
0.0
  0
LINE
  5
5EA
330
18
100
AcDbEntity
  8
1
 62
     1
100
AcDbLine
 10
55.22113247308106
 20
7.000000000000031
 30
0.0
 11
54.5
 21
5.7509625
 31
0.0
  0
LINE
  5
5EB
330
18
100
AcDbEntity
  8
1
 62
     1
100
AcDbLine
 10
54.5
 20
5.7509625
 30
0.0
 11
53.77886752691896
 21
7.000000000000005
 31
0.0
  0
LINE
  5
5EC
330
18
100
AcDbEntity
  8
1
 62
     1
100
AcDbLine
 10
58.22113247308103
 20
6.999999999999999
 30
0.0
 11
57.50000000000001
 21
5.750962500000001
 31
0.0
  0
LINE
  5
5ED
330
18
100
AcDbEntity
  8
1
 62
     1
100
AcDbLine
 10
50.72113247308103
 20
7.000000000000007
 30
0.0
 11
50.00000000000001
 21
5.7509625
 31
0.0
  0
LINE
  5
5EE
330
18
100
AcDbEntity
  8
1
 62
     1
100
AcDbLine
 10
48.88249419093775
 20
6.413461563413731
 30
0.0
 11
48.49999999999999
 21
5.750962499999999
 31
0.0
  0
LINE
  5
5EF
330
18
100
AcDbEntity
  8
1
 62
     1
100
AcDbLine
 10
48.5
 20
5.7509625
 30
0.0
 11
48.29541014769362
 21
6.105322353687286
 31
0.0
  0
LINE
  5
5F0
330
18
100
AcDbEntity
  8
1
 62
     1
100
AcDbLine
 10
53.72113247308104
 20
7.000000000000006
 30
0.0
 11
53.0
 21
5.7509625
 31
0.0
  0
LINE
  5
5F1
330
18
100
AcDbEntity
  8
1
 62
     1
100
AcDbLine
 10
53.0
 20
5.7509625
 30
0.0
 11
52.27886752691896
 21
7.000000000000005
 31
0.0
  0
LINE
  5
5F2
330
18
100
AcDbEntity
  8
1
 62
     1
100
AcDbLine
 10
52.22113247308103
 20
7.000000000000007
 30
0.0
 11
51.5
 21
5.7509625
 31
0.0
  0
LINE
  5
5F3
330
18
100
AcDbEntity
  8
1
 62
     1
100
AcDbLine
 10
51.5
 20
5.7509625
 30
0.0
 11
50.77886752691897
 21
7.000000000000005
 31
0.0
  0
LINE
  5
5F4
330
18
100
AcDbEntity
  8
1
 62
     1
100
AcDbLine
 10
50.0
 20
5.7509625
 30
0.0
 11
49.44657281333724
 21
6.709526058659234
 31
0.0
  0
LINE
  5
5F5
330
18
100
AcDbEntity
  8
1
 62
     1
100
AcDbLine
 10
69.84193172231119
 20
-6.343205339629097
 30
0.0
 11
70.7327725239109
 21
-6.213813849960125
 31
0.0
  0
LINE
  5
5F6
330
18
100
AcDbEntity
  8
1
 62
     1
100
AcDbLine
 10
68.45798676250422
 20
-6.544218471995425
 30
0.0
 11
69.09547151883427
 21
-6.451626055803122
 31
0.0
  0
LINE
  5
5F7
330
18
100
AcDbEntity
  8
1
 62
     1
100
AcDbLine
 10
67.07404180269724
 20
-6.745231604361757
 30
0.0
 11
67.45817051375761
 21
-6.689438261646122
 31
0.0
  0
LINE
  5
5F8
330
18
100
AcDbEntity
  8
1
 62
     1
100
AcDbLine
 10
65.69009684289026
 20
-6.946244736728085
 30
0.0
 11
65.82086950868097
 21
-6.927250467489116
 31
0.0
  0
LINE
  5
5F9
330
18
100
AcDbEntity
  8
1
 62
     1
100
AcDbLine
 10
64.22113247308103
 20
-7.0
 30
0.0
 11
64.27886752691896
 21
-7.0
 31
0.0
  0
LINE
  5
5FA
330
18
100
AcDbEntity
  8
1
 62
     1
100
AcDbLine
 10
62.72113247308104
 20
-7.0
 30
0.0
 11
62.77886752691899
 21
-7.0
 31
0.0
  0
LINE
  5
5FB
330
18
100
AcDbEntity
  8
1
 62
     1
100
AcDbLine
 10
61.22113247308104
 20
-7.0
 30
0.0
 11
61.27886752691899
 21
-6.999999999999999
 31
0.0
  0
LINE
  5
5FC
330
18
100
AcDbEntity
  8
1
 62
     1
100
AcDbLine
 10
59.72113247308104
 20
-7.0
 30
0.0
 11
59.77886752691898
 21
-7.0
 31
0.0
  0
LINE
  5
5FD
330
18
100
AcDbEntity
  8
1
 62
     1
100
AcDbLine
 10
58.22113247308102
 20
-7.0
 30
0.0
 11
58.27886752691898
 21
-7.0
 31
0.0
  0
LINE
  5
5FE
330
18
100
AcDbEntity
  8
1
 62
     1
100
AcDbLine
 10
56.72113247308104
 20
-7.0
 30
0.0
 11
56.77886752691898
 21
-6.999999999999999
 31
0.0
  0
LINE
  5
5FF
330
18
100
AcDbEntity
  8
1
 62
     1
100
AcDbLine
 10
55.22113247308106
 20
-7.0
 30
0.0
 11
55.27886752691897
 21
-6.999999999999999
 31
0.0
  0
LINE
  5
600
330
18
100
AcDbEntity
  8
1
 62
     1
100
AcDbLine
 10
53.72113247308103
 20
-7.0
 30
0.0
 11
53.77886752691897
 21
-7.0
 31
0.0
  0
LINE
  5
601
330
18
100
AcDbEntity
  8
1
 62
     1
100
AcDbLine
 10
52.22113247308104
 20
-7.0
 30
0.0
 11
52.27886752691897
 21
-7.0
 31
0.0
  0
LINE
  5
602
330
18
100
AcDbEntity
  8
1
 62
     1
100
AcDbLine
 10
50.72113247308103
 20
-7.0
 30
0.0
 11
50.77886752691897
 21
-7.000000000000001
 31
0.0
  0
LINE
  5
603
330
18
100
AcDbEntity
  8
1
 62
     1
100
AcDbLine
 10
48.88249419093775
 20
-6.413461563413732
 30
0.0
 11
49.44657281333724
 21
-6.709526058659236
 31
0.0
  0
LINE
  5
604
330
18
100
AcDbEntity
  8
1
 62
     1
100
AcDbLine
 10
47.14211617000001
 20
-5.5
 30
0.0
 11
48.29541014769361
 21
-6.105322353687278
 31
0.0
  0
LINE
  5
605
330
18
100
AcDbEntity
  8
SK1
100
AcDbLine
 10
0.0000000000000018
 20
5.5
 30
0.0
 11
-17.00000000000001
 21
5.5
 31
0.0
  0
LINE
  5
606
330
18
100
AcDbEntity
  8
SK1
100
AcDbLine
 10
-29.00000000000001
 20
-4.5
 30
0.0
 11
-28.45000000000001
 21
-4.5
 31
0.0
  0
LINE
  5
607
330
18
100
AcDbEntity
  8
SK1
100
AcDbLine
 10
-28.45000000000001
 20
-4.5
 30
0.0
 11
-17.00000000000001
 21
-4.5
 31
0.0
  0
LINE
  5
608
330
18
100
AcDbEntity
  8
SK1
100
AcDbLine
 10
-17.00000000000001
 20
-4.500000000000001
 30
0.0
 11
-17.00000000000001
 21
-5.5
 31
0.0
  0
LINE
  5
609
330
18
100
AcDbEntity
  8
SK1
100
AcDbLine
 10
-29.00000000000001
 20
4.499999999999999
 30
0.0
 11
-28.45000000000001
 21
4.499999999999999
 31
0.0
  0
LINE
  5
60A
330
18
100
AcDbEntity
  8
SK1
100
AcDbLine
 10
-28.45000000000001
 20
4.5
 30
0.0
 11
-17.00000000000001
 21
4.5
 31
0.0
  0
ARC
  5
60B
330
18
100
AcDbEntity
  8
SK1
100
AcDbCircle
 10
-20.24734931216046
 20
-1.632121952863512
 30
0.0
 40
9.500461241833555
100
AcDbArc
 50
149.693972943036
 51
157.1165744850056
  0
LINE
  5
60C
330
18
100
AcDbEntity
  8
SK1
100
AcDbLine
 10
-28.45000000000001
 20
4.5
 30
0.0
 11
-28.45000000000001
 21
3.162277660168382
 31
0.0
  0
LINE
  5
60D
330
18
100
AcDbEntity
  8
SK1
100
AcDbLine
 10
-29.00000000000001
 20
4.500000000000001
 30
0.0
 11
-28.45000000000001
 21
4.500000000000002
 31
0.0
  0
LINE
  5
60E
330
18
100
AcDbEntity
  8
SK1
100
AcDbLine
 10
-17.00000000000001
 20
5.5
 30
0.0
 11
-17.00000000000001
 21
5.499789290881576
 31
0.0
  0
LINE
  5
60F
330
18
100
AcDbEntity
  8
SK1
100
AcDbLine
 10
-17.00000000000001
 20
5.499789290881576
 30
0.0
 11
-17.00000000000001
 21
5.435788300691358
 31
0.0
  0
LINE
  5
610
330
18
100
AcDbEntity
  8
SK1
100
AcDbLine
 10
-17.00000000000001
 20
5.435788300691358
 30
0.0
 11
-17.00000000000001
 21
4.500000000000001
 31
0.0
  0
LINE
  5
611
330
18
100
AcDbEntity
  8
SK1
100
AcDbLine
 10
-29.0
 20
4.499999999999999
 30
0.0
 11
-29.0
 21
2.06215906273013
 31
0.0
  0
LINE
  5
612
330
18
100
AcDbEntity
  8
SK1
100
AcDbLine
 10
-29.0
 20
-2.06215906273013
 30
0.0
 11
-29.00000000000001
 21
-4.5
 31
0.0
  0
ARC
  5
613
330
18
100
AcDbEntity
  8
SK1
100
AcDbCircle
 10
-20.24734931215505
 20
1.632121952866235
 30
0.0
 40
9.500461241839604
100
AcDbArc
 50
202.8834255149968
 51
210.3060270569617
  0
LINE
  5
614
330
18
100
AcDbEntity
  8
SK1
100
AcDbLine
 10
-29.00000000000001
 20
-4.5
 30
0.0
 11
-28.45000000000001
 21
-4.5
 31
0.0
  0
LINE
  5
615
330
18
100
AcDbEntity
  8
SK1
100
AcDbLine
 10
-28.45000000000001
 20
-3.162277660168376
 30
0.0
 11
-28.45000000000001
 21
-4.499999999999999
 31
0.0
  0
LINE
  5
616
330
18
100
AcDbEntity
  8
SK1
100
AcDbLine
 10
-17.00000000000001
 20
3.162277660168533
 30
0.0
 11
-17.00000000000001
 21
-3.162277660168445
 31
0.0
  0
LINE
  5
617
330
18
100
AcDbEntity
  8
SK1
100
AcDbLine
 10
-29.00000000000001
 20
2.062159062730129
 30
0.0
 11
-29.00000000000001
 21
-2.062159062730128
 31
0.0
  0
LINE
  5
618
330
18
100
AcDbEntity
  8
SK1
100
AcDbLine
 10
-28.45000000000001
 20
-3.162277660168376
 30
0.0
 11
-17.00000000000001
 21
-3.162277660168376
 31
0.0
  0
LINE
  5
619
330
18
100
AcDbEntity
  8
SK1
100
AcDbLine
 10
-28.45000000000001
 20
3.162277660168383
 30
0.0
 11
-17.00000000000001
 21
3.162277660168383
 31
0.0
  0
LINE
  5
61A
330
18
100
AcDbEntity
  8
SK1
100
AcDbLine
 10
-17.00000000000001
 20
-5.5
 30
0.0
 11
0.0
 21
-5.5
 31
0.0
  0
DIMENSION
  5
61B
330
18
100
AcDbEntity
  8
2
100
AcDbDimension
  2
*D0
 10
86.00000000000006
 20
-6.999999999999948
 30
0.0
 11
83.5620000000001
 21
-21.14474999999996
 31
0.0
 70
    32
  1
MF14x1.5
 71
     5
 42
14.0
  3
STANDARD
100
AcDbAlignedDimension
 13
71.0
 23
7.0
 33
0.0
 14
71.0
 24
-7.0
 34
0.0
 50
90.0000000000002
100
AcDbRotatedDimension
  0
DIMENSION
  5
629
330
18
100
AcDbEntity
  8
2
100
AcDbDimension
  2
*D1
 10
71.0
 20
75.0
 30
0.0
 11
35.5
 21
77.38025
 31
0.0
 70
    32
  1
<>
 71
     5
 42
71.0
  3
STANDARD
100
AcDbAlignedDimension
 13
0.0
 23
0.0
 33
0.0
 14
71.0
 24
0.0
 34
0.0
100
AcDbRotatedDimension
  0
DIMENSION
  5
636
330
18
100
AcDbEntity
  8
SK2
100
AcDbDimension
  2
*D2
 10
-43.99999999997194
 20
-5.500000000137792
 30
0.0
 11
-46.39075000000001
 21
-0.0000000001499935
 31
0.0
 70
    32
  1
%%c<>
 71
     5
 42
11.0
  3
STANDARD
100
AcDbAlignedDimension
 13
-17.00000000000001
 23
5.5
 33
0.0
 14
-17.00000000000001
 24
-5.5
 34
0.0
 50
90.0000000002924
100
AcDbRotatedDimension
  0
DIMENSION
  5
643
330
18
100
AcDbEntity
  8
2
100
AcDbDimension
  2
*D3
 10
71.0
 20
60.0
 30
0.0
 11
59.071058085
 21
62.39775
 31
0.0
 70
    32
  1
<>
 71
     5
 42
23.85788383
  3
STANDARD
100
AcDbAlignedDimension
 13
47.14211617
 23
5.35
 33
0.0
 14
71.0
 24
7.0
 34
0.0
100
AcDbRotatedDimension
  0
DIMENSION
  5
650
330
18
100
AcDbEntity
  8
SK2
100
AcDbDimension
  2
*D4
 10
71.0
 20
90.0
 30
0.0
 11
21.0
 21
92.39075
 31
0.0
 70
    32
  1
<>
 71
     5
 42
100.0
  3
STANDARD
100
AcDbAlignedDimension
 13
-29.0
 23
7.0
 33
0.0
 14
71.0
 24
7.0
 34
0.0
100
AcDbRotatedDimension
  0
ENDSEC
  0
SECTION
  2
OBJECTS
  0
DICTIONARY
  5
C
330
0
100
AcDbDictionary
281
     1
  3
ACAD_COLOR
350
387
  3
ACAD_GROUP
350
D
  3
ACAD_LAYOUT
350
301
  3
ACAD_MATERIAL
350
386
  3
ACAD_MLEADERSTYLE
350
65D
  3
ACAD_MLINESTYLE
350
E
  3
ACAD_PLOTSETTINGS
350
302
  3
ACAD_PLOTSTYLENAME
350
2FF
  3
ACAD_SCALELIST
350
3A0
  3
ACAD_TABLESTYLE
350
388
  3
ACAD_VISUALSTYLE
350
3C5
  3
ACDBHEADERROUNDTRIPXREC
350
65E
  3
AcDbVariableDictionary
350
357
  0
DICTIONARY
  5
387
102
{ACAD_REACTORS
330
C
102
}
330
C
100
AcDbDictionary
281
     1
  0
DICTIONARY
  5
D
102
{ACAD_REACTORS
330
C
102
}
330
C
100
AcDbDictionary
281
     1
  0
DICTIONARY
  5
301
102
{ACAD_REACTORS
330
C
102
}
330
C
100
AcDbDictionary
281
     1
  3
Layout1
350
33B
  3
Model
350
303
  0
DICTIONARY
  5
386
102
{ACAD_REACTORS
330
C
102
}
330
C
100
AcDbDictionary
281
     1
  3
ByBlock
350
3C3
  3
ByLayer
350
3C2
  3
Global
350
3C4
  0
DICTIONARY
  5
65D
102
{ACAD_REACTORS
330
C
102
}
330
C
100
AcDbDictionary
281
     1
  0
DICTIONARY
  5
E
102
{ACAD_REACTORS
330
C
102
}
330
C
100
AcDbDictionary
281
     1
  3
STANDARD
350
1B
  0
DICTIONARY
  5
302
102
{ACAD_REACTORS
330
C
102
}
330
C
100
AcDbDictionary
281
     1
  0
ACDBDICTIONARYWDFLT
  5
2FF
102
{ACAD_REACTORS
330
C
102
}
330
C
100
AcDbDictionary
281
     1
  3
Normal
350
300
100
AcDbDictionaryWithDefault
340
300
  0
DICTIONARY
  5
3A0
102
{ACAD_REACTORS
330
C
102
}
330
C
100
AcDbDictionary
281
     1
  3
A0
350
3A1
  3
A1
350
3A2
  3
A2
350
3A3
  3
A3
350
3A4
  3
A4
350
3A5
  3
A5
350
3A6
  3
A6
350
3A7
  3
A7
350
3A8
  3
A8
350
3A9
  3
A9
350
3AA
  3
B0
350
3AB
  3
B1
350
3AC
  3
B2
350
3AD
  3
B3
350
3AE
  3
B4
350
3AF
  3
B5
350
3B0
  3
B6
350
3B1
  3
B7
350
3B2
  3
B8
350
3B3
  3
B9
350
3B4
  3
C0
350
3B5
  3
C1
350
3B6
  3
C2
350
3B7
  3
C3
350
3B8
  3
C4
350
3B9
  3
C5
350
3BA
  3
C6
350
3BB
  3
C7
350
3BC
  3
C8
350
3BD
  3
C9
350
3BE
  3
D0
350
3BF
  3
D1
350
3C0
  3
D2
350
3C1
  0
DICTIONARY
  5
388
102
{ACAD_REACTORS
330
C
102
}
330
C
100
AcDbDictionary
281
     1
  3
Standard
350
389
  0
DICTIONARY
  5
3C5
102
{ACAD_REACTORS
330
C
102
}
330
C
100
AcDbDictionary
281
     1
  3
2dWireframe
350
3CA
  3
3D Hidden
350
3CC
  3
3dWireframe
350
3CB
  3
Basic
350
3CD
  3
Brighten
350
3D1
  3
ColorChange
350
3D5
  3
Conceptual
350
3CF
  3
Dim
350
3D0
  3
Facepattern
350
3D4
  3
Flat
350
3C6
  3
FlatWithEdges
350
3C7
  3
Gouraud
350
3C8
  3
GouraudWithEdges
350
3C9
  3
Linepattern
350
3D3
  3
Realistic
350
3CE
  3
Thicken
350
3D2
  0
DICTIONARY
  5
65E
102
{ACAD_REACTORS
330
C
102
}
330
C
100
AcDbDictionary
281
     1
  3
COLORDICT
350
65F
  3
MATERIALDICT
350
660
  0
DICTIONARY
  5
357
102
{ACAD_REACTORS
330
C
102
}
330
C
100
AcDbDictionary
281
     1
  3
CANNOSCALE
350
661
  3
CTABLESTYLE
350
38D
  3
DIMASSOC
350
359
  3
HIDETEXT
350
358
  3
PROJECTNAME
350
38E
  0
LAYOUT
  5
33B
102
{ACAD_REACTORS
330
301
102
}
330
301
100
AcDbPlotSettings
  1

  2
Lexmark Optra PS2
  4

  6

 40
0.0
 41
0.0
 42
0.0
 43
0.0
 44
0.0
 45
0.0
 46
0.0
 47
0.0
 48
0.0
 49
0.0
140
0.0
141
0.0
142
1.0
143
1.0
 70
   688
 72
     0
 73
     0
 74
     5
  7
monochrome.ctb
 75
    16
147
1.0
148
0.0
149
0.0
100
AcDbLayout
  1
Layout1
 70
     1
 71
     1
 10
0.0
 20
0.0
 11
12.0
 21
9.0
 12
0.0
 22
0.0
 32
0.0
 14
0.0
 24
0.0
 34
0.0
 15
0.0
 25
0.0
 35
0.0
146
0.0
 13
0.0
 23
0.0
 33
0.0
 16
1.0
 26
0.0
 36
0.0
 17
0.0
 27
1.0
 37
0.0
 76
     0
330
338
  0
LAYOUT
  5
303
102
{ACAD_REACTORS
330
301
102
}
330
301
100
AcDbPlotSettings
  1

  2
Lexmark Optra Rx
  4
A4
  6

 40
6.805083274841307
 41
5.535083293914794
 42
6.974411010742187
 43
7.14373779296875
 44
209.9733276367186
 45
296.9259948730469
 46
0.0
 47
0.0
 48
0.0
 49
0.0
140
0.0
141
0.0
142
1.0
143
2.976565420630886
 70
 11952
 72
     1
 73
     1
 74
     0
  7
monochrome.ctb
 75
     0
147
0.335957675604539
148
204.1199660668592
149
172.3933209647495
100
AcDbLayout
  1
Model
 70
     1
 71
     0
 10
0.0
 20
0.0
 11
12.0
 21
9.0
 12
0.0
 22
0.0
 32
0.0
 14
0.0
 24
0.0
 34
0.0
 15
0.0
 25
0.0
 35
0.0
146
0.0
 13
0.0
 23
0.0
 33
0.0
 16
1.0
 26
0.0
 36
0.0
 17
0.0
 27
1.0
 37
0.0
 76
     0
330
18
331
39A
  0
MATERIAL
  5
3C3
102
{ACAD_REACTORS
330
386
102
}
102
{ACAD_XDICTIONARY
360
664
102
}
330
386
100
AcDbMaterial
  1
ByBlock
  0
MATERIAL
  5
3C2
102
{ACAD_REACTORS
330
386
102
}
102
{ACAD_XDICTIONARY
360
662
102
}
330
386
100
AcDbMaterial
  1
ByLayer
  0
MATERIAL
  5
3C4
102
{ACAD_REACTORS
330
386
102
}
102
{ACAD_XDICTIONARY
360
666
102
}
330
386
100
AcDbMaterial
  1
Global
  0
MLINESTYLE
  5
1B
102
{ACAD_REACTORS
330
E
102
}
330
E
100
AcDbMlineStyle
  2
STANDARD
 70
     0
  3

 62
     0
 51
90.0
 52
90.0
 71
     2
 49
0.5
 62
   256
  6
BYLAYER
 49
-0.5
 62
   256
  6
BYLAYER
  0
ACDBPLACEHOLDER
  5
300
102
{ACAD_REACTORS
330
2FF
102
}
330
2FF
  0
SCALE
  5
3A1
102
{ACAD_REACTORS
330
3A0
102
}
330
3A0
100
AcDbScale
 70
     0
300
1:1
140
1.0
141
1.0
290
     1
  0
SCALE
  5
3A2
102
{ACAD_REACTORS
330
3A0
102
}
330
3A0
100
AcDbScale
 70
     0
300
1:2
140
1.0
141
2.0
290
     0
  0
SCALE
  5
3A3
102
{ACAD_REACTORS
330
3A0
102
}
330
3A0
100
AcDbScale
 70
     0
300
1:4
140
1.0
141
4.0
290
     0
  0
SCALE
  5
3A4
102
{ACAD_REACTORS
330
3A0
102
}
330
3A0
100
AcDbScale
 70
     0
300
1:5
140
1.0
141
5.0
290
     0
  0
SCALE
  5
3A5
102
{ACAD_REACTORS
330
3A0
102
}
330
3A0
100
AcDbScale
 70
     0
300
1:8
140
1.0
141
8.0
290
     0
  0
SCALE
  5
3A6
102
{ACAD_REACTORS
330
3A0
102
}
330
3A0
100
AcDbScale
 70
     0
300
1:10
140
1.0
141
10.0
290
     0
  0
SCALE
  5
3A7
102
{ACAD_REACTORS
330
3A0
102
}
330
3A0
100
AcDbScale
 70
     0
300
1:16
140
1.0
141
16.0
290
     0
  0
SCALE
  5
3A8
102
{ACAD_REACTORS
330
3A0
102
}
330
3A0
100
AcDbScale
 70
     0
300
1:20
140
1.0
141
20.0
290
     0
  0
SCALE
  5
3A9
102
{ACAD_REACTORS
330
3A0
102
}
330
3A0
100
AcDbScale
 70
     0
300
1:30
140
1.0
141
30.0
290
     0
  0
SCALE
  5
3AA
102
{ACAD_REACTORS
330
3A0
102
}
330
3A0
100
AcDbScale
 70
     0
300
1:40
140
1.0
141
40.0
290
     0
  0
SCALE
  5
3AB
102
{ACAD_REACTORS
330
3A0
102
}
330
3A0
100
AcDbScale
 70
     0
300
1:50
140
1.0
141
50.0
290
     0
  0
SCALE
  5
3AC
102
{ACAD_REACTORS
330
3A0
102
}
330
3A0
100
AcDbScale
 70
     0
300
1:100
140
1.0
141
100.0
290
     0
  0
SCALE
  5
3AD
102
{ACAD_REACTORS
330
3A0
102
}
330
3A0
100
AcDbScale
 70
     0
300
2:1
140
2.0
141
1.0
290
     0
  0
SCALE
  5
3AE
102
{ACAD_REACTORS
330
3A0
102
}
330
3A0
100
AcDbScale
 70
     0
300
4:1
140
4.0
141
1.0
290
     0
  0
SCALE
  5
3AF
102
{ACAD_REACTORS
330
3A0
102
}
330
3A0
100
AcDbScale
 70
     0
300
8:1
140
8.0
141
1.0
290
     0
  0
SCALE
  5
3B0
102
{ACAD_REACTORS
330
3A0
102
}
330
3A0
100
AcDbScale
 70
     0
300
10:1
140
10.0
141
1.0
290
     0
  0
SCALE
  5
3B1
102
{ACAD_REACTORS
330
3A0
102
}
330
3A0
100
AcDbScale
 70
     0
300
100:1
140
100.0
141
1.0
290
     0
  0
SCALE
  5
3B2
102
{ACAD_REACTORS
330
3A0
102
}
330
3A0
100
AcDbScale
 70
     0
300
1/128" = 1'-0"
140
0.0078125
141
12.0
290
     0
  0
SCALE
  5
3B3
102
{ACAD_REACTORS
330
3A0
102
}
330
3A0
100
AcDbScale
 70
     0
300
1/64" = 1'-0"
140
0.015625
141
12.0
290
     0
  0
SCALE
  5
3B4
102
{ACAD_REACTORS
330
3A0
102
}
330
3A0
100
AcDbScale
 70
     0
300
1/32" = 1'-0"
140
0.03125
141
12.0
290
     0
  0
SCALE
  5
3B5
102
{ACAD_REACTORS
330
3A0
102
}
330
3A0
100
AcDbScale
 70
     0
300
1/16" = 1'-0"
140
0.0625
141
12.0
290
     0
  0
SCALE
  5
3B6
102
{ACAD_REACTORS
330
3A0
102
}
330
3A0
100
AcDbScale
 70
     0
300
3/32" = 1'-0"
140
0.09375
141
12.0
290
     0
  0
SCALE
  5
3B7
102
{ACAD_REACTORS
330
3A0
102
}
330
3A0
100
AcDbScale
 70
     0
300
1/8" = 1'-0"
140
0.125
141
12.0
290
     0
  0
SCALE
  5
3B8
102
{ACAD_REACTORS
330
3A0
102
}
330
3A0
100
AcDbScale
 70
     0
300
3/16" = 1'-0"
140
0.1875
141
12.0
290
     0
  0
SCALE
  5
3B9
102
{ACAD_REACTORS
330
3A0
102
}
330
3A0
100
AcDbScale
 70
     0
300
1/4" = 1'-0"
140
0.25
141
12.0
290
     0
  0
SCALE
  5
3BA
102
{ACAD_REACTORS
330
3A0
102
}
330
3A0
100
AcDbScale
 70
     0
300
3/8" = 1'-0"
140
0.375
141
12.0
290
     0
  0
SCALE
  5
3BB
102
{ACAD_REACTORS
330
3A0
102
}
330
3A0
100
AcDbScale
 70
     0
300
1/2" = 1'-0"
140
0.5
141
12.0
290
     0
  0
SCALE
  5
3BC
102
{ACAD_REACTORS
330
3A0
102
}
330
3A0
100
AcDbScale
 70
     0
300
3/4" = 1'-0"
140
0.75
141
12.0
290
     0
  0
SCALE
  5
3BD
102
{ACAD_REACTORS
330
3A0
102
}
330
3A0
100
AcDbScale
 70
     0
300
1" = 1'-0"
140
1.0
141
12.0
290
     0
  0
SCALE
  5
3BE
102
{ACAD_REACTORS
330
3A0
102
}
330
3A0
100
AcDbScale
 70
     0
300
1-1/2" = 1'-0"
140
1.5
141
12.0
290
     0
  0
SCALE
  5
3BF
102
{ACAD_REACTORS
330
3A0
102
}
330
3A0
100
AcDbScale
 70
     0
300
3" = 1'-0"
140
3.0
141
12.0
290
     0
  0
SCALE
  5
3C0
102
{ACAD_REACTORS
330
3A0
102
}
330
3A0
100
AcDbScale
 70
     0
300
6" = 1'-0"
140
6.0
141
12.0
290
     0
  0
SCALE
  5
3C1
102
{ACAD_REACTORS
330
3A0
102
}
330
3A0
100
AcDbScale
 70
     0
300
1'-0" = 1'-0"
140
12.0
141
12.0
290
     0
  0
TABLESTYLE
  5
389
102
{ACAD_REACTORS
330
388
102
}
330
388
100
AcDbTableStyle
  3
Standard
 70
     0
 71
     0
 40
1.5
 41
1.5
280
     0
281
     0
  7
STANDARD
140
4.5
170
     2
 62
     0
 63
   257
283
     0
274
    -2
284
     1
 64
     0
275
    -2
285
     1
 65
     0
276
    -2
286
     1
 66
     0
277
    -2
287
     1
 67
     0
278
    -2
288
     1
 68
     0
279
    -2
289
     1
 69
     0
  7
STANDARD
140
6.0
170
     5
 62
     0
 63
   257
283
     0
274
    -2
284
     1
 64
     0
275
    -2
285
     1
 65
     0
276
    -2
286
     1
 66
     0
277
    -2
287
     1
 67
     0
278
    -2
288
     1
 68
     0
279
    -2
289
     1
 69
     0
  7
STANDARD
140
4.5
170
     5
 62
     0
 63
   257
283
     0
274
    -2
284
     1
 64
     0
275
    -2
285
     1
 65
     0
276
    -2
286
     1
 66
     0
277
    -2
287
     1
 67
     0
278
    -2
288
     1
 68
     0
279
    -2
289
     1
 69
     0
  0
VISUALSTYLE
  5
3CA
102
{ACAD_REACTORS
330
3C5
102
}
102
{ACAD_XDICTIONARY
360
670
102
}
330
3C5
100
AcDbVisualStyle
  2
2dWireframe
 70
     4
 71
     0
 72
     2
 73
     0
 90
        0
 40
-0.6
 41
-30.0
 62
     5
 63
     7
 74
     1
 91
        4
 64
     7
 65
   257
 75
     1
175
     1
 42
1.0
 92
        0
 66
   257
 43
1.0
 76
     1
 77
     6
 78
     2
 67
     7
 79
     5
170
     0
171
     0
290
     0
174
     0
 93
        1
 44
0.0
173
     0
291
     0
 45
0.0
1001
ACAD
1000
AcDbSavedByObjectVersion
1070
     0
  0
VISUALSTYLE
  5
3CC
102
{ACAD_REACTORS
330
3C5
102
}
102
{ACAD_XDICTIONARY
360
674
102
}
330
3C5
100
AcDbVisualStyle
  2
3D Hidden
 70
     6
 71
     1
 72
     2
 73
     2
 90
        0
 40
-0.6
 41
-30.0
 62
     5
 63
     7
 74
     2
 91
        2
 64
     7
 65
   257
 75
     2
175
     1
 42
40.0
 92
        0
 66
   257
 43
1.0
 76
     1
 77
     6
 78
     2
 67
     7
 79
     3
170
     0
171
     0
290
     0
174
     0
 93
        1
 44
0.0
173
     0
291
     0
 45
0.0
1001
ACAD
1000
AcDbSavedByObjectVersion
1070
     0
  0
VISUALSTYLE
  5
3CB
102
{ACAD_REACTORS
330
3C5
102
}
102
{ACAD_XDICTIONARY
360
672
102
}
330
3C5
100
AcDbVisualStyle
  2
3dWireframe
 70
     5
 71
     0
 72
     2
 73
     0
 90
        0
 40
-0.6
 41
-30.0
 62
     5
 63
     7
 74
     1
 91
        4
 64
     7
 65
   257
 75
     1
175
     1
 42
1.0
 92
        0
 66
   257
 43
1.0
 76
     1
 77
     6
 78
     2
 67
     7
 79
     5
170
     0
171
     0
290
     0
174
     0
 93
        1
 44
0.0
173
     0
291
     0
 45
0.0
1001
ACAD
1000
AcDbSavedByObjectVersion
1070
     0
  0
VISUALSTYLE
  5
3CD
102
{ACAD_REACTORS
330
3C5
102
}
102
{ACAD_XDICTIONARY
360
676
102
}
330
3C5
100
AcDbVisualStyle
  2
Basic
 70
     7
 71
     1
 72
     0
 73
     1
 90
        0
 40
-0.6
 41
-30.0
 62
     5
 63
     7
 74
     0
 91
        4
 64
     7
 65
   257
 75
     1
175
     1
 42
1.0
 92
        8
 66
     7
 43
1.0
 76
     1
 77
     6
 78
     2
 67
     7
 79
     5
170
     0
171
     0
290
     0
174
     0
 93
        1
 44
0.0
173
     0
291
     1
 45
0.0
1001
ACAD
1000
AcDbSavedByObjectVersion
1070
     0
  0
VISUALSTYLE
  5
3D1
102
{ACAD_REACTORS
330
3C5
102
}
102
{ACAD_XDICTIONARY
360
67E
102
}
330
3C5
100
AcDbVisualStyle
  2
Brighten
 70
    12
 71
     2
 72
     2
 73
     0
 90
        0
 40
-0.6
 41
-30.0
 62
     5
 63
     7
 74
     1
 91
        4
 64
     7
 65
   257
 75
     1
175
     1
 42
1.0
 92
        8
 66
     7
 43
1.0
 76
     1
 77
     6
 78
     2
 67
     7
 79
     5
170
     0
171
     0
290
     0
174
     0
 93
        1
 44
50.0
173
     0
291
     1
 45
0.0
1001
ACAD
1000
AcDbSavedByObjectVersion
1070
     0
  0
VISUALSTYLE
  5
3D5
102
{ACAD_REACTORS
330
3C5
102
}
102
{ACAD_XDICTIONARY
360
686
102
}
330
3C5
100
AcDbVisualStyle
  2
ColorChange
 70
    16
 71
     2
 72
     2
 73
     3
 90
        0
 40
-0.6
 41
-30.0
 62
     5
 63
     8
 74
     1
 91
        4
 64
     7
 65
   257
 75
     1
175
     1
 42
1.0
 92
        8
 66
     8
 43
1.0
 76
     1
 77
     6
 78
     2
 67
     7
 79
     5
170
     0
171
     0
290
     0
174
     0
 93
        1
 44
0.0
173
     0
291
     1
 45
0.0
1001
ACAD
1000
AcDbSavedByObjectVersion
1070
     0
  0
VISUALSTYLE
  5
3CF
102
{ACAD_REACTORS
330
3C5
102
}
102
{ACAD_XDICTIONARY
360
67A
102
}
330
3C5
100
AcDbVisualStyle
  2
Conceptual
 70
     9
 71
     3
 72
     2
 73
     0
 90
        0
 40
-0.6
 41
-30.0
 62
     5
 63
     7
 74
     2
 91
        2
 64
     7
 65
   257
 75
     1
175
     1
 42
40.0
 92
        8
 66
     7
 43
1.0
 76
     1
 77
     6
 78
     2
 67
     7
 79
     3
170
     0
171
     0
290
     0
174
     0
 93
        1
 44
0.0
173
     0
291
     0
 45
0.0
1001
ACAD
1000
AcDbSavedByObjectVersion
1070
     0
  0
VISUALSTYLE
  5
3D0
102
{ACAD_REACTORS
330
3C5
102
}
102
{ACAD_XDICTIONARY
360
67C
102
}
330
3C5
100
AcDbVisualStyle
  2
Dim
 70
    11
 71
     2
 72
     2
 73
     0
 90
        0
 40
-0.6
 41
-30.0
 62
     5
 63
     7
 74
     1
 91
        4
 64
     7
 65
   257
 75
     1
175
     1
 42
1.0
 92
        8
 66
     7
 43
1.0
 76
     1
 77
     6
 78
     2
 67
     7
 79
     5
170
     0
171
     0
290
     0
174
     0
 93
        1
 44
-50.0
173
     0
291
     1
 45
0.0
1001
ACAD
1000
AcDbSavedByObjectVersion
1070
     0
  0
VISUALSTYLE
  5
3D4
102
{ACAD_REACTORS
330
3C5
102
}
102
{ACAD_XDICTIONARY
360
684
102
}
330
3C5
100
AcDbVisualStyle
  2
Facepattern
 70
    15
 71
     2
 72
     2
 73
     0
 90
        0
 40
-0.6
 41
-30.0
 62
     5
 63
     7
 74
     1
 91
        4
 64
     7
 65
   257
 75
     1
175
     1
 42
1.0
 92
        8
 66
     7
 43
1.0
 76
     1
 77
     6
 78
     2
 67
     7
 79
     5
170
     0
171
     0
290
     0
174
     0
 93
        1
 44
0.0
173
     0
291
     1
 45
0.0
1001
ACAD
1000
AcDbSavedByObjectVersion
1070
     0
  0
VISUALSTYLE
  5
3C6
102
{ACAD_REACTORS
330
3C5
102
}
102
{ACAD_XDICTIONARY
360
668
102
}
330
3C5
100
AcDbVisualStyle
  2
Flat
 70
     0
 71
     2
 72
     1
 73
     1
 90
        2
 40
-0.6
 41
30.0
 62
     5
 63
     7
 74
     0
 91
        4
 64
     7
 65
   257
 75
     1
175
     1
 42
1.0
 92
        8
 66
     7
 43
1.0
 76
     1
 77
     6
 78
     2
 67
     7
 79
     5
170
     0
171
     0
290
     0
174
     0
 93
       13
 44
0.0
173
     0
291
     1
 45
0.0
1001
ACAD
1000
AcDbSavedByObjectVersion
1070
     0
  0
VISUALSTYLE
  5
3C7
102
{ACAD_REACTORS
330
3C5
102
}
102
{ACAD_XDICTIONARY
360
66A
102
}
330
3C5
100
AcDbVisualStyle
  2
FlatWithEdges
 70
     1
 71
     2
 72
     1
 73
     1
 90
        2
 40
-0.6
 41
30.0
 62
     5
 63
     7
 74
     1
 91
        4
 64
     7
 65
   257
 75
     1
175
     1
 42
1.0
 92
        0
 66
   257
 43
1.0
 76
     1
 77
     6
 78
     2
 67
     7
 79
     5
170
     0
171
     0
290
     0
174
     0
 93
       13
 44
0.0
173
     0
291
     1
 45
0.0
1001
ACAD
1000
AcDbSavedByObjectVersion
1070
     0
  0
VISUALSTYLE
  5
3C8
102
{ACAD_REACTORS
330
3C5
102
}
102
{ACAD_XDICTIONARY
360
66C
102
}
330
3C5
100
AcDbVisualStyle
  2
Gouraud
 70
     2
 71
     2
 72
     2
 73
     1
 90
        2
 40
-0.6
 41
30.0
 62
     5
 63
     7
 74
     0
 91
        4
 64
     7
 65
   257
 75
     1
175
     1
 42
1.0
 92
        0
 66
     7
 43
1.0
 76
     1
 77
     6
 78
     2
 67
     7
 79
     5
170
     0
171
     0
290
     0
174
     0
 93
       13
 44
0.0
173
     0
291
     1
 45
0.0
1001
ACAD
1000
AcDbSavedByObjectVersion
1070
     0
  0
VISUALSTYLE
  5
3C9
102
{ACAD_REACTORS
330
3C5
102
}
102
{ACAD_XDICTIONARY
360
66E
102
}
330
3C5
100
AcDbVisualStyle
  2
GouraudWithEdges
 70
     3
 71
     2
 72
     2
 73
     1
 90
        2
 40
-0.6
 41
30.0
 62
     5
 63
     7
 74
     1
 91
        4
 64
     7
 65
   257
 75
     1
175
     1
 42
1.0
 92
        0
 66
   257
 43
1.0
 76
     1
 77
     6
 78
     2
 67
     7
 79
     5
170
     0
171
     0
290
     0
174
     0
 93
       13
 44
0.0
173
     0
291
     1
 45
0.0
1001
ACAD
1000
AcDbSavedByObjectVersion
1070
     0
  0
VISUALSTYLE
  5
3D3
102
{ACAD_REACTORS
330
3C5
102
}
102
{ACAD_XDICTIONARY
360
682
102
}
330
3C5
100
AcDbVisualStyle
  2
Linepattern
 70
    14
 71
     2
 72
     2
 73
     0
 90
        0
 40
-0.6
 41
-30.0
 62
     5
 63
     7
 74
     1
 91
        4
 64
     7
 65
   257
 75
     7
175
     7
 42
1.0
 92
        8
 66
     7
 43
1.0
 76
     1
 77
     6
 78
     2
 67
     7
 79
     5
170
     0
171
     0
290
     0
174
     0
 93
        1
 44
0.0
173
     0
291
     1
 45
0.0
1001
ACAD
1000
AcDbSavedByObjectVersion
1070
     0
  0
VISUALSTYLE
  5
3CE
102
{ACAD_REACTORS
330
3C5
102
}
102
{ACAD_XDICTIONARY
360
678
102
}
330
3C5
100
AcDbVisualStyle
  2
Realistic
 70
     8
 71
     2
 72
     2
 73
     0
 90
        0
 40
-0.6
 41
-30.0
 62
     5
 63
     7
 74
     1
 91
        0
 64
     7
 65
   257
 75
     1
175
     1
 42
1.0
 92
        8
 66
     8
 43
1.0
 76
     1
 77
     6
 78
     2
 67
     7
 79
     5
170
     0
171
     0
290
     0
174
     0
 93
       13
 44
0.0
173
     0
291
     0
 45
0.0
1001
ACAD
1000
AcDbSavedByObjectVersion
1070
     0
  0
VISUALSTYLE
  5
3D2
102
{ACAD_REACTORS
330
3C5
102
}
102
{ACAD_XDICTIONARY
360
680
102
}
330
3C5
100
AcDbVisualStyle
  2
Thicken
 70
    13
 71
     2
 72
     2
 73
     0
 90
        0
 40
-0.6
 41
-30.0
 62
     5
 63
     7
 74
     1
 91
        4
 64
     7
 65
   257
 75
     1
175
     1
 42
1.0
 92
       12
 66
     7
 43
1.0
 76
     1
 77
     6
 78
     2
 67
     7
 79
     5
170
     0
171
     0
290
     0
174
     0
 93
        1
 44
0.0
173
     0
291
     1
 45
0.0
1001
ACAD
1000
AcDbSavedByObjectVersion
1070
     0
  0
XRECORD
  5
65F
102
{ACAD_REACTORS
330
65E
102
}
330
65E
100
AcDbXrecord
280
     1
340
387
  0
XRECORD
  5
660
102
{ACAD_REACTORS
330
65E
102
}
330
65E
100
AcDbXrecord
280
     1
340
386
  0
DICTIONARYVAR
  5
661
102
{ACAD_REACTORS
330
357
102
}
330
357
100
DictionaryVariables
280
     0
  1
1:1
  0
DICTIONARYVAR
  5
38D
102
{ACAD_REACTORS
330
357
102
}
330
357
100
DictionaryVariables
280
     0
  1
Standard
  0
DICTIONARYVAR
  5
359
102
{ACAD_REACTORS
330
357
102
}
330
357
100
DictionaryVariables
280
     0
  1
2
  0
DICTIONARYVAR
  5
358
102
{ACAD_REACTORS
330
357
102
}
330
357
100
DictionaryVariables
280
     0
  1
1
  0
DICTIONARYVAR
  5
38E
102
{ACAD_REACTORS
330
357
102
}
330
357
100
DictionaryVariables
280
     0
  1

  0
DICTIONARY
  5
664
330
3C3
100
AcDbDictionary
280
     1
281
     1
  3
ACAD_XREC_ROUNDTRIP
360
665
  0
DICTIONARY
  5
662
330
3C2
100
AcDbDictionary
280
     1
281
     1
  3
ACAD_XREC_ROUNDTRIP
360
663
  0
DICTIONARY
  5
666
330
3C4
100
AcDbDictionary
280
     1
281
     1
  3
ACAD_XREC_ROUNDTRIP
360
667
  0
DICTIONARY
  5
670
330
3CA
100
AcDbDictionary
280
     1
281
     1
  3
ACAD_XREC_ROUNDTRIP
360
671
  0
DICTIONARY
  5
674
330
3CC
100
AcDbDictionary
280
     1
281
     1
  3
ACAD_XREC_ROUNDTRIP
360
675
  0
DICTIONARY
  5
672
330
3CB
100
AcDbDictionary
280
     1
281
     1
  3
ACAD_XREC_ROUNDTRIP
360
673
  0
DICTIONARY
  5
676
330
3CD
100
AcDbDictionary
280
     1
281
     1
  3
ACAD_XREC_ROUNDTRIP
360
677
  0
DICTIONARY
  5
67E
330
3D1
100
AcDbDictionary
280
     1
281
     1
  3
ACAD_XREC_ROUNDTRIP
360
67F
  0
DICTIONARY
  5
686
330
3D5
100
AcDbDictionary
280
     1
281
     1
  3
ACAD_XREC_ROUNDTRIP
360
687
  0
DICTIONARY
  5
67A
330
3CF
100
AcDbDictionary
280
     1
281
     1
  3
ACAD_XREC_ROUNDTRIP
360
67B
  0
DICTIONARY
  5
67C
330
3D0
100
AcDbDictionary
280
     1
281
     1
  3
ACAD_XREC_ROUNDTRIP
360
67D
  0
DICTIONARY
  5
684
330
3D4
100
AcDbDictionary
280
     1
281
     1
  3
ACAD_XREC_ROUNDTRIP
360
685
  0
DICTIONARY
  5
668
330
3C6
100
AcDbDictionary
280
     1
281
     1
  3
ACAD_XREC_ROUNDTRIP
360
669
  0
DICTIONARY
  5
66A
330
3C7
100
AcDbDictionary
280
     1
281
     1
  3
ACAD_XREC_ROUNDTRIP
360
66B
  0
DICTIONARY
  5
66C
330
3C8
100
AcDbDictionary
280
     1
281
     1
  3
ACAD_XREC_ROUNDTRIP
360
66D
  0
DICTIONARY
  5
66E
330
3C9
100
AcDbDictionary
280
     1
281
     1
  3
ACAD_XREC_ROUNDTRIP
360
66F
  0
DICTIONARY
  5
682
330
3D3
100
AcDbDictionary
280
     1
281
     1
  3
ACAD_XREC_ROUNDTRIP
360
683
  0
DICTIONARY
  5
678
330
3CE
100
AcDbDictionary
280
     1
281
     1
  3
ACAD_XREC_ROUNDTRIP
360
679
  0
DICTIONARY
  5
680
330
3D2
100
AcDbDictionary
280
     1
281
     1
  3
ACAD_XREC_ROUNDTRIP
360
681
  0
XRECORD
  5
665
102
{ACAD_REACTORS
330
664
102
}
330
664
100
AcDbXrecord
280
     1
102
MATERIAL
148
0.0
149
0.0
149
0.0
 93
        0
 94
      127
282
     0
 72
     1
 77
     1
171
     1
175
     1
179
     1
273
     0
  0
XRECORD
  5
663
102
{ACAD_REACTORS
330
662
102
}
330
662
100
AcDbXrecord
280
     1
102
MATERIAL
148
0.0
149
0.0
149
0.0
 93
        0
 94
      127
282
     0
 72
     1
 77
     1
171
     1
175
     1
179
     1
273
     0
  0
XRECORD
  5
667
102
{ACAD_REACTORS
330
666
102
}
330
666
100
AcDbXrecord
280
     1
102
MATERIAL
148
0.0
149
0.0
149
0.0
 93
        0
 94
      127
282
     0
 72
     1
 77
     1
171
     1
175
     1
179
     1
273
     0
  0
XRECORD
  5
671
102
{ACAD_REACTORS
330
670
102
}
330
670
100
AcDbXrecord
280
     1
102
RTVSPropertyOp0
 70
     1
102
RTVSPropertyOp1
 70
     1
102
RTVSPropertyOp2
 70
     1
102
RTVSPropertyOp3
 70
     1
102
RTVSPropertyOp4
 70
     1
102
RTVSPropertyOp5
 70
     1
102
RTVSPropertyOp6
 70
     1
102
RTVSPropertyOp7
 70
     1
102
RTVSPropertyOp8
 70
     1
102
RTVSPropertyOp9
 70
     1
102
RTVSPropertyOp10
 70
     1
102
RTVSPropertyOp11
 70
     1
102
RTVSPropertyOp12
 70
     1
102
RTVSPropertyOp13
 70
     1
102
RTVSPropertyOp14
 70
     1
102
RTVSPropertyOp15
 70
     1
102
RTVSPropertyOp16
 70
     1
102
RTVSPropertyOp17
 70
     1
102
RTVSPropertyOp18
 70
     1
102
RTVSPropertyOp19
 70
     1
102
RTVSPropertyOp20
 70
     1
102
RTVSPropertyOp21
 70
     1
102
RTVSPropertyOp22
 70
     1
102
RTVSPropertyOp23
 70
     1
102
RTVSPropertyOp24
 70
     1
102
RTVSPropertyOp25
 70
     1
102
RTVSPropertyOp26
 70
     1
102
RTVSPropertyOp27
 70
     1
102
RTVSPropertyOp28
 70
     1
102
RTVSPropertyOp29
 70
     1
102
RTVSPropertyOp30
 70
     1
102
RTVSPropertyOp31
 70
     1
102
RTVSPropertyOp32
 70
     1
  0
XRECORD
  5
675
102
{ACAD_REACTORS
330
674
102
}
330
674
100
AcDbXrecord
280
     1
102
RTVSPropertyOp0
 70
     1
102
RTVSPropertyOp1
 70
     1
102
RTVSPropertyOp2
 70
     1
102
RTVSPropertyOp3
 70
     1
102
RTVSPropertyOp4
 70
     1
102
RTVSPropertyOp5
 70
     1
102
RTVSPropertyOp6
 70
     1
102
RTVSPropertyOp7
 70
     1
102
RTVSPropertyOp8
 70
     1
102
RTVSPropertyOp9
 70
     1
102
RTVSPropertyOp10
 70
     1
102
RTVSPropertyOp11
 70
     1
102
RTVSPropertyOp12
 70
     1
102
RTVSPropertyOp13
 70
     1
102
RTVSPropertyOp14
 70
     1
102
RTVSPropertyOp15
 70
     1
102
RTVSPropertyOp16
 70
     1
102
RTVSPropertyOp17
 70
     1
102
RTVSPropertyOp18
 70
     1
102
RTVSPropertyOp19
 70
     1
102
RTVSPropertyOp20
 70
     1
102
RTVSPropertyOp21
 70
     1
102
RTVSPropertyOp22
 70
     1
102
RTVSPropertyOp23
 70
     1
102
RTVSPropertyOp24
 70
     1
102
RTVSPropertyOp25
 70
     1
102
RTVSPropertyOp26
 70
     1
102
RTVSPropertyOp27
 70
     1
102
RTVSPropertyOp28
 70
     1
102
RTVSPropertyOp29
 70
     1
102
RTVSPropertyOp30
 70
     1
102
RTVSPropertyOp31
 70
     1
102
RTVSPropertyOp32
 70
     1
  0
XRECORD
  5
673
102
{ACAD_REACTORS
330
672
102
}
330
672
100
AcDbXrecord
280
     1
102
RTVSPropertyOp0
 70
     1
102
RTVSPropertyOp1
 70
     1
102
RTVSPropertyOp2
 70
     1
102
RTVSPropertyOp3
 70
     1
102
RTVSPropertyOp4
 70
     1
102
RTVSPropertyOp5
 70
     1
102
RTVSPropertyOp6
 70
     1
102
RTVSPropertyOp7
 70
     1
102
RTVSPropertyOp8
 70
     1
102
RTVSPropertyOp9
 70
     1
102
RTVSPropertyOp10
 70
     1
102
RTVSPropertyOp11
 70
     1
102
RTVSPropertyOp12
 70
     1
102
RTVSPropertyOp13
 70
     1
102
RTVSPropertyOp14
 70
     1
102
RTVSPropertyOp15
 70
     1
102
RTVSPropertyOp16
 70
     1
102
RTVSPropertyOp17
 70
     1
102
RTVSPropertyOp18
 70
     1
102
RTVSPropertyOp19
 70
     1
102
RTVSPropertyOp20
 70
     1
102
RTVSPropertyOp21
 70
     1
102
RTVSPropertyOp22
 70
     1
102
RTVSPropertyOp23
 70
     1
102
RTVSPropertyOp24
 70
     1
102
RTVSPropertyOp25
 70
     1
102
RTVSPropertyOp26
 70
     1
102
RTVSPropertyOp27
 70
     1
102
RTVSPropertyOp28
 70
     1
102
RTVSPropertyOp29
 70
     1
102
RTVSPropertyOp30
 70
     1
102
RTVSPropertyOp31
 70
     1
102
RTVSPropertyOp32
 70
     1
  0
XRECORD
  5
677
102
{ACAD_REACTORS
330
676
102
}
330
676
100
AcDbXrecord
280
     1
102
RTVSPropertyOp0
 70
     1
102
RTVSPropertyOp1
 70
     1
102
RTVSPropertyOp2
 70
     1
102
RTVSPropertyOp3
 70
     1
102
RTVSPropertyOp4
 70
     1
102
RTVSPropertyOp5
 70
     1
102
RTVSPropertyOp6
 70
     1
102
RTVSPropertyOp7
 70
     1
102
RTVSPropertyOp8
 70
     1
102
RTVSPropertyOp9
 70
     1
102
RTVSPropertyOp10
 70
     1
102
RTVSPropertyOp11
 70
     1
102
RTVSPropertyOp12
 70
     1
102
RTVSPropertyOp13
 70
     1
102
RTVSPropertyOp14
 70
     1
102
RTVSPropertyOp15
 70
     1
102
RTVSPropertyOp16
 70
     1
102
RTVSPropertyOp17
 70
     1
102
RTVSPropertyOp18
 70
     1
102
RTVSPropertyOp19
 70
     1
102
RTVSPropertyOp20
 70
     1
102
RTVSPropertyOp21
 70
     1
102
RTVSPropertyOp22
 70
     1
102
RTVSPropertyOp23
 70
     1
102
RTVSPropertyOp24
 70
     1
102
RTVSPropertyOp25
 70
     1
102
RTVSPropertyOp26
 70
     1
102
RTVSPropertyOp27
 70
     1
102
RTVSPropertyOp28
 70
     1
102
RTVSPropertyOp29
 70
     1
102
RTVSPropertyOp30
 70
     1
102
RTVSPropertyOp31
 70
     1
102
RTVSPropertyOp32
 70
     1
  0
XRECORD
  5
67F
102
{ACAD_REACTORS
330
67E
102
}
330
67E
100
AcDbXrecord
280
     1
102
RTVSPropertyOp0
 70
     1
102
RTVSPropertyOp1
 70
     1
102
RTVSPropertyOp2
 70
     1
102
RTVSPropertyOp3
 70
     1
102
RTVSPropertyOp4
 70
     1
102
RTVSPropertyOp5
 70
     1
102
RTVSPropertyOp6
 70
     1
102
RTVSPropertyOp7
 70
     1
102
RTVSPropertyOp8
 70
     1
102
RTVSPropertyOp9
 70
     1
102
RTVSPropertyOp10
 70
     1
102
RTVSPropertyOp11
 70
     1
102
RTVSPropertyOp12
 70
     1
102
RTVSPropertyOp13
 70
     1
102
RTVSPropertyOp14
 70
     1
102
RTVSPropertyOp15
 70
     1
102
RTVSPropertyOp16
 70
     1
102
RTVSPropertyOp17
 70
     1
102
RTVSPropertyOp18
 70
     1
102
RTVSPropertyOp19
 70
     1
102
RTVSPropertyOp20
 70
     1
102
RTVSPropertyOp21
 70
     1
102
RTVSPropertyOp22
 70
     1
102
RTVSPropertyOp23
 70
     1
102
RTVSPropertyOp24
 70
     1
102
RTVSPropertyOp25
 70
     1
102
RTVSPropertyOp26
 70
     1
102
RTVSPropertyOp27
 70
     1
102
RTVSPropertyOp28
 70
     1
102
RTVSPropertyOp29
 70
     1
102
RTVSPropertyOp30
 70
     1
102
RTVSPropertyOp31
 70
     1
102
RTVSPropertyOp32
 70
     1
  0
XRECORD
  5
687
102
{ACAD_REACTORS
330
686
102
}
330
686
100
AcDbXrecord
280
     1
102
RTVSPropertyOp0
 70
     1
102
RTVSPropertyOp1
 70
     1
102
RTVSPropertyOp2
 70
     1
102
RTVSPropertyOp3
 70
     1
102
RTVSPropertyOp4
 70
     1
102
RTVSPropertyOp5
 70
     1
102
RTVSPropertyOp6
 70
     1
102
RTVSPropertyOp7
 70
     1
102
RTVSPropertyOp8
 70
     1
102
RTVSPropertyOp9
 70
     1
102
RTVSPropertyOp10
 70
     1
102
RTVSPropertyOp11
 70
     1
102
RTVSPropertyOp12
 70
     1
102
RTVSPropertyOp13
 70
     1
102
RTVSPropertyOp14
 70
     1
102
RTVSPropertyOp15
 70
     1
102
RTVSPropertyOp16
 70
     1
102
RTVSPropertyOp17
 70
     1
102
RTVSPropertyOp18
 70
     1
102
RTVSPropertyOp19
 70
     1
102
RTVSPropertyOp20
 70
     1
102
RTVSPropertyOp21
 70
     1
102
RTVSPropertyOp22
 70
     1
102
RTVSPropertyOp23
 70
     1
102
RTVSPropertyOp24
 70
     1
102
RTVSPropertyOp25
 70
     1
102
RTVSPropertyOp26
 70
     1
102
RTVSPropertyOp27
 70
     1
102
RTVSPropertyOp28
 70
     1
102
RTVSPropertyOp29
 70
     1
102
RTVSPropertyOp30
 70
     1
102
RTVSPropertyOp31
 70
     1
102
RTVSPropertyOp32
 70
     1
  0
XRECORD
  5
67B
102
{ACAD_REACTORS
330
67A
102
}
330
67A
100
AcDbXrecord
280
     1
102
RTVSPropertyOp0
 70
     1
102
RTVSPropertyOp1
 70
     1
102
RTVSPropertyOp2
 70
     1
102
RTVSPropertyOp3
 70
     1
102
RTVSPropertyOp4
 70
     1
102
RTVSPropertyOp5
 70
     1
102
RTVSPropertyOp6
 70
     1
102
RTVSPropertyOp7
 70
     1
102
RTVSPropertyOp8
 70
     1
102
RTVSPropertyOp9
 70
     1
102
RTVSPropertyOp10
 70
     1
102
RTVSPropertyOp11
 70
     1
102
RTVSPropertyOp12
 70
     1
102
RTVSPropertyOp13
 70
     1
102
RTVSPropertyOp14
 70
     1
102
RTVSPropertyOp15
 70
     1
102
RTVSPropertyOp16
 70
     1
102
RTVSPropertyOp17
 70
     1
102
RTVSPropertyOp18
 70
     1
102
RTVSPropertyOp19
 70
     1
102
RTVSPropertyOp20
 70
     1
102
RTVSPropertyOp21
 70
     1
102
RTVSPropertyOp22
 70
     1
102
RTVSPropertyOp23
 70
     1
102
RTVSPropertyOp24
 70
     1
102
RTVSPropertyOp25
 70
     1
102
RTVSPropertyOp26
 70
     1
102
RTVSPropertyOp27
 70
     1
102
RTVSPropertyOp28
 70
     1
102
RTVSPropertyOp29
 70
     1
102
RTVSPropertyOp30
 70
     1
102
RTVSPropertyOp31
 70
     1
102
RTVSPropertyOp32
 70
     1
  0
XRECORD
  5
67D
102
{ACAD_REACTORS
330
67C
102
}
330
67C
100
AcDbXrecord
280
     1
102
RTVSPropertyOp0
 70
     1
102
RTVSPropertyOp1
 70
     1
102
RTVSPropertyOp2
 70
     1
102
RTVSPropertyOp3
 70
     1
102
RTVSPropertyOp4
 70
     1
102
RTVSPropertyOp5
 70
     1
102
RTVSPropertyOp6
 70
     1
102
RTVSPropertyOp7
 70
     1
102
RTVSPropertyOp8
 70
     1
102
RTVSPropertyOp9
 70
     1
102
RTVSPropertyOp10
 70
     1
102
RTVSPropertyOp11
 70
     1
102
RTVSPropertyOp12
 70
     1
102
RTVSPropertyOp13
 70
     1
102
RTVSPropertyOp14
 70
     1
102
RTVSPropertyOp15
 70
     1
102
RTVSPropertyOp16
 70
     1
102
RTVSPropertyOp17
 70
     1
102
RTVSPropertyOp18
 70
     1
102
RTVSPropertyOp19
 70
     1
102
RTVSPropertyOp20
 70
     1
102
RTVSPropertyOp21
 70
     1
102
RTVSPropertyOp22
 70
     1
102
RTVSPropertyOp23
 70
     1
102
RTVSPropertyOp24
 70
     1
102
RTVSPropertyOp25
 70
     1
102
RTVSPropertyOp26
 70
     1
102
RTVSPropertyOp27
 70
     1
102
RTVSPropertyOp28
 70
     1
102
RTVSPropertyOp29
 70
     1
102
RTVSPropertyOp30
 70
     1
102
RTVSPropertyOp31
 70
     1
102
RTVSPropertyOp32
 70
     1
  0
XRECORD
  5
685
102
{ACAD_REACTORS
330
684
102
}
330
684
100
AcDbXrecord
280
     1
102
RTVSPropertyOp0
 70
     1
102
RTVSPropertyOp1
 70
     1
102
RTVSPropertyOp2
 70
     1
102
RTVSPropertyOp3
 70
     1
102
RTVSPropertyOp4
 70
     1
102
RTVSPropertyOp5
 70
     1
102
RTVSPropertyOp6
 70
     1
102
RTVSPropertyOp7
 70
     1
102
RTVSPropertyOp8
 70
     1
102
RTVSPropertyOp9
 70
     1
102
RTVSPropertyOp10
 70
     1
102
RTVSPropertyOp11
 70
     1
102
RTVSPropertyOp12
 70
     1
102
RTVSPropertyOp13
 70
     1
102
RTVSPropertyOp14
 70
     1
102
RTVSPropertyOp15
 70
     1
102
RTVSPropertyOp16
 70
     1
102
RTVSPropertyOp17
 70
     1
102
RTVSPropertyOp18
 70
     1
102
RTVSPropertyOp19
 70
     1
102
RTVSPropertyOp20
 70
     1
102
RTVSPropertyOp21
 70
     1
102
RTVSPropertyOp22
 70
     1
102
RTVSPropertyOp23
 70
     1
102
RTVSPropertyOp24
 70
     1
102
RTVSPropertyOp25
 70
     1
102
RTVSPropertyOp26
 70
     1
102
RTVSPropertyOp27
 70
     1
102
RTVSPropertyOp28
 70
     1
102
RTVSPropertyOp29
 70
     1
102
RTVSPropertyOp30
 70
     1
102
RTVSPropertyOp31
 70
     1
102
RTVSPropertyOp32
 70
     1
  0
XRECORD
  5
669
102
{ACAD_REACTORS
330
668
102
}
330
668
100
AcDbXrecord
280
     1
102
RTVSPropertyOp0
 70
     1
102
RTVSPropertyOp1
 70
     1
102
RTVSPropertyOp2
 70
     1
102
RTVSPropertyOp3
 70
     1
102
RTVSPropertyOp4
 70
     1
102
RTVSPropertyOp5
 70
     1
102
RTVSPropertyOp6
 70
     1
102
RTVSPropertyOp7
 70
     1
102
RTVSPropertyOp8
 70
     1
102
RTVSPropertyOp9
 70
     1
102
RTVSPropertyOp10
 70
     1
102
RTVSPropertyOp11
 70
     1
102
RTVSPropertyOp12
 70
     1
102
RTVSPropertyOp13
 70
     1
102
RTVSPropertyOp14
 70
     1
102
RTVSPropertyOp15
 70
     1
102
RTVSPropertyOp16
 70
     1
102
RTVSPropertyOp17
 70
     1
102
RTVSPropertyOp18
 70
     1
102
RTVSPropertyOp19
 70
     1
102
RTVSPropertyOp20
 70
     1
102
RTVSPropertyOp21
 70
     1
102
RTVSPropertyOp22
 70
     1
102
RTVSPropertyOp23
 70
     1
102
RTVSPropertyOp24
 70
     1
102
RTVSPropertyOp25
 70
     1
102
RTVSPropertyOp26
 70
     1
102
RTVSPropertyOp27
 70
     1
102
RTVSPropertyOp28
 70
     1
102
RTVSPropertyOp29
 70
     1
102
RTVSPropertyOp30
 70
     1
102
RTVSPropertyOp31
 70
     1
102
RTVSPropertyOp32
 70
     1
  0
XRECORD
  5
66B
102
{ACAD_REACTORS
330
66A
102
}
330
66A
100
AcDbXrecord
280
     1
102
RTVSPropertyOp0
 70
     1
102
RTVSPropertyOp1
 70
     1
102
RTVSPropertyOp2
 70
     1
102
RTVSPropertyOp3
 70
     1
102
RTVSPropertyOp4
 70
     1
102
RTVSPropertyOp5
 70
     1
102
RTVSPropertyOp6
 70
     1
102
RTVSPropertyOp7
 70
     1
102
RTVSPropertyOp8
 70
     1
102
RTVSPropertyOp9
 70
     1
102
RTVSPropertyOp10
 70
     1
102
RTVSPropertyOp11
 70
     1
102
RTVSPropertyOp12
 70
     1
102
RTVSPropertyOp13
 70
     1
102
RTVSPropertyOp14
 70
     1
102
RTVSPropertyOp15
 70
     1
102
RTVSPropertyOp16
 70
     1
102
RTVSPropertyOp17
 70
     1
102
RTVSPropertyOp18
 70
     1
102
RTVSPropertyOp19
 70
     1
102
RTVSPropertyOp20
 70
     1
102
RTVSPropertyOp21
 70
     1
102
RTVSPropertyOp22
 70
     1
102
RTVSPropertyOp23
 70
     1
102
RTVSPropertyOp24
 70
     1
102
RTVSPropertyOp25
 70
     1
102
RTVSPropertyOp26
 70
     1
102
RTVSPropertyOp27
 70
     1
102
RTVSPropertyOp28
 70
     1
102
RTVSPropertyOp29
 70
     1
102
RTVSPropertyOp30
 70
     1
102
RTVSPropertyOp31
 70
     1
102
RTVSPropertyOp32
 70
     1
  0
XRECORD
  5
66D
102
{ACAD_REACTORS
330
66C
102
}
330
66C
100
AcDbXrecord
280
     1
102
RTVSPropertyOp0
 70
     1
102
RTVSPropertyOp1
 70
     1
102
RTVSPropertyOp2
 70
     1
102
RTVSPropertyOp3
 70
     1
102
RTVSPropertyOp4
 70
     1
102
RTVSPropertyOp5
 70
     1
102
RTVSPropertyOp6
 70
     1
102
RTVSPropertyOp7
 70
     1
102
RTVSPropertyOp8
 70
     1
102
RTVSPropertyOp9
 70
     1
102
RTVSPropertyOp10
 70
     1
102
RTVSPropertyOp11
 70
     1
102
RTVSPropertyOp12
 70
     1
102
RTVSPropertyOp13
 70
     1
102
RTVSPropertyOp14
 70
     1
102
RTVSPropertyOp15
 70
     1
102
RTVSPropertyOp16
 70
     1
102
RTVSPropertyOp17
 70
     1
102
RTVSPropertyOp18
 70
     1
102
RTVSPropertyOp19
 70
     1
102
RTVSPropertyOp20
 70
     1
102
RTVSPropertyOp21
 70
     1
102
RTVSPropertyOp22
 70
     1
102
RTVSPropertyOp23
 70
     1
102
RTVSPropertyOp24
 70
     1
102
RTVSPropertyOp25
 70
     1
102
RTVSPropertyOp26
 70
     1
102
RTVSPropertyOp27
 70
     1
102
RTVSPropertyOp28
 70
     1
102
RTVSPropertyOp29
 70
     1
102
RTVSPropertyOp30
 70
     1
102
RTVSPropertyOp31
 70
     1
102
RTVSPropertyOp32
 70
     1
  0
XRECORD
  5
66F
102
{ACAD_REACTORS
330
66E
102
}
330
66E
100
AcDbXrecord
280
     1
102
RTVSPropertyOp0
 70
     1
102
RTVSPropertyOp1
 70
     1
102
RTVSPropertyOp2
 70
     1
102
RTVSPropertyOp3
 70
     1
102
RTVSPropertyOp4
 70
     1
102
RTVSPropertyOp5
 70
     1
102
RTVSPropertyOp6
 70
     1
102
RTVSPropertyOp7
 70
     1
102
RTVSPropertyOp8
 70
     1
102
RTVSPropertyOp9
 70
     1
102
RTVSPropertyOp10
 70
     1
102
RTVSPropertyOp11
 70
     1
102
RTVSPropertyOp12
 70
     1
102
RTVSPropertyOp13
 70
     1
102
RTVSPropertyOp14
 70
     1
102
RTVSPropertyOp15
 70
     1
102
RTVSPropertyOp16
 70
     1
102
RTVSPropertyOp17
 70
     1
102
RTVSPropertyOp18
 70
     1
102
RTVSPropertyOp19
 70
     1
102
RTVSPropertyOp20
 70
     1
102
RTVSPropertyOp21
 70
     1
102
RTVSPropertyOp22
 70
     1
102
RTVSPropertyOp23
 70
     1
102
RTVSPropertyOp24
 70
     1
102
RTVSPropertyOp25
 70
     1
102
RTVSPropertyOp26
 70
     1
102
RTVSPropertyOp27
 70
     1
102
RTVSPropertyOp28
 70
     1
102
RTVSPropertyOp29
 70
     1
102
RTVSPropertyOp30
 70
     1
102
RTVSPropertyOp31
 70
     1
102
RTVSPropertyOp32
 70
     1
  0
XRECORD
  5
683
102
{ACAD_REACTORS
330
682
102
}
330
682
100
AcDbXrecord
280
     1
102
RTVSPropertyOp0
 70
     1
102
RTVSPropertyOp1
 70
     1
102
RTVSPropertyOp2
 70
     1
102
RTVSPropertyOp3
 70
     1
102
RTVSPropertyOp4
 70
     1
102
RTVSPropertyOp5
 70
     1
102
RTVSPropertyOp6
 70
     1
102
RTVSPropertyOp7
 70
     1
102
RTVSPropertyOp8
 70
     1
102
RTVSPropertyOp9
 70
     1
102
RTVSPropertyOp10
 70
     1
102
RTVSPropertyOp11
 70
     1
102
RTVSPropertyOp12
 70
     1
102
RTVSPropertyOp13
 70
     1
102
RTVSPropertyOp14
 70
     1
102
RTVSPropertyOp15
 70
     1
102
RTVSPropertyOp16
 70
     1
102
RTVSPropertyOp17
 70
     1
102
RTVSPropertyOp18
 70
     1
102
RTVSPropertyOp19
 70
     1
102
RTVSPropertyOp20
 70
     1
102
RTVSPropertyOp21
 70
     1
102
RTVSPropertyOp22
 70
     1
102
RTVSPropertyOp23
 70
     1
102
RTVSPropertyOp24
 70
     1
102
RTVSPropertyOp25
 70
     1
102
RTVSPropertyOp26
 70
     1
102
RTVSPropertyOp27
 70
     1
102
RTVSPropertyOp28
 70
     1
102
RTVSPropertyOp29
 70
     1
102
RTVSPropertyOp30
 70
     1
102
RTVSPropertyOp31
 70
     1
102
RTVSPropertyOp32
 70
     1
  0
XRECORD
  5
679
102
{ACAD_REACTORS
330
678
102
}
330
678
100
AcDbXrecord
280
     1
102
RTVSPropertyOp0
 70
     1
102
RTVSPropertyOp1
 70
     1
102
RTVSPropertyOp2
 70
     1
102
RTVSPropertyOp3
 70
     1
102
RTVSPropertyOp4
 70
     1
102
RTVSPropertyOp5
 70
     1
102
RTVSPropertyOp6
 70
     1
102
RTVSPropertyOp7
 70
     1
102
RTVSPropertyOp8
 70
     1
102
RTVSPropertyOp9
 70
     1
102
RTVSPropertyOp10
 70
     1
102
RTVSPropertyOp11
 70
     1
102
RTVSPropertyOp12
 70
     1
102
RTVSPropertyOp13
 70
     1
102
RTVSPropertyOp14
 70
     1
102
RTVSPropertyOp15
 70
     1
102
RTVSPropertyOp16
 70
     1
102
RTVSPropertyOp17
 70
     1
102
RTVSPropertyOp18
 70
     1
102
RTVSPropertyOp19
 70
     1
102
RTVSPropertyOp20
 70
     1
102
RTVSPropertyOp21
 70
     1
102
RTVSPropertyOp22
 70
     1
102
RTVSPropertyOp23
 70
     1
102
RTVSPropertyOp24
 70
     1
102
RTVSPropertyOp25
 70
     1
102
RTVSPropertyOp26
 70
     1
102
RTVSPropertyOp27
 70
     1
102
RTVSPropertyOp28
 70
     1
102
RTVSPropertyOp29
 70
     1
102
RTVSPropertyOp30
 70
     1
102
RTVSPropertyOp31
 70
     1
102
RTVSPropertyOp32
 70
     1
  0
XRECORD
  5
681
102
{ACAD_REACTORS
330
680
102
}
330
680
100
AcDbXrecord
280
     1
102
RTVSPropertyOp0
 70
     1
102
RTVSPropertyOp1
 70
     1
102
RTVSPropertyOp2
 70
     1
102
RTVSPropertyOp3
 70
     1
102
RTVSPropertyOp4
 70
     1
102
RTVSPropertyOp5
 70
     1
102
RTVSPropertyOp6
 70
     1
102
RTVSPropertyOp7
 70
     1
102
RTVSPropertyOp8
 70
     1
102
RTVSPropertyOp9
 70
     1
102
RTVSPropertyOp10
 70
     1
102
RTVSPropertyOp11
 70
     1
102
RTVSPropertyOp12
 70
     1
102
RTVSPropertyOp13
 70
     1
102
RTVSPropertyOp14
 70
     1
102
RTVSPropertyOp15
 70
     1
102
RTVSPropertyOp16
 70
     1
102
RTVSPropertyOp17
 70
     1
102
RTVSPropertyOp18
 70
     1
102
RTVSPropertyOp19
 70
     1
102
RTVSPropertyOp20
 70
     1
102
RTVSPropertyOp21
 70
     1
102
RTVSPropertyOp22
 70
     1
102
RTVSPropertyOp23
 70
     1
102
RTVSPropertyOp24
 70
     1
102
RTVSPropertyOp25
 70
     1
102
RTVSPropertyOp26
 70
     1
102
RTVSPropertyOp27
 70
     1
102
RTVSPropertyOp28
 70
     1
102
RTVSPropertyOp29
 70
     1
102
RTVSPropertyOp30
 70
     1
102
RTVSPropertyOp31
 70
     1
102
RTVSPropertyOp32
 70
     1
  0
ENDSEC
  0
EOF
