  0
SECTION
  2
HEADER
  9
$ACADVER
  1
AC1015
  9
$ACADMAINTVER
 70
     6
  9
$DWGCODEPAGE
  3
ANSI_1252
  9
$INSBASE
 10
0.0
 20
0.0
 30
0.0
  9
$EXTMIN
 10
1.000000000000000E+20
 20
1.000000000000000E+20
 30
1.000000000000000E+20
  9
$EXTMAX
 10
-1.000000000000000E+20
 20
-1.000000000000000E+20
 30
-1.000000000000000E+20
  9
$LIMMIN
 10
-170.0
 20
-170.0
  9
$LIMMAX
 10
519.0
 20
260.0
  9
$ORTHOMODE
 70
     0
  9
$REGENMODE
 70
     1
  9
$FILLMODE
 70
     1
  9
$QTEXTMODE
 70
     0
  9
$MIRRTEXT
 70
     0
  9
$LTSCALE
 40
1.0
  9
$ATTMODE
 70
     1
  9
$TEXTSIZE
 40
3.5
  9
$TRACEWID
 40
1.0
  9
$TEXTSTYLE
  7
SIMPLEX
  9
$CLAYER
  8
1
  9
$CELTYPE
  6
BYLAYER
  9
$CECOLOR
 62
   256
  9
$CELTSCALE
 40
1.0
  9
$DISPSILH
 70
     0
  9
$DIMSCALE
 40
1.0
  9
$DIMASZ
 40
2.5
  9
$DIMEXO
 40
0.0
  9
$DIMDLI
 40
3.75
  9
$DIMRND
 40
0.0
  9
$DIMDLE
 40
0.0
  9
$DIMEXE
 40
1.25
  9
$DIMTP
 40
0.0
  9
$DIMTM
 40
0.0
  9
$DIMTXT
 40
3.5
  9
$DIMCEN
 40
0.0
  9
$DIMTSZ
 40
0.0
  9
$DIMTOL
 70
     0
  9
$DIMLIM
 70
     0
  9
$DIMTIH
 70
     0
  9
$DIMTOH
 70
     0
  9
$DIMSE1
 70
     0
  9
$DIMSE2
 70
     0
  9
$DIMTAD
 70
     1
  9
$DIMZIN
 70
     8
  9
$DIMBLK
  1

  9
$DIMASO
 70
     1
  9
$DIMSHO
 70
     1
  9
$DIMPOST
  1

  9
$DIMAPOST
  1

  9
$DIMALT
 70
     0
  9
$DIMALTD
 70
     3
  9
$DIMALTF
 40
0.039370078
  9
$DIMLFAC
 40
1.0
  9
$DIMTOFL
 70
     0
  9
$DIMTVP
 40
0.0
  9
$DIMTIX
 70
     0
  9
$DIMSOXD
 70
     0
  9
$DIMSAH
 70
     0
  9
$DIMBLK1
  1

  9
$DIMBLK2
  1

  9
$DIMSTYLE
  2
STANDARD
  9
$DIMCLRD
 70
     0
  9
$DIMCLRE
 70
     0
  9
$DIMCLRT
 70
     0
  9
$DIMTFAC
 40
1.0
  9
$DIMGAP
 40
0.625
  9
$DIMJUST
 70
     0
  9
$DIMSD1
 70
     0
  9
$DIMSD2
 70
     0
  9
$DIMTOLJ
 70
     0
  9
$DIMTZIN
 70
     8
  9
$DIMALTZ
 70
     0
  9
$DIMALTTZ
 70
     0
  9
$DIMUPT
 70
     0
  9
$DIMDEC
 70
     2
  9
$DIMTDEC
 70
     2
  9
$DIMALTU
 70
     2
  9
$DIMALTTD
 70
     3
  9
$DIMTXSTY
  7
SIMPLEX
  9
$DIMAUNIT
 70
     0
  9
$DIMADEC
 70
     2
  9
$DIMALTRND
 40
0.0
  9
$DIMAZIN
 70
     2
  9
$DIMDSEP
 70
    46
  9
$DIMATFIT
 70
     3
  9
$DIMFRAC
 70
     0
  9
$DIMLDRBLK
  1

  9
$DIMLUNIT
 70
     2
  9
$DIMLWD
 70
    -2
  9
$DIMLWE
 70
    -2
  9
$DIMTMOVE
 70
     0
  9
$LUNITS
 70
     2
  9
$LUPREC
 70
     4
  9
$SKETCHINC
 40
1.0
  9
$FILLETRAD
 40
0.0
  9
$AUNITS
 70
     0
  9
$AUPREC
 70
     0
  9
$MENU
  1
c:\tdm21\cad\caduti13\tdm13
  9
$ELEVATION
 40
0.0
  9
$PELEVATION
 40
0.0
  9
$THICKNESS
 40
0.0
  9
$LIMCHECK
 70
     0
  9
$CHAMFERA
 40
0.0
  9
$CHAMFERB
 40
0.0
  9
$CHAMFERC
 40
0.0
  9
$CHAMFERD
 40
0.0
  9
$SKPOLY
 70
     0
  9
$TDCREATE
 40
2454957.593642639
  9
$TDUCREATE
 40
2454957.510309306
  9
$TDUPDATE
 40
2456860.654740984
  9
$TDUUPDATE
 40
2456860.571407651
  9
$TDINDWG
 40
0.0009643519
  9
$TDUSRTIMER
 40
0.0009475231
  9
$USRTIMER
 70
     1
  9
$ANGBASE
 50
0.0
  9
$ANGDIR
 70
     0
  9
$PDMODE
 70
     1
  9
$PDSIZE
 40
0.0
  9
$PLINEWID
 40
0.0
  9
$SPLFRAME
 70
     0
  9
$SPLINETYPE
 70
     6
  9
$SPLINESEGS
 70
     8
  9
$HANDSEED
  5
63C
  9
$SURFTAB1
 70
     6
  9
$SURFTAB2
 70
     6
  9
$SURFTYPE
 70
     6
  9
$SURFU
 70
     6
  9
$SURFV
 70
     6
  9
$UCSBASE
  2

  9
$UCSNAME
  2

  9
$UCSORG
 10
0.0
 20
0.0
 30
0.0
  9
$UCSXDIR
 10
1.0
 20
0.0
 30
0.0
  9
$UCSYDIR
 10
0.0
 20
1.0
 30
0.0
  9
$UCSORTHOREF
  2

  9
$UCSORTHOVIEW
 70
     0
  9
$UCSORGTOP
 10
0.0
 20
0.0
 30
0.0
  9
$UCSORGBOTTOM
 10
0.0
 20
0.0
 30
0.0
  9
$UCSORGLEFT
 10
0.0
 20
0.0
 30
0.0
  9
$UCSORGRIGHT
 10
0.0
 20
0.0
 30
0.0
  9
$UCSORGFRONT
 10
0.0
 20
0.0
 30
0.0
  9
$UCSORGBACK
 10
0.0
 20
0.0
 30
0.0
  9
$PUCSBASE
  2

  9
$PUCSNAME
  2

  9
$PUCSORG
 10
0.0
 20
0.0
 30
0.0
  9
$PUCSXDIR
 10
1.0
 20
0.0
 30
0.0
  9
$PUCSYDIR
 10
0.0
 20
1.0
 30
0.0
  9
$PUCSORTHOREF
  2

  9
$PUCSORTHOVIEW
 70
     0
  9
$PUCSORGTOP
 10
0.0
 20
0.0
 30
0.0
  9
$PUCSORGBOTTOM
 10
0.0
 20
0.0
 30
0.0
  9
$PUCSORGLEFT
 10
0.0
 20
0.0
 30
0.0
  9
$PUCSORGRIGHT
 10
0.0
 20
0.0
 30
0.0
  9
$PUCSORGFRONT
 10
0.0
 20
0.0
 30
0.0
  9
$PUCSORGBACK
 10
0.0
 20
0.0
 30
0.0
  9
$USERI1
 70
     0
  9
$USERI2
 70
     0
  9
$USERI3
 70
     0
  9
$USERI4
 70
     0
  9
$USERI5
 70
     0
  9
$USERR1
 40
0.0
  9
$USERR2
 40
0.0
  9
$USERR3
 40
0.0
  9
$USERR4
 40
0.0
  9
$USERR5
 40
0.0
  9
$WORLDVIEW
 70
     1
  9
$SHADEDGE
 70
     3
  9
$SHADEDIF
 70
    70
  9
$TILEMODE
 70
     1
  9
$MAXACTVP
 70
    64
  9
$PINSBASE
 10
0.0
 20
0.0
 30
0.0
  9
$PLIMCHECK
 70
     0
  9
$PEXTMIN
 10
0.0
 20
0.0
 30
0.0
  9
$PEXTMAX
 10
0.0
 20
0.0
 30
0.0
  9
$PLIMMIN
 10
0.0
 20
0.0
  9
$PLIMMAX
 10
12.0
 20
9.0
  9
$UNITMODE
 70
     0
  9
$VISRETAIN
 70
     0
  9
$PLINEGEN
 70
     0
  9
$PSLTSCALE
 70
     1
  9
$TREEDEPTH
 70
  3020
  9
$CMLSTYLE
  2
STANDARD
  9
$CMLJUST
 70
     0
  9
$CMLSCALE
 40
20.0
  9
$PROXYGRAPHICS
 70
     1
  9
$MEASUREMENT
 70
     1
  9
$CELWEIGHT
370
    -1
  9
$ENDCAPS
280
     0
  9
$JOINSTYLE
280
     0
  9
$LWDISPLAY
290
     0
  9
$INSUNITS
 70
     4
  9
$HYPERLINKBASE
  1

  9
$STYLESHEET
  1
MONOCHROME.CTB
  9
$XEDIT
290
     1
  9
$CEPSNTYPE
380
     0
  9
$PSTYLEMODE
290
     1
  9
$FINGERPRINTGUID
  2
{46B44192-1510-48B1-B61B-CBE2ADA013A7}
  9
$VERSIONGUID
  2
{6160D478-9A74-4C97-9D8A-D4A65CE74B12}
  9
$EXTNAMES
290
     1
  9
$PSVPSCALE
 40
0.0
  9
$OLESTARTUP
290
     0
  0
ENDSEC
  0
SECTION
  2
CLASSES
  0
CLASS
  1
ACDBDICTIONARYWDFLT
  2
AcDbDictionaryWithDefault
  3
ObjectDBX Classes
 90
        0
280
     0
281
     0
  0
CLASS
  1
ACDBPLACEHOLDER
  2
AcDbPlaceHolder
  3
ObjectDBX Classes
 90
        0
280
     0
281
     0
  0
CLASS
  1
LAYOUT
  2
AcDbLayout
  3
ObjectDBX Classes
 90
        0
280
     0
281
     0
  0
CLASS
  1
DICTIONARYVAR
  2
AcDbDictionaryVar
  3
ObjectDBX Classes
 90
        0
280
     0
281
     0
  0
CLASS
  1
TABLESTYLE
  2
AcDbTableStyle
  3
ObjectDBX Classes
 90
     4095
280
     0
281
     0
  0
CLASS
  1
SCALE
  2
AcDbScale
  3
ObjectDBX Classes
 90
     1153
280
     0
281
     0
  0
CLASS
  1
MATERIAL
  2
AcDbMaterial
  3
ObjectDBX Classes
 90
     1153
280
     0
281
     0
  0
CLASS
  1
VISUALSTYLE
  2
AcDbVisualStyle
  3
ObjectDBX Classes
 90
     4095
280
     0
281
     0
  0
ENDSEC
  0
SECTION
  2
TABLES
  0
TABLE
  2
VPORT
  5
8
330
0
100
AcDbSymbolTable
 70
     1
  0
VPORT
  5
39A
330
8
100
AcDbSymbolTableRecord
100
AcDbViewportTableRecord
  2
*Active
 70
     0
 10
0.0
 20
0.0
 11
1.0
 21
1.0
 12
218.9201881351169
 22
109.7549380673833
 13
0.0
 23
0.0
 14
5.0
 24
5.0
 15
5.0
 25
5.0
 16
0.0
 26
0.0
 36
1.0
 17
0.0
 27
0.0
 37
0.0
 40
564.6711112651689
 41
1.066073697585768
 42
50.0
 43
0.0
 44
0.0
 50
0.0
 51
0.0
 71
     0
 72
  2000
 73
     1
 74
     1
 75
     0
 76
     0
 77
     0
 78
     0
281
     0
 65
     1
110
0.0
120
0.0
130
0.0
111
1.0
121
0.0
131
0.0
112
0.0
122
1.0
132
0.0
 79
     0
146
0.0
  0
ENDTAB
  0
TABLE
  2
LTYPE
  5
5
330
0
100
AcDbSymbolTable
 70
     3
  0
LTYPE
  5
12
330
5
100
AcDbSymbolTableRecord
100
AcDbLinetypeTableRecord
  2
BYBLOCK
 70
     0
  3

 72
    65
 73
     0
 40
0.0
  0
LTYPE
  5
13
330
5
100
AcDbSymbolTableRecord
100
AcDbLinetypeTableRecord
  2
BYLAYER
 70
     0
  3

 72
    65
 73
     0
 40
0.0
  0
LTYPE
  5
14
330
5
100
AcDbSymbolTableRecord
100
AcDbLinetypeTableRecord
  2
CONTINUOUS
 70
     0
  3
Solid line
 72
    65
 73
     0
 40
0.0
  0
LTYPE
  5
20
330
5
100
AcDbSymbolTableRecord
100
AcDbLinetypeTableRecord
  2
HIDDEN
 70
     0
  3
Hidden __ __ __ __ __ __ __ __ __ __ __ __ __ _
 72
    65
 73
     2
 40
9.524999999999997
 49
6.349999999999998
 74
     0
 49
-3.174999999999998
 74
     0
  0
LTYPE
  5
351
330
5
100
AcDbSymbolTableRecord
100
AcDbLinetypeTableRecord
  2
CENTER
 70
     0
  3
Dash dot __ . __ . __ . __ . __ . __ . __ . __
 72
    65
 73
     4
 40
25.4
 49
12.7
 74
     0
 49
-6.349999999999998
 74
     0
 49
0.0
 74
     0
 49
-6.349999999999998
 74
     0
  0
ENDTAB
  0
TABLE
  2
LAYER
  5
2
330
0
100
AcDbSymbolTable
 70
    16
  0
LAYER
  5
F
330
2
100
AcDbSymbolTableRecord
100
AcDbLayerTableRecord
  2
0
 70
     0
 62
     7
  6
CONTINUOUS
370
    -3
390
300
  0
LAYER
  5
23
330
2
100
AcDbSymbolTableRecord
100
AcDbLayerTableRecord
  2
1
 70
     0
 62
     4
  6
CONTINUOUS
370
    -3
390
300
  0
LAYER
  5
24
330
2
100
AcDbSymbolTableRecord
100
AcDbLayerTableRecord
  2
SK1
 70
     0
 62
     4
  6
CONTINUOUS
370
    -3
390
300
  0
LAYER
  5
25
330
2
100
AcDbSymbolTableRecord
100
AcDbLayerTableRecord
  2
2
 70
     0
 62
     7
  6
CONTINUOUS
370
    -3
390
300
  0
LAYER
  5
26
330
2
100
AcDbSymbolTableRecord
100
AcDbLayerTableRecord
  2
2L
 70
     0
 62
     7
  6
CONTINUOUS
370
    -3
390
300
  0
LAYER
  5
27
330
2
100
AcDbSymbolTableRecord
100
AcDbLayerTableRecord
  2
SK2
 70
     0
 62
     7
  6
CONTINUOUS
370
    -3
390
300
  0
LAYER
  5
28
330
2
100
AcDbSymbolTableRecord
100
AcDbLayerTableRecord
  2
3
 70
     0
 62
     1
  6
HIDDEN
370
    -3
390
300
  0
LAYER
  5
29
330
2
100
AcDbSymbolTableRecord
100
AcDbLayerTableRecord
  2
SK3
 70
     0
 62
     1
  6
HIDDEN
370
    -3
390
300
  0
LAYER
  5
2A
330
2
100
AcDbSymbolTableRecord
100
AcDbLayerTableRecord
  2
4
 70
     0
 62
     2
  6
CENTER
370
    -3
390
300
  0
LAYER
  5
2B
330
2
100
AcDbSymbolTableRecord
100
AcDbLayerTableRecord
  2
SK4
 70
     0
 62
     2
  6
CENTER
370
    -3
390
300
  0
LAYER
  5
2C
330
2
100
AcDbSymbolTableRecord
100
AcDbLayerTableRecord
  2
5
 70
     0
 62
    -7
  6
CONTINUOUS
370
    -3
390
300
  0
LAYER
  5
2D
330
2
100
AcDbSymbolTableRecord
100
AcDbLayerTableRecord
  2
6
 70
     0
 62
     5
  6
CONTINUOUS
370
    -3
390
300
  0
LAYER
  5
2E
330
2
100
AcDbSymbolTableRecord
100
AcDbLayerTableRecord
  2
SK6
 70
     0
 62
     5
  6
CONTINUOUS
370
    -3
390
300
  0
LAYER
  5
2F
330
2
100
AcDbSymbolTableRecord
100
AcDbLayerTableRecord
  2
DEFPOINTS
 70
     0
 62
     7
  6
CONTINUOUS
290
     0
370
    -3
390
300
  0
LAYER
  5
375
330
2
100
AcDbSymbolTableRecord
100
AcDbLayerTableRecord
  2
CUT
 70
     0
 62
     1
  6
CONTINUOUS
370
    -3
390
300
  0
LAYER
  5
376
330
2
100
AcDbSymbolTableRecord
100
AcDbLayerTableRecord
  2
NOCUT
 70
     0
 62
     7
  6
CONTINUOUS
370
    -3
390
300
  0
ENDTAB
  0
TABLE
  2
STYLE
  5
3
330
0
100
AcDbSymbolTable
 70
     4
  0
STYLE
  5
10
330
3
100
AcDbSymbolTableRecord
100
AcDbTextStyleTableRecord
  2
STANDARD
 70
     0
 40
0.0
 41
1.0
 50
0.0
 71
     0
 42
5.0
  3
txt
  4

  0
STYLE
  5
1D
330
3
100
AcDbSymbolTableRecord
100
AcDbTextStyleTableRecord
  2
TXT
 70
     0
 40
8.0
 41
1.0
 50
0.0
 71
     0
 42
8.0
  3
txt
  4

  0
STYLE
  5
1E
330
3
100
AcDbSymbolTableRecord
100
AcDbTextStyleTableRecord
  2
SIMPLEX
 70
     0
 40
0.0
 41
1.0
 50
0.0
 71
     0
 42
3.5
  3
simplex
  4

  0
STYLE
  5
34C
330
3
100
AcDbSymbolTableRecord
100
AcDbTextStyleTableRecord
  2

 70
     1
 40
0.0
 41
1.0
 50
0.0
 71
     0
 42
2.5
  3
ltypeshp.shx
  4

  0
ENDTAB
  0
TABLE
  2
VIEW
  5
6
330
0
100
AcDbSymbolTable
 70
     0
  0
ENDTAB
  0
TABLE
  2
UCS
  5
7
330
0
100
AcDbSymbolTable
 70
     0
  0
ENDTAB
  0
TABLE
  2
APPID
  5
9
330
0
100
AcDbSymbolTable
 70
     1
  0
APPID
  5
11
330
9
100
AcDbSymbolTableRecord
100
AcDbRegAppTableRecord
  2
ACAD
 70
     0
  0
ENDTAB
  0
TABLE
  2
DIMSTYLE
  5
A
330
0
100
AcDbSymbolTable
 70
     1
100
AcDbDimStyleTable
  0
DIMSTYLE
105
3F
102
{ACAD_REACTORS
330
5CF
330
5DD
330
5EA
330
5F7
330
604
102
}
330
A
100
AcDbSymbolTableRecord
100
AcDbDimStyleTableRecord
  2
STANDARD
 70
     0
 41
2.5
 42
0.0
 43
3.75
 44
1.25
 73
     0
 74
     0
 77
     1
 78
     8
 79
     2
140
3.5
141
0.0
143
0.039370078
147
0.625
171
     3
178
     0
179
     2
271
     2
272
     2
274
     3
283
     0
284
     8
340
1E
  0
ENDTAB
  0
TABLE
  2
BLOCK_RECORD
  5
1
330
0
100
AcDbSymbolTable
 70
     5
  0
BLOCK_RECORD
  5
18
330
1
100
AcDbSymbolTableRecord
100
AcDbBlockTableRecord
  2
*MODEL_SPACE
340
303
  0
BLOCK_RECORD
  5
338
330
1
100
AcDbSymbolTableRecord
100
AcDbBlockTableRecord
  2
*Paper_Space
340
33B
  0
BLOCK_RECORD
  5
5D0
330
1
100
AcDbSymbolTableRecord
100
AcDbBlockTableRecord
  2
*D0
340
0
  0
BLOCK_RECORD
  5
5DE
330
1
100
AcDbSymbolTableRecord
100
AcDbBlockTableRecord
  2
*D1
340
0
  0
BLOCK_RECORD
  5
5EB
330
1
100
AcDbSymbolTableRecord
100
AcDbBlockTableRecord
  2
*D2
340
0
  0
BLOCK_RECORD
  5
5F8
330
1
100
AcDbSymbolTableRecord
100
AcDbBlockTableRecord
  2
*D3
340
0
  0
BLOCK_RECORD
  5
605
330
1
100
AcDbSymbolTableRecord
100
AcDbBlockTableRecord
  2
*D4
340
0
  0
ENDTAB
  0
ENDSEC
  0
SECTION
  2
BLOCKS
  0
BLOCK
  5
32
330
18
100
AcDbEntity
  8
0
100
AcDbBlockBegin
  2
*MODEL_SPACE
 70
     0
 10
0.0
 20
0.0
 30
0.0
  3
*MODEL_SPACE
  1

  0
ENDBLK
  5
33
330
18
100
AcDbEntity
  8
0
100
AcDbBlockEnd
  0
BLOCK
  5
339
330
338
100
AcDbEntity
 67
     1
  8
0
100
AcDbBlockBegin
  2
*Paper_Space
 70
     0
 10
0.0
 20
0.0
 30
0.0
  3
*Paper_Space
  1

  0
ENDBLK
  5
33A
330
338
100
AcDbEntity
 67
     1
  8
0
100
AcDbBlockEnd
  0
BLOCK
  5
5D1
330
5D0
100
AcDbEntity
  8
0
100
AcDbBlockBegin
  2
*D0
 70
     1
 10
0.0
 20
0.0
 30
0.0
  3
*D0
  1

  0
LINE
  5
5D3
330
5D0
100
AcDbEntity
  8
2
 62
     0
370
    -2
100
AcDbLine
 10
73.0
 20
6.0
 30
0.0
 11
89.25
 21
6.000000000000058
 31
0.0
  0
LINE
  5
5D4
330
5D0
100
AcDbEntity
  8
2
 62
     0
370
    -2
100
AcDbLine
 10
73.0
 20
-6.0
 30
0.0
 11
89.25000000000004
 21
-5.999999999999943
 31
0.0
  0
LINE
  5
5D5
330
5D0
100
AcDbEntity
  8
2
 62
     0
370
    -2
100
AcDbLine
 10
88.00000000000004
 20
-5.999999999999948
 30
0.0
 11
88.00000000000014
 21
-35.06899999999994
 31
0.0
  0
LINE
  5
5D6
330
5D0
100
AcDbEntity
  8
2
 62
     0
370
    -2
100
AcDbLine
 10
88.00000000000001
 20
3.500000000000053
 30
0.0
 11
88.00000000000003
 21
-3.499999999999948
 31
0.0
  0
SOLID
  5
5D7
330
5D0
100
AcDbEntity
  8
2
 62
     0
100
AcDbTrace
 10
88.41666666666669
 20
3.500000000000055
 30
0.0
 11
87.58333333333334
 21
3.500000000000052
 31
0.0
 12
88.0
 22
6.000000000000053
 32
0.0
 13
88.0
 23
6.000000000000053
 33
0.0
  0
SOLID
  5
5D8
330
5D0
100
AcDbEntity
  8
2
 62
     0
100
AcDbTrace
 10
87.58333333333336
 20
-3.499999999999949
 30
0.0
 11
88.4166666666667
 21
-3.499999999999946
 31
0.0
 12
88.00000000000004
 22
-5.999999999999948
 32
0.0
 13
88.00000000000004
 23
-5.999999999999948
 33
0.0
  0
MTEXT
  5
5D9
330
5D0
100
AcDbEntity
  8
2
 62
     0
100
AcDbMText
 10
85.6022500000001
 20
-21.78449999999995
 30
0.0
 40
3.5
 41
0.0
 71
     5
 72
     1
  1
MF12x1.25
  7
SIMPLEX
 11
-3.552713678800501E-15
 21
1.0
 31
0.0
 73
     1
 44
1.0
  0
POINT
  5
5DA
330
5D0
100
AcDbEntity
  8
DEFPOINTS
 62
     0
100
AcDbPoint
 10
73.0
 20
6.0
 30
0.0
  0
POINT
  5
5DB
330
5D0
100
AcDbEntity
  8
DEFPOINTS
 62
     0
100
AcDbPoint
 10
73.0
 20
-6.0
 30
0.0
  0
POINT
  5
5DC
330
5D0
100
AcDbEntity
  8
DEFPOINTS
 62
     0
100
AcDbPoint
 10
88.00000000000004
 20
-5.999999999999948
 30
0.0
  0
ENDBLK
  5
5D2
330
5D0
100
AcDbEntity
  8
0
100
AcDbBlockEnd
  0
BLOCK
  5
5DF
330
5DE
100
AcDbEntity
  8
0
100
AcDbBlockBegin
  2
*D1
 70
     1
 10
0.0
 20
0.0
 30
0.0
  3
*D1
  1

  0
LINE
  5
5E1
330
5DE
100
AcDbEntity
  8
2
 62
     0
370
    -2
100
AcDbLine
 10
0.0
 20
0.0
 30
0.0
 11
0.0
 21
76.25
 31
0.0
  0
LINE
  5
5E2
330
5DE
100
AcDbEntity
  8
2
 62
     0
370
    -2
100
AcDbLine
 10
73.0
 20
0.0
 30
0.0
 11
73.0
 21
76.25
 31
0.0
  0
LINE
  5
5E3
330
5DE
100
AcDbEntity
  8
2
 62
     0
370
    -2
100
AcDbLine
 10
2.5
 20
75.0
 30
0.0
 11
70.5
 21
75.0
 31
0.0
  0
SOLID
  5
5E4
330
5DE
100
AcDbEntity
  8
2
 62
     0
100
AcDbTrace
 10
2.5
 20
75.41666666666667
 30
0.0
 11
2.5
 21
74.58333333333333
 31
0.0
 12
0.0
 22
75.0
 32
0.0
 13
0.0
 23
75.0
 33
0.0
  0
SOLID
  5
5E5
330
5DE
100
AcDbEntity
  8
2
 62
     0
100
AcDbTrace
 10
70.5
 20
74.58333333333333
 30
0.0
 11
70.5
 21
75.41666666666667
 31
0.0
 12
73.0
 22
75.0
 32
0.0
 13
73.0
 23
75.0
 33
0.0
  0
MTEXT
  5
5E6
330
5DE
100
AcDbEntity
  8
2
 62
     0
100
AcDbMText
 10
36.5
 20
77.39075
 30
0.0
 40
3.5
 41
0.0
 71
     5
 72
     1
  1
73
  7
SIMPLEX
 73
     1
 44
1.0
  0
POINT
  5
5E7
330
5DE
100
AcDbEntity
  8
DEFPOINTS
 62
     0
100
AcDbPoint
 10
0.0
 20
0.0
 30
0.0
  0
POINT
  5
5E8
330
5DE
100
AcDbEntity
  8
DEFPOINTS
 62
     0
100
AcDbPoint
 10
73.0
 20
0.0
 30
0.0
  0
POINT
  5
5E9
330
5DE
100
AcDbEntity
  8
DEFPOINTS
 62
     0
100
AcDbPoint
 10
73.0
 20
75.0
 30
0.0
  0
ENDBLK
  5
5E0
330
5DE
100
AcDbEntity
  8
0
100
AcDbBlockEnd
  0
BLOCK
  5
5EC
330
5EB
100
AcDbEntity
  8
0
100
AcDbBlockBegin
  2
*D2
 70
     1
 10
0.0
 20
0.0
 30
0.0
  3
*D2
  1

  0
LINE
  5
5EE
330
5EB
100
AcDbEntity
  8
SK2
 62
     0
370
    -2
100
AcDbLine
 10
-16.99999999999999
 20
4.5
 30
0.0
 11
-43.25000000002296
 21
4.499999999866036
 31
0.0
  0
LINE
  5
5EF
330
5EB
100
AcDbEntity
  8
SK2
 62
     0
370
    -2
100
AcDbLine
 10
-16.99999999999999
 20
-4.5
 30
0.0
 11
-43.24999999997703
 21
-4.500000000133964
 31
0.0
  0
LINE
  5
5F0
330
5EB
100
AcDbEntity
  8
SK2
 62
     0
370
    -2
100
AcDbLine
 10
-42.0000000000102
 20
1.999999999872415
 30
0.0
 11
-41.99999999998979
 21
-2.000000000127585
 31
0.0
  0
SOLID
  5
5F1
330
5EB
100
AcDbEntity
  8
SK2
 62
     0
100
AcDbTrace
 10
-41.58333333334353
 20
1.999999999874541
 30
0.0
 11
-42.41666666667686
 21
1.999999999870289
 31
0.0
 12
-42.00000000002296
 22
4.499999999872415
 32
0.0
 13
-42.00000000002296
 23
4.499999999872415
 33
0.0
  0
SOLID
  5
5F2
330
5EB
100
AcDbEntity
  8
SK2
 62
     0
100
AcDbTrace
 10
-42.41666666665645
 20
-2.000000000129711
 30
0.0
 11
-41.58333333332313
 21
-2.000000000125459
 31
0.0
 12
-41.99999999997703
 22
-4.500000000127585
 32
0.0
 13
-41.99999999997703
 23
-4.500000000127585
 33
0.0
  0
MTEXT
  5
5F3
330
5EB
100
AcDbEntity
  8
SK2
 62
     0
100
AcDbMText
 10
-44.39074999999999
 20
-0.0000000001397857
 30
0.0
 40
3.5
 41
0.0
 71
     5
 72
     1
  1
%%c9
  7
SIMPLEX
 11
-5.103275826614764E-12
 21
1.0
 31
0.0
 73
     1
 44
1.0
  0
POINT
  5
5F4
330
5EB
100
AcDbEntity
  8
DEFPOINTS
 62
     0
100
AcDbPoint
 10
-16.99999999999999
 20
4.5
 30
0.0
  0
POINT
  5
5F5
330
5EB
100
AcDbEntity
  8
DEFPOINTS
 62
     0
100
AcDbPoint
 10
-16.99999999999999
 20
-4.5
 30
0.0
  0
POINT
  5
5F6
330
5EB
100
AcDbEntity
  8
DEFPOINTS
 62
     0
100
AcDbPoint
 10
-41.99999999997703
 20
-4.500000000127585
 30
0.0
  0
ENDBLK
  5
5ED
330
5EB
100
AcDbEntity
  8
0
100
AcDbBlockEnd
  0
BLOCK
  5
5F9
330
5F8
100
AcDbEntity
  8
0
100
AcDbBlockBegin
  2
*D3
 70
     1
 10
0.0
 20
0.0
 30
0.0
  3
*D3
  1

  0
LINE
  5
5FB
330
5F8
100
AcDbEntity
  8
2
 62
     0
370
    -2
100
AcDbLine
 10
57.14211617
 20
4.35
 30
0.0
 11
57.14211617
 21
61.25
 31
0.0
  0
LINE
  5
5FC
330
5F8
100
AcDbEntity
  8
2
 62
     0
370
    -2
100
AcDbLine
 10
73.0
 20
6.0
 30
0.0
 11
73.0
 21
61.25
 31
0.0
  0
LINE
  5
5FD
330
5F8
100
AcDbEntity
  8
2
 62
     0
370
    -2
100
AcDbLine
 10
59.64211617
 20
60.0
 30
0.0
 11
70.5
 21
60.0
 31
0.0
  0
SOLID
  5
5FE
330
5F8
100
AcDbEntity
  8
2
 62
     0
100
AcDbTrace
 10
59.64211617
 20
60.41666666666666
 30
0.0
 11
59.64211617
 21
59.58333333333334
 31
0.0
 12
57.14211617
 22
60.0
 32
0.0
 13
57.14211617
 23
60.0
 33
0.0
  0
SOLID
  5
5FF
330
5F8
100
AcDbEntity
  8
2
 62
     0
100
AcDbTrace
 10
70.5
 20
59.58333333333334
 30
0.0
 11
70.5
 21
60.41666666666666
 31
0.0
 12
73.0
 22
60.0
 32
0.0
 13
73.0
 23
60.0
 33
0.0
  0
MTEXT
  5
600
330
5F8
100
AcDbEntity
  8
2
 62
     0
100
AcDbMText
 10
65.071058085
 20
62.39775
 30
0.0
 40
3.5
 41
0.0
 71
     5
 72
     1
  1
15.86
  7
SIMPLEX
 73
     1
 44
1.0
  0
POINT
  5
601
330
5F8
100
AcDbEntity
  8
DEFPOINTS
 62
     0
100
AcDbPoint
 10
57.14211617
 20
4.35
 30
0.0
  0
POINT
  5
602
330
5F8
100
AcDbEntity
  8
DEFPOINTS
 62
     0
100
AcDbPoint
 10
73.0
 20
6.0
 30
0.0
  0
POINT
  5
603
330
5F8
100
AcDbEntity
  8
DEFPOINTS
 62
     0
100
AcDbPoint
 10
73.0
 20
60.0
 30
0.0
  0
ENDBLK
  5
5FA
330
5F8
100
AcDbEntity
  8
0
100
AcDbBlockEnd
  0
BLOCK
  5
606
330
605
100
AcDbEntity
  8
0
100
AcDbBlockBegin
  2
*D4
 70
     1
 10
0.0
 20
0.0
 30
0.0
  3
*D4
  1

  0
LINE
  5
608
330
605
100
AcDbEntity
  8
SK2
 62
     0
370
    -2
100
AcDbLine
 10
-27.0
 20
6.0
 30
0.0
 11
-27.0
 21
91.25
 31
0.0
  0
LINE
  5
609
330
605
100
AcDbEntity
  8
SK2
 62
     0
370
    -2
100
AcDbLine
 10
74.92
 20
6.0
 30
0.0
 11
74.92
 21
91.25
 31
0.0
  0
LINE
  5
60A
330
605
100
AcDbEntity
  8
SK2
 62
     0
370
    -2
100
AcDbLine
 10
-24.5
 20
90.0
 30
0.0
 11
72.42
 21
90.0
 31
0.0
  0
SOLID
  5
60B
330
605
100
AcDbEntity
  8
SK2
 62
     0
100
AcDbTrace
 10
-24.5
 20
90.41666666666667
 30
0.0
 11
-24.5
 21
89.58333333333333
 31
0.0
 12
-27.0
 22
90.0
 32
0.0
 13
-27.0
 23
90.0
 33
0.0
  0
SOLID
  5
60C
330
605
100
AcDbEntity
  8
SK2
 62
     0
100
AcDbTrace
 10
72.42
 20
89.58333333333333
 30
0.0
 11
72.42
 21
90.41666666666667
 31
0.0
 12
74.92
 22
90.0
 32
0.0
 13
74.92
 23
90.0
 33
0.0
  0
MTEXT
  5
60D
330
605
100
AcDbEntity
  8
SK2
 62
     0
100
AcDbMText
 10
23.96
 20
92.39775
 30
0.0
 40
3.5
 41
0.0
 71
     5
 72
     1
  1
101.92
  7
SIMPLEX
 73
     1
 44
1.0
  0
POINT
  5
60E
330
605
100
AcDbEntity
  8
DEFPOINTS
 62
     0
100
AcDbPoint
 10
-27.0
 20
6.0
 30
0.0
  0
POINT
  5
60F
330
605
100
AcDbEntity
  8
DEFPOINTS
 62
     0
100
AcDbPoint
 10
74.92
 20
6.0
 30
0.0
  0
POINT
  5
610
330
605
100
AcDbEntity
  8
DEFPOINTS
 62
     0
100
AcDbPoint
 10
74.92
 20
90.0
 30
0.0
  0
ENDBLK
  5
607
330
605
100
AcDbEntity
  8
0
100
AcDbBlockEnd
  0
ENDSEC
  0
SECTION
  2
ENTITIES
  0
LINE
  5
3D6
330
18
100
AcDbEntity
  8
SK4
100
AcDbLine
 10
-28.99999999999999
 20
0.0
 30
0.0
 11
57.14211617
 21
0.0
 31
0.0
  0
LINE
  5
3D7
330
18
100
AcDbEntity
  8
4
100
AcDbLine
 10
55.14211617
 20
0.0
 30
0.0
 11
76.92
 21
0.0
 31
0.0
  0
LINE
  5
3D8
330
18
100
AcDbEntity
  8
SK4
100
AcDbLine
 10
55.14211617
 20
0.0
 30
0.0
 11
76.92
 21
0.0
 31
0.0
  0
LINE
  5
3D9
330
18
100
AcDbEntity
  8
1
100
AcDbLine
 10
32.99999999999998
 20
-2.154166399340691
 30
0.0
 11
32.99999999999999
 21
-3.995420909054029
 31
0.0
  0
LINE
  5
3DA
330
18
100
AcDbEntity
  8
1
100
AcDbLine
 10
33.0
 20
-3.995420909054028
 30
0.0
 11
33.86321041751127
 21
-4.213792423163121
 31
0.0
  0
LINE
  5
3DB
330
18
100
AcDbEntity
  8
1
100
AcDbLine
 10
33.86321041751127
 20
-4.213792423163121
 30
0.0
 11
34.72642055303791
 21
-4.372035638614903
 31
0.0
  0
LINE
  5
3DC
330
18
100
AcDbEntity
  8
1
100
AcDbLine
 10
34.72642055303791
 20
-4.372035638614903
 30
0.0
 11
35.15803176808119
 21
-4.427870321377426
 31
0.0
  0
LINE
  5
3DD
330
18
100
AcDbEntity
  8
1
100
AcDbLine
 10
35.15803176808119
 20
-4.427870321377426
 30
0.0
 11
35.58963465500243
 21
-4.467894225344601
 31
0.0
  0
LINE
  5
3DE
330
18
100
AcDbEntity
  8
1
100
AcDbLine
 10
35.58963465500243
 20
-4.467894225344601
 30
0.0
 11
36.02123618610894
 21
-4.491965891356436
 31
0.0
  0
LINE
  5
3DF
330
18
100
AcDbEntity
  8
1
100
AcDbLine
 10
36.02123618610894
 20
-4.491965891356436
 30
0.0
 11
36.45283900246955
 21
-4.499999999994444
 31
0.0
  0
LINE
  5
3E0
330
18
100
AcDbEntity
  8
1
100
AcDbLine
 10
32.99999999999999
 20
-2.154166399340681
 30
0.0
 11
33.96741282862075
 21
-2.662522325758439
 31
0.0
  0
LINE
  5
3E1
330
18
100
AcDbEntity
  8
1
100
AcDbLine
 10
33.96741282862075
 20
-2.662522325758439
 30
0.0
 11
34.93481793544053
 21
-3.123170085578237
 31
0.0
  0
LINE
  5
3E2
330
18
100
AcDbEntity
  8
1
100
AcDbLine
 10
34.93481793544053
 20
-3.123170085578237
 30
0.0
 11
35.90222532737958
 21
-3.527864475823661
 31
0.0
  0
LINE
  5
3E3
330
18
100
AcDbEntity
  8
1
100
AcDbLine
 10
35.90222532737958
 20
-3.527864475823661
 30
0.0
 11
36.8696419387743
 21
-3.869354437564612
 31
0.0
  0
LINE
  5
3E4
330
18
100
AcDbEntity
  8
1
100
AcDbLine
 10
36.8696419387743
 20
-3.869354437564612
 30
0.0
 11
37.83704922412244
 21
-4.141515532340951
 31
0.0
  0
LINE
  5
3E5
330
18
100
AcDbEntity
  8
1
100
AcDbLine
 10
37.83704922412244
 20
-4.141515532340951
 30
0.0
 11
38.32075116575987
 21
-4.250024195388808
 31
0.0
  0
LINE
  5
3E6
330
18
100
AcDbEntity
  8
1
100
AcDbLine
 10
38.32075116575987
 20
-4.250024195388808
 30
0.0
 11
38.80445375164759
 21
-4.33947565605988
 31
0.0
  0
LINE
  5
3E7
330
18
100
AcDbEntity
  8
1
100
AcDbLine
 10
38.80445375164759
 20
-4.33947565605988
 30
0.0
 11
39.28815846815587
 21
-4.409468740942958
 31
0.0
  0
LINE
  5
3E8
330
18
100
AcDbEntity
  8
1
100
AcDbLine
 10
39.28815846815587
 20
-4.409468740942958
 30
0.0
 11
39.77186657335918
 21
-4.45968929695322
 31
0.0
  0
LINE
  5
3E9
330
18
100
AcDbEntity
  8
1
100
AcDbLine
 10
39.77186657335918
 20
-4.45968929695322
 30
0.0
 11
40.25557472128676
 21
-4.489911366842005
 31
0.0
  0
LINE
  5
3EA
330
18
100
AcDbEntity
  8
1
100
AcDbLine
 10
40.25557472128676
 20
-4.489911366842005
 30
0.0
 11
40.73925912255783
 21
-4.499999999962622
 31
0.0
  0
LINE
  5
3EB
330
18
100
AcDbEntity
  8
1
100
AcDbLine
 10
32.99999999999999
 20
3.950894471376269
 30
0.0
 11
33.0
 21
2.070413427191264
 31
0.0
  0
LINE
  5
3EC
330
18
100
AcDbEntity
  8
1
100
AcDbLine
 10
33.0
 20
2.070413427191267
 30
0.0
 11
40.39758733678291
 21
-2.33753804704491
 31
0.0
  0
LINE
  5
3ED
330
18
100
AcDbEntity
  8
1
100
AcDbLine
 10
40.39758733678291
 20
-2.33753804704491
 30
0.0
 11
41.32228756372513
 21
-2.809399769143115
 31
0.0
  0
LINE
  5
3EE
330
18
100
AcDbEntity
  8
1
100
AcDbLine
 10
41.32228756372513
 20
-2.809399769143115
 30
0.0
 11
42.24698079813735
 21
-3.235264629215228
 31
0.0
  0
LINE
  5
3EF
330
18
100
AcDbEntity
  8
1
100
AcDbLine
 10
42.24698079813735
 20
-3.235264629215228
 30
0.0
 11
43.17168611786347
 21
-3.608169434531279
 31
0.0
  0
LINE
  5
3F0
330
18
100
AcDbEntity
  8
1
100
AcDbLine
 10
43.17168611786347
 20
-3.608169434531279
 30
0.0
 11
44.09638272253206
 21
-3.921997693431899
 31
0.0
  0
LINE
  5
3F1
330
18
100
AcDbEntity
  8
1
100
AcDbLine
 10
44.09638272253206
 20
-3.921997693431899
 30
0.0
 11
45.02107748664687
 21
-4.171617929843538
 31
0.0
  0
LINE
  5
3F2
330
18
100
AcDbEntity
  8
1
100
AcDbLine
 10
45.02107748664687
 20
-4.171617929843538
 30
0.0
 11
45.48343070026154
 21
-4.271031308422939
 31
0.0
  0
LINE
  5
3F3
330
18
100
AcDbEntity
  8
1
100
AcDbLine
 10
45.48343070026154
 20
-4.271031308422939
 30
0.0
 11
45.94578390398145
 21
-4.352944529847399
 31
0.0
  0
LINE
  5
3F4
330
18
100
AcDbEntity
  8
1
100
AcDbLine
 10
45.94578390398145
 20
-4.352944529847399
 30
0.0
 11
46.4081316800599
 21
-4.417022824390091
 31
0.0
  0
LINE
  5
3F5
330
18
100
AcDbEntity
  8
1
100
AcDbLine
 10
46.4081316800599
 20
-4.417022824390091
 30
0.0
 11
46.87047765039527
 21
-4.463004349719738
 31
0.0
  0
LINE
  5
3F6
330
18
100
AcDbEntity
  8
1
100
AcDbLine
 10
46.87047765039527
 20
-4.463004349719738
 30
0.0
 11
47.33282445634591
 21
-4.490701273048573
 31
0.0
  0
LINE
  5
3F7
330
18
100
AcDbEntity
  8
1
100
AcDbLine
 10
47.33282445634591
 20
-4.490701273048573
 30
0.0
 11
47.79517352664497
 21
-4.499999827723454
 31
0.0
  0
LINE
  5
3F8
330
18
100
AcDbEntity
  8
1
100
AcDbLine
 10
47.79517352664497
 20
-4.499999827723454
 30
0.0
 11
47.79717192217577
 21
-4.499999999999039
 31
0.0
  0
LINE
  5
3F9
330
18
100
AcDbEntity
  8
1
100
AcDbLine
 10
33.0
 20
3.950894471376271
 30
0.0
 11
33.83659695343882
 21
3.675435038165095
 31
0.0
  0
LINE
  5
3FA
330
18
100
AcDbEntity
  8
1
100
AcDbLine
 10
33.83659695343882
 20
3.675435038165095
 30
0.0
 11
34.67319634695922
 21
3.350711329702742
 31
0.0
  0
LINE
  5
3FB
330
18
100
AcDbEntity
  8
1
100
AcDbLine
 10
34.67319634695922
 20
3.350711329702742
 30
0.0
 11
35.50979113821018
 21
2.981075564552749
 31
0.0
  0
LINE
  5
3FC
330
18
100
AcDbEntity
  8
1
100
AcDbLine
 10
35.50979113821018
 20
2.981075564552749
 30
0.0
 11
36.34639192693372
 21
2.571480289815707
 31
0.0
  0
LINE
  5
3FD
330
18
100
AcDbEntity
  8
1
100
AcDbLine
 10
36.34639192693372
 20
2.571480289815707
 30
0.0
 11
38.01958719484885
 21
1.654840677093609
 31
0.0
  0
LINE
  5
3FE
330
18
100
AcDbEntity
  8
1
100
AcDbLine
 10
38.01958719484885
 20
1.654840677093609
 30
0.0
 11
39.69278215741583
 21
0.6497738520893215
 31
0.0
  0
LINE
  5
3FF
330
18
100
AcDbEntity
  8
1
100
AcDbLine
 10
57.14211617
 20
4.5
 30
0.0
 11
52.0835922686691
 21
4.5
 31
0.0
  0
LINE
  5
400
330
18
100
AcDbEntity
  8
1
100
AcDbLine
 10
36.45283900246292
 20
4.5
 30
0.0
 11
0.0000000000000053
 21
4.5
 31
0.0
  0
LINE
  5
401
330
18
100
AcDbEntity
  8
1
100
AcDbLine
 10
47.79717192217461
 20
4.5
 30
0.0
 11
40.73925912255689
 21
4.5
 31
0.0
  0
LINE
  5
402
330
18
100
AcDbEntity
  8
1
100
AcDbLine
 10
36.45283900246292
 20
4.5
 30
0.0
 11
37.10111825923029
 21
4.481882397848102
 31
0.0
  0
LINE
  5
403
330
18
100
AcDbEntity
  8
1
100
AcDbLine
 10
37.10111825923029
 20
4.481882397848102
 30
0.0
 11
37.74940148123461
 21
4.427675350122806
 31
0.0
  0
LINE
  5
404
330
18
100
AcDbEntity
  8
1
100
AcDbLine
 10
37.74940148123461
 20
4.427675350122806
 30
0.0
 11
38.3976864737249
 21
4.337815092387697
 31
0.0
  0
LINE
  5
405
330
18
100
AcDbEntity
  8
1
100
AcDbLine
 10
38.3976864737249
 20
4.337815092387697
 30
0.0
 11
39.04597204782297
 21
4.213025373381839
 31
0.0
  0
LINE
  5
406
330
18
100
AcDbEntity
  8
1
100
AcDbLine
 10
39.04597204782297
 20
4.213025373381839
 30
0.0
 11
39.69425694952227
 21
4.054311445357192
 31
0.0
  0
LINE
  5
407
330
18
100
AcDbEntity
  8
1
100
AcDbLine
 10
39.69425694952227
 20
4.054311445357192
 30
0.0
 11
40.34253875732341
 21
3.862951220842799
 31
0.0
  0
LINE
  5
408
330
18
100
AcDbEntity
  8
1
100
AcDbLine
 10
40.34253875732341
 20
3.862951220842799
 30
0.0
 11
40.99081691287702
 21
3.640486791084004
 31
0.0
  0
LINE
  5
409
330
18
100
AcDbEntity
  8
1
100
AcDbLine
 10
40.99081691287702
 20
3.640486791084004
 30
0.0
 11
41.63909694166917
 21
3.388707956422008
 31
0.0
  0
LINE
  5
40A
330
18
100
AcDbEntity
  8
1
100
AcDbLine
 10
57.14211617
 20
-3.001575536410459
 30
0.0
 11
57.14211616999999
 21
-2.900459178311399
 31
0.0
  0
LINE
  5
40B
330
18
100
AcDbEntity
  8
1
100
AcDbLine
 10
40.73925912255689
 20
4.5
 30
0.0
 11
41.38287214773076
 21
4.48214210884221
 31
0.0
  0
LINE
  5
40C
330
18
100
AcDbEntity
  8
1
100
AcDbLine
 10
41.38287214773076
 20
4.48214210884221
 30
0.0
 11
42.02648840278113
 21
4.428709968202302
 31
0.0
  0
LINE
  5
40D
330
18
100
AcDbEntity
  8
1
100
AcDbLine
 10
42.02648840278113
 20
4.428709968202302
 30
0.0
 11
42.67010675561985
 21
4.340127549227583
 31
0.0
  0
LINE
  5
40E
330
18
100
AcDbEntity
  8
1
100
AcDbLine
 10
42.67010675561985
 20
4.340127549227583
 30
0.0
 11
43.31372589087412
 21
4.217097956677343
 31
0.0
  0
LINE
  5
40F
330
18
100
AcDbEntity
  8
1
100
AcDbLine
 10
43.31372589087412
 20
4.217097956677343
 30
0.0
 11
43.95734449344351
 21
4.060597882393056
 31
0.0
  0
LINE
  5
410
330
18
100
AcDbEntity
  8
1
100
AcDbLine
 10
43.95734449344351
 20
4.060597882393056
 30
0.0
 11
44.60096130792655
 21
3.871869889068817
 31
0.0
  0
LINE
  5
411
330
18
100
AcDbEntity
  8
1
100
AcDbLine
 10
44.60096130792655
 20
3.871869889068817
 30
0.0
 11
45.24457502341702
 21
3.652412471049923
 31
0.0
  0
LINE
  5
412
330
18
100
AcDbEntity
  8
1
100
AcDbLine
 10
45.24457502341702
 20
3.652412471049923
 30
0.0
 11
45.88818718629037
 21
3.403966954119416
 31
0.0
  0
LINE
  5
413
330
18
100
AcDbEntity
  8
1
100
AcDbLine
 10
45.88818718629037
 20
3.403966954119416
 30
0.0
 11
47.17542066945708
 21
2.828208123740941
 31
0.0
  0
LINE
  5
414
330
18
100
AcDbEntity
  8
1
100
AcDbLine
 10
47.17542066945708
 20
2.828208123740941
 30
0.0
 11
48.46265825181967
 21
2.162837278768216
 31
0.0
  0
LINE
  5
415
330
18
100
AcDbEntity
  8
1
100
AcDbLine
 10
48.46265825181967
 20
2.162837278768216
 30
0.0
 11
51.03711605912709
 21
0.6497732740596542
 31
0.0
  0
ARC
  5
416
330
18
100
AcDbEntity
  8
1
100
AcDbCircle
 10
40.75819104598475
 20
-7.46378285948165
 30
0.0
 40
11.96402484551754
100
AcDbArc
 50
90.09066684156727
 51
100.4116763434386
  0
LINE
  5
417
330
18
100
AcDbEntity
  8
1
100
AcDbLine
 10
47.79717192217461
 20
4.5
 30
0.0
 11
48.44545129840461
 21
4.481882411301569
 31
0.0
  0
LINE
  5
418
330
18
100
AcDbEntity
  8
1
100
AcDbLine
 10
48.44545129840461
 20
4.481882411301569
 30
0.0
 11
49.09373453618115
 21
4.427675374164686
 31
0.0
  0
LINE
  5
419
330
18
100
AcDbEntity
  8
1
100
AcDbLine
 10
49.09373453618115
 20
4.427675374164686
 30
0.0
 11
49.74201948315086
 21
4.337815105410937
 31
0.0
  0
LINE
  5
41A
330
18
100
AcDbEntity
  8
1
100
AcDbLine
 10
49.74201948315086
 20
4.337815105410937
 30
0.0
 11
50.39030510571904
 21
4.213025405380648
 31
0.0
  0
LINE
  5
41B
330
18
100
AcDbEntity
  8
1
100
AcDbLine
 10
50.39030510571904
 20
4.213025405380648
 30
0.0
 11
51.03858996479183
 21
4.054311435164842
 31
0.0
  0
LINE
  5
41C
330
18
100
AcDbEntity
  8
1
100
AcDbLine
 10
51.03858996479183
 20
4.054311435164842
 30
0.0
 11
51.68687178452748
 21
3.862951202143535
 31
0.0
  0
LINE
  5
41D
330
18
100
AcDbEntity
  8
1
100
AcDbLine
 10
51.68687178452748
 20
3.862951202143535
 30
0.0
 11
52.33514999168079
 21
3.640486798665848
 31
0.0
  0
LINE
  5
41E
330
18
100
AcDbEntity
  8
1
100
AcDbLine
 10
52.33514999168079
 20
3.640486798665848
 30
0.0
 11
52.98343007421016
 21
3.388707997983065
 31
0.0
  0
LINE
  5
41F
330
18
100
AcDbEntity
  8
1
100
AcDbLine
 10
57.14211617
 20
2.091531430402811
 30
0.0
 11
57.14211616999999
 21
3.440543061051442
 31
0.0
  0
LINE
  5
420
330
18
100
AcDbEntity
  8
1
100
AcDbLine
 10
52.08359226866909
 20
4.500000000000002
 30
0.0
 11
52.71590511022637
 21
4.482763313063114
 31
0.0
  0
LINE
  5
421
330
18
100
AcDbEntity
  8
1
100
AcDbLine
 10
52.71590511022637
 20
4.482763313063114
 30
0.0
 11
53.34822042176484
 21
4.431185121574766
 31
0.0
  0
LINE
  5
422
330
18
100
AcDbEntity
  8
1
100
AcDbLine
 10
53.34822042176484
 20
4.431185121574766
 30
0.0
 11
53.98053755064385
 21
4.345660433014412
 31
0.0
  0
LINE
  5
423
330
18
100
AcDbEntity
  8
1
100
AcDbLine
 10
53.98053755064385
 20
4.345660433014412
 30
0.0
 11
54.61285566624769
 21
4.226844404094
 31
0.0
  0
LINE
  5
424
330
18
100
AcDbEntity
  8
1
100
AcDbLine
 10
54.61285566624769
 20
4.226844404094
 30
0.0
 11
55.24517394215339
 21
4.075647353434019
 31
0.0
  0
LINE
  5
425
330
18
100
AcDbEntity
  8
1
100
AcDbLine
 10
55.24517394215339
 20
4.075647353434019
 30
0.0
 11
55.87749157201715
 21
3.893227791640431
 31
0.0
  0
LINE
  5
426
330
18
100
AcDbEntity
  8
1
100
AcDbLine
 10
55.87749157201715
 20
3.893227791640431
 30
0.0
 11
56.50980776297746
 21
3.680983540384886
 31
0.0
  0
LINE
  5
427
330
18
100
AcDbEntity
  8
1
100
AcDbLine
 10
56.50980776297746
 20
3.680983540384886
 30
0.0
 11
57.14211617000001
 21
3.440543061051439
 31
0.0
  0
LINE
  5
428
330
18
100
AcDbEntity
  8
1
100
AcDbLine
 10
57.14211617
 20
4.5
 30
0.0
 11
57.14211617
 21
4.499777918276714
 31
0.0
  0
LINE
  5
429
330
18
100
AcDbEntity
  8
1
100
AcDbLine
 10
57.14211617
 20
4.499777918276714
 30
0.0
 11
57.14211617
 21
4.43189182850155
 31
0.0
  0
LINE
  5
42A
330
18
100
AcDbEntity
  8
1
100
AcDbLine
 10
57.14211617
 20
4.43189182850155
 30
0.0
 11
57.14211617000001
 21
3.440543061051436
 31
0.0
  0
LINE
  5
42B
330
18
100
AcDbEntity
  8
1
100
AcDbLine
 10
57.14211617
 20
1.22995499679149
 30
0.0
 11
57.14211617
 21
2.091531430402812
 31
0.0
  0
LINE
  5
42C
330
18
100
AcDbEntity
  8
1
100
AcDbLine
 10
57.14211617000001
 20
1.229954996791494
 30
0.0
 11
57.14211617
 21
-2.900459178311398
 31
0.0
  0
LINE
  5
42D
330
18
100
AcDbEntity
  8
1
100
AcDbLine
 10
57.14211617
 20
-4.328649986527861
 30
0.0
 11
57.14211617
 21
-3.001575536410459
 31
0.0
  0
LINE
  5
42E
330
18
100
AcDbEntity
  8
1
100
AcDbLine
 10
57.14211617000001
 20
-4.328649986527862
 30
0.0
 11
57.14211617
 21
-4.5
 31
0.0
  0
LINE
  5
42F
330
18
100
AcDbEntity
  8
1
100
AcDbLine
 10
39.69278215741583
 20
0.6497738520893215
 30
0.0
 11
39.69278982352677
 21
0.6497691254501897
 31
0.0
  0
LINE
  5
430
330
18
100
AcDbEntity
  8
1
100
AcDbLine
 10
39.69278982352678
 20
0.6497691254501899
 30
0.0
 11
42.79047688061461
 21
-1.26098625463134
 31
0.0
  0
LINE
  5
431
330
18
100
AcDbEntity
  8
1
100
AcDbLine
 10
42.79047688061461
 20
-1.26098625463134
 30
0.0
 11
44.3393256801466
 21
-2.15142633043667
 31
0.0
  0
LINE
  5
432
330
18
100
AcDbEntity
  8
1
100
AcDbLine
 10
44.3393256801466
 20
-2.15142633043667
 30
0.0
 11
45.88817978507672
 21
-2.943295376138253
 31
0.0
  0
LINE
  5
433
330
18
100
AcDbEntity
  8
1
100
AcDbLine
 10
45.88817978507672
 20
-2.943295376138253
 30
0.0
 11
46.66260777540015
 21
-3.290702691466638
 31
0.0
  0
LINE
  5
434
330
18
100
AcDbEntity
  8
1
100
AcDbLine
 10
46.66260777540015
 20
-3.290702691466638
 30
0.0
 11
47.4370392976664
 21
-3.600309799018033
 31
0.0
  0
LINE
  5
435
330
18
100
AcDbEntity
  8
1
100
AcDbLine
 10
47.4370392976664
 20
-3.600309799018033
 30
0.0
 11
48.21145829836525
 21
-3.868553489326837
 31
0.0
  0
LINE
  5
436
330
18
100
AcDbEntity
  8
1
100
AcDbLine
 10
48.21145829836525
 20
-3.868553489326837
 30
0.0
 11
48.98588996781841
 21
-4.092360989196375
 31
0.0
  0
LINE
  5
437
330
18
100
AcDbEntity
  8
1
100
AcDbLine
 10
48.98588996781841
 20
-4.092360989196375
 30
0.0
 11
49.76031727099399
 21
-4.269156784410784
 31
0.0
  0
LINE
  5
438
330
18
100
AcDbEntity
  8
1
100
AcDbLine
 10
49.76031727099399
 20
-4.269156784410784
 30
0.0
 11
50.53473857184438
 21
-4.396908705185409
 31
0.0
  0
LINE
  5
439
330
18
100
AcDbEntity
  8
1
100
AcDbLine
 10
50.53473857184438
 20
-4.396908705185409
 30
0.0
 11
51.30917145700994
 21
-4.47415298533782
 31
0.0
  0
LINE
  5
43A
330
18
100
AcDbEntity
  8
1
100
AcDbLine
 10
51.30917145700994
 20
-4.47415298533782
 30
0.0
 11
52.08359226867282
 21
-4.49999999979455
 31
0.0
  0
LINE
  5
43B
330
18
100
AcDbEntity
  8
1
100
AcDbLine
 10
39.69278982616358
 20
0.649769129749218
 30
0.0
 11
39.69278216006287
 21
0.6497738563825177
 31
0.0
  0
ARC
  5
43C
330
18
100
AcDbEntity
  8
1
100
AcDbCircle
 10
36.44351593069625
 20
7.352198214396886
 30
0.0
 40
11.85225813158981
100
AcDbArc
 50
270.0450694921626
 51
280.4634653687834
  0
LINE
  5
43D
330
18
100
AcDbEntity
  8
1
100
AcDbLine
 10
-0.0000000000000027
 20
-4.5
 30
0.0
 11
36.45283900246954
 21
-4.5
 31
0.0
  0
ARC
  5
43E
330
18
100
AcDbEntity
  8
1
100
AcDbCircle
 10
47.78784478405046
 20
7.352261642981569
 30
0.0
 40
11.85232144670681
100
AcDbArc
 50
270.0450889083701
 51
280.4634330988486
  0
LINE
  5
43F
330
18
100
AcDbEntity
  8
1
100
AcDbLine
 10
40.73925912255783
 20
-4.5
 30
0.0
 11
47.79717192217579
 21
-4.5
 31
0.0
  0
LINE
  5
440
330
18
100
AcDbEntity
  8
1
100
AcDbLine
 10
52.08359226867281
 20
-4.5
 30
0.0
 11
57.14211617
 21
-4.5
 31
0.0
  0
LINE
  5
441
330
18
100
AcDbEntity
  8
1
100
AcDbLine
 10
41.63909694166917
 20
3.388707956422008
 30
0.0
 11
42.60804360196007
 21
2.962201141783229
 31
0.0
  0
LINE
  5
442
330
18
100
AcDbEntity
  8
1
100
AcDbLine
 10
42.60804360196007
 20
2.962201141783229
 30
0.0
 11
43.57698272035936
 21
2.482457484397031
 31
0.0
  0
LINE
  5
443
330
18
100
AcDbEntity
  8
1
100
AcDbLine
 10
43.57698272035936
 20
2.482457484397031
 30
0.0
 11
45.51485791169544
 21
1.39854293320748
 31
0.0
  0
LINE
  5
444
330
18
100
AcDbEntity
  8
1
100
AcDbLine
 10
45.51485791169544
 20
1.39854293320748
 30
0.0
 11
49.39061560932723
 21
-0.9848283415857859
 31
0.0
  0
LINE
  5
445
330
18
100
AcDbEntity
  8
1
100
AcDbLine
 10
49.39061560932723
 20
-0.9848283415857859
 30
0.0
 11
51.32848841200409
 21
-2.113703751604968
 31
0.0
  0
LINE
  5
446
330
18
100
AcDbEntity
  8
1
100
AcDbLine
 10
51.32848841200409
 20
-2.113703751604968
 30
0.0
 11
52.29743470961706
 21
-2.626109421451217
 31
0.0
  0
LINE
  5
447
330
18
100
AcDbEntity
  8
1
100
AcDbLine
 10
52.29743470961706
 20
-2.626109421451217
 30
0.0
 11
53.26637378205197
 21
-3.091309582211252
 31
0.0
  0
LINE
  5
448
330
18
100
AcDbEntity
  8
1
100
AcDbLine
 10
53.26637378205197
 20
-3.091309582211252
 30
0.0
 11
54.23530852028366
 21
-3.500948746114062
 31
0.0
  0
LINE
  5
449
330
18
100
AcDbEntity
  8
1
100
AcDbLine
 10
54.23530852028366
 20
-3.500948746114062
 30
0.0
 11
55.2042499136417
 21
-3.847668543171618
 31
0.0
  0
LINE
  5
44A
330
18
100
AcDbEntity
  8
1
100
AcDbLine
 10
55.2042499136417
 20
-3.847668543171618
 30
0.0
 11
56.17319453458677
 21
-4.125233087830923
 31
0.0
  0
LINE
  5
44B
330
18
100
AcDbEntity
  8
1
100
AcDbLine
 10
56.17319453458677
 20
-4.125233087830923
 30
0.0
 11
56.65766281374638
 21
-4.23647092520503
 31
0.0
  0
LINE
  5
44C
330
18
100
AcDbEntity
  8
1
100
AcDbLine
 10
56.65766281374638
 20
-4.23647092520503
 30
0.0
 11
57.14211616999999
 21
-4.328649986527861
 31
0.0
  0
LINE
  5
44D
330
18
100
AcDbEntity
  8
1
100
AcDbLine
 10
51.03711605912709
 20
0.6497732740596542
 30
0.0
 11
54.08961802333646
 21
-1.233931089406011
 31
0.0
  0
LINE
  5
44E
330
18
100
AcDbEntity
  8
1
100
AcDbLine
 10
54.08961802333646
 20
-1.233931089406011
 30
0.0
 11
55.61586791473721
 21
-2.114232455814066
 31
0.0
  0
LINE
  5
44F
330
18
100
AcDbEntity
  8
1
100
AcDbLine
 10
55.61586791473721
 20
-2.114232455814066
 30
0.0
 11
57.14211617000001
 21
-2.9004591783114
 31
0.0
  0
LINE
  5
450
330
18
100
AcDbEntity
  8
1
100
AcDbLine
 10
52.98343007421016
 20
3.388707997983065
 30
0.0
 11
54.02310768276146
 21
2.9288831178555
 31
0.0
  0
LINE
  5
451
330
18
100
AcDbEntity
  8
1
100
AcDbLine
 10
54.02310768276146
 20
2.9288831178555
 30
0.0
 11
55.06278642771564
 21
2.40846343187376
 31
0.0
  0
LINE
  5
452
330
18
100
AcDbEntity
  8
1
100
AcDbLine
 10
55.06278642771564
 20
2.40846343187376
 30
0.0
 11
57.14211616999999
 21
1.229954996791494
 31
0.0
  0
ARC
  5
453
330
18
100
AcDbEntity
  8
1
100
AcDbCircle
 10
52.10249259867617
 20
-7.463480124158433
 30
0.0
 40
11.96372106609453
100
AcDbArc
 50
90.09051782831047
 51
100.4117852287829
  0
LINE
  5
454
330
18
100
AcDbEntity
  8
1
 62
     1
100
AcDbLine
 10
73.0
 20
1.92
 30
0.0
 11
74.92
 21
-0.0000000000000002
 31
0.0
  0
LINE
  5
455
330
18
100
AcDbEntity
  8
1
 62
     1
100
AcDbLine
 10
64.84613247308104
 20
6.0
 30
0.0
 11
64.90386752691897
 21
6.0
 31
0.0
  0
LINE
  5
456
330
18
100
AcDbEntity
  8
1
 62
     1
100
AcDbLine
 10
67.34613247308104
 20
6.0
 30
0.0
 11
67.40386752691896
 21
5.999999999999999
 31
0.0
  0
LINE
  5
457
330
18
100
AcDbEntity
  8
1
 62
     1
100
AcDbLine
 10
63.59613247308106
 20
-6.00000000000003
 30
0.0
 11
63.16323732970022
 21
-5.250203966907252
 31
0.0
  0
LINE
  5
458
330
18
100
AcDbEntity
  8
1
 62
     1
100
AcDbLine
 10
64.25
 20
-4.96746875
 30
0.0
 11
63.65386752691897
 21
-6.000000000000005
 31
0.0
  0
LINE
  5
459
330
18
100
AcDbEntity
  8
1
 62
     1
100
AcDbLine
 10
66.09613247308103
 20
-5.999999999999994
 30
0.0
 11
65.5
 21
-4.96746875
 31
0.0
  0
LINE
  5
45A
330
18
100
AcDbEntity
  8
1
 62
     1
100
AcDbLine
 10
67.34613247308104
 20
-6.000000000000019
 30
0.0
 11
66.75
 21
-4.96746875
 31
0.0
  0
LINE
  5
45B
330
18
100
AcDbEntity
  8
1
 62
     1
100
AcDbLine
 10
68.59613247308103
 20
-5.999999999999994
 30
0.0
 11
68.0
 21
-4.96746875
 31
0.0
  0
ARC
  5
45C
330
18
100
AcDbEntity
  8
1
 62
     1
100
AcDbCircle
 10
26.68928134459561
 20
-89.37888978670377
 30
0.0
 40
104.818024932645
100
AcDbArc
 50
63.93713559990361
 51
64.3227522962755
  0
ARC
  5
45D
330
18
100
AcDbEntity
  8
1
 62
     1
100
AcDbCircle
 10
96.94444698983142
 20
34.19483919932662
 30
0.0
 40
40.85966237369416
100
AcDbArc
 50
232.5643162866931
 51
233.677079320223
  0
LINE
  5
45E
330
18
100
AcDbEntity
  8
1
 62
     1
100
AcDbLine
 10
71.26121356181955
 20
5.485465275959178
 30
0.0
 11
71.02549928633701
 21
5.592240979397758
 31
0.0
  0
LINE
  5
45F
330
18
100
AcDbEntity
  8
1
 62
     1
100
AcDbLine
 10
71.26121356181949
 20
2.411000808884822
 30
0.0
 11
71.02549928633701
 21
2.599004908083978
 31
0.0
  0
ARC
  5
460
330
18
100
AcDbEntity
  8
1
 62
     1
100
AcDbCircle
 10
67.0774281472663
 20
1.565832671246596
 30
0.0
 40
6.997560993621081
100
AcDbArc
 50
324.0452487748497
 51
327.8197297762022
  0
LINE
  5
461
330
18
100
AcDbEntity
  8
1
 62
     1
100
AcDbLine
 10
72.74182025048663
 20
-2.542758261647991
 30
0.0
 11
72.74182025048663
 21
-5.262500000989329
 31
0.0
  0
LINE
  5
462
330
18
100
AcDbEntity
  8
1
 62
     1
100
AcDbLine
 10
69.90386752691897
 20
5.911544063712223
 30
0.0
 11
69.90386752691896
 21
3.433449875798492
 31
0.0
  0
LINE
  5
463
330
18
100
AcDbEntity
  8
1
 62
     1
100
AcDbLine
 10
68.59613247308103
 20
6.0
 30
0.0
 11
68.65386752691897
 21
6.0
 31
0.0
  0
LINE
  5
464
330
18
100
AcDbEntity
  8
1
 62
     1
100
AcDbLine
 10
66.09613247308103
 20
6.0
 30
0.0
 11
66.15386752691897
 21
6.0
 31
0.0
  0
LINE
  5
465
330
18
100
AcDbEntity
  8
1
 62
     1
100
AcDbLine
 10
63.59613247308106
 20
6.0
 30
0.0
 11
63.65386752691897
 21
6.0
 31
0.0
  0
ARC
  5
466
330
18
100
AcDbEntity
  8
1
 62
     1
100
AcDbCircle
 10
65.05327918582162
 20
0.4139408907341937
 30
0.0
 40
4.534528657472762
100
AcDbArc
 50
301.2238794834644
 51
310.5254914161245
  0
ARC
  5
467
330
18
100
AcDbEntity
  8
1
 62
     1
100
AcDbCircle
 10
67.33219198824823
 20
2.570992640030546
 30
0.0
 40
1.532504925466852
100
AcDbArc
 50
272.680686407863
 51
295.8346666558884
  0
LINE
  5
468
330
18
100
AcDbEntity
  8
1
 62
     1
100
AcDbLine
 10
67.40386752691897
 20
1.040150062743422
 30
0.0
 11
67.40386752691897
 21
-3.463693613412296
 31
0.0
  0
ARC
  5
469
330
18
100
AcDbEntity
  8
1
 62
     1
100
AcDbCircle
 10
19.90971441434341
 20
-27.89077056305454
 30
0.0
 40
54.13483449061845
100
AcDbArc
 50
25.92682680989819
 51
27.33423817900569
  0
LINE
  5
46A
330
18
100
AcDbEntity
  8
1
 62
     1
100
AcDbLine
 10
68.59613247308101
 20
0.0549083561490523
 30
0.0
 11
68.59613247308101
 21
-4.221739154224008
 31
0.0
  0
ARC
  5
46B
330
18
100
AcDbEntity
  8
1
 62
     1
100
AcDbCircle
 10
39.28426044960023
 20
-14.59101004057014
 30
0.0
 40
32.76717107603911
100
AcDbArc
 50
26.54938392738387
 51
28.79401555548174
  0
LINE
  5
46C
330
18
100
AcDbEntity
  8
1
 62
     1
100
AcDbLine
 10
67.99999999999999
 20
-3.033119224432627
 30
0.0
 11
68.0
 21
1.19169580190548
 31
0.0
  0
ARC
  5
46D
330
18
100
AcDbEntity
  8
1
 62
     1
100
AcDbCircle
 10
63.52423385250603
 20
1.515620424443455
 30
0.0
 40
7.721525188356448
100
AcDbArc
 50
311.6312240921162
 51
317.859845815121
  0
ARC
  5
46E
330
18
100
AcDbEntity
  8
1
 62
     1
100
AcDbCircle
 10
67.9793680875326
 20
1.895972155689897
 30
0.0
 40
2.005899573155484
100
AcDbArc
 50
289.649688511536
 51
309.2967162530394
  0
ARC
  5
46F
330
18
100
AcDbEntity
  8
1
 62
     1
100
AcDbCircle
 10
-22.78060141301395
 20
-49.10755660772583
 30
0.0
 40
102.6383602053389
100
AcDbArc
 50
25.51711348857705
 51
26.27893152245436
  0
LINE
  5
470
330
18
100
AcDbEntity
  8
1
 62
     1
100
AcDbLine
 10
69.84613247308104
 20
-0.9791822538586876
 30
0.0
 11
69.84613247308103
 21
-4.892905397849832
 31
0.0
  0
ARC
  5
471
330
18
100
AcDbEntity
  8
1
 62
     1
100
AcDbCircle
 10
-14.31686046330601
 20
-38.12793190352401
 30
0.0
 40
91.99705345311735
100
AcDbArc
 50
23.81621008274425
 51
24.71972010998245
  0
LINE
  5
472
330
18
100
AcDbEntity
  8
1
 62
     1
100
AcDbLine
 10
69.24999999999999
 20
-3.66529982349949
 30
0.0
 11
69.25
 21
0.3433817779762038
 31
0.0
  0
ARC
  5
473
330
18
100
AcDbEntity
  8
1
 62
     1
100
AcDbCircle
 10
37.85809266459981
 20
-18.48141636252995
 30
0.0
 40
33.10965013524604
100
AcDbArc
 50
27.04948248788025
 51
29.23621394018642
  0
ARC
  5
474
330
18
100
AcDbEntity
  8
1
 62
     1
100
AcDbCircle
 10
55.44134091868834
 20
-5.994808017295751
 30
0.0
 40
13.85186857012584
100
AcDbArc
 50
30.74842659564373
 51
35.27376777274498
  0
LINE
  5
475
330
18
100
AcDbEntity
  8
1
 62
     1
100
AcDbLine
 10
66.75000000000001
 20
-2.310301607146477
 30
0.0
 11
66.75
 21
2.004398303978461
 31
0.0
  0
ARC
  5
476
330
18
100
AcDbEntity
  8
1
 62
     1
100
AcDbCircle
 10
65.321747149003
 20
0.1680912140042303
 30
0.0
 40
2.860086940301686
100
AcDbArc
 50
286.9148129977605
 51
299.9540677116613
  0
ARC
  5
477
330
18
100
AcDbEntity
  8
1
 62
     1
100
AcDbCircle
 10
66.54906439008842
 20
3.520144728782558
 30
0.0
 40
1.529665599500627
100
AcDbArc
 50
255.0288270640648
 51
277.5514111632432
  0
LINE
  5
478
330
18
100
AcDbEntity
  8
1
 62
     1
100
AcDbLine
 10
66.15386752691897
 20
2.042276133655714
 30
0.0
 11
66.15386752691897
 21
-2.568195896256956
 31
0.0
  0
ARC
  5
479
330
18
100
AcDbEntity
  8
1
 62
     1
100
AcDbCircle
 10
57.37972832591606
 20
-5.177802207679669
 30
0.0
 40
7.762459962063926
100
AcDbArc
 50
36.79455571119603
 51
43.61101756008317
  0
LINE
  5
47A
330
18
100
AcDbEntity
  8
1
 62
     1
100
AcDbLine
 10
63.00000000000001
 20
3.995608433159006
 30
0.0
 11
63.0719364334649
 21
3.995187184548606
 31
0.0
  0
LINE
  5
47B
330
18
100
AcDbEntity
  8
1
 62
     1
100
AcDbLine
 10
63.0719364334649
 20
3.995187184548606
 30
0.0
 11
63.14479053479381
 21
3.99044472023721
 31
0.0
  0
LINE
  5
47C
330
18
100
AcDbEntity
  8
1
 62
     1
100
AcDbLine
 10
63.14479053479381
 20
3.99044472023721
 30
0.0
 11
63.21845766151198
 21
3.9813903554355
 31
0.0
  0
LINE
  5
47D
330
18
100
AcDbEntity
  8
1
 62
     1
100
AcDbLine
 10
63.21845766151198
 20
3.9813903554355
 30
0.0
 11
63.29285039945227
 21
3.968039746337446
 31
0.0
  0
LINE
  5
47E
330
18
100
AcDbEntity
  8
1
 62
     1
100
AcDbLine
 10
63.29285039945227
 20
3.968039746337446
 30
0.0
 11
63.36788289371063
 21
3.950410405580261
 31
0.0
  0
LINE
  5
47F
330
18
100
AcDbEntity
  8
1
 62
     1
100
AcDbLine
 10
63.36788289371063
 20
3.950410405580261
 30
0.0
 11
63.4434859415299
 21
3.928524265574968
 31
0.0
  0
LINE
  5
480
330
18
100
AcDbEntity
  8
1
 62
     1
100
AcDbLine
 10
63.4434859415299
 20
3.928524265574968
 30
0.0
 11
63.51958781921901
 21
3.902406289389603
 31
0.0
  0
LINE
  5
481
330
18
100
AcDbEntity
  8
1
 62
     1
100
AcDbLine
 10
63.51958781921901
 20
3.902406289389603
 30
0.0
 11
63.59613247308106
 21
3.872083418317263
 31
0.0
  0
ARC
  5
482
330
18
100
AcDbEntity
  8
1
 62
     1
100
AcDbCircle
 10
63.93493000887673
 20
2.895244659806829
 30
0.0
 40
2.875525270357923
100
AcDbArc
 50
237.8300868674935
 51
251.0236122319233
  0
LINE
  5
483
330
18
100
AcDbEntity
  8
1
 62
     1
100
AcDbLine
 10
63.0
 20
0.176371358109269
 30
0.0
 11
63.00000000000001
 21
3.995608433159006
 31
0.0
  0
ARC
  5
484
330
18
100
AcDbEntity
  8
1
 62
     1
100
AcDbCircle
 10
67.28810082666831
 20
9.017197311481402
 30
0.0
 40
6.60369321756932
100
AcDbArc
 50
222.3014733196321
 51
229.5048906404685
  0
LINE
  5
485
330
18
100
AcDbEntity
  8
1
 62
     1
100
AcDbLine
 10
62.40386752691899
 20
4.572657374389239
 30
0.0
 11
62.403867526919
 21
0.4611249792135578
 31
0.0
  0
ARC
  5
486
330
18
100
AcDbEntity
  8
1
 62
     1
100
AcDbCircle
 10
59.81274574024482
 20
3.895987871747743
 30
0.0
 40
13.40008764650055
100
AcDbArc
 50
318.8566579081592
 51
322.8957949831362
  0
LINE
  5
487
330
18
100
AcDbEntity
  8
1
 62
     1
100
AcDbLine
 10
70.5
 20
-4.187952098270082
 30
0.0
 11
70.5
 21
-0.5151945801501926
 31
0.0
  0
ARC
  5
488
330
18
100
AcDbEntity
  8
1
 62
     1
100
AcDbCircle
 10
68.26921504237738
 20
1.479995121213863
 30
0.0
 40
2.992474114389549
100
AcDbArc
 50
303.1113319166324
 51
318.1908983030953
  0
LINE
  5
489
330
18
100
AcDbEntity
  8
1
 62
     1
100
AcDbLine
 10
69.90386752691894
 20
-1.026472982006249
 30
0.0
 11
69.90386752691897
 21
-4.920510334343319
 31
0.0
  0
LINE
  5
48A
330
18
100
AcDbEntity
  8
1
 62
     1
100
AcDbLine
 10
70.49999999999999
 20
-4.187952098270324
 30
0.0
 11
71.02549928633702
 21
-5.271817341468481
 31
0.0
  0
LINE
  5
48B
330
18
100
AcDbEntity
  8
1
 62
     1
100
AcDbLine
 10
71.02549928633701
 20
-1.809343920429954
 30
0.0
 11
71.02549928633701
 21
-5.27181734146847
 31
0.0
  0
ARC
  5
48C
330
18
100
AcDbEntity
  8
1
 62
     1
100
AcDbCircle
 10
4499.715390284647
 20
1797.814654066088
 30
0.0
 40
4780.370223396404
100
AcDbArc
 50
202.0979120544997
 51
202.114653255633
  0
ARC
  5
48D
330
18
100
AcDbEntity
  8
1
 62
     1
100
AcDbCircle
 10
51.2557783290755
 20
9.095744874235958
 30
0.0
 40
24.64112667355488
100
AcDbArc
 50
324.279255046036
 51
326.2743576518092
  0
LINE
  5
48E
330
18
100
AcDbEntity
  8
1
 62
     1
100
AcDbLine
 10
71.75
 20
-4.585457477545797
 30
0.0
 11
71.75
 21
-1.35837348506076
 31
0.0
  0
ARC
  5
48F
330
18
100
AcDbEntity
  8
1
 62
     1
100
AcDbCircle
 10
67.97865879691483
 20
1.388195920385122
 30
0.0
 40
4.665352602288392
100
AcDbArc
 50
314.7170648899917
 51
323.9351256054372
  0
ARC
  5
490
330
18
100
AcDbEntity
  8
1
 62
     1
100
AcDbCircle
 10
250.7770290415293
 20
83.86790752237397
 30
0.0
 40
199.686439073427
100
AcDbArc
 50
206.2929767008415
 51
206.5233088805646
  0
LINE
  5
491
330
18
100
AcDbEntity
  8
1
 62
     1
100
AcDbLine
 10
72.10704667566206
 20
-2.304781273674777
 30
0.0
 11
72.10704667566208
 21
-5.304432480341204
 31
0.0
  0
ARC
  5
492
330
18
100
AcDbEntity
  8
1
 62
     1
100
AcDbCircle
 10
183.4823368408456
 20
40.26257559836382
 30
0.0
 40
119.2326351271444
100
AcDbArc
 50
200.4306566568748
 51
200.916730904275
  0
ARC
  5
493
330
18
100
AcDbEntity
  8
1
 62
     1
100
AcDbCircle
 10
64.32853228476836
 20
1.501412088576001
 30
0.0
 40
2.184204223547353
100
AcDbArc
 50
252.0083379728417
 51
267.939351398045
  0
ARC
  5
494
330
18
100
AcDbEntity
  8
1
 62
     1
100
AcDbCircle
 10
65.93600087549973
 20
6.525465957838515
 30
0.0
 40
3.527617467361132
100
AcDbArc
 50
229.6910422676536
 51
241.4427811943412
  0
LINE
  5
495
330
18
100
AcDbEntity
  8
1
 62
     1
100
AcDbLine
 10
63.65386752691899
 20
3.835319407930406
 30
0.0
 11
63.65386752691898
 21
-0.5760211515092007
 31
0.0
  0
ARC
  5
496
330
18
100
AcDbEntity
  8
1
 62
     1
100
AcDbCircle
 10
53.88790835517415
 20
-8.427958000628816
 30
0.0
 40
12.93778711104425
100
AcDbArc
 50
32.11579932641978
 51
36.7819420573842
  0
LINE
  5
497
330
18
100
AcDbEntity
  8
1
 62
     1
100
AcDbLine
 10
64.25
 20
3.427620226801687
 30
0.0
 11
64.3277629568607
 21
3.388707586504946
 31
0.0
  0
LINE
  5
498
330
18
100
AcDbEntity
  8
1
 62
     1
100
AcDbLine
 10
64.25
 20
-0.6812153881754923
 30
0.0
 11
64.25
 21
3.427620226801686
 31
0.0
  0
ARC
  5
499
330
18
100
AcDbEntity
  8
1
 62
     1
100
AcDbCircle
 10
64.92462334871038
 20
0.5694412133675812
 30
0.0
 40
2.165526268410862
100
AcDbArc
 50
269.4508232669312
 51
285.4070587020345
  0
LINE
  5
49A
330
18
100
AcDbEntity
  8
1
 62
     1
100
AcDbLine
 10
65.49999999999999
 20
-1.518445819059421
 30
0.0
 11
65.50000000000001
 21
2.757206193957755
 31
0.0
  0
LINE
  5
49B
330
18
100
AcDbEntity
  8
1
 62
     1
100
AcDbLine
 10
64.90386752691896
 20
2.98337382873195
 30
0.0
 11
65.05696186244903
 21
2.905106061360098
 31
0.0
  0
LINE
  5
49C
330
18
100
AcDbEntity
  8
1
 62
     1
100
AcDbLine
 10
65.05696186244903
 20
2.905106061360098
 30
0.0
 11
65.1327444270207
 21
2.871275392639711
 31
0.0
  0
LINE
  5
49D
330
18
100
AcDbEntity
  8
1
 62
     1
100
AcDbLine
 10
65.1327444270207
 20
2.871275392639711
 30
0.0
 11
65.2078923656695
 21
2.841055017030275
 31
0.0
  0
LINE
  5
49E
330
18
100
AcDbEntity
  8
1
 62
     1
100
AcDbLine
 10
65.2078923656695
 20
2.841055017030275
 30
0.0
 11
65.28231183459134
 21
2.81449380202797
 31
0.0
  0
LINE
  5
49F
330
18
100
AcDbEntity
  8
1
 62
     1
100
AcDbLine
 10
65.28231183459134
 20
2.81449380202797
 30
0.0
 11
65.35588312160023
 21
2.791639871737421
 31
0.0
  0
LINE
  5
4A0
330
18
100
AcDbEntity
  8
1
 62
     1
100
AcDbLine
 10
65.35588312160023
 20
2.791639871737421
 30
0.0
 11
65.42849418545282
 21
2.77253180811608
 31
0.0
  0
LINE
  5
4A1
330
18
100
AcDbEntity
  8
1
 62
     1
100
AcDbLine
 10
65.42849418545282
 20
2.77253180811608
 30
0.0
 11
65.49999999999999
 21
2.757206193957754
 31
0.0
  0
LINE
  5
4A2
330
18
100
AcDbEntity
  8
1
 62
     1
100
AcDbLine
 10
64.90386752691897
 20
2.983373828731933
 30
0.0
 11
64.90386752691897
 21
-1.595953820306383
 31
0.0
  0
ARC
  5
4A3
330
18
100
AcDbEntity
  8
1
 62
     1
100
AcDbCircle
 10
47.8610673347828
 20
-12.64252530909241
 30
0.0
 40
20.85374355177203
100
AcDbArc
 50
29.02378734626558
 51
32.23778182092554
  0
ARC
  5
4A4
330
18
100
AcDbEntity
  8
1
 62
     1
100
AcDbCircle
 10
61.38907572965815
 20
-1.494537483318122
 30
0.0
 40
5.914254833254856
100
AcDbArc
 50
37.26943211194579
 51
45.96471547918511
  0
ARC
  5
4A5
330
18
100
AcDbEntity
  8
1
 62
     1
100
AcDbCircle
 10
59.19554639130421
 20
0.6533152189560159
 30
0.0
 40
1.964021180850034
100
AcDbArc
 50
72.71273913241346
 51
88.41121346310399
  0
LINE
  5
4A6
330
18
100
AcDbEntity
  8
1
 62
     1
100
AcDbLine
 10
59.77923350349685
 20
5.571818204976334
 30
0.0
 11
59.77923350349685
 21
2.528787367493361
 31
0.0
  0
ARC
  5
4A7
330
18
100
AcDbEntity
  8
1
 62
     1
100
AcDbCircle
 10
62.96038443743713
 20
2.399163380022049
 30
0.0
 40
4.49324509474705
100
AcDbArc
 50
135.0766140665171
 51
145.6650965039489
  0
LINE
  5
4A8
330
18
100
AcDbEntity
  8
1
 62
     1
100
AcDbLine
 10
59.25
 20
2.61655078800693
 30
0.0
 11
59.25
 21
4.933529500106841
 31
0.0
  0
ARC
  5
4A9
330
18
100
AcDbEntity
  8
1
 62
     1
100
AcDbCircle
 10
578.8531147838361
 20
328.0623426532728
 30
0.0
 40
611.8819996667565
100
AcDbArc
 50
211.8262613858472
 51
211.8764975648689
  0
LINE
  5
4AA
330
18
100
AcDbEntity
  8
1
 62
     1
100
AcDbLine
 10
58.9669217026524
 20
5.389257722577751
 30
0.0
 11
58.96692170265239
 21
2.956386776710649
 31
0.0
  0
ARC
  5
4AB
330
18
100
AcDbEntity
  8
1
 62
     1
100
AcDbCircle
 10
59.07499861242903
 20
-2.635765340271448
 30
0.0
 40
4.537039939832153
100
AcDbArc
 50
43.87103498613411
 51
53.87106298591588
  0
LINE
  5
4AC
330
18
100
AcDbEntity
  8
1
 62
     1
100
AcDbLine
 10
62.34613247308103
 20
4.603566099630375
 30
0.0
 11
62.34613247308103
 21
0.5089335829131091
 31
0.0
  0
ARC
  5
4AD
330
18
100
AcDbEntity
  8
1
 62
     1
100
AcDbCircle
 10
62.40015075175092
 20
3.208228341843677
 30
0.0
 40
1.396504506052958
100
AcDbArc
 50
92.2170077163775
 51
117.7454709587573
  0
LINE
  5
4AE
330
18
100
AcDbEntity
  8
1
 62
     1
100
AcDbLine
 10
61.75000000000001
 20
1.028688229402132
 30
0.0
 11
61.75000000000001
 21
4.444198751642883
 31
0.0
  0
ARC
  5
4AF
330
18
100
AcDbEntity
  8
1
 62
     1
100
AcDbCircle
 10
59.51195504854387
 20
-0.7046653965776031
 30
0.0
 40
2.739425179698936
100
AcDbArc
 50
54.67788120560506
 51
68.85747088804348
  0
LINE
  5
4B0
330
18
100
AcDbEntity
  8
1
 62
     1
100
AcDbLine
 10
61.09613247308103
 20
5.197482696638523
 30
0.0
 11
61.09613247308103
 21
1.530918138209197
 31
0.0
  0
ARC
  5
4B1
330
18
100
AcDbEntity
  8
1
 62
     1
100
AcDbCircle
 10
62.15372970154788
 20
3.136075712015095
 30
0.0
 40
2.317595612053116
100
AcDbArc
 50
117.1599237268804
 51
135.5212861344641
  0
LINE
  5
4B2
330
18
100
AcDbEntity
  8
1
 62
     1
100
AcDbLine
 10
60.50000000000001
 20
1.850264765199452
 30
0.0
 11
60.5
 21
4.759984116805426
 31
0.0
  0
ARC
  5
4B3
330
18
100
AcDbEntity
  8
1
 62
     1
100
AcDbCircle
 10
65.11481670440463
 20
6.927043949197386
 30
0.0
 40
6.861096370249297
100
AcDbArc
 50
220.8673001015207
 51
227.7290120033811
  0
ARC
  5
4B4
330
18
100
AcDbEntity
  8
1
 62
     1
100
AcDbCircle
 10
84.82996298831765
 20
22.27687447933521
 30
0.0
 40
29.97969328679021
100
AcDbArc
 50
213.8305834292572
 51
215.7528279653046
  0
LINE
  5
4B5
330
18
100
AcDbEntity
  8
1
 62
     1
100
AcDbLine
 10
59.92622392402211
 20
5.586016875597484
 30
0.0
 11
59.92622392402211
 21
2.437724535185969
 31
0.0
  0
ARC
  5
4B6
330
18
100
AcDbEntity
  8
1
 62
     1
100
AcDbCircle
 10
64.28773170802235
 20
4.940308153946541
 30
0.0
 40
4.665141321849241
100
AcDbArc
 50
227.7970796306786
 51
234.1364799182616
  0
ARC
  5
4B7
330
18
100
AcDbEntity
  8
1
 62
     1
100
AcDbCircle
 10
71.63230813479049
 20
13.1303499936674
 30
0.0
 40
13.15716909361805
100
AcDbArc
 50
217.2118919552677
 51
221.3141704815446
  0
LINE
  5
4B8
330
18
100
AcDbEntity
  8
1
 62
     1
100
AcDbLine
 10
61.15386752691899
 20
5.813457234245623
 30
0.0
 11
61.09613247308103
 21
5.801404110566914
 31
0.0
  0
ARC
  5
4B9
330
18
100
AcDbEntity
  8
1
 62
     1
100
AcDbCircle
 10
75.2281454650305
 20
4.51262563046072
 30
0.0
 40
4.082503344448005
100
AcDbArc
 50
232.4813574624521
 51
235.2141378446518
  0
LINE
  5
4BA
330
18
100
AcDbEntity
  8
1
 62
     1
100
AcDbLine
 10
69.90386752691896
 20
3.433449875798492
 30
0.0
 11
69.84613247308101
 21
3.472675736041588
 31
0.0
  0
LINE
  5
4BB
330
18
100
AcDbEntity
  8
1
 62
     1
100
AcDbLine
 10
68.65386752691897
 20
4.229554028860756
 30
0.0
 11
68.59613247308103
 21
4.263439751385252
 31
0.0
  0
LINE
  5
4BC
330
18
100
AcDbEntity
  8
1
 62
     1
100
AcDbLine
 10
67.40386752691897
 20
4.899267960869972
 30
0.0
 11
67.34613247308104
 21
4.92680096330655
 31
0.0
  0
LINE
  5
4BD
330
18
100
AcDbEntity
  8
1
 62
     1
100
AcDbLine
 10
66.15386752691899
 20
5.422579629516655
 30
0.0
 11
66.09613247308101
 21
5.442937034458284
 31
0.0
  0
LINE
  5
4BE
330
18
100
AcDbEntity
  8
1
 62
     1
100
AcDbLine
 10
64.90386752691897
 20
5.783850914697699
 30
0.0
 11
64.84613247308106
 21
5.796424492639996
 31
0.0
  0
LINE
  5
4BF
330
18
100
AcDbEntity
  8
1
 62
     1
100
AcDbLine
 10
63.65386752691897
 20
5.972285963767475
 30
0.0
 11
63.59613247308104
 21
5.976699966126593
 31
0.0
  0
LINE
  5
4C0
330
18
100
AcDbEntity
  8
1
 62
     1
100
AcDbLine
 10
62.40386752691899
 20
5.982254063047101
 30
0.0
 11
62.34613247308103
 21
5.978376586347101
 31
0.0
  0
ARC
  5
4C1
330
18
100
AcDbEntity
  8
1
 62
     1
100
AcDbCircle
 10
83.0773913739965
 20
13.19175286158924
 30
0.0
 40
13.32568424542263
100
AcDbArc
 50
219.1393780625175
 51
220.8663220854022
  0
LINE
  5
4C2
330
18
100
AcDbEntity
  8
1
 62
     1
100
AcDbLine
 10
72.74182025048664
 20
4.780460653028017
 30
0.0
 11
72.74182025048663
 21
1.274565562031058
 31
0.0
  0
ARC
  5
4C3
330
18
100
AcDbEntity
  8
1
 62
     1
100
AcDbCircle
 10
71.80157428637327
 20
-4.138117494331144
 30
0.0
 40
9.447516859349992
100
AcDbArc
 50
84.28829521258967
 51
88.14709196171748
  0
ARC
  5
4C4
330
18
100
AcDbEntity
  8
1
 62
     1
100
AcDbCircle
 10
73.37171801990334
 20
-1.239183430885078
 30
0.0
 40
9.878788290999442
100
AcDbArc
 50
137.434682019449
 51
142.8280655409511
  0
LINE
  5
4C5
330
18
100
AcDbEntity
  8
1
 62
     1
100
AcDbLine
 10
66.09613247308103
 20
6.0
 30
0.0
 11
66.09613247308103
 21
5.999879950735762
 31
0.0
  0
LINE
  5
4C6
330
18
100
AcDbEntity
  8
1
 62
     1
100
AcDbLine
 10
66.09613247308103
 20
5.999879950735762
 30
0.0
 11
66.09613247308104
 21
5.963912673858154
 31
0.0
  0
LINE
  5
4C7
330
18
100
AcDbEntity
  8
1
 62
     1
100
AcDbLine
 10
66.09613247308104
 20
5.963912673858154
 30
0.0
 11
66.09613247308104
 21
5.442937034458276
 31
0.0
  0
LINE
  5
4C8
330
18
100
AcDbEntity
  8
1
 62
     1
100
AcDbLine
 10
64.90386752691897
 20
6.0
 30
0.0
 11
64.90386752691897
 21
5.999951738876409
 31
0.0
  0
LINE
  5
4C9
330
18
100
AcDbEntity
  8
1
 62
     1
100
AcDbLine
 10
64.90386752691897
 20
5.999951738876409
 30
0.0
 11
64.90386752691897
 21
5.985691287353929
 31
0.0
  0
LINE
  5
4CA
330
18
100
AcDbEntity
  8
1
 62
     1
100
AcDbLine
 10
64.90386752691897
 20
5.985691287353929
 30
0.0
 11
64.90386752691897
 21
5.7838509146977
 31
0.0
  0
ARC
  5
4CB
330
18
100
AcDbEntity
  8
1
 62
     1
100
AcDbCircle
 10
131.0598482732752
 20
42.49375755930572
 30
0.0
 40
75.65863413751552
100
AcDbArc
 50
209.0258629993521
 51
209.9429821922214
  0
LINE
  5
4CC
330
18
100
AcDbEntity
  8
1
 62
     1
100
AcDbLine
 10
65.49999999999999
 20
4.729700632895017
 30
0.0
 11
65.5
 21
4.967468749291273
 31
0.0
  0
LINE
  5
4CD
330
18
100
AcDbEntity
  8
1
 62
     1
100
AcDbLine
 10
64.25
 20
4.920537712195637
 30
0.0
 11
64.25
 21
4.96746875
 31
0.0
  0
ARC
  5
4CE
330
18
100
AcDbEntity
  8
1
 62
     1
100
AcDbCircle
 10
79.10489215633909
 20
-4.544440194972649
 30
0.0
 40
17.61398221539907
100
AcDbArc
 50
144.0492923296647
 51
147.4962473024063
  0
LINE
  5
4CF
330
18
100
AcDbEntity
  8
1
 62
     1
100
AcDbLine
 10
64.84613247308104
 20
6.0
 30
0.0
 11
64.84613247308106
 21
5.999954451615876
 31
0.0
  0
LINE
  5
4D0
330
18
100
AcDbEntity
  8
1
 62
     1
100
AcDbLine
 10
64.84613247308106
 20
5.999954451615876
 30
0.0
 11
64.84613247308104
 21
5.986505028213902
 31
0.0
  0
LINE
  5
4D1
330
18
100
AcDbEntity
  8
1
 62
     1
100
AcDbLine
 10
64.84613247308104
 20
5.986505028213902
 30
0.0
 11
64.84613247308104
 21
5.79642450192307
 31
0.0
  0
LINE
  5
4D2
330
18
100
AcDbEntity
  8
1
 62
     1
100
AcDbLine
 10
63.65386752691897
 20
6.0
 30
0.0
 11
63.65386752691897
 21
5.99999347667374
 31
0.0
  0
LINE
  5
4D3
330
18
100
AcDbEntity
  8
1
 62
     1
100
AcDbLine
 10
63.65386752691897
 20
5.99999347667374
 30
0.0
 11
63.65386752691898
 21
5.998096499683249
 31
0.0
  0
LINE
  5
4D4
330
18
100
AcDbEntity
  8
1
 62
     1
100
AcDbLine
 10
63.65386752691898
 20
5.998096499683249
 30
0.0
 11
63.65386752691897
 21
5.972285963767477
 31
0.0
  0
ARC
  5
4D5
330
18
100
AcDbEntity
  8
1
 62
     1
100
AcDbCircle
 10
321.4455510352435
 20
151.373308581431
 30
0.0
 40
295.9695971889867
100
AcDbArc
 50
209.424096505729
 51
209.6581323925055
  0
ARC
  5
4D6
330
18
100
AcDbEntity
  8
1
 62
     1
100
AcDbCircle
 10
73.63804916352849
 20
2.966508980520404
 30
0.0
 40
2.616591958741281
100
AcDbArc
 50
125.8135555408077
 51
136.1833856963513
  0
ARC
  5
4D7
330
18
100
AcDbEntity
  8
1
 62
     1
100
AcDbCircle
 10
70.92253976897574
 20
-0.418612124001513
 30
0.0
 40
2.471582057371494
100
AcDbArc
 50
61.36491429086219
 51
70.44008454876786
  0
LINE
  5
4D8
330
18
100
AcDbEntity
  8
1
 62
     1
100
AcDbLine
 10
72.10704667566206
 20
5.088238055668707
 30
0.0
 11
72.10704667566206
 21
1.750765344681699
 31
0.0
  0
ARC
  5
4D9
330
18
100
AcDbEntity
  8
1
 62
     1
100
AcDbCircle
 10
98.7649395584619
 20
23.97344203446538
 30
0.0
 40
33.14002376581294
100
AcDbArc
 50
213.9089542918087
 51
215.3954755413067
  0
LINE
  5
4DA
330
18
100
AcDbEntity
  8
1
 62
     1
100
AcDbLine
 10
71.26121356181956
 20
5.485465275959172
 30
0.0
 11
71.26121356181957
 21
2.411000808884825
 31
0.0
  0
ARC
  5
4DB
330
18
100
AcDbEntity
  8
1
 62
     1
100
AcDbCircle
 10
76.41050497642605
 20
6.945795473952396
 30
0.0
 40
6.861417054678003
100
AcDbArc
 50
221.3692051732669
 51
227.2146788525965
  0
LINE
  5
4DC
330
18
100
AcDbEntity
  8
1
 62
     1
100
AcDbLine
 10
71.75000000000001
 20
1.910320785587043
 30
0.0
 11
71.75
 21
4.778134286236673
 31
0.0
  0
ARC
  5
4DD
330
18
100
AcDbEntity
  8
1
 62
     1
100
AcDbCircle
 10
74.41976787583444
 20
2.320429358648576
 30
0.0
 40
4.714826211174062
100
AcDbArc
 50
136.0524143389498
 51
146.2384244795022
  0
ARC
  5
4DE
330
18
100
AcDbEntity
  8
1
 62
     1
100
AcDbCircle
 10
70.49910096953039
 20
0.7283121782604802
 30
0.0
 40
1.943192783159927
100
AcDbArc
 50
74.283812962447
 51
89.97349139938068
  0
LINE
  5
4DF
330
18
100
AcDbEntity
  8
1
 62
     1
100
AcDbLine
 10
71.02549928633702
 20
5.592240979397745
 30
0.0
 11
71.02549928633704
 21
2.599004908083979
 31
0.0
  0
ARC
  5
4E0
330
18
100
AcDbEntity
  8
1
 62
     1
100
AcDbCircle
 10
-57.05286696628235
 20
-64.64932882046666
 30
0.0
 40
138.7758456839544
100
AcDbArc
 50
30.10766270466836
 51
30.59469326392884
  0
LINE
  5
4E1
330
18
100
AcDbEntity
  8
1
 62
     1
100
AcDbLine
 10
63.0
 20
4.964336705569562
 30
0.0
 11
63.16323732963171
 21
5.250203966774894
 31
0.0
  0
LINE
  5
4E2
330
18
100
AcDbEntity
  8
1
 62
     1
100
AcDbLine
 10
63.59613247308106
 20
6.0
 30
0.0
 11
63.59613247308106
 21
5.999994500055786
 31
0.0
  0
LINE
  5
4E3
330
18
100
AcDbEntity
  8
1
 62
     1
100
AcDbLine
 10
63.59613247308106
 20
5.999994500055786
 30
0.0
 11
63.59613247308106
 21
5.998396369879094
 31
0.0
  0
LINE
  5
4E4
330
18
100
AcDbEntity
  8
1
 62
     1
100
AcDbLine
 10
63.59613247308106
 20
5.998396369879094
 30
0.0
 11
63.59613247308106
 21
5.976699966126595
 31
0.0
  0
LINE
  5
4E5
330
18
100
AcDbEntity
  8
1
 62
     1
100
AcDbLine
 10
66.15386752691897
 20
6.0
 30
0.0
 11
66.15386752691899
 21
5.999875732281123
 31
0.0
  0
LINE
  5
4E6
330
18
100
AcDbEntity
  8
1
 62
     1
100
AcDbLine
 10
66.15386752691899
 20
5.999875732281123
 30
0.0
 11
66.15386752691897
 21
5.962620733739956
 31
0.0
  0
LINE
  5
4E7
330
18
100
AcDbEntity
  8
1
 62
     1
100
AcDbLine
 10
66.15386752691897
 20
5.962620733739956
 30
0.0
 11
66.15386752691897
 21
5.422579629516651
 31
0.0
  0
ARC
  5
4E8
330
18
100
AcDbEntity
  8
1
 62
     1
100
AcDbCircle
 10
102.3314880635928
 20
25.77149615088171
 30
0.0
 40
41.50779539556984
100
AcDbArc
 50
209.3565564323993
 51
210.9934370457029
  0
LINE
  5
4E9
330
18
100
AcDbEntity
  8
1
 62
     1
100
AcDbLine
 10
66.75
 20
4.397527972195626
 30
0.0
 11
66.75
 21
4.96746875
 31
0.0
  0
ARC
  5
4EA
330
18
100
AcDbEntity
  8
1
 62
     1
100
AcDbCircle
 10
70.67178724925058
 20
0.5855213550187992
 30
0.0
 40
5.469093342785651
100
AcDbArc
 50
127.4540660177291
 51
135.813254733994
  0
LINE
  5
4EB
330
18
100
AcDbEntity
  8
1
 62
     1
100
AcDbLine
 10
67.34613247308104
 20
6.0
 30
0.0
 11
67.34613247308104
 21
5.999773771125948
 31
0.0
  0
LINE
  5
4EC
330
18
100
AcDbEntity
  8
1
 62
     1
100
AcDbLine
 10
67.34613247308104
 20
5.999773771125948
 30
0.0
 11
67.34613247308104
 21
5.931084957930575
 31
0.0
  0
LINE
  5
4ED
330
18
100
AcDbEntity
  8
1
 62
     1
100
AcDbLine
 10
67.34613247308104
 20
5.931084957930575
 30
0.0
 11
67.34613247308103
 21
4.926800963306595
 31
0.0
  0
LINE
  5
4EE
330
18
100
AcDbEntity
  8
1
 62
     1
100
AcDbLine
 10
69.25
 20
3.352808223874596
 30
0.0
 11
69.25
 21
4.96746875
 31
0.0
  0
ARC
  5
4EF
330
18
100
AcDbEntity
  8
1
 62
     1
100
AcDbCircle
 10
69.95528574228881
 20
1.39228407132553
 30
0.0
 40
2.083478547782648
100
AcDbArc
 50
93.00342113826595
 51
109.7858630277476
  0
LINE
  5
4F0
330
18
100
AcDbEntity
  8
1
 62
     1
100
AcDbLine
 10
69.84613247308103
 20
5.91956097305604
 30
0.0
 11
69.84613247308104
 21
3.472675736041587
 31
0.0
  0
LINE
  5
4F1
330
18
100
AcDbEntity
  8
1
 62
     1
100
AcDbLine
 10
67.40386752691897
 20
6.0
 30
0.0
 11
67.40386752691899
 21
5.999768118710632
 31
0.0
  0
LINE
  5
4F2
330
18
100
AcDbEntity
  8
1
 62
     1
100
AcDbLine
 10
67.40386752691899
 20
5.999768118710632
 30
0.0
 11
67.40386752691896
 21
5.929321505424498
 31
0.0
  0
LINE
  5
4F3
330
18
100
AcDbEntity
  8
1
 62
     1
100
AcDbLine
 10
67.40386752691896
 20
5.929321505424498
 30
0.0
 11
67.40386752691897
 21
4.899267960869971
 31
0.0
  0
ARC
  5
4F4
330
18
100
AcDbEntity
  8
1
 62
     1
100
AcDbCircle
 10
90.06159396325344
 20
18.22026022986759
 30
0.0
 40
26.28345536465913
100
AcDbArc
 50
210.4522380392955
 51
212.9256769429387
  0
LINE
  5
4F5
330
18
100
AcDbEntity
  8
1
 62
     1
100
AcDbLine
 10
68.0
 20
3.933946307793718
 30
0.0
 11
68.0
 21
4.96746875
 31
0.0
  0
ARC
  5
4F6
330
18
100
AcDbEntity
  8
1
 62
     1
100
AcDbCircle
 10
69.7984583670119
 20
1.389084660602808
 30
0.0
 40
3.116125196771073
100
AcDbArc
 50
112.6992724354655
 51
125.2489184912916
  0
LINE
  5
4F7
330
18
100
AcDbEntity
  8
1
 62
     1
100
AcDbLine
 10
68.59613247308103
 20
6.0
 30
0.0
 11
68.59613247308103
 21
5.999636480213353
 31
0.0
  0
LINE
  5
4F8
330
18
100
AcDbEntity
  8
1
 62
     1
100
AcDbLine
 10
68.59613247308103
 20
5.999636480213353
 30
0.0
 11
68.59613247308103
 21
5.887891418700079
 31
0.0
  0
LINE
  5
4F9
330
18
100
AcDbEntity
  8
1
 62
     1
100
AcDbLine
 10
68.59613247308103
 20
5.887891418700079
 30
0.0
 11
68.59613247308103
 21
4.263439751385254
 31
0.0
  0
LINE
  5
4FA
330
18
100
AcDbEntity
  8
1
 62
     1
100
AcDbLine
 10
68.65386752691897
 20
6.0
 30
0.0
 11
68.65386752691897
 21
5.999629371978587
 31
0.0
  0
LINE
  5
4FB
330
18
100
AcDbEntity
  8
1
 62
     1
100
AcDbLine
 10
68.65386752691897
 20
5.999629371978587
 30
0.0
 11
68.65386752691899
 21
5.885636630805374
 31
0.0
  0
LINE
  5
4FC
330
18
100
AcDbEntity
  8
1
 62
     1
100
AcDbLine
 10
68.65386752691899
 20
5.885636630805374
 30
0.0
 11
68.65386752691896
 21
4.229554028860761
 31
0.0
  0
ARC
  5
4FD
330
18
100
AcDbEntity
  8
1
 62
     1
100
AcDbCircle
 10
83.1873141276763
 20
13.46578789900631
 30
0.0
 40
17.21998314067559
100
AcDbArc
 50
212.4366002876513
 51
215.9648126354596
  0
ARC
  5
4FE
330
18
100
AcDbEntity
  8
1
 62
     1
100
AcDbCircle
 10
200.0313294470038
 20
85.18806856464634
 30
0.0
 40
152.3743291906061
100
AcDbArc
 50
211.3506961260616
 51
211.7790874208717
  0
ARC
  5
4FF
330
18
100
AcDbEntity
  8
1
 62
     1
100
AcDbCircle
 10
79.03272966932556
 20
9.956592396361215
 30
0.0
 40
11.21990973550136
100
AcDbArc
 50
215.5481772758994
 51
220.4901880906982
  0
LINE
  5
500
330
18
100
AcDbEntity
  8
1
 62
     1
100
AcDbLine
 10
70.49999999999999
 20
2.671479553509955
 30
0.0
 11
70.5
 21
4.940680148199278
 31
0.0
  0
ARC
  5
501
330
18
100
AcDbEntity
  8
1
 62
     1
100
AcDbCircle
 10
20.41801404097392
 20
-20.30840020034185
 30
0.0
 40
48.39176308754186
100
AcDbArc
 50
31.33839063600759
 51
32.67001419837585
  0
ARC
  5
502
330
18
100
AcDbEntity
  8
1
 62
     1
100
AcDbCircle
 10
187.4383125513947
 20
-58.13668894037249
 30
0.0
 40
141.5995578162804
100
AcDbArc
 50
153.1573583288904
 51
153.5702685588336
  0
ARC
  5
503
330
18
100
AcDbEntity
  8
1
 62
     1
100
AcDbCircle
 10
114.8575101977722
 20
-22.71940227063357
 30
0.0
 40
59.84160350844169
100
AcDbArc
 50
151.3431343161694
 51
152.5567561625395
  0
LINE
  5
504
330
18
100
AcDbEntity
  8
1
 62
     1
100
AcDbLine
 10
59.92622392402211
 20
-5.586016875597482
 30
0.0
 11
59.77923350349696
 21
-5.571818204976291
 31
0.0
  0
LINE
  5
505
330
18
100
AcDbEntity
  8
1
 62
     1
100
AcDbLine
 10
73.00000000000001
 20
4.472805357799059
 30
0.0
 11
73.0
 21
4.845937981530732
 31
0.0
  0
ARC
  5
506
330
18
100
AcDbEntity
  8
1
 62
     1
100
AcDbCircle
 10
28.55730004940174
 20
-22.40986521258921
 30
0.0
 40
52.13474603711275
100
AcDbArc
 50
31.51994188245387
 51
32.05854145033255
  0
LINE
  5
507
330
18
100
AcDbEntity
  8
1
 62
     1
100
AcDbLine
 10
71.2612135618195
 20
-5.485465275959189
 30
0.0
 11
71.02549928633704
 21
-5.592240979397753
 31
0.0
  0
LINE
  5
508
330
18
100
AcDbEntity
  8
1
 62
     1
100
AcDbLine
 10
71.92996438482855
 20
4.94877739479139
 30
0.0
 11
72.10704667566206
 21
5.304432480341223
 31
0.0
  0
LINE
  5
509
330
18
100
AcDbEntity
  8
1
 62
     1
100
AcDbLine
 10
68.59613247308103
 20
-5.999748750775074
 30
0.0
 11
68.59613247308104
 21
-5.999999999996256
 31
0.0
  0
LINE
  5
50A
330
18
100
AcDbEntity
  8
1
 62
     1
100
AcDbLine
 10
67.34613247308104
 20
-5.900648844830921
 30
0.0
 11
67.34613247308104
 21
-6.0
 31
0.0
  0
LINE
  5
50B
330
18
100
AcDbEntity
  8
1
 62
     1
100
AcDbLine
 10
66.09613247308104
 20
-5.625222608958231
 30
0.0
 11
66.09613247308103
 21
-6.0
 31
0.0
  0
LINE
  5
50C
330
18
100
AcDbEntity
  8
1
 62
     1
100
AcDbLine
 10
61.15386752691897
 20
-3.039148932383464
 30
0.0
 11
61.15386752691897
 21
-5.813457234245625
 31
0.0
  0
ARC
  5
50D
330
18
100
AcDbEntity
  8
1
 62
     1
100
AcDbCircle
 10
84.8299629883675
 20
-22.27687447936988
 30
0.0
 40
29.97969328685092
100
AcDbArc
 50
144.2471720346973
 51
146.1694165707409
  0
ARC
  5
50E
330
18
100
AcDbEntity
  8
1
 62
     1
100
AcDbCircle
 10
62.38473266808877
 20
-2.878476555530077
 30
0.0
 40
2.663133149416297
100
AcDbArc
 50
224.950936490381
 51
229.029630841785
  0
ARC
  5
50F
330
18
100
AcDbEntity
  8
1
 62
     1
100
AcDbCircle
 10
578.8531147329439
 20
-328.0623426216637
 30
0.0
 40
611.8819996068471
100
AcDbArc
 50
148.1235024351279
 51
148.1737386141546
  0
ARC
  5
510
330
18
100
AcDbEntity
  8
1
 62
     1
100
AcDbCircle
 10
62.96038443743889
 20
-2.399163380020778
 30
0.0
 40
4.493245094749211
100
AcDbArc
 50
214.3349034960519
 51
224.9233859334786
  0
LINE
  5
511
330
18
100
AcDbEntity
  8
1
 62
     1
100
AcDbLine
 10
59.92622392402211
 20
-2.081645051008216
 30
0.0
 11
59.77923350349699
 21
-1.891507327860311
 31
0.0
  0
LINE
  5
512
330
18
100
AcDbEntity
  8
1
 62
     1
100
AcDbLine
 10
59.77923350665311
 20
-5.31302098617858
 30
0.0
 11
59.9262239240221
 21
-5.440067071590303
 31
0.0
  0
ARC
  5
513
330
18
100
AcDbEntity
  8
1
 62
     1
100
AcDbCircle
 10
46.80511642067421
 20
5.130161494674798
 30
0.0
 40
15.5674863952039
100
AcDbArc
 50
321.3734524255364
 51
323.0741969985727
  0
LINE
  5
514
330
18
100
AcDbEntity
  8
1
 62
     1
100
AcDbLine
 10
57.323727164574
 20
-3.063884050137313
 30
0.0
 11
58.96692170265242
 21
-4.58770965539531
 31
0.0
  0
LINE
  5
515
330
18
100
AcDbEntity
  8
1
 62
     1
100
AcDbLine
 10
62.99999999999999
 20
-4.964336705569562
 30
0.0
 11
63.16323732970022
 21
-5.250203966907254
 31
0.0
  0
LINE
  5
516
330
18
100
AcDbEntity
  8
1
 62
     1
100
AcDbLine
 10
62.4038675269197
 20
-5.982254069521149
 30
0.0
 11
62.34613247308105
 21
-5.978376586347102
 31
0.0
  0
LINE
  5
517
330
18
100
AcDbEntity
  8
1
 62
     1
100
AcDbLine
 10
61.15386752691897
 20
-5.813457234245621
 30
0.0
 11
61.09613247308104
 21
-5.80140411056692
 31
0.0
  0
LINE
  5
518
330
18
100
AcDbEntity
  8
1
 62
     1
100
AcDbLine
 10
73.0
 20
1.092076399060253
 30
0.0
 11
72.99999999999999
 21
4.472805357799038
 31
0.0
  0
LINE
  5
519
330
18
100
AcDbEntity
  8
1
 62
     1
100
AcDbLine
 10
73.0
 20
-0.0599493452438683
 30
0.0
 11
73.0
 21
-2.160962288766458
 31
0.0
  0
LINE
  5
51A
330
18
100
AcDbEntity
  8
1
 62
     1
100
AcDbLine
 10
73.0
 20
-4.845937981530737
 30
0.0
 11
73.0
 21
-2.160962288766461
 31
0.0
  0
ARC
  5
51B
330
18
100
AcDbEntity
  8
1
 62
     1
100
AcDbCircle
 10
71.80157428637378
 20
4.138117494322335
 30
0.0
 40
9.44751685934117
100
AcDbArc
 50
271.8529080382813
 51
275.7117047874125
  0
ARC
  5
51C
330
18
100
AcDbEntity
  8
1
 62
     1
100
AcDbCircle
 10
76.81957038650074
 20
9.29869163068433
 30
0.0
 40
12.52389948088759
100
AcDbArc
 50
247.8964311202405
 51
250.9982180119016
  0
LINE
  5
51D
330
18
100
AcDbEntity
  8
1
 62
     1
100
AcDbLine
 10
71.26121356181952
 20
-5.290604897736496
 30
0.0
 11
71.02549928633702
 21
-5.27181734146847
 31
0.0
  0
LINE
  5
51E
330
18
100
AcDbEntity
  8
1
 62
     1
100
AcDbLine
 10
71.26121356181955
 20
-1.926939488059423
 30
0.0
 11
71.26121356181956
 21
-5.290604897736493
 31
0.0
  0
LINE
  5
51F
330
18
100
AcDbEntity
  8
1
 62
     1
100
AcDbLine
 10
71.2612135618195
 20
-1.926939488059399
 30
0.0
 11
71.02549928633704
 21
-1.809343920429945
 31
0.0
  0
ARC
  5
520
330
18
100
AcDbEntity
  8
1
 62
     1
100
AcDbCircle
 10
93.6506816493083
 20
6.242397374750974
 30
0.0
 40
30.00150384071873
100
AcDbArc
 50
200.2304326680784
 51
203.3013265716166
  0
ARC
  5
521
330
18
100
AcDbEntity
  8
1
 62
     1
100
AcDbCircle
 10
48.04873356165276
 20
4.860303231479352
 30
0.0
 40
19.63208005679914
100
AcDbArc
 50
329.154016908048
 51
332.7387735401471
  0
LINE
  5
522
330
18
100
AcDbEntity
  8
1
 62
     1
100
AcDbLine
 10
64.90386752691896
 20
-5.205716146510229
 30
0.0
 11
64.90386752691897
 21
-6.0
 31
0.0
  0
LINE
  5
523
330
18
100
AcDbEntity
  8
1
 62
     1
100
AcDbLine
 10
65.5
 20
-4.96746875
 30
0.0
 11
64.90386752691897
 21
-5.999999999999994
 31
0.0
  0
LINE
  5
524
330
18
100
AcDbEntity
  8
1
 62
     1
100
AcDbLine
 10
65.5
 20
-4.96746875
 30
0.0
 11
65.5
 21
-4.967292341822177
 31
0.0
  0
LINE
  5
525
330
18
100
AcDbEntity
  8
1
 62
     1
100
AcDbLine
 10
65.5
 20
-4.967292341822177
 30
0.0
 11
65.5
 21
-4.913805821059628
 31
0.0
  0
LINE
  5
526
330
18
100
AcDbEntity
  8
1
 62
     1
100
AcDbLine
 10
65.5
 20
-4.913805821059628
 30
0.0
 11
65.5
 21
-4.132016431021016
 31
0.0
  0
ARC
  5
527
330
18
100
AcDbEntity
  8
1
 62
     1
100
AcDbCircle
 10
103.5139085167449
 20
10.25904791917577
 30
0.0
 40
41.63656478386609
100
AcDbArc
 50
199.4356677349345
 51
201.7677269871433
  0
LINE
  5
528
330
18
100
AcDbEntity
  8
1
 62
     1
100
AcDbLine
 10
64.84613247308104
 20
-6.000000000000019
 30
0.0
 11
64.25
 21
-4.96746875
 31
0.0
  0
LINE
  5
529
330
18
100
AcDbEntity
  8
1
 62
     1
100
AcDbLine
 10
64.84613247308104
 20
-5.181699985824411
 30
0.0
 11
64.84613247308104
 21
-6.0
 31
0.0
  0
ARC
  5
52A
330
18
100
AcDbEntity
  8
1
 62
     1
100
AcDbCircle
 10
51.69631514120583
 20
3.069986404496142
 30
0.0
 40
14.21365766766988
100
AcDbArc
 50
327.274497015418
 51
332.0337753949988
  0
LINE
  5
52B
330
18
100
AcDbEntity
  8
1
 62
     1
100
AcDbLine
 10
63.65386752691897
 20
-4.614144020200531
 30
0.0
 11
63.65386752691897
 21
-6.0
 31
0.0
  0
LINE
  5
52C
330
18
100
AcDbEntity
  8
1
 62
     1
100
AcDbLine
 10
64.25
 20
-4.96746875
 30
0.0
 11
64.25
 21
-4.967181528623116
 31
0.0
  0
LINE
  5
52D
330
18
100
AcDbEntity
  8
1
 62
     1
100
AcDbLine
 10
64.25
 20
-4.967181528623116
 30
0.0
 11
64.25
 21
-4.879006111716341
 31
0.0
  0
LINE
  5
52E
330
18
100
AcDbEntity
  8
1
 62
     1
100
AcDbLine
 10
64.25
 20
-4.879006111716341
 30
0.0
 11
64.25
 21
-3.595436741627713
 31
0.0
  0
ARC
  5
52F
330
18
100
AcDbEntity
  8
1
 62
     1
100
AcDbCircle
 10
73.73880624784412
 20
-2.861312893073574
 30
0.0
 40
2.762160863458191
100
AcDbArc
 50
223.9440976436782
 51
229.0902259663093
  0
ARC
  5
530
330
18
100
AcDbEntity
  8
1
 62
     1
100
AcDbCircle
 10
98.76493955851252
 20
-23.97344203450081
 30
0.0
 40
33.14002376587473
100
AcDbArc
 50
144.6045244586941
 51
146.0910457081893
  0
ARC
  5
531
330
18
100
AcDbEntity
  8
1
 62
     1
100
AcDbCircle
 10
74.41976787583796
 20
-2.320429358645791
 30
0.0
 40
4.714826211178547
100
AcDbArc
 50
213.7615755205021
 51
223.947585661045
  0
ARC
  5
532
330
18
100
AcDbEntity
  8
1
 62
     1
100
AcDbCircle
 10
54.15596173349368
 20
2.041686723484479
 30
0.0
 40
10.15626209445955
100
AcDbArc
 50
324.3015867381512
 51
330.5521103815683
  0
LINE
  5
533
330
18
100
AcDbEntity
  8
1
 62
     1
100
AcDbLine
 10
62.403867526919
 20
-3.884688473945181
 30
0.0
 11
62.40386752691898
 21
-5.982254069625036
 31
0.0
  0
ARC
  5
534
330
18
100
AcDbEntity
  8
1
 62
     1
100
AcDbCircle
 10
-57.05286696671756
 20
64.64932882072328
 30
0.0
 40
138.7758456844596
100
AcDbArc
 50
329.4053067360714
 51
329.89233729533
  0
ARC
  5
535
330
18
100
AcDbEntity
  8
1
 62
     1
100
AcDbCircle
 10
117.1171450060653
 20
15.89944983806587
 30
0.0
 40
57.30640962765514
100
AcDbArc
 50
199.2049877446051
 51
200.9421234258438
  0
LINE
  5
536
330
18
100
AcDbEntity
  8
1
 62
     1
100
AcDbLine
 10
63.00000000000001
 20
-4.964336705569562
 30
0.0
 11
63.00000000000001
 21
-4.430563661956442
 31
0.0
  0
LINE
  5
537
330
18
100
AcDbEntity
  8
1
 62
     1
100
AcDbLine
 10
63.00000000000001
 20
-4.430563661956442
 30
0.0
 11
63.00000000000001
 21
-2.951416444877804
 31
0.0
  0
LINE
  5
538
330
18
100
AcDbEntity
  8
1
 62
     1
100
AcDbLine
 10
63.59613247308106
 20
-4.583336121385016
 30
0.0
 11
63.59613247308106
 21
-6.0
 31
0.0
  0
ARC
  5
539
330
18
100
AcDbEntity
  8
1
 62
     1
100
AcDbCircle
 10
42.18180513293672
 20
8.109048027879432
 30
0.0
 40
27.63586028467005
100
AcDbArc
 50
330.1606942954336
 51
332.74867638911
  0
LINE
  5
53A
330
18
100
AcDbEntity
  8
1
 62
     1
100
AcDbLine
 10
66.15386752691896
 20
-5.641729184735859
 30
0.0
 11
66.15386752691897
 21
-6.0
 31
0.0
  0
LINE
  5
53B
330
18
100
AcDbEntity
  8
1
 62
     1
100
AcDbLine
 10
66.75
 20
-4.96746875
 30
0.0
 11
66.15386752691897
 21
-5.999999999999994
 31
0.0
  0
LINE
  5
53C
330
18
100
AcDbEntity
  8
1
 62
     1
100
AcDbLine
 10
66.75
 20
-4.96746875
 30
0.0
 11
66.75
 21
-4.967377427079069
 31
0.0
  0
LINE
  5
53D
330
18
100
AcDbEntity
  8
1
 62
     1
100
AcDbLine
 10
66.75
 20
-4.967377427079069
 30
0.0
 11
66.75000000000001
 21
-4.940058537107982
 31
0.0
  0
LINE
  5
53E
330
18
100
AcDbEntity
  8
1
 62
     1
100
AcDbLine
 10
66.75000000000001
 20
-4.940058537107982
 30
0.0
 11
66.75000000000001
 21
-4.545121914892365
 31
0.0
  0
ARC
  5
53F
330
18
100
AcDbEntity
  8
1
 62
     1
100
AcDbCircle
 10
86.1065708887009
 20
3.158012353159521
 30
0.0
 40
20.83302632026889
100
AcDbArc
 50
201.7005600399706
 51
205.7740280353517
  0
LINE
  5
540
330
18
100
AcDbEntity
  8
1
 62
     1
100
AcDbLine
 10
69.25
 20
-4.96746875
 30
0.0
 11
69.24999999999999
 21
-4.967468749998844
 31
0.0
  0
LINE
  5
541
330
18
100
AcDbEntity
  8
1
 62
     1
100
AcDbLine
 10
69.24999999999999
 20
-4.967468749998844
 30
0.0
 11
69.25
 21
-4.967468749665831
 31
0.0
  0
LINE
  5
542
330
18
100
AcDbEntity
  8
1
 62
     1
100
AcDbLine
 10
69.25
 20
-4.967468749665831
 30
0.0
 11
69.25
 21
-4.96746866381613
 31
0.0
  0
LINE
  5
543
330
18
100
AcDbEntity
  8
1
 62
     1
100
AcDbLine
 10
69.25
 20
-4.96746866381613
 30
0.0
 11
69.25
 21
-4.967446651299743
 31
0.0
  0
LINE
  5
544
330
18
100
AcDbEntity
  8
1
 62
     1
100
AcDbLine
 10
69.25
 20
-4.967446651299743
 30
0.0
 11
69.25
 21
-4.965857434389851
 31
0.0
  0
LINE
  5
545
330
18
100
AcDbEntity
  8
1
 62
     1
100
AcDbLine
 10
69.25
 20
-4.965857434389851
 30
0.0
 11
69.25
 21
-4.955586215250468
 31
0.0
  0
ARC
  5
546
330
18
100
AcDbEntity
  8
1
 62
     1
100
AcDbCircle
 10
76.29249912931222
 20
-1.277893690060497
 30
0.0
 40
7.943750634916396
100
AcDbArc
 50
209.9152598491449
 51
215.7555454830643
  0
LINE
  5
547
330
18
100
AcDbEntity
  8
1
 62
     1
100
AcDbLine
 10
69.40711757036091
 20
-5.23960423774362
 30
0.0
 11
69.25
 21
-4.96746875
 31
0.0
  0
ARC
  5
548
330
18
100
AcDbEntity
  8
1
 62
     1
100
AcDbCircle
 10
-17.19218682246346
 20
43.72486104721457
 30
0.0
 40
99.20733951081664
100
AcDbArc
 50
329.9191668418424
 51
330.6136968746643
  0
LINE
  5
549
330
18
100
AcDbEntity
  8
1
 62
     1
100
AcDbLine
 10
68.65386752691897
 20
-5.999995982586431
 30
0.0
 11
68.65386752691897
 21
-5.999999999996168
 31
0.0
  0
LINE
  5
54A
330
18
100
AcDbEntity
  8
1
 62
     1
100
AcDbLine
 10
69.25
 20
-4.96746875
 30
0.0
 11
68.65386926651048
 21
-5.999996986940517
 31
0.0
  0
LINE
  5
54B
330
18
100
AcDbEntity
  8
1
 62
     1
100
AcDbLine
 10
68.65386926651048
 20
-5.999996986940517
 30
0.0
 11
68.65386752691897
 21
-5.999999999999994
 31
0.0
  0
ARC
  5
54C
330
18
100
AcDbEntity
  8
1
 62
     1
100
AcDbCircle
 10
80.46303221408392
 20
0.7461668096417302
 30
0.0
 40
13.65047230483077
100
AcDbArc
 50
204.0754396288681
 51
209.616708870679
  0
LINE
  5
54D
330
18
100
AcDbEntity
  8
1
 62
     1
100
AcDbLine
 10
68.65386752691897
 20
0.0069432662797809
 30
0.0
 11
68.65386752691897
 21
-4.255687102801098
 31
0.0
  0
LINE
  5
54E
330
18
100
AcDbEntity
  8
1
 62
     1
100
AcDbLine
 10
67.34613247308104
 20
1.087356064035878
 30
0.0
 11
67.34613247308104
 21
-3.424417069803464
 31
0.0
  0
LINE
  5
54F
330
18
100
AcDbEntity
  8
1
 62
     1
100
AcDbLine
 10
66.09613247308103
 20
2.087311811796517
 30
0.0
 11
66.09613247308103
 21
-2.524764630400715
 31
0.0
  0
LINE
  5
550
330
18
100
AcDbEntity
  8
1
 62
     1
100
AcDbLine
 10
64.84613247308103
 20
3.024894255491831
 30
0.0
 11
64.84613247308106
 21
-1.549665444786499
 31
0.0
  0
LINE
  5
551
330
18
100
AcDbEntity
  8
1
 62
     1
100
AcDbLine
 10
63.59613247308106
 20
3.872083418317271
 30
0.0
 11
63.59613247308105
 21
-0.5282589468266397
 31
0.0
  0
LINE
  5
552
330
18
100
AcDbEntity
  8
1
 62
     1
100
AcDbLine
 10
61.15386752691899
 20
5.173352275535891
 30
0.0
 11
61.15386752691897
 21
1.484491490577581
 31
0.0
  0
ARC
  5
553
330
18
100
AcDbEntity
  8
1
 62
     1
100
AcDbCircle
 10
30.18818121807144
 20
15.22681954233747
 30
0.0
 40
42.79873768068656
100
AcDbArc
 50
330.4063786242796
 51
332.0658089943489
  0
LINE
  5
554
330
18
100
AcDbEntity
  8
1
 62
     1
100
AcDbLine
 10
67.40386752691897
 20
-5.909152887425982
 30
0.0
 11
67.40386752691897
 21
-6.0
 31
0.0
  0
LINE
  5
555
330
18
100
AcDbEntity
  8
1
 62
     1
100
AcDbLine
 10
68.0
 20
-4.96746875
 30
0.0
 11
67.40386752691897
 21
-5.999999999999994
 31
0.0
  0
LINE
  5
556
330
18
100
AcDbEntity
  8
1
 62
     1
100
AcDbLine
 10
68.0
 20
-4.96746875
 30
0.0
 11
68.0
 21
-4.967436128415833
 31
0.0
  0
LINE
  5
557
330
18
100
AcDbEntity
  8
1
 62
     1
100
AcDbLine
 10
68.0
 20
-4.967436128415833
 30
0.0
 11
68.0
 21
-4.957819878064977
 31
0.0
  0
LINE
  5
558
330
18
100
AcDbEntity
  8
1
 62
     1
100
AcDbLine
 10
68.0
 20
-4.957819878064977
 30
0.0
 11
67.99999999999999
 21
-4.822406753680924
 31
0.0
  0
ARC
  5
559
330
18
100
AcDbEntity
  8
1
 62
     1
100
AcDbCircle
 10
200.0313294461801
 20
-85.1880685641401
 30
0.0
 40
152.3743291896393
100
AcDbArc
 50
148.220912579127
 51
148.6493038739398
  0
ARC
  5
55A
330
18
100
AcDbEntity
  8
1
 62
     1
100
AcDbCircle
 10
55.76622197408276
 20
1.503862996341937
 30
0.0
 40
7.047403605566234
100
AcDbArc
 50
319.8614858950264
 51
328.1104360799158
  0
ARC
  5
55B
330
18
100
AcDbEntity
  8
1
 62
     1
100
AcDbCircle
 10
20.41801404072179
 20
20.30840020050021
 30
0.0
 40
48.39176308783957
100
AcDbArc
 50
327.3299858016275
 51
328.6616093639876
  0
LINE
  5
55C
330
18
100
AcDbEntity
  8
1
 62
     1
100
AcDbLine
 10
61.75000000000001
 20
-4.859788710316125
 30
0.0
 11
61.75000000000001
 21
-2.219198782922049
 31
0.0
  0
ARC
  5
55D
330
18
100
AcDbEntity
  8
1
 62
     1
100
AcDbCircle
 10
56.64601783869133
 20
1.343617347577316
 30
0.0
 40
4.742631239850704
100
AcDbArc
 50
313.7607400611563
 51
324.3498561028354
  0
LINE
  5
55E
330
18
100
AcDbEntity
  8
1
 62
     1
100
AcDbLine
 10
59.9262239240221
 20
-2.081645051008185
 30
0.0
 11
59.92622392402211
 21
-5.440067071590296
 31
0.0
  0
ARC
  5
55F
330
18
100
AcDbEntity
  8
1
 62
     1
100
AcDbCircle
 10
39.61620591278217
 20
9.208807373184214
 30
0.0
 40
25.04171283865046
100
AcDbArc
 50
324.1984644298276
 51
326.5073577238734
  0
ARC
  5
560
330
18
100
AcDbEntity
  8
1
 62
     1
100
AcDbCircle
 10
197.3022447426427
 20
49.41203278490003
 30
0.0
 40
145.9411844303313
100
AcDbArc
 50
200.3839570735974
 51
201.0458513451332
  0
LINE
  5
561
330
18
100
AcDbEntity
  8
1
 62
     1
100
AcDbLine
 10
60.5
 20
-4.610018013076306
 30
0.0
 11
60.5
 21
-1.420667797195352
 31
0.0
  0
ARC
  5
562
330
18
100
AcDbEntity
  8
1
 62
     1
100
AcDbCircle
 10
198.97567070136
 20
63.92408915527974
 30
0.0
 40
154.5070596812697
100
AcDbArc
 50
206.3316379790221
 51
206.8256611795919
  0
LINE
  5
563
330
18
100
AcDbEntity
  8
1
 62
     1
100
AcDbLine
 10
61.09613247308104
 20
-2.997694717302452
 30
0.0
 11
61.09613247308104
 21
-5.801404110566921
 31
0.0
  0
ARC
  5
564
330
18
100
AcDbEntity
  8
1
 62
     1
100
AcDbCircle
 10
139.5318535155234
 20
25.3363131479883
 30
0.0
 40
82.51866148381293
100
AcDbArc
 50
199.5075353866617
 51
200.7118661807964
  0
ARC
  5
565
330
18
100
AcDbEntity
  8
1
 62
     1
100
AcDbCircle
 10
114.8575101983495
 20
22.71940227094014
 30
0.0
 40
59.84160350909526
100
AcDbArc
 50
207.4432438374663
 51
208.6568656838232
  0
LINE
  5
566
330
18
100
AcDbEntity
  8
1
 62
     1
100
AcDbLine
 10
62.34613247308104
 20
-3.848009766922923
 30
0.0
 11
62.34613247308103
 21
-5.978376586347101
 31
0.0
  0
ARC
  5
567
330
18
100
AcDbEntity
  8
1
 62
     1
100
AcDbCircle
 10
56.78381104447004
 20
1.608768521583265
 30
0.0
 40
3.297146128696633
100
AcDbArc
 50
311.4619612121274
 51
318.4147285067932
  0
LINE
  5
568
330
18
100
AcDbEntity
  8
1
 62
     1
100
AcDbLine
 10
58.9669217026524
 20
-0.8620927185380808
 30
0.0
 11
58.96692170265241
 21
-4.587709655395304
 31
0.0
  0
ARC
  5
569
330
18
100
AcDbEntity
  8
1
 62
     1
100
AcDbCircle
 10
1244.70357237514
 20
477.0630171563978
 30
0.0
 40
1278.062123495106
100
AcDbArc
 50
201.945480886867
 51
202.0088957511747
  0
LINE
  5
56A
330
18
100
AcDbEntity
  8
1
 62
     1
100
AcDbLine
 10
59.25000000000001
 20
-4.222488336988852
 30
0.0
 11
59.25
 21
-0.5796830632354862
 31
0.0
  0
ARC
  5
56B
330
18
100
AcDbEntity
  8
1
 62
     1
100
AcDbCircle
 10
-445.1306369416735
 20
-249.6459411969425
 30
0.0
 40
560.9211235159182
100
AcDbArc
 50
25.82298654877795
 51
25.94680446421342
  0
LINE
  5
56C
330
18
100
AcDbEntity
  8
1
 62
     1
100
AcDbLine
 10
59.77923350349686
 20
-1.891507327860225
 30
0.0
 11
59.77923350349686
 21
-5.31302103615831
 31
0.0
  0
LINE
  5
56D
330
18
100
AcDbEntity
  8
1
 62
     1
100
AcDbLine
 10
59.77923350665309
 20
2.528787300928307
 30
0.0
 11
59.9262239240221
 21
2.437724535185564
 31
0.0
  0
LINE
  5
56E
330
18
100
AcDbEntity
  8
1
 62
     1
100
AcDbLine
 10
59.92622392402211
 20
5.586016875597483
 30
0.0
 11
59.77923350349684
 21
5.571818204976331
 31
0.0
  0
ARC
  5
56F
330
18
100
AcDbEntity
  8
1
 62
     1
100
AcDbCircle
 10
60.48073490522481
 20
0.8779457992365192
 30
0.0
 40
4.758562017551413
100
AcDbArc
 50
108.5496627816602
 51
117.9087736871915
  0
LINE
  5
570
330
18
100
AcDbEntity
  8
1
 62
     1
100
AcDbLine
 10
57.14211617
 20
4.5
 30
0.0
 11
58.25332515429622
 21
5.083233460698203
 31
0.0
  0
ARC
  5
571
330
18
100
AcDbEntity
  8
1
 62
     1
100
AcDbCircle
 10
66.5006726770243
 20
8.943006276562578
 30
0.0
 40
9.622728423272417
100
AcDbArc
 50
218.4720569054515
 51
221.1057906463145
  0
LINE
  5
572
330
18
100
AcDbEntity
  8
1
 62
     1
100
AcDbLine
 10
57.323727164574
 20
3.424848915508661
 30
0.0
 11
57.53276358476195
 21
3.394626023621278
 31
0.0
  0
LINE
  5
573
330
18
100
AcDbEntity
  8
1
 62
     1
100
AcDbLine
 10
57.53276358476195
 20
3.394626023621278
 30
0.0
 11
57.74079016620155
 21
3.356117709404641
 31
0.0
  0
LINE
  5
574
330
18
100
AcDbEntity
  8
1
 62
     1
100
AcDbLine
 10
57.74079016620155
 20
3.356117709404641
 30
0.0
 11
57.94775387709377
 21
3.309407956914614
 31
0.0
  0
LINE
  5
575
330
18
100
AcDbEntity
  8
1
 62
     1
100
AcDbLine
 10
57.94775387709377
 20
3.309407956914614
 30
0.0
 11
58.15370716393048
 21
3.254578256853041
 31
0.0
  0
LINE
  5
576
330
18
100
AcDbEntity
  8
1
 62
     1
100
AcDbLine
 10
58.15370716393048
 20
3.254578256853041
 30
0.0
 11
58.35858131633399
 21
3.191749243567452
 31
0.0
  0
LINE
  5
577
330
18
100
AcDbEntity
  8
1
 62
     1
100
AcDbLine
 10
58.35858131633399
 20
3.191749243567452
 30
0.0
 11
58.56242758826842
 21
3.121015852739824
 31
0.0
  0
LINE
  5
578
330
18
100
AcDbEntity
  8
1
 62
     1
100
AcDbLine
 10
58.56242758826842
 20
3.121015852739824
 30
0.0
 11
58.96692170265241
 21
2.956386776710659
 31
0.0
  0
ARC
  5
579
330
18
100
AcDbEntity
  8
1
 62
     1
100
AcDbCircle
 10
28.55730004955576
 20
22.40986521249049
 30
0.0
 40
52.13474603692983
100
AcDbArc
 50
327.9414585496695
 51
328.4800581175501
  0
LINE
  5
57A
330
18
100
AcDbEntity
  8
1
 62
     1
100
AcDbLine
 10
69.90386752691896
 20
-4.920510334343316
 30
0.0
 11
69.84613247308103
 21
-4.892905397849831
 31
0.0
  0
LINE
  5
57B
330
18
100
AcDbEntity
  8
1
 62
     1
100
AcDbLine
 10
68.65386752691896
 20
-4.255687102801097
 30
0.0
 11
68.59613247088835
 21
-4.221739114375334
 31
0.0
  0
LINE
  5
57C
330
18
100
AcDbEntity
  8
1
 62
     1
100
AcDbLine
 10
67.40386752691896
 20
-3.463693613412285
 30
0.0
 11
67.34613247308104
 21
-3.424417069803428
 31
0.0
  0
LINE
  5
57D
330
18
100
AcDbEntity
  8
1
 62
     1
100
AcDbLine
 10
66.153867526919
 20
-2.568195896256956
 30
0.0
 11
66.09613247549845
 21
-2.524764596335177
 31
0.0
  0
LINE
  5
57E
330
18
100
AcDbEntity
  8
1
 62
     1
100
AcDbLine
 10
64.90386752691897
 20
-1.595953820306385
 30
0.0
 11
64.84613247263117
 21
-1.549665442827792
 31
0.0
  0
LINE
  5
57F
330
18
100
AcDbEntity
  8
1
 62
     1
100
AcDbLine
 10
63.65386752691897
 20
-0.5760211515092024
 30
0.0
 11
63.5961324732953
 21
-0.5282589388006516
 31
0.0
  0
LINE
  5
580
330
18
100
AcDbEntity
  8
1
 62
     1
100
AcDbLine
 10
62.4038675269197
 20
0.4611249792064021
 30
0.0
 11
62.34613247308101
 21
0.5089335829131223
 31
0.0
  0
LINE
  5
581
330
18
100
AcDbEntity
  8
1
 62
     1
100
AcDbLine
 10
61.15386752691898
 20
1.484491490577581
 30
0.0
 11
61.09613247308103
 21
1.530918138208995
 31
0.0
  0
LINE
  5
582
330
18
100
AcDbEntity
  8
1
 62
     1
100
AcDbLine
 10
57.14211617
 20
2.091531430402811
 30
0.0
 11
57.14211616999999
 21
3.440543061051442
 31
0.0
  0
ARC
  5
583
330
18
100
AcDbEntity
  8
1
 62
     1
100
AcDbCircle
 10
57.02204229586235
 20
0.9909263729375875
 30
0.0
 40
2.452549718291418
100
AcDbArc
 50
82.93422237611209
 51
87.19375517297517
  0
LINE
  5
584
330
18
100
AcDbEntity
  8
1
 62
     1
100
AcDbLine
 10
58.9669217026524
 20
-0.8620927185380824
 30
0.0
 11
58.04979279813406
 21
0.2365396709762769
 31
0.0
  0
LINE
  5
585
330
18
100
AcDbEntity
  8
1
 62
     1
100
AcDbLine
 10
58.04979279813406
 20
0.2365396709762769
 30
0.0
 11
57.14211616999999
 21
1.229954996791493
 31
0.0
  0
LINE
  5
586
330
18
100
AcDbEntity
  8
1
 62
     1
100
AcDbLine
 10
61.15386752691899
 20
-3.039148932383488
 30
0.0
 11
61.09613247308103
 21
-2.997694717302452
 31
0.0
  0
LINE
  5
587
330
18
100
AcDbEntity
  8
1
 62
     1
100
AcDbLine
 10
62.40386752718121
 20
-3.88468846886521
 30
0.0
 11
62.34613247308101
 21
-3.848009766922909
 31
0.0
  0
LINE
  5
588
330
18
100
AcDbEntity
  8
1
 62
     1
100
AcDbLine
 10
63.65386752691897
 20
-4.614144020200531
 30
0.0
 11
63.59613247447099
 21
-4.583336097944591
 31
0.0
  0
LINE
  5
589
330
18
100
AcDbEntity
  8
1
 62
     1
100
AcDbLine
 10
64.90386752691897
 20
-5.205716146510229
 30
0.0
 11
64.84613245181617
 21
-5.181699921057024
 31
0.0
  0
LINE
  5
58A
330
18
100
AcDbEntity
  8
1
 62
     1
100
AcDbLine
 10
66.15386752691897
 20
-5.64172918473586
 30
0.0
 11
66.09613247353363
 21
-5.625222597768007
 31
0.0
  0
LINE
  5
58B
330
18
100
AcDbEntity
  8
1
 62
     1
100
AcDbLine
 10
67.40386752691893
 20
-5.90915288742598
 30
0.0
 11
67.34613247308104
 21
-5.90064884483092
 31
0.0
  0
LINE
  5
58C
330
18
100
AcDbEntity
  8
1
 62
     1
100
AcDbLine
 10
68.65386752691649
 20
-5.999995982522959
 30
0.0
 11
68.5961324730901
 21
-5.999748750730071
 31
0.0
  0
ARC
  5
58D
330
18
100
AcDbEntity
  8
1
 62
     1
100
AcDbCircle
 10
77.16851825715868
 20
-0.7607268288170905
 30
0.0
 40
8.961013443678429
100
AcDbArc
 50
207.9125433599948
 51
209.9879876118466
  0
LINE
  5
58E
330
18
100
AcDbEntity
  8
1
 62
     1
100
AcDbLine
 10
69.90386752691893
 20
-5.911544063712224
 30
0.0
 11
69.84613247308104
 21
-5.919560973056045
 31
0.0
  0
LINE
  5
58F
330
18
100
AcDbEntity
  8
1
 62
     1
100
AcDbLine
 10
57.14211617
 20
-3.001575536410459
 30
0.0
 11
57.14211616999999
 21
-2.900459178311399
 31
0.0
  0
LINE
  5
590
330
18
100
AcDbEntity
  8
1
 62
     1
100
AcDbLine
 10
57.323727164574
 20
-3.063884050137325
 30
0.0
 11
57.14211616999999
 21
-2.900459178311392
 31
0.0
  0
ARC
  5
591
330
18
100
AcDbEntity
  8
1
 62
     1
100
AcDbCircle
 10
60.48073490815396
 20
-0.8779457917287568
 30
0.0
 40
4.758562025591073
100
AcDbArc
 50
242.0912263239008
 51
251.4503372136616
  0
LINE
  5
592
330
18
100
AcDbEntity
  8
1
 62
     1
100
AcDbLine
 10
69.90386752691893
 20
5.911544063712222
 30
0.0
 11
69.84613247308101
 21
5.91956097305604
 31
0.0
  0
LINE
  5
593
330
18
100
AcDbEntity
  8
1
 62
     1
100
AcDbLine
 10
73.0
 20
-0.0599493452438616
 30
0.0
 11
73.0
 21
1.092076399060248
 31
0.0
  0
LINE
  5
594
330
18
100
AcDbEntity
  8
1
 62
     1
100
AcDbLine
 10
61.153867526919
 20
5.173352275535883
 30
0.0
 11
61.09613247308105
 21
5.197482696638524
 31
0.0
  0
LINE
  5
595
330
18
100
AcDbEntity
  8
1
 62
     1
100
AcDbLine
 10
62.40386752691899
 20
4.572657368692752
 30
0.0
 11
62.34613247308104
 21
4.60356609963037
 31
0.0
  0
LINE
  5
596
330
18
100
AcDbEntity
  8
1
 62
     1
100
AcDbLine
 10
63.65386752691898
 20
3.835319407930409
 30
0.0
 11
63.59613247308105
 21
3.872083418317272
 31
0.0
  0
LINE
  5
597
330
18
100
AcDbEntity
  8
1
 62
     1
100
AcDbLine
 10
64.90386752691897
 20
2.983373828731929
 30
0.0
 11
64.84613247308101
 21
3.024894255491834
 31
0.0
  0
LINE
  5
598
330
18
100
AcDbEntity
  8
1
 62
     1
100
AcDbLine
 10
66.15386752691897
 20
2.042276133655714
 30
0.0
 11
66.09613247308103
 21
2.08731181179651
 31
0.0
  0
LINE
  5
599
330
18
100
AcDbEntity
  8
1
 62
     1
100
AcDbLine
 10
67.40386752691897
 20
1.040150062743422
 30
0.0
 11
67.34613247308106
 21
1.087356064035875
 31
0.0
  0
LINE
  5
59A
330
18
100
AcDbEntity
  8
1
 62
     1
100
AcDbLine
 10
68.65386752691896
 20
0.0069432662797076
 30
0.0
 11
68.59613247308103
 21
0.054908356148641
 31
0.0
  0
LINE
  5
59B
330
18
100
AcDbEntity
  8
1
 62
     1
100
AcDbLine
 10
69.90386752691896
 20
-1.026472982006248
 30
0.0
 11
69.84613247308101
 21
-0.9791822538586761
 31
0.0
  0
LINE
  5
59C
330
18
100
AcDbEntity
  8
1
 62
     1
100
AcDbLine
 10
57.14211617
 20
4.5
 30
0.0
 11
57.14211617
 21
4.499777918276714
 31
0.0
  0
LINE
  5
59D
330
18
100
AcDbEntity
  8
1
 62
     1
100
AcDbLine
 10
57.14211617
 20
4.499777918276714
 30
0.0
 11
57.14211617
 21
4.43189182850155
 31
0.0
  0
LINE
  5
59E
330
18
100
AcDbEntity
  8
1
 62
     1
100
AcDbLine
 10
57.14211617
 20
4.43189182850155
 30
0.0
 11
57.14211617000001
 21
3.440543061051436
 31
0.0
  0
LINE
  5
59F
330
18
100
AcDbEntity
  8
1
 62
     1
100
AcDbLine
 10
57.14211617000001
 20
-4.328649986527862
 30
0.0
 11
57.14211617
 21
-4.5
 31
0.0
  0
LINE
  5
5A0
330
18
100
AcDbEntity
  8
1
 62
     1
100
AcDbLine
 10
57.14211617
 20
-4.328649986527861
 30
0.0
 11
57.14211617
 21
-3.001575536410459
 31
0.0
  0
LINE
  5
5A1
330
18
100
AcDbEntity
  8
1
 62
     1
100
AcDbLine
 10
57.14211617000001
 20
1.229954996791494
 30
0.0
 11
57.14211617
 21
-2.900459178311398
 31
0.0
  0
LINE
  5
5A2
330
18
100
AcDbEntity
  8
1
 62
     1
100
AcDbLine
 10
57.14211617
 20
1.22995499679149
 30
0.0
 11
57.14211617
 21
2.091531430402812
 31
0.0
  0
LINE
  5
5A3
330
18
100
AcDbEntity
  8
1
 62
     1
100
AcDbLine
 10
73.0
 20
-1.92
 30
0.0
 11
74.92
 21
-0.0000000000000002
 31
0.0
  0
LINE
  5
5A4
330
18
100
AcDbEntity
  8
1
 62
     1
100
AcDbLine
 10
72.89903730569739
 20
1.1597130750581
 30
0.0
 11
73.0
 21
1.092076399060253
 31
0.0
  0
LINE
  5
5A5
330
18
100
AcDbEntity
  8
1
 62
     1
100
AcDbLine
 10
66.09613247308103
 20
5.999999999999999
 30
0.0
 11
65.5
 21
4.96746875
 31
0.0
  0
LINE
  5
5A6
330
18
100
AcDbEntity
  8
1
 62
     1
100
AcDbLine
 10
65.5
 20
4.96746875
 30
0.0
 11
64.90386752691897
 21
5.999999999999998
 31
0.0
  0
LINE
  5
5A7
330
18
100
AcDbEntity
  8
1
 62
     1
100
AcDbLine
 10
64.84613247308104
 20
6.00000000000002
 30
0.0
 11
64.25
 21
4.96746875
 31
0.0
  0
LINE
  5
5A8
330
18
100
AcDbEntity
  8
1
 62
     1
100
AcDbLine
 10
64.25
 20
4.96746875
 30
0.0
 11
63.65386752691898
 21
6.000000000000006
 31
0.0
  0
ARC
  5
5A9
330
18
100
AcDbEntity
  8
1
 62
     1
100
AcDbCircle
 10
88.9525642293468
 20
-9.62214200982914
 30
0.0
 40
29.77037944312337
100
AcDbArc
 50
148.4008834145752
 51
150.0285494015771
  0
LINE
  5
5AA
330
18
100
AcDbEntity
  8
1
 62
     1
100
AcDbLine
 10
63.59613247308106
 20
6.000000000000034
 30
0.0
 11
63.16323732962577
 21
5.250203966778326
 31
0.0
  0
LINE
  5
5AB
330
18
100
AcDbEntity
  8
1
 62
     1
100
AcDbLine
 10
66.75
 20
4.96746875
 30
0.0
 11
66.15386752691896
 21
5.999999999999998
 31
0.0
  0
LINE
  5
5AC
330
18
100
AcDbEntity
  8
1
 62
     1
100
AcDbLine
 10
67.34613247308104
 20
6.00000000000002
 30
0.0
 11
66.75000000000001
 21
4.96746875
 31
0.0
  0
ARC
  5
5AD
330
18
100
AcDbEntity
  8
1
 62
     1
100
AcDbCircle
 10
76.29249462987774
 20
1.277896631021505
 30
0.0
 40
7.943745260797577
100
AcDbArc
 50
144.2444527677852
 51
150.084742353299
  0
LINE
  5
5AE
330
18
100
AcDbEntity
  8
1
 62
     1
100
AcDbLine
 10
69.4071175702656
 20
5.239604237578497
 30
0.0
 11
69.25
 21
4.96746875
 31
0.0
  0
LINE
  5
5AF
330
18
100
AcDbEntity
  8
1
 62
     1
100
AcDbLine
 10
68.0
 20
4.967468749999999
 30
0.0
 11
67.40386752691897
 21
5.999999999999998
 31
0.0
  0
LINE
  5
5B0
330
18
100
AcDbEntity
  8
1
 62
     1
100
AcDbLine
 10
68.59613247308103
 20
5.999999999999999
 30
0.0
 11
68.0
 21
4.96746875
 31
0.0
  0
LINE
  5
5B1
330
18
100
AcDbEntity
  8
1
 62
     1
100
AcDbLine
 10
69.25
 20
4.967468750000001
 30
0.0
 11
68.65386752691897
 21
5.999999999999998
 31
0.0
  0
ARC
  5
5B2
330
18
100
AcDbEntity
  8
1
 62
     1
100
AcDbCircle
 10
61.15258599708524
 20
0.3746249410159583
 30
0.0
 40
6.180260841304948
100
AcDbArc
 50
229.545862096038
 51
242.0223794974487
  0
LINE
  5
5B3
330
18
100
AcDbEntity
  8
1
 62
     1
100
AcDbLine
 10
57.14211617
 20
-4.5
 30
0.0
 11
58.25332515429236
 21
-5.083233460696171
 31
0.0
  0
LINE
  5
5B4
330
18
100
AcDbEntity
  8
1
 62
     1
100
AcDbLine
 10
68.59613247308103
 20
-6.0
 30
0.0
 11
68.65386752691897
 21
-6.0
 31
0.0
  0
LINE
  5
5B5
330
18
100
AcDbEntity
  8
1
 62
     1
100
AcDbLine
 10
67.34613247308104
 20
-6.0
 30
0.0
 11
67.40386752691897
 21
-6.0
 31
0.0
  0
LINE
  5
5B6
330
18
100
AcDbEntity
  8
1
 62
     1
100
AcDbLine
 10
66.09613247308103
 20
-6.0
 30
0.0
 11
66.15386752691897
 21
-6.000000000000001
 31
0.0
  0
LINE
  5
5B7
330
18
100
AcDbEntity
  8
1
 62
     1
100
AcDbLine
 10
64.84613247308104
 20
-6.0
 30
0.0
 11
64.90386752691897
 21
-6.0
 31
0.0
  0
LINE
  5
5B8
330
18
100
AcDbEntity
  8
1
 62
     1
100
AcDbLine
 10
63.59613247308106
 20
-6.0
 30
0.0
 11
63.65386752691899
 21
-6.0
 31
0.0
  0
ARC
  5
5B9
330
18
100
AcDbEntity
  8
1
 62
     1
100
AcDbCircle
 10
63.72827347156083
 20
4.187885319271267
 30
0.0
 40
3.727493748662225
100
AcDbArc
 50
234.3298711035928
 51
237.9454068395793
  0
ARC
  5
5BA
330
18
100
AcDbEntity
  8
1
 62
     1
100
AcDbCircle
 10
63.04035398519181
 20
1.009566604945213
 30
0.0
 40
2.705264268216879
100
AcDbArc
 50
48.13895188765792
 51
61.58114060376079
  0
LINE
  5
5BB
330
18
100
AcDbEntity
  8
SK1
100
AcDbLine
 10
-26.54999999999999
 20
-3.5
 30
0.0
 11
-16.99999999999999
 21
-3.5
 31
0.0
  0
LINE
  5
5BC
330
18
100
AcDbEntity
  8
SK1
100
AcDbLine
 10
-16.99999999999999
 20
-3.499999999999964
 30
0.0
 11
-16.99999999999999
 21
-4.5
 31
0.0
  0
LINE
  5
5BD
330
18
100
AcDbEntity
  8
SK1
100
AcDbLine
 10
-26.54999999999999
 20
2.828427124746192
 30
0.0
 11
-16.99999999999999
 21
2.828427124746192
 31
0.0
  0
ARC
  5
5BE
330
18
100
AcDbEntity
  8
SK1
100
AcDbCircle
 10
-18.60494415543067
 20
-2.22113264543756
 30
0.0
 40
9.413623874689382
100
AcDbArc
 50
147.5615924265882
 51
153.1008352577529
  0
LINE
  5
5BF
330
18
100
AcDbEntity
  8
SK1
100
AcDbLine
 10
-26.54999999999999
 20
3.499999999999965
 30
0.0
 11
-26.54999999999998
 21
2.828427124746192
 31
0.0
  0
LINE
  5
5C0
330
18
100
AcDbEntity
  8
SK1
100
AcDbLine
 10
-26.99999999999999
 20
3.5
 30
0.0
 11
-26.54999999999999
 21
3.500000000000001
 31
0.0
  0
LINE
  5
5C1
330
18
100
AcDbEntity
  8
SK1
100
AcDbLine
 10
-16.99999999999999
 20
4.5
 30
0.0
 11
-16.99999999999999
 21
4.499790197742024
 31
0.0
  0
LINE
  5
5C2
330
18
100
AcDbEntity
  8
SK1
100
AcDbLine
 10
-16.99999999999999
 20
4.499790197742024
 30
0.0
 11
-16.99999999999999
 21
4.435752692613256
 31
0.0
  0
LINE
  5
5C3
330
18
100
AcDbEntity
  8
SK1
100
AcDbLine
 10
-16.99999999999999
 20
4.435752692613256
 30
0.0
 11
-16.99999999999999
 21
3.499999999999965
 31
0.0
  0
LINE
  5
5C4
330
18
100
AcDbEntity
  8
SK1
100
AcDbLine
 10
-26.54999999999999
 20
3.5
 30
0.0
 11
-16.99999999999999
 21
3.5
 31
0.0
  0
LINE
  5
5C5
330
18
100
AcDbEntity
  8
SK1
100
AcDbLine
 10
-26.99999999999999
 20
2.037768387231484
 30
0.0
 11
-26.99999999999999
 21
-2.037768387231482
 31
0.0
  0
LINE
  5
5C6
330
18
100
AcDbEntity
  8
SK1
100
AcDbLine
 10
-26.99999999999999
 20
3.499999999999999
 30
0.0
 11
-26.99999999999999
 21
2.037768387231484
 31
0.0
  0
LINE
  5
5C7
330
18
100
AcDbEntity
  8
SK1
100
AcDbLine
 10
-27.0
 20
-2.037768387231483
 30
0.0
 11
-27.0
 21
-3.499999999999998
 31
0.0
  0
ARC
  5
5C8
330
18
100
AcDbEntity
  8
SK1
100
AcDbCircle
 10
-18.60494415543041
 20
2.221132645437855
 30
0.0
 40
9.413623874689744
100
AcDbArc
 50
206.8991647422479
 51
212.4384075734124
  0
LINE
  5
5C9
330
18
100
AcDbEntity
  8
SK1
100
AcDbLine
 10
-26.99999999999999
 20
-3.5
 30
0.0
 11
-26.54999999999999
 21
-3.5
 31
0.0
  0
LINE
  5
5CA
330
18
100
AcDbEntity
  8
SK1
100
AcDbLine
 10
-26.54999999999999
 20
-2.828427124746232
 30
0.0
 11
-26.54999999999999
 21
-3.499999999999964
 31
0.0
  0
LINE
  5
5CB
330
18
100
AcDbEntity
  8
SK1
100
AcDbLine
 10
-16.99999999999999
 20
2.828427124746195
 30
0.0
 11
-16.99999999999999
 21
-2.828427124746189
 31
0.0
  0
LINE
  5
5CC
330
18
100
AcDbEntity
  8
SK1
100
AcDbLine
 10
-26.54999999999999
 20
-2.828427124746188
 30
0.0
 11
-16.99999999999999
 21
-2.828427124746188
 31
0.0
  0
LINE
  5
5CD
330
18
100
AcDbEntity
  8
SK1
100
AcDbLine
 10
0.0000000000000053
 20
4.5
 30
0.0
 11
-16.99999999999999
 21
4.5
 31
0.0
  0
LINE
  5
5CE
330
18
100
AcDbEntity
  8
SK1
100
AcDbLine
 10
-16.99999999999999
 20
-4.5
 30
0.0
 11
0.0000000000000018
 21
-4.5
 31
0.0
  0
DIMENSION
  5
5CF
330
18
100
AcDbEntity
  8
2
100
AcDbDimension
  2
*D0
 10
88.00000000000004
 20
-5.999999999999948
 30
0.0
 11
85.6022500000001
 21
-21.78449999999995
 31
0.0
 70
    32
  1
MF12x1.25
 71
     5
 42
12.0
  3
STANDARD
100
AcDbAlignedDimension
 13
73.0
 23
6.0
 33
0.0
 14
73.0
 24
-6.0
 34
0.0
 50
90.0000000000002
100
AcDbRotatedDimension
  0
DIMENSION
  5
5DD
330
18
100
AcDbEntity
  8
2
100
AcDbDimension
  2
*D1
 10
73.0
 20
75.0
 30
0.0
 11
36.5
 21
77.39075
 31
0.0
 70
    32
  1
<>
 71
     5
 42
73.0
  3
STANDARD
100
AcDbAlignedDimension
 13
0.0
 23
0.0
 33
0.0
 14
73.0
 24
0.0
 34
0.0
100
AcDbRotatedDimension
  0
DIMENSION
  5
5EA
330
18
100
AcDbEntity
  8
SK2
100
AcDbDimension
  2
*D2
 10
-41.99999999997703
 20
-4.500000000127585
 30
0.0
 11
-44.39074999999999
 21
-0.0000000001397857
 31
0.0
 70
    32
  1
%%c<>
 71
     5
 42
9.0
  3
STANDARD
100
AcDbAlignedDimension
 13
-16.99999999999999
 23
4.5
 33
0.0
 14
-16.99999999999999
 24
-4.5
 34
0.0
 50
90.0000000002924
100
AcDbRotatedDimension
  0
DIMENSION
  5
5F7
330
18
100
AcDbEntity
  8
2
100
AcDbDimension
  2
*D3
 10
73.0
 20
60.0
 30
0.0
 11
65.071058085
 21
62.39775
 31
0.0
 70
    32
  1
<>
 71
     5
 42
15.85788383
  3
STANDARD
100
AcDbAlignedDimension
 13
57.14211617
 23
4.35
 33
0.0
 14
73.0
 24
6.0
 34
0.0
100
AcDbRotatedDimension
  0
DIMENSION
  5
604
330
18
100
AcDbEntity
  8
SK2
100
AcDbDimension
  2
*D4
 10
74.92
 20
90.0
 30
0.0
 11
23.96
 21
92.39775
 31
0.0
 70
    32
  1
<>
 71
     5
 42
101.92
  3
STANDARD
100
AcDbAlignedDimension
 13
-27.0
 23
6.0
 33
0.0
 14
74.92
 24
6.0
 34
0.0
100
AcDbRotatedDimension
  0
ENDSEC
  0
SECTION
  2
OBJECTS
  0
DICTIONARY
  5
C
330
0
100
AcDbDictionary
281
     1
  3
ACAD_COLOR
350
387
  3
ACAD_GROUP
350
D
  3
ACAD_LAYOUT
350
301
  3
ACAD_MATERIAL
350
386
  3
ACAD_MLEADERSTYLE
350
611
  3
ACAD_MLINESTYLE
350
E
  3
ACAD_PLOTSETTINGS
350
302
  3
ACAD_PLOTSTYLENAME
350
2FF
  3
ACAD_SCALELIST
350
3A0
  3
ACAD_TABLESTYLE
350
388
  3
ACAD_VISUALSTYLE
350
3C5
  3
ACDBHEADERROUNDTRIPXREC
350
612
  3
AcDbVariableDictionary
350
357
  0
DICTIONARY
  5
387
102
{ACAD_REACTORS
330
C
102
}
330
C
100
AcDbDictionary
281
     1
  0
DICTIONARY
  5
D
102
{ACAD_REACTORS
330
C
102
}
330
C
100
AcDbDictionary
281
     1
  0
DICTIONARY
  5
301
102
{ACAD_REACTORS
330
C
102
}
330
C
100
AcDbDictionary
281
     1
  3
Layout1
350
33B
  3
Model
350
303
  0
DICTIONARY
  5
386
102
{ACAD_REACTORS
330
C
102
}
330
C
100
AcDbDictionary
281
     1
  3
ByBlock
350
3C3
  3
ByLayer
350
3C2
  3
Global
350
3C4
  0
DICTIONARY
  5
611
102
{ACAD_REACTORS
330
C
102
}
330
C
100
AcDbDictionary
281
     1
  0
DICTIONARY
  5
E
102
{ACAD_REACTORS
330
C
102
}
330
C
100
AcDbDictionary
281
     1
  3
STANDARD
350
1B
  0
DICTIONARY
  5
302
102
{ACAD_REACTORS
330
C
102
}
330
C
100
AcDbDictionary
281
     1
  0
ACDBDICTIONARYWDFLT
  5
2FF
102
{ACAD_REACTORS
330
C
102
}
330
C
100
AcDbDictionary
281
     1
  3
Normal
350
300
100
AcDbDictionaryWithDefault
340
300
  0
DICTIONARY
  5
3A0
102
{ACAD_REACTORS
330
C
102
}
330
C
100
AcDbDictionary
281
     1
  3
A0
350
3A1
  3
A1
350
3A2
  3
A2
350
3A3
  3
A3
350
3A4
  3
A4
350
3A5
  3
A5
350
3A6
  3
A6
350
3A7
  3
A7
350
3A8
  3
A8
350
3A9
  3
A9
350
3AA
  3
B0
350
3AB
  3
B1
350
3AC
  3
B2
350
3AD
  3
B3
350
3AE
  3
B4
350
3AF
  3
B5
350
3B0
  3
B6
350
3B1
  3
B7
350
3B2
  3
B8
350
3B3
  3
B9
350
3B4
  3
C0
350
3B5
  3
C1
350
3B6
  3
C2
350
3B7
  3
C3
350
3B8
  3
C4
350
3B9
  3
C5
350
3BA
  3
C6
350
3BB
  3
C7
350
3BC
  3
C8
350
3BD
  3
C9
350
3BE
  3
D0
350
3BF
  3
D1
350
3C0
  3
D2
350
3C1
  0
DICTIONARY
  5
388
102
{ACAD_REACTORS
330
C
102
}
330
C
100
AcDbDictionary
281
     1
  3
Standard
350
389
  0
DICTIONARY
  5
3C5
102
{ACAD_REACTORS
330
C
102
}
330
C
100
AcDbDictionary
281
     1
  3
2dWireframe
350
3CA
  3
3D Hidden
350
3CC
  3
3dWireframe
350
3CB
  3
Basic
350
3CD
  3
Brighten
350
3D1
  3
ColorChange
350
3D5
  3
Conceptual
350
3CF
  3
Dim
350
3D0
  3
Facepattern
350
3D4
  3
Flat
350
3C6
  3
FlatWithEdges
350
3C7
  3
Gouraud
350
3C8
  3
GouraudWithEdges
350
3C9
  3
Linepattern
350
3D3
  3
Realistic
350
3CE
  3
Thicken
350
3D2
  0
DICTIONARY
  5
612
102
{ACAD_REACTORS
330
C
102
}
330
C
100
AcDbDictionary
281
     1
  3
COLORDICT
350
613
  3
MATERIALDICT
350
614
  0
DICTIONARY
  5
357
102
{ACAD_REACTORS
330
C
102
}
330
C
100
AcDbDictionary
281
     1
  3
CANNOSCALE
350
615
  3
CTABLESTYLE
350
38D
  3
DIMASSOC
350
359
  3
HIDETEXT
350
358
  3
PROJECTNAME
350
38E
  0
LAYOUT
  5
33B
102
{ACAD_REACTORS
330
301
102
}
330
301
100
AcDbPlotSettings
  1

  2
Lexmark Optra PS2
  4

  6

 40
0.0
 41
0.0
 42
0.0
 43
0.0
 44
0.0
 45
0.0
 46
0.0
 47
0.0
 48
0.0
 49
0.0
140
0.0
141
0.0
142
1.0
143
1.0
 70
   688
 72
     0
 73
     0
 74
     5
  7
monochrome.ctb
 75
    16
147
1.0
148
0.0
149
0.0
100
AcDbLayout
  1
Layout1
 70
     1
 71
     1
 10
0.0
 20
0.0
 11
12.0
 21
9.0
 12
0.0
 22
0.0
 32
0.0
 14
0.0
 24
0.0
 34
0.0
 15
0.0
 25
0.0
 35
0.0
146
0.0
 13
0.0
 23
0.0
 33
0.0
 16
1.0
 26
0.0
 36
0.0
 17
0.0
 27
1.0
 37
0.0
 76
     0
330
338
  0
LAYOUT
  5
303
102
{ACAD_REACTORS
330
301
102
}
330
301
100
AcDbPlotSettings
  1

  2
Lexmark Optra Rx
  4
A4
  6

 40
6.805083274841307
 41
5.535083293914794
 42
6.974411010742187
 43
7.14373779296875
 44
209.9733276367186
 45
296.9259948730469
 46
0.0
 47
0.0
 48
0.0
 49
0.0
140
0.0
141
0.0
142
1.0
143
2.976565420630886
 70
 11952
 72
     1
 73
     1
 74
     0
  7
monochrome.ctb
 75
     0
147
0.335957675604539
148
204.1199660668592
149
172.3933209647495
100
AcDbLayout
  1
Model
 70
     1
 71
     0
 10
0.0
 20
0.0
 11
12.0
 21
9.0
 12
0.0
 22
0.0
 32
0.0
 14
0.0
 24
0.0
 34
0.0
 15
0.0
 25
0.0
 35
0.0
146
0.0
 13
0.0
 23
0.0
 33
0.0
 16
1.0
 26
0.0
 36
0.0
 17
0.0
 27
1.0
 37
0.0
 76
     0
330
18
331
39A
  0
MATERIAL
  5
3C3
102
{ACAD_REACTORS
330
386
102
}
102
{ACAD_XDICTIONARY
360
618
102
}
330
386
100
AcDbMaterial
  1
ByBlock
  0
MATERIAL
  5
3C2
102
{ACAD_REACTORS
330
386
102
}
102
{ACAD_XDICTIONARY
360
616
102
}
330
386
100
AcDbMaterial
  1
ByLayer
  0
MATERIAL
  5
3C4
102
{ACAD_REACTORS
330
386
102
}
102
{ACAD_XDICTIONARY
360
61A
102
}
330
386
100
AcDbMaterial
  1
Global
  0
MLINESTYLE
  5
1B
102
{ACAD_REACTORS
330
E
102
}
330
E
100
AcDbMlineStyle
  2
STANDARD
 70
     0
  3

 62
     0
 51
90.0
 52
90.0
 71
     2
 49
0.5
 62
   256
  6
BYLAYER
 49
-0.5
 62
   256
  6
BYLAYER
  0
ACDBPLACEHOLDER
  5
300
102
{ACAD_REACTORS
330
2FF
102
}
330
2FF
  0
SCALE
  5
3A1
102
{ACAD_REACTORS
330
3A0
102
}
330
3A0
100
AcDbScale
 70
     0
300
1:1
140
1.0
141
1.0
290
     1
  0
SCALE
  5
3A2
102
{ACAD_REACTORS
330
3A0
102
}
330
3A0
100
AcDbScale
 70
     0
300
1:2
140
1.0
141
2.0
290
     0
  0
SCALE
  5
3A3
102
{ACAD_REACTORS
330
3A0
102
}
330
3A0
100
AcDbScale
 70
     0
300
1:4
140
1.0
141
4.0
290
     0
  0
SCALE
  5
3A4
102
{ACAD_REACTORS
330
3A0
102
}
330
3A0
100
AcDbScale
 70
     0
300
1:5
140
1.0
141
5.0
290
     0
  0
SCALE
  5
3A5
102
{ACAD_REACTORS
330
3A0
102
}
330
3A0
100
AcDbScale
 70
     0
300
1:8
140
1.0
141
8.0
290
     0
  0
SCALE
  5
3A6
102
{ACAD_REACTORS
330
3A0
102
}
330
3A0
100
AcDbScale
 70
     0
300
1:10
140
1.0
141
10.0
290
     0
  0
SCALE
  5
3A7
102
{ACAD_REACTORS
330
3A0
102
}
330
3A0
100
AcDbScale
 70
     0
300
1:16
140
1.0
141
16.0
290
     0
  0
SCALE
  5
3A8
102
{ACAD_REACTORS
330
3A0
102
}
330
3A0
100
AcDbScale
 70
     0
300
1:20
140
1.0
141
20.0
290
     0
  0
SCALE
  5
3A9
102
{ACAD_REACTORS
330
3A0
102
}
330
3A0
100
AcDbScale
 70
     0
300
1:30
140
1.0
141
30.0
290
     0
  0
SCALE
  5
3AA
102
{ACAD_REACTORS
330
3A0
102
}
330
3A0
100
AcDbScale
 70
     0
300
1:40
140
1.0
141
40.0
290
     0
  0
SCALE
  5
3AB
102
{ACAD_REACTORS
330
3A0
102
}
330
3A0
100
AcDbScale
 70
     0
300
1:50
140
1.0
141
50.0
290
     0
  0
SCALE
  5
3AC
102
{ACAD_REACTORS
330
3A0
102
}
330
3A0
100
AcDbScale
 70
     0
300
1:100
140
1.0
141
100.0
290
     0
  0
SCALE
  5
3AD
102
{ACAD_REACTORS
330
3A0
102
}
330
3A0
100
AcDbScale
 70
     0
300
2:1
140
2.0
141
1.0
290
     0
  0
SCALE
  5
3AE
102
{ACAD_REACTORS
330
3A0
102
}
330
3A0
100
AcDbScale
 70
     0
300
4:1
140
4.0
141
1.0
290
     0
  0
SCALE
  5
3AF
102
{ACAD_REACTORS
330
3A0
102
}
330
3A0
100
AcDbScale
 70
     0
300
8:1
140
8.0
141
1.0
290
     0
  0
SCALE
  5
3B0
102
{ACAD_REACTORS
330
3A0
102
}
330
3A0
100
AcDbScale
 70
     0
300
10:1
140
10.0
141
1.0
290
     0
  0
SCALE
  5
3B1
102
{ACAD_REACTORS
330
3A0
102
}
330
3A0
100
AcDbScale
 70
     0
300
100:1
140
100.0
141
1.0
290
     0
  0
SCALE
  5
3B2
102
{ACAD_REACTORS
330
3A0
102
}
330
3A0
100
AcDbScale
 70
     0
300
1/128" = 1'-0"
140
0.0078125
141
12.0
290
     0
  0
SCALE
  5
3B3
102
{ACAD_REACTORS
330
3A0
102
}
330
3A0
100
AcDbScale
 70
     0
300
1/64" = 1'-0"
140
0.015625
141
12.0
290
     0
  0
SCALE
  5
3B4
102
{ACAD_REACTORS
330
3A0
102
}
330
3A0
100
AcDbScale
 70
     0
300
1/32" = 1'-0"
140
0.03125
141
12.0
290
     0
  0
SCALE
  5
3B5
102
{ACAD_REACTORS
330
3A0
102
}
330
3A0
100
AcDbScale
 70
     0
300
1/16" = 1'-0"
140
0.0625
141
12.0
290
     0
  0
SCALE
  5
3B6
102
{ACAD_REACTORS
330
3A0
102
}
330
3A0
100
AcDbScale
 70
     0
300
3/32" = 1'-0"
140
0.09375
141
12.0
290
     0
  0
SCALE
  5
3B7
102
{ACAD_REACTORS
330
3A0
102
}
330
3A0
100
AcDbScale
 70
     0
300
1/8" = 1'-0"
140
0.125
141
12.0
290
     0
  0
SCALE
  5
3B8
102
{ACAD_REACTORS
330
3A0
102
}
330
3A0
100
AcDbScale
 70
     0
300
3/16" = 1'-0"
140
0.1875
141
12.0
290
     0
  0
SCALE
  5
3B9
102
{ACAD_REACTORS
330
3A0
102
}
330
3A0
100
AcDbScale
 70
     0
300
1/4" = 1'-0"
140
0.25
141
12.0
290
     0
  0
SCALE
  5
3BA
102
{ACAD_REACTORS
330
3A0
102
}
330
3A0
100
AcDbScale
 70
     0
300
3/8" = 1'-0"
140
0.375
141
12.0
290
     0
  0
SCALE
  5
3BB
102
{ACAD_REACTORS
330
3A0
102
}
330
3A0
100
AcDbScale
 70
     0
300
1/2" = 1'-0"
140
0.5
141
12.0
290
     0
  0
SCALE
  5
3BC
102
{ACAD_REACTORS
330
3A0
102
}
330
3A0
100
AcDbScale
 70
     0
300
3/4" = 1'-0"
140
0.75
141
12.0
290
     0
  0
SCALE
  5
3BD
102
{ACAD_REACTORS
330
3A0
102
}
330
3A0
100
AcDbScale
 70
     0
300
1" = 1'-0"
140
1.0
141
12.0
290
     0
  0
SCALE
  5
3BE
102
{ACAD_REACTORS
330
3A0
102
}
330
3A0
100
AcDbScale
 70
     0
300
1-1/2" = 1'-0"
140
1.5
141
12.0
290
     0
  0
SCALE
  5
3BF
102
{ACAD_REACTORS
330
3A0
102
}
330
3A0
100
AcDbScale
 70
     0
300
3" = 1'-0"
140
3.0
141
12.0
290
     0
  0
SCALE
  5
3C0
102
{ACAD_REACTORS
330
3A0
102
}
330
3A0
100
AcDbScale
 70
     0
300
6" = 1'-0"
140
6.0
141
12.0
290
     0
  0
SCALE
  5
3C1
102
{ACAD_REACTORS
330
3A0
102
}
330
3A0
100
AcDbScale
 70
     0
300
1'-0" = 1'-0"
140
12.0
141
12.0
290
     0
  0
TABLESTYLE
  5
389
102
{ACAD_REACTORS
330
388
102
}
330
388
100
AcDbTableStyle
  3
Standard
 70
     0
 71
     0
 40
1.5
 41
1.5
280
     0
281
     0
  7
STANDARD
140
4.5
170
     2
 62
     0
 63
   257
283
     0
274
    -2
284
     1
 64
     0
275
    -2
285
     1
 65
     0
276
    -2
286
     1
 66
     0
277
    -2
287
     1
 67
     0
278
    -2
288
     1
 68
     0
279
    -2
289
     1
 69
     0
  7
STANDARD
140
6.0
170
     5
 62
     0
 63
   257
283
     0
274
    -2
284
     1
 64
     0
275
    -2
285
     1
 65
     0
276
    -2
286
     1
 66
     0
277
    -2
287
     1
 67
     0
278
    -2
288
     1
 68
     0
279
    -2
289
     1
 69
     0
  7
STANDARD
140
4.5
170
     5
 62
     0
 63
   257
283
     0
274
    -2
284
     1
 64
     0
275
    -2
285
     1
 65
     0
276
    -2
286
     1
 66
     0
277
    -2
287
     1
 67
     0
278
    -2
288
     1
 68
     0
279
    -2
289
     1
 69
     0
  0
VISUALSTYLE
  5
3CA
102
{ACAD_REACTORS
330
3C5
102
}
102
{ACAD_XDICTIONARY
360
624
102
}
330
3C5
100
AcDbVisualStyle
  2
2dWireframe
 70
     4
 71
     0
 72
     2
 73
     0
 90
        0
 40
-0.6
 41
-30.0
 62
     5
 63
     7
 74
     1
 91
        4
 64
     7
 65
   257
 75
     1
175
     1
 42
1.0
 92
        0
 66
   257
 43
1.0
 76
     1
 77
     6
 78
     2
 67
     7
 79
     5
170
     0
171
     0
290
     0
174
     0
 93
        1
 44
0.0
173
     0
291
     0
 45
0.0
1001
ACAD
1000
AcDbSavedByObjectVersion
1070
     0
  0
VISUALSTYLE
  5
3CC
102
{ACAD_REACTORS
330
3C5
102
}
102
{ACAD_XDICTIONARY
360
628
102
}
330
3C5
100
AcDbVisualStyle
  2
3D Hidden
 70
     6
 71
     1
 72
     2
 73
     2
 90
        0
 40
-0.6
 41
-30.0
 62
     5
 63
     7
 74
     2
 91
        2
 64
     7
 65
   257
 75
     2
175
     1
 42
40.0
 92
        0
 66
   257
 43
1.0
 76
     1
 77
     6
 78
     2
 67
     7
 79
     3
170
     0
171
     0
290
     0
174
     0
 93
        1
 44
0.0
173
     0
291
     0
 45
0.0
1001
ACAD
1000
AcDbSavedByObjectVersion
1070
     0
  0
VISUALSTYLE
  5
3CB
102
{ACAD_REACTORS
330
3C5
102
}
102
{ACAD_XDICTIONARY
360
626
102
}
330
3C5
100
AcDbVisualStyle
  2
3dWireframe
 70
     5
 71
     0
 72
     2
 73
     0
 90
        0
 40
-0.6
 41
-30.0
 62
     5
 63
     7
 74
     1
 91
        4
 64
     7
 65
   257
 75
     1
175
     1
 42
1.0
 92
        0
 66
   257
 43
1.0
 76
     1
 77
     6
 78
     2
 67
     7
 79
     5
170
     0
171
     0
290
     0
174
     0
 93
        1
 44
0.0
173
     0
291
     0
 45
0.0
1001
ACAD
1000
AcDbSavedByObjectVersion
1070
     0
  0
VISUALSTYLE
  5
3CD
102
{ACAD_REACTORS
330
3C5
102
}
102
{ACAD_XDICTIONARY
360
62A
102
}
330
3C5
100
AcDbVisualStyle
  2
Basic
 70
     7
 71
     1
 72
     0
 73
     1
 90
        0
 40
-0.6
 41
-30.0
 62
     5
 63
     7
 74
     0
 91
        4
 64
     7
 65
   257
 75
     1
175
     1
 42
1.0
 92
        8
 66
     7
 43
1.0
 76
     1
 77
     6
 78
     2
 67
     7
 79
     5
170
     0
171
     0
290
     0
174
     0
 93
        1
 44
0.0
173
     0
291
     1
 45
0.0
1001
ACAD
1000
AcDbSavedByObjectVersion
1070
     0
  0
VISUALSTYLE
  5
3D1
102
{ACAD_REACTORS
330
3C5
102
}
102
{ACAD_XDICTIONARY
360
632
102
}
330
3C5
100
AcDbVisualStyle
  2
Brighten
 70
    12
 71
     2
 72
     2
 73
     0
 90
        0
 40
-0.6
 41
-30.0
 62
     5
 63
     7
 74
     1
 91
        4
 64
     7
 65
   257
 75
     1
175
     1
 42
1.0
 92
        8
 66
     7
 43
1.0
 76
     1
 77
     6
 78
     2
 67
     7
 79
     5
170
     0
171
     0
290
     0
174
     0
 93
        1
 44
50.0
173
     0
291
     1
 45
0.0
1001
ACAD
1000
AcDbSavedByObjectVersion
1070
     0
  0
VISUALSTYLE
  5
3D5
102
{ACAD_REACTORS
330
3C5
102
}
102
{ACAD_XDICTIONARY
360
63A
102
}
330
3C5
100
AcDbVisualStyle
  2
ColorChange
 70
    16
 71
     2
 72
     2
 73
     3
 90
        0
 40
-0.6
 41
-30.0
 62
     5
 63
     8
 74
     1
 91
        4
 64
     7
 65
   257
 75
     1
175
     1
 42
1.0
 92
        8
 66
     8
 43
1.0
 76
     1
 77
     6
 78
     2
 67
     7
 79
     5
170
     0
171
     0
290
     0
174
     0
 93
        1
 44
0.0
173
     0
291
     1
 45
0.0
1001
ACAD
1000
AcDbSavedByObjectVersion
1070
     0
  0
VISUALSTYLE
  5
3CF
102
{ACAD_REACTORS
330
3C5
102
}
102
{ACAD_XDICTIONARY
360
62E
102
}
330
3C5
100
AcDbVisualStyle
  2
Conceptual
 70
     9
 71
     3
 72
     2
 73
     0
 90
        0
 40
-0.6
 41
-30.0
 62
     5
 63
     7
 74
     2
 91
        2
 64
     7
 65
   257
 75
     1
175
     1
 42
40.0
 92
        8
 66
     7
 43
1.0
 76
     1
 77
     6
 78
     2
 67
     7
 79
     3
170
     0
171
     0
290
     0
174
     0
 93
        1
 44
0.0
173
     0
291
     0
 45
0.0
1001
ACAD
1000
AcDbSavedByObjectVersion
1070
     0
  0
VISUALSTYLE
  5
3D0
102
{ACAD_REACTORS
330
3C5
102
}
102
{ACAD_XDICTIONARY
360
630
102
}
330
3C5
100
AcDbVisualStyle
  2
Dim
 70
    11
 71
     2
 72
     2
 73
     0
 90
        0
 40
-0.6
 41
-30.0
 62
     5
 63
     7
 74
     1
 91
        4
 64
     7
 65
   257
 75
     1
175
     1
 42
1.0
 92
        8
 66
     7
 43
1.0
 76
     1
 77
     6
 78
     2
 67
     7
 79
     5
170
     0
171
     0
290
     0
174
     0
 93
        1
 44
-50.0
173
     0
291
     1
 45
0.0
1001
ACAD
1000
AcDbSavedByObjectVersion
1070
     0
  0
VISUALSTYLE
  5
3D4
102
{ACAD_REACTORS
330
3C5
102
}
102
{ACAD_XDICTIONARY
360
638
102
}
330
3C5
100
AcDbVisualStyle
  2
Facepattern
 70
    15
 71
     2
 72
     2
 73
     0
 90
        0
 40
-0.6
 41
-30.0
 62
     5
 63
     7
 74
     1
 91
        4
 64
     7
 65
   257
 75
     1
175
     1
 42
1.0
 92
        8
 66
     7
 43
1.0
 76
     1
 77
     6
 78
     2
 67
     7
 79
     5
170
     0
171
     0
290
     0
174
     0
 93
        1
 44
0.0
173
     0
291
     1
 45
0.0
1001
ACAD
1000
AcDbSavedByObjectVersion
1070
     0
  0
VISUALSTYLE
  5
3C6
102
{ACAD_REACTORS
330
3C5
102
}
102
{ACAD_XDICTIONARY
360
61C
102
}
330
3C5
100
AcDbVisualStyle
  2
Flat
 70
     0
 71
     2
 72
     1
 73
     1
 90
        2
 40
-0.6
 41
30.0
 62
     5
 63
     7
 74
     0
 91
        4
 64
     7
 65
   257
 75
     1
175
     1
 42
1.0
 92
        8
 66
     7
 43
1.0
 76
     1
 77
     6
 78
     2
 67
     7
 79
     5
170
     0
171
     0
290
     0
174
     0
 93
       13
 44
0.0
173
     0
291
     1
 45
0.0
1001
ACAD
1000
AcDbSavedByObjectVersion
1070
     0
  0
VISUALSTYLE
  5
3C7
102
{ACAD_REACTORS
330
3C5
102
}
102
{ACAD_XDICTIONARY
360
61E
102
}
330
3C5
100
AcDbVisualStyle
  2
FlatWithEdges
 70
     1
 71
     2
 72
     1
 73
     1
 90
        2
 40
-0.6
 41
30.0
 62
     5
 63
     7
 74
     1
 91
        4
 64
     7
 65
   257
 75
     1
175
     1
 42
1.0
 92
        0
 66
   257
 43
1.0
 76
     1
 77
     6
 78
     2
 67
     7
 79
     5
170
     0
171
     0
290
     0
174
     0
 93
       13
 44
0.0
173
     0
291
     1
 45
0.0
1001
ACAD
1000
AcDbSavedByObjectVersion
1070
     0
  0
VISUALSTYLE
  5
3C8
102
{ACAD_REACTORS
330
3C5
102
}
102
{ACAD_XDICTIONARY
360
620
102
}
330
3C5
100
AcDbVisualStyle
  2
Gouraud
 70
     2
 71
     2
 72
     2
 73
     1
 90
        2
 40
-0.6
 41
30.0
 62
     5
 63
     7
 74
     0
 91
        4
 64
     7
 65
   257
 75
     1
175
     1
 42
1.0
 92
        0
 66
     7
 43
1.0
 76
     1
 77
     6
 78
     2
 67
     7
 79
     5
170
     0
171
     0
290
     0
174
     0
 93
       13
 44
0.0
173
     0
291
     1
 45
0.0
1001
ACAD
1000
AcDbSavedByObjectVersion
1070
     0
  0
VISUALSTYLE
  5
3C9
102
{ACAD_REACTORS
330
3C5
102
}
102
{ACAD_XDICTIONARY
360
622
102
}
330
3C5
100
AcDbVisualStyle
  2
GouraudWithEdges
 70
     3
 71
     2
 72
     2
 73
     1
 90
        2
 40
-0.6
 41
30.0
 62
     5
 63
     7
 74
     1
 91
        4
 64
     7
 65
   257
 75
     1
175
     1
 42
1.0
 92
        0
 66
   257
 43
1.0
 76
     1
 77
     6
 78
     2
 67
     7
 79
     5
170
     0
171
     0
290
     0
174
     0
 93
       13
 44
0.0
173
     0
291
     1
 45
0.0
1001
ACAD
1000
AcDbSavedByObjectVersion
1070
     0
  0
VISUALSTYLE
  5
3D3
102
{ACAD_REACTORS
330
3C5
102
}
102
{ACAD_XDICTIONARY
360
636
102
}
330
3C5
100
AcDbVisualStyle
  2
Linepattern
 70
    14
 71
     2
 72
     2
 73
     0
 90
        0
 40
-0.6
 41
-30.0
 62
     5
 63
     7
 74
     1
 91
        4
 64
     7
 65
   257
 75
     7
175
     7
 42
1.0
 92
        8
 66
     7
 43
1.0
 76
     1
 77
     6
 78
     2
 67
     7
 79
     5
170
     0
171
     0
290
     0
174
     0
 93
        1
 44
0.0
173
     0
291
     1
 45
0.0
1001
ACAD
1000
AcDbSavedByObjectVersion
1070
     0
  0
VISUALSTYLE
  5
3CE
102
{ACAD_REACTORS
330
3C5
102
}
102
{ACAD_XDICTIONARY
360
62C
102
}
330
3C5
100
AcDbVisualStyle
  2
Realistic
 70
     8
 71
     2
 72
     2
 73
     0
 90
        0
 40
-0.6
 41
-30.0
 62
     5
 63
     7
 74
     1
 91
        0
 64
     7
 65
   257
 75
     1
175
     1
 42
1.0
 92
        8
 66
     8
 43
1.0
 76
     1
 77
     6
 78
     2
 67
     7
 79
     5
170
     0
171
     0
290
     0
174
     0
 93
       13
 44
0.0
173
     0
291
     0
 45
0.0
1001
ACAD
1000
AcDbSavedByObjectVersion
1070
     0
  0
VISUALSTYLE
  5
3D2
102
{ACAD_REACTORS
330
3C5
102
}
102
{ACAD_XDICTIONARY
360
634
102
}
330
3C5
100
AcDbVisualStyle
  2
Thicken
 70
    13
 71
     2
 72
     2
 73
     0
 90
        0
 40
-0.6
 41
-30.0
 62
     5
 63
     7
 74
     1
 91
        4
 64
     7
 65
   257
 75
     1
175
     1
 42
1.0
 92
       12
 66
     7
 43
1.0
 76
     1
 77
     6
 78
     2
 67
     7
 79
     5
170
     0
171
     0
290
     0
174
     0
 93
        1
 44
0.0
173
     0
291
     1
 45
0.0
1001
ACAD
1000
AcDbSavedByObjectVersion
1070
     0
  0
XRECORD
  5
613
102
{ACAD_REACTORS
330
612
102
}
330
612
100
AcDbXrecord
280
     1
340
387
  0
XRECORD
  5
614
102
{ACAD_REACTORS
330
612
102
}
330
612
100
AcDbXrecord
280
     1
340
386
  0
DICTIONARYVAR
  5
615
102
{ACAD_REACTORS
330
357
102
}
330
357
100
DictionaryVariables
280
     0
  1
1:1
  0
DICTIONARYVAR
  5
38D
102
{ACAD_REACTORS
330
357
102
}
330
357
100
DictionaryVariables
280
     0
  1
Standard
  0
DICTIONARYVAR
  5
359
102
{ACAD_REACTORS
330
357
102
}
330
357
100
DictionaryVariables
280
     0
  1
2
  0
DICTIONARYVAR
  5
358
102
{ACAD_REACTORS
330
357
102
}
330
357
100
DictionaryVariables
280
     0
  1
1
  0
DICTIONARYVAR
  5
38E
102
{ACAD_REACTORS
330
357
102
}
330
357
100
DictionaryVariables
280
     0
  1

  0
DICTIONARY
  5
618
330
3C3
100
AcDbDictionary
280
     1
281
     1
  3
ACAD_XREC_ROUNDTRIP
360
619
  0
DICTIONARY
  5
616
330
3C2
100
AcDbDictionary
280
     1
281
     1
  3
ACAD_XREC_ROUNDTRIP
360
617
  0
DICTIONARY
  5
61A
330
3C4
100
AcDbDictionary
280
     1
281
     1
  3
ACAD_XREC_ROUNDTRIP
360
61B
  0
DICTIONARY
  5
624
330
3CA
100
AcDbDictionary
280
     1
281
     1
  3
ACAD_XREC_ROUNDTRIP
360
625
  0
DICTIONARY
  5
628
330
3CC
100
AcDbDictionary
280
     1
281
     1
  3
ACAD_XREC_ROUNDTRIP
360
629
  0
DICTIONARY
  5
626
330
3CB
100
AcDbDictionary
280
     1
281
     1
  3
ACAD_XREC_ROUNDTRIP
360
627
  0
DICTIONARY
  5
62A
330
3CD
100
AcDbDictionary
280
     1
281
     1
  3
ACAD_XREC_ROUNDTRIP
360
62B
  0
DICTIONARY
  5
632
330
3D1
100
AcDbDictionary
280
     1
281
     1
  3
ACAD_XREC_ROUNDTRIP
360
633
  0
DICTIONARY
  5
63A
330
3D5
100
AcDbDictionary
280
     1
281
     1
  3
ACAD_XREC_ROUNDTRIP
360
63B
  0
DICTIONARY
  5
62E
330
3CF
100
AcDbDictionary
280
     1
281
     1
  3
ACAD_XREC_ROUNDTRIP
360
62F
  0
DICTIONARY
  5
630
330
3D0
100
AcDbDictionary
280
     1
281
     1
  3
ACAD_XREC_ROUNDTRIP
360
631
  0
DICTIONARY
  5
638
330
3D4
100
AcDbDictionary
280
     1
281
     1
  3
ACAD_XREC_ROUNDTRIP
360
639
  0
DICTIONARY
  5
61C
330
3C6
100
AcDbDictionary
280
     1
281
     1
  3
ACAD_XREC_ROUNDTRIP
360
61D
  0
DICTIONARY
  5
61E
330
3C7
100
AcDbDictionary
280
     1
281
     1
  3
ACAD_XREC_ROUNDTRIP
360
61F
  0
DICTIONARY
  5
620
330
3C8
100
AcDbDictionary
280
     1
281
     1
  3
ACAD_XREC_ROUNDTRIP
360
621
  0
DICTIONARY
  5
622
330
3C9
100
AcDbDictionary
280
     1
281
     1
  3
ACAD_XREC_ROUNDTRIP
360
623
  0
DICTIONARY
  5
636
330
3D3
100
AcDbDictionary
280
     1
281
     1
  3
ACAD_XREC_ROUNDTRIP
360
637
  0
DICTIONARY
  5
62C
330
3CE
100
AcDbDictionary
280
     1
281
     1
  3
ACAD_XREC_ROUNDTRIP
360
62D
  0
DICTIONARY
  5
634
330
3D2
100
AcDbDictionary
280
     1
281
     1
  3
ACAD_XREC_ROUNDTRIP
360
635
  0
XRECORD
  5
619
102
{ACAD_REACTORS
330
618
102
}
330
618
100
AcDbXrecord
280
     1
102
MATERIAL
148
0.0
149
0.0
149
0.0
 93
        0
 94
      127
282
     0
 72
     1
 77
     1
171
     1
175
     1
179
     1
273
     0
  0
XRECORD
  5
617
102
{ACAD_REACTORS
330
616
102
}
330
616
100
AcDbXrecord
280
     1
102
MATERIAL
148
0.0
149
0.0
149
0.0
 93
        0
 94
      127
282
     0
 72
     1
 77
     1
171
     1
175
     1
179
     1
273
     0
  0
XRECORD
  5
61B
102
{ACAD_REACTORS
330
61A
102
}
330
61A
100
AcDbXrecord
280
     1
102
MATERIAL
148
0.0
149
0.0
149
0.0
 93
        0
 94
      127
282
     0
 72
     1
 77
     1
171
     1
175
     1
179
     1
273
     0
  0
XRECORD
  5
625
102
{ACAD_REACTORS
330
624
102
}
330
624
100
AcDbXrecord
280
     1
102
RTVSPropertyOp0
 70
     1
102
RTVSPropertyOp1
 70
     1
102
RTVSPropertyOp2
 70
     1
102
RTVSPropertyOp3
 70
     1
102
RTVSPropertyOp4
 70
     1
102
RTVSPropertyOp5
 70
     1
102
RTVSPropertyOp6
 70
     1
102
RTVSPropertyOp7
 70
     1
102
RTVSPropertyOp8
 70
     1
102
RTVSPropertyOp9
 70
     1
102
RTVSPropertyOp10
 70
     1
102
RTVSPropertyOp11
 70
     1
102
RTVSPropertyOp12
 70
     1
102
RTVSPropertyOp13
 70
     1
102
RTVSPropertyOp14
 70
     1
102
RTVSPropertyOp15
 70
     1
102
RTVSPropertyOp16
 70
     1
102
RTVSPropertyOp17
 70
     1
102
RTVSPropertyOp18
 70
     1
102
RTVSPropertyOp19
 70
     1
102
RTVSPropertyOp20
 70
     1
102
RTVSPropertyOp21
 70
     1
102
RTVSPropertyOp22
 70
     1
102
RTVSPropertyOp23
 70
     1
102
RTVSPropertyOp24
 70
     1
102
RTVSPropertyOp25
 70
     1
102
RTVSPropertyOp26
 70
     1
102
RTVSPropertyOp27
 70
     1
102
RTVSPropertyOp28
 70
     1
102
RTVSPropertyOp29
 70
     1
102
RTVSPropertyOp30
 70
     1
102
RTVSPropertyOp31
 70
     1
102
RTVSPropertyOp32
 70
     1
  0
XRECORD
  5
629
102
{ACAD_REACTORS
330
628
102
}
330
628
100
AcDbXrecord
280
     1
102
RTVSPropertyOp0
 70
     1
102
RTVSPropertyOp1
 70
     1
102
RTVSPropertyOp2
 70
     1
102
RTVSPropertyOp3
 70
     1
102
RTVSPropertyOp4
 70
     1
102
RTVSPropertyOp5
 70
     1
102
RTVSPropertyOp6
 70
     1
102
RTVSPropertyOp7
 70
     1
102
RTVSPropertyOp8
 70
     1
102
RTVSPropertyOp9
 70
     1
102
RTVSPropertyOp10
 70
     1
102
RTVSPropertyOp11
 70
     1
102
RTVSPropertyOp12
 70
     1
102
RTVSPropertyOp13
 70
     1
102
RTVSPropertyOp14
 70
     1
102
RTVSPropertyOp15
 70
     1
102
RTVSPropertyOp16
 70
     1
102
RTVSPropertyOp17
 70
     1
102
RTVSPropertyOp18
 70
     1
102
RTVSPropertyOp19
 70
     1
102
RTVSPropertyOp20
 70
     1
102
RTVSPropertyOp21
 70
     1
102
RTVSPropertyOp22
 70
     1
102
RTVSPropertyOp23
 70
     1
102
RTVSPropertyOp24
 70
     1
102
RTVSPropertyOp25
 70
     1
102
RTVSPropertyOp26
 70
     1
102
RTVSPropertyOp27
 70
     1
102
RTVSPropertyOp28
 70
     1
102
RTVSPropertyOp29
 70
     1
102
RTVSPropertyOp30
 70
     1
102
RTVSPropertyOp31
 70
     1
102
RTVSPropertyOp32
 70
     1
  0
XRECORD
  5
627
102
{ACAD_REACTORS
330
626
102
}
330
626
100
AcDbXrecord
280
     1
102
RTVSPropertyOp0
 70
     1
102
RTVSPropertyOp1
 70
     1
102
RTVSPropertyOp2
 70
     1
102
RTVSPropertyOp3
 70
     1
102
RTVSPropertyOp4
 70
     1
102
RTVSPropertyOp5
 70
     1
102
RTVSPropertyOp6
 70
     1
102
RTVSPropertyOp7
 70
     1
102
RTVSPropertyOp8
 70
     1
102
RTVSPropertyOp9
 70
     1
102
RTVSPropertyOp10
 70
     1
102
RTVSPropertyOp11
 70
     1
102
RTVSPropertyOp12
 70
     1
102
RTVSPropertyOp13
 70
     1
102
RTVSPropertyOp14
 70
     1
102
RTVSPropertyOp15
 70
     1
102
RTVSPropertyOp16
 70
     1
102
RTVSPropertyOp17
 70
     1
102
RTVSPropertyOp18
 70
     1
102
RTVSPropertyOp19
 70
     1
102
RTVSPropertyOp20
 70
     1
102
RTVSPropertyOp21
 70
     1
102
RTVSPropertyOp22
 70
     1
102
RTVSPropertyOp23
 70
     1
102
RTVSPropertyOp24
 70
     1
102
RTVSPropertyOp25
 70
     1
102
RTVSPropertyOp26
 70
     1
102
RTVSPropertyOp27
 70
     1
102
RTVSPropertyOp28
 70
     1
102
RTVSPropertyOp29
 70
     1
102
RTVSPropertyOp30
 70
     1
102
RTVSPropertyOp31
 70
     1
102
RTVSPropertyOp32
 70
     1
  0
XRECORD
  5
62B
102
{ACAD_REACTORS
330
62A
102
}
330
62A
100
AcDbXrecord
280
     1
102
RTVSPropertyOp0
 70
     1
102
RTVSPropertyOp1
 70
     1
102
RTVSPropertyOp2
 70
     1
102
RTVSPropertyOp3
 70
     1
102
RTVSPropertyOp4
 70
     1
102
RTVSPropertyOp5
 70
     1
102
RTVSPropertyOp6
 70
     1
102
RTVSPropertyOp7
 70
     1
102
RTVSPropertyOp8
 70
     1
102
RTVSPropertyOp9
 70
     1
102
RTVSPropertyOp10
 70
     1
102
RTVSPropertyOp11
 70
     1
102
RTVSPropertyOp12
 70
     1
102
RTVSPropertyOp13
 70
     1
102
RTVSPropertyOp14
 70
     1
102
RTVSPropertyOp15
 70
     1
102
RTVSPropertyOp16
 70
     1
102
RTVSPropertyOp17
 70
     1
102
RTVSPropertyOp18
 70
     1
102
RTVSPropertyOp19
 70
     1
102
RTVSPropertyOp20
 70
     1
102
RTVSPropertyOp21
 70
     1
102
RTVSPropertyOp22
 70
     1
102
RTVSPropertyOp23
 70
     1
102
RTVSPropertyOp24
 70
     1
102
RTVSPropertyOp25
 70
     1
102
RTVSPropertyOp26
 70
     1
102
RTVSPropertyOp27
 70
     1
102
RTVSPropertyOp28
 70
     1
102
RTVSPropertyOp29
 70
     1
102
RTVSPropertyOp30
 70
     1
102
RTVSPropertyOp31
 70
     1
102
RTVSPropertyOp32
 70
     1
  0
XRECORD
  5
633
102
{ACAD_REACTORS
330
632
102
}
330
632
100
AcDbXrecord
280
     1
102
RTVSPropertyOp0
 70
     1
102
RTVSPropertyOp1
 70
     1
102
RTVSPropertyOp2
 70
     1
102
RTVSPropertyOp3
 70
     1
102
RTVSPropertyOp4
 70
     1
102
RTVSPropertyOp5
 70
     1
102
RTVSPropertyOp6
 70
     1
102
RTVSPropertyOp7
 70
     1
102
RTVSPropertyOp8
 70
     1
102
RTVSPropertyOp9
 70
     1
102
RTVSPropertyOp10
 70
     1
102
RTVSPropertyOp11
 70
     1
102
RTVSPropertyOp12
 70
     1
102
RTVSPropertyOp13
 70
     1
102
RTVSPropertyOp14
 70
     1
102
RTVSPropertyOp15
 70
     1
102
RTVSPropertyOp16
 70
     1
102
RTVSPropertyOp17
 70
     1
102
RTVSPropertyOp18
 70
     1
102
RTVSPropertyOp19
 70
     1
102
RTVSPropertyOp20
 70
     1
102
RTVSPropertyOp21
 70
     1
102
RTVSPropertyOp22
 70
     1
102
RTVSPropertyOp23
 70
     1
102
RTVSPropertyOp24
 70
     1
102
RTVSPropertyOp25
 70
     1
102
RTVSPropertyOp26
 70
     1
102
RTVSPropertyOp27
 70
     1
102
RTVSPropertyOp28
 70
     1
102
RTVSPropertyOp29
 70
     1
102
RTVSPropertyOp30
 70
     1
102
RTVSPropertyOp31
 70
     1
102
RTVSPropertyOp32
 70
     1
  0
XRECORD
  5
63B
102
{ACAD_REACTORS
330
63A
102
}
330
63A
100
AcDbXrecord
280
     1
102
RTVSPropertyOp0
 70
     1
102
RTVSPropertyOp1
 70
     1
102
RTVSPropertyOp2
 70
     1
102
RTVSPropertyOp3
 70
     1
102
RTVSPropertyOp4
 70
     1
102
RTVSPropertyOp5
 70
     1
102
RTVSPropertyOp6
 70
     1
102
RTVSPropertyOp7
 70
     1
102
RTVSPropertyOp8
 70
     1
102
RTVSPropertyOp9
 70
     1
102
RTVSPropertyOp10
 70
     1
102
RTVSPropertyOp11
 70
     1
102
RTVSPropertyOp12
 70
     1
102
RTVSPropertyOp13
 70
     1
102
RTVSPropertyOp14
 70
     1
102
RTVSPropertyOp15
 70
     1
102
RTVSPropertyOp16
 70
     1
102
RTVSPropertyOp17
 70
     1
102
RTVSPropertyOp18
 70
     1
102
RTVSPropertyOp19
 70
     1
102
RTVSPropertyOp20
 70
     1
102
RTVSPropertyOp21
 70
     1
102
RTVSPropertyOp22
 70
     1
102
RTVSPropertyOp23
 70
     1
102
RTVSPropertyOp24
 70
     1
102
RTVSPropertyOp25
 70
     1
102
RTVSPropertyOp26
 70
     1
102
RTVSPropertyOp27
 70
     1
102
RTVSPropertyOp28
 70
     1
102
RTVSPropertyOp29
 70
     1
102
RTVSPropertyOp30
 70
     1
102
RTVSPropertyOp31
 70
     1
102
RTVSPropertyOp32
 70
     1
  0
XRECORD
  5
62F
102
{ACAD_REACTORS
330
62E
102
}
330
62E
100
AcDbXrecord
280
     1
102
RTVSPropertyOp0
 70
     1
102
RTVSPropertyOp1
 70
     1
102
RTVSPropertyOp2
 70
     1
102
RTVSPropertyOp3
 70
     1
102
RTVSPropertyOp4
 70
     1
102
RTVSPropertyOp5
 70
     1
102
RTVSPropertyOp6
 70
     1
102
RTVSPropertyOp7
 70
     1
102
RTVSPropertyOp8
 70
     1
102
RTVSPropertyOp9
 70
     1
102
RTVSPropertyOp10
 70
     1
102
RTVSPropertyOp11
 70
     1
102
RTVSPropertyOp12
 70
     1
102
RTVSPropertyOp13
 70
     1
102
RTVSPropertyOp14
 70
     1
102
RTVSPropertyOp15
 70
     1
102
RTVSPropertyOp16
 70
     1
102
RTVSPropertyOp17
 70
     1
102
RTVSPropertyOp18
 70
     1
102
RTVSPropertyOp19
 70
     1
102
RTVSPropertyOp20
 70
     1
102
RTVSPropertyOp21
 70
     1
102
RTVSPropertyOp22
 70
     1
102
RTVSPropertyOp23
 70
     1
102
RTVSPropertyOp24
 70
     1
102
RTVSPropertyOp25
 70
     1
102
RTVSPropertyOp26
 70
     1
102
RTVSPropertyOp27
 70
     1
102
RTVSPropertyOp28
 70
     1
102
RTVSPropertyOp29
 70
     1
102
RTVSPropertyOp30
 70
     1
102
RTVSPropertyOp31
 70
     1
102
RTVSPropertyOp32
 70
     1
  0
XRECORD
  5
631
102
{ACAD_REACTORS
330
630
102
}
330
630
100
AcDbXrecord
280
     1
102
RTVSPropertyOp0
 70
     1
102
RTVSPropertyOp1
 70
     1
102
RTVSPropertyOp2
 70
     1
102
RTVSPropertyOp3
 70
     1
102
RTVSPropertyOp4
 70
     1
102
RTVSPropertyOp5
 70
     1
102
RTVSPropertyOp6
 70
     1
102
RTVSPropertyOp7
 70
     1
102
RTVSPropertyOp8
 70
     1
102
RTVSPropertyOp9
 70
     1
102
RTVSPropertyOp10
 70
     1
102
RTVSPropertyOp11
 70
     1
102
RTVSPropertyOp12
 70
     1
102
RTVSPropertyOp13
 70
     1
102
RTVSPropertyOp14
 70
     1
102
RTVSPropertyOp15
 70
     1
102
RTVSPropertyOp16
 70
     1
102
RTVSPropertyOp17
 70
     1
102
RTVSPropertyOp18
 70
     1
102
RTVSPropertyOp19
 70
     1
102
RTVSPropertyOp20
 70
     1
102
RTVSPropertyOp21
 70
     1
102
RTVSPropertyOp22
 70
     1
102
RTVSPropertyOp23
 70
     1
102
RTVSPropertyOp24
 70
     1
102
RTVSPropertyOp25
 70
     1
102
RTVSPropertyOp26
 70
     1
102
RTVSPropertyOp27
 70
     1
102
RTVSPropertyOp28
 70
     1
102
RTVSPropertyOp29
 70
     1
102
RTVSPropertyOp30
 70
     1
102
RTVSPropertyOp31
 70
     1
102
RTVSPropertyOp32
 70
     1
  0
XRECORD
  5
639
102
{ACAD_REACTORS
330
638
102
}
330
638
100
AcDbXrecord
280
     1
102
RTVSPropertyOp0
 70
     1
102
RTVSPropertyOp1
 70
     1
102
RTVSPropertyOp2
 70
     1
102
RTVSPropertyOp3
 70
     1
102
RTVSPropertyOp4
 70
     1
102
RTVSPropertyOp5
 70
     1
102
RTVSPropertyOp6
 70
     1
102
RTVSPropertyOp7
 70
     1
102
RTVSPropertyOp8
 70
     1
102
RTVSPropertyOp9
 70
     1
102
RTVSPropertyOp10
 70
     1
102
RTVSPropertyOp11
 70
     1
102
RTVSPropertyOp12
 70
     1
102
RTVSPropertyOp13
 70
     1
102
RTVSPropertyOp14
 70
     1
102
RTVSPropertyOp15
 70
     1
102
RTVSPropertyOp16
 70
     1
102
RTVSPropertyOp17
 70
     1
102
RTVSPropertyOp18
 70
     1
102
RTVSPropertyOp19
 70
     1
102
RTVSPropertyOp20
 70
     1
102
RTVSPropertyOp21
 70
     1
102
RTVSPropertyOp22
 70
     1
102
RTVSPropertyOp23
 70
     1
102
RTVSPropertyOp24
 70
     1
102
RTVSPropertyOp25
 70
     1
102
RTVSPropertyOp26
 70
     1
102
RTVSPropertyOp27
 70
     1
102
RTVSPropertyOp28
 70
     1
102
RTVSPropertyOp29
 70
     1
102
RTVSPropertyOp30
 70
     1
102
RTVSPropertyOp31
 70
     1
102
RTVSPropertyOp32
 70
     1
  0
XRECORD
  5
61D
102
{ACAD_REACTORS
330
61C
102
}
330
61C
100
AcDbXrecord
280
     1
102
RTVSPropertyOp0
 70
     1
102
RTVSPropertyOp1
 70
     1
102
RTVSPropertyOp2
 70
     1
102
RTVSPropertyOp3
 70
     1
102
RTVSPropertyOp4
 70
     1
102
RTVSPropertyOp5
 70
     1
102
RTVSPropertyOp6
 70
     1
102
RTVSPropertyOp7
 70
     1
102
RTVSPropertyOp8
 70
     1
102
RTVSPropertyOp9
 70
     1
102
RTVSPropertyOp10
 70
     1
102
RTVSPropertyOp11
 70
     1
102
RTVSPropertyOp12
 70
     1
102
RTVSPropertyOp13
 70
     1
102
RTVSPropertyOp14
 70
     1
102
RTVSPropertyOp15
 70
     1
102
RTVSPropertyOp16
 70
     1
102
RTVSPropertyOp17
 70
     1
102
RTVSPropertyOp18
 70
     1
102
RTVSPropertyOp19
 70
     1
102
RTVSPropertyOp20
 70
     1
102
RTVSPropertyOp21
 70
     1
102
RTVSPropertyOp22
 70
     1
102
RTVSPropertyOp23
 70
     1
102
RTVSPropertyOp24
 70
     1
102
RTVSPropertyOp25
 70
     1
102
RTVSPropertyOp26
 70
     1
102
RTVSPropertyOp27
 70
     1
102
RTVSPropertyOp28
 70
     1
102
RTVSPropertyOp29
 70
     1
102
RTVSPropertyOp30
 70
     1
102
RTVSPropertyOp31
 70
     1
102
RTVSPropertyOp32
 70
     1
  0
XRECORD
  5
61F
102
{ACAD_REACTORS
330
61E
102
}
330
61E
100
AcDbXrecord
280
     1
102
RTVSPropertyOp0
 70
     1
102
RTVSPropertyOp1
 70
     1
102
RTVSPropertyOp2
 70
     1
102
RTVSPropertyOp3
 70
     1
102
RTVSPropertyOp4
 70
     1
102
RTVSPropertyOp5
 70
     1
102
RTVSPropertyOp6
 70
     1
102
RTVSPropertyOp7
 70
     1
102
RTVSPropertyOp8
 70
     1
102
RTVSPropertyOp9
 70
     1
102
RTVSPropertyOp10
 70
     1
102
RTVSPropertyOp11
 70
     1
102
RTVSPropertyOp12
 70
     1
102
RTVSPropertyOp13
 70
     1
102
RTVSPropertyOp14
 70
     1
102
RTVSPropertyOp15
 70
     1
102
RTVSPropertyOp16
 70
     1
102
RTVSPropertyOp17
 70
     1
102
RTVSPropertyOp18
 70
     1
102
RTVSPropertyOp19
 70
     1
102
RTVSPropertyOp20
 70
     1
102
RTVSPropertyOp21
 70
     1
102
RTVSPropertyOp22
 70
     1
102
RTVSPropertyOp23
 70
     1
102
RTVSPropertyOp24
 70
     1
102
RTVSPropertyOp25
 70
     1
102
RTVSPropertyOp26
 70
     1
102
RTVSPropertyOp27
 70
     1
102
RTVSPropertyOp28
 70
     1
102
RTVSPropertyOp29
 70
     1
102
RTVSPropertyOp30
 70
     1
102
RTVSPropertyOp31
 70
     1
102
RTVSPropertyOp32
 70
     1
  0
XRECORD
  5
621
102
{ACAD_REACTORS
330
620
102
}
330
620
100
AcDbXrecord
280
     1
102
RTVSPropertyOp0
 70
     1
102
RTVSPropertyOp1
 70
     1
102
RTVSPropertyOp2
 70
     1
102
RTVSPropertyOp3
 70
     1
102
RTVSPropertyOp4
 70
     1
102
RTVSPropertyOp5
 70
     1
102
RTVSPropertyOp6
 70
     1
102
RTVSPropertyOp7
 70
     1
102
RTVSPropertyOp8
 70
     1
102
RTVSPropertyOp9
 70
     1
102
RTVSPropertyOp10
 70
     1
102
RTVSPropertyOp11
 70
     1
102
RTVSPropertyOp12
 70
     1
102
RTVSPropertyOp13
 70
     1
102
RTVSPropertyOp14
 70
     1
102
RTVSPropertyOp15
 70
     1
102
RTVSPropertyOp16
 70
     1
102
RTVSPropertyOp17
 70
     1
102
RTVSPropertyOp18
 70
     1
102
RTVSPropertyOp19
 70
     1
102
RTVSPropertyOp20
 70
     1
102
RTVSPropertyOp21
 70
     1
102
RTVSPropertyOp22
 70
     1
102
RTVSPropertyOp23
 70
     1
102
RTVSPropertyOp24
 70
     1
102
RTVSPropertyOp25
 70
     1
102
RTVSPropertyOp26
 70
     1
102
RTVSPropertyOp27
 70
     1
102
RTVSPropertyOp28
 70
     1
102
RTVSPropertyOp29
 70
     1
102
RTVSPropertyOp30
 70
     1
102
RTVSPropertyOp31
 70
     1
102
RTVSPropertyOp32
 70
     1
  0
XRECORD
  5
623
102
{ACAD_REACTORS
330
622
102
}
330
622
100
AcDbXrecord
280
     1
102
RTVSPropertyOp0
 70
     1
102
RTVSPropertyOp1
 70
     1
102
RTVSPropertyOp2
 70
     1
102
RTVSPropertyOp3
 70
     1
102
RTVSPropertyOp4
 70
     1
102
RTVSPropertyOp5
 70
     1
102
RTVSPropertyOp6
 70
     1
102
RTVSPropertyOp7
 70
     1
102
RTVSPropertyOp8
 70
     1
102
RTVSPropertyOp9
 70
     1
102
RTVSPropertyOp10
 70
     1
102
RTVSPropertyOp11
 70
     1
102
RTVSPropertyOp12
 70
     1
102
RTVSPropertyOp13
 70
     1
102
RTVSPropertyOp14
 70
     1
102
RTVSPropertyOp15
 70
     1
102
RTVSPropertyOp16
 70
     1
102
RTVSPropertyOp17
 70
     1
102
RTVSPropertyOp18
 70
     1
102
RTVSPropertyOp19
 70
     1
102
RTVSPropertyOp20
 70
     1
102
RTVSPropertyOp21
 70
     1
102
RTVSPropertyOp22
 70
     1
102
RTVSPropertyOp23
 70
     1
102
RTVSPropertyOp24
 70
     1
102
RTVSPropertyOp25
 70
     1
102
RTVSPropertyOp26
 70
     1
102
RTVSPropertyOp27
 70
     1
102
RTVSPropertyOp28
 70
     1
102
RTVSPropertyOp29
 70
     1
102
RTVSPropertyOp30
 70
     1
102
RTVSPropertyOp31
 70
     1
102
RTVSPropertyOp32
 70
     1
  0
XRECORD
  5
637
102
{ACAD_REACTORS
330
636
102
}
330
636
100
AcDbXrecord
280
     1
102
RTVSPropertyOp0
 70
     1
102
RTVSPropertyOp1
 70
     1
102
RTVSPropertyOp2
 70
     1
102
RTVSPropertyOp3
 70
     1
102
RTVSPropertyOp4
 70
     1
102
RTVSPropertyOp5
 70
     1
102
RTVSPropertyOp6
 70
     1
102
RTVSPropertyOp7
 70
     1
102
RTVSPropertyOp8
 70
     1
102
RTVSPropertyOp9
 70
     1
102
RTVSPropertyOp10
 70
     1
102
RTVSPropertyOp11
 70
     1
102
RTVSPropertyOp12
 70
     1
102
RTVSPropertyOp13
 70
     1
102
RTVSPropertyOp14
 70
     1
102
RTVSPropertyOp15
 70
     1
102
RTVSPropertyOp16
 70
     1
102
RTVSPropertyOp17
 70
     1
102
RTVSPropertyOp18
 70
     1
102
RTVSPropertyOp19
 70
     1
102
RTVSPropertyOp20
 70
     1
102
RTVSPropertyOp21
 70
     1
102
RTVSPropertyOp22
 70
     1
102
RTVSPropertyOp23
 70
     1
102
RTVSPropertyOp24
 70
     1
102
RTVSPropertyOp25
 70
     1
102
RTVSPropertyOp26
 70
     1
102
RTVSPropertyOp27
 70
     1
102
RTVSPropertyOp28
 70
     1
102
RTVSPropertyOp29
 70
     1
102
RTVSPropertyOp30
 70
     1
102
RTVSPropertyOp31
 70
     1
102
RTVSPropertyOp32
 70
     1
  0
XRECORD
  5
62D
102
{ACAD_REACTORS
330
62C
102
}
330
62C
100
AcDbXrecord
280
     1
102
RTVSPropertyOp0
 70
     1
102
RTVSPropertyOp1
 70
     1
102
RTVSPropertyOp2
 70
     1
102
RTVSPropertyOp3
 70
     1
102
RTVSPropertyOp4
 70
     1
102
RTVSPropertyOp5
 70
     1
102
RTVSPropertyOp6
 70
     1
102
RTVSPropertyOp7
 70
     1
102
RTVSPropertyOp8
 70
     1
102
RTVSPropertyOp9
 70
     1
102
RTVSPropertyOp10
 70
     1
102
RTVSPropertyOp11
 70
     1
102
RTVSPropertyOp12
 70
     1
102
RTVSPropertyOp13
 70
     1
102
RTVSPropertyOp14
 70
     1
102
RTVSPropertyOp15
 70
     1
102
RTVSPropertyOp16
 70
     1
102
RTVSPropertyOp17
 70
     1
102
RTVSPropertyOp18
 70
     1
102
RTVSPropertyOp19
 70
     1
102
RTVSPropertyOp20
 70
     1
102
RTVSPropertyOp21
 70
     1
102
RTVSPropertyOp22
 70
     1
102
RTVSPropertyOp23
 70
     1
102
RTVSPropertyOp24
 70
     1
102
RTVSPropertyOp25
 70
     1
102
RTVSPropertyOp26
 70
     1
102
RTVSPropertyOp27
 70
     1
102
RTVSPropertyOp28
 70
     1
102
RTVSPropertyOp29
 70
     1
102
RTVSPropertyOp30
 70
     1
102
RTVSPropertyOp31
 70
     1
102
RTVSPropertyOp32
 70
     1
  0
XRECORD
  5
635
102
{ACAD_REACTORS
330
634
102
}
330
634
100
AcDbXrecord
280
     1
102
RTVSPropertyOp0
 70
     1
102
RTVSPropertyOp1
 70
     1
102
RTVSPropertyOp2
 70
     1
102
RTVSPropertyOp3
 70
     1
102
RTVSPropertyOp4
 70
     1
102
RTVSPropertyOp5
 70
     1
102
RTVSPropertyOp6
 70
     1
102
RTVSPropertyOp7
 70
     1
102
RTVSPropertyOp8
 70
     1
102
RTVSPropertyOp9
 70
     1
102
RTVSPropertyOp10
 70
     1
102
RTVSPropertyOp11
 70
     1
102
RTVSPropertyOp12
 70
     1
102
RTVSPropertyOp13
 70
     1
102
RTVSPropertyOp14
 70
     1
102
RTVSPropertyOp15
 70
     1
102
RTVSPropertyOp16
 70
     1
102
RTVSPropertyOp17
 70
     1
102
RTVSPropertyOp18
 70
     1
102
RTVSPropertyOp19
 70
     1
102
RTVSPropertyOp20
 70
     1
102
RTVSPropertyOp21
 70
     1
102
RTVSPropertyOp22
 70
     1
102
RTVSPropertyOp23
 70
     1
102
RTVSPropertyOp24
 70
     1
102
RTVSPropertyOp25
 70
     1
102
RTVSPropertyOp26
 70
     1
102
RTVSPropertyOp27
 70
     1
102
RTVSPropertyOp28
 70
     1
102
RTVSPropertyOp29
 70
     1
102
RTVSPropertyOp30
 70
     1
102
RTVSPropertyOp31
 70
     1
102
RTVSPropertyOp32
 70
     1
  0
ENDSEC
  0
EOF
