  0
SECTION
  2
HEADER
  9
$ACADVER
  1
AC1015
  9
$ACADMAINTVER
 70
     6
  9
$DWGCODEPAGE
  3
ANSI_1252
  9
$INSBASE
 10
0.0
 20
0.0
 30
0.0
  9
$EXTMIN
 10
1.000000000000000E+20
 20
1.000000000000000E+20
 30
1.000000000000000E+20
  9
$EXTMAX
 10
-1.000000000000000E+20
 20
-1.000000000000000E+20
 30
-1.000000000000000E+20
  9
$LIMMIN
 10
-170.0
 20
-170.0
  9
$LIMMAX
 10
519.0
 20
260.0
  9
$ORTHOMODE
 70
     0
  9
$REGENMODE
 70
     1
  9
$FILLMODE
 70
     1
  9
$QTEXTMODE
 70
     0
  9
$MIRRTEXT
 70
     0
  9
$LTSCALE
 40
1.0
  9
$ATTMODE
 70
     1
  9
$TEXTSIZE
 40
3.5
  9
$TRACEWID
 40
1.0
  9
$TEXTSTYLE
  7
SIMPLEX
  9
$CLAYER
  8
1
  9
$CELTYPE
  6
BYLAYER
  9
$CECOLOR
 62
   256
  9
$CELTSCALE
 40
1.0
  9
$DISPSILH
 70
     0
  9
$DIMSCALE
 40
1.0
  9
$DIMASZ
 40
2.5
  9
$DIMEXO
 40
0.0
  9
$DIMDLI
 40
3.75
  9
$DIMRND
 40
0.0
  9
$DIMDLE
 40
0.0
  9
$DIMEXE
 40
1.25
  9
$DIMTP
 40
0.0
  9
$DIMTM
 40
0.0
  9
$DIMTXT
 40
3.5
  9
$DIMCEN
 40
0.0
  9
$DIMTSZ
 40
0.0
  9
$DIMTOL
 70
     0
  9
$DIMLIM
 70
     0
  9
$DIMTIH
 70
     0
  9
$DIMTOH
 70
     0
  9
$DIMSE1
 70
     0
  9
$DIMSE2
 70
     0
  9
$DIMTAD
 70
     1
  9
$DIMZIN
 70
     8
  9
$DIMBLK
  1

  9
$DIMASO
 70
     1
  9
$DIMSHO
 70
     1
  9
$DIMPOST
  1

  9
$DIMAPOST
  1

  9
$DIMALT
 70
     0
  9
$DIMALTD
 70
     3
  9
$DIMALTF
 40
0.039370078
  9
$DIMLFAC
 40
1.0
  9
$DIMTOFL
 70
     0
  9
$DIMTVP
 40
0.0
  9
$DIMTIX
 70
     0
  9
$DIMSOXD
 70
     0
  9
$DIMSAH
 70
     0
  9
$DIMBLK1
  1

  9
$DIMBLK2
  1

  9
$DIMSTYLE
  2
STANDARD
  9
$DIMCLRD
 70
     0
  9
$DIMCLRE
 70
     0
  9
$DIMCLRT
 70
     0
  9
$DIMTFAC
 40
1.0
  9
$DIMGAP
 40
0.625
  9
$DIMJUST
 70
     0
  9
$DIMSD1
 70
     0
  9
$DIMSD2
 70
     0
  9
$DIMTOLJ
 70
     0
  9
$DIMTZIN
 70
     8
  9
$DIMALTZ
 70
     0
  9
$DIMALTTZ
 70
     0
  9
$DIMUPT
 70
     0
  9
$DIMDEC
 70
     2
  9
$DIMTDEC
 70
     2
  9
$DIMALTU
 70
     2
  9
$DIMALTTD
 70
     3
  9
$DIMTXSTY
  7
SIMPLEX
  9
$DIMAUNIT
 70
     0
  9
$DIMADEC
 70
     2
  9
$DIMALTRND
 40
0.0
  9
$DIMAZIN
 70
     2
  9
$DIMDSEP
 70
    46
  9
$DIMATFIT
 70
     3
  9
$DIMFRAC
 70
     0
  9
$DIMLDRBLK
  1

  9
$DIMLUNIT
 70
     2
  9
$DIMLWD
 70
    -2
  9
$DIMLWE
 70
    -2
  9
$DIMTMOVE
 70
     0
  9
$LUNITS
 70
     2
  9
$LUPREC
 70
     4
  9
$SKETCHINC
 40
1.0
  9
$FILLETRAD
 40
0.0
  9
$AUNITS
 70
     0
  9
$AUPREC
 70
     0
  9
$MENU
  1
c:\tdm21\cad\caduti13\tdm13
  9
$ELEVATION
 40
0.0
  9
$PELEVATION
 40
0.0
  9
$THICKNESS
 40
0.0
  9
$LIMCHECK
 70
     0
  9
$CHAMFERA
 40
0.0
  9
$CHAMFERB
 40
0.0
  9
$CHAMFERC
 40
0.0
  9
$CHAMFERD
 40
0.0
  9
$SKPOLY
 70
     0
  9
$TDCREATE
 40
2454957.593642639
  9
$TDUCREATE
 40
2454957.510309306
  9
$TDUPDATE
 40
2456860.716080532
  9
$TDUUPDATE
 40
2456860.632747199
  9
$TDINDWG
 40
0.0009643519
  9
$TDUSRTIMER
 40
0.0009475231
  9
$USRTIMER
 70
     1
  9
$ANGBASE
 50
0.0
  9
$ANGDIR
 70
     0
  9
$PDMODE
 70
     1
  9
$PDSIZE
 40
0.0
  9
$PLINEWID
 40
0.0
  9
$SPLFRAME
 70
     0
  9
$SPLINETYPE
 70
     6
  9
$SPLINESEGS
 70
     8
  9
$HANDSEED
  5
67F
  9
$SURFTAB1
 70
     6
  9
$SURFTAB2
 70
     6
  9
$SURFTYPE
 70
     6
  9
$SURFU
 70
     6
  9
$SURFV
 70
     6
  9
$UCSBASE
  2

  9
$UCSNAME
  2

  9
$UCSORG
 10
0.0
 20
0.0
 30
0.0
  9
$UCSXDIR
 10
1.0
 20
0.0
 30
0.0
  9
$UCSYDIR
 10
0.0
 20
1.0
 30
0.0
  9
$UCSORTHOREF
  2

  9
$UCSORTHOVIEW
 70
     0
  9
$UCSORGTOP
 10
0.0
 20
0.0
 30
0.0
  9
$UCSORGBOTTOM
 10
0.0
 20
0.0
 30
0.0
  9
$UCSORGLEFT
 10
0.0
 20
0.0
 30
0.0
  9
$UCSORGRIGHT
 10
0.0
 20
0.0
 30
0.0
  9
$UCSORGFRONT
 10
0.0
 20
0.0
 30
0.0
  9
$UCSORGBACK
 10
0.0
 20
0.0
 30
0.0
  9
$PUCSBASE
  2

  9
$PUCSNAME
  2

  9
$PUCSORG
 10
0.0
 20
0.0
 30
0.0
  9
$PUCSXDIR
 10
1.0
 20
0.0
 30
0.0
  9
$PUCSYDIR
 10
0.0
 20
1.0
 30
0.0
  9
$PUCSORTHOREF
  2

  9
$PUCSORTHOVIEW
 70
     0
  9
$PUCSORGTOP
 10
0.0
 20
0.0
 30
0.0
  9
$PUCSORGBOTTOM
 10
0.0
 20
0.0
 30
0.0
  9
$PUCSORGLEFT
 10
0.0
 20
0.0
 30
0.0
  9
$PUCSORGRIGHT
 10
0.0
 20
0.0
 30
0.0
  9
$PUCSORGFRONT
 10
0.0
 20
0.0
 30
0.0
  9
$PUCSORGBACK
 10
0.0
 20
0.0
 30
0.0
  9
$USERI1
 70
     0
  9
$USERI2
 70
     0
  9
$USERI3
 70
     0
  9
$USERI4
 70
     0
  9
$USERI5
 70
     0
  9
$USERR1
 40
0.0
  9
$USERR2
 40
0.0
  9
$USERR3
 40
0.0
  9
$USERR4
 40
0.0
  9
$USERR5
 40
0.0
  9
$WORLDVIEW
 70
     1
  9
$SHADEDGE
 70
     3
  9
$SHADEDIF
 70
    70
  9
$TILEMODE
 70
     1
  9
$MAXACTVP
 70
    64
  9
$PINSBASE
 10
0.0
 20
0.0
 30
0.0
  9
$PLIMCHECK
 70
     0
  9
$PEXTMIN
 10
0.0
 20
0.0
 30
0.0
  9
$PEXTMAX
 10
0.0
 20
0.0
 30
0.0
  9
$PLIMMIN
 10
0.0
 20
0.0
  9
$PLIMMAX
 10
12.0
 20
9.0
  9
$UNITMODE
 70
     0
  9
$VISRETAIN
 70
     0
  9
$PLINEGEN
 70
     0
  9
$PSLTSCALE
 70
     1
  9
$TREEDEPTH
 70
  3020
  9
$CMLSTYLE
  2
STANDARD
  9
$CMLJUST
 70
     0
  9
$CMLSCALE
 40
20.0
  9
$PROXYGRAPHICS
 70
     1
  9
$MEASUREMENT
 70
     1
  9
$CELWEIGHT
370
    -1
  9
$ENDCAPS
280
     0
  9
$JOINSTYLE
280
     0
  9
$LWDISPLAY
290
     0
  9
$INSUNITS
 70
     4
  9
$HYPERLINKBASE
  1

  9
$STYLESHEET
  1
MONOCHROME.CTB
  9
$XEDIT
290
     1
  9
$CEPSNTYPE
380
     0
  9
$PSTYLEMODE
290
     1
  9
$FINGERPRINTGUID
  2
{46B44192-1510-48B1-B61B-CBE2ADA013A7}
  9
$VERSIONGUID
  2
{6160D478-9A74-4C97-9D8A-D4A65CE74B12}
  9
$EXTNAMES
290
     1
  9
$PSVPSCALE
 40
0.0
  9
$OLESTARTUP
290
     0
  0
ENDSEC
  0
SECTION
  2
CLASSES
  0
CLASS
  1
ACDBDICTIONARYWDFLT
  2
AcDbDictionaryWithDefault
  3
ObjectDBX Classes
 90
        0
280
     0
281
     0
  0
CLASS
  1
ACDBPLACEHOLDER
  2
AcDbPlaceHolder
  3
ObjectDBX Classes
 90
        0
280
     0
281
     0
  0
CLASS
  1
LAYOUT
  2
AcDbLayout
  3
ObjectDBX Classes
 90
        0
280
     0
281
     0
  0
CLASS
  1
DICTIONARYVAR
  2
AcDbDictionaryVar
  3
ObjectDBX Classes
 90
        0
280
     0
281
     0
  0
CLASS
  1
TABLESTYLE
  2
AcDbTableStyle
  3
ObjectDBX Classes
 90
     4095
280
     0
281
     0
  0
CLASS
  1
SCALE
  2
AcDbScale
  3
ObjectDBX Classes
 90
     1153
280
     0
281
     0
  0
CLASS
  1
MATERIAL
  2
AcDbMaterial
  3
ObjectDBX Classes
 90
     1153
280
     0
281
     0
  0
CLASS
  1
VISUALSTYLE
  2
AcDbVisualStyle
  3
ObjectDBX Classes
 90
     4095
280
     0
281
     0
  0
ENDSEC
  0
SECTION
  2
TABLES
  0
TABLE
  2
VPORT
  5
8
330
0
100
AcDbSymbolTable
 70
     1
  0
VPORT
  5
39A
330
8
100
AcDbSymbolTableRecord
100
AcDbViewportTableRecord
  2
*Active
 70
     0
 10
0.0
 20
0.0
 11
1.0
 21
1.0
 12
218.9201881351169
 22
109.7549380673833
 13
0.0
 23
0.0
 14
5.0
 24
5.0
 15
5.0
 25
5.0
 16
0.0
 26
0.0
 36
1.0
 17
0.0
 27
0.0
 37
0.0
 40
564.6711112651689
 41
1.066073697585768
 42
50.0
 43
0.0
 44
0.0
 50
0.0
 51
0.0
 71
     0
 72
  2000
 73
     1
 74
     1
 75
     0
 76
     0
 77
     0
 78
     0
281
     0
 65
     1
110
0.0
120
0.0
130
0.0
111
1.0
121
0.0
131
0.0
112
0.0
122
1.0
132
0.0
 79
     0
146
0.0
  0
ENDTAB
  0
TABLE
  2
LTYPE
  5
5
330
0
100
AcDbSymbolTable
 70
     3
  0
LTYPE
  5
12
330
5
100
AcDbSymbolTableRecord
100
AcDbLinetypeTableRecord
  2
BYBLOCK
 70
     0
  3

 72
    65
 73
     0
 40
0.0
  0
LTYPE
  5
13
330
5
100
AcDbSymbolTableRecord
100
AcDbLinetypeTableRecord
  2
BYLAYER
 70
     0
  3

 72
    65
 73
     0
 40
0.0
  0
LTYPE
  5
14
330
5
100
AcDbSymbolTableRecord
100
AcDbLinetypeTableRecord
  2
CONTINUOUS
 70
     0
  3
Solid line
 72
    65
 73
     0
 40
0.0
  0
LTYPE
  5
20
330
5
100
AcDbSymbolTableRecord
100
AcDbLinetypeTableRecord
  2
HIDDEN
 70
     0
  3
Hidden __ __ __ __ __ __ __ __ __ __ __ __ __ _
 72
    65
 73
     2
 40
9.524999999999997
 49
6.349999999999998
 74
     0
 49
-3.174999999999998
 74
     0
  0
LTYPE
  5
351
330
5
100
AcDbSymbolTableRecord
100
AcDbLinetypeTableRecord
  2
CENTER
 70
     0
  3
Dash dot __ . __ . __ . __ . __ . __ . __ . __
 72
    65
 73
     4
 40
25.4
 49
12.7
 74
     0
 49
-6.349999999999998
 74
     0
 49
0.0
 74
     0
 49
-6.349999999999998
 74
     0
  0
ENDTAB
  0
TABLE
  2
LAYER
  5
2
330
0
100
AcDbSymbolTable
 70
    16
  0
LAYER
  5
F
330
2
100
AcDbSymbolTableRecord
100
AcDbLayerTableRecord
  2
0
 70
     0
 62
     7
  6
CONTINUOUS
370
    -3
390
300
  0
LAYER
  5
23
330
2
100
AcDbSymbolTableRecord
100
AcDbLayerTableRecord
  2
1
 70
     0
 62
     4
  6
CONTINUOUS
370
    -3
390
300
  0
LAYER
  5
24
330
2
100
AcDbSymbolTableRecord
100
AcDbLayerTableRecord
  2
SK1
 70
     0
 62
     4
  6
CONTINUOUS
370
    -3
390
300
  0
LAYER
  5
25
330
2
100
AcDbSymbolTableRecord
100
AcDbLayerTableRecord
  2
2
 70
     0
 62
     7
  6
CONTINUOUS
370
    -3
390
300
  0
LAYER
  5
26
330
2
100
AcDbSymbolTableRecord
100
AcDbLayerTableRecord
  2
2L
 70
     0
 62
     7
  6
CONTINUOUS
370
    -3
390
300
  0
LAYER
  5
27
330
2
100
AcDbSymbolTableRecord
100
AcDbLayerTableRecord
  2
SK2
 70
     0
 62
     7
  6
CONTINUOUS
370
    -3
390
300
  0
LAYER
  5
28
330
2
100
AcDbSymbolTableRecord
100
AcDbLayerTableRecord
  2
3
 70
     0
 62
     1
  6
HIDDEN
370
    -3
390
300
  0
LAYER
  5
29
330
2
100
AcDbSymbolTableRecord
100
AcDbLayerTableRecord
  2
SK3
 70
     0
 62
     1
  6
HIDDEN
370
    -3
390
300
  0
LAYER
  5
2A
330
2
100
AcDbSymbolTableRecord
100
AcDbLayerTableRecord
  2
4
 70
     0
 62
     2
  6
CENTER
370
    -3
390
300
  0
LAYER
  5
2B
330
2
100
AcDbSymbolTableRecord
100
AcDbLayerTableRecord
  2
SK4
 70
     0
 62
     2
  6
CENTER
370
    -3
390
300
  0
LAYER
  5
2C
330
2
100
AcDbSymbolTableRecord
100
AcDbLayerTableRecord
  2
5
 70
     0
 62
    -7
  6
CONTINUOUS
370
    -3
390
300
  0
LAYER
  5
2D
330
2
100
AcDbSymbolTableRecord
100
AcDbLayerTableRecord
  2
6
 70
     0
 62
     5
  6
CONTINUOUS
370
    -3
390
300
  0
LAYER
  5
2E
330
2
100
AcDbSymbolTableRecord
100
AcDbLayerTableRecord
  2
SK6
 70
     0
 62
     5
  6
CONTINUOUS
370
    -3
390
300
  0
LAYER
  5
2F
330
2
100
AcDbSymbolTableRecord
100
AcDbLayerTableRecord
  2
DEFPOINTS
 70
     0
 62
     7
  6
CONTINUOUS
290
     0
370
    -3
390
300
  0
LAYER
  5
375
330
2
100
AcDbSymbolTableRecord
100
AcDbLayerTableRecord
  2
CUT
 70
     0
 62
     1
  6
CONTINUOUS
370
    -3
390
300
  0
LAYER
  5
376
330
2
100
AcDbSymbolTableRecord
100
AcDbLayerTableRecord
  2
NOCUT
 70
     0
 62
     7
  6
CONTINUOUS
370
    -3
390
300
  0
ENDTAB
  0
TABLE
  2
STYLE
  5
3
330
0
100
AcDbSymbolTable
 70
     4
  0
STYLE
  5
10
330
3
100
AcDbSymbolTableRecord
100
AcDbTextStyleTableRecord
  2
STANDARD
 70
     0
 40
0.0
 41
1.0
 50
0.0
 71
     0
 42
5.0
  3
txt
  4

  0
STYLE
  5
1D
330
3
100
AcDbSymbolTableRecord
100
AcDbTextStyleTableRecord
  2
TXT
 70
     0
 40
8.0
 41
1.0
 50
0.0
 71
     0
 42
8.0
  3
txt
  4

  0
STYLE
  5
1E
330
3
100
AcDbSymbolTableRecord
100
AcDbTextStyleTableRecord
  2
SIMPLEX
 70
     0
 40
0.0
 41
1.0
 50
0.0
 71
     0
 42
3.5
  3
simplex
  4

  0
STYLE
  5
34C
330
3
100
AcDbSymbolTableRecord
100
AcDbTextStyleTableRecord
  2

 70
     1
 40
0.0
 41
1.0
 50
0.0
 71
     0
 42
2.5
  3
ltypeshp.shx
  4

  0
ENDTAB
  0
TABLE
  2
VIEW
  5
6
330
0
100
AcDbSymbolTable
 70
     0
  0
ENDTAB
  0
TABLE
  2
UCS
  5
7
330
0
100
AcDbSymbolTable
 70
     0
  0
ENDTAB
  0
TABLE
  2
APPID
  5
9
330
0
100
AcDbSymbolTable
 70
     1
  0
APPID
  5
11
330
9
100
AcDbSymbolTableRecord
100
AcDbRegAppTableRecord
  2
ACAD
 70
     0
  0
ENDTAB
  0
TABLE
  2
DIMSTYLE
  5
A
330
0
100
AcDbSymbolTable
 70
     1
100
AcDbDimStyleTable
  0
DIMSTYLE
105
3F
102
{ACAD_REACTORS
330
610
330
61E
330
62B
330
639
330
647
102
}
330
A
100
AcDbSymbolTableRecord
100
AcDbDimStyleTableRecord
  2
STANDARD
 70
     0
 41
2.5
 42
0.0
 43
3.75
 44
1.25
 73
     0
 74
     0
 77
     1
 78
     8
 79
     2
140
3.5
141
0.0
143
0.039370078
147
0.625
171
     3
178
     0
179
     2
271
     2
272
     2
274
     3
283
     0
284
     8
340
1E
  0
ENDTAB
  0
TABLE
  2
BLOCK_RECORD
  5
1
330
0
100
AcDbSymbolTable
 70
     5
  0
BLOCK_RECORD
  5
18
330
1
100
AcDbSymbolTableRecord
100
AcDbBlockTableRecord
  2
*MODEL_SPACE
340
303
  0
BLOCK_RECORD
  5
338
330
1
100
AcDbSymbolTableRecord
100
AcDbBlockTableRecord
  2
*Paper_Space
340
33B
  0
BLOCK_RECORD
  5
611
330
1
100
AcDbSymbolTableRecord
100
AcDbBlockTableRecord
  2
*D0
340
0
  0
BLOCK_RECORD
  5
61F
330
1
100
AcDbSymbolTableRecord
100
AcDbBlockTableRecord
  2
*D1
340
0
  0
BLOCK_RECORD
  5
62C
330
1
100
AcDbSymbolTableRecord
100
AcDbBlockTableRecord
  2
*D2
340
0
  0
BLOCK_RECORD
  5
63A
330
1
100
AcDbSymbolTableRecord
100
AcDbBlockTableRecord
  2
*D3
340
0
  0
BLOCK_RECORD
  5
648
330
1
100
AcDbSymbolTableRecord
100
AcDbBlockTableRecord
  2
*D4
340
0
  0
ENDTAB
  0
ENDSEC
  0
SECTION
  2
BLOCKS
  0
BLOCK
  5
32
330
18
100
AcDbEntity
  8
0
100
AcDbBlockBegin
  2
*MODEL_SPACE
 70
     0
 10
0.0
 20
0.0
 30
0.0
  3
*MODEL_SPACE
  1

  0
ENDBLK
  5
33
330
18
100
AcDbEntity
  8
0
100
AcDbBlockEnd
  0
BLOCK
  5
339
330
338
100
AcDbEntity
 67
     1
  8
0
100
AcDbBlockBegin
  2
*Paper_Space
 70
     0
 10
0.0
 20
0.0
 30
0.0
  3
*Paper_Space
  1

  0
ENDBLK
  5
33A
330
338
100
AcDbEntity
 67
     1
  8
0
100
AcDbBlockEnd
  0
BLOCK
  5
612
330
611
100
AcDbEntity
  8
0
100
AcDbBlockBegin
  2
*D0
 70
     1
 10
0.0
 20
0.0
 30
0.0
  3
*D0
  1

  0
LINE
  5
614
330
611
100
AcDbEntity
  8
2
 62
     0
370
    -2
100
AcDbLine
 10
42.0
 20
2.0
 30
0.0
 11
58.25
 21
2.000000000000057
 31
0.0
  0
LINE
  5
615
330
611
100
AcDbEntity
  8
2
 62
     0
370
    -2
100
AcDbLine
 10
42.0
 20
-2.0
 30
0.0
 11
58.25000000000001
 21
-1.999999999999943
 31
0.0
  0
LINE
  5
616
330
611
100
AcDbEntity
  8
2
 62
     0
370
    -2
100
AcDbLine
 10
57.00000000000002
 20
-4.499999999999948
 30
0.0
 11
57.00000000000006
 21
-14.53249999999995
 31
0.0
  0
LINE
  5
617
330
611
100
AcDbEntity
  8
2
 62
     0
370
    -2
100
AcDbLine
 10
56.99999999999999
 20
4.500000000000052
 30
0.0
 11
56.99999999999999
 21
7.000000000000052
 31
0.0
  0
SOLID
  5
618
330
611
100
AcDbEntity
  8
2
 62
     0
100
AcDbTrace
 10
56.58333333333333
 20
4.500000000000051
 30
0.0
 11
57.41666666666666
 21
4.500000000000054
 31
0.0
 12
57.0
 22
2.000000000000052
 32
0.0
 13
57.0
 23
2.000000000000052
 33
0.0
  0
SOLID
  5
619
330
611
100
AcDbEntity
  8
2
 62
     0
100
AcDbTrace
 10
57.41666666666669
 20
-4.499999999999946
 30
0.0
 11
56.58333333333336
 21
-4.499999999999949
 31
0.0
 12
57.00000000000001
 22
-1.999999999999948
 32
0.0
 13
57.00000000000001
 23
-1.999999999999948
 33
0.0
  0
MTEXT
  5
61A
330
611
100
AcDbEntity
  8
2
 62
     0
100
AcDbMText
 10
54.58475000000004
 20
-10.76624999999996
 30
0.0
 40
3.5
 41
0.0
 71
     5
 72
     1
  1
M4
  7
SIMPLEX
 11
-3.552713678800501E-15
 21
1.0
 31
0.0
 73
     1
 44
1.0
  0
POINT
  5
61B
330
611
100
AcDbEntity
  8
DEFPOINTS
 62
     0
100
AcDbPoint
 10
42.0
 20
2.0
 30
0.0
  0
POINT
  5
61C
330
611
100
AcDbEntity
  8
DEFPOINTS
 62
     0
100
AcDbPoint
 10
42.0
 20
-2.0
 30
0.0
  0
POINT
  5
61D
330
611
100
AcDbEntity
  8
DEFPOINTS
 62
     0
100
AcDbPoint
 10
57.00000000000001
 20
-1.999999999999948
 30
0.0
  0
ENDBLK
  5
613
330
611
100
AcDbEntity
  8
0
100
AcDbBlockEnd
  0
BLOCK
  5
620
330
61F
100
AcDbEntity
  8
0
100
AcDbBlockBegin
  2
*D1
 70
     1
 10
0.0
 20
0.0
 30
0.0
  3
*D1
  1

  0
LINE
  5
622
330
61F
100
AcDbEntity
  8
2
 62
     0
370
    -2
100
AcDbLine
 10
0.0
 20
0.0
 30
0.0
 11
0.0
 21
76.25
 31
0.0
  0
LINE
  5
623
330
61F
100
AcDbEntity
  8
2
 62
     0
370
    -2
100
AcDbLine
 10
42.0
 20
0.0
 30
0.0
 11
42.0
 21
76.25
 31
0.0
  0
LINE
  5
624
330
61F
100
AcDbEntity
  8
2
 62
     0
370
    -2
100
AcDbLine
 10
2.5
 20
75.0
 30
0.0
 11
39.5
 21
75.0
 31
0.0
  0
SOLID
  5
625
330
61F
100
AcDbEntity
  8
2
 62
     0
100
AcDbTrace
 10
2.5
 20
75.41666666666667
 30
0.0
 11
2.5
 21
74.58333333333333
 31
0.0
 12
0.0
 22
75.0
 32
0.0
 13
0.0
 23
75.0
 33
0.0
  0
SOLID
  5
626
330
61F
100
AcDbEntity
  8
2
 62
     0
100
AcDbTrace
 10
39.5
 20
74.58333333333333
 30
0.0
 11
39.5
 21
75.41666666666667
 31
0.0
 12
42.0
 22
75.0
 32
0.0
 13
42.0
 23
75.0
 33
0.0
  0
MTEXT
  5
627
330
61F
100
AcDbEntity
  8
2
 62
     0
100
AcDbMText
 10
21.0
 20
77.431
 30
0.0
 40
3.5
 41
0.0
 71
     5
 72
     1
  1
42
  7
SIMPLEX
 73
     1
 44
1.0
  0
POINT
  5
628
330
61F
100
AcDbEntity
  8
DEFPOINTS
 62
     0
100
AcDbPoint
 10
0.0
 20
0.0
 30
0.0
  0
POINT
  5
629
330
61F
100
AcDbEntity
  8
DEFPOINTS
 62
     0
100
AcDbPoint
 10
42.0
 20
0.0
 30
0.0
  0
POINT
  5
62A
330
61F
100
AcDbEntity
  8
DEFPOINTS
 62
     0
100
AcDbPoint
 10
42.0
 20
75.0
 30
0.0
  0
ENDBLK
  5
621
330
61F
100
AcDbEntity
  8
0
100
AcDbBlockEnd
  0
BLOCK
  5
62D
330
62C
100
AcDbEntity
  8
0
100
AcDbBlockBegin
  2
*D2
 70
     1
 10
0.0
 20
0.0
 30
0.0
  3
*D2
  1

  0
LINE
  5
62F
330
62C
100
AcDbEntity
  8
SK2
 62
     0
370
    -2
100
AcDbLine
 10
-15.0
 20
2.25
 30
0.0
 11
-37.25000000001148
 21
2.249999999886449
 31
0.0
  0
LINE
  5
630
330
62C
100
AcDbEntity
  8
SK2
 62
     0
370
    -2
100
AcDbLine
 10
-15.0
 20
-2.25
 30
0.0
 11
-37.24999999998852
 21
-2.250000000113551
 31
0.0
  0
LINE
  5
631
330
62C
100
AcDbEntity
  8
SK2
 62
     0
370
    -2
100
AcDbLine
 10
-35.99999999997576
 20
-4.750000000107171
 30
0.0
 11
-35.999999999901
 21
-19.39900000010717
 31
0.0
  0
LINE
  5
632
330
62C
100
AcDbEntity
  8
SK2
 62
     0
370
    -2
100
AcDbLine
 10
-36.00000000002424
 20
4.749999999892829
 30
0.0
 11
-36.00000000003701
 21
7.249999999892829
 31
0.0
  0
SOLID
  5
633
330
62C
100
AcDbEntity
  8
SK2
 62
     0
100
AcDbTrace
 10
-36.41666666669091
 20
4.749999999890703
 30
0.0
 11
-35.58333333335758
 21
4.749999999894955
 31
0.0
 12
-36.00000000001148
 22
2.249999999892828
 32
0.0
 13
-36.00000000001148
 23
2.249999999892828
 33
0.0
  0
SOLID
  5
634
330
62C
100
AcDbEntity
  8
SK2
 62
     0
100
AcDbTrace
 10
-35.58333333330909
 20
-4.750000000105045
 30
0.0
 11
-36.41666666664242
 21
-4.750000000109297
 31
0.0
 12
-35.99999999998852
 22
-2.250000000107172
 32
0.0
 13
-35.99999999998852
 23
-2.250000000107172
 33
0.0
  0
MTEXT
  5
635
330
62C
100
AcDbEntity
  8
SK2
 62
     0
100
AcDbMText
 10
-38.437999999932
 20
-13.32450000011961
 30
0.0
 40
3.5
 41
0.0
 71
     5
 72
     1
  1
%%c4.5
  7
SIMPLEX
 11
-5.103275826614764E-12
 21
1.0
 31
0.0
 73
     1
 44
1.0
  0
POINT
  5
636
330
62C
100
AcDbEntity
  8
DEFPOINTS
 62
     0
100
AcDbPoint
 10
-15.0
 20
2.25
 30
0.0
  0
POINT
  5
637
330
62C
100
AcDbEntity
  8
DEFPOINTS
 62
     0
100
AcDbPoint
 10
-15.0
 20
-2.25
 30
0.0
  0
POINT
  5
638
330
62C
100
AcDbEntity
  8
DEFPOINTS
 62
     0
100
AcDbPoint
 10
-35.99999999998852
 20
-2.250000000107172
 30
0.0
  0
ENDBLK
  5
62E
330
62C
100
AcDbEntity
  8
0
100
AcDbBlockEnd
  0
BLOCK
  5
63B
330
63A
100
AcDbEntity
  8
0
100
AcDbBlockBegin
  2
*D3
 70
     1
 10
0.0
 20
0.0
 30
0.0
  3
*D3
  1

  0
LINE
  5
63D
330
63A
100
AcDbEntity
  8
2
 62
     0
370
    -2
100
AcDbLine
 10
34.407993834
 20
1.485
 30
0.0
 11
34.407993834
 21
61.25
 31
0.0
  0
LINE
  5
63E
330
63A
100
AcDbEntity
  8
2
 62
     0
370
    -2
100
AcDbLine
 10
42.0
 20
2.0
 30
0.0
 11
42.0
 21
61.25
 31
0.0
  0
LINE
  5
63F
330
63A
100
AcDbEntity
  8
2
 62
     0
370
    -2
100
AcDbLine
 10
42.0
 20
60.0
 30
0.0
 11
56.28149999999999
 21
60.0
 31
0.0
  0
LINE
  5
640
330
63A
100
AcDbEntity
  8
2
 62
     0
370
    -2
100
AcDbLine
 10
36.907993834
 20
60.0
 30
0.0
 11
39.5
 21
60.0
 31
0.0
  0
SOLID
  5
641
330
63A
100
AcDbEntity
  8
2
 62
     0
100
AcDbTrace
 10
36.907993834
 20
60.41666666666666
 30
0.0
 11
36.907993834
 21
59.58333333333334
 31
0.0
 12
34.407993834
 22
60.0
 32
0.0
 13
34.407993834
 23
60.0
 33
0.0
  0
SOLID
  5
642
330
63A
100
AcDbEntity
  8
2
 62
     0
100
AcDbTrace
 10
39.5
 20
59.58333333333334
 30
0.0
 11
39.5
 21
60.41666666666666
 31
0.0
 12
42.0
 22
60.0
 32
0.0
 13
42.0
 23
60.0
 33
0.0
  0
MTEXT
  5
643
330
63A
100
AcDbEntity
  8
2
 62
     0
100
AcDbMText
 10
50.39075
 20
62.39775
 30
0.0
 40
3.5
 41
0.0
 71
     5
 72
     1
  1
7.59
  7
SIMPLEX
 73
     1
 44
1.0
  0
POINT
  5
644
330
63A
100
AcDbEntity
  8
DEFPOINTS
 62
     0
100
AcDbPoint
 10
34.407993834
 20
1.485
 30
0.0
  0
POINT
  5
645
330
63A
100
AcDbEntity
  8
DEFPOINTS
 62
     0
100
AcDbPoint
 10
42.0
 20
2.0
 30
0.0
  0
POINT
  5
646
330
63A
100
AcDbEntity
  8
DEFPOINTS
 62
     0
100
AcDbPoint
 10
42.0
 20
60.0
 30
0.0
  0
ENDBLK
  5
63C
330
63A
100
AcDbEntity
  8
0
100
AcDbBlockEnd
  0
BLOCK
  5
649
330
648
100
AcDbEntity
  8
0
100
AcDbBlockBegin
  2
*D4
 70
     1
 10
0.0
 20
0.0
 30
0.0
  3
*D4
  1

  0
LINE
  5
64B
330
648
100
AcDbEntity
  8
SK2
 62
     0
370
    -2
100
AcDbLine
 10
-21.0
 20
2.0
 30
0.0
 11
-21.0
 21
91.25
 31
0.0
  0
LINE
  5
64C
330
648
100
AcDbEntity
  8
SK2
 62
     0
370
    -2
100
AcDbLine
 10
42.0
 20
2.0
 30
0.0
 11
42.0
 21
91.25
 31
0.0
  0
LINE
  5
64D
330
648
100
AcDbEntity
  8
SK2
 62
     0
370
    -2
100
AcDbLine
 10
-18.5
 20
90.0
 30
0.0
 11
39.5
 21
90.0
 31
0.0
  0
SOLID
  5
64E
330
648
100
AcDbEntity
  8
SK2
 62
     0
100
AcDbTrace
 10
-18.5
 20
90.41666666666667
 30
0.0
 11
-18.5
 21
89.58333333333333
 31
0.0
 12
-21.0
 22
90.0
 32
0.0
 13
-21.0
 23
90.0
 33
0.0
  0
SOLID
  5
64F
330
648
100
AcDbEntity
  8
SK2
 62
     0
100
AcDbTrace
 10
39.5
 20
89.58333333333333
 30
0.0
 11
39.5
 21
90.41666666666667
 31
0.0
 12
42.0
 22
90.0
 32
0.0
 13
42.0
 23
90.0
 33
0.0
  0
MTEXT
  5
650
330
648
100
AcDbEntity
  8
SK2
 62
     0
100
AcDbMText
 10
10.5
 20
92.39075
 30
0.0
 40
3.5
 41
0.0
 71
     5
 72
     1
  1
63
  7
SIMPLEX
 73
     1
 44
1.0
  0
POINT
  5
651
330
648
100
AcDbEntity
  8
DEFPOINTS
 62
     0
100
AcDbPoint
 10
-21.0
 20
2.0
 30
0.0
  0
POINT
  5
652
330
648
100
AcDbEntity
  8
DEFPOINTS
 62
     0
100
AcDbPoint
 10
42.0
 20
2.0
 30
0.0
  0
POINT
  5
653
330
648
100
AcDbEntity
  8
DEFPOINTS
 62
     0
100
AcDbPoint
 10
42.0
 20
90.0
 30
0.0
  0
ENDBLK
  5
64A
330
648
100
AcDbEntity
  8
0
100
AcDbBlockEnd
  0
ENDSEC
  0
SECTION
  2
ENTITIES
  0
LINE
  5
3D6
330
18
100
AcDbEntity
  8
SK4
100
AcDbLine
 10
-23.0
 20
0.0
 30
0.0
 11
17.4
 21
0.0
 31
0.0
  0
LINE
  5
3D7
330
18
100
AcDbEntity
  8
4
100
AcDbLine
 10
15.4
 20
0.0
 30
0.0
 11
44.0
 21
0.0
 31
0.0
  0
LINE
  5
3D8
330
18
100
AcDbEntity
  8
SK4
100
AcDbLine
 10
15.4
 20
0.0
 30
0.0
 11
44.0
 21
0.0
 31
0.0
  0
LINE
  5
3D9
330
18
100
AcDbEntity
  8
1
100
AcDbLine
 10
17.4
 20
2.25
 30
0.0
 11
0.0
 21
2.25
 31
0.0
  0
LINE
  5
3DA
330
18
100
AcDbEntity
  8
1
100
AcDbLine
 10
17.4
 20
2.25
 30
0.0
 11
17.4
 21
2.247763065087757
 31
0.0
  0
LINE
  5
3DB
330
18
100
AcDbEntity
  8
1
100
AcDbLine
 10
17.4
 20
2.247763065087757
 30
0.0
 11
17.4
 21
2.048115122452695
 31
0.0
  0
LINE
  5
3DC
330
18
100
AcDbEntity
  8
1
100
AcDbLine
 10
17.4
 20
2.048115122452695
 30
0.0
 11
17.4
 21
-2.25
 31
0.0
  0
LINE
  5
3DD
330
18
100
AcDbEntity
  8
1
100
AcDbLine
 10
17.4
 20
2.25
 30
0.0
 11
21.73853059
 21
1.485
 31
0.0
  0
LINE
  5
3DE
330
18
100
AcDbEntity
  8
1
100
AcDbLine
 10
21.73853059
 20
1.485
 30
0.0
 11
21.73853059
 21
1.48352362295792
 31
0.0
  0
LINE
  5
3DF
330
18
100
AcDbEntity
  8
1
100
AcDbLine
 10
21.73853059
 20
1.48352362295792
 30
0.0
 11
21.73853059
 21
1.351755980818779
 31
0.0
  0
LINE
  5
3E0
330
18
100
AcDbEntity
  8
1
100
AcDbLine
 10
21.73853059
 20
1.351755980818779
 30
0.0
 11
21.73853059
 21
-1.485
 31
0.0
  0
LINE
  5
3E1
330
18
100
AcDbEntity
  8
1
100
AcDbLine
 10
22.5
 20
-0.4639377633495924
 30
0.0
 11
23.25414247287706
 21
-0.876082968118932
 31
0.0
  0
LINE
  5
3E2
330
18
100
AcDbEntity
  8
1
100
AcDbLine
 10
23.25414247287706
 20
-0.876082968118932
 30
0.0
 11
23.6312132399752
 21
-1.05240087066218
 31
0.0
  0
LINE
  5
3E3
330
18
100
AcDbEntity
  8
1
100
AcDbLine
 10
23.6312132399752
 20
-1.05240087066218
 30
0.0
 11
24.00828461236393
 21
-1.202953054509545
 31
0.0
  0
LINE
  5
3E4
330
18
100
AcDbEntity
  8
1
100
AcDbLine
 10
24.00828461236393
 20
-1.202953054509545
 30
0.0
 11
24.19682274922081
 21
-1.267387548247213
 31
0.0
  0
LINE
  5
3E5
330
18
100
AcDbEntity
  8
1
100
AcDbLine
 10
24.19682274922081
 20
-1.267387548247213
 30
0.0
 11
24.38535518779307
 21
-1.324050690935791
 31
0.0
  0
LINE
  5
3E6
330
18
100
AcDbEntity
  8
1
100
AcDbLine
 10
24.38535518779307
 20
-1.324050690935791
 30
0.0
 11
24.5738878140582
 21
-1.372597742659966
 31
0.0
  0
LINE
  5
3E7
330
18
100
AcDbEntity
  8
1
100
AcDbLine
 10
24.5738878140582
 20
-1.372597742659966
 30
0.0
 11
24.76242644090802
 21
-1.412731720128329
 31
0.0
  0
LINE
  5
3E8
330
18
100
AcDbEntity
  8
1
100
AcDbLine
 10
24.76242644090802
 20
-1.412731720128329
 30
0.0
 11
24.95096455011632
 21
-1.444203967024195
 31
0.0
  0
LINE
  5
3E9
330
18
100
AcDbEntity
  8
1
100
AcDbLine
 10
24.95096455011632
 20
-1.444203967024195
 30
0.0
 11
25.1394969819196
 21
-1.46682196195098
 31
0.0
  0
LINE
  5
3EA
330
18
100
AcDbEntity
  8
1
100
AcDbLine
 10
25.1394969819196
 20
-1.46682196195098
 30
0.0
 11
25.32802762971727
 21
-1.48044884705317
 31
0.0
  0
LINE
  5
3EB
330
18
100
AcDbEntity
  8
1
100
AcDbLine
 10
25.32802762971727
 20
-1.48044884705317
 30
0.0
 11
25.51654677678504
 21
-1.484999999963608
 31
0.0
  0
LINE
  5
3EC
330
18
100
AcDbEntity
  8
1
100
AcDbLine
 10
21.73853059
 20
1.485
 30
0.0
 11
22.9955838161683
 21
1.485
 31
0.0
  0
LINE
  5
3ED
330
18
100
AcDbEntity
  8
1
100
AcDbLine
 10
26.22101685525499
 20
1.485
 30
0.0
 11
28.03750966615328
 21
1.485
 31
0.0
  0
LINE
  5
3EE
330
18
100
AcDbEntity
  8
1
100
AcDbLine
 10
22.5
 20
1.267006799559331
 30
0.0
 11
22.5
 21
-0.4639377633495924
 31
0.0
  0
LINE
  5
3EF
330
18
100
AcDbEntity
  8
1
100
AcDbLine
 10
22.5
 20
1.267006799559334
 30
0.0
 11
22.82535743782127
 21
1.151089529748604
 31
0.0
  0
LINE
  5
3F0
330
18
100
AcDbEntity
  8
1
100
AcDbLine
 10
22.82535743782127
 20
1.151089529748604
 30
0.0
 11
23.15072151153627
 21
1.014175543216521
 31
0.0
  0
LINE
  5
3F1
330
18
100
AcDbEntity
  8
1
100
AcDbLine
 10
23.15072151153627
 20
1.014175543216521
 30
0.0
 11
23.47608276071758
 21
0.858765846278231
 31
0.0
  0
LINE
  5
3F2
330
18
100
AcDbEntity
  8
1
100
AcDbLine
 10
23.47608276071758
 20
0.858765846278231
 30
0.0
 11
24.12679969754063
 21
0.5040805444626577
 31
0.0
  0
LINE
  5
3F3
330
18
100
AcDbEntity
  8
1
100
AcDbLine
 10
24.12679969754063
 20
0.5040805444626577
 30
0.0
 11
25.10286525276185
 21
-0.0877468198225498
 31
0.0
  0
LINE
  5
3F4
330
18
100
AcDbEntity
  8
1
100
AcDbLine
 10
34.407993834
 20
0.3880109502910498
 30
0.0
 11
33.62173029829781
 21
0.8273873041935219
 31
0.0
  0
LINE
  5
3F5
330
18
100
AcDbEntity
  8
1
100
AcDbLine
 10
33.62173029829781
 20
0.8273873041935219
 30
0.0
 11
33.22859230577352
 21
1.016867483130311
 31
0.0
  0
LINE
  5
3F6
330
18
100
AcDbEntity
  8
1
100
AcDbLine
 10
33.22859230577352
 20
1.016867483130311
 30
0.0
 11
32.8354648719209
 21
1.179284896107295
 31
0.0
  0
LINE
  5
3F7
330
18
100
AcDbEntity
  8
1
100
AcDbLine
 10
32.8354648719209
 20
1.179284896107295
 30
0.0
 11
32.63889628903141
 21
1.248966950812554
 31
0.0
  0
LINE
  5
3F8
330
18
100
AcDbEntity
  8
1
100
AcDbLine
 10
32.63889628903141
 20
1.248966950812554
 30
0.0
 11
32.44232608002608
 21
1.310326280882281
 31
0.0
  0
LINE
  5
3F9
330
18
100
AcDbEntity
  8
1
100
AcDbLine
 10
32.44232608002608
 20
1.310326280882281
 30
0.0
 11
32.24576128326557
 21
1.362952446251241
 31
0.0
  0
LINE
  5
3FA
330
18
100
AcDbEntity
  8
1
100
AcDbLine
 10
32.24576128326557
 20
1.362952446251241
 30
0.0
 11
32.04919813743668
 21
1.406496798501716
 31
0.0
  0
LINE
  5
3FB
330
18
100
AcDbEntity
  8
1
100
AcDbLine
 10
32.04919813743668
 20
1.406496798501716
 30
0.0
 11
31.85263277472324
 21
1.440670003580376
 31
0.0
  0
LINE
  5
3FC
330
18
100
AcDbEntity
  8
1
100
AcDbLine
 10
31.85263277472324
 20
1.440670003580376
 30
0.0
 11
31.65606203441743
 21
1.46524372773547
 31
0.0
  0
LINE
  5
3FD
330
18
100
AcDbEntity
  8
1
100
AcDbLine
 10
31.65606203441743
 20
1.46524372773547
 30
0.0
 11
31.45949444822078
 21
1.480052647126944
 31
0.0
  0
LINE
  5
3FE
330
18
100
AcDbEntity
  8
1
100
AcDbLine
 10
31.45949444822078
 20
1.480052647126944
 30
0.0
 11
31.26294270435621
 21
1.485
 31
0.0
  0
LINE
  5
3FF
330
18
100
AcDbEntity
  8
1
100
AcDbLine
 10
34.407993834
 20
1.264539307840066
 30
0.0
 11
34.07585454846861
 21
1.359600058799652
 31
0.0
  0
LINE
  5
400
330
18
100
AcDbEntity
  8
1
100
AcDbLine
 10
34.07585454846861
 20
1.359600058799652
 30
0.0
 11
33.90978073269564
 21
1.397536240671996
 31
0.0
  0
LINE
  5
401
330
18
100
AcDbEntity
  8
1
100
AcDbLine
 10
33.90978073269564
 20
1.397536240671996
 30
0.0
 11
33.74370833364061
 21
1.428822714331892
 31
0.0
  0
LINE
  5
402
330
18
100
AcDbEntity
  8
1
100
AcDbLine
 10
33.74370833364061
 20
1.428822714331892
 30
0.0
 11
33.57764217010816
 21
1.453311916099442
 31
0.0
  0
LINE
  5
403
330
18
100
AcDbEntity
  8
1
100
AcDbLine
 10
33.57764217010816
 20
1.453311916099442
 30
0.0
 11
33.41156781888495
 21
1.470889114322381
 31
0.0
  0
LINE
  5
404
330
18
100
AcDbEntity
  8
1
100
AcDbLine
 10
33.41156781888495
 20
1.470889114322381
 30
0.0
 11
33.24549606314024
 21
1.481467705609094
 31
0.0
  0
LINE
  5
405
330
18
100
AcDbEntity
  8
1
100
AcDbLine
 10
33.24549606314024
 20
1.481467705609094
 30
0.0
 11
33.07943543930767
 21
1.485
 31
0.0
  0
LINE
  5
406
330
18
100
AcDbEntity
  8
1
100
AcDbLine
 10
31.26294270435621
 20
1.485
 30
0.0
 11
33.07943543930767
 21
1.485
 31
0.0
  0
LINE
  5
407
330
18
100
AcDbEntity
  8
1
100
AcDbLine
 10
22.5
 20
-1.3042783824697
 30
0.0
 11
22.5
 21
-1.485
 31
0.0
  0
LINE
  5
408
330
18
100
AcDbEntity
  8
1
100
AcDbLine
 10
34.407993834
 20
-1.306527767846389
 30
0.0
 11
34.20471910583751
 21
-1.242342546965323
 31
0.0
  0
LINE
  5
409
330
18
100
AcDbEntity
  8
1
100
AcDbLine
 10
34.20471910583751
 20
-1.242342546965323
 30
0.0
 11
34.00144872577576
 21
-1.169306264719777
 31
0.0
  0
LINE
  5
40A
330
18
100
AcDbEntity
  8
1
100
AcDbLine
 10
34.00144872577576
 20
-1.169306264719777
 30
0.0
 11
33.59491013435991
 21
-0.9988196494476195
 31
0.0
  0
LINE
  5
40B
330
18
100
AcDbEntity
  8
1
100
AcDbLine
 10
33.59491013435991
 20
-0.9988196494476195
 30
0.0
 11
33.18836101391102
 21
-0.7999101540298682
 31
0.0
  0
LINE
  5
40C
330
18
100
AcDbEntity
  8
1
100
AcDbLine
 10
33.18836101391102
 20
-0.7999101540298682
 30
0.0
 11
32.78182119393479
 21
-0.5782463042254017
 31
0.0
  0
LINE
  5
40D
330
18
100
AcDbEntity
  8
1
100
AcDbLine
 10
32.78182119393479
 20
-0.5782463042254017
 30
0.0
 11
31.9687317557344
 21
-0.0923326665965086
 31
0.0
  0
LINE
  5
40E
330
18
100
AcDbEntity
  8
1
100
AcDbLine
 10
31.9687317557344
 20
-0.0923326665965086
 30
0.0
 11
31.15566678743167
 21
0.4039997616440801
 31
0.0
  0
LINE
  5
40F
330
18
100
AcDbEntity
  8
1
100
AcDbLine
 10
34.407993834
 20
-1.016230305950686
 30
0.0
 11
34.407993834
 21
0.3880109502910538
 31
0.0
  0
ARC
  5
410
330
18
100
AcDbEntity
  8
1
100
AcDbCircle
 10
23.72979266639371
 20
2.771069892570277
 30
0.0
 40
4.256735321713656
100
AcDbArc
 50
253.2080857099596
 51
269.599659816368
  0
LINE
  5
411
330
18
100
AcDbEntity
  8
1
100
AcDbLine
 10
34.407993834
 20
-1.306527767846389
 30
0.0
 11
34.407993834
 21
-1.016230305950686
 31
0.0
  0
LINE
  5
412
330
18
100
AcDbEntity
  8
1
100
AcDbLine
 10
34.407993834
 20
-1.306527767846389
 30
0.0
 11
34.407993834
 21
-1.461662825041226
 31
0.0
  0
LINE
  5
413
330
18
100
AcDbEntity
  8
1
100
AcDbLine
 10
34.407993834
 20
-1.461662825041226
 30
0.0
 11
34.407993834
 21
-1.485
 31
0.0
  0
LINE
  5
414
330
18
100
AcDbEntity
  8
1
100
AcDbLine
 10
34.407993834
 20
1.264539307840048
 30
0.0
 11
34.407993834
 21
0.3880109502910496
 31
0.0
  0
LINE
  5
415
330
18
100
AcDbEntity
  8
1
100
AcDbLine
 10
-0.0000000000000018
 20
-2.25
 30
0.0
 11
17.4
 21
-2.25
 31
0.0
  0
LINE
  5
416
330
18
100
AcDbEntity
  8
1
100
AcDbLine
 10
17.4
 20
-2.25
 30
0.0
 11
21.73853059
 21
-1.485
 31
0.0
  0
LINE
  5
417
330
18
100
AcDbEntity
  8
1
100
AcDbLine
 10
21.73853059
 20
-1.485
 30
0.0
 11
22.5
 21
-1.485000000000001
 31
0.0
  0
LINE
  5
418
330
18
100
AcDbEntity
  8
1
100
AcDbLine
 10
25.51654677678504
 20
-1.484999999963608
 30
0.0
 11
25.71813813215932
 21
-1.479795897736979
 31
0.0
  0
LINE
  5
419
330
18
100
AcDbEntity
  8
1
100
AcDbLine
 10
25.71813813215932
 20
-1.479795897736979
 30
0.0
 11
25.91972597589665
 21
-1.464221398071198
 31
0.0
  0
LINE
  5
41A
330
18
100
AcDbEntity
  8
1
100
AcDbLine
 10
25.91972597589665
 20
-1.464221398071198
 30
0.0
 11
26.12131314478926
 21
-1.43838603713071
 31
0.0
  0
LINE
  5
41B
330
18
100
AcDbEntity
  8
1
100
AcDbLine
 10
26.12131314478926
 20
-1.43838603713071
 30
0.0
 11
26.32290269034289
 21
-1.402470197332298
 31
0.0
  0
LINE
  5
41C
330
18
100
AcDbEntity
  8
1
100
AcDbLine
 10
26.32290269034289
 20
-1.402470197332298
 30
0.0
 11
26.52449701139442
 21
-1.356724076110049
 31
0.0
  0
LINE
  5
41D
330
18
100
AcDbEntity
  8
1
100
AcDbLine
 10
26.52449701139442
 20
-1.356724076110049
 30
0.0
 11
26.72608847600121
 21
-1.301469690587957
 31
0.0
  0
LINE
  5
41E
330
18
100
AcDbEntity
  8
1
100
AcDbLine
 10
26.72608847600121
 20
-1.301469690587957
 30
0.0
 11
26.92767625931687
 21
-1.237095560322109
 31
0.0
  0
LINE
  5
41F
330
18
100
AcDbEntity
  8
1
100
AcDbLine
 10
26.92767625931687
 20
-1.237095560322109
 30
0.0
 11
27.12926337555695
 21
-1.164052383072843
 31
0.0
  0
LINE
  5
420
330
18
100
AcDbEntity
  8
1
100
AcDbLine
 10
23.70005393963109
 20
-1.485
 30
0.0
 11
25.51654677678504
 21
-1.485
 31
0.0
  0
LINE
  5
421
330
18
100
AcDbEntity
  8
1
100
AcDbLine
 10
30.55847255287736
 20
-1.484999999974582
 30
0.0
 11
30.41958166938896
 21
-1.482528530051435
 31
0.0
  0
LINE
  5
422
330
18
100
AcDbEntity
  8
1
100
AcDbLine
 10
30.41958166938896
 20
-1.482528530051435
 30
0.0
 11
30.28067888447791
 21
-1.475123876666448
 31
0.0
  0
LINE
  5
423
330
18
100
AcDbEntity
  8
1
100
AcDbLine
 10
30.28067888447791
 20
-1.475123876666448
 30
0.0
 11
30.14178292376715
 21
-1.462809088382673
 31
0.0
  0
LINE
  5
424
330
18
100
AcDbEntity
  8
1
100
AcDbLine
 10
30.14178292376715
 20
-1.462809088382673
 30
0.0
 11
29.86398406236594
 21
-1.423632079324827
 31
0.0
  0
LINE
  5
425
330
18
100
AcDbEntity
  8
1
100
AcDbLine
 10
29.86398406236594
 20
-1.423632079324827
 30
0.0
 11
29.58618548620856
 21
-1.365518681384017
 31
0.0
  0
LINE
  5
426
330
18
100
AcDbEntity
  8
1
100
AcDbLine
 10
29.58618548620856
 20
-1.365518681384017
 30
0.0
 11
29.30838760614425
 21
-1.289242033880709
 31
0.0
  0
LINE
  5
427
330
18
100
AcDbEntity
  8
1
100
AcDbLine
 10
29.30838760614425
 20
-1.289242033880709
 30
0.0
 11
29.03059084238723
 21
-1.195816950989224
 31
0.0
  0
LINE
  5
428
330
18
100
AcDbEntity
  8
1
100
AcDbLine
 10
29.03059084238723
 20
-1.195816950989224
 30
0.0
 11
28.7527956242169
 21
-1.086486419767462
 31
0.0
  0
LINE
  5
429
330
18
100
AcDbEntity
  8
1
100
AcDbLine
 10
28.7527956242169
 20
-1.086486419767462
 30
0.0
 11
28.47500114216632
 21
-0.9627044871516373
 31
0.0
  0
LINE
  5
42A
330
18
100
AcDbEntity
  8
1
100
AcDbLine
 10
28.47500114216632
 20
-0.9627044871516373
 30
0.0
 11
27.91940772594043
 21
-0.6785395464924339
 31
0.0
  0
LINE
  5
42B
330
18
100
AcDbEntity
  8
1
100
AcDbLine
 10
27.91940772594043
 20
-0.6785395464924339
 30
0.0
 11
27.36381094767509
 21
-0.3583907820164169
 31
0.0
  0
LINE
  5
42C
330
18
100
AcDbEntity
  8
1
100
AcDbLine
 10
27.36381094767509
 20
-0.3583907820164169
 30
0.0
 11
26.11374100582329
 21
0.4039998139697756
 31
0.0
  0
LINE
  5
42D
330
18
100
AcDbEntity
  8
1
100
AcDbLine
 10
28.74197977961821
 20
-1.485
 30
0.0
 11
30.55847255287738
 21
-1.485
 31
0.0
  0
LINE
  5
42E
330
18
100
AcDbEntity
  8
1
100
AcDbLine
 10
25.10286525276185
 20
-0.0877468198225498
 30
0.0
 11
26.01264096272626
 21
-0.628540722634372
 31
0.0
  0
LINE
  5
42F
330
18
100
AcDbEntity
  8
1
100
AcDbLine
 10
26.01264096272626
 20
-0.628540722634372
 30
0.0
 11
26.46753436402196
 21
-0.8700746452445427
 31
0.0
  0
LINE
  5
430
330
18
100
AcDbEntity
  8
1
100
AcDbLine
 10
26.46753436402196
 20
-0.8700746452445427
 30
0.0
 11
26.92242607890953
 21
-1.080632805693746
 31
0.0
  0
LINE
  5
431
330
18
100
AcDbEntity
  8
1
100
AcDbLine
 10
26.92242607890953
 20
-1.080632805693746
 30
0.0
 11
27.14987028053995
 21
-1.171902637362363
 31
0.0
  0
LINE
  5
432
330
18
100
AcDbEntity
  8
1
100
AcDbLine
 10
27.14987028053995
 20
-1.171902637362363
 30
0.0
 11
27.37731383723755
 21
-1.252719246589169
 31
0.0
  0
LINE
  5
433
330
18
100
AcDbEntity
  8
1
100
AcDbLine
 10
27.37731383723755
 20
-1.252719246589169
 30
0.0
 11
27.60475708337265
 21
-1.322362001831396
 31
0.0
  0
LINE
  5
434
330
18
100
AcDbEntity
  8
1
100
AcDbLine
 10
27.60475708337265
 20
-1.322362001831396
 30
0.0
 11
27.83220034561916
 21
-1.38020985753935
 31
0.0
  0
LINE
  5
435
330
18
100
AcDbEntity
  8
1
100
AcDbLine
 10
27.83220034561916
 20
-1.38020985753935
 30
0.0
 11
28.05964394297191
 21
-1.425746881279428
 31
0.0
  0
LINE
  5
436
330
18
100
AcDbEntity
  8
1
100
AcDbLine
 10
28.05964394297191
 20
-1.425746881279428
 30
0.0
 11
28.28708818665594
 21
-1.458566849089908
 31
0.0
  0
LINE
  5
437
330
18
100
AcDbEntity
  8
1
100
AcDbLine
 10
28.28708818665594
 20
-1.458566849089908
 30
0.0
 11
28.51453337992396
 21
-1.478376868258001
 31
0.0
  0
LINE
  5
438
330
18
100
AcDbEntity
  8
1
100
AcDbLine
 10
28.51453337992396
 20
-1.478376868258001
 30
0.0
 11
28.74197977961822
 21
-1.484999999977343
 31
0.0
  0
LINE
  5
439
330
18
100
AcDbEntity
  8
1
100
AcDbLine
 10
33.78390562898989
 20
-1.484999999957633
 30
0.0
 11
33.55645890990062
 21
-1.478376788738538
 31
0.0
  0
LINE
  5
43A
330
18
100
AcDbEntity
  8
1
100
AcDbLine
 10
33.55645890990062
 20
-1.478376788738538
 30
0.0
 11
33.32901334525009
 21
-1.458566687427898
 31
0.0
  0
LINE
  5
43B
330
18
100
AcDbEntity
  8
1
100
AcDbLine
 10
33.32901334525009
 20
-1.458566687427898
 30
0.0
 11
33.10156874339594
 21
-1.42574662564433
 31
0.0
  0
LINE
  5
43C
330
18
100
AcDbEntity
  8
1
100
AcDbLine
 10
33.10156874339594
 20
-1.42574662564433
 30
0.0
 11
32.87412473606683
 21
-1.380209480947093
 31
0.0
  0
LINE
  5
43D
330
18
100
AcDbEntity
  8
1
100
AcDbLine
 10
32.87412473606683
 20
-1.380209480947093
 30
0.0
 11
32.64668096458245
 21
-1.322361447429268
 31
0.0
  0
LINE
  5
43E
330
18
100
AcDbEntity
  8
1
100
AcDbLine
 10
32.64668096458245
 20
-1.322361447429268
 30
0.0
 11
32.41923707917622
 21
-1.252718422180249
 31
0.0
  0
LINE
  5
43F
330
18
100
AcDbEntity
  8
1
100
AcDbLine
 10
32.41923707917622
 20
-1.252718422180249
 30
0.0
 11
32.1917927384909
 21
-1.171901418828154
 31
0.0
  0
LINE
  5
440
330
18
100
AcDbEntity
  8
1
100
AcDbLine
 10
32.1917927384909
 20
-1.171901418828154
 30
0.0
 11
31.96434760922128
 21
-1.080631048373984
 31
0.0
  0
LINE
  5
441
330
18
100
AcDbEntity
  8
1
100
AcDbLine
 10
31.96434760922128
 20
-1.080631048373984
 30
0.0
 11
31.50945374100543
 21
-0.8700714128479249
 31
0.0
  0
LINE
  5
442
330
18
100
AcDbEntity
  8
1
100
AcDbLine
 10
31.50945374100543
 20
-0.8700714128479249
 30
0.0
 11
31.05456086866336
 21
-0.6285373589868601
 31
0.0
  0
LINE
  5
443
330
18
100
AcDbEntity
  8
1
100
AcDbLine
 10
31.05456086866336
 20
-0.6285373589868601
 30
0.0
 11
30.14479015618737
 21
-0.0877462687396794
 31
0.0
  0
LINE
  5
444
330
18
100
AcDbEntity
  8
1
100
AcDbLine
 10
33.78390562898988
 20
-1.485
 30
0.0
 11
34.407993834
 21
-1.485
 31
0.0
  0
LINE
  5
445
330
18
100
AcDbEntity
  8
1
100
AcDbLine
 10
26.11374100582329
 20
0.4039998139697756
 30
0.0
 11
25.33419475439929
 21
0.8376933332453569
 31
0.0
  0
LINE
  5
446
330
18
100
AcDbEntity
  8
1
100
AcDbLine
 10
25.33419475439929
 20
0.8376933332453569
 30
0.0
 11
24.94442775123647
 21
1.024397732734864
 31
0.0
  0
LINE
  5
447
330
18
100
AcDbEntity
  8
1
100
AcDbLine
 10
24.94442775123647
 20
1.024397732734864
 30
0.0
 11
24.55464934029227
 21
1.184311379199775
 31
0.0
  0
LINE
  5
448
330
18
100
AcDbEntity
  8
1
100
AcDbLine
 10
24.55464934029227
 20
1.184311379199775
 30
0.0
 11
24.3597653616443
 21
1.252879669614774
 31
0.0
  0
LINE
  5
449
330
18
100
AcDbEntity
  8
1
100
AcDbLine
 10
24.3597653616443
 20
1.252879669614774
 30
0.0
 11
24.16488238112245
 21
1.313241757976694
 31
0.0
  0
LINE
  5
44A
330
18
100
AcDbEntity
  8
1
100
AcDbLine
 10
24.16488238112245
 20
1.313241757976694
 30
0.0
 11
23.96999614643926
 21
1.365003353071803
 31
0.0
  0
LINE
  5
44B
330
18
100
AcDbEntity
  8
1
100
AcDbLine
 10
23.96999614643926
 20
1.365003353071803
 30
0.0
 11
23.77510519863672
 21
1.407824517165049
 31
0.0
  0
LINE
  5
44C
330
18
100
AcDbEntity
  8
1
100
AcDbLine
 10
23.77510519863672
 20
1.407824517165049
 30
0.0
 11
23.5802194177271
 21
1.441422611573989
 31
0.0
  0
LINE
  5
44D
330
18
100
AcDbEntity
  8
1
100
AcDbLine
 10
23.5802194177271
 20
1.441422611573989
 30
0.0
 11
23.38533651983241
 21
1.46557927552059
 31
0.0
  0
LINE
  5
44E
330
18
100
AcDbEntity
  8
1
100
AcDbLine
 10
23.38533651983241
 20
1.46557927552059
 30
0.0
 11
23.19045377416548
 21
1.480137248197463
 31
0.0
  0
LINE
  5
44F
330
18
100
AcDbEntity
  8
1
100
AcDbLine
 10
23.19045377416548
 20
1.480137248197463
 30
0.0
 11
22.9955838161683
 21
1.485
 31
0.0
  0
LINE
  5
450
330
18
100
AcDbEntity
  8
1
100
AcDbLine
 10
32.17118896905898
 20
-1.164052328300364
 30
0.0
 11
31.96959962129953
 21
-1.237096441117108
 31
0.0
  0
LINE
  5
451
330
18
100
AcDbEntity
  8
1
100
AcDbLine
 10
31.96959962129953
 20
-1.237096441117108
 30
0.0
 11
31.76800811564827
 21
-1.301471686296949
 31
0.0
  0
LINE
  5
452
330
18
100
AcDbEntity
  8
1
100
AcDbLine
 10
31.76800811564827
 20
-1.301471686296949
 30
0.0
 11
31.56641190665485
 21
-1.356726814315827
 31
0.0
  0
LINE
  5
453
330
18
100
AcDbEntity
  8
1
100
AcDbLine
 10
31.56641190665485
 20
-1.356726814315827
 30
0.0
 11
31.36481792128658
 21
-1.402472134205825
 31
0.0
  0
LINE
  5
454
330
18
100
AcDbEntity
  8
1
100
AcDbLine
 10
31.36481792128658
 20
-1.402472134205825
 30
0.0
 11
31.16322774151699
 21
-1.438387640551023
 31
0.0
  0
LINE
  5
455
330
18
100
AcDbEntity
  8
1
100
AcDbLine
 10
31.16322774151699
 20
-1.438387640551023
 30
0.0
 11
30.96163847672161
 21
-1.464222852335082
 31
0.0
  0
LINE
  5
456
330
18
100
AcDbEntity
  8
1
100
AcDbLine
 10
30.96163847672161
 20
-1.464222852335082
 30
0.0
 11
30.76004815853146
 21
-1.479797045153042
 31
0.0
  0
LINE
  5
457
330
18
100
AcDbEntity
  8
1
100
AcDbLine
 10
30.76004815853146
 20
-1.479797045153042
 30
0.0
 11
30.55847255287736
 21
-1.484999999974582
 31
0.0
  0
LINE
  5
458
330
18
100
AcDbEntity
  8
1
100
AcDbLine
 10
30.14479015618737
 20
-0.0877462687396794
 30
0.0
 11
29.16386090501075
 21
0.5069022629836873
 31
0.0
  0
LINE
  5
459
330
18
100
AcDbEntity
  8
1
100
AcDbLine
 10
29.16386090501075
 20
0.5069022629836873
 30
0.0
 11
28.6733868942406
 21
0.7788371252166854
 31
0.0
  0
LINE
  5
45A
330
18
100
AcDbEntity
  8
1
100
AcDbLine
 10
28.6733868942406
 20
0.7788371252166854
 30
0.0
 11
28.1829126743741
 21
1.018554001598669
 31
0.0
  0
LINE
  5
45B
330
18
100
AcDbEntity
  8
1
100
AcDbLine
 10
28.1829126743741
 20
1.018554001598669
 30
0.0
 11
27.93767547774483
 21
1.123168082543643
 31
0.0
  0
LINE
  5
45C
330
18
100
AcDbEntity
  8
1
100
AcDbLine
 10
27.93767547774483
 20
1.123168082543643
 30
0.0
 11
27.69243822005421
 21
1.216136472353804
 31
0.0
  0
LINE
  5
45D
330
18
100
AcDbEntity
  8
1
100
AcDbLine
 10
27.69243822005421
 20
1.216136472353804
 30
0.0
 11
27.44720089958256
 21
1.296495204279331
 31
0.0
  0
LINE
  5
45E
330
18
100
AcDbEntity
  8
1
100
AcDbLine
 10
27.44720089958256
 20
1.296495204279331
 30
0.0
 11
27.20196351521071
 21
1.363411054907485
 31
0.0
  0
LINE
  5
45F
330
18
100
AcDbEntity
  8
1
100
AcDbLine
 10
27.20196351521071
 20
1.363411054907485
 30
0.0
 11
26.95672606644514
 21
1.416190184083401
 31
0.0
  0
LINE
  5
460
330
18
100
AcDbEntity
  8
1
100
AcDbLine
 10
26.95672606644514
 20
1.416190184083401
 30
0.0
 11
26.71148855345232
 21
1.454285329674872
 31
0.0
  0
LINE
  5
461
330
18
100
AcDbEntity
  8
1
100
AcDbLine
 10
26.71148855345232
 20
1.454285329674872
 30
0.0
 11
26.4662510183679
 21
1.477301480154262
 31
0.0
  0
LINE
  5
462
330
18
100
AcDbEntity
  8
1
100
AcDbLine
 10
26.4662510183679
 20
1.477301480154262
 30
0.0
 11
26.22101685525499
 21
1.485
 31
0.0
  0
LINE
  5
463
330
18
100
AcDbEntity
  8
1
100
AcDbLine
 10
24.60830028849026
 20
1.164052345986446
 30
0.0
 11
24.80988980275437
 21
1.237096786877803
 31
0.0
  0
LINE
  5
464
330
18
100
AcDbEntity
  8
1
100
AcDbLine
 10
24.80988980275437
 20
1.237096786877803
 30
0.0
 11
25.01148402945728
 21
1.301472704679195
 31
0.0
  0
LINE
  5
465
330
18
100
AcDbEntity
  8
1
100
AcDbLine
 10
25.01148402945728
 20
1.301472704679195
 30
0.0
 11
25.21307679525835
 21
1.356726353331203
 31
0.0
  0
LINE
  5
466
330
18
100
AcDbEntity
  8
1
100
AcDbLine
 10
25.21307679525835
 20
1.356726353331203
 30
0.0
 11
25.41466548090425
 21
1.402470634610003
 31
0.0
  0
LINE
  5
467
330
18
100
AcDbEntity
  8
1
100
AcDbLine
 10
25.41466548090425
 20
1.402470634610003
 30
0.0
 11
25.61625300629773
 21
1.43838637196215
 31
0.0
  0
LINE
  5
468
330
18
100
AcDbEntity
  8
1
100
AcDbLine
 10
25.61625300629773
 20
1.43838637196215
 30
0.0
 11
25.81784225903409
 21
1.464222321536375
 31
0.0
  0
LINE
  5
469
330
18
100
AcDbEntity
  8
1
100
AcDbLine
 10
25.81784225903409
 20
1.464222321536375
 30
0.0
 11
26.01943606380438
 21
1.479796861813023
 31
0.0
  0
LINE
  5
46A
330
18
100
AcDbEntity
  8
1
100
AcDbLine
 10
26.01943606380438
 20
1.479796861813023
 30
0.0
 11
26.22101685525499
 21
1.485
 31
0.0
  0
LINE
  5
46B
330
18
100
AcDbEntity
  8
1
100
AcDbLine
 10
31.15566678743167
 20
0.4039997616440801
 30
0.0
 11
30.37612384412129
 21
0.8376914786898364
 31
0.0
  0
LINE
  5
46C
330
18
100
AcDbEntity
  8
1
100
AcDbLine
 10
30.37612384412129
 20
0.8376914786898364
 30
0.0
 11
29.98635146934638
 21
1.024398879947953
 31
0.0
  0
LINE
  5
46D
330
18
100
AcDbEntity
  8
1
100
AcDbLine
 10
29.98635146934638
 20
1.024398879947953
 30
0.0
 11
29.59658085855379
 21
1.184308884545294
 31
0.0
  0
LINE
  5
46E
330
18
100
AcDbEntity
  8
1
100
AcDbLine
 10
29.59658085855379
 20
1.184308884545294
 30
0.0
 11
29.40169860270125
 21
1.252877304804784
 31
0.0
  0
LINE
  5
46F
330
18
100
AcDbEntity
  8
1
100
AcDbLine
 10
29.40169860270125
 20
1.252877304804784
 30
0.0
 11
29.20681265446126
 21
1.313240877378463
 31
0.0
  0
LINE
  5
470
330
18
100
AcDbEntity
  8
1
100
AcDbLine
 10
29.20681265446126
 20
1.313240877378463
 30
0.0
 11
29.011922644989
 21
1.365003097160927
 31
0.0
  0
LINE
  5
471
330
18
100
AcDbEntity
  8
1
100
AcDbLine
 10
29.011922644989
 20
1.365003097160927
 30
0.0
 11
28.81703817890257
 21
1.407822612233841
 31
0.0
  0
LINE
  5
472
330
18
100
AcDbEntity
  8
1
100
AcDbLine
 10
28.81703817890257
 20
1.407822612233841
 30
0.0
 11
28.6221562229026
 21
1.441420865450502
 31
0.0
  0
LINE
  5
473
330
18
100
AcDbEntity
  8
1
100
AcDbLine
 10
28.6221562229026
 20
1.441420865450502
 30
0.0
 11
28.42727255092523
 21
1.465578671919534
 31
0.0
  0
LINE
  5
474
330
18
100
AcDbEntity
  8
1
100
AcDbLine
 10
28.42727255092523
 20
1.465578671919534
 30
0.0
 11
28.23238326585921
 21
1.480137141185408
 31
0.0
  0
LINE
  5
475
330
18
100
AcDbEntity
  8
1
100
AcDbLine
 10
28.23238326585921
 20
1.480137141185408
 30
0.0
 11
28.03750966615327
 21
1.485
 31
0.0
  0
LINE
  5
476
330
18
100
AcDbEntity
  8
1
100
AcDbLine
 10
29.65022608922092
 20
1.164052402453733
 30
0.0
 11
29.85181671866061
 21
1.237097249402703
 31
0.0
  0
LINE
  5
477
330
18
100
AcDbEntity
  8
1
100
AcDbLine
 10
29.85181671866061
 20
1.237097249402703
 30
0.0
 11
30.05341178086275
 21
1.301473228833512
 31
0.0
  0
LINE
  5
478
330
18
100
AcDbEntity
  8
1
100
AcDbLine
 10
30.05341178086275
 20
1.301473228833512
 30
0.0
 11
30.25500324483995
 21
1.356726403555244
 31
0.0
  0
LINE
  5
479
330
18
100
AcDbEntity
  8
1
100
AcDbLine
 10
30.25500324483995
 20
1.356726403555244
 30
0.0
 11
30.45659141930325
 21
1.402470625872722
 31
0.0
  0
LINE
  5
47A
330
18
100
AcDbEntity
  8
1
100
AcDbLine
 10
30.45659141930325
 20
1.402470625872722
 30
0.0
 11
30.65817922013787
 21
1.438386509123383
 31
0.0
  0
LINE
  5
47B
330
18
100
AcDbEntity
  8
1
100
AcDbLine
 10
30.65817922013787
 20
1.438386509123383
 30
0.0
 11
30.85976953081989
 21
1.464222578760582
 31
0.0
  0
LINE
  5
47C
330
18
100
AcDbEntity
  8
1
100
AcDbLine
 10
30.85976953081989
 20
1.464222578760582
 30
0.0
 11
31.06136437862364
 21
1.479796948609954
 31
0.0
  0
LINE
  5
47D
330
18
100
AcDbEntity
  8
1
100
AcDbLine
 10
31.06136437862364
 20
1.479796948609954
 30
0.0
 11
31.2629427043562
 21
1.485
 31
0.0
  0
ARC
  5
47E
330
18
100
AcDbEntity
  8
1
 62
     1
100
AcDbCircle
 10
45.60300904553359
 20
6.331416347603373
 30
0.0
 40
7.35836345307376
100
AcDbArc
 50
235.8368293880404
 51
239.7773282693269
  0
ARC
  5
47F
330
18
100
AcDbEntity
  8
1
 62
     1
100
AcDbCircle
 10
42.98316372682646
 20
2.727094265173608
 30
0.0
 40
3.963358160825313
100
AcDbArc
 50
247.5694363804771
 51
254.1259741706769
  0
LINE
  5
480
330
18
100
AcDbEntity
  8
1
 62
     1
100
AcDbLine
 10
41.89909714489096
 20
-0.0267530938774072
 30
0.0
 11
41.89909714489095
 21
-1.085109393855976
 31
0.0
  0
LINE
  5
481
330
18
100
AcDbEntity
  8
1
 62
     1
100
AcDbLine
 10
41.06241102227132
 20
0.5337451430322739
 30
0.0
 11
40.86915968841852
 21
0.680584717698207
 31
0.0
  0
LINE
  5
482
330
18
100
AcDbEntity
  8
1
 62
     1
100
AcDbLine
 10
40.86915968841853
 20
0.6805847176982184
 30
0.0
 11
40.86915968841853
 21
-0.6404012299396997
 31
0.0
  0
LINE
  5
483
330
18
100
AcDbEntity
  8
1
 62
     1
100
AcDbLine
 10
41.06241102227132
 20
0.5337451430322739
 30
0.0
 11
41.06241102227132
 21
-0.7459137287097513
 31
0.0
  0
ARC
  5
484
330
18
100
AcDbEntity
  8
1
 62
     1
100
AcDbCircle
 10
-8.93427825414178
 20
27.11691451244935
 30
0.0
 40
57.16288105679244
100
AcDbArc
 50
329.3868990803325
 51
330.0595899131136
  0
LINE
  5
485
330
18
100
AcDbEntity
  8
1
 62
     1
100
AcDbLine
 10
40.26154701076759
 20
-1.992600631229778
 30
0.0
 11
40.26154701076759
 21
-2.0
 31
0.0
  0
LINE
  5
486
330
18
100
AcDbEntity
  8
1
 62
     1
100
AcDbLine
 10
40.6
 20
-1.4137825
 30
0.0
 11
40.26154701076759
 21
-2.000000000000003
 31
0.0
  0
LINE
  5
487
330
18
100
AcDbEntity
  8
1
 62
     1
100
AcDbLine
 10
40.6
 20
-1.4137825
 30
0.0
 11
40.60000000000001
 21
-1.413782499999929
 31
0.0
  0
LINE
  5
488
330
18
100
AcDbEntity
  8
1
 62
     1
100
AcDbLine
 10
40.60000000000001
 20
-1.413782499999929
 30
0.0
 11
40.6
 21
-1.413782499979541
 31
0.0
  0
LINE
  5
489
330
18
100
AcDbEntity
  8
1
 62
     1
100
AcDbLine
 10
40.6
 20
-1.413782499979541
 30
0.0
 11
40.60000000000001
 21
-1.413782494723692
 31
0.0
  0
LINE
  5
48A
330
18
100
AcDbEntity
  8
1
 62
     1
100
AcDbLine
 10
40.60000000000001
 20
-1.413782494723692
 30
0.0
 11
40.6
 21
-1.413781147921399
 31
0.0
  0
LINE
  5
48B
330
18
100
AcDbEntity
  8
1
 62
     1
100
AcDbLine
 10
40.6
 20
-1.413781147921399
 30
0.0
 11
40.60000000000001
 21
-1.41368439196289
 31
0.0
  0
LINE
  5
48C
330
18
100
AcDbEntity
  8
1
 62
     1
100
AcDbLine
 10
40.60000000000001
 20
-1.41368439196289
 30
0.0
 11
40.60000000000001
 21
-1.413065381880621
 31
0.0
  0
LINE
  5
48D
330
18
100
AcDbEntity
  8
1
 62
     1
100
AcDbLine
 10
40.64179037542889
 20
-1.486165519761603
 30
0.0
 11
40.6
 21
-1.4137825
 31
0.0
  0
ARC
  5
48E
330
18
100
AcDbEntity
  8
1
 62
     1
100
AcDbCircle
 10
47.81488354558393
 20
2.643116191610713
 30
0.0
 40
8.276715438242729
100
AcDbArc
 50
209.9274262426158
 51
212.9447370698927
  0
ARC
  5
48F
330
18
100
AcDbEntity
  8
1
 62
     1
100
AcDbCircle
 10
62.91116325947682
 20
-14.10491739680204
 30
0.0
 40
25.08599927737093
100
AcDbArc
 50
149.4836381104886
 51
150.5696684162033
  0
ARC
  5
490
330
18
100
AcDbEntity
  8
1
 62
     1
100
AcDbCircle
 10
44.29981105152368
 20
0.7816644532387209
 30
0.0
 40
3.689724841575698
100
AcDbArc
 50
215.608407043359
 51
219.9396469790904
  0
LINE
  5
491
330
18
100
AcDbEntity
  8
1
 62
     1
100
AcDbLine
 10
38.83845298923242
 20
1.864651709896116
 30
0.0
 11
38.83845298923242
 21
0.9188295475350843
 31
0.0
  0
LINE
  5
492
330
18
100
AcDbEntity
  8
1
 62
     1
100
AcDbLine
 10
37.43845298923242
 20
2.0
 30
0.0
 11
37.4615470107676
 21
2.0
 31
0.0
  0
LINE
  5
493
330
18
100
AcDbEntity
  8
1
 62
     1
100
AcDbLine
 10
36.73845298923241
 20
2.0
 30
0.0
 11
36.76154701076759
 21
2.0
 31
0.0
  0
ARC
  5
494
330
18
100
AcDbEntity
  8
1
 62
     1
100
AcDbCircle
 10
28.55677318235201
 20
-6.49949766222282
 30
0.0
 40
10.61034045953417
100
AcDbArc
 50
25.44522457580027
 51
29.40585508809379
  0
ARC
  5
495
330
18
100
AcDbEntity
  8
1
 62
     1
100
AcDbCircle
 10
29.38141907535511
 20
-5.548083834768124
 30
0.0
 40
9.806413885896706
100
AcDbArc
 50
26.75120268499832
 51
30.85356547742915
  0
LINE
  5
496
330
18
100
AcDbEntity
  8
1
 62
     1
100
AcDbLine
 10
37.80000000000001
 20
-1.289962476431016
 30
0.0
 11
37.80000000000002
 21
-0.5189291265054448
 31
0.0
  0
ARC
  5
497
330
18
100
AcDbEntity
  8
1
 62
     1
100
AcDbCircle
 10
39.1770415741975
 20
-3.760227150877521
 30
0.0
 40
3.398544028670266
100
AcDbArc
 50
127.6698932358922
 51
135.2963037677094
  0
ARC
  5
498
330
18
100
AcDbEntity
  8
1
 62
     1
100
AcDbCircle
 10
37.0523415221544
 20
0.6097410258528492
 30
0.0
 40
0.7316648529437317
100
AcDbArc
 50
246.5836497259088
 51
273.7360498234072
  0
LINE
  5
499
330
18
100
AcDbEntity
  8
1
 62
     1
100
AcDbLine
 10
36.76154701076759
 20
-0.0617196688360028
 30
0.0
 11
36.76154701076759
 21
-1.369587617755291
 31
0.0
  0
LINE
  5
49A
330
18
100
AcDbEntity
  8
1
 62
     1
100
AcDbLine
 10
37.1
 20
-1.069928926377543
 30
0.0
 11
37.19059712182791
 21
-1.220787995855414
 31
0.0
  0
LINE
  5
49B
330
18
100
AcDbEntity
  8
1
 62
     1
100
AcDbLine
 10
37.19059712182791
 20
-1.220787995855414
 30
0.0
 11
37.27743615969268
 21
-1.38272766531204
 31
0.0
  0
LINE
  5
49C
330
18
100
AcDbEntity
  8
1
 62
     1
100
AcDbLine
 10
37.27743615969268
 20
-1.38272766531204
 30
0.0
 11
37.43845298923241
 21
-1.720239694057286
 31
0.0
  0
LINE
  5
49D
330
18
100
AcDbEntity
  8
1
 62
     1
100
AcDbLine
 10
37.43845298923242
 20
-0.6140179482447196
 30
0.0
 11
37.43845298923242
 21
-1.720239694057275
 31
0.0
  0
ARC
  5
49E
330
18
100
AcDbEntity
  8
1
 62
     1
100
AcDbCircle
 10
33.68922148669733
 20
-2.81555091113897
 30
0.0
 40
4.347361625212433
100
AcDbArc
 50
30.4212765679777
 51
38.31831469084811
  0
LINE
  5
49F
330
18
100
AcDbEntity
  8
1
 62
     1
100
AcDbLine
 10
37.1
 20
-1.06992892637754
 30
0.0
 11
37.1
 21
-0.1201096386842067
 31
0.0
  0
ARC
  5
4A0
330
18
100
AcDbEntity
  8
1
 62
     1
100
AcDbCircle
 10
45.98722485640722
 20
-7.946587539242416
 30
0.0
 40
10.55153979572225
100
AcDbArc
 50
140.887156491086
 51
143.9017149030846
  0
ARC
  5
4A1
330
18
100
AcDbEntity
  8
1
 62
     1
100
AcDbCircle
 10
37.37125933086404
 20
0.1943746854744078
 30
0.0
 40
0.8316428185529698
100
AcDbArc
 50
276.2334001703807
 51
301.00852718379
  0
LINE
  5
4A2
330
18
100
AcDbEntity
  8
1
 62
     1
100
AcDbLine
 10
37.46154701076759
 20
-0.6322491684172522
 30
0.0
 11
37.4615470107676
 21
-1.729947185961939
 31
0.0
  0
ARC
  5
4A3
330
18
100
AcDbEntity
  8
1
 62
     1
100
AcDbCircle
 10
98.41408020228539
 20
-39.14128455435227
 30
0.0
 40
70.80913632686843
100
AcDbArc
 50
147.7933718981055
 51
148.3113617909366
  0
LINE
  5
4A4
330
18
100
AcDbEntity
  8
1
 62
     1
100
AcDbLine
 10
38.5
 20
-1.401694340143115
 30
0.0
 11
38.5
 21
-0.8741806772206607
 31
0.0
  0
ARC
  5
4A5
330
18
100
AcDbEntity
  8
1
 62
     1
100
AcDbCircle
 10
37.24541877501828
 20
0.3169933178369229
 30
0.0
 40
1.729405467020622
100
AcDbArc
 50
301.9898421081433
 51
316.4850844535925
  0
LINE
  5
4A6
330
18
100
AcDbEntity
  8
1
 62
     1
100
AcDbLine
 10
38.16154701076759
 20
-1.149696881059651
 30
0.0
 11
38.1615470107676
 21
-1.945065254101188
 31
0.0
  0
ARC
  5
4A7
330
18
100
AcDbEntity
  8
1
 62
     1
100
AcDbCircle
 10
170.8115521005405
 20
72.63107656199017
 30
0.0
 40
151.6152337039326
100
AcDbArc
 50
209.2284830521969
 51
209.4371988272642
  0
LINE
  5
4A8
330
18
100
AcDbEntity
  8
1
 62
     1
100
AcDbLine
 10
38.83845298923242
 20
-2.000000000000003
 30
0.0
 11
38.77089918761614
 21
-1.882993437910535
 31
0.0
  0
LINE
  5
4A9
330
18
100
AcDbEntity
  8
1
 62
     1
100
AcDbLine
 10
38.83845298923242
 20
-1.558668812588765
 30
0.0
 11
38.83845298923242
 21
-2.0
 31
0.0
  0
ARC
  5
4AA
330
18
100
AcDbEntity
  8
1
 62
     1
100
AcDbCircle
 10
17.14953140552447
 20
-11.85205816946304
 30
0.0
 40
24.00744429362523
100
AcDbArc
 50
25.38864329811578
 51
27.21109535660299
  0
ARC
  5
4AB
330
18
100
AcDbEntity
  8
1
 62
     1
100
AcDbCircle
 10
60.51706476654333
 20
8.975890049967651
 30
0.0
 40
23.05422414562874
100
AcDbArc
 50
206.5832703352978
 51
208.4046907725445
  0
LINE
  5
4AC
330
18
100
AcDbEntity
  8
1
 62
     1
100
AcDbLine
 10
39.90000000000001
 20
-1.4137825
 30
0.0
 11
39.90000000000001
 21
-1.413766424026071
 31
0.0
  0
LINE
  5
4AD
330
18
100
AcDbEntity
  8
1
 62
     1
100
AcDbLine
 10
39.90000000000001
 20
-1.413766424026071
 30
0.0
 11
39.90000000000001
 21
-1.408994246984621
 31
0.0
  0
LINE
  5
4AE
330
18
100
AcDbEntity
  8
1
 62
     1
100
AcDbLine
 10
39.90000000000001
 20
-1.408994246984621
 30
0.0
 11
39.90000000000001
 21
-1.34083851528893
 31
0.0
  0
LINE
  5
4AF
330
18
100
AcDbEntity
  8
1
 62
     1
100
AcDbLine
 10
40.23845298923241
 20
-2.000000000000002
 30
0.0
 11
39.90000000000001
 21
-1.4137825
 31
0.0
  0
LINE
  5
4B0
330
18
100
AcDbEntity
  8
1
 62
     1
100
AcDbLine
 10
40.23845298923241
 20
-1.990860094833516
 30
0.0
 11
40.23845298923241
 21
-2.0
 31
0.0
  0
ARC
  5
4B1
330
18
100
AcDbEntity
  8
1
 62
     1
100
AcDbCircle
 10
30.48557355621415
 20
4.427040853222264
 30
0.0
 40
11.04068483087446
100
AcDbArc
 50
325.290547591475
 51
328.5057016020409
  0
LINE
  5
4B2
330
18
100
AcDbEntity
  8
1
 62
     1
100
AcDbLine
 10
39.56154701076759
 20
-1.85967658862287
 30
0.0
 11
39.56154701076759
 21
-2.0
 31
0.0
  0
LINE
  5
4B3
330
18
100
AcDbEntity
  8
1
 62
     1
100
AcDbLine
 10
39.90000000000001
 20
-1.4137825
 30
0.0
 11
39.56154701076759
 21
-2.000000000000003
 31
0.0
  0
ARC
  5
4B4
330
18
100
AcDbEntity
  8
1
 62
     1
100
AcDbCircle
 10
-659.7763421278842
 20
-341.1313562423027
 30
0.0
 40
777.2716178969024
100
AcDbArc
 50
25.88075720522875
 51
25.93783926446988
  0
LINE
  5
4B5
330
18
100
AcDbEntity
  8
1
 62
     1
100
AcDbLine
 10
39.53845298923244
 20
-2.00000000000004
 30
0.0
 11
39.2
 21
-1.4137825
 31
0.0
  0
LINE
  5
4B6
330
18
100
AcDbEntity
  8
1
 62
     1
100
AcDbLine
 10
39.53845298923244
 20
-1.852531152985054
 30
0.0
 11
39.53845298923244
 21
-2.0
 31
0.0
  0
ARC
  5
4B7
330
18
100
AcDbEntity
  8
1
 62
     1
100
AcDbCircle
 10
35.76360673020229
 20
1.300161543761333
 30
0.0
 40
4.223637004546406
100
AcDbArc
 50
317.1795295033763
 51
324.4442929149641
  0
LINE
  5
4B8
330
18
100
AcDbEntity
  8
1
 62
     1
100
AcDbLine
 10
38.86154701076759
 20
-1.57061921152965
 30
0.0
 11
38.86154701076759
 21
-2.0
 31
0.0
  0
LINE
  5
4B9
330
18
100
AcDbEntity
  8
1
 62
     1
100
AcDbLine
 10
39.2
 20
-1.4137825
 30
0.0
 11
38.86154701076759
 21
-2.000000000000003
 31
0.0
  0
LINE
  5
4BA
330
18
100
AcDbEntity
  8
1
 62
     1
100
AcDbLine
 10
39.2
 20
-1.4137825
 30
0.0
 11
39.20000000000001
 21
-1.413728194725742
 31
0.0
  0
LINE
  5
4BB
330
18
100
AcDbEntity
  8
1
 62
     1
100
AcDbLine
 10
39.20000000000001
 20
-1.413728194725742
 30
0.0
 11
39.2
 21
-1.397232421697783
 31
0.0
  0
LINE
  5
4BC
330
18
100
AcDbEntity
  8
1
 62
     1
100
AcDbLine
 10
39.2
 20
-1.397232421697783
 30
0.0
 11
39.2
 21
-1.156038476218897
 31
0.0
  0
LINE
  5
4BD
330
18
100
AcDbEntity
  8
1
 62
     1
100
AcDbLine
 10
36.40000000000001
 20
-0.7600670975269802
 30
0.0
 11
36.44572135746142
 21
-0.8204447127586036
 31
0.0
  0
LINE
  5
4BE
330
18
100
AcDbEntity
  8
1
 62
     1
100
AcDbLine
 10
36.44572135746142
 20
-0.8204447127586036
 30
0.0
 11
36.49060127730509
 21
-0.8861988105231141
 31
0.0
  0
LINE
  5
4BF
330
18
100
AcDbEntity
  8
1
 62
     1
100
AcDbLine
 10
36.49060127730509
 20
-0.8861988105231141
 30
0.0
 11
36.53453081615433
 21
-0.956574150876044
 31
0.0
  0
LINE
  5
4C0
330
18
100
AcDbEntity
  8
1
 62
     1
100
AcDbLine
 10
36.53453081615433
 20
-0.956574150876044
 30
0.0
 11
36.61930247258378
 21
-1.108481352202617
 31
0.0
  0
LINE
  5
4C1
330
18
100
AcDbEntity
  8
1
 62
     1
100
AcDbLine
 10
36.61930247258378
 20
-1.108481352202617
 30
0.0
 11
36.73845298923241
 21
-1.35554298818159
 31
0.0
  0
LINE
  5
4C2
330
18
100
AcDbEntity
  8
1
 62
     1
100
AcDbLine
 10
36.73845298923242
 20
-0.0425399028393253
 30
0.0
 11
36.73845298923241
 21
-1.355542988181575
 31
0.0
  0
ARC
  5
4C3
330
18
100
AcDbEntity
  8
1
 62
     1
100
AcDbCircle
 10
35.32508853074702
 20
-1.142538144880838
 30
0.0
 40
1.790163477251436
100
AcDbArc
 50
37.89303346137008
 51
53.09393640936904
  0
LINE
  5
4C4
330
18
100
AcDbEntity
  8
1
 62
     1
100
AcDbLine
 10
36.40000000000001
 20
-0.7600670975270869
 30
0.0
 11
36.4
 21
0.2887940097513515
 31
0.0
  0
ARC
  5
4C5
330
18
100
AcDbEntity
  8
1
 62
     1
100
AcDbCircle
 10
36.7209995657995
 20
-2.066210085956806
 30
0.0
 40
1.344805488856859
100
AcDbArc
 50
103.8074496374203
 51
119.3659257227677
  0
ARC
  5
4C6
330
18
100
AcDbEntity
  8
1
 62
     1
100
AcDbCircle
 10
37.10423413136975
 20
1.663765188070563
 30
0.0
 40
1.552143244760783
100
AcDbArc
 50
227.7962764979742
 51
234.257782587475
  0
LINE
  5
4C7
330
18
100
AcDbEntity
  8
1
 62
     1
100
AcDbLine
 10
36.06154701076759
 20
0.5139916759338998
 30
0.0
 11
36.06154701076759
 21
-0.8942412194482775
 31
0.0
  0
LINE
  5
4C8
330
18
100
AcDbEntity
  8
1
 62
     1
100
AcDbLine
 10
35.7
 20
-0.386392074075002
 30
0.0
 11
35.72295712758338
 21
-0.4064999550649886
 31
0.0
  0
LINE
  5
4C9
330
18
100
AcDbEntity
  8
1
 62
     1
100
AcDbLine
 10
35.72295712758338
 20
-0.4064999550649886
 30
0.0
 11
35.74572135592258
 21
-0.4283968639142423
 31
0.0
  0
LINE
  5
4CA
330
18
100
AcDbEntity
  8
1
 62
     1
100
AcDbLine
 10
35.74572135592258
 20
-0.4283968639142423
 30
0.0
 11
35.76827549915823
 21
-0.4519942417661047
 31
0.0
  0
LINE
  5
4CB
330
18
100
AcDbEntity
  8
1
 62
     1
100
AcDbLine
 10
35.76827549915823
 20
-0.4519942417661047
 30
0.0
 11
35.79060126990692
 21
-0.47719946054081
 31
0.0
  0
LINE
  5
4CC
330
18
100
AcDbEntity
  8
1
 62
     1
100
AcDbLine
 10
35.79060126990692
 20
-0.47719946054081
 30
0.0
 11
35.83453080988922
 21
-0.5321052232528563
 31
0.0
  0
LINE
  5
4CD
330
18
100
AcDbEntity
  8
1
 62
     1
100
AcDbLine
 10
35.83453080988922
 20
-0.5321052232528563
 30
0.0
 11
35.87744341632418
 21
-0.5924659911710205
 31
0.0
  0
LINE
  5
4CE
330
18
100
AcDbEntity
  8
1
 62
     1
100
AcDbLine
 10
35.87744341632418
 20
-0.5924659911710205
 30
0.0
 11
35.91930248088431
 21
-0.6576798351985635
 31
0.0
  0
LINE
  5
4CF
330
18
100
AcDbEntity
  8
1
 62
     1
100
AcDbLine
 10
35.91930248088431
 20
-0.6576798351985635
 30
0.0
 11
35.96010058211274
 21
-0.7272035712589416
 31
0.0
  0
LINE
  5
4D0
330
18
100
AcDbEntity
  8
1
 62
     1
100
AcDbLine
 10
35.96010058211274
 20
-0.7272035712589416
 30
0.0
 11
36.03845298923242
 21
-0.8770386717198551
 31
0.0
  0
LINE
  5
4D1
330
18
100
AcDbEntity
  8
1
 62
     1
100
AcDbLine
 10
35.7
 20
0.673451218004044
 30
0.0
 11
35.74258854091256
 21
0.6657857213713578
 31
0.0
  0
LINE
  5
4D2
330
18
100
AcDbEntity
  8
1
 62
     1
100
AcDbLine
 10
35.74258854091256
 20
0.6657857213713578
 30
0.0
 11
35.78513791886316
 21
0.6552029554723088
 31
0.0
  0
LINE
  5
4D3
330
18
100
AcDbEntity
  8
1
 62
     1
100
AcDbLine
 10
35.78513791886316
 20
0.6552029554723088
 30
0.0
 11
35.82762187477368
 21
0.6417359206579287
 31
0.0
  0
LINE
  5
4D4
330
18
100
AcDbEntity
  8
1
 62
     1
100
AcDbLine
 10
35.82762187477368
 20
0.6417359206579287
 30
0.0
 11
35.87002248271423
 21
0.6254218401896101
 31
0.0
  0
LINE
  5
4D5
330
18
100
AcDbEntity
  8
1
 62
     1
100
AcDbLine
 10
35.87002248271423
 20
0.6254218401896101
 30
0.0
 11
35.91231899292685
 21
0.6062994846833557
 31
0.0
  0
LINE
  5
4D6
330
18
100
AcDbEntity
  8
1
 62
     1
100
AcDbLine
 10
35.91231899292685
 20
0.6062994846833557
 30
0.0
 11
35.95449977388852
 21
0.5844100278310089
 31
0.0
  0
LINE
  5
4D7
330
18
100
AcDbEntity
  8
1
 62
     1
100
AcDbLine
 10
35.95449977388852
 20
0.5844100278310089
 30
0.0
 11
35.99654708327861
 21
0.5597984022367428
 31
0.0
  0
LINE
  5
4D8
330
18
100
AcDbEntity
  8
1
 62
     1
100
AcDbLine
 10
35.99654708327861
 20
0.5597984022367428
 30
0.0
 11
36.03845298923241
 21
0.5325096487175098
 31
0.0
  0
ARC
  5
4D9
330
18
100
AcDbEntity
  8
1
 62
     1
100
AcDbCircle
 10
34.88398505910558
 20
-0.3067312078721149
 30
0.0
 40
0.3464668051956347
100
AcDbArc
 50
56.8006340012028
 51
70.43588072198988
  0
LINE
  5
4DA
330
18
100
AcDbEntity
  8
1
 62
     1
100
AcDbLine
 10
35.33845298923243
 20
1.062851247148555
 30
0.0
 11
35.33845298923243
 21
-0.3249004599786023
 31
0.0
  0
ARC
  5
4DB
330
18
100
AcDbEntity
  8
1
 62
     1
100
AcDbCircle
 10
35.28790863283486
 20
0.3804905744320006
 30
0.0
 40
0.684497976321907
100
AcDbArc
 50
85.76367857331554
 51
114.8707297194591
  0
LINE
  5
4DC
330
18
100
AcDbEntity
  8
1
 62
     1
100
AcDbLine
 10
35.0
 20
0.0197233784658696
 30
0.0
 11
35.0
 21
1.001567242784119
 31
0.0
  0
LINE
  5
4DD
330
18
100
AcDbEntity
  8
1
 62
     1
100
AcDbLine
 10
34.8211603138768
 20
1.411941079858253
 30
0.0
 11
34.66153815826635
 21
1.265971329208505
 31
0.0
  0
LINE
  5
4DE
330
18
100
AcDbEntity
  8
1
 62
     1
100
AcDbLine
 10
34.82116031387678
 20
0.1500458071952896
 30
0.0
 11
34.86585122508363
 21
0.1207113651145504
 31
0.0
  0
LINE
  5
4DF
330
18
100
AcDbEntity
  8
1
 62
     1
100
AcDbLine
 10
34.86585122508363
 20
0.1207113651145504
 30
0.0
 11
34.86645599388844
 21
0.1202993969061514
 31
0.0
  0
LINE
  5
4E0
330
18
100
AcDbEntity
  8
1
 62
     1
100
AcDbLine
 10
34.86645599388842
 20
0.1202993969061514
 30
0.0
 11
34.86646841712536
 21
0.1202909300490586
 31
0.0
  0
ARC
  5
4E1
330
18
100
AcDbEntity
  8
1
 62
     1
100
AcDbCircle
 10
38.84852712888108
 20
3.999356939815963
 30
0.0
 40
4.878358715198916
100
AcDbArc
 50
214.3550812447695
 51
217.9166178009771
  0
ARC
  5
4E2
330
18
100
AcDbEntity
  8
1
 62
     1
100
AcDbCircle
 10
35.41408415002397
 20
-1.280387105644403
 30
0.0
 40
0.9381414968300898
100
AcDbArc
 50
72.2647795383094
 51
93.21065528766194
  0
LINE
  5
4E3
330
18
100
AcDbEntity
  8
1
 62
     1
100
AcDbLine
 10
35.70000000000001
 20
-0.386392074075002
 30
0.0
 11
35.7
 21
0.673451218004044
 31
0.0
  0
ARC
  5
4E4
330
18
100
AcDbEntity
  8
1
 62
     1
100
AcDbCircle
 10
37.55448848903834
 20
2.691191905945463
 30
0.0
 40
2.741038430835061
100
AcDbArc
 50
216.8688275300792
 51
227.4141458571085
  0
LINE
  5
4E5
330
18
100
AcDbEntity
  8
1
 62
     1
100
AcDbLine
 10
35.36154701076759
 20
1.046549792694892
 30
0.0
 11
35.36154701076759
 21
-0.3438166247647663
 31
0.0
  0
LINE
  5
4E6
330
18
100
AcDbEntity
  8
1
 62
     1
100
AcDbLine
 10
41.89909714489094
 20
-1.085109393855971
 30
0.0
 11
42.0
 21
-1.013618641851748
 31
0.0
  0
LINE
  5
4E7
330
18
100
AcDbEntity
  8
1
 62
     1
100
AcDbLine
 10
41.3
 20
-0.6885070941938599
 30
0.0
 11
41.3
 21
0.3698376080929218
 31
0.0
  0
ARC
  5
4E8
330
18
100
AcDbEntity
  8
1
 62
     1
100
AcDbCircle
 10
40.05274291485662
 20
-1.727930670237177
 30
0.0
 40
1.623662663470537
100
AcDbArc
 50
29.1659395360687
 51
39.8067279302437
  0
LINE
  5
4E9
330
18
100
AcDbEntity
  8
1
 62
     1
100
AcDbLine
 10
41.47086195463609
 20
0.2427314855376571
 30
0.0
 11
41.47086195463609
 21
-0.9364767030875374
 31
0.0
  0
ARC
  5
4EA
330
18
100
AcDbEntity
  8
1
 62
     1
100
AcDbCircle
 10
41.97099876688648
 20
1.586944495654261
 30
0.0
 40
1.390937071675511
100
AcDbArc
 50
229.2158887178581
 51
238.2691982165299
  0
ARC
  5
4EB
330
18
100
AcDbEntity
  8
1
 62
     1
100
AcDbCircle
 10
41.47085734370808
 20
-1.917807891459147
 30
0.0
 40
1.241048099565037
100
AcDbArc
 50
97.91270109089723
 51
109.2152423353839
  0
ARC
  5
4EC
330
18
100
AcDbEntity
  8
1
 62
     1
100
AcDbCircle
 10
39.89587769276151
 20
-3.166435932532897
 30
0.0
 40
5.121728154636287
100
AcDbArc
 50
66.97575114732886
 51
72.09047287879726
  0
LINE
  5
4ED
330
18
100
AcDbEntity
  8
1
 62
     1
100
AcDbLine
 10
41.47086195463609
 20
1.70972394852741
 30
0.0
 11
41.89909714489095
 21
1.588551290191628
 31
0.0
  0
ARC
  5
4EE
330
18
100
AcDbEntity
  8
1
 62
     1
100
AcDbCircle
 10
40.30745345373261
 20
-1.775938833432555
 30
0.0
 40
3.670121645204522
100
AcDbArc
 50
78.12930756496405
 51
81.19636075606005
  0
ARC
  5
4EF
330
18
100
AcDbEntity
  8
1
 62
     1
100
AcDbCircle
 10
42.86492252284413
 20
3.002321288503573
 30
0.0
 40
3.197821174034006
100
AcDbArc
 50
215.5029004037577
 51
224.8970326539987
  0
LINE
  5
4F0
330
18
100
AcDbEntity
  8
1
 62
     1
100
AcDbLine
 10
40.26154701076758
 20
1.145152736881787
 30
0.0
 11
40.26154701076758
 21
-0.2271310389531761
 31
0.0
  0
ARC
  5
4F1
330
18
100
AcDbEntity
  8
1
 62
     1
100
AcDbCircle
 10
40.21384712814024
 20
-1.194235807791707
 30
0.0
 40
0.9683930854240753
100
AcDbArc
 50
66.51307767504306
 51
87.17632557638865
  0
LINE
  5
4F2
330
18
100
AcDbEntity
  8
1
 62
     1
100
AcDbLine
 10
40.6
 20
-0.3055903829276364
 30
0.0
 11
40.59999999999999
 21
0.7455248424277772
 31
0.0
  0
ARC
  5
4F3
330
18
100
AcDbEntity
  8
1
 62
     1
100
AcDbCircle
 10
40.57885806840997
 20
0.0715294372560037
 30
0.0
 40
0.6743817041406477
100
AcDbArc
 50
64.51554772405073
 51
88.20333139768924
  0
LINE
  5
4F4
330
18
100
AcDbEntity
  8
1
 62
     1
100
AcDbLine
 10
35.36154701076759
 20
-1.99926613904104
 30
0.0
 11
35.36154701076759
 21
-1.999817534715853
 31
0.0
  0
LINE
  5
4F5
330
18
100
AcDbEntity
  8
1
 62
     1
100
AcDbLine
 10
35.36154701076759
 20
-1.999817534715853
 30
0.0
 11
35.36154701076759
 21
-1.99995450947269
 31
0.0
  0
LINE
  5
4F6
330
18
100
AcDbEntity
  8
1
 62
     1
100
AcDbLine
 10
35.36154701076759
 20
-1.99995450947269
 30
0.0
 11
35.36154701076759
 21
-1.999988643140767
 31
0.0
  0
LINE
  5
4F7
330
18
100
AcDbEntity
  8
1
 62
     1
100
AcDbLine
 10
35.36154701076759
 20
-1.999988643140767
 30
0.0
 11
35.36154701076758
 21
-1.999997162759741
 31
0.0
  0
LINE
  5
4F8
330
18
100
AcDbEntity
  8
1
 62
     1
100
AcDbLine
 10
35.36154701076758
 20
-1.999997162759741
 30
0.0
 11
35.36154701076759
 21
-1.999999290936938
 31
0.0
  0
LINE
  5
4F9
330
18
100
AcDbEntity
  8
1
 62
     1
100
AcDbLine
 10
35.36154701076759
 20
-1.999999290936938
 30
0.0
 11
35.36154701076759
 21
-1.999999822765121
 31
0.0
  0
LINE
  5
4FA
330
18
100
AcDbEntity
  8
1
 62
     1
100
AcDbLine
 10
35.36154701076759
 20
-1.999999822765121
 30
0.0
 11
35.36154701076758
 21
-1.999999955695142
 31
0.0
  0
LINE
  5
4FB
330
18
100
AcDbEntity
  8
1
 62
     1
100
AcDbLine
 10
35.36154701076758
 20
-1.999999955695142
 30
0.0
 11
35.36154701076759
 21
-1.999999988924268
 31
0.0
  0
LINE
  5
4FC
330
18
100
AcDbEntity
  8
1
 62
     1
100
AcDbLine
 10
35.36154701076759
 20
-1.999999988924268
 30
0.0
 11
35.36154701076759
 21
-1.999999997231127
 31
0.0
  0
LINE
  5
4FD
330
18
100
AcDbEntity
  8
1
 62
     1
100
AcDbLine
 10
35.36154701076759
 20
-1.999999997231127
 30
0.0
 11
35.36154701076758
 21
-1.999999999307789
 31
0.0
  0
LINE
  5
4FE
330
18
100
AcDbEntity
  8
1
 62
     1
100
AcDbLine
 10
35.36154701076758
 20
-1.999999999307789
 30
0.0
 11
35.36154701076759
 21
-1.999999999826948
 31
0.0
  0
LINE
  5
4FF
330
18
100
AcDbEntity
  8
1
 62
     1
100
AcDbLine
 10
35.36154701076759
 20
-1.999999999826948
 30
0.0
 11
35.36154701076759
 21
-1.999999999956737
 31
0.0
  0
LINE
  5
500
330
18
100
AcDbEntity
  8
1
 62
     1
100
AcDbLine
 10
35.36154701076759
 20
-1.999999999956737
 30
0.0
 11
35.36154701076759
 21
-1.999999999989184
 31
0.0
  0
LINE
  5
501
330
18
100
AcDbEntity
  8
1
 62
     1
100
AcDbLine
 10
35.36154701076759
 20
-1.999999999989184
 30
0.0
 11
35.36154701076759
 21
-1.999999999997296
 31
0.0
  0
LINE
  5
502
330
18
100
AcDbEntity
  8
1
 62
     1
100
AcDbLine
 10
35.36154701076759
 20
-1.999999999997296
 30
0.0
 11
35.36154701076759
 21
-1.999999999999324
 31
0.0
  0
LINE
  5
503
330
18
100
AcDbEntity
  8
1
 62
     1
100
AcDbLine
 10
35.36154701076759
 20
-1.999999999999324
 30
0.0
 11
35.36154701076759
 21
-1.999999999999831
 31
0.0
  0
LINE
  5
504
330
18
100
AcDbEntity
  8
1
 62
     1
100
AcDbLine
 10
35.36154701076759
 20
-1.999999999999831
 30
0.0
 11
35.36154701076759
 21
-1.99999999999998
 31
0.0
  0
LINE
  5
505
330
18
100
AcDbEntity
  8
1
 62
     1
100
AcDbLine
 10
35.36154701076759
 20
-1.99999999999998
 30
0.0
 11
35.36154701076759
 21
-2.0
 31
0.0
  0
ARC
  5
506
330
18
100
AcDbEntity
  8
1
 62
     1
100
AcDbCircle
 10
40.52148704495117
 20
0.1187863689744499
 30
0.0
 40
1.760937872843365
100
AcDbArc
 50
123.9484587277813
 51
138.6243481417124
  0
LINE
  5
507
330
18
100
AcDbEntity
  8
1
 62
     1
100
AcDbLine
 10
39.2
 20
0.5029098589695439
 30
0.0
 11
39.2
 21
1.282836234999995
 31
0.0
  0
LINE
  5
508
330
18
100
AcDbEntity
  8
1
 62
     1
100
AcDbLine
 10
39.2
 20
0.5029098589695438
 30
0.0
 11
39.21729685356286
 21
0.506971701959428
 31
0.0
  0
LINE
  5
509
330
18
100
AcDbEntity
  8
1
 62
     1
100
AcDbLine
 10
39.21729685356286
 20
0.506971701959428
 30
0.0
 11
39.2344902567209
 21
0.509894606876031
 31
0.0
  0
LINE
  5
50A
330
18
100
AcDbEntity
  8
1
 62
     1
100
AcDbLine
 10
39.2344902567209
 20
0.509894606876031
 30
0.0
 11
39.25156478381234
 21
0.5116964772310205
 31
0.0
  0
LINE
  5
50B
330
18
100
AcDbEntity
  8
1
 62
     1
100
AcDbLine
 10
39.25156478381234
 20
0.5116964772310205
 30
0.0
 11
39.26852064940297
 21
0.512397700936745
 31
0.0
  0
LINE
  5
50C
330
18
100
AcDbEntity
  8
1
 62
     1
100
AcDbLine
 10
39.26852064940297
 20
0.512397700936745
 30
0.0
 11
39.2853463345319
 21
0.5120180229798336
 31
0.0
  0
LINE
  5
50D
330
18
100
AcDbEntity
  8
1
 62
     1
100
AcDbLine
 10
39.2853463345319
 20
0.5120180229798336
 30
0.0
 11
39.30203808822948
 21
0.5105766975785934
 31
0.0
  0
LINE
  5
50E
330
18
100
AcDbEntity
  8
1
 62
     1
100
AcDbLine
 10
39.30203808822948
 20
0.5105766975785934
 30
0.0
 11
39.31859392487083
 21
0.5080938680677269
 31
0.0
  0
LINE
  5
50F
330
18
100
AcDbEntity
  8
1
 62
     1
100
AcDbLine
 10
39.31859392487083
 20
0.5080938680677269
 30
0.0
 11
39.33500510595239
 21
0.504589882013353
 31
0.0
  0
LINE
  5
510
330
18
100
AcDbEntity
  8
1
 62
     1
100
AcDbLine
 10
39.33500510595239
 20
0.504589882013353
 30
0.0
 11
39.35127474010422
 21
0.5000833079799609
 31
0.0
  0
LINE
  5
511
330
18
100
AcDbEntity
  8
1
 62
     1
100
AcDbLine
 10
39.35127474010422
 20
0.5000833079799609
 30
0.0
 11
39.3673960895222
 21
0.4945953430511598
 31
0.0
  0
LINE
  5
512
330
18
100
AcDbEntity
  8
1
 62
     1
100
AcDbLine
 10
39.3673960895222
 20
0.4945953430511598
 30
0.0
 11
39.38337040560381
 21
0.4881437337937969
 31
0.0
  0
LINE
  5
513
330
18
100
AcDbEntity
  8
1
 62
     1
100
AcDbLine
 10
39.38337040560381
 20
0.4881437337937969
 30
0.0
 11
39.39919973143154
 21
0.4807468533052516
 31
0.0
  0
LINE
  5
514
330
18
100
AcDbEntity
  8
1
 62
     1
100
AcDbLine
 10
39.39919973143154
 20
0.4807468533052516
 30
0.0
 11
39.41487737119325
 21
0.4724269143235789
 31
0.0
  0
LINE
  5
515
330
18
100
AcDbEntity
  8
1
 62
     1
100
AcDbLine
 10
39.41487737119325
 20
0.4724269143235789
 30
0.0
 11
39.4303973345855
 21
0.4632057158402546
 31
0.0
  0
LINE
  5
516
330
18
100
AcDbEntity
  8
1
 62
     1
100
AcDbLine
 10
39.4303973345855
 20
0.4632057158402546
 30
0.0
 11
39.44576748954952
 21
0.4530972479386745
 31
0.0
  0
LINE
  5
517
330
18
100
AcDbEntity
  8
1
 62
     1
100
AcDbLine
 10
39.44576748954952
 20
0.4530972479386745
 30
0.0
 11
39.4609882136433
 21
0.4421206632702325
 31
0.0
  0
LINE
  5
518
330
18
100
AcDbEntity
  8
1
 62
     1
100
AcDbLine
 10
39.53845298923245
 20
1.579026057384959
 30
0.0
 11
39.53845298923244
 21
0.3709577190757024
 31
0.0
  0
LINE
  5
519
330
18
100
AcDbEntity
  8
1
 62
     1
100
AcDbLine
 10
37.8
 20
1.146063392187946
 30
0.0
 11
37.8
 21
1.4137825
 31
0.0
  0
LINE
  5
51A
330
18
100
AcDbEntity
  8
1
 62
     1
100
AcDbLine
 10
37.8
 20
1.146063392187947
 30
0.0
 11
37.84572135320671
 21
1.197717287062289
 31
0.0
  0
LINE
  5
51B
330
18
100
AcDbEntity
  8
1
 62
     1
100
AcDbLine
 10
37.84572135320671
 20
1.197717287062289
 30
0.0
 11
37.89060127107965
 21
1.243324700250665
 31
0.0
  0
LINE
  5
51C
330
18
100
AcDbEntity
  8
1
 62
     1
100
AcDbLine
 10
37.89060127107965
 20
1.243324700250665
 30
0.0
 11
37.9345308215911
 21
1.282828586115427
 31
0.0
  0
LINE
  5
51D
330
18
100
AcDbEntity
  8
1
 62
     1
100
AcDbLine
 10
37.9345308215911
 20
1.282828586115427
 30
0.0
 11
37.95611865021979
 21
1.30028779654905
 31
0.0
  0
LINE
  5
51E
330
18
100
AcDbEntity
  8
1
 62
     1
100
AcDbLine
 10
37.95611865021979
 20
1.30028779654905
 30
0.0
 11
37.97744342792652
 21
1.316217703753894
 31
0.0
  0
LINE
  5
51F
330
18
100
AcDbEntity
  8
1
 62
     1
100
AcDbLine
 10
37.97744342792652
 20
1.316217703753894
 30
0.0
 11
37.9985071490582
 21
1.330626998646377
 31
0.0
  0
LINE
  5
520
330
18
100
AcDbEntity
  8
1
 62
     1
100
AcDbLine
 10
37.9985071490582
 20
1.330626998646377
 30
0.0
 11
38.01930247720275
 21
1.343518300719107
 31
0.0
  0
LINE
  5
521
330
18
100
AcDbEntity
  8
1
 62
     1
100
AcDbLine
 10
38.01930247720275
 20
1.343518300719107
 30
0.0
 11
38.0398371266062
 21
1.354904843782288
 31
0.0
  0
LINE
  5
522
330
18
100
AcDbEntity
  8
1
 62
     1
100
AcDbLine
 10
38.0398371266062
 20
1.354904843782288
 30
0.0
 11
38.06010055170953
 21
1.364791089809155
 31
0.0
  0
LINE
  5
523
330
18
100
AcDbEntity
  8
1
 62
     1
100
AcDbLine
 10
38.06010055170953
 20
1.364791089809155
 30
0.0
 11
38.08008999002522
 21
1.373185127785434
 31
0.0
  0
LINE
  5
524
330
18
100
AcDbEntity
  8
1
 62
     1
100
AcDbLine
 10
38.08008999002522
 20
1.373185127785434
 30
0.0
 11
38.09981645415598
 21
1.380104185644772
 31
0.0
  0
LINE
  5
525
330
18
100
AcDbEntity
  8
1
 62
     1
100
AcDbLine
 10
38.09981645415598
 20
1.380104185644772
 30
0.0
 11
38.11927094510776
 21
1.385557863187895
 31
0.0
  0
LINE
  5
526
330
18
100
AcDbEntity
  8
1
 62
     1
100
AcDbLine
 10
38.11927094510776
 20
1.385557863187895
 30
0.0
 11
38.13845298923243
 21
1.389559121210903
 31
0.0
  0
LINE
  5
527
330
18
100
AcDbEntity
  8
1
 62
     1
100
AcDbLine
 10
38.13845298923242
 20
1.993726365413111
 30
0.0
 11
38.13845298923242
 21
1.389559121211302
 31
0.0
  0
LINE
  5
528
330
18
100
AcDbEntity
  8
1
 62
     1
100
AcDbLine
 10
36.76154701076759
 20
2.0
 30
0.0
 11
36.76154701076759
 21
1.999988044073764
 31
0.0
  0
LINE
  5
529
330
18
100
AcDbEntity
  8
1
 62
     1
100
AcDbLine
 10
36.76154701076759
 20
1.999988044073764
 30
0.0
 11
36.76154701076759
 21
1.996467287175067
 31
0.0
  0
LINE
  5
52A
330
18
100
AcDbEntity
  8
1
 62
     1
100
AcDbLine
 10
36.76154701076759
 20
1.996467287175067
 30
0.0
 11
36.76154701076759
 21
1.947003109273115
 31
0.0
  0
ARC
  5
52B
330
18
100
AcDbEntity
  8
1
 62
     1
100
AcDbCircle
 10
19.21436285487763
 20
-8.167530964068616
 30
0.0
 40
20.25355270102462
100
AcDbArc
 50
27.98216908946385
 51
29.95997465727605
  0
LINE
  5
52C
330
18
100
AcDbEntity
  8
1
 62
     1
100
AcDbLine
 10
37.1
 20
1.335292388076474
 30
0.0
 11
37.1
 21
1.4137825
 31
0.0
  0
LINE
  5
52D
330
18
100
AcDbEntity
  8
1
 62
     1
100
AcDbLine
 10
37.1
 20
1.335292388076526
 30
0.0
 11
37.19060125884881
 21
1.466311062747345
 31
0.0
  0
LINE
  5
52E
330
18
100
AcDbEntity
  8
1
 62
     1
100
AcDbLine
 10
37.19060125884881
 20
1.466311062747345
 30
0.0
 11
37.27744338714441
 21
1.578905614583876
 31
0.0
  0
LINE
  5
52F
330
18
100
AcDbEntity
  8
1
 62
     1
100
AcDbLine
 10
37.27744338714441
 20
1.578905614583876
 30
0.0
 11
37.31930242792783
 21
1.627800113624509
 31
0.0
  0
LINE
  5
530
330
18
100
AcDbEntity
  8
1
 62
     1
100
AcDbLine
 10
37.31930242792783
 20
1.627800113624509
 30
0.0
 11
37.36010052536464
 21
1.671606317417738
 31
0.0
  0
LINE
  5
531
330
18
100
AcDbEntity
  8
1
 62
     1
100
AcDbLine
 10
37.36010052536464
 20
1.671606317417738
 30
0.0
 11
37.39981643910023
 21
1.71022885614688
 31
0.0
  0
LINE
  5
532
330
18
100
AcDbEntity
  8
1
 62
     1
100
AcDbLine
 10
37.39981643910023
 20
1.71022885614688
 30
0.0
 11
37.4384529892324
 21
1.743625108044272
 31
0.0
  0
LINE
  5
533
330
18
100
AcDbEntity
  8
1
 62
     1
100
AcDbLine
 10
37.43845298923242
 20
2.0
 30
0.0
 11
37.43845298923242
 21
1.999945397175025
 31
0.0
  0
LINE
  5
534
330
18
100
AcDbEntity
  8
1
 62
     1
100
AcDbLine
 10
37.43845298923242
 20
1.999945397175025
 30
0.0
 11
37.43845298923242
 21
1.983485877143813
 31
0.0
  0
LINE
  5
535
330
18
100
AcDbEntity
  8
1
 62
     1
100
AcDbLine
 10
37.43845298923242
 20
1.983485877143813
 30
0.0
 11
37.43845298923241
 21
1.743625108044268
 31
0.0
  0
LINE
  5
536
330
18
100
AcDbEntity
  8
1
 62
     1
100
AcDbLine
 10
37.4615470107676
 20
2.0
 30
0.0
 11
37.4615470107676
 21
1.999943448820848
 31
0.0
  0
LINE
  5
537
330
18
100
AcDbEntity
  8
1
 62
     1
100
AcDbLine
 10
37.4615470107676
 20
1.999943448820848
 30
0.0
 11
37.4615470107676
 21
1.982883998569192
 31
0.0
  0
LINE
  5
538
330
18
100
AcDbEntity
  8
1
 62
     1
100
AcDbLine
 10
37.4615470107676
 20
1.982883998569192
 30
0.0
 11
37.4615470107676
 21
1.734146792994209
 31
0.0
  0
ARC
  5
539
330
18
100
AcDbEntity
  8
1
 62
     1
100
AcDbCircle
 10
28.08200548199384
 20
-4.056336243785259
 30
0.0
 40
11.02295114229205
100
AcDbArc
 50
28.16178003052795
 51
31.68920987722997
  0
ARC
  5
53A
330
18
100
AcDbEntity
  8
1
 62
     1
100
AcDbCircle
 10
98.07903707614994
 20
35.79839174363868
 30
0.0
 40
68.79656677213805
100
AcDbArc
 50
209.4322916110267
 51
210.0007714516582
  0
LINE
  5
53B
330
18
100
AcDbEntity
  8
1
 62
     1
100
AcDbLine
 10
38.1615470107676
 20
1.992116167976296
 30
0.0
 11
38.16154701076759
 21
1.37569620175223
 31
0.0
  0
ARC
  5
53C
330
18
100
AcDbEntity
  8
1
 62
     1
100
AcDbCircle
 10
33.12376752264814
 20
-2.30152581106562
 30
0.0
 40
6.237113224855025
100
AcDbArc
 50
30.46277488728494
 51
36.12679522251612
  0
ARC
  5
53D
330
18
100
AcDbEntity
  8
1
 62
     1
100
AcDbCircle
 10
42.40817325829011
 20
-1.083392910525759
 30
0.0
 40
4.630032274914907
100
AcDbArc
 50
140.4484872434034
 51
147.5734636295741
  0
LINE
  5
53E
330
18
100
AcDbEntity
  8
1
 62
     1
100
AcDbLine
 10
38.50000000000001
 20
0.860614033305823
 30
0.0
 11
38.5
 21
1.399349048968516
 31
0.0
  0
LINE
  5
53F
330
18
100
AcDbEntity
  8
1
 62
     1
100
AcDbLine
 10
38.5
 20
0.8606140333058243
 30
0.0
 11
38.52295606298317
 21
0.8771703687618241
 31
0.0
  0
LINE
  5
540
330
18
100
AcDbEntity
  8
1
 62
     1
100
AcDbLine
 10
38.52295606298317
 20
0.8771703687618241
 30
0.0
 11
38.54571924567667
 21
0.8918998995658984
 31
0.0
  0
LINE
  5
541
330
18
100
AcDbEntity
  8
1
 62
     1
100
AcDbLine
 10
38.54571924567667
 20
0.8918998995658984
 30
0.0
 11
38.56827236368946
 21
0.9048203979598356
 31
0.0
  0
LINE
  5
542
330
18
100
AcDbEntity
  8
1
 62
     1
100
AcDbLine
 10
38.56827236368946
 20
0.9048203979598356
 30
0.0
 11
38.59059713307763
 21
0.9159502977752018
 31
0.0
  0
LINE
  5
543
330
18
100
AcDbEntity
  8
1
 62
     1
100
AcDbLine
 10
38.59059713307763
 20
0.9159502977752018
 30
0.0
 11
38.61268610270978
 21
0.9253125780817428
 31
0.0
  0
LINE
  5
544
330
18
100
AcDbEntity
  8
1
 62
     1
100
AcDbLine
 10
38.61268610270978
 20
0.9253125780817428
 30
0.0
 11
38.63452474385909
 21
0.9329284219394138
 31
0.0
  0
LINE
  5
545
330
18
100
AcDbEntity
  8
1
 62
     1
100
AcDbLine
 10
38.63452474385909
 20
0.9329284219394138
 30
0.0
 11
38.64535019760628
 21
0.9360895717038169
 31
0.0
  0
LINE
  5
546
330
18
100
AcDbEntity
  8
1
 62
     1
100
AcDbLine
 10
38.64535019760628
 20
0.9360895717038169
 30
0.0
 11
38.65611164287246
 21
0.9388237279959206
 31
0.0
  0
LINE
  5
547
330
18
100
AcDbEntity
  8
1
 62
     1
100
AcDbLine
 10
38.65611164287246
 20
0.9388237279959206
 30
0.0
 11
38.66680651113926
 21
0.9411335523437373
 31
0.0
  0
LINE
  5
548
330
18
100
AcDbEntity
  8
1
 62
     1
100
AcDbLine
 10
38.66680651113926
 20
0.9411335523437373
 30
0.0
 11
38.67743619439634
 21
0.9430223788982077
 31
0.0
  0
LINE
  5
549
330
18
100
AcDbEntity
  8
1
 62
     1
100
AcDbLine
 10
38.67743619439634
 20
0.9430223788982077
 30
0.0
 11
38.68800300776709
 21
0.9444940233717611
 31
0.0
  0
LINE
  5
54A
330
18
100
AcDbEntity
  8
1
 62
     1
100
AcDbLine
 10
38.68800300776709
 20
0.9444940233717611
 30
0.0
 11
38.69850499320759
 21
0.9455517541465939
 31
0.0
  0
LINE
  5
54B
330
18
100
AcDbEntity
  8
1
 62
     1
100
AcDbLine
 10
38.69850499320759
 20
0.9455517541465939
 30
0.0
 11
38.70894018838719
 21
0.9461988389639814
 31
0.0
  0
LINE
  5
54C
330
18
100
AcDbEntity
  8
1
 62
     1
100
AcDbLine
 10
38.70894018838719
 20
0.9461988389639814
 30
0.0
 11
38.71930663097521
 21
0.9464385455651979
 31
0.0
  0
LINE
  5
54D
330
18
100
AcDbEntity
  8
1
 62
     1
100
AcDbLine
 10
38.71930663097521
 20
0.9464385455651979
 30
0.0
 11
38.72960280948129
 21
0.9462741407955717
 31
0.0
  0
LINE
  5
54E
330
18
100
AcDbEntity
  8
1
 62
     1
100
AcDbLine
 10
38.72960280948129
 20
0.9462741407955717
 30
0.0
 11
38.73983332576567
 21
0.9457090279394615
 31
0.0
  0
LINE
  5
54F
330
18
100
AcDbEntity
  8
1
 62
     1
100
AcDbLine
 10
38.73983332576567
 20
0.9457090279394615
 30
0.0
 11
38.74999876937055
 21
0.9447469435318764
 31
0.0
  0
LINE
  5
550
330
18
100
AcDbEntity
  8
1
 62
     1
100
AcDbLine
 10
38.74999876937055
 20
0.9447469435318764
 30
0.0
 11
38.76009768160696
 21
0.9433916680899256
 31
0.0
  0
LINE
  5
551
330
18
100
AcDbEntity
  8
1
 62
     1
100
AcDbLine
 10
38.76009768160696
 20
0.9433916680899256
 30
0.0
 11
38.77012860378595
 21
0.9416469821307184
 31
0.0
  0
LINE
  5
552
330
18
100
AcDbEntity
  8
1
 62
     1
100
AcDbLine
 10
38.77012860378595
 20
0.9416469821307184
 30
0.0
 11
38.78009007721851
 21
0.9395166661713639
 31
0.0
  0
LINE
  5
553
330
18
100
AcDbEntity
  8
1
 62
     1
100
AcDbLine
 10
38.78009007721851
 20
0.9395166661713639
 30
0.0
 11
38.78998238891356
 21
0.9370041140467026
 31
0.0
  0
LINE
  5
554
330
18
100
AcDbEntity
  8
1
 62
     1
100
AcDbLine
 10
38.78998238891356
 20
0.9370041140467026
 30
0.0
 11
38.79980985526991
 21
0.9341120181631585
 31
0.0
  0
LINE
  5
555
330
18
100
AcDbEntity
  8
1
 62
     1
100
AcDbLine
 10
38.79980985526991
 20
0.9341120181631585
 30
0.0
 11
38.8095717721684
 21
0.9308443958230911
 31
0.0
  0
LINE
  5
556
330
18
100
AcDbEntity
  8
1
 62
     1
100
AcDbLine
 10
38.8095717721684
 20
0.9308443958230911
 30
0.0
 11
38.8192670159206
 21
0.927205364758853
 31
0.0
  0
LINE
  5
557
330
18
100
AcDbEntity
  8
1
 62
     1
100
AcDbLine
 10
38.8192670159206
 20
0.927205364758853
 30
0.0
 11
38.83845298923242
 21
0.9188295473872723
 31
0.0
  0
ARC
  5
558
330
18
100
AcDbEntity
  8
1
 62
     1
100
AcDbCircle
 10
40.28307080498531
 20
0.4058707068297164
 30
0.0
 40
0.7567490964012236
100
AcDbArc
 50
93.38222643265783
 51
120.4068625111941
  0
ARC
  5
559
330
18
100
AcDbEntity
  8
1
 62
     1
100
AcDbCircle
 10
39.81767050115605
 20
-0.2167891517887584
 30
0.0
 40
0.330228893983287
100
AcDbArc
 50
55.34823596333312
 51
75.5620144702509
  0
LINE
  5
55A
330
18
100
AcDbEntity
  8
1
 62
     1
100
AcDbLine
 10
40.23845298923241
 20
1.160829751466129
 30
0.0
 11
40.23845298923241
 21
-0.208058644194857
 31
0.0
  0
ARC
  5
55B
330
18
100
AcDbEntity
  8
1
 62
     1
100
AcDbCircle
 10
45.27585028904433
 20
4.998994218854813
 30
0.0
 40
6.665578959188425
100
AcDbArc
 50
210.987593452038
 51
216.2405565306418
  0
LINE
  5
55C
330
18
100
AcDbEntity
  8
1
 62
     1
100
AcDbLine
 10
39.56154701076759
 20
1.567178265839076
 30
0.0
 11
39.56154701076759
 21
0.3520874827566188
 31
0.0
  0
ARC
  5
55D
330
18
100
AcDbEntity
  8
1
 62
     1
100
AcDbCircle
 10
38.96030054324878
 20
-0.7704625369749357
 30
0.0
 40
1.273443375004196
100
AcDbArc
 50
54.00614875450769
 51
61.82615389185835
  0
LINE
  5
55E
330
18
100
AcDbEntity
  8
1
 62
     1
100
AcDbLine
 10
39.70874998162989
 20
0.2599222548973966
 30
0.0
 11
39.70936045209049
 21
0.2594851508754216
 31
0.0
  0
LINE
  5
55F
330
18
100
AcDbEntity
  8
1
 62
     1
100
AcDbLine
 10
39.9
 20
0.1029828076333134
 30
0.0
 11
39.9
 21
1.058619946616049
 31
0.0
  0
ARC
  5
560
330
18
100
AcDbEntity
  8
1
 62
     1
100
AcDbCircle
 10
51.56324532476303
 20
8.945368321427301
 30
0.0
 40
14.54539160418312
100
AcDbArc
 50
209.1621803731094
 51
211.7899404387341
  0
LINE
  5
561
330
18
100
AcDbEntity
  8
1
 62
     1
100
AcDbLine
 10
38.86154701076759
 20
1.857627874414802
 30
0.0
 11
38.86154701076759
 21
0.9017458335803116
 31
0.0
  0
ARC
  5
562
330
18
100
AcDbEntity
  8
1
 62
     1
100
AcDbCircle
 10
36.53403767993959
 20
-1.413017503002904
 30
0.0
 40
3.282671960367023
100
AcDbArc
 50
35.70338865891856
 51
44.84268699984937
  0
ARC
  5
563
330
18
100
AcDbEntity
  8
1
 62
     1
100
AcDbCircle
 10
56.9278133550918
 20
15.91990708032203
 30
0.0
 40
25.73474172715065
100
AcDbArc
 50
213.0680339141896
 51
214.4256572794975
  0
ARC
  5
564
330
18
100
AcDbEntity
  8
1
 62
     1
100
AcDbCircle
 10
41.39128926025211
 20
7.182749324132415
 30
0.0
 40
8.744654939688619
100
AcDbArc
 50
221.2941371291408
 51
223.0401795803987
  0
ARC
  5
565
330
18
100
AcDbEntity
  8
1
 62
     1
100
AcDbCircle
 10
28.65110912985045
 20
4.890238967047403
 30
0.0
 40
7.336385650910076
100
AcDbArc
 50
329.9302371565687
 51
335.7050269884779
  0
ARC
  5
566
330
18
100
AcDbEntity
  8
1
 62
     1
100
AcDbCircle
 10
4.038931006400869
 20
18.8993304984808
 30
0.0
 40
36.18944823920728
100
AcDbArc
 50
331.0299648567375
 51
332.1541413375053
  0
ARC
  5
567
330
18
100
AcDbEntity
  8
1
 62
     1
100
AcDbCircle
 10
-108.6515966488459
 20
-82.58428651091562
 30
0.0
 40
167.6179614004099
100
AcDbArc
 50
30.13770772417619
 51
30.30506073845165
  0
LINE
  5
568
330
18
100
AcDbEntity
  8
1
 62
     1
100
AcDbLine
 10
36.40000000000001
 20
1.412413916371462
 30
0.0
 11
36.40000000000001
 21
1.413782498207643
 31
0.0
  0
LINE
  5
569
330
18
100
AcDbEntity
  8
1
 62
     1
100
AcDbLine
 10
36.40000000000001
 20
1.412413916371462
 30
0.0
 11
36.57744338063747
 21
1.709032992098183
 31
0.0
  0
LINE
  5
56A
330
18
100
AcDbEntity
  8
1
 62
     1
100
AcDbLine
 10
36.57744338063747
 20
1.709032992098183
 30
0.0
 11
36.66010055755351
 21
1.838078134055557
 31
0.0
  0
LINE
  5
56B
330
18
100
AcDbEntity
  8
1
 62
     1
100
AcDbLine
 10
36.66010055755351
 20
1.838078134055557
 30
0.0
 11
36.73845298923243
 21
1.951301001167014
 31
0.0
  0
LINE
  5
56C
330
18
100
AcDbEntity
  8
1
 62
     1
100
AcDbLine
 10
36.73845298923241
 20
2.0
 30
0.0
 11
36.73845298923242
 21
1.999988983975804
 31
0.0
  0
LINE
  5
56D
330
18
100
AcDbEntity
  8
1
 62
     1
100
AcDbLine
 10
36.73845298923242
 20
1.999988983975804
 30
0.0
 11
36.73845298923241
 21
1.996747804556223
 31
0.0
  0
LINE
  5
56E
330
18
100
AcDbEntity
  8
1
 62
     1
100
AcDbLine
 10
36.73845298923241
 20
1.996747804556223
 30
0.0
 11
36.73845298923241
 21
1.951301001167014
 31
0.0
  0
ARC
  5
56F
330
18
100
AcDbEntity
  8
1
 62
     1
100
AcDbCircle
 10
41.36889638614615
 20
6.541962460702154
 30
0.0
 40
10.49044460618131
100
AcDbArc
 50
228.4298682869978
 51
231.3791618202508
  0
ARC
  5
570
330
18
100
AcDbEntity
  8
1
 62
     1
100
AcDbCircle
 10
-12.25290877148691
 20
-29.97953882569336
 30
0.0
 40
62.07622638315539
100
AcDbArc
 50
30.37918880387504
 51
30.81024733164169
  0
LINE
  5
571
330
18
100
AcDbEntity
  8
1
 62
     1
100
AcDbLine
 10
41.3
 20
1.41362448550569
 30
0.0
 11
41.34780752083559
 21
1.496587517225975
 31
0.0
  0
LINE
  5
572
330
18
100
AcDbEntity
  8
1
 62
     1
100
AcDbLine
 10
41.47086195463609
 20
1.70972394852741
 30
0.0
 11
41.47086195463609
 21
1.707038385268677
 31
0.0
  0
LINE
  5
573
330
18
100
AcDbEntity
  8
1
 62
     1
100
AcDbLine
 10
41.89909714489095
 20
1.588551290191628
 30
0.0
 11
41.89909714489095
 21
1.588541979219096
 31
0.0
  0
LINE
  5
574
330
18
100
AcDbEntity
  8
1
 62
     1
100
AcDbLine
 10
41.89909714489095
 20
1.588541979219096
 30
0.0
 11
41.89909714489096
 21
1.585800680419464
 31
0.0
  0
LINE
  5
575
330
18
100
AcDbEntity
  8
1
 62
     1
100
AcDbLine
 10
41.89909714489096
 20
1.585800680419464
 30
0.0
 11
41.89909714489097
 21
1.547305712703143
 31
0.0
  0
LINE
  5
576
330
18
100
AcDbEntity
  8
1
 62
     1
100
AcDbLine
 10
41.89909714489096
 20
1.547305712703166
 30
0.0
 11
42.0
 21
1.360342363430762
 31
0.0
  0
ARC
  5
577
330
18
100
AcDbEntity
  8
1
 62
     1
100
AcDbCircle
 10
34.6821341060396
 20
11.85330911993531
 30
0.0
 40
15.05763846029281
100
AcDbArc
 50
296.7983797010492
 51
298.6389490550935
  0
ARC
  5
578
330
18
100
AcDbEntity
  8
1
 62
     1
100
AcDbCircle
 10
38.76022944837366
 20
3.546452238355029
 30
0.0
 40
5.801336408799227
100
AcDbArc
 50
291.3168728518264
 51
293.3805473900401
  0
LINE
  5
579
330
18
100
AcDbEntity
  8
1
 62
     1
100
AcDbLine
 10
41.99999999999999
 20
1.360342363371291
 30
0.0
 11
42.00000000000001
 21
1.413782498176717
 31
0.0
  0
LINE
  5
57A
330
18
100
AcDbEntity
  8
1
 62
     1
100
AcDbLine
 10
42.0
 20
-1.013618641851748
 30
0.0
 11
42.0
 21
-0.0369001772922389
 31
0.0
  0
ARC
  5
57B
330
18
100
AcDbEntity
  8
1
 62
     1
100
AcDbCircle
 10
55.44921334527737
 20
12.05954828293345
 30
0.0
 40
18.30903297863525
100
AcDbArc
 50
213.9505178646155
 51
215.8044042974938
  0
ARC
  5
57C
330
18
100
AcDbEntity
  8
1
 62
     1
100
AcDbCircle
 10
27.70193123019872
 20
8.566486170049664
 30
0.0
 40
14.78057264617895
100
AcDbArc
 50
330.76691757257
 51
332.9775181039669
  0
LINE
  5
57D
330
18
100
AcDbEntity
  8
1
 62
     1
100
AcDbLine
 10
38.13845298923241
 20
-1.133944855049992
 30
0.0
 11
38.13845298923241
 21
-1.940509903213625
 31
0.0
  0
LINE
  5
57E
330
18
100
AcDbEntity
  8
1
 62
     1
100
AcDbLine
 10
36.03845298923242
 20
0.5325096487174912
 30
0.0
 11
36.03845298923242
 21
-0.8770386717198434
 31
0.0
  0
ARC
  5
57F
330
18
100
AcDbEntity
  8
1
 62
     1
100
AcDbCircle
 10
43.94563453085409
 20
5.334813093489516
 30
0.0
 40
5.806408181986034
100
AcDbArc
 50
222.1667159487888
 51
225.8341775282218
  0
ARC
  5
580
330
18
100
AcDbEntity
  8
1
 62
     1
100
AcDbCircle
 10
34.46482014153607
 20
4.375589404704248
 30
0.0
 40
6.310430195675998
100
AcDbArc
 50
329.4656067855943
 51
336.1798032750427
  0
ARC
  5
581
330
18
100
AcDbEntity
  8
1
 62
     1
100
AcDbCircle
 10
44.50264459176356
 20
-6.167573445120754
 30
0.0
 40
8.937551358980082
100
AcDbArc
 50
145.9227417811392
 51
150.0117551445913
  0
ARC
  5
582
330
18
100
AcDbEntity
  8
1
 62
     1
100
AcDbCircle
 10
37.88472578352794
 20
-0.1689424380337123
 30
0.0
 40
1.264027014168787
100
AcDbArc
 50
231.6245029672549
 51
236.9097819233199
  0
LINE
  5
583
330
18
100
AcDbEntity
  8
1
 62
     1
100
AcDbLine
 10
34.82116031387677
 20
0.150045807195291
 30
0.0
 11
34.7691793241161
 21
0.1874619331231273
 31
0.0
  0
LINE
  5
584
330
18
100
AcDbEntity
  8
1
 62
     1
100
AcDbLine
 10
34.7691793241161
 20
0.1874619331231273
 30
0.0
 11
34.76917043899401
 21
0.1874681452088333
 31
0.0
  0
LINE
  5
585
330
18
100
AcDbEntity
  8
1
 62
     1
100
AcDbLine
 10
34.82116031387679
 20
1.246396501673481
 30
0.0
 11
34.8211603138768
 21
0.1500458071952905
 31
0.0
  0
ARC
  5
586
330
18
100
AcDbEntity
  8
1
 62
     1
100
AcDbCircle
 10
34.54420260331484
 20
-0.351600105472252
 30
0.0
 40
1.621824526368214
100
AcDbArc
 50
80.16742349913883
 51
94.81752238441403
  0
LINE
  5
587
330
18
100
AcDbEntity
  8
1
 62
     1
100
AcDbLine
 10
35.48798275125391
 20
-1.781006975690663
 30
0.0
 11
35.7
 21
-1.41326325846273
 31
0.0
  0
LINE
  5
588
330
18
100
AcDbEntity
  8
1
 62
     1
100
AcDbLine
 10
35.48798275125391
 20
-1.781006975690663
 30
0.0
 11
35.36154701076759
 21
-2.000000000000003
 31
0.0
  0
ARC
  5
589
330
18
100
AcDbEntity
  8
1
 62
     1
100
AcDbCircle
 10
21.14600644501197
 20
7.001244328955003
 30
0.0
 40
16.1841099476321
100
AcDbArc
 50
327.6691769566134
 51
328.8730148646407
  0
LINE
  5
58A
330
18
100
AcDbEntity
  8
1
 62
     1
100
AcDbLine
 10
34.82116031387678
 20
-1.654129391480839
 30
0.0
 11
34.82116031387679
 21
-1.723541778349712
 31
0.0
  0
LINE
  5
58B
330
18
100
AcDbEntity
  8
1
 62
     1
100
AcDbLine
 10
35.0
 20
-1.4137825
 30
0.0
 11
34.82116031387679
 21
-1.723541778349714
 31
0.0
  0
LINE
  5
58C
330
18
100
AcDbEntity
  8
1
 62
     1
100
AcDbLine
 10
35.0
 20
-1.4137825
 30
0.0
 11
35.0
 21
-1.413771574544103
 31
0.0
  0
LINE
  5
58D
330
18
100
AcDbEntity
  8
1
 62
     1
100
AcDbLine
 10
35.0
 20
-1.413771574544103
 30
0.0
 11
35.0
 21
-1.410544839158488
 31
0.0
  0
LINE
  5
58E
330
18
100
AcDbEntity
  8
1
 62
     1
100
AcDbLine
 10
35.0
 20
-1.410544839158488
 30
0.0
 11
35.0
 21
-1.364920770006816
 31
0.0
  0
ARC
  5
58F
330
18
100
AcDbEntity
  8
1
 62
     1
100
AcDbCircle
 10
51.1346466329763
 20
6.840146928907537
 30
0.0
 40
18.10107920664328
100
AcDbArc
 50
206.9550289161969
 51
209.2293086231461
  0
LINE
  5
590
330
18
100
AcDbEntity
  8
1
 62
     1
100
AcDbLine
 10
35.33845298923243
 20
-2.000000000000027
 30
0.0
 11
35.0
 21
-1.4137825
 31
0.0
  0
LINE
  5
591
330
18
100
AcDbEntity
  8
1
 62
     1
100
AcDbLine
 10
35.33845298923243
 20
-1.998654446841484
 30
0.0
 11
35.33845298923243
 21
-2.0
 31
0.0
  0
ARC
  5
592
330
18
100
AcDbEntity
  8
1
 62
     1
100
AcDbCircle
 10
41.51064526192041
 20
1.975447427008905
 30
0.0
 40
6.726535257770858
100
AcDbArc
 50
210.2503128947365
 51
215.5551584461614
  0
ARC
  5
593
330
18
100
AcDbEntity
  8
1
 62
     1
100
AcDbCircle
 10
55.17516004965567
 20
-12.53781474348403
 30
0.0
 40
21.85947196953421
100
AcDbArc
 50
149.1940989594343
 51
150.9722735553493
  0
ARC
  5
594
330
18
100
AcDbEntity
  8
1
 62
     1
100
AcDbCircle
 10
38.47466951805168
 20
0.2240346652949794
 30
0.0
 40
2.599841586832749
100
AcDbArc
 50
217.0635548404431
 51
228.0908544867674
  0
LINE
  5
595
330
18
100
AcDbEntity
  8
1
 62
     1
100
AcDbLine
 10
34.407993834
 20
-1.016230305950686
 30
0.0
 11
34.407993834
 21
0.3880109502910538
 31
0.0
  0
LINE
  5
596
330
18
100
AcDbEntity
  8
1
 62
     1
100
AcDbLine
 10
38.16154701076758
 20
-1.945065254101187
 30
0.0
 11
38.13845298923243
 21
-1.940509903213631
 31
0.0
  0
LINE
  5
597
330
18
100
AcDbEntity
  8
1
 62
     1
100
AcDbLine
 10
37.46154701076759
 20
-1.729947185961936
 30
0.0
 11
37.4384529892324
 21
-1.720239694057278
 31
0.0
  0
LINE
  5
598
330
18
100
AcDbEntity
  8
1
 62
     1
100
AcDbLine
 10
36.76154701076759
 20
-1.369587617755291
 30
0.0
 11
36.73845298923239
 21
-1.355542988181575
 31
0.0
  0
LINE
  5
599
330
18
100
AcDbEntity
  8
1
 62
     1
100
AcDbLine
 10
36.0615470107676
 20
-0.894241219448283
 30
0.0
 11
36.03845298923242
 21
-0.877038671719847
 31
0.0
  0
LINE
  5
59A
330
18
100
AcDbEntity
  8
1
 62
     1
100
AcDbLine
 10
35.36154701076759
 20
-0.3438166247647755
 30
0.0
 11
35.33845298923242
 21
-0.324900459978602
 31
0.0
  0
LINE
  5
59B
330
18
100
AcDbEntity
  8
1
 62
     1
100
AcDbLine
 10
35.36154701076759
 20
-1.999266135824624
 30
0.0
 11
35.33845298923242
 21
-1.998654446841484
 31
0.0
  0
LINE
  5
59C
330
18
100
AcDbEntity
  8
1
 62
     1
100
AcDbLine
 10
35.36154701076759
 20
-1.999266139057821
 30
0.0
 11
35.48798275125391
 21
-1.781006975690663
 31
0.0
  0
LINE
  5
59D
330
18
100
AcDbEntity
  8
1
 62
     1
100
AcDbLine
 10
36.0615470107676
 20
-1.930871406162803
 30
0.0
 11
36.03845298923243
 21
-1.935783232477962
 31
0.0
  0
LINE
  5
59E
330
18
100
AcDbEntity
  8
1
 62
     1
100
AcDbLine
 10
36.76154701076759
 20
-1.700366035264835
 30
0.0
 11
36.73845298923242
 21
-1.710389012550964
 31
0.0
  0
LINE
  5
59F
330
18
100
AcDbEntity
  8
1
 62
     1
100
AcDbLine
 10
42.0
 20
0.0324714899154022
 30
0.0
 11
42.00000000000001
 21
1.360342363371291
 31
0.0
  0
LINE
  5
5A0
330
18
100
AcDbEntity
  8
1
 62
     1
100
AcDbLine
 10
40.26154701076759
 20
1.834410840345978
 30
0.0
 11
40.23845298923242
 21
1.826682421369549
 31
0.0
  0
LINE
  5
5A1
330
18
100
AcDbEntity
  8
1
 62
     1
100
AcDbLine
 10
38.16154701076759
 20
1.992116167976297
 30
0.0
 11
38.13845298923241
 21
1.99372636541311
 31
0.0
  0
LINE
  5
5A2
330
18
100
AcDbEntity
  8
1
 62
     1
100
AcDbLine
 10
38.86154701076759
 20
1.857627874414802
 30
0.0
 11
38.83845298923241
 21
1.86465170989612
 31
0.0
  0
LINE
  5
5A3
330
18
100
AcDbEntity
  8
1
 62
     1
100
AcDbLine
 10
39.5615470107676
 20
1.567178261584564
 30
0.0
 11
39.53845298923243
 21
1.579026057384963
 31
0.0
  0
LINE
  5
5A4
330
18
100
AcDbEntity
  8
1
 62
     1
100
AcDbLine
 10
40.26154701076759
 20
1.145152736881783
 30
0.0
 11
40.23845298923241
 21
1.160829751466129
 31
0.0
  0
ARC
  5
5A5
330
18
100
AcDbEntity
  8
1
 62
     1
100
AcDbCircle
 10
40.64788712417194
 20
-0.683786830113936
 30
0.0
 40
1.239124688606334
100
AcDbArc
 50
48.38709084519899
 51
58.24566339637386
  0
ARC
  5
5A6
330
18
100
AcDbEntity
  8
1
 62
     1
100
AcDbCircle
 10
42.01820769019875
 20
0.6504174248888795
 30
0.0
 40
0.6875649126390171
100
AcDbArc
 50
260.0240359187028
 51
268.4825357766421
  0
LINE
  5
5A7
330
18
100
AcDbEntity
  8
1
 62
     1
100
AcDbLine
 10
42.0
 20
0.0324714899153947
 30
0.0
 11
42.00000000000001
 21
-0.036900177292239
 31
0.0
  0
LINE
  5
5A8
330
18
100
AcDbEntity
  8
1
 62
     1
100
AcDbLine
 10
42.0
 20
-1.056380132461175
 30
0.0
 11
42.0
 21
-1.013618642828246
 31
0.0
  0
ARC
  5
5A9
330
18
100
AcDbEntity
  8
1
 62
     1
100
AcDbCircle
 10
43.76435350300964
 20
4.432049737740975
 30
0.0
 40
5.840532159254499
100
AcDbArc
 50
240.28364880902
 51
242.4437414226826
  0
LINE
  5
5AA
330
18
100
AcDbEntity
  8
1
 62
     1
100
AcDbLine
 10
40.60000000000001
 20
-0.3055903829272535
 30
0.0
 11
40.61788055620742
 21
-0.3194166845500493
 31
0.0
  0
LINE
  5
5AB
330
18
100
AcDbEntity
  8
1
 62
     1
100
AcDbLine
 10
40.61788055620742
 20
-0.3194166845500493
 30
0.0
 11
40.63564987930776
 21
-0.3343726013528048
 31
0.0
  0
LINE
  5
5AC
330
18
100
AcDbEntity
  8
1
 62
     1
100
AcDbLine
 10
40.63564987930776
 20
-0.3343726013528048
 30
0.0
 11
40.65329191981623
 21
-0.3504110665359148
 31
0.0
  0
LINE
  5
5AD
330
18
100
AcDbEntity
  8
1
 62
     1
100
AcDbLine
 10
40.65329191981623
 20
-0.3504110665359148
 30
0.0
 11
40.68818007135651
 21
-0.3855862420932971
 31
0.0
  0
LINE
  5
5AE
330
18
100
AcDbEntity
  8
1
 62
     1
100
AcDbLine
 10
40.68818007135651
 20
-0.3855862420932971
 30
0.0
 11
40.72249513488512
 21
-0.4246252835127345
 31
0.0
  0
LINE
  5
5AF
330
18
100
AcDbEntity
  8
1
 62
     1
100
AcDbLine
 10
40.72249513488512
 20
-0.4246252835127345
 30
0.0
 11
40.75620150770281
 21
-0.4672247042482697
 31
0.0
  0
LINE
  5
5B0
330
18
100
AcDbEntity
  8
1
 62
     1
100
AcDbLine
 10
40.75620150770281
 20
-0.4672247042482697
 30
0.0
 11
40.78927768102813
 21
-0.5130988541100308
 31
0.0
  0
LINE
  5
5B1
330
18
100
AcDbEntity
  8
1
 62
     1
100
AcDbLine
 10
40.78927768102813
 20
-0.5130988541100308
 30
0.0
 11
40.82171251885367
 21
-0.5619800431626611
 31
0.0
  0
LINE
  5
5B2
330
18
100
AcDbEntity
  8
1
 62
     1
100
AcDbLine
 10
40.82171251885367
 20
-0.5619800431626611
 30
0.0
 11
40.86915968841852
 21
-0.6404012299396875
 31
0.0
  0
LINE
  5
5B3
330
18
100
AcDbEntity
  8
1
 62
     1
100
AcDbLine
 10
40.26154701076757
 20
-0.2271310389531643
 30
0.0
 11
40.23845298923241
 21
-0.2080586441948538
 31
0.0
  0
LINE
  5
5B4
330
18
100
AcDbEntity
  8
1
 62
     1
100
AcDbLine
 10
39.56154701076758
 20
0.3520874827566253
 30
0.0
 11
39.53845298923241
 21
0.3709577190757277
 31
0.0
  0
LINE
  5
5B5
330
18
100
AcDbEntity
  8
1
 62
     1
100
AcDbLine
 10
38.86154701076759
 20
0.9017458335803112
 30
0.0
 11
38.83845298923242
 21
0.9188295449336519
 31
0.0
  0
LINE
  5
5B6
330
18
100
AcDbEntity
  8
1
 62
     1
100
AcDbLine
 10
38.1615470107676
 20
1.375696201752234
 30
0.0
 11
38.13845298923242
 21
1.389559121195125
 31
0.0
  0
LINE
  5
5B7
330
18
100
AcDbEntity
  8
1
 62
     1
100
AcDbLine
 10
37.4615470107676
 20
1.734146786810079
 30
0.0
 11
37.4384529892324
 21
1.743625108044264
 31
0.0
  0
LINE
  5
5B8
330
18
100
AcDbEntity
  8
1
 62
     1
100
AcDbLine
 10
36.76154701076759
 20
1.947003105838367
 30
0.0
 11
36.73845298923241
 21
1.951301001167015
 31
0.0
  0
LINE
  5
5B9
330
18
100
AcDbEntity
  8
1
 62
     1
100
AcDbLine
 10
36.06154701076759
 20
1.996394465786954
 30
0.0
 11
36.03845298923241
 21
1.9951510765844
 31
0.0
  0
LINE
  5
5BA
330
18
100
AcDbEntity
  8
1
 62
     1
100
AcDbLine
 10
35.36154701076761
 20
1.878173999900463
 30
0.0
 11
35.33845298923241
 21
1.871493754399741
 31
0.0
  0
LINE
  5
5BB
330
18
100
AcDbEntity
  8
1
 62
     1
100
AcDbLine
 10
35.36154701076759
 20
1.046549792694898
 30
0.0
 11
35.33845298923243
 21
1.062851247148552
 31
0.0
  0
LINE
  5
5BC
330
18
100
AcDbEntity
  8
1
 62
     1
100
AcDbLine
 10
36.0615470107676
 20
0.5139916759338893
 30
0.0
 11
36.03845298923241
 21
0.5325096487175088
 31
0.0
  0
LINE
  5
5BD
330
18
100
AcDbEntity
  8
1
 62
     1
100
AcDbLine
 10
36.76154701076758
 20
-0.0617196688359768
 30
0.0
 11
36.73845298923241
 21
-0.0425399028393181
 31
0.0
  0
LINE
  5
5BE
330
18
100
AcDbEntity
  8
1
 62
     1
100
AcDbLine
 10
37.46154701076757
 20
-0.6322491684172395
 30
0.0
 11
37.43845298923242
 21
-0.6140179482447249
 31
0.0
  0
LINE
  5
5BF
330
18
100
AcDbEntity
  8
1
 62
     1
100
AcDbLine
 10
38.16154701076758
 20
-1.149696881059637
 30
0.0
 11
38.13845298923242
 21
-1.13394485504999
 31
0.0
  0
LINE
  5
5C0
330
18
100
AcDbEntity
  8
1
 62
     1
100
AcDbLine
 10
38.86154701076759
 20
-1.570619211529652
 30
0.0
 11
38.83845298923242
 21
-1.55866881258877
 31
0.0
  0
LINE
  5
5C1
330
18
100
AcDbEntity
  8
1
 62
     1
100
AcDbLine
 10
39.5615470107676
 20
-1.859676584340074
 30
0.0
 11
39.53845298923241
 21
-1.852531152985045
 31
0.0
  0
LINE
  5
5C2
330
18
100
AcDbEntity
  8
1
 62
     1
100
AcDbLine
 10
40.26154701076758
 20
-1.992600631229777
 30
0.0
 11
40.23845298923241
 21
-1.990860094833515
 31
0.0
  0
LINE
  5
5C3
330
18
100
AcDbEntity
  8
1
 62
     1
100
AcDbLine
 10
40.59999999999999
 20
-1.413065381880621
 30
0.0
 11
40.64179037542888
 21
-1.486165519761606
 31
0.0
  0
LINE
  5
5C4
330
18
100
AcDbEntity
  8
1
 62
     1
100
AcDbLine
 10
41.89909714489096
 20
-1.362154116170303
 30
0.0
 11
42.0
 21
-1.205504363393073
 31
0.0
  0
LINE
  5
5C5
330
18
100
AcDbEntity
  8
1
 62
     1
100
AcDbLine
 10
42.0
 20
-1.056380132461175
 30
0.0
 11
42.0
 21
-1.20550436339308
 31
0.0
  0
LINE
  5
5C6
330
18
100
AcDbEntity
  8
1
 62
     1
100
AcDbLine
 10
34.407993834
 20
1.264539307840048
 30
0.0
 11
34.407993834
 21
0.3880109502910496
 31
0.0
  0
LINE
  5
5C7
330
18
100
AcDbEntity
  8
1
 62
     1
100
AcDbLine
 10
34.407993834
 20
-1.306527767846389
 30
0.0
 11
34.407993834
 21
-1.461662825041226
 31
0.0
  0
LINE
  5
5C8
330
18
100
AcDbEntity
  8
1
 62
     1
100
AcDbLine
 10
34.407993834
 20
-1.461662825041226
 30
0.0
 11
34.407993834
 21
-1.485
 31
0.0
  0
LINE
  5
5C9
330
18
100
AcDbEntity
  8
1
 62
     1
100
AcDbLine
 10
34.407993834
 20
-1.306527767846389
 30
0.0
 11
34.407993834
 21
-1.016230305950686
 31
0.0
  0
LINE
  5
5CA
330
18
100
AcDbEntity
  8
1
 62
     1
100
AcDbLine
 10
35.33845298923242
 20
-2.0
 30
0.0
 11
35.36154701076759
 21
-2.0
 31
0.0
  0
ARC
  5
5CB
330
18
100
AcDbEntity
  8
1
 62
     1
100
AcDbCircle
 10
46.50680015300686
 20
-3.123554413769462
 30
0.0
 40
9.808977029266504
100
AcDbArc
 50
148.5540322843899
 51
150.0227181327806
  0
LINE
  5
5CC
330
18
100
AcDbEntity
  8
1
 62
     1
100
AcDbLine
 10
38.0100309346919
 20
1.7775665804331
 30
0.0
 11
37.8
 21
1.4137825
 31
0.0
  0
LINE
  5
5CD
330
18
100
AcDbEntity
  8
1
 62
     1
100
AcDbLine
 10
37.1
 20
1.4137825
 30
0.0
 11
36.76154701076759
 21
2.000000000000003
 31
0.0
  0
LINE
  5
5CE
330
18
100
AcDbEntity
  8
1
 62
     1
100
AcDbLine
 10
37.43845298923242
 20
2.000000000000006
 30
0.0
 11
37.1
 21
1.4137825
 31
0.0
  0
LINE
  5
5CF
330
18
100
AcDbEntity
  8
1
 62
     1
100
AcDbLine
 10
37.8
 20
1.4137825
 30
0.0
 11
37.4615470107676
 21
1.999999999999997
 31
0.0
  0
LINE
  5
5D0
330
18
100
AcDbEntity
  8
1
 62
     1
100
AcDbLine
 10
36.3079009477101
 20
1.573302672386666
 30
0.0
 11
36.40000000000001
 21
1.412413916371462
 31
0.0
  0
LINE
  5
5D1
330
18
100
AcDbEntity
  8
1
 62
     1
100
AcDbLine
 10
36.40000000000001
 20
1.4137825
 30
0.0
 11
36.30790094387017
 21
1.573302670169691
 31
0.0
  0
LINE
  5
5D2
330
18
100
AcDbEntity
  8
1
 62
     1
100
AcDbLine
 10
36.73845298923241
 20
2.000000000000002
 30
0.0
 11
36.40000000000001
 21
1.4137825
 31
0.0
  0
LINE
  5
5D3
330
18
100
AcDbEntity
  8
1
 62
     1
100
AcDbLine
 10
34.407993834
 20
-1.485
 30
0.0
 11
34.82116031387679
 21
-1.723541778349712
 31
0.0
  0
LINE
  5
5D4
330
18
100
AcDbEntity
  8
1
 62
     1
100
AcDbLine
 10
41.34780752083559
 20
1.496587517225975
 30
0.0
 11
41.34781228327557
 21
1.496595766009095
 31
0.0
  0
ARC
  5
5D5
330
18
100
AcDbEntity
  8
1
 62
     1
100
AcDbCircle
 10
57.66737173212155
 20
-7.901071446054766
 30
0.0
 40
18.83199237551497
100
AcDbArc
 50
149.3226916896822
 51
150.0643822638465
  0
LINE
  5
5D6
330
18
100
AcDbEntity
  8
1
 62
     1
100
AcDbLine
 10
41.47086195463609
 20
1.709723948527423
 30
0.0
 11
41.34780752116585
 21
1.496587517035304
 31
0.0
  0
LINE
  5
5D7
330
18
100
AcDbEntity
  8
1
 62
     1
100
AcDbLine
 10
42.00000000000001
 20
1.4137825
 30
0.0
 11
41.89909714489095
 21
1.588551290191629
 31
0.0
  0
LINE
  5
5D8
330
18
100
AcDbEntity
  8
1
 62
     1
100
AcDbLine
 10
40.23845298923241
 20
-2.0
 30
0.0
 11
40.26154701076759
 21
-2.0
 31
0.0
  0
LINE
  5
5D9
330
18
100
AcDbEntity
  8
1
 62
     1
100
AcDbLine
 10
39.53845298923244
 20
-2.0
 30
0.0
 11
39.56154701076759
 21
-2.0
 31
0.0
  0
LINE
  5
5DA
330
18
100
AcDbEntity
  8
1
 62
     1
100
AcDbLine
 10
38.83845298923242
 20
-2.0
 30
0.0
 11
38.86154701076759
 21
-2.0
 31
0.0
  0
LINE
  5
5DB
330
18
100
AcDbEntity
  8
1
 62
     1
100
AcDbLine
 10
35.07372505139082
 20
-0.0167711046623204
 30
0.0
 11
35.07372884814696
 21
-0.0167735356391799
 31
0.0
  0
LINE
  5
5DC
330
18
100
AcDbEntity
  8
1
 62
     1
100
AcDbLine
 10
35.07372884814696
 20
-0.0167735356391799
 30
0.0
 11
35.09150196804814
 21
-0.0287737513099499
 31
0.0
  0
LINE
  5
5DD
330
18
100
AcDbEntity
  8
1
 62
     1
100
AcDbLine
 10
35.09150196804814
 20
-0.0287737513099499
 30
0.0
 11
35.10912606388347
 21
-0.0418979983683254
 31
0.0
  0
LINE
  5
5DE
330
18
100
AcDbEntity
  8
1
 62
     1
100
AcDbLine
 10
35.10912606388347
 20
-0.0418979983683254
 30
0.0
 11
35.12659238192204
 21
-0.0561075958298136
 31
0.0
  0
LINE
  5
5DF
330
18
100
AcDbEntity
  8
1
 62
     1
100
AcDbLine
 10
35.12659238192204
 20
-0.0561075958298136
 30
0.0
 11
35.14389790101639
 21
-0.0713690949688807
 31
0.0
  0
LINE
  5
5E0
330
18
100
AcDbEntity
  8
1
 62
     1
100
AcDbLine
 10
35.14389790101639
 20
-0.0713690949688807
 30
0.0
 11
35.16104153386923
 21
-0.0876498332279722
 31
0.0
  0
LINE
  5
5E1
330
18
100
AcDbEntity
  8
1
 62
     1
100
AcDbLine
 10
35.16104153386923
 20
-0.0876498332279722
 30
0.0
 11
35.19482644379174
 21
-0.1231305897558068
 31
0.0
  0
LINE
  5
5E2
330
18
100
AcDbEntity
  8
1
 62
     1
100
AcDbLine
 10
35.19482644379174
 20
-0.1231305897558068
 30
0.0
 11
35.22793723558007
 21
-0.1622957845694124
 31
0.0
  0
LINE
  5
5E3
330
18
100
AcDbEntity
  8
1
 62
     1
100
AcDbLine
 10
35.22793723558007
 20
-0.1622957845694124
 30
0.0
 11
35.2603726345836
 21
-0.2049049267464199
 31
0.0
  0
LINE
  5
5E4
330
18
100
AcDbEntity
  8
1
 62
     1
100
AcDbLine
 10
35.2603726345836
 20
-0.2049049267464199
 30
0.0
 11
35.2921177508174
 21
-0.250705387998901
 31
0.0
  0
LINE
  5
5E5
330
18
100
AcDbEntity
  8
1
 62
     1
100
AcDbLine
 10
35.2921177508174
 20
-0.250705387998901
 30
0.0
 11
35.33845298923243
 21
-0.3249004599786268
 31
0.0
  0
LINE
  5
5E6
330
18
100
AcDbEntity
  8
1
 62
     1
100
AcDbLine
 10
35.07372892177776
 20
-0.0167733971441763
 30
0.0
 11
35.07372513570565
 21
-0.0167709729784102
 31
0.0
  0
ARC
  5
5E7
330
18
100
AcDbEntity
  8
1
 62
     1
100
AcDbCircle
 10
33.84207949668974
 20
-1.378414050844361
 30
0.0
 40
1.815352007048659
100
AcDbArc
 50
50.36885690522987
 51
55.64676636983617
  0
ARC
  5
5E8
330
18
100
AcDbEntity
  8
1
 62
     1
100
AcDbCircle
 10
33.66191808711535
 20
-1.378395525284782
 30
0.0
 40
1.917748035881404
100
AcDbArc
 50
54.73513386113828
 51
67.1023000692155
  0
LINE
  5
5E9
330
18
100
AcDbEntity
  8
1
 62
     1
100
AcDbLine
 10
34.8664683090159
 20
0.1202907714189619
 30
0.0
 11
34.86645588581146
 21
0.1202992381571591
 31
0.0
  0
LINE
  5
5EA
330
18
100
AcDbEntity
  8
1
 62
     1
100
AcDbLine
 10
34.86645588581146
 20
0.1202992381571591
 30
0.0
 11
34.86585122507272
 21
0.1207113651219744
 31
0.0
  0
LINE
  5
5EB
330
18
100
AcDbEntity
  8
1
 62
     1
100
AcDbLine
 10
34.76917957234507
 20
0.187462288161615
 30
0.0
 11
34.76917068724022
 21
0.1874685002735729
 31
0.0
  0
ARC
  5
5EC
330
18
100
AcDbEntity
  8
1
 62
     1
100
AcDbCircle
 10
41.79301904538594
 20
1.313141200873728
 30
0.0
 40
1.064377106615127
100
AcDbArc
 50
238.6662397527649
 51
242.4061136331404
  0
LINE
  5
5ED
330
18
100
AcDbEntity
  8
1
 62
     1
100
AcDbLine
 10
40.00552396299307
 20
0.0549942908395803
 30
0.0
 11
40.0210685988614
 21
0.0442146105612558
 31
0.0
  0
LINE
  5
5EE
330
18
100
AcDbEntity
  8
1
 62
     1
100
AcDbLine
 10
40.0210685988614
 20
0.0442146105612558
 30
0.0
 11
40.03648502144831
 21
0.032580835814071
 31
0.0
  0
LINE
  5
5EF
330
18
100
AcDbEntity
  8
1
 62
     1
100
AcDbLine
 10
40.03648502144831
 20
0.032580835814071
 30
0.0
 11
40.05177638198981
 21
0.0201118431613992
 31
0.0
  0
LINE
  5
5F0
330
18
100
AcDbEntity
  8
1
 62
     1
100
AcDbLine
 10
40.05177638198981
 20
0.0201118431613992
 30
0.0
 11
40.0819629137887
 21
-0.0072306382933181
 31
0.0
  0
LINE
  5
5F1
330
18
100
AcDbEntity
  8
1
 62
     1
100
AcDbLine
 10
40.0819629137887
 20
-0.0072306382933181
 30
0.0
 11
40.11162663339178
 21
-0.0376476456926629
 31
0.0
  0
LINE
  5
5F2
330
18
100
AcDbEntity
  8
1
 62
     1
100
AcDbLine
 10
40.11162663339178
 20
-0.0376476456926629
 30
0.0
 11
40.14075755314881
 21
-0.0709655766797457
 31
0.0
  0
LINE
  5
5F3
330
18
100
AcDbEntity
  8
1
 62
     1
100
AcDbLine
 10
40.14075755314881
 20
-0.0709655766797457
 30
0.0
 11
40.16934470364566
 21
-0.1070132020721721
 31
0.0
  0
LINE
  5
5F4
330
18
100
AcDbEntity
  8
1
 62
     1
100
AcDbLine
 10
40.16934470364566
 20
-0.1070132020721721
 30
0.0
 11
40.19739521015989
 21
-0.1456391702462518
 31
0.0
  0
LINE
  5
5F5
330
18
100
AcDbEntity
  8
1
 62
     1
100
AcDbLine
 10
40.19739521015989
 20
-0.1456391702462518
 30
0.0
 11
40.23845298923241
 21
-0.2080586441948515
 31
0.0
  0
ARC
  5
5F6
330
18
100
AcDbEntity
  8
1
 62
     1
100
AcDbCircle
 10
38.55771417140248
 20
-1.336781665867662
 30
0.0
 40
1.968351884625921
100
AcDbArc
 50
47.0067325976875
 51
54.19097325338514
  0
LINE
  5
5F7
330
18
100
AcDbEntity
  8
1
 62
     1
100
AcDbLine
 10
39.4609882136433
 20
0.4421206632702325
 30
0.0
 11
39.46099187185125
 21
0.4421179087369616
 31
0.0
  0
ARC
  5
5F8
330
18
100
AcDbEntity
  8
1
 62
     1
100
AcDbCircle
 10
39.11676752984085
 20
-0.0096909685443382
 30
0.0
 40
0.5680104663105129
100
AcDbArc
 50
42.07205933921187
 51
52.69693378057546
  0
LINE
  5
5F9
330
18
100
AcDbEntity
  8
1
 62
     1
100
AcDbLine
 10
39.70936033219576
 20
0.2594849835140828
 30
0.0
 11
39.70874998161311
 21
0.2599222549094073
 31
0.0
  0
LINE
  5
5FA
330
18
100
AcDbEntity
  8
1
 62
     1
100
AcDbLine
 10
39.46099213799432
 20
0.4421182645911673
 30
0.0
 11
39.46098848095397
 21
0.4421210182742137
 31
0.0
  0
ARC
  5
5FB
330
18
100
AcDbEntity
  8
1
 62
     1
100
AcDbCircle
 10
36.83392750232934
 20
1.284844692706994
 30
0.0
 40
1.086620621588672
100
AcDbArc
 50
234.1551166618424
 51
246.4597464299483
  0
LINE
  5
5FC
330
18
100
AcDbEntity
  8
SK1
100
AcDbLine
 10
0.0
 20
2.25
 30
0.0
 11
-15.0
 21
2.25
 31
0.0
  0
LINE
  5
5FD
330
18
100
AcDbEntity
  8
SK1
100
AcDbLine
 10
-15.0
 20
-1.7
 30
0.0
 11
-15.0
 21
-2.25
 31
0.0
  0
LINE
  5
5FE
330
18
100
AcDbEntity
  8
SK1
100
AcDbLine
 10
-20.775
 20
1.473940297298398
 30
0.0
 11
-15.0
 21
1.473940297298398
 31
0.0
  0
ARC
  5
5FF
330
18
100
AcDbEntity
  8
SK1
100
AcDbCircle
 10
-16.42364105754957
 20
-1.402858459677183
 30
0.0
 40
5.21622819068598
100
AcDbArc
 50
146.5302522620775
 51
151.3225532202409
  0
LINE
  5
600
330
18
100
AcDbEntity
  8
SK1
100
AcDbLine
 10
-20.775
 20
1.7
 30
0.0
 11
-20.775
 21
1.47394029729839
 31
0.0
  0
LINE
  5
601
330
18
100
AcDbEntity
  8
SK1
100
AcDbLine
 10
-21.0
 20
1.7
 30
0.0
 11
-20.775
 21
1.7
 31
0.0
  0
LINE
  5
602
330
18
100
AcDbEntity
  8
SK1
100
AcDbLine
 10
-15.0
 20
2.25
 30
0.0
 11
-15.0
 21
2.249884763484576
 31
0.0
  0
LINE
  5
603
330
18
100
AcDbEntity
  8
SK1
100
AcDbLine
 10
-15.0
 20
2.249884763484576
 30
0.0
 11
-15.0
 21
2.214624543829443
 31
0.0
  0
LINE
  5
604
330
18
100
AcDbEntity
  8
SK1
100
AcDbLine
 10
-15.0
 20
2.214624543829443
 30
0.0
 11
-15.0
 21
1.7
 31
0.0
  0
LINE
  5
605
330
18
100
AcDbEntity
  8
SK1
100
AcDbLine
 10
-20.775
 20
1.7
 30
0.0
 11
-15.0
 21
1.7
 31
0.0
  0
LINE
  5
606
330
18
100
AcDbEntity
  8
SK1
100
AcDbLine
 10
-20.775
 20
-1.473940297298367
 30
0.0
 11
-15.0
 21
-1.473940297298367
 31
0.0
  0
LINE
  5
607
330
18
100
AcDbEntity
  8
SK1
100
AcDbLine
 10
-20.775
 20
-1.473940297298368
 30
0.0
 11
-20.77499999999999
 21
-1.699999999999999
 31
0.0
  0
LINE
  5
608
330
18
100
AcDbEntity
  8
SK1
100
AcDbLine
 10
-20.775
 20
-1.7
 30
0.0
 11
-15.0
 21
-1.7
 31
0.0
  0
LINE
  5
609
330
18
100
AcDbEntity
  8
SK1
100
AcDbLine
 10
-21.0
 20
1.699999999999987
 30
0.0
 11
-21.0
 21
1.10028405423327
 31
0.0
  0
LINE
  5
60A
330
18
100
AcDbEntity
  8
SK1
100
AcDbLine
 10
-21.0
 20
-1.100284054233268
 30
0.0
 11
-21.0
 21
-1.7
 31
0.0
  0
ARC
  5
60B
330
18
100
AcDbEntity
  8
SK1
100
AcDbCircle
 10
-16.42364105755423
 20
1.402858459674508
 30
0.0
 40
5.216228190680614
100
AcDbArc
 50
208.6774467797578
 51
213.4697477379262
  0
LINE
  5
60C
330
18
100
AcDbEntity
  8
SK1
100
AcDbLine
 10
-21.0
 20
-1.7
 30
0.0
 11
-20.775
 21
-1.7
 31
0.0
  0
LINE
  5
60D
330
18
100
AcDbEntity
  8
SK1
100
AcDbLine
 10
-15.0
 20
1.473940297298369
 30
0.0
 11
-15.0
 21
-1.473940297298368
 31
0.0
  0
LINE
  5
60E
330
18
100
AcDbEntity
  8
SK1
100
AcDbLine
 10
-21.00000000000001
 20
1.10028405423327
 30
0.0
 11
-21.0
 21
-1.100284054233269
 31
0.0
  0
LINE
  5
60F
330
18
100
AcDbEntity
  8
SK1
100
AcDbLine
 10
-15.0
 20
-2.25
 30
0.0
 11
0.0
 21
-2.25
 31
0.0
  0
DIMENSION
  5
610
330
18
100
AcDbEntity
  8
2
100
AcDbDimension
  2
*D0
 10
57.00000000000001
 20
-1.999999999999948
 30
0.0
 11
54.58475000000004
 21
-10.76624999999996
 31
0.0
 70
    32
  1
M4
 71
     5
 42
4.0
  3
STANDARD
100
AcDbAlignedDimension
 13
42.0
 23
2.0
 33
0.0
 14
42.0
 24
-2.0
 34
0.0
 50
90.0000000000002
100
AcDbRotatedDimension
  0
DIMENSION
  5
61E
330
18
100
AcDbEntity
  8
2
100
AcDbDimension
  2
*D1
 10
42.0
 20
75.0
 30
0.0
 11
21.0
 21
77.431
 31
0.0
 70
    32
  1
<>
 71
     5
 42
42.0
  3
STANDARD
100
AcDbAlignedDimension
 13
0.0
 23
0.0
 33
0.0
 14
42.0
 24
0.0
 34
0.0
100
AcDbRotatedDimension
  0
DIMENSION
  5
62B
330
18
100
AcDbEntity
  8
SK2
100
AcDbDimension
  2
*D2
 10
-35.99999999998852
 20
-2.250000000107172
 30
0.0
 11
-38.437999999932
 21
-13.32450000011961
 31
0.0
 70
    32
  1
%%c<>
 71
     5
 42
4.5
  3
STANDARD
100
AcDbAlignedDimension
 13
-15.0
 23
2.25
 33
0.0
 14
-15.0
 24
-2.25
 34
0.0
 50
90.0000000002924
100
AcDbRotatedDimension
  0
DIMENSION
  5
639
330
18
100
AcDbEntity
  8
2
100
AcDbDimension
  2
*D3
 10
42.0
 20
60.0
 30
0.0
 11
50.39075
 21
62.39775
 31
0.0
 70
    32
  1
<>
 71
     5
 42
7.592006165999997
  3
STANDARD
100
AcDbAlignedDimension
 13
34.407993834
 23
1.485
 33
0.0
 14
42.0
 24
2.0
 34
0.0
100
AcDbRotatedDimension
  0
DIMENSION
  5
647
330
18
100
AcDbEntity
  8
SK2
100
AcDbDimension
  2
*D4
 10
42.0
 20
90.0
 30
0.0
 11
10.5
 21
92.39075
 31
0.0
 70
    32
  1
<>
 71
     5
 42
63.0
  3
STANDARD
100
AcDbAlignedDimension
 13
-21.0
 23
2.0
 33
0.0
 14
42.0
 24
2.0
 34
0.0
100
AcDbRotatedDimension
  0
ENDSEC
  0
SECTION
  2
OBJECTS
  0
DICTIONARY
  5
C
330
0
100
AcDbDictionary
281
     1
  3
ACAD_COLOR
350
387
  3
ACAD_GROUP
350
D
  3
ACAD_LAYOUT
350
301
  3
ACAD_MATERIAL
350
386
  3
ACAD_MLEADERSTYLE
350
654
  3
ACAD_MLINESTYLE
350
E
  3
ACAD_PLOTSETTINGS
350
302
  3
ACAD_PLOTSTYLENAME
350
2FF
  3
ACAD_SCALELIST
350
3A0
  3
ACAD_TABLESTYLE
350
388
  3
ACAD_VISUALSTYLE
350
3C5
  3
ACDBHEADERROUNDTRIPXREC
350
655
  3
AcDbVariableDictionary
350
357
  0
DICTIONARY
  5
387
102
{ACAD_REACTORS
330
C
102
}
330
C
100
AcDbDictionary
281
     1
  0
DICTIONARY
  5
D
102
{ACAD_REACTORS
330
C
102
}
330
C
100
AcDbDictionary
281
     1
  0
DICTIONARY
  5
301
102
{ACAD_REACTORS
330
C
102
}
330
C
100
AcDbDictionary
281
     1
  3
Layout1
350
33B
  3
Model
350
303
  0
DICTIONARY
  5
386
102
{ACAD_REACTORS
330
C
102
}
330
C
100
AcDbDictionary
281
     1
  3
ByBlock
350
3C3
  3
ByLayer
350
3C2
  3
Global
350
3C4
  0
DICTIONARY
  5
654
102
{ACAD_REACTORS
330
C
102
}
330
C
100
AcDbDictionary
281
     1
  0
DICTIONARY
  5
E
102
{ACAD_REACTORS
330
C
102
}
330
C
100
AcDbDictionary
281
     1
  3
STANDARD
350
1B
  0
DICTIONARY
  5
302
102
{ACAD_REACTORS
330
C
102
}
330
C
100
AcDbDictionary
281
     1
  0
ACDBDICTIONARYWDFLT
  5
2FF
102
{ACAD_REACTORS
330
C
102
}
330
C
100
AcDbDictionary
281
     1
  3
Normal
350
300
100
AcDbDictionaryWithDefault
340
300
  0
DICTIONARY
  5
3A0
102
{ACAD_REACTORS
330
C
102
}
330
C
100
AcDbDictionary
281
     1
  3
A0
350
3A1
  3
A1
350
3A2
  3
A2
350
3A3
  3
A3
350
3A4
  3
A4
350
3A5
  3
A5
350
3A6
  3
A6
350
3A7
  3
A7
350
3A8
  3
A8
350
3A9
  3
A9
350
3AA
  3
B0
350
3AB
  3
B1
350
3AC
  3
B2
350
3AD
  3
B3
350
3AE
  3
B4
350
3AF
  3
B5
350
3B0
  3
B6
350
3B1
  3
B7
350
3B2
  3
B8
350
3B3
  3
B9
350
3B4
  3
C0
350
3B5
  3
C1
350
3B6
  3
C2
350
3B7
  3
C3
350
3B8
  3
C4
350
3B9
  3
C5
350
3BA
  3
C6
350
3BB
  3
C7
350
3BC
  3
C8
350
3BD
  3
C9
350
3BE
  3
D0
350
3BF
  3
D1
350
3C0
  3
D2
350
3C1
  0
DICTIONARY
  5
388
102
{ACAD_REACTORS
330
C
102
}
330
C
100
AcDbDictionary
281
     1
  3
Standard
350
389
  0
DICTIONARY
  5
3C5
102
{ACAD_REACTORS
330
C
102
}
330
C
100
AcDbDictionary
281
     1
  3
2dWireframe
350
3CA
  3
3D Hidden
350
3CC
  3
3dWireframe
350
3CB
  3
Basic
350
3CD
  3
Brighten
350
3D1
  3
ColorChange
350
3D5
  3
Conceptual
350
3CF
  3
Dim
350
3D0
  3
Facepattern
350
3D4
  3
Flat
350
3C6
  3
FlatWithEdges
350
3C7
  3
Gouraud
350
3C8
  3
GouraudWithEdges
350
3C9
  3
Linepattern
350
3D3
  3
Realistic
350
3CE
  3
Thicken
350
3D2
  0
DICTIONARY
  5
655
102
{ACAD_REACTORS
330
C
102
}
330
C
100
AcDbDictionary
281
     1
  3
COLORDICT
350
656
  3
MATERIALDICT
350
657
  0
DICTIONARY
  5
357
102
{ACAD_REACTORS
330
C
102
}
330
C
100
AcDbDictionary
281
     1
  3
CANNOSCALE
350
658
  3
CTABLESTYLE
350
38D
  3
DIMASSOC
350
359
  3
HIDETEXT
350
358
  3
PROJECTNAME
350
38E
  0
LAYOUT
  5
33B
102
{ACAD_REACTORS
330
301
102
}
330
301
100
AcDbPlotSettings
  1

  2
Lexmark Optra PS2
  4

  6

 40
0.0
 41
0.0
 42
0.0
 43
0.0
 44
0.0
 45
0.0
 46
0.0
 47
0.0
 48
0.0
 49
0.0
140
0.0
141
0.0
142
1.0
143
1.0
 70
   688
 72
     0
 73
     0
 74
     5
  7
monochrome.ctb
 75
    16
147
1.0
148
0.0
149
0.0
100
AcDbLayout
  1
Layout1
 70
     1
 71
     1
 10
0.0
 20
0.0
 11
12.0
 21
9.0
 12
0.0
 22
0.0
 32
0.0
 14
0.0
 24
0.0
 34
0.0
 15
0.0
 25
0.0
 35
0.0
146
0.0
 13
0.0
 23
0.0
 33
0.0
 16
1.0
 26
0.0
 36
0.0
 17
0.0
 27
1.0
 37
0.0
 76
     0
330
338
  0
LAYOUT
  5
303
102
{ACAD_REACTORS
330
301
102
}
330
301
100
AcDbPlotSettings
  1

  2
Lexmark Optra Rx
  4
A4
  6

 40
6.805083274841307
 41
5.535083293914794
 42
6.974411010742187
 43
7.14373779296875
 44
209.9733276367186
 45
296.9259948730469
 46
0.0
 47
0.0
 48
0.0
 49
0.0
140
0.0
141
0.0
142
1.0
143
2.976565420630886
 70
 11952
 72
     1
 73
     1
 74
     0
  7
monochrome.ctb
 75
     0
147
0.335957675604539
148
204.1199660668592
149
172.3933209647495
100
AcDbLayout
  1
Model
 70
     1
 71
     0
 10
0.0
 20
0.0
 11
12.0
 21
9.0
 12
0.0
 22
0.0
 32
0.0
 14
0.0
 24
0.0
 34
0.0
 15
0.0
 25
0.0
 35
0.0
146
0.0
 13
0.0
 23
0.0
 33
0.0
 16
1.0
 26
0.0
 36
0.0
 17
0.0
 27
1.0
 37
0.0
 76
     0
330
18
331
39A
  0
MATERIAL
  5
3C3
102
{ACAD_REACTORS
330
386
102
}
102
{ACAD_XDICTIONARY
360
65B
102
}
330
386
100
AcDbMaterial
  1
ByBlock
  0
MATERIAL
  5
3C2
102
{ACAD_REACTORS
330
386
102
}
102
{ACAD_XDICTIONARY
360
659
102
}
330
386
100
AcDbMaterial
  1
ByLayer
  0
MATERIAL
  5
3C4
102
{ACAD_REACTORS
330
386
102
}
102
{ACAD_XDICTIONARY
360
65D
102
}
330
386
100
AcDbMaterial
  1
Global
  0
MLINESTYLE
  5
1B
102
{ACAD_REACTORS
330
E
102
}
330
E
100
AcDbMlineStyle
  2
STANDARD
 70
     0
  3

 62
     0
 51
90.0
 52
90.0
 71
     2
 49
0.5
 62
   256
  6
BYLAYER
 49
-0.5
 62
   256
  6
BYLAYER
  0
ACDBPLACEHOLDER
  5
300
102
{ACAD_REACTORS
330
2FF
102
}
330
2FF
  0
SCALE
  5
3A1
102
{ACAD_REACTORS
330
3A0
102
}
330
3A0
100
AcDbScale
 70
     0
300
1:1
140
1.0
141
1.0
290
     1
  0
SCALE
  5
3A2
102
{ACAD_REACTORS
330
3A0
102
}
330
3A0
100
AcDbScale
 70
     0
300
1:2
140
1.0
141
2.0
290
     0
  0
SCALE
  5
3A3
102
{ACAD_REACTORS
330
3A0
102
}
330
3A0
100
AcDbScale
 70
     0
300
1:4
140
1.0
141
4.0
290
     0
  0
SCALE
  5
3A4
102
{ACAD_REACTORS
330
3A0
102
}
330
3A0
100
AcDbScale
 70
     0
300
1:5
140
1.0
141
5.0
290
     0
  0
SCALE
  5
3A5
102
{ACAD_REACTORS
330
3A0
102
}
330
3A0
100
AcDbScale
 70
     0
300
1:8
140
1.0
141
8.0
290
     0
  0
SCALE
  5
3A6
102
{ACAD_REACTORS
330
3A0
102
}
330
3A0
100
AcDbScale
 70
     0
300
1:10
140
1.0
141
10.0
290
     0
  0
SCALE
  5
3A7
102
{ACAD_REACTORS
330
3A0
102
}
330
3A0
100
AcDbScale
 70
     0
300
1:16
140
1.0
141
16.0
290
     0
  0
SCALE
  5
3A8
102
{ACAD_REACTORS
330
3A0
102
}
330
3A0
100
AcDbScale
 70
     0
300
1:20
140
1.0
141
20.0
290
     0
  0
SCALE
  5
3A9
102
{ACAD_REACTORS
330
3A0
102
}
330
3A0
100
AcDbScale
 70
     0
300
1:30
140
1.0
141
30.0
290
     0
  0
SCALE
  5
3AA
102
{ACAD_REACTORS
330
3A0
102
}
330
3A0
100
AcDbScale
 70
     0
300
1:40
140
1.0
141
40.0
290
     0
  0
SCALE
  5
3AB
102
{ACAD_REACTORS
330
3A0
102
}
330
3A0
100
AcDbScale
 70
     0
300
1:50
140
1.0
141
50.0
290
     0
  0
SCALE
  5
3AC
102
{ACAD_REACTORS
330
3A0
102
}
330
3A0
100
AcDbScale
 70
     0
300
1:100
140
1.0
141
100.0
290
     0
  0
SCALE
  5
3AD
102
{ACAD_REACTORS
330
3A0
102
}
330
3A0
100
AcDbScale
 70
     0
300
2:1
140
2.0
141
1.0
290
     0
  0
SCALE
  5
3AE
102
{ACAD_REACTORS
330
3A0
102
}
330
3A0
100
AcDbScale
 70
     0
300
4:1
140
4.0
141
1.0
290
     0
  0
SCALE
  5
3AF
102
{ACAD_REACTORS
330
3A0
102
}
330
3A0
100
AcDbScale
 70
     0
300
8:1
140
8.0
141
1.0
290
     0
  0
SCALE
  5
3B0
102
{ACAD_REACTORS
330
3A0
102
}
330
3A0
100
AcDbScale
 70
     0
300
10:1
140
10.0
141
1.0
290
     0
  0
SCALE
  5
3B1
102
{ACAD_REACTORS
330
3A0
102
}
330
3A0
100
AcDbScale
 70
     0
300
100:1
140
100.0
141
1.0
290
     0
  0
SCALE
  5
3B2
102
{ACAD_REACTORS
330
3A0
102
}
330
3A0
100
AcDbScale
 70
     0
300
1/128" = 1'-0"
140
0.0078125
141
12.0
290
     0
  0
SCALE
  5
3B3
102
{ACAD_REACTORS
330
3A0
102
}
330
3A0
100
AcDbScale
 70
     0
300
1/64" = 1'-0"
140
0.015625
141
12.0
290
     0
  0
SCALE
  5
3B4
102
{ACAD_REACTORS
330
3A0
102
}
330
3A0
100
AcDbScale
 70
     0
300
1/32" = 1'-0"
140
0.03125
141
12.0
290
     0
  0
SCALE
  5
3B5
102
{ACAD_REACTORS
330
3A0
102
}
330
3A0
100
AcDbScale
 70
     0
300
1/16" = 1'-0"
140
0.0625
141
12.0
290
     0
  0
SCALE
  5
3B6
102
{ACAD_REACTORS
330
3A0
102
}
330
3A0
100
AcDbScale
 70
     0
300
3/32" = 1'-0"
140
0.09375
141
12.0
290
     0
  0
SCALE
  5
3B7
102
{ACAD_REACTORS
330
3A0
102
}
330
3A0
100
AcDbScale
 70
     0
300
1/8" = 1'-0"
140
0.125
141
12.0
290
     0
  0
SCALE
  5
3B8
102
{ACAD_REACTORS
330
3A0
102
}
330
3A0
100
AcDbScale
 70
     0
300
3/16" = 1'-0"
140
0.1875
141
12.0
290
     0
  0
SCALE
  5
3B9
102
{ACAD_REACTORS
330
3A0
102
}
330
3A0
100
AcDbScale
 70
     0
300
1/4" = 1'-0"
140
0.25
141
12.0
290
     0
  0
SCALE
  5
3BA
102
{ACAD_REACTORS
330
3A0
102
}
330
3A0
100
AcDbScale
 70
     0
300
3/8" = 1'-0"
140
0.375
141
12.0
290
     0
  0
SCALE
  5
3BB
102
{ACAD_REACTORS
330
3A0
102
}
330
3A0
100
AcDbScale
 70
     0
300
1/2" = 1'-0"
140
0.5
141
12.0
290
     0
  0
SCALE
  5
3BC
102
{ACAD_REACTORS
330
3A0
102
}
330
3A0
100
AcDbScale
 70
     0
300
3/4" = 1'-0"
140
0.75
141
12.0
290
     0
  0
SCALE
  5
3BD
102
{ACAD_REACTORS
330
3A0
102
}
330
3A0
100
AcDbScale
 70
     0
300
1" = 1'-0"
140
1.0
141
12.0
290
     0
  0
SCALE
  5
3BE
102
{ACAD_REACTORS
330
3A0
102
}
330
3A0
100
AcDbScale
 70
     0
300
1-1/2" = 1'-0"
140
1.5
141
12.0
290
     0
  0
SCALE
  5
3BF
102
{ACAD_REACTORS
330
3A0
102
}
330
3A0
100
AcDbScale
 70
     0
300
3" = 1'-0"
140
3.0
141
12.0
290
     0
  0
SCALE
  5
3C0
102
{ACAD_REACTORS
330
3A0
102
}
330
3A0
100
AcDbScale
 70
     0
300
6" = 1'-0"
140
6.0
141
12.0
290
     0
  0
SCALE
  5
3C1
102
{ACAD_REACTORS
330
3A0
102
}
330
3A0
100
AcDbScale
 70
     0
300
1'-0" = 1'-0"
140
12.0
141
12.0
290
     0
  0
TABLESTYLE
  5
389
102
{ACAD_REACTORS
330
388
102
}
330
388
100
AcDbTableStyle
  3
Standard
 70
     0
 71
     0
 40
1.5
 41
1.5
280
     0
281
     0
  7
STANDARD
140
4.5
170
     2
 62
     0
 63
   257
283
     0
274
    -2
284
     1
 64
     0
275
    -2
285
     1
 65
     0
276
    -2
286
     1
 66
     0
277
    -2
287
     1
 67
     0
278
    -2
288
     1
 68
     0
279
    -2
289
     1
 69
     0
  7
STANDARD
140
6.0
170
     5
 62
     0
 63
   257
283
     0
274
    -2
284
     1
 64
     0
275
    -2
285
     1
 65
     0
276
    -2
286
     1
 66
     0
277
    -2
287
     1
 67
     0
278
    -2
288
     1
 68
     0
279
    -2
289
     1
 69
     0
  7
STANDARD
140
4.5
170
     5
 62
     0
 63
   257
283
     0
274
    -2
284
     1
 64
     0
275
    -2
285
     1
 65
     0
276
    -2
286
     1
 66
     0
277
    -2
287
     1
 67
     0
278
    -2
288
     1
 68
     0
279
    -2
289
     1
 69
     0
  0
VISUALSTYLE
  5
3CA
102
{ACAD_REACTORS
330
3C5
102
}
102
{ACAD_XDICTIONARY
360
667
102
}
330
3C5
100
AcDbVisualStyle
  2
2dWireframe
 70
     4
 71
     0
 72
     2
 73
     0
 90
        0
 40
-0.6
 41
-30.0
 62
     5
 63
     7
 74
     1
 91
        4
 64
     7
 65
   257
 75
     1
175
     1
 42
1.0
 92
        0
 66
   257
 43
1.0
 76
     1
 77
     6
 78
     2
 67
     7
 79
     5
170
     0
171
     0
290
     0
174
     0
 93
        1
 44
0.0
173
     0
291
     0
 45
0.0
1001
ACAD
1000
AcDbSavedByObjectVersion
1070
     0
  0
VISUALSTYLE
  5
3CC
102
{ACAD_REACTORS
330
3C5
102
}
102
{ACAD_XDICTIONARY
360
66B
102
}
330
3C5
100
AcDbVisualStyle
  2
3D Hidden
 70
     6
 71
     1
 72
     2
 73
     2
 90
        0
 40
-0.6
 41
-30.0
 62
     5
 63
     7
 74
     2
 91
        2
 64
     7
 65
   257
 75
     2
175
     1
 42
40.0
 92
        0
 66
   257
 43
1.0
 76
     1
 77
     6
 78
     2
 67
     7
 79
     3
170
     0
171
     0
290
     0
174
     0
 93
        1
 44
0.0
173
     0
291
     0
 45
0.0
1001
ACAD
1000
AcDbSavedByObjectVersion
1070
     0
  0
VISUALSTYLE
  5
3CB
102
{ACAD_REACTORS
330
3C5
102
}
102
{ACAD_XDICTIONARY
360
669
102
}
330
3C5
100
AcDbVisualStyle
  2
3dWireframe
 70
     5
 71
     0
 72
     2
 73
     0
 90
        0
 40
-0.6
 41
-30.0
 62
     5
 63
     7
 74
     1
 91
        4
 64
     7
 65
   257
 75
     1
175
     1
 42
1.0
 92
        0
 66
   257
 43
1.0
 76
     1
 77
     6
 78
     2
 67
     7
 79
     5
170
     0
171
     0
290
     0
174
     0
 93
        1
 44
0.0
173
     0
291
     0
 45
0.0
1001
ACAD
1000
AcDbSavedByObjectVersion
1070
     0
  0
VISUALSTYLE
  5
3CD
102
{ACAD_REACTORS
330
3C5
102
}
102
{ACAD_XDICTIONARY
360
66D
102
}
330
3C5
100
AcDbVisualStyle
  2
Basic
 70
     7
 71
     1
 72
     0
 73
     1
 90
        0
 40
-0.6
 41
-30.0
 62
     5
 63
     7
 74
     0
 91
        4
 64
     7
 65
   257
 75
     1
175
     1
 42
1.0
 92
        8
 66
     7
 43
1.0
 76
     1
 77
     6
 78
     2
 67
     7
 79
     5
170
     0
171
     0
290
     0
174
     0
 93
        1
 44
0.0
173
     0
291
     1
 45
0.0
1001
ACAD
1000
AcDbSavedByObjectVersion
1070
     0
  0
VISUALSTYLE
  5
3D1
102
{ACAD_REACTORS
330
3C5
102
}
102
{ACAD_XDICTIONARY
360
675
102
}
330
3C5
100
AcDbVisualStyle
  2
Brighten
 70
    12
 71
     2
 72
     2
 73
     0
 90
        0
 40
-0.6
 41
-30.0
 62
     5
 63
     7
 74
     1
 91
        4
 64
     7
 65
   257
 75
     1
175
     1
 42
1.0
 92
        8
 66
     7
 43
1.0
 76
     1
 77
     6
 78
     2
 67
     7
 79
     5
170
     0
171
     0
290
     0
174
     0
 93
        1
 44
50.0
173
     0
291
     1
 45
0.0
1001
ACAD
1000
AcDbSavedByObjectVersion
1070
     0
  0
VISUALSTYLE
  5
3D5
102
{ACAD_REACTORS
330
3C5
102
}
102
{ACAD_XDICTIONARY
360
67D
102
}
330
3C5
100
AcDbVisualStyle
  2
ColorChange
 70
    16
 71
     2
 72
     2
 73
     3
 90
        0
 40
-0.6
 41
-30.0
 62
     5
 63
     8
 74
     1
 91
        4
 64
     7
 65
   257
 75
     1
175
     1
 42
1.0
 92
        8
 66
     8
 43
1.0
 76
     1
 77
     6
 78
     2
 67
     7
 79
     5
170
     0
171
     0
290
     0
174
     0
 93
        1
 44
0.0
173
     0
291
     1
 45
0.0
1001
ACAD
1000
AcDbSavedByObjectVersion
1070
     0
  0
VISUALSTYLE
  5
3CF
102
{ACAD_REACTORS
330
3C5
102
}
102
{ACAD_XDICTIONARY
360
671
102
}
330
3C5
100
AcDbVisualStyle
  2
Conceptual
 70
     9
 71
     3
 72
     2
 73
     0
 90
        0
 40
-0.6
 41
-30.0
 62
     5
 63
     7
 74
     2
 91
        2
 64
     7
 65
   257
 75
     1
175
     1
 42
40.0
 92
        8
 66
     7
 43
1.0
 76
     1
 77
     6
 78
     2
 67
     7
 79
     3
170
     0
171
     0
290
     0
174
     0
 93
        1
 44
0.0
173
     0
291
     0
 45
0.0
1001
ACAD
1000
AcDbSavedByObjectVersion
1070
     0
  0
VISUALSTYLE
  5
3D0
102
{ACAD_REACTORS
330
3C5
102
}
102
{ACAD_XDICTIONARY
360
673
102
}
330
3C5
100
AcDbVisualStyle
  2
Dim
 70
    11
 71
     2
 72
     2
 73
     0
 90
        0
 40
-0.6
 41
-30.0
 62
     5
 63
     7
 74
     1
 91
        4
 64
     7
 65
   257
 75
     1
175
     1
 42
1.0
 92
        8
 66
     7
 43
1.0
 76
     1
 77
     6
 78
     2
 67
     7
 79
     5
170
     0
171
     0
290
     0
174
     0
 93
        1
 44
-50.0
173
     0
291
     1
 45
0.0
1001
ACAD
1000
AcDbSavedByObjectVersion
1070
     0
  0
VISUALSTYLE
  5
3D4
102
{ACAD_REACTORS
330
3C5
102
}
102
{ACAD_XDICTIONARY
360
67B
102
}
330
3C5
100
AcDbVisualStyle
  2
Facepattern
 70
    15
 71
     2
 72
     2
 73
     0
 90
        0
 40
-0.6
 41
-30.0
 62
     5
 63
     7
 74
     1
 91
        4
 64
     7
 65
   257
 75
     1
175
     1
 42
1.0
 92
        8
 66
     7
 43
1.0
 76
     1
 77
     6
 78
     2
 67
     7
 79
     5
170
     0
171
     0
290
     0
174
     0
 93
        1
 44
0.0
173
     0
291
     1
 45
0.0
1001
ACAD
1000
AcDbSavedByObjectVersion
1070
     0
  0
VISUALSTYLE
  5
3C6
102
{ACAD_REACTORS
330
3C5
102
}
102
{ACAD_XDICTIONARY
360
65F
102
}
330
3C5
100
AcDbVisualStyle
  2
Flat
 70
     0
 71
     2
 72
     1
 73
     1
 90
        2
 40
-0.6
 41
30.0
 62
     5
 63
     7
 74
     0
 91
        4
 64
     7
 65
   257
 75
     1
175
     1
 42
1.0
 92
        8
 66
     7
 43
1.0
 76
     1
 77
     6
 78
     2
 67
     7
 79
     5
170
     0
171
     0
290
     0
174
     0
 93
       13
 44
0.0
173
     0
291
     1
 45
0.0
1001
ACAD
1000
AcDbSavedByObjectVersion
1070
     0
  0
VISUALSTYLE
  5
3C7
102
{ACAD_REACTORS
330
3C5
102
}
102
{ACAD_XDICTIONARY
360
661
102
}
330
3C5
100
AcDbVisualStyle
  2
FlatWithEdges
 70
     1
 71
     2
 72
     1
 73
     1
 90
        2
 40
-0.6
 41
30.0
 62
     5
 63
     7
 74
     1
 91
        4
 64
     7
 65
   257
 75
     1
175
     1
 42
1.0
 92
        0
 66
   257
 43
1.0
 76
     1
 77
     6
 78
     2
 67
     7
 79
     5
170
     0
171
     0
290
     0
174
     0
 93
       13
 44
0.0
173
     0
291
     1
 45
0.0
1001
ACAD
1000
AcDbSavedByObjectVersion
1070
     0
  0
VISUALSTYLE
  5
3C8
102
{ACAD_REACTORS
330
3C5
102
}
102
{ACAD_XDICTIONARY
360
663
102
}
330
3C5
100
AcDbVisualStyle
  2
Gouraud
 70
     2
 71
     2
 72
     2
 73
     1
 90
        2
 40
-0.6
 41
30.0
 62
     5
 63
     7
 74
     0
 91
        4
 64
     7
 65
   257
 75
     1
175
     1
 42
1.0
 92
        0
 66
     7
 43
1.0
 76
     1
 77
     6
 78
     2
 67
     7
 79
     5
170
     0
171
     0
290
     0
174
     0
 93
       13
 44
0.0
173
     0
291
     1
 45
0.0
1001
ACAD
1000
AcDbSavedByObjectVersion
1070
     0
  0
VISUALSTYLE
  5
3C9
102
{ACAD_REACTORS
330
3C5
102
}
102
{ACAD_XDICTIONARY
360
665
102
}
330
3C5
100
AcDbVisualStyle
  2
GouraudWithEdges
 70
     3
 71
     2
 72
     2
 73
     1
 90
        2
 40
-0.6
 41
30.0
 62
     5
 63
     7
 74
     1
 91
        4
 64
     7
 65
   257
 75
     1
175
     1
 42
1.0
 92
        0
 66
   257
 43
1.0
 76
     1
 77
     6
 78
     2
 67
     7
 79
     5
170
     0
171
     0
290
     0
174
     0
 93
       13
 44
0.0
173
     0
291
     1
 45
0.0
1001
ACAD
1000
AcDbSavedByObjectVersion
1070
     0
  0
VISUALSTYLE
  5
3D3
102
{ACAD_REACTORS
330
3C5
102
}
102
{ACAD_XDICTIONARY
360
679
102
}
330
3C5
100
AcDbVisualStyle
  2
Linepattern
 70
    14
 71
     2
 72
     2
 73
     0
 90
        0
 40
-0.6
 41
-30.0
 62
     5
 63
     7
 74
     1
 91
        4
 64
     7
 65
   257
 75
     7
175
     7
 42
1.0
 92
        8
 66
     7
 43
1.0
 76
     1
 77
     6
 78
     2
 67
     7
 79
     5
170
     0
171
     0
290
     0
174
     0
 93
        1
 44
0.0
173
     0
291
     1
 45
0.0
1001
ACAD
1000
AcDbSavedByObjectVersion
1070
     0
  0
VISUALSTYLE
  5
3CE
102
{ACAD_REACTORS
330
3C5
102
}
102
{ACAD_XDICTIONARY
360
66F
102
}
330
3C5
100
AcDbVisualStyle
  2
Realistic
 70
     8
 71
     2
 72
     2
 73
     0
 90
        0
 40
-0.6
 41
-30.0
 62
     5
 63
     7
 74
     1
 91
        0
 64
     7
 65
   257
 75
     1
175
     1
 42
1.0
 92
        8
 66
     8
 43
1.0
 76
     1
 77
     6
 78
     2
 67
     7
 79
     5
170
     0
171
     0
290
     0
174
     0
 93
       13
 44
0.0
173
     0
291
     0
 45
0.0
1001
ACAD
1000
AcDbSavedByObjectVersion
1070
     0
  0
VISUALSTYLE
  5
3D2
102
{ACAD_REACTORS
330
3C5
102
}
102
{ACAD_XDICTIONARY
360
677
102
}
330
3C5
100
AcDbVisualStyle
  2
Thicken
 70
    13
 71
     2
 72
     2
 73
     0
 90
        0
 40
-0.6
 41
-30.0
 62
     5
 63
     7
 74
     1
 91
        4
 64
     7
 65
   257
 75
     1
175
     1
 42
1.0
 92
       12
 66
     7
 43
1.0
 76
     1
 77
     6
 78
     2
 67
     7
 79
     5
170
     0
171
     0
290
     0
174
     0
 93
        1
 44
0.0
173
     0
291
     1
 45
0.0
1001
ACAD
1000
AcDbSavedByObjectVersion
1070
     0
  0
XRECORD
  5
656
102
{ACAD_REACTORS
330
655
102
}
330
655
100
AcDbXrecord
280
     1
340
387
  0
XRECORD
  5
657
102
{ACAD_REACTORS
330
655
102
}
330
655
100
AcDbXrecord
280
     1
340
386
  0
DICTIONARYVAR
  5
658
102
{ACAD_REACTORS
330
357
102
}
330
357
100
DictionaryVariables
280
     0
  1
1:1
  0
DICTIONARYVAR
  5
38D
102
{ACAD_REACTORS
330
357
102
}
330
357
100
DictionaryVariables
280
     0
  1
Standard
  0
DICTIONARYVAR
  5
359
102
{ACAD_REACTORS
330
357
102
}
330
357
100
DictionaryVariables
280
     0
  1
2
  0
DICTIONARYVAR
  5
358
102
{ACAD_REACTORS
330
357
102
}
330
357
100
DictionaryVariables
280
     0
  1
1
  0
DICTIONARYVAR
  5
38E
102
{ACAD_REACTORS
330
357
102
}
330
357
100
DictionaryVariables
280
     0
  1

  0
DICTIONARY
  5
65B
330
3C3
100
AcDbDictionary
280
     1
281
     1
  3
ACAD_XREC_ROUNDTRIP
360
65C
  0
DICTIONARY
  5
659
330
3C2
100
AcDbDictionary
280
     1
281
     1
  3
ACAD_XREC_ROUNDTRIP
360
65A
  0
DICTIONARY
  5
65D
330
3C4
100
AcDbDictionary
280
     1
281
     1
  3
ACAD_XREC_ROUNDTRIP
360
65E
  0
DICTIONARY
  5
667
330
3CA
100
AcDbDictionary
280
     1
281
     1
  3
ACAD_XREC_ROUNDTRIP
360
668
  0
DICTIONARY
  5
66B
330
3CC
100
AcDbDictionary
280
     1
281
     1
  3
ACAD_XREC_ROUNDTRIP
360
66C
  0
DICTIONARY
  5
669
330
3CB
100
AcDbDictionary
280
     1
281
     1
  3
ACAD_XREC_ROUNDTRIP
360
66A
  0
DICTIONARY
  5
66D
330
3CD
100
AcDbDictionary
280
     1
281
     1
  3
ACAD_XREC_ROUNDTRIP
360
66E
  0
DICTIONARY
  5
675
330
3D1
100
AcDbDictionary
280
     1
281
     1
  3
ACAD_XREC_ROUNDTRIP
360
676
  0
DICTIONARY
  5
67D
330
3D5
100
AcDbDictionary
280
     1
281
     1
  3
ACAD_XREC_ROUNDTRIP
360
67E
  0
DICTIONARY
  5
671
330
3CF
100
AcDbDictionary
280
     1
281
     1
  3
ACAD_XREC_ROUNDTRIP
360
672
  0
DICTIONARY
  5
673
330
3D0
100
AcDbDictionary
280
     1
281
     1
  3
ACAD_XREC_ROUNDTRIP
360
674
  0
DICTIONARY
  5
67B
330
3D4
100
AcDbDictionary
280
     1
281
     1
  3
ACAD_XREC_ROUNDTRIP
360
67C
  0
DICTIONARY
  5
65F
330
3C6
100
AcDbDictionary
280
     1
281
     1
  3
ACAD_XREC_ROUNDTRIP
360
660
  0
DICTIONARY
  5
661
330
3C7
100
AcDbDictionary
280
     1
281
     1
  3
ACAD_XREC_ROUNDTRIP
360
662
  0
DICTIONARY
  5
663
330
3C8
100
AcDbDictionary
280
     1
281
     1
  3
ACAD_XREC_ROUNDTRIP
360
664
  0
DICTIONARY
  5
665
330
3C9
100
AcDbDictionary
280
     1
281
     1
  3
ACAD_XREC_ROUNDTRIP
360
666
  0
DICTIONARY
  5
679
330
3D3
100
AcDbDictionary
280
     1
281
     1
  3
ACAD_XREC_ROUNDTRIP
360
67A
  0
DICTIONARY
  5
66F
330
3CE
100
AcDbDictionary
280
     1
281
     1
  3
ACAD_XREC_ROUNDTRIP
360
670
  0
DICTIONARY
  5
677
330
3D2
100
AcDbDictionary
280
     1
281
     1
  3
ACAD_XREC_ROUNDTRIP
360
678
  0
XRECORD
  5
65C
102
{ACAD_REACTORS
330
65B
102
}
330
65B
100
AcDbXrecord
280
     1
102
MATERIAL
148
0.0
149
0.0
149
0.0
 93
        0
 94
      127
282
     0
 72
     1
 77
     1
171
     1
175
     1
179
     1
273
     0
  0
XRECORD
  5
65A
102
{ACAD_REACTORS
330
659
102
}
330
659
100
AcDbXrecord
280
     1
102
MATERIAL
148
0.0
149
0.0
149
0.0
 93
        0
 94
      127
282
     0
 72
     1
 77
     1
171
     1
175
     1
179
     1
273
     0
  0
XRECORD
  5
65E
102
{ACAD_REACTORS
330
65D
102
}
330
65D
100
AcDbXrecord
280
     1
102
MATERIAL
148
0.0
149
0.0
149
0.0
 93
        0
 94
      127
282
     0
 72
     1
 77
     1
171
     1
175
     1
179
     1
273
     0
  0
XRECORD
  5
668
102
{ACAD_REACTORS
330
667
102
}
330
667
100
AcDbXrecord
280
     1
102
RTVSPropertyOp0
 70
     1
102
RTVSPropertyOp1
 70
     1
102
RTVSPropertyOp2
 70
     1
102
RTVSPropertyOp3
 70
     1
102
RTVSPropertyOp4
 70
     1
102
RTVSPropertyOp5
 70
     1
102
RTVSPropertyOp6
 70
     1
102
RTVSPropertyOp7
 70
     1
102
RTVSPropertyOp8
 70
     1
102
RTVSPropertyOp9
 70
     1
102
RTVSPropertyOp10
 70
     1
102
RTVSPropertyOp11
 70
     1
102
RTVSPropertyOp12
 70
     1
102
RTVSPropertyOp13
 70
     1
102
RTVSPropertyOp14
 70
     1
102
RTVSPropertyOp15
 70
     1
102
RTVSPropertyOp16
 70
     1
102
RTVSPropertyOp17
 70
     1
102
RTVSPropertyOp18
 70
     1
102
RTVSPropertyOp19
 70
     1
102
RTVSPropertyOp20
 70
     1
102
RTVSPropertyOp21
 70
     1
102
RTVSPropertyOp22
 70
     1
102
RTVSPropertyOp23
 70
     1
102
RTVSPropertyOp24
 70
     1
102
RTVSPropertyOp25
 70
     1
102
RTVSPropertyOp26
 70
     1
102
RTVSPropertyOp27
 70
     1
102
RTVSPropertyOp28
 70
     1
102
RTVSPropertyOp29
 70
     1
102
RTVSPropertyOp30
 70
     1
102
RTVSPropertyOp31
 70
     1
102
RTVSPropertyOp32
 70
     1
  0
XRECORD
  5
66C
102
{ACAD_REACTORS
330
66B
102
}
330
66B
100
AcDbXrecord
280
     1
102
RTVSPropertyOp0
 70
     1
102
RTVSPropertyOp1
 70
     1
102
RTVSPropertyOp2
 70
     1
102
RTVSPropertyOp3
 70
     1
102
RTVSPropertyOp4
 70
     1
102
RTVSPropertyOp5
 70
     1
102
RTVSPropertyOp6
 70
     1
102
RTVSPropertyOp7
 70
     1
102
RTVSPropertyOp8
 70
     1
102
RTVSPropertyOp9
 70
     1
102
RTVSPropertyOp10
 70
     1
102
RTVSPropertyOp11
 70
     1
102
RTVSPropertyOp12
 70
     1
102
RTVSPropertyOp13
 70
     1
102
RTVSPropertyOp14
 70
     1
102
RTVSPropertyOp15
 70
     1
102
RTVSPropertyOp16
 70
     1
102
RTVSPropertyOp17
 70
     1
102
RTVSPropertyOp18
 70
     1
102
RTVSPropertyOp19
 70
     1
102
RTVSPropertyOp20
 70
     1
102
RTVSPropertyOp21
 70
     1
102
RTVSPropertyOp22
 70
     1
102
RTVSPropertyOp23
 70
     1
102
RTVSPropertyOp24
 70
     1
102
RTVSPropertyOp25
 70
     1
102
RTVSPropertyOp26
 70
     1
102
RTVSPropertyOp27
 70
     1
102
RTVSPropertyOp28
 70
     1
102
RTVSPropertyOp29
 70
     1
102
RTVSPropertyOp30
 70
     1
102
RTVSPropertyOp31
 70
     1
102
RTVSPropertyOp32
 70
     1
  0
XRECORD
  5
66A
102
{ACAD_REACTORS
330
669
102
}
330
669
100
AcDbXrecord
280
     1
102
RTVSPropertyOp0
 70
     1
102
RTVSPropertyOp1
 70
     1
102
RTVSPropertyOp2
 70
     1
102
RTVSPropertyOp3
 70
     1
102
RTVSPropertyOp4
 70
     1
102
RTVSPropertyOp5
 70
     1
102
RTVSPropertyOp6
 70
     1
102
RTVSPropertyOp7
 70
     1
102
RTVSPropertyOp8
 70
     1
102
RTVSPropertyOp9
 70
     1
102
RTVSPropertyOp10
 70
     1
102
RTVSPropertyOp11
 70
     1
102
RTVSPropertyOp12
 70
     1
102
RTVSPropertyOp13
 70
     1
102
RTVSPropertyOp14
 70
     1
102
RTVSPropertyOp15
 70
     1
102
RTVSPropertyOp16
 70
     1
102
RTVSPropertyOp17
 70
     1
102
RTVSPropertyOp18
 70
     1
102
RTVSPropertyOp19
 70
     1
102
RTVSPropertyOp20
 70
     1
102
RTVSPropertyOp21
 70
     1
102
RTVSPropertyOp22
 70
     1
102
RTVSPropertyOp23
 70
     1
102
RTVSPropertyOp24
 70
     1
102
RTVSPropertyOp25
 70
     1
102
RTVSPropertyOp26
 70
     1
102
RTVSPropertyOp27
 70
     1
102
RTVSPropertyOp28
 70
     1
102
RTVSPropertyOp29
 70
     1
102
RTVSPropertyOp30
 70
     1
102
RTVSPropertyOp31
 70
     1
102
RTVSPropertyOp32
 70
     1
  0
XRECORD
  5
66E
102
{ACAD_REACTORS
330
66D
102
}
330
66D
100
AcDbXrecord
280
     1
102
RTVSPropertyOp0
 70
     1
102
RTVSPropertyOp1
 70
     1
102
RTVSPropertyOp2
 70
     1
102
RTVSPropertyOp3
 70
     1
102
RTVSPropertyOp4
 70
     1
102
RTVSPropertyOp5
 70
     1
102
RTVSPropertyOp6
 70
     1
102
RTVSPropertyOp7
 70
     1
102
RTVSPropertyOp8
 70
     1
102
RTVSPropertyOp9
 70
     1
102
RTVSPropertyOp10
 70
     1
102
RTVSPropertyOp11
 70
     1
102
RTVSPropertyOp12
 70
     1
102
RTVSPropertyOp13
 70
     1
102
RTVSPropertyOp14
 70
     1
102
RTVSPropertyOp15
 70
     1
102
RTVSPropertyOp16
 70
     1
102
RTVSPropertyOp17
 70
     1
102
RTVSPropertyOp18
 70
     1
102
RTVSPropertyOp19
 70
     1
102
RTVSPropertyOp20
 70
     1
102
RTVSPropertyOp21
 70
     1
102
RTVSPropertyOp22
 70
     1
102
RTVSPropertyOp23
 70
     1
102
RTVSPropertyOp24
 70
     1
102
RTVSPropertyOp25
 70
     1
102
RTVSPropertyOp26
 70
     1
102
RTVSPropertyOp27
 70
     1
102
RTVSPropertyOp28
 70
     1
102
RTVSPropertyOp29
 70
     1
102
RTVSPropertyOp30
 70
     1
102
RTVSPropertyOp31
 70
     1
102
RTVSPropertyOp32
 70
     1
  0
XRECORD
  5
676
102
{ACAD_REACTORS
330
675
102
}
330
675
100
AcDbXrecord
280
     1
102
RTVSPropertyOp0
 70
     1
102
RTVSPropertyOp1
 70
     1
102
RTVSPropertyOp2
 70
     1
102
RTVSPropertyOp3
 70
     1
102
RTVSPropertyOp4
 70
     1
102
RTVSPropertyOp5
 70
     1
102
RTVSPropertyOp6
 70
     1
102
RTVSPropertyOp7
 70
     1
102
RTVSPropertyOp8
 70
     1
102
RTVSPropertyOp9
 70
     1
102
RTVSPropertyOp10
 70
     1
102
RTVSPropertyOp11
 70
     1
102
RTVSPropertyOp12
 70
     1
102
RTVSPropertyOp13
 70
     1
102
RTVSPropertyOp14
 70
     1
102
RTVSPropertyOp15
 70
     1
102
RTVSPropertyOp16
 70
     1
102
RTVSPropertyOp17
 70
     1
102
RTVSPropertyOp18
 70
     1
102
RTVSPropertyOp19
 70
     1
102
RTVSPropertyOp20
 70
     1
102
RTVSPropertyOp21
 70
     1
102
RTVSPropertyOp22
 70
     1
102
RTVSPropertyOp23
 70
     1
102
RTVSPropertyOp24
 70
     1
102
RTVSPropertyOp25
 70
     1
102
RTVSPropertyOp26
 70
     1
102
RTVSPropertyOp27
 70
     1
102
RTVSPropertyOp28
 70
     1
102
RTVSPropertyOp29
 70
     1
102
RTVSPropertyOp30
 70
     1
102
RTVSPropertyOp31
 70
     1
102
RTVSPropertyOp32
 70
     1
  0
XRECORD
  5
67E
102
{ACAD_REACTORS
330
67D
102
}
330
67D
100
AcDbXrecord
280
     1
102
RTVSPropertyOp0
 70
     1
102
RTVSPropertyOp1
 70
     1
102
RTVSPropertyOp2
 70
     1
102
RTVSPropertyOp3
 70
     1
102
RTVSPropertyOp4
 70
     1
102
RTVSPropertyOp5
 70
     1
102
RTVSPropertyOp6
 70
     1
102
RTVSPropertyOp7
 70
     1
102
RTVSPropertyOp8
 70
     1
102
RTVSPropertyOp9
 70
     1
102
RTVSPropertyOp10
 70
     1
102
RTVSPropertyOp11
 70
     1
102
RTVSPropertyOp12
 70
     1
102
RTVSPropertyOp13
 70
     1
102
RTVSPropertyOp14
 70
     1
102
RTVSPropertyOp15
 70
     1
102
RTVSPropertyOp16
 70
     1
102
RTVSPropertyOp17
 70
     1
102
RTVSPropertyOp18
 70
     1
102
RTVSPropertyOp19
 70
     1
102
RTVSPropertyOp20
 70
     1
102
RTVSPropertyOp21
 70
     1
102
RTVSPropertyOp22
 70
     1
102
RTVSPropertyOp23
 70
     1
102
RTVSPropertyOp24
 70
     1
102
RTVSPropertyOp25
 70
     1
102
RTVSPropertyOp26
 70
     1
102
RTVSPropertyOp27
 70
     1
102
RTVSPropertyOp28
 70
     1
102
RTVSPropertyOp29
 70
     1
102
RTVSPropertyOp30
 70
     1
102
RTVSPropertyOp31
 70
     1
102
RTVSPropertyOp32
 70
     1
  0
XRECORD
  5
672
102
{ACAD_REACTORS
330
671
102
}
330
671
100
AcDbXrecord
280
     1
102
RTVSPropertyOp0
 70
     1
102
RTVSPropertyOp1
 70
     1
102
RTVSPropertyOp2
 70
     1
102
RTVSPropertyOp3
 70
     1
102
RTVSPropertyOp4
 70
     1
102
RTVSPropertyOp5
 70
     1
102
RTVSPropertyOp6
 70
     1
102
RTVSPropertyOp7
 70
     1
102
RTVSPropertyOp8
 70
     1
102
RTVSPropertyOp9
 70
     1
102
RTVSPropertyOp10
 70
     1
102
RTVSPropertyOp11
 70
     1
102
RTVSPropertyOp12
 70
     1
102
RTVSPropertyOp13
 70
     1
102
RTVSPropertyOp14
 70
     1
102
RTVSPropertyOp15
 70
     1
102
RTVSPropertyOp16
 70
     1
102
RTVSPropertyOp17
 70
     1
102
RTVSPropertyOp18
 70
     1
102
RTVSPropertyOp19
 70
     1
102
RTVSPropertyOp20
 70
     1
102
RTVSPropertyOp21
 70
     1
102
RTVSPropertyOp22
 70
     1
102
RTVSPropertyOp23
 70
     1
102
RTVSPropertyOp24
 70
     1
102
RTVSPropertyOp25
 70
     1
102
RTVSPropertyOp26
 70
     1
102
RTVSPropertyOp27
 70
     1
102
RTVSPropertyOp28
 70
     1
102
RTVSPropertyOp29
 70
     1
102
RTVSPropertyOp30
 70
     1
102
RTVSPropertyOp31
 70
     1
102
RTVSPropertyOp32
 70
     1
  0
XRECORD
  5
674
102
{ACAD_REACTORS
330
673
102
}
330
673
100
AcDbXrecord
280
     1
102
RTVSPropertyOp0
 70
     1
102
RTVSPropertyOp1
 70
     1
102
RTVSPropertyOp2
 70
     1
102
RTVSPropertyOp3
 70
     1
102
RTVSPropertyOp4
 70
     1
102
RTVSPropertyOp5
 70
     1
102
RTVSPropertyOp6
 70
     1
102
RTVSPropertyOp7
 70
     1
102
RTVSPropertyOp8
 70
     1
102
RTVSPropertyOp9
 70
     1
102
RTVSPropertyOp10
 70
     1
102
RTVSPropertyOp11
 70
     1
102
RTVSPropertyOp12
 70
     1
102
RTVSPropertyOp13
 70
     1
102
RTVSPropertyOp14
 70
     1
102
RTVSPropertyOp15
 70
     1
102
RTVSPropertyOp16
 70
     1
102
RTVSPropertyOp17
 70
     1
102
RTVSPropertyOp18
 70
     1
102
RTVSPropertyOp19
 70
     1
102
RTVSPropertyOp20
 70
     1
102
RTVSPropertyOp21
 70
     1
102
RTVSPropertyOp22
 70
     1
102
RTVSPropertyOp23
 70
     1
102
RTVSPropertyOp24
 70
     1
102
RTVSPropertyOp25
 70
     1
102
RTVSPropertyOp26
 70
     1
102
RTVSPropertyOp27
 70
     1
102
RTVSPropertyOp28
 70
     1
102
RTVSPropertyOp29
 70
     1
102
RTVSPropertyOp30
 70
     1
102
RTVSPropertyOp31
 70
     1
102
RTVSPropertyOp32
 70
     1
  0
XRECORD
  5
67C
102
{ACAD_REACTORS
330
67B
102
}
330
67B
100
AcDbXrecord
280
     1
102
RTVSPropertyOp0
 70
     1
102
RTVSPropertyOp1
 70
     1
102
RTVSPropertyOp2
 70
     1
102
RTVSPropertyOp3
 70
     1
102
RTVSPropertyOp4
 70
     1
102
RTVSPropertyOp5
 70
     1
102
RTVSPropertyOp6
 70
     1
102
RTVSPropertyOp7
 70
     1
102
RTVSPropertyOp8
 70
     1
102
RTVSPropertyOp9
 70
     1
102
RTVSPropertyOp10
 70
     1
102
RTVSPropertyOp11
 70
     1
102
RTVSPropertyOp12
 70
     1
102
RTVSPropertyOp13
 70
     1
102
RTVSPropertyOp14
 70
     1
102
RTVSPropertyOp15
 70
     1
102
RTVSPropertyOp16
 70
     1
102
RTVSPropertyOp17
 70
     1
102
RTVSPropertyOp18
 70
     1
102
RTVSPropertyOp19
 70
     1
102
RTVSPropertyOp20
 70
     1
102
RTVSPropertyOp21
 70
     1
102
RTVSPropertyOp22
 70
     1
102
RTVSPropertyOp23
 70
     1
102
RTVSPropertyOp24
 70
     1
102
RTVSPropertyOp25
 70
     1
102
RTVSPropertyOp26
 70
     1
102
RTVSPropertyOp27
 70
     1
102
RTVSPropertyOp28
 70
     1
102
RTVSPropertyOp29
 70
     1
102
RTVSPropertyOp30
 70
     1
102
RTVSPropertyOp31
 70
     1
102
RTVSPropertyOp32
 70
     1
  0
XRECORD
  5
660
102
{ACAD_REACTORS
330
65F
102
}
330
65F
100
AcDbXrecord
280
     1
102
RTVSPropertyOp0
 70
     1
102
RTVSPropertyOp1
 70
     1
102
RTVSPropertyOp2
 70
     1
102
RTVSPropertyOp3
 70
     1
102
RTVSPropertyOp4
 70
     1
102
RTVSPropertyOp5
 70
     1
102
RTVSPropertyOp6
 70
     1
102
RTVSPropertyOp7
 70
     1
102
RTVSPropertyOp8
 70
     1
102
RTVSPropertyOp9
 70
     1
102
RTVSPropertyOp10
 70
     1
102
RTVSPropertyOp11
 70
     1
102
RTVSPropertyOp12
 70
     1
102
RTVSPropertyOp13
 70
     1
102
RTVSPropertyOp14
 70
     1
102
RTVSPropertyOp15
 70
     1
102
RTVSPropertyOp16
 70
     1
102
RTVSPropertyOp17
 70
     1
102
RTVSPropertyOp18
 70
     1
102
RTVSPropertyOp19
 70
     1
102
RTVSPropertyOp20
 70
     1
102
RTVSPropertyOp21
 70
     1
102
RTVSPropertyOp22
 70
     1
102
RTVSPropertyOp23
 70
     1
102
RTVSPropertyOp24
 70
     1
102
RTVSPropertyOp25
 70
     1
102
RTVSPropertyOp26
 70
     1
102
RTVSPropertyOp27
 70
     1
102
RTVSPropertyOp28
 70
     1
102
RTVSPropertyOp29
 70
     1
102
RTVSPropertyOp30
 70
     1
102
RTVSPropertyOp31
 70
     1
102
RTVSPropertyOp32
 70
     1
  0
XRECORD
  5
662
102
{ACAD_REACTORS
330
661
102
}
330
661
100
AcDbXrecord
280
     1
102
RTVSPropertyOp0
 70
     1
102
RTVSPropertyOp1
 70
     1
102
RTVSPropertyOp2
 70
     1
102
RTVSPropertyOp3
 70
     1
102
RTVSPropertyOp4
 70
     1
102
RTVSPropertyOp5
 70
     1
102
RTVSPropertyOp6
 70
     1
102
RTVSPropertyOp7
 70
     1
102
RTVSPropertyOp8
 70
     1
102
RTVSPropertyOp9
 70
     1
102
RTVSPropertyOp10
 70
     1
102
RTVSPropertyOp11
 70
     1
102
RTVSPropertyOp12
 70
     1
102
RTVSPropertyOp13
 70
     1
102
RTVSPropertyOp14
 70
     1
102
RTVSPropertyOp15
 70
     1
102
RTVSPropertyOp16
 70
     1
102
RTVSPropertyOp17
 70
     1
102
RTVSPropertyOp18
 70
     1
102
RTVSPropertyOp19
 70
     1
102
RTVSPropertyOp20
 70
     1
102
RTVSPropertyOp21
 70
     1
102
RTVSPropertyOp22
 70
     1
102
RTVSPropertyOp23
 70
     1
102
RTVSPropertyOp24
 70
     1
102
RTVSPropertyOp25
 70
     1
102
RTVSPropertyOp26
 70
     1
102
RTVSPropertyOp27
 70
     1
102
RTVSPropertyOp28
 70
     1
102
RTVSPropertyOp29
 70
     1
102
RTVSPropertyOp30
 70
     1
102
RTVSPropertyOp31
 70
     1
102
RTVSPropertyOp32
 70
     1
  0
XRECORD
  5
664
102
{ACAD_REACTORS
330
663
102
}
330
663
100
AcDbXrecord
280
     1
102
RTVSPropertyOp0
 70
     1
102
RTVSPropertyOp1
 70
     1
102
RTVSPropertyOp2
 70
     1
102
RTVSPropertyOp3
 70
     1
102
RTVSPropertyOp4
 70
     1
102
RTVSPropertyOp5
 70
     1
102
RTVSPropertyOp6
 70
     1
102
RTVSPropertyOp7
 70
     1
102
RTVSPropertyOp8
 70
     1
102
RTVSPropertyOp9
 70
     1
102
RTVSPropertyOp10
 70
     1
102
RTVSPropertyOp11
 70
     1
102
RTVSPropertyOp12
 70
     1
102
RTVSPropertyOp13
 70
     1
102
RTVSPropertyOp14
 70
     1
102
RTVSPropertyOp15
 70
     1
102
RTVSPropertyOp16
 70
     1
102
RTVSPropertyOp17
 70
     1
102
RTVSPropertyOp18
 70
     1
102
RTVSPropertyOp19
 70
     1
102
RTVSPropertyOp20
 70
     1
102
RTVSPropertyOp21
 70
     1
102
RTVSPropertyOp22
 70
     1
102
RTVSPropertyOp23
 70
     1
102
RTVSPropertyOp24
 70
     1
102
RTVSPropertyOp25
 70
     1
102
RTVSPropertyOp26
 70
     1
102
RTVSPropertyOp27
 70
     1
102
RTVSPropertyOp28
 70
     1
102
RTVSPropertyOp29
 70
     1
102
RTVSPropertyOp30
 70
     1
102
RTVSPropertyOp31
 70
     1
102
RTVSPropertyOp32
 70
     1
  0
XRECORD
  5
666
102
{ACAD_REACTORS
330
665
102
}
330
665
100
AcDbXrecord
280
     1
102
RTVSPropertyOp0
 70
     1
102
RTVSPropertyOp1
 70
     1
102
RTVSPropertyOp2
 70
     1
102
RTVSPropertyOp3
 70
     1
102
RTVSPropertyOp4
 70
     1
102
RTVSPropertyOp5
 70
     1
102
RTVSPropertyOp6
 70
     1
102
RTVSPropertyOp7
 70
     1
102
RTVSPropertyOp8
 70
     1
102
RTVSPropertyOp9
 70
     1
102
RTVSPropertyOp10
 70
     1
102
RTVSPropertyOp11
 70
     1
102
RTVSPropertyOp12
 70
     1
102
RTVSPropertyOp13
 70
     1
102
RTVSPropertyOp14
 70
     1
102
RTVSPropertyOp15
 70
     1
102
RTVSPropertyOp16
 70
     1
102
RTVSPropertyOp17
 70
     1
102
RTVSPropertyOp18
 70
     1
102
RTVSPropertyOp19
 70
     1
102
RTVSPropertyOp20
 70
     1
102
RTVSPropertyOp21
 70
     1
102
RTVSPropertyOp22
 70
     1
102
RTVSPropertyOp23
 70
     1
102
RTVSPropertyOp24
 70
     1
102
RTVSPropertyOp25
 70
     1
102
RTVSPropertyOp26
 70
     1
102
RTVSPropertyOp27
 70
     1
102
RTVSPropertyOp28
 70
     1
102
RTVSPropertyOp29
 70
     1
102
RTVSPropertyOp30
 70
     1
102
RTVSPropertyOp31
 70
     1
102
RTVSPropertyOp32
 70
     1
  0
XRECORD
  5
67A
102
{ACAD_REACTORS
330
679
102
}
330
679
100
AcDbXrecord
280
     1
102
RTVSPropertyOp0
 70
     1
102
RTVSPropertyOp1
 70
     1
102
RTVSPropertyOp2
 70
     1
102
RTVSPropertyOp3
 70
     1
102
RTVSPropertyOp4
 70
     1
102
RTVSPropertyOp5
 70
     1
102
RTVSPropertyOp6
 70
     1
102
RTVSPropertyOp7
 70
     1
102
RTVSPropertyOp8
 70
     1
102
RTVSPropertyOp9
 70
     1
102
RTVSPropertyOp10
 70
     1
102
RTVSPropertyOp11
 70
     1
102
RTVSPropertyOp12
 70
     1
102
RTVSPropertyOp13
 70
     1
102
RTVSPropertyOp14
 70
     1
102
RTVSPropertyOp15
 70
     1
102
RTVSPropertyOp16
 70
     1
102
RTVSPropertyOp17
 70
     1
102
RTVSPropertyOp18
 70
     1
102
RTVSPropertyOp19
 70
     1
102
RTVSPropertyOp20
 70
     1
102
RTVSPropertyOp21
 70
     1
102
RTVSPropertyOp22
 70
     1
102
RTVSPropertyOp23
 70
     1
102
RTVSPropertyOp24
 70
     1
102
RTVSPropertyOp25
 70
     1
102
RTVSPropertyOp26
 70
     1
102
RTVSPropertyOp27
 70
     1
102
RTVSPropertyOp28
 70
     1
102
RTVSPropertyOp29
 70
     1
102
RTVSPropertyOp30
 70
     1
102
RTVSPropertyOp31
 70
     1
102
RTVSPropertyOp32
 70
     1
  0
XRECORD
  5
670
102
{ACAD_REACTORS
330
66F
102
}
330
66F
100
AcDbXrecord
280
     1
102
RTVSPropertyOp0
 70
     1
102
RTVSPropertyOp1
 70
     1
102
RTVSPropertyOp2
 70
     1
102
RTVSPropertyOp3
 70
     1
102
RTVSPropertyOp4
 70
     1
102
RTVSPropertyOp5
 70
     1
102
RTVSPropertyOp6
 70
     1
102
RTVSPropertyOp7
 70
     1
102
RTVSPropertyOp8
 70
     1
102
RTVSPropertyOp9
 70
     1
102
RTVSPropertyOp10
 70
     1
102
RTVSPropertyOp11
 70
     1
102
RTVSPropertyOp12
 70
     1
102
RTVSPropertyOp13
 70
     1
102
RTVSPropertyOp14
 70
     1
102
RTVSPropertyOp15
 70
     1
102
RTVSPropertyOp16
 70
     1
102
RTVSPropertyOp17
 70
     1
102
RTVSPropertyOp18
 70
     1
102
RTVSPropertyOp19
 70
     1
102
RTVSPropertyOp20
 70
     1
102
RTVSPropertyOp21
 70
     1
102
RTVSPropertyOp22
 70
     1
102
RTVSPropertyOp23
 70
     1
102
RTVSPropertyOp24
 70
     1
102
RTVSPropertyOp25
 70
     1
102
RTVSPropertyOp26
 70
     1
102
RTVSPropertyOp27
 70
     1
102
RTVSPropertyOp28
 70
     1
102
RTVSPropertyOp29
 70
     1
102
RTVSPropertyOp30
 70
     1
102
RTVSPropertyOp31
 70
     1
102
RTVSPropertyOp32
 70
     1
  0
XRECORD
  5
678
102
{ACAD_REACTORS
330
677
102
}
330
677
100
AcDbXrecord
280
     1
102
RTVSPropertyOp0
 70
     1
102
RTVSPropertyOp1
 70
     1
102
RTVSPropertyOp2
 70
     1
102
RTVSPropertyOp3
 70
     1
102
RTVSPropertyOp4
 70
     1
102
RTVSPropertyOp5
 70
     1
102
RTVSPropertyOp6
 70
     1
102
RTVSPropertyOp7
 70
     1
102
RTVSPropertyOp8
 70
     1
102
RTVSPropertyOp9
 70
     1
102
RTVSPropertyOp10
 70
     1
102
RTVSPropertyOp11
 70
     1
102
RTVSPropertyOp12
 70
     1
102
RTVSPropertyOp13
 70
     1
102
RTVSPropertyOp14
 70
     1
102
RTVSPropertyOp15
 70
     1
102
RTVSPropertyOp16
 70
     1
102
RTVSPropertyOp17
 70
     1
102
RTVSPropertyOp18
 70
     1
102
RTVSPropertyOp19
 70
     1
102
RTVSPropertyOp20
 70
     1
102
RTVSPropertyOp21
 70
     1
102
RTVSPropertyOp22
 70
     1
102
RTVSPropertyOp23
 70
     1
102
RTVSPropertyOp24
 70
     1
102
RTVSPropertyOp25
 70
     1
102
RTVSPropertyOp26
 70
     1
102
RTVSPropertyOp27
 70
     1
102
RTVSPropertyOp28
 70
     1
102
RTVSPropertyOp29
 70
     1
102
RTVSPropertyOp30
 70
     1
102
RTVSPropertyOp31
 70
     1
102
RTVSPropertyOp32
 70
     1
  0
ENDSEC
  0
EOF
