  0
SECTION
  2
HEADER
  9
$ACADVER
  1
AC1015
  9
$ACADMAINTVER
 70
     6
  9
$DWGCODEPAGE
  3
ANSI_1252
  9
$INSBASE
 10
0.0
 20
0.0
 30
0.0
  9
$EXTMIN
 10
1.000000000000000E+20
 20
1.000000000000000E+20
 30
1.000000000000000E+20
  9
$EXTMAX
 10
-1.000000000000000E+20
 20
-1.000000000000000E+20
 30
-1.000000000000000E+20
  9
$LIMMIN
 10
-170.0
 20
-170.0
  9
$LIMMAX
 10
519.0
 20
260.0
  9
$ORTHOMODE
 70
     0
  9
$REGENMODE
 70
     1
  9
$FILLMODE
 70
     1
  9
$QTEXTMODE
 70
     0
  9
$MIRRTEXT
 70
     0
  9
$LTSCALE
 40
1.0
  9
$ATTMODE
 70
     1
  9
$TEXTSIZE
 40
3.5
  9
$TRACEWID
 40
1.0
  9
$TEXTSTYLE
  7
SIMPLEX
  9
$CLAYER
  8
1
  9
$CELTYPE
  6
BYLAYER
  9
$CECOLOR
 62
   256
  9
$CELTSCALE
 40
1.0
  9
$DISPSILH
 70
     0
  9
$DIMSCALE
 40
1.0
  9
$DIMASZ
 40
2.5
  9
$DIMEXO
 40
0.0
  9
$DIMDLI
 40
3.75
  9
$DIMRND
 40
0.0
  9
$DIMDLE
 40
0.0
  9
$DIMEXE
 40
1.25
  9
$DIMTP
 40
0.0
  9
$DIMTM
 40
0.0
  9
$DIMTXT
 40
3.5
  9
$DIMCEN
 40
0.0
  9
$DIMTSZ
 40
0.0
  9
$DIMTOL
 70
     0
  9
$DIMLIM
 70
     0
  9
$DIMTIH
 70
     0
  9
$DIMTOH
 70
     0
  9
$DIMSE1
 70
     0
  9
$DIMSE2
 70
     0
  9
$DIMTAD
 70
     1
  9
$DIMZIN
 70
     8
  9
$DIMBLK
  1

  9
$DIMASO
 70
     1
  9
$DIMSHO
 70
     1
  9
$DIMPOST
  1

  9
$DIMAPOST
  1

  9
$DIMALT
 70
     0
  9
$DIMALTD
 70
     3
  9
$DIMALTF
 40
0.039370078
  9
$DIMLFAC
 40
1.0
  9
$DIMTOFL
 70
     0
  9
$DIMTVP
 40
0.0
  9
$DIMTIX
 70
     0
  9
$DIMSOXD
 70
     0
  9
$DIMSAH
 70
     0
  9
$DIMBLK1
  1

  9
$DIMBLK2
  1

  9
$DIMSTYLE
  2
STANDARD
  9
$DIMCLRD
 70
     0
  9
$DIMCLRE
 70
     0
  9
$DIMCLRT
 70
     0
  9
$DIMTFAC
 40
1.0
  9
$DIMGAP
 40
0.625
  9
$DIMJUST
 70
     0
  9
$DIMSD1
 70
     0
  9
$DIMSD2
 70
     0
  9
$DIMTOLJ
 70
     0
  9
$DIMTZIN
 70
     8
  9
$DIMALTZ
 70
     0
  9
$DIMALTTZ
 70
     0
  9
$DIMUPT
 70
     0
  9
$DIMDEC
 70
     2
  9
$DIMTDEC
 70
     2
  9
$DIMALTU
 70
     2
  9
$DIMALTTD
 70
     3
  9
$DIMTXSTY
  7
SIMPLEX
  9
$DIMAUNIT
 70
     0
  9
$DIMADEC
 70
     2
  9
$DIMALTRND
 40
0.0
  9
$DIMAZIN
 70
     2
  9
$DIMDSEP
 70
    46
  9
$DIMATFIT
 70
     3
  9
$DIMFRAC
 70
     0
  9
$DIMLDRBLK
  1

  9
$DIMLUNIT
 70
     2
  9
$DIMLWD
 70
    -2
  9
$DIMLWE
 70
    -2
  9
$DIMTMOVE
 70
     0
  9
$LUNITS
 70
     2
  9
$LUPREC
 70
     4
  9
$SKETCHINC
 40
1.0
  9
$FILLETRAD
 40
0.0
  9
$AUNITS
 70
     0
  9
$AUPREC
 70
     0
  9
$MENU
  1
c:\tdm21\cad\caduti13\tdm13
  9
$ELEVATION
 40
0.0
  9
$PELEVATION
 40
0.0
  9
$THICKNESS
 40
0.0
  9
$LIMCHECK
 70
     0
  9
$CHAMFERA
 40
0.0
  9
$CHAMFERB
 40
0.0
  9
$CHAMFERC
 40
0.0
  9
$CHAMFERD
 40
0.0
  9
$SKPOLY
 70
     0
  9
$TDCREATE
 40
2454957.593642639
  9
$TDUCREATE
 40
2454957.510309306
  9
$TDUPDATE
 40
2456860.780620185
  9
$TDUUPDATE
 40
2456860.697286852
  9
$TDINDWG
 40
0.0009643519
  9
$TDUSRTIMER
 40
0.0009475231
  9
$USRTIMER
 70
     1
  9
$ANGBASE
 50
0.0
  9
$ANGDIR
 70
     0
  9
$PDMODE
 70
     1
  9
$PDSIZE
 40
0.0
  9
$PLINEWID
 40
0.0
  9
$SPLFRAME
 70
     0
  9
$SPLINETYPE
 70
     6
  9
$SPLINESEGS
 70
     8
  9
$HANDSEED
  5
632
  9
$SURFTAB1
 70
     6
  9
$SURFTAB2
 70
     6
  9
$SURFTYPE
 70
     6
  9
$SURFU
 70
     6
  9
$SURFV
 70
     6
  9
$UCSBASE
  2

  9
$UCSNAME
  2

  9
$UCSORG
 10
0.0
 20
0.0
 30
0.0
  9
$UCSXDIR
 10
1.0
 20
0.0
 30
0.0
  9
$UCSYDIR
 10
0.0
 20
1.0
 30
0.0
  9
$UCSORTHOREF
  2

  9
$UCSORTHOVIEW
 70
     0
  9
$UCSORGTOP
 10
0.0
 20
0.0
 30
0.0
  9
$UCSORGBOTTOM
 10
0.0
 20
0.0
 30
0.0
  9
$UCSORGLEFT
 10
0.0
 20
0.0
 30
0.0
  9
$UCSORGRIGHT
 10
0.0
 20
0.0
 30
0.0
  9
$UCSORGFRONT
 10
0.0
 20
0.0
 30
0.0
  9
$UCSORGBACK
 10
0.0
 20
0.0
 30
0.0
  9
$PUCSBASE
  2

  9
$PUCSNAME
  2

  9
$PUCSORG
 10
0.0
 20
0.0
 30
0.0
  9
$PUCSXDIR
 10
1.0
 20
0.0
 30
0.0
  9
$PUCSYDIR
 10
0.0
 20
1.0
 30
0.0
  9
$PUCSORTHOREF
  2

  9
$PUCSORTHOVIEW
 70
     0
  9
$PUCSORGTOP
 10
0.0
 20
0.0
 30
0.0
  9
$PUCSORGBOTTOM
 10
0.0
 20
0.0
 30
0.0
  9
$PUCSORGLEFT
 10
0.0
 20
0.0
 30
0.0
  9
$PUCSORGRIGHT
 10
0.0
 20
0.0
 30
0.0
  9
$PUCSORGFRONT
 10
0.0
 20
0.0
 30
0.0
  9
$PUCSORGBACK
 10
0.0
 20
0.0
 30
0.0
  9
$USERI1
 70
     0
  9
$USERI2
 70
     0
  9
$USERI3
 70
     0
  9
$USERI4
 70
     0
  9
$USERI5
 70
     0
  9
$USERR1
 40
0.0
  9
$USERR2
 40
0.0
  9
$USERR3
 40
0.0
  9
$USERR4
 40
0.0
  9
$USERR5
 40
0.0
  9
$WORLDVIEW
 70
     1
  9
$SHADEDGE
 70
     3
  9
$SHADEDIF
 70
    70
  9
$TILEMODE
 70
     1
  9
$MAXACTVP
 70
    64
  9
$PINSBASE
 10
0.0
 20
0.0
 30
0.0
  9
$PLIMCHECK
 70
     0
  9
$PEXTMIN
 10
0.0
 20
0.0
 30
0.0
  9
$PEXTMAX
 10
0.0
 20
0.0
 30
0.0
  9
$PLIMMIN
 10
0.0
 20
0.0
  9
$PLIMMAX
 10
12.0
 20
9.0
  9
$UNITMODE
 70
     0
  9
$VISRETAIN
 70
     0
  9
$PLINEGEN
 70
     0
  9
$PSLTSCALE
 70
     1
  9
$TREEDEPTH
 70
  3020
  9
$CMLSTYLE
  2
STANDARD
  9
$CMLJUST
 70
     0
  9
$CMLSCALE
 40
20.0
  9
$PROXYGRAPHICS
 70
     1
  9
$MEASUREMENT
 70
     1
  9
$CELWEIGHT
370
    -1
  9
$ENDCAPS
280
     0
  9
$JOINSTYLE
280
     0
  9
$LWDISPLAY
290
     0
  9
$INSUNITS
 70
     4
  9
$HYPERLINKBASE
  1

  9
$STYLESHEET
  1
MONOCHROME.CTB
  9
$XEDIT
290
     1
  9
$CEPSNTYPE
380
     0
  9
$PSTYLEMODE
290
     1
  9
$FINGERPRINTGUID
  2
{46B44192-1510-48B1-B61B-CBE2ADA013A7}
  9
$VERSIONGUID
  2
{6160D478-9A74-4C97-9D8A-D4A65CE74B12}
  9
$EXTNAMES
290
     1
  9
$PSVPSCALE
 40
0.0
  9
$OLESTARTUP
290
     0
  0
ENDSEC
  0
SECTION
  2
CLASSES
  0
CLASS
  1
ACDBDICTIONARYWDFLT
  2
AcDbDictionaryWithDefault
  3
ObjectDBX Classes
 90
        0
280
     0
281
     0
  0
CLASS
  1
ACDBPLACEHOLDER
  2
AcDbPlaceHolder
  3
ObjectDBX Classes
 90
        0
280
     0
281
     0
  0
CLASS
  1
LAYOUT
  2
AcDbLayout
  3
ObjectDBX Classes
 90
        0
280
     0
281
     0
  0
CLASS
  1
DICTIONARYVAR
  2
AcDbDictionaryVar
  3
ObjectDBX Classes
 90
        0
280
     0
281
     0
  0
CLASS
  1
TABLESTYLE
  2
AcDbTableStyle
  3
ObjectDBX Classes
 90
     4095
280
     0
281
     0
  0
CLASS
  1
SCALE
  2
AcDbScale
  3
ObjectDBX Classes
 90
     1153
280
     0
281
     0
  0
CLASS
  1
MATERIAL
  2
AcDbMaterial
  3
ObjectDBX Classes
 90
     1153
280
     0
281
     0
  0
CLASS
  1
VISUALSTYLE
  2
AcDbVisualStyle
  3
ObjectDBX Classes
 90
     4095
280
     0
281
     0
  0
ENDSEC
  0
SECTION
  2
TABLES
  0
TABLE
  2
VPORT
  5
8
330
0
100
AcDbSymbolTable
 70
     1
  0
VPORT
  5
39A
330
8
100
AcDbSymbolTableRecord
100
AcDbViewportTableRecord
  2
*Active
 70
     0
 10
0.0
 20
0.0
 11
1.0
 21
1.0
 12
218.9201881351169
 22
109.7549380673833
 13
0.0
 23
0.0
 14
5.0
 24
5.0
 15
5.0
 25
5.0
 16
0.0
 26
0.0
 36
1.0
 17
0.0
 27
0.0
 37
0.0
 40
564.6711112651689
 41
1.066073697585768
 42
50.0
 43
0.0
 44
0.0
 50
0.0
 51
0.0
 71
     0
 72
  2000
 73
     1
 74
     1
 75
     0
 76
     0
 77
     0
 78
     0
281
     0
 65
     1
110
0.0
120
0.0
130
0.0
111
1.0
121
0.0
131
0.0
112
0.0
122
1.0
132
0.0
 79
     0
146
0.0
  0
ENDTAB
  0
TABLE
  2
LTYPE
  5
5
330
0
100
AcDbSymbolTable
 70
     3
  0
LTYPE
  5
12
330
5
100
AcDbSymbolTableRecord
100
AcDbLinetypeTableRecord
  2
BYBLOCK
 70
     0
  3

 72
    65
 73
     0
 40
0.0
  0
LTYPE
  5
13
330
5
100
AcDbSymbolTableRecord
100
AcDbLinetypeTableRecord
  2
BYLAYER
 70
     0
  3

 72
    65
 73
     0
 40
0.0
  0
LTYPE
  5
14
330
5
100
AcDbSymbolTableRecord
100
AcDbLinetypeTableRecord
  2
CONTINUOUS
 70
     0
  3
Solid line
 72
    65
 73
     0
 40
0.0
  0
LTYPE
  5
20
330
5
100
AcDbSymbolTableRecord
100
AcDbLinetypeTableRecord
  2
HIDDEN
 70
     0
  3
Hidden __ __ __ __ __ __ __ __ __ __ __ __ __ _
 72
    65
 73
     2
 40
9.524999999999997
 49
6.349999999999998
 74
     0
 49
-3.174999999999998
 74
     0
  0
LTYPE
  5
351
330
5
100
AcDbSymbolTableRecord
100
AcDbLinetypeTableRecord
  2
CENTER
 70
     0
  3
Dash dot __ . __ . __ . __ . __ . __ . __ . __
 72
    65
 73
     4
 40
25.4
 49
12.7
 74
     0
 49
-6.349999999999998
 74
     0
 49
0.0
 74
     0
 49
-6.349999999999998
 74
     0
  0
ENDTAB
  0
TABLE
  2
LAYER
  5
2
330
0
100
AcDbSymbolTable
 70
    16
  0
LAYER
  5
F
330
2
100
AcDbSymbolTableRecord
100
AcDbLayerTableRecord
  2
0
 70
     0
 62
     7
  6
CONTINUOUS
370
    -3
390
300
  0
LAYER
  5
23
330
2
100
AcDbSymbolTableRecord
100
AcDbLayerTableRecord
  2
1
 70
     0
 62
     4
  6
CONTINUOUS
370
    -3
390
300
  0
LAYER
  5
24
330
2
100
AcDbSymbolTableRecord
100
AcDbLayerTableRecord
  2
SK1
 70
     0
 62
     4
  6
CONTINUOUS
370
    -3
390
300
  0
LAYER
  5
25
330
2
100
AcDbSymbolTableRecord
100
AcDbLayerTableRecord
  2
2
 70
     0
 62
     7
  6
CONTINUOUS
370
    -3
390
300
  0
LAYER
  5
26
330
2
100
AcDbSymbolTableRecord
100
AcDbLayerTableRecord
  2
2L
 70
     0
 62
     7
  6
CONTINUOUS
370
    -3
390
300
  0
LAYER
  5
27
330
2
100
AcDbSymbolTableRecord
100
AcDbLayerTableRecord
  2
SK2
 70
     0
 62
     7
  6
CONTINUOUS
370
    -3
390
300
  0
LAYER
  5
28
330
2
100
AcDbSymbolTableRecord
100
AcDbLayerTableRecord
  2
3
 70
     0
 62
     1
  6
HIDDEN
370
    -3
390
300
  0
LAYER
  5
29
330
2
100
AcDbSymbolTableRecord
100
AcDbLayerTableRecord
  2
SK3
 70
     0
 62
     1
  6
HIDDEN
370
    -3
390
300
  0
LAYER
  5
2A
330
2
100
AcDbSymbolTableRecord
100
AcDbLayerTableRecord
  2
4
 70
     0
 62
     2
  6
CENTER
370
    -3
390
300
  0
LAYER
  5
2B
330
2
100
AcDbSymbolTableRecord
100
AcDbLayerTableRecord
  2
SK4
 70
     0
 62
     2
  6
CENTER
370
    -3
390
300
  0
LAYER
  5
2C
330
2
100
AcDbSymbolTableRecord
100
AcDbLayerTableRecord
  2
5
 70
     0
 62
    -7
  6
CONTINUOUS
370
    -3
390
300
  0
LAYER
  5
2D
330
2
100
AcDbSymbolTableRecord
100
AcDbLayerTableRecord
  2
6
 70
     0
 62
     5
  6
CONTINUOUS
370
    -3
390
300
  0
LAYER
  5
2E
330
2
100
AcDbSymbolTableRecord
100
AcDbLayerTableRecord
  2
SK6
 70
     0
 62
     5
  6
CONTINUOUS
370
    -3
390
300
  0
LAYER
  5
2F
330
2
100
AcDbSymbolTableRecord
100
AcDbLayerTableRecord
  2
DEFPOINTS
 70
     0
 62
     7
  6
CONTINUOUS
290
     0
370
    -3
390
300
  0
LAYER
  5
375
330
2
100
AcDbSymbolTableRecord
100
AcDbLayerTableRecord
  2
CUT
 70
     0
 62
     1
  6
CONTINUOUS
370
    -3
390
300
  0
LAYER
  5
376
330
2
100
AcDbSymbolTableRecord
100
AcDbLayerTableRecord
  2
NOCUT
 70
     0
 62
     7
  6
CONTINUOUS
370
    -3
390
300
  0
ENDTAB
  0
TABLE
  2
STYLE
  5
3
330
0
100
AcDbSymbolTable
 70
     4
  0
STYLE
  5
10
330
3
100
AcDbSymbolTableRecord
100
AcDbTextStyleTableRecord
  2
STANDARD
 70
     0
 40
0.0
 41
1.0
 50
0.0
 71
     0
 42
5.0
  3
txt
  4

  0
STYLE
  5
1D
330
3
100
AcDbSymbolTableRecord
100
AcDbTextStyleTableRecord
  2
TXT
 70
     0
 40
8.0
 41
1.0
 50
0.0
 71
     0
 42
8.0
  3
txt
  4

  0
STYLE
  5
1E
330
3
100
AcDbSymbolTableRecord
100
AcDbTextStyleTableRecord
  2
SIMPLEX
 70
     0
 40
0.0
 41
1.0
 50
0.0
 71
     0
 42
3.5
  3
simplex
  4

  0
STYLE
  5
34C
330
3
100
AcDbSymbolTableRecord
100
AcDbTextStyleTableRecord
  2

 70
     1
 40
0.0
 41
1.0
 50
0.0
 71
     0
 42
2.5
  3
ltypeshp.shx
  4

  0
ENDTAB
  0
TABLE
  2
VIEW
  5
6
330
0
100
AcDbSymbolTable
 70
     0
  0
ENDTAB
  0
TABLE
  2
UCS
  5
7
330
0
100
AcDbSymbolTable
 70
     0
  0
ENDTAB
  0
TABLE
  2
APPID
  5
9
330
0
100
AcDbSymbolTable
 70
     1
  0
APPID
  5
11
330
9
100
AcDbSymbolTableRecord
100
AcDbRegAppTableRecord
  2
ACAD
 70
     0
  0
ENDTAB
  0
TABLE
  2
DIMSTYLE
  5
A
330
0
100
AcDbSymbolTable
 70
     1
100
AcDbDimStyleTable
  0
DIMSTYLE
105
3F
102
{ACAD_REACTORS
330
5C6
330
5D3
330
5E0
330
5ED
330
5FA
102
}
330
A
100
AcDbSymbolTableRecord
100
AcDbDimStyleTableRecord
  2
STANDARD
 70
     0
 41
2.5
 42
0.0
 43
3.75
 44
1.25
 73
     0
 74
     0
 77
     1
 78
     8
 79
     2
140
3.5
141
0.0
143
0.039370078
147
0.625
171
     3
178
     0
179
     2
271
     2
272
     2
274
     3
283
     0
284
     8
340
1E
  0
ENDTAB
  0
TABLE
  2
BLOCK_RECORD
  5
1
330
0
100
AcDbSymbolTable
 70
     5
  0
BLOCK_RECORD
  5
18
330
1
100
AcDbSymbolTableRecord
100
AcDbBlockTableRecord
  2
*MODEL_SPACE
340
303
  0
BLOCK_RECORD
  5
338
330
1
100
AcDbSymbolTableRecord
100
AcDbBlockTableRecord
  2
*Paper_Space
340
33B
  0
BLOCK_RECORD
  5
5C7
330
1
100
AcDbSymbolTableRecord
100
AcDbBlockTableRecord
  2
*D0
340
0
  0
BLOCK_RECORD
  5
5D4
330
1
100
AcDbSymbolTableRecord
100
AcDbBlockTableRecord
  2
*D1
340
0
  0
BLOCK_RECORD
  5
5E1
330
1
100
AcDbSymbolTableRecord
100
AcDbBlockTableRecord
  2
*D2
340
0
  0
BLOCK_RECORD
  5
5EE
330
1
100
AcDbSymbolTableRecord
100
AcDbBlockTableRecord
  2
*D3
340
0
  0
BLOCK_RECORD
  5
5FB
330
1
100
AcDbSymbolTableRecord
100
AcDbBlockTableRecord
  2
*D4
340
0
  0
ENDTAB
  0
ENDSEC
  0
SECTION
  2
BLOCKS
  0
BLOCK
  5
32
330
18
100
AcDbEntity
  8
0
100
AcDbBlockBegin
  2
*MODEL_SPACE
 70
     0
 10
0.0
 20
0.0
 30
0.0
  3
*MODEL_SPACE
  1

  0
ENDBLK
  5
33
330
18
100
AcDbEntity
  8
0
100
AcDbBlockEnd
  0
BLOCK
  5
339
330
338
100
AcDbEntity
 67
     1
  8
0
100
AcDbBlockBegin
  2
*Paper_Space
 70
     0
 10
0.0
 20
0.0
 30
0.0
  3
*Paper_Space
  1

  0
ENDBLK
  5
33A
330
338
100
AcDbEntity
 67
     1
  8
0
100
AcDbBlockEnd
  0
BLOCK
  5
5C8
330
5C7
100
AcDbEntity
  8
0
100
AcDbBlockBegin
  2
*D0
 70
     1
 10
0.0
 20
0.0
 30
0.0
  3
*D0
  1

  0
LINE
  5
5CA
330
5C7
100
AcDbEntity
  8
2
 62
     0
370
    -2
100
AcDbLine
 10
95.0
 20
10.0
 30
0.0
 11
111.25
 21
10.00000000000005
 31
0.0
  0
LINE
  5
5CB
330
5C7
100
AcDbEntity
  8
2
 62
     0
370
    -2
100
AcDbLine
 10
95.0
 20
-10.0
 30
0.0
 11
111.2500000000001
 21
-9.999999999999945
 31
0.0
  0
LINE
  5
5CC
330
5C7
100
AcDbEntity
  8
2
 62
     0
370
    -2
100
AcDbLine
 10
110.0
 20
7.50000000000005
 30
0.0
 11
110.0000000000001
 21
-7.499999999999948
 31
0.0
  0
SOLID
  5
5CD
330
5C7
100
AcDbEntity
  8
2
 62
     0
100
AcDbTrace
 10
110.4166666666667
 20
7.500000000000052
 30
0.0
 11
109.5833333333334
 21
7.500000000000048
 31
0.0
 12
110.0
 22
10.00000000000005
 32
0.0
 13
110.0
 23
10.00000000000005
 33
0.0
  0
SOLID
  5
5CE
330
5C7
100
AcDbEntity
  8
2
 62
     0
100
AcDbTrace
 10
109.5833333333334
 20
-7.49999999999995
 30
0.0
 11
110.4166666666667
 21
-7.499999999999947
 31
0.0
 12
110.0000000000001
 22
-9.999999999999948
 32
0.0
 13
110.0000000000001
 23
-9.999999999999948
 33
0.0
  0
MTEXT
  5
5CF
330
5C7
100
AcDbEntity
  8
2
 62
     0
100
AcDbMText
 10
107.6092500000001
 20
0.0000000000000421
 30
0.0
 40
3.5
 41
0.0
 71
     5
 72
     1
  1
M20
  7
SIMPLEX
 11
-3.552713678800501E-15
 21
1.0
 31
0.0
 73
     1
 44
1.0
  0
POINT
  5
5D0
330
5C7
100
AcDbEntity
  8
DEFPOINTS
 62
     0
100
AcDbPoint
 10
95.0
 20
10.0
 30
0.0
  0
POINT
  5
5D1
330
5C7
100
AcDbEntity
  8
DEFPOINTS
 62
     0
100
AcDbPoint
 10
95.0
 20
-10.0
 30
0.0
  0
POINT
  5
5D2
330
5C7
100
AcDbEntity
  8
DEFPOINTS
 62
     0
100
AcDbPoint
 10
110.0000000000001
 20
-9.999999999999948
 30
0.0
  0
ENDBLK
  5
5C9
330
5C7
100
AcDbEntity
  8
0
100
AcDbBlockEnd
  0
BLOCK
  5
5D5
330
5D4
100
AcDbEntity
  8
0
100
AcDbBlockBegin
  2
*D1
 70
     1
 10
0.0
 20
0.0
 30
0.0
  3
*D1
  1

  0
LINE
  5
5D7
330
5D4
100
AcDbEntity
  8
2
 62
     0
370
    -2
100
AcDbLine
 10
0.0
 20
0.0
 30
0.0
 11
0.0
 21
76.25
 31
0.0
  0
LINE
  5
5D8
330
5D4
100
AcDbEntity
  8
2
 62
     0
370
    -2
100
AcDbLine
 10
95.0
 20
0.0
 30
0.0
 11
95.0
 21
76.25
 31
0.0
  0
LINE
  5
5D9
330
5D4
100
AcDbEntity
  8
2
 62
     0
370
    -2
100
AcDbLine
 10
2.5
 20
75.0
 30
0.0
 11
92.5
 21
75.0
 31
0.0
  0
SOLID
  5
5DA
330
5D4
100
AcDbEntity
  8
2
 62
     0
100
AcDbTrace
 10
2.5
 20
75.41666666666667
 30
0.0
 11
2.5
 21
74.58333333333333
 31
0.0
 12
0.0
 22
75.0
 32
0.0
 13
0.0
 23
75.0
 33
0.0
  0
SOLID
  5
5DB
330
5D4
100
AcDbEntity
  8
2
 62
     0
100
AcDbTrace
 10
92.5
 20
74.58333333333333
 30
0.0
 11
92.5
 21
75.41666666666667
 31
0.0
 12
95.0
 22
75.0
 32
0.0
 13
95.0
 23
75.0
 33
0.0
  0
MTEXT
  5
5DC
330
5D4
100
AcDbEntity
  8
2
 62
     0
100
AcDbMText
 10
47.5
 20
77.39075
 30
0.0
 40
3.5
 41
0.0
 71
     5
 72
     1
  1
95
  7
SIMPLEX
 73
     1
 44
1.0
  0
POINT
  5
5DD
330
5D4
100
AcDbEntity
  8
DEFPOINTS
 62
     0
100
AcDbPoint
 10
0.0
 20
0.0
 30
0.0
  0
POINT
  5
5DE
330
5D4
100
AcDbEntity
  8
DEFPOINTS
 62
     0
100
AcDbPoint
 10
95.0
 20
0.0
 30
0.0
  0
POINT
  5
5DF
330
5D4
100
AcDbEntity
  8
DEFPOINTS
 62
     0
100
AcDbPoint
 10
95.0
 20
75.0
 30
0.0
  0
ENDBLK
  5
5D6
330
5D4
100
AcDbEntity
  8
0
100
AcDbBlockEnd
  0
BLOCK
  5
5E2
330
5E1
100
AcDbEntity
  8
0
100
AcDbBlockBegin
  2
*D2
 70
     1
 10
0.0
 20
0.0
 30
0.0
  3
*D2
  1

  0
LINE
  5
5E4
330
5E1
100
AcDbEntity
  8
SK2
 62
     0
370
    -2
100
AcDbLine
 10
-30.0
 20
8.0
 30
0.0
 11
-61.25000000004083
 21
7.999999999840519
 31
0.0
  0
LINE
  5
5E5
330
5E1
100
AcDbEntity
  8
SK2
 62
     0
370
    -2
100
AcDbLine
 10
-30.0
 20
-8.0
 30
0.0
 11
-61.24999999995917
 21
-8.000000000159481
 31
0.0
  0
LINE
  5
5E6
330
5E1
100
AcDbEntity
  8
SK2
 62
     0
370
    -2
100
AcDbLine
 10
-60.00000000002807
 20
5.499999999846898
 30
0.0
 11
-59.99999999997193
 21
-5.500000000153102
 31
0.0
  0
SOLID
  5
5E7
330
5E1
100
AcDbEntity
  8
SK2
 62
     0
100
AcDbTrace
 10
-59.5833333333614
 20
5.499999999849024
 30
0.0
 11
-60.41666666669473
 21
5.499999999844771
 31
0.0
 12
-60.00000000004083
 22
7.999999999846898
 32
0.0
 13
-60.00000000004083
 23
7.999999999846898
 33
0.0
  0
SOLID
  5
5E8
330
5E1
100
AcDbEntity
  8
SK2
 62
     0
100
AcDbTrace
 10
-60.4166666666386
 20
-5.500000000155229
 30
0.0
 11
-59.58333333330527
 21
-5.500000000150976
 31
0.0
 12
-59.99999999995917
 22
-8.000000000153102
 32
0.0
 13
-59.99999999995917
 23
-8.000000000153102
 33
0.0
  0
MTEXT
  5
5E9
330
5E1
100
AcDbEntity
  8
SK2
 62
     0
100
AcDbMText
 10
-62.39075
 20
-0.0000000001653035
 30
0.0
 40
3.5
 41
0.0
 71
     5
 72
     1
  1
%%c16
  7
SIMPLEX
 11
-5.103473199596920E-12
 21
1.0
 31
0.0
 73
     1
 44
1.0
  0
POINT
  5
5EA
330
5E1
100
AcDbEntity
  8
DEFPOINTS
 62
     0
100
AcDbPoint
 10
-30.0
 20
8.0
 30
0.0
  0
POINT
  5
5EB
330
5E1
100
AcDbEntity
  8
DEFPOINTS
 62
     0
100
AcDbPoint
 10
-30.0
 20
-8.0
 30
0.0
  0
POINT
  5
5EC
330
5E1
100
AcDbEntity
  8
DEFPOINTS
 62
     0
100
AcDbPoint
 10
-59.99999999995917
 20
-8.000000000153102
 30
0.0
  0
ENDBLK
  5
5E3
330
5E1
100
AcDbEntity
  8
0
100
AcDbBlockEnd
  0
BLOCK
  5
5EF
330
5EE
100
AcDbEntity
  8
0
100
AcDbBlockBegin
  2
*D3
 70
     1
 10
0.0
 20
0.0
 30
0.0
  3
*D3
  1

  0
LINE
  5
5F1
330
5EE
100
AcDbEntity
  8
2
 62
     0
370
    -2
100
AcDbLine
 10
63.72982941
 20
7.8
 30
0.0
 11
63.72982941
 21
61.25
 31
0.0
  0
LINE
  5
5F2
330
5EE
100
AcDbEntity
  8
2
 62
     0
370
    -2
100
AcDbLine
 10
95.0
 20
10.0
 30
0.0
 11
95.0
 21
61.25
 31
0.0
  0
LINE
  5
5F3
330
5EE
100
AcDbEntity
  8
2
 62
     0
370
    -2
100
AcDbLine
 10
66.22982941000001
 20
60.0
 30
0.0
 11
92.5
 21
60.0
 31
0.0
  0
SOLID
  5
5F4
330
5EE
100
AcDbEntity
  8
2
 62
     0
100
AcDbTrace
 10
66.22982941000001
 20
60.41666666666666
 30
0.0
 11
66.22982941000001
 21
59.58333333333334
 31
0.0
 12
63.72982941
 22
60.0
 32
0.0
 13
63.72982941
 23
60.0
 33
0.0
  0
SOLID
  5
5F5
330
5EE
100
AcDbEntity
  8
2
 62
     0
100
AcDbTrace
 10
92.5
 20
59.58333333333334
 30
0.0
 11
92.5
 21
60.41666666666666
 31
0.0
 12
95.0
 22
60.0
 32
0.0
 13
95.0
 23
60.0
 33
0.0
  0
MTEXT
  5
5F6
330
5EE
100
AcDbEntity
  8
2
 62
     0
100
AcDbMText
 10
79.364914705
 20
62.39775
 30
0.0
 40
3.5
 41
0.0
 71
     5
 72
     1
  1
31.27
  7
SIMPLEX
 73
     1
 44
1.0
  0
POINT
  5
5F7
330
5EE
100
AcDbEntity
  8
DEFPOINTS
 62
     0
100
AcDbPoint
 10
63.72982941
 20
7.8
 30
0.0
  0
POINT
  5
5F8
330
5EE
100
AcDbEntity
  8
DEFPOINTS
 62
     0
100
AcDbPoint
 10
95.0
 20
10.0
 30
0.0
  0
POINT
  5
5F9
330
5EE
100
AcDbEntity
  8
DEFPOINTS
 62
     0
100
AcDbPoint
 10
95.0
 20
60.0
 30
0.0
  0
ENDBLK
  5
5F0
330
5EE
100
AcDbEntity
  8
0
100
AcDbBlockEnd
  0
BLOCK
  5
5FC
330
5FB
100
AcDbEntity
  8
0
100
AcDbBlockBegin
  2
*D4
 70
     1
 10
0.0
 20
0.0
 30
0.0
  3
*D4
  1

  0
LINE
  5
5FE
330
5FB
100
AcDbEntity
  8
SK2
 62
     0
370
    -2
100
AcDbLine
 10
-45.0
 20
10.0
 30
0.0
 11
-45.0
 21
91.25
 31
0.0
  0
LINE
  5
5FF
330
5FB
100
AcDbEntity
  8
SK2
 62
     0
370
    -2
100
AcDbLine
 10
95.0
 20
10.0
 30
0.0
 11
95.0
 21
91.25
 31
0.0
  0
LINE
  5
600
330
5FB
100
AcDbEntity
  8
SK2
 62
     0
370
    -2
100
AcDbLine
 10
-42.5
 20
90.0
 30
0.0
 11
92.5
 21
90.0
 31
0.0
  0
SOLID
  5
601
330
5FB
100
AcDbEntity
  8
SK2
 62
     0
100
AcDbTrace
 10
-42.5
 20
90.41666666666667
 30
0.0
 11
-42.5
 21
89.58333333333333
 31
0.0
 12
-45.0
 22
90.0
 32
0.0
 13
-45.0
 23
90.0
 33
0.0
  0
SOLID
  5
602
330
5FB
100
AcDbEntity
  8
SK2
 62
     0
100
AcDbTrace
 10
92.5
 20
89.58333333333333
 30
0.0
 11
92.5
 21
90.41666666666667
 31
0.0
 12
95.0
 22
90.0
 32
0.0
 13
95.0
 23
90.0
 33
0.0
  0
MTEXT
  5
603
330
5FB
100
AcDbEntity
  8
SK2
 62
     0
100
AcDbMText
 10
25.0
 20
92.431
 30
0.0
 40
3.5
 41
0.0
 71
     5
 72
     1
  1
140
  7
SIMPLEX
 73
     1
 44
1.0
  0
POINT
  5
604
330
5FB
100
AcDbEntity
  8
DEFPOINTS
 62
     0
100
AcDbPoint
 10
-45.0
 20
10.0
 30
0.0
  0
POINT
  5
605
330
5FB
100
AcDbEntity
  8
DEFPOINTS
 62
     0
100
AcDbPoint
 10
95.0
 20
10.0
 30
0.0
  0
POINT
  5
606
330
5FB
100
AcDbEntity
  8
DEFPOINTS
 62
     0
100
AcDbPoint
 10
95.0
 20
90.0
 30
0.0
  0
ENDBLK
  5
5FD
330
5FB
100
AcDbEntity
  8
0
100
AcDbBlockEnd
  0
ENDSEC
  0
SECTION
  2
ENTITIES
  0
LINE
  5
3D6
330
18
100
AcDbEntity
  8
SK4
100
AcDbLine
 10
-47.0
 20
0.0
 30
0.0
 11
24.0
 21
0.0
 31
0.0
  0
LINE
  5
3D7
330
18
100
AcDbEntity
  8
4
100
AcDbLine
 10
22.0
 20
0.0
 30
0.0
 11
97.0
 21
0.0
 31
0.0
  0
LINE
  5
3D8
330
18
100
AcDbEntity
  8
SK4
100
AcDbLine
 10
22.0
 20
0.0
 30
0.0
 11
97.0
 21
0.0
 31
0.0
  0
LINE
  5
3D9
330
18
100
AcDbEntity
  8
1
100
AcDbLine
 10
24.0
 20
8.0
 30
0.0
 11
24.0
 21
7.992046453645359
 31
0.0
  0
LINE
  5
3DA
330
18
100
AcDbEntity
  8
1
100
AcDbLine
 10
24.0
 20
7.992046453645359
 30
0.0
 11
24.0
 21
7.282187102054027
 31
0.0
  0
LINE
  5
3DB
330
18
100
AcDbEntity
  8
1
100
AcDbLine
 10
24.0
 20
7.282187102054027
 30
0.0
 11
24.0
 21
-8.0
 31
0.0
  0
LINE
  5
3DC
330
18
100
AcDbEntity
  8
1
100
AcDbLine
 10
24.0
 20
8.0
 30
0.0
 11
0.0
 21
8.0
 31
0.0
  0
LINE
  5
3DD
330
18
100
AcDbEntity
  8
1
100
AcDbLine
 10
33.5
 20
-5.17937495501553
 30
0.0
 11
63.72982941
 21
-5.179374955015529
 31
0.0
  0
LINE
  5
3DE
330
18
100
AcDbEntity
  8
1
100
AcDbLine
 10
24.0
 20
7.8
 30
0.0
 11
63.72982941
 21
7.8
 31
0.0
  0
LINE
  5
3DF
330
18
100
AcDbEntity
  8
1
100
AcDbLine
 10
33.5
 20
-0.7682617617738757
 30
0.0
 11
33.5
 21
-5.17937495501553
 31
0.0
  0
LINE
  5
3E0
330
18
100
AcDbEntity
  8
1
100
AcDbLine
 10
33.50000000000001
 20
7.762072781505989
 30
0.0
 11
33.5
 21
5.832158697717157
 31
0.0
  0
LINE
  5
3E1
330
18
100
AcDbEntity
  8
1
100
AcDbLine
 10
33.5
 20
-0.7682617617738896
 30
0.0
 11
63.72982940999999
 21
-0.7682617617738758
 31
0.0
  0
LINE
  5
3E2
330
18
100
AcDbEntity
  8
1
100
AcDbLine
 10
33.5
 20
5.832158697717157
 30
0.0
 11
63.72982941000001
 21
5.832158697717157
 31
0.0
  0
LINE
  5
3E3
330
18
100
AcDbEntity
  8
1
100
AcDbLine
 10
33.5
 20
7.762072781506001
 30
0.0
 11
63.72982940999999
 21
7.762072781505989
 31
0.0
  0
LINE
  5
3E4
330
18
100
AcDbEntity
  8
1
100
AcDbLine
 10
63.72982941
 20
7.8
 30
0.0
 11
63.72982941
 21
7.799991080559971
 31
0.0
  0
LINE
  5
3E5
330
18
100
AcDbEntity
  8
1
100
AcDbLine
 10
63.72982941
 20
7.799991080559971
 30
0.0
 11
63.72982941
 21
7.797396683876388
 31
0.0
  0
LINE
  5
3E6
330
18
100
AcDbEntity
  8
1
100
AcDbLine
 10
63.72982941
 20
7.797396683876388
 30
0.0
 11
63.72982940999999
 21
7.762072781505987
 31
0.0
  0
LINE
  5
3E7
330
18
100
AcDbEntity
  8
1
100
AcDbLine
 10
63.72982941
 20
7.762072781505985
 30
0.0
 11
63.72982941
 21
7.62510072870708
 31
0.0
  0
LINE
  5
3E8
330
18
100
AcDbEntity
  8
1
100
AcDbLine
 10
63.72982941
 20
7.625100728707056
 30
0.0
 11
63.72982941
 21
5.832158697717156
 31
0.0
  0
LINE
  5
3E9
330
18
100
AcDbEntity
  8
1
100
AcDbLine
 10
63.72982941
 20
5.832158697717156
 30
0.0
 11
63.72982941
 21
-0.7682617617738771
 31
0.0
  0
LINE
  5
3EA
330
18
100
AcDbEntity
  8
1
100
AcDbLine
 10
63.72982941000001
 20
-2.099204947105051
 30
0.0
 11
63.72982941000001
 21
-5.179374955015529
 31
0.0
  0
LINE
  5
3EB
330
18
100
AcDbEntity
  8
1
100
AcDbLine
 10
63.72982941000001
 20
-5.179374955015529
 30
0.0
 11
63.72982941
 21
-7.8
 31
0.0
  0
LINE
  5
3EC
330
18
100
AcDbEntity
  8
1
100
AcDbLine
 10
-0.0000000000000062
 20
-8.0
 30
0.0
 11
24.0
 21
-8.0
 31
0.0
  0
LINE
  5
3ED
330
18
100
AcDbEntity
  8
1
100
AcDbLine
 10
24.0
 20
-7.8
 30
0.0
 11
63.72982941
 21
-7.8
 31
0.0
  0
LINE
  5
3EE
330
18
100
AcDbEntity
  8
1
100
AcDbLine
 10
63.72982941
 20
-0.7682617617738772
 30
0.0
 11
63.72982941
 21
-2.099204947105029
 31
0.0
  0
LINE
  5
3EF
330
18
100
AcDbEntity
  8
1
 62
     1
100
AcDbLine
 10
88.40201044894101
 20
9.447264698088247
 30
0.0
 11
89.15944752477587
 21
9.340816414711968
 31
0.0
  0
LINE
  5
3F0
330
18
100
AcDbEntity
  8
1
 62
     1
100
AcDbLine
 10
86.0896351444087
 20
9.772240051873055
 30
0.0
 11
86.4386866803417
 21
9.723185235314245
 31
0.0
  0
LINE
  5
3F1
330
18
100
AcDbEntity
  8
1
 62
     1
100
AcDbLine
 10
66.22113247308104
 20
10.0
 30
0.0
 11
66.27886752691897
 21
10.0
 31
0.0
  0
LINE
  5
3F2
330
18
100
AcDbEntity
  8
1
 62
     1
100
AcDbLine
 10
68.72113247308104
 20
10.0
 30
0.0
 11
68.77886752691897
 21
10.0
 31
0.0
  0
LINE
  5
3F3
330
18
100
AcDbEntity
  8
1
 62
     1
100
AcDbLine
 10
73.72113247308103
 20
10.0
 30
0.0
 11
73.77886752691902
 21
9.999999999999998
 31
0.0
  0
LINE
  5
3F4
330
18
100
AcDbEntity
  8
1
 62
     1
100
AcDbLine
 10
78.72113247308104
 20
10.0
 30
0.0
 11
78.77886752691896
 21
10.0
 31
0.0
  0
LINE
  5
3F5
330
18
100
AcDbEntity
  8
1
 62
     1
100
AcDbLine
 10
81.22113247308104
 20
10.0
 30
0.0
 11
81.278867526919
 21
10.0
 31
0.0
  0
LINE
  5
3F6
330
18
100
AcDbEntity
  8
1
 62
     1
100
AcDbLine
 10
83.72113247308104
 20
10.0
 30
0.0
 11
83.77886752691896
 21
10.0
 31
0.0
  0
LINE
  5
3F7
330
18
100
AcDbEntity
  8
1
 62
     1
100
AcDbLine
 10
90.7143857534733
 20
-9.122289344303445
 30
0.0
 11
90.0
 21
-7.8849375
 31
0.0
  0
LINE
  5
3F8
330
18
100
AcDbEntity
  8
1
 62
     1
100
AcDbLine
 10
90.0
 20
-7.8849375
 30
0.0
 11
89.15944752477586
 21
-9.340816414711979
 31
0.0
  0
LINE
  5
3F9
330
18
100
AcDbEntity
  8
1
 62
     1
100
AcDbLine
 10
75.0
 20
-7.8849375
 30
0.0
 11
73.77886752691902
 21
-9.999999999999922
 31
0.0
  0
LINE
  5
3FA
330
18
100
AcDbEntity
  8
1
 62
     1
100
AcDbLine
 10
76.22113247308103
 20
-9.999999999999995
 30
0.0
 11
75.0
 21
-7.8849375
 31
0.0
  0
LINE
  5
3FB
330
18
100
AcDbEntity
  8
1
 62
     1
100
AcDbLine
 10
94.60096921364428
 20
5.869640563362182
 30
0.0
 11
93.02676105800563
 21
5.879803666084984
 31
0.0
  0
LINE
  5
3FC
330
18
100
AcDbEntity
  8
1
 62
     1
100
AcDbLine
 10
94.60096921364428
 20
-1.041435200753992
 30
0.0
 11
93.02676105800562
 21
-1.119048118057337
 31
0.0
  0
LINE
  5
3FD
330
18
100
AcDbEntity
  8
1
 62
     1
100
AcDbLine
 10
91.8802083692101
 20
5.887092576429962
 30
0.0
 11
90.71438575347334
 21
5.894415809320944
 31
0.0
  0
LINE
  5
3FE
330
18
100
AcDbEntity
  8
1
 62
     1
100
AcDbLine
 10
91.88020837022555
 20
-1.175513661570483
 30
0.0
 11
90.71438575347331
 21
-1.232877382872441
 31
0.0
  0
LINE
  5
3FF
330
18
100
AcDbEntity
  8
1
 62
     1
100
AcDbLine
 10
89.15944752477586
 20
5.904057860624503
 30
0.0
 11
88.40201044894098
 21
5.908706974880824
 31
0.0
  0
LINE
  5
400
330
18
100
AcDbEntity
  8
1
 62
     1
100
AcDbLine
 10
89.15944752477587
 20
-1.309312442995275
 30
0.0
 11
88.40201044894098
 21
-1.346515937462339
 31
0.0
  0
LINE
  5
401
330
18
100
AcDbEntity
  8
1
 62
     1
100
AcDbLine
 10
86.43868668034166
 20
5.92062611493879
 30
0.0
 11
86.08963514440867
 21
5.922726612021266
 31
0.0
  0
LINE
  5
402
330
18
100
AcDbEntity
  8
1
 62
     1
100
AcDbLine
 10
86.43868668071373
 20
-1.442865998307114
 30
0.0
 11
86.08963514440867
 21
-1.459983626415538
 31
0.0
  0
ARC
  5
403
330
18
100
AcDbEntity
  8
1
 62
     1
100
AcDbCircle
 10
53.33217107125471
 20
10.58113543907929
 30
0.0
 40
42.26584907281529
100
AcDbArc
 50
335.7883326574536
 51
337.9270591193298
  0
LINE
  5
404
330
18
100
AcDbEntity
  8
1
 62
     1
100
AcDbLine
 10
91.88020836921008
 20
-6.752475419648174
 30
0.0
 11
91.88020836921007
 21
-8.958447594109685
 31
0.0
  0
LINE
  5
405
330
18
100
AcDbEntity
  8
1
 62
     1
100
AcDbLine
 10
92.5
 20
-7.8849375
 30
0.0
 11
91.88020836921007
 21
-8.958447594109705
 31
0.0
  0
ARC
  5
406
330
18
100
AcDbEntity
  8
1
 62
     1
100
AcDbCircle
 10
129.0124424189759
 20
9.455784274917539
 30
0.0
 40
39.38203278646929
100
AcDbArc
 50
202.0074554631176
 51
203.9703281519922
  0
LINE
  5
407
330
18
100
AcDbEntity
  8
1
 62
     1
100
AcDbLine
 10
92.5
 20
-7.8849375
 30
0.0
 11
92.5
 21
-7.884396283918713
 31
0.0
  0
LINE
  5
408
330
18
100
AcDbEntity
  8
1
 62
     1
100
AcDbLine
 10
92.5
 20
-7.884396283918713
 30
0.0
 11
92.49999999999999
 21
-7.717427163766917
 31
0.0
  0
LINE
  5
409
330
18
100
AcDbEntity
  8
1
 62
     1
100
AcDbLine
 10
92.49999999999999
 20
-7.717427163766917
 30
0.0
 11
92.49999999999999
 21
-5.30172696201133
 31
0.0
  0
LINE
  5
40A
330
18
100
AcDbEntity
  8
1
 62
     1
100
AcDbLine
 10
93.02676105800563
 20
-8.797313990518656
 30
0.0
 11
92.5
 21
-7.8849375
 31
0.0
  0
LINE
  5
40B
330
18
100
AcDbEntity
  8
1
 62
     1
100
AcDbLine
 10
93.02676105800563
 20
-6.543748336853151
 30
0.0
 11
93.02676105800563
 21
-8.797313990518626
 31
0.0
  0
ARC
  5
40C
330
18
100
AcDbEntity
  8
1
 62
     1
100
AcDbCircle
 10
58.84723186290491
 20
9.31167956560446
 30
0.0
 40
38.99460494635836
100
AcDbArc
 50
336.4754394919406
 51
337.9908177592987
  0
LINE
  5
40D
330
18
100
AcDbEntity
  8
1
 62
     1
100
AcDbLine
 10
94.60096921364428
 20
-6.252715153142474
 30
0.0
 11
94.60096921364428
 21
-8.576078773507403
 31
0.0
  0
LINE
  5
40E
330
18
100
AcDbEntity
  8
1
 62
     1
100
AcDbLine
 10
95.0
 20
-7.8849375
 30
0.0
 11
94.60096921364426
 21
-8.576078773507431
 31
0.0
  0
LINE
  5
40F
330
18
100
AcDbEntity
  8
1
 62
     1
100
AcDbLine
 10
83.77886752691894
 20
5.932411788169387
 30
0.0
 11
83.72113247308103
 21
5.932411788169387
 31
0.0
  0
LINE
  5
410
330
18
100
AcDbEntity
  8
1
 62
     1
100
AcDbLine
 10
83.72113247308104
 20
5.932411788169389
 30
0.0
 11
83.72113247308104
 21
-1.539415256980355
 31
0.0
  0
LINE
  5
411
330
18
100
AcDbEntity
  8
1
 62
     1
100
AcDbLine
 10
83.77886752691896
 20
5.932411788169389
 30
0.0
 11
83.77886752691896
 21
-1.539415256980355
 31
0.0
  0
LINE
  5
412
330
18
100
AcDbEntity
  8
1
 62
     1
100
AcDbLine
 10
81.27886752691899
 20
5.932411788169387
 30
0.0
 11
81.22113247308104
 21
5.932411788169387
 31
0.0
  0
LINE
  5
413
330
18
100
AcDbEntity
  8
1
 62
     1
100
AcDbLine
 10
81.22113247308104
 20
5.932411788169389
 30
0.0
 11
81.22113247308104
 21
-1.539415256980355
 31
0.0
  0
LINE
  5
414
330
18
100
AcDbEntity
  8
1
 62
     1
100
AcDbLine
 10
81.278867526919
 20
-1.539415256980342
 30
0.0
 11
81.22113247308104
 21
-1.539415256980342
 31
0.0
  0
LINE
  5
415
330
18
100
AcDbEntity
  8
1
 62
     1
100
AcDbLine
 10
78.77886752691897
 20
5.932411788169387
 30
0.0
 11
78.72113247308107
 21
5.932411788169387
 31
0.0
  0
LINE
  5
416
330
18
100
AcDbEntity
  8
1
 62
     1
100
AcDbLine
 10
78.72113247308104
 20
5.932411788169386
 30
0.0
 11
78.72113247308104
 21
-1.539415256980355
 31
0.0
  0
LINE
  5
417
330
18
100
AcDbEntity
  8
1
 62
     1
100
AcDbLine
 10
78.77886752691897
 20
-1.539415256980342
 30
0.0
 11
78.72113247308101
 21
-1.539415256980342
 31
0.0
  0
LINE
  5
418
330
18
100
AcDbEntity
  8
1
 62
     1
100
AcDbLine
 10
78.77886752691896
 20
5.932411788169389
 30
0.0
 11
78.77886752691897
 21
-1.539415256980355
 31
0.0
  0
LINE
  5
419
330
18
100
AcDbEntity
  8
1
 62
     1
100
AcDbLine
 10
76.27886752691899
 20
-1.539415256980342
 30
0.0
 11
76.22113247308106
 21
-1.539415256980342
 31
0.0
  0
LINE
  5
41A
330
18
100
AcDbEntity
  8
1
 62
     1
100
AcDbLine
 10
73.77886752691902
 20
5.932411788169387
 30
0.0
 11
73.72113247308103
 21
5.932411788169387
 31
0.0
  0
LINE
  5
41B
330
18
100
AcDbEntity
  8
1
 62
     1
100
AcDbLine
 10
73.77886752691904
 20
-1.539415256980342
 30
0.0
 11
73.72113247308106
 21
-1.539415256980342
 31
0.0
  0
LINE
  5
41C
330
18
100
AcDbEntity
  8
1
 62
     1
100
AcDbLine
 10
71.278867526919
 20
5.932411788169387
 30
0.0
 11
71.22113247308106
 21
5.932411788169389
 31
0.0
  0
LINE
  5
41D
330
18
100
AcDbEntity
  8
1
 62
     1
100
AcDbLine
 10
71.27886752691899
 20
-1.539415256980342
 30
0.0
 11
71.22113247308101
 21
-1.539415256980342
 31
0.0
  0
LINE
  5
41E
330
18
100
AcDbEntity
  8
1
 62
     1
100
AcDbLine
 10
68.77886752691902
 20
5.932411788169387
 30
0.0
 11
68.72113247308104
 21
5.932411788169387
 31
0.0
  0
LINE
  5
41F
330
18
100
AcDbEntity
  8
1
 62
     1
100
AcDbLine
 10
66.27886752691899
 20
5.932411788169387
 30
0.0
 11
66.22113247308101
 21
5.932411788169387
 31
0.0
  0
LINE
  5
420
330
18
100
AcDbEntity
  8
1
 62
     1
100
AcDbLine
 10
66.27886752691897
 20
-1.539415256980342
 30
0.0
 11
66.22113247308104
 21
-1.539415256980342
 31
0.0
  0
LINE
  5
421
330
18
100
AcDbEntity
  8
1
 62
     1
100
AcDbLine
 10
82.5
 20
-5.30172696201133
 30
0.0
 11
83.72113247308104
 21
-8.050247845600115
 31
0.0
  0
LINE
  5
422
330
18
100
AcDbEntity
  8
1
 62
     1
100
AcDbLine
 10
83.72113247308104
 20
-10.00000000000002
 30
0.0
 11
82.5
 21
-7.8849375
 31
0.0
  0
LINE
  5
423
330
18
100
AcDbEntity
  8
1
 62
     1
100
AcDbLine
 10
83.72113247308104
 20
-8.050247845600092
 30
0.0
 11
83.72113247308104
 21
-10.0
 31
0.0
  0
LINE
  5
424
330
18
100
AcDbEntity
  8
1
 62
     1
100
AcDbLine
 10
86.43868668034165
 20
-7.712750321859096
 30
0.0
 11
87.5
 21
-5.30172696201133
 31
0.0
  0
LINE
  5
425
330
18
100
AcDbEntity
  8
1
 62
     1
100
AcDbLine
 10
86.43868668034169
 20
-7.712750321859105
 30
0.0
 11
86.43868668034169
 21
-9.723185235314244
 31
0.0
  0
LINE
  5
426
330
18
100
AcDbEntity
  8
1
 62
     1
100
AcDbLine
 10
87.5
 20
-7.8849375
 30
0.0
 11
86.43868668034169
 21
-9.723185235314178
 31
0.0
  0
ARC
  5
427
330
18
100
AcDbEntity
  8
1
 62
     1
100
AcDbCircle
 10
128.1227539548955
 20
11.18345343922388
 30
0.0
 40
43.84036931455083
100
AcDbArc
 50
202.0878795517345
 51
205.0388470655176
  0
LINE
  5
428
330
18
100
AcDbEntity
  8
1
 62
     1
100
AcDbLine
 10
87.5
 20
-7.8849375
 30
0.0
 11
87.50000000000001
 21
-7.884396283918713
 31
0.0
  0
LINE
  5
429
330
18
100
AcDbEntity
  8
1
 62
     1
100
AcDbLine
 10
87.50000000000001
 20
-7.884396283918713
 30
0.0
 11
87.49999999999999
 21
-7.717427163766917
 31
0.0
  0
LINE
  5
42A
330
18
100
AcDbEntity
  8
1
 62
     1
100
AcDbLine
 10
87.49999999999999
 20
-7.717427163766917
 30
0.0
 11
87.5
 21
-5.30172696201133
 31
0.0
  0
LINE
  5
42B
330
18
100
AcDbEntity
  8
1
 62
     1
100
AcDbLine
 10
88.402010448941
 20
-9.447264698088258
 30
0.0
 11
87.5
 21
-7.8849375
 31
0.0
  0
LINE
  5
42C
330
18
100
AcDbEntity
  8
1
 62
     1
100
AcDbLine
 10
88.40201044894098
 20
-7.371430808244698
 30
0.0
 11
88.402010448941
 21
-9.447264698088246
 31
0.0
  0
ARC
  5
42D
330
18
100
AcDbEntity
  8
1
 62
     1
100
AcDbCircle
 10
47.73091224508614
 20
11.90728802108278
 30
0.0
 40
45.63846153767649
100
AcDbArc
 50
335.1966780952126
 51
337.8472856814849
  0
LINE
  5
42E
330
18
100
AcDbEntity
  8
1
 62
     1
100
AcDbLine
 10
89.15944752477586
 20
-7.238297594859619
 30
0.0
 11
89.15944752477586
 21
-9.340816414711966
 31
0.0
  0
ARC
  5
42F
330
18
100
AcDbEntity
  8
1
 62
     1
100
AcDbCircle
 10
128.5541179000652
 20
10.30990827917595
 30
0.0
 40
41.59504401320123
100
AcDbArc
 50
202.0443949402766
 51
204.5345122852945
  0
LINE
  5
430
330
18
100
AcDbEntity
  8
1
 62
     1
100
AcDbLine
 10
90.0
 20
-7.8849375
 30
0.0
 11
90.0
 21
-7.884396283918713
 31
0.0
  0
LINE
  5
431
330
18
100
AcDbEntity
  8
1
 62
     1
100
AcDbLine
 10
90.0
 20
-7.884396283918713
 30
0.0
 11
89.99999999999999
 21
-7.717427163766917
 31
0.0
  0
LINE
  5
432
330
18
100
AcDbEntity
  8
1
 62
     1
100
AcDbLine
 10
89.99999999999999
 20
-7.717427163766917
 30
0.0
 11
89.99999999999999
 21
-5.30172696201133
 31
0.0
  0
LINE
  5
433
330
18
100
AcDbEntity
  8
1
 62
     1
100
AcDbLine
 10
90.71438575347331
 20
-6.962185371563971
 30
0.0
 11
90.71438575347331
 21
-9.122289344303438
 31
0.0
  0
ARC
  5
434
330
18
100
AcDbEntity
  8
1
 62
     1
100
AcDbCircle
 10
127.7219543172986
 20
12.07767752814948
 30
0.0
 40
46.12183504167263
100
AcDbArc
 50
202.1366223328669
 51
205.4921295987774
  0
LINE
  5
435
330
18
100
AcDbEntity
  8
1
 62
     1
100
AcDbLine
 10
86.08963514440869
 20
-9.77224005187307
 30
0.0
 11
85.0
 21
-7.8849375
 31
0.0
  0
LINE
  5
436
330
18
100
AcDbEntity
  8
1
 62
     1
100
AcDbLine
 10
86.08963514440867
 20
-7.772900688332959
 30
0.0
 11
86.08963514440869
 21
-9.772240051873053
 31
0.0
  0
LINE
  5
437
330
18
100
AcDbEntity
  8
1
 62
     1
100
AcDbLine
 10
83.77886752691896
 20
-8.050247845600115
 30
0.0
 11
85.0
 21
-5.30172696201133
 31
0.0
  0
LINE
  5
438
330
18
100
AcDbEntity
  8
1
 62
     1
100
AcDbLine
 10
83.77886752691896
 20
-8.050247845600092
 30
0.0
 11
83.77886752691896
 21
-10.0
 31
0.0
  0
LINE
  5
439
330
18
100
AcDbEntity
  8
1
 62
     1
100
AcDbLine
 10
85.0
 20
-7.8849375
 30
0.0
 11
83.77886752691896
 21
-10.00000000000002
 31
0.0
  0
LINE
  5
43A
330
18
100
AcDbEntity
  8
1
 62
     1
100
AcDbLine
 10
85.0
 20
-7.8849375
 30
0.0
 11
85.0
 21
-7.884396283918713
 31
0.0
  0
LINE
  5
43B
330
18
100
AcDbEntity
  8
1
 62
     1
100
AcDbLine
 10
85.0
 20
-7.884396283918713
 30
0.0
 11
84.99999999999999
 21
-7.717427163766917
 31
0.0
  0
LINE
  5
43C
330
18
100
AcDbEntity
  8
1
 62
     1
100
AcDbLine
 10
84.99999999999999
 20
-7.717427163766917
 30
0.0
 11
84.99999999999999
 21
-5.30172696201133
 31
0.0
  0
LINE
  5
43D
330
18
100
AcDbEntity
  8
1
 62
     1
100
AcDbLine
 10
77.5
 20
-5.30172696201133
 30
0.0
 11
78.72113247308104
 21
-8.050247845600106
 31
0.0
  0
LINE
  5
43E
330
18
100
AcDbEntity
  8
1
 62
     1
100
AcDbLine
 10
77.5
 20
-7.8849375
 30
0.0
 11
77.5
 21
-7.884396283918713
 31
0.0
  0
LINE
  5
43F
330
18
100
AcDbEntity
  8
1
 62
     1
100
AcDbLine
 10
77.5
 20
-7.884396283918713
 30
0.0
 11
77.49999999999999
 21
-7.717427163766917
 31
0.0
  0
LINE
  5
440
330
18
100
AcDbEntity
  8
1
 62
     1
100
AcDbLine
 10
77.49999999999999
 20
-7.717427163766917
 30
0.0
 11
77.5
 21
-5.30172696201133
 31
0.0
  0
LINE
  5
441
330
18
100
AcDbEntity
  8
1
 62
     1
100
AcDbLine
 10
78.72113247308103
 20
-10.00000000000002
 30
0.0
 11
77.5
 21
-7.8849375
 31
0.0
  0
LINE
  5
442
330
18
100
AcDbEntity
  8
1
 62
     1
100
AcDbLine
 10
78.72113247308104
 20
-8.050247845600092
 30
0.0
 11
78.72113247308104
 21
-10.0
 31
0.0
  0
LINE
  5
443
330
18
100
AcDbEntity
  8
1
 62
     1
100
AcDbLine
 10
78.77886752691897
 20
-8.050247845600088
 30
0.0
 11
80.0
 21
-5.30172696201133
 31
0.0
  0
LINE
  5
444
330
18
100
AcDbEntity
  8
1
 62
     1
100
AcDbLine
 10
78.77886752691896
 20
-8.050247845600092
 30
0.0
 11
78.77886752691897
 21
-10.0
 31
0.0
  0
LINE
  5
445
330
18
100
AcDbEntity
  8
1
 62
     1
100
AcDbLine
 10
80.0
 20
-7.8849375
 30
0.0
 11
78.77886752691897
 21
-9.999999999999995
 31
0.0
  0
LINE
  5
446
330
18
100
AcDbEntity
  8
1
 62
     1
100
AcDbLine
 10
80.0
 20
-5.30172696201133
 30
0.0
 11
81.22113247308104
 21
-8.050247845600115
 31
0.0
  0
LINE
  5
447
330
18
100
AcDbEntity
  8
1
 62
     1
100
AcDbLine
 10
80.0
 20
-7.8849375
 30
0.0
 11
80.00000000000001
 21
-7.884396283918713
 31
0.0
  0
LINE
  5
448
330
18
100
AcDbEntity
  8
1
 62
     1
100
AcDbLine
 10
80.00000000000001
 20
-7.884396283918713
 30
0.0
 11
79.99999999999997
 21
-7.717427163766917
 31
0.0
  0
LINE
  5
449
330
18
100
AcDbEntity
  8
1
 62
     1
100
AcDbLine
 10
79.99999999999997
 20
-7.717427163766917
 30
0.0
 11
79.99999999999999
 21
-5.30172696201133
 31
0.0
  0
LINE
  5
44A
330
18
100
AcDbEntity
  8
1
 62
     1
100
AcDbLine
 10
81.22113247308104
 20
-10.00000000000002
 30
0.0
 11
80.0
 21
-7.8849375
 31
0.0
  0
LINE
  5
44B
330
18
100
AcDbEntity
  8
1
 62
     1
100
AcDbLine
 10
81.22113247308104
 20
-8.050247845600092
 30
0.0
 11
81.22113247308104
 21
-10.0
 31
0.0
  0
LINE
  5
44C
330
18
100
AcDbEntity
  8
1
 62
     1
100
AcDbLine
 10
81.27886752691896
 20
-8.050247845600081
 30
0.0
 11
82.5
 21
-5.30172696201133
 31
0.0
  0
LINE
  5
44D
330
18
100
AcDbEntity
  8
1
 62
     1
100
AcDbLine
 10
81.278867526919
 20
-8.050247845600092
 30
0.0
 11
81.278867526919
 21
-10.0
 31
0.0
  0
LINE
  5
44E
330
18
100
AcDbEntity
  8
1
 62
     1
100
AcDbLine
 10
82.5
 20
-7.8849375
 30
0.0
 11
81.278867526919
 21
-9.999999999999945
 31
0.0
  0
LINE
  5
44F
330
18
100
AcDbEntity
  8
1
 62
     1
100
AcDbLine
 10
82.5
 20
-7.8849375
 30
0.0
 11
82.5
 21
-7.884396283918713
 31
0.0
  0
LINE
  5
450
330
18
100
AcDbEntity
  8
1
 62
     1
100
AcDbLine
 10
82.5
 20
-7.884396283918713
 30
0.0
 11
82.5
 21
-7.717427163766917
 31
0.0
  0
LINE
  5
451
330
18
100
AcDbEntity
  8
1
 62
     1
100
AcDbLine
 10
82.5
 20
-7.717427163766917
 30
0.0
 11
82.49999999999999
 21
-5.30172696201133
 31
0.0
  0
LINE
  5
452
330
18
100
AcDbEntity
  8
1
 62
     1
100
AcDbLine
 10
76.27886752691897
 20
-8.050247845600081
 30
0.0
 11
77.5
 21
-5.30172696201133
 31
0.0
  0
LINE
  5
453
330
18
100
AcDbEntity
  8
1
 62
     1
100
AcDbLine
 10
76.278867526919
 20
-8.050247845600092
 30
0.0
 11
76.278867526919
 21
-10.0
 31
0.0
  0
LINE
  5
454
330
18
100
AcDbEntity
  8
1
 62
     1
100
AcDbLine
 10
77.5
 20
-7.8849375
 30
0.0
 11
76.278867526919
 21
-9.999999999999945
 31
0.0
  0
LINE
  5
455
330
18
100
AcDbEntity
  8
1
 62
     1
100
AcDbLine
 10
75.0
 20
-5.30172696201133
 30
0.0
 11
76.22113247308101
 21
-8.05024784560009
 31
0.0
  0
LINE
  5
456
330
18
100
AcDbEntity
  8
1
 62
     1
100
AcDbLine
 10
76.22113247308103
 20
-8.050247845600092
 30
0.0
 11
76.22113247308103
 21
-10.0
 31
0.0
  0
LINE
  5
457
330
18
100
AcDbEntity
  8
1
 62
     1
100
AcDbLine
 10
70.0
 20
-5.30172696201133
 30
0.0
 11
71.22113247308103
 21
-8.05024784560009
 31
0.0
  0
LINE
  5
458
330
18
100
AcDbEntity
  8
1
 62
     1
100
AcDbLine
 10
71.22113247308103
 20
-9.999999999999995
 30
0.0
 11
70.0
 21
-7.8849375
 31
0.0
  0
LINE
  5
459
330
18
100
AcDbEntity
  8
1
 62
     1
100
AcDbLine
 10
71.22113247308103
 20
-8.050247845600092
 30
0.0
 11
71.22113247308103
 21
-10.0
 31
0.0
  0
LINE
  5
45A
330
18
100
AcDbEntity
  8
1
 62
     1
100
AcDbLine
 10
71.27886752691899
 20
-8.050247845600081
 30
0.0
 11
72.5
 21
-5.30172696201133
 31
0.0
  0
LINE
  5
45B
330
18
100
AcDbEntity
  8
1
 62
     1
100
AcDbLine
 10
71.27886752691899
 20
-8.050247845600092
 30
0.0
 11
71.27886752691899
 21
-10.0
 31
0.0
  0
LINE
  5
45C
330
18
100
AcDbEntity
  8
1
 62
     1
100
AcDbLine
 10
72.5
 20
-7.8849375
 30
0.0
 11
71.27886752691899
 21
-9.99999999999997
 31
0.0
  0
LINE
  5
45D
330
18
100
AcDbEntity
  8
1
 62
     1
100
AcDbLine
 10
72.5
 20
-5.30172696201133
 30
0.0
 11
73.72113247308101
 21
-8.05024784560009
 31
0.0
  0
LINE
  5
45E
330
18
100
AcDbEntity
  8
1
 62
     1
100
AcDbLine
 10
72.5
 20
-7.8849375
 30
0.0
 11
72.5
 21
-7.884396283918713
 31
0.0
  0
LINE
  5
45F
330
18
100
AcDbEntity
  8
1
 62
     1
100
AcDbLine
 10
72.5
 20
-7.884396283918713
 30
0.0
 11
72.49999999999999
 21
-7.717427163766917
 31
0.0
  0
LINE
  5
460
330
18
100
AcDbEntity
  8
1
 62
     1
100
AcDbLine
 10
72.49999999999999
 20
-7.717427163766917
 30
0.0
 11
72.49999999999999
 21
-5.30172696201133
 31
0.0
  0
LINE
  5
461
330
18
100
AcDbEntity
  8
1
 62
     1
100
AcDbLine
 10
73.72113247308103
 20
-9.999999999999995
 30
0.0
 11
72.5
 21
-7.8849375
 31
0.0
  0
LINE
  5
462
330
18
100
AcDbEntity
  8
1
 62
     1
100
AcDbLine
 10
73.72113247308101
 20
-8.050247845600092
 30
0.0
 11
73.72113247308103
 21
-10.0
 31
0.0
  0
LINE
  5
463
330
18
100
AcDbEntity
  8
1
 62
     1
100
AcDbLine
 10
73.77886752691899
 20
-8.050247845600076
 30
0.0
 11
75.0
 21
-5.30172696201133
 31
0.0
  0
LINE
  5
464
330
18
100
AcDbEntity
  8
1
 62
     1
100
AcDbLine
 10
73.77886752691902
 20
-8.050247845600092
 30
0.0
 11
73.77886752691902
 21
-10.0
 31
0.0
  0
LINE
  5
465
330
18
100
AcDbEntity
  8
1
 62
     1
100
AcDbLine
 10
75.0
 20
-7.8849375
 30
0.0
 11
75.00000000000001
 21
-7.884396283918713
 31
0.0
  0
LINE
  5
466
330
18
100
AcDbEntity
  8
1
 62
     1
100
AcDbLine
 10
75.00000000000001
 20
-7.884396283918713
 30
0.0
 11
75.0
 21
-7.717427163766917
 31
0.0
  0
LINE
  5
467
330
18
100
AcDbEntity
  8
1
 62
     1
100
AcDbLine
 10
75.0
 20
-7.717427163766917
 30
0.0
 11
75.0
 21
-5.30172696201133
 31
0.0
  0
LINE
  5
468
330
18
100
AcDbEntity
  8
1
 62
     1
100
AcDbLine
 10
68.77886752691897
 20
-8.050247845600088
 30
0.0
 11
70.0
 21
-5.30172696201133
 31
0.0
  0
LINE
  5
469
330
18
100
AcDbEntity
  8
1
 62
     1
100
AcDbLine
 10
68.77886752691897
 20
-8.050247845600092
 30
0.0
 11
68.77886752691897
 21
-10.0
 31
0.0
  0
LINE
  5
46A
330
18
100
AcDbEntity
  8
1
 62
     1
100
AcDbLine
 10
70.0
 20
-7.8849375
 30
0.0
 11
68.77886752691897
 21
-9.999999999999995
 31
0.0
  0
LINE
  5
46B
330
18
100
AcDbEntity
  8
1
 62
     1
100
AcDbLine
 10
70.0
 20
-7.8849375
 30
0.0
 11
70.0
 21
-7.884396283918713
 31
0.0
  0
LINE
  5
46C
330
18
100
AcDbEntity
  8
1
 62
     1
100
AcDbLine
 10
70.0
 20
-7.884396283918713
 30
0.0
 11
70.0
 21
-7.717427163766917
 31
0.0
  0
LINE
  5
46D
330
18
100
AcDbEntity
  8
1
 62
     1
100
AcDbLine
 10
70.0
 20
-7.717427163766917
 30
0.0
 11
69.99999999999999
 21
-5.30172696201133
 31
0.0
  0
LINE
  5
46E
330
18
100
AcDbEntity
  8
1
 62
     1
100
AcDbLine
 10
67.5
 20
-5.30172696201133
 30
0.0
 11
68.72113247308104
 21
-8.050247845600106
 31
0.0
  0
LINE
  5
46F
330
18
100
AcDbEntity
  8
1
 62
     1
100
AcDbLine
 10
67.5
 20
-7.8849375
 30
0.0
 11
67.50000000000001
 21
-7.884396283918713
 31
0.0
  0
LINE
  5
470
330
18
100
AcDbEntity
  8
1
 62
     1
100
AcDbLine
 10
67.50000000000001
 20
-7.884396283918713
 30
0.0
 11
67.5
 21
-7.717427163766917
 31
0.0
  0
LINE
  5
471
330
18
100
AcDbEntity
  8
1
 62
     1
100
AcDbLine
 10
67.5
 20
-7.717427163766917
 30
0.0
 11
67.49999999999999
 21
-5.30172696201133
 31
0.0
  0
LINE
  5
472
330
18
100
AcDbEntity
  8
1
 62
     1
100
AcDbLine
 10
68.72113247308103
 20
-10.00000000000002
 30
0.0
 11
67.5
 21
-7.8849375
 31
0.0
  0
LINE
  5
473
330
18
100
AcDbEntity
  8
1
 62
     1
100
AcDbLine
 10
68.72113247308104
 20
-8.050247845600092
 30
0.0
 11
68.72113247308104
 21
-10.0
 31
0.0
  0
LINE
  5
474
330
18
100
AcDbEntity
  8
1
 62
     1
100
AcDbLine
 10
66.27886752691896
 20
-8.050247845600088
 30
0.0
 11
67.5
 21
-5.30172696201133
 31
0.0
  0
LINE
  5
475
330
18
100
AcDbEntity
  8
1
 62
     1
100
AcDbLine
 10
66.27886752691897
 20
-8.050247845600092
 30
0.0
 11
66.27886752691897
 21
-10.0
 31
0.0
  0
LINE
  5
476
330
18
100
AcDbEntity
  8
1
 62
     1
100
AcDbLine
 10
67.5
 20
-7.8849375
 30
0.0
 11
66.27886752691897
 21
-9.999999999999995
 31
0.0
  0
ARC
  5
477
330
18
100
AcDbEntity
  8
1
 62
     1
100
AcDbCircle
 10
25.9599047847064
 20
10.52693993237136
 30
0.0
 40
42.12710317239961
100
AcDbArc
 50
335.8149919143863
 51
337.9300821440624
  0
LINE
  5
478
330
18
100
AcDbEntity
  8
1
 62
     1
100
AcDbLine
 10
65.0
 20
-7.8849375
 30
0.0
 11
64.38943390633071
 21
-8.942468502539903
 31
0.0
  0
LINE
  5
479
330
18
100
AcDbEntity
  8
1
 62
     1
100
AcDbLine
 10
65.0
 20
-5.30172696201133
 30
0.0
 11
66.22113247308104
 21
-8.050247845600106
 31
0.0
  0
LINE
  5
47A
330
18
100
AcDbEntity
  8
1
 62
     1
100
AcDbLine
 10
65.0
 20
-7.8849375
 30
0.0
 11
65.0
 21
-7.884396283918713
 31
0.0
  0
LINE
  5
47B
330
18
100
AcDbEntity
  8
1
 62
     1
100
AcDbLine
 10
65.0
 20
-7.884396283918713
 30
0.0
 11
64.99999999999999
 21
-7.717427163766917
 31
0.0
  0
LINE
  5
47C
330
18
100
AcDbEntity
  8
1
 62
     1
100
AcDbLine
 10
64.99999999999999
 20
-7.717427163766917
 30
0.0
 11
64.99999999999999
 21
-5.30172696201133
 31
0.0
  0
LINE
  5
47D
330
18
100
AcDbEntity
  8
1
 62
     1
100
AcDbLine
 10
66.22113247308103
 20
-10.00000000000002
 30
0.0
 11
65.0
 21
-7.8849375
 31
0.0
  0
LINE
  5
47E
330
18
100
AcDbEntity
  8
1
 62
     1
100
AcDbLine
 10
66.22113247308104
 20
-8.050247845600092
 30
0.0
 11
66.22113247308104
 21
-10.0
 31
0.0
  0
ARC
  5
47F
330
18
100
AcDbEntity
  8
1
 62
     1
100
AcDbCircle
 10
70.01194359958777
 20
-66.61939376840627
 30
0.0
 40
72.7234345464911
100
AcDbArc
 50
94.4341668619598
 51
94.95559624894524
  0
LINE
  5
480
330
18
100
AcDbEntity
  8
1
 62
     1
100
AcDbLine
 10
64.38943390633071
 20
-1.169916417042712
 30
0.0
 11
63.72982941
 21
-0.7682617617738752
 31
0.0
  0
LINE
  5
481
330
18
100
AcDbEntity
  8
1
 62
     1
100
AcDbLine
 10
64.3894339063307
 20
5.886373728814533
 30
0.0
 11
64.38943390633071
 21
-1.169916417042707
 31
0.0
  0
LINE
  5
482
330
18
100
AcDbEntity
  8
1
 62
     1
100
AcDbLine
 10
81.27886752691902
 20
-8.05024784560009
 30
0.0
 11
81.22113247308103
 21
-8.05024784560009
 31
0.0
  0
LINE
  5
483
330
18
100
AcDbEntity
  8
1
 62
     1
100
AcDbLine
 10
83.77886752691897
 20
-8.05024784560009
 30
0.0
 11
83.72113247308103
 21
-8.050247845600085
 31
0.0
  0
LINE
  5
484
330
18
100
AcDbEntity
  8
1
 62
     1
100
AcDbLine
 10
83.77886752691899
 20
-1.539415256980342
 30
0.0
 11
83.72113247308107
 21
-1.539415256980342
 31
0.0
  0
LINE
  5
485
330
18
100
AcDbEntity
  8
1
 62
     1
100
AcDbLine
 10
68.77886752691896
 20
-1.539415256980342
 30
0.0
 11
68.72113247308104
 21
-1.539415256980342
 31
0.0
  0
LINE
  5
486
330
18
100
AcDbEntity
  8
1
 62
     1
100
AcDbLine
 10
94.60096921364428
 20
8.512610636698636
 30
0.0
 11
93.02676105800563
 21
8.725850374447589
 31
0.0
  0
LINE
  5
487
330
18
100
AcDbEntity
  8
1
 62
     1
100
AcDbLine
 10
93.02676105800563
 20
8.797313990518628
 30
0.0
 11
94.60096921364428
 21
8.576078773507405
 31
0.0
  0
LINE
  5
488
330
18
100
AcDbEntity
  8
1
 62
     1
100
AcDbLine
 10
91.88020837022555
 20
8.880988180227146
 30
0.0
 11
90.71438575347332
 21
9.038593709200208
 31
0.0
  0
LINE
  5
489
330
18
100
AcDbEntity
  8
1
 62
     1
100
AcDbLine
 10
90.71438575347332
 20
9.12228934430344
 30
0.0
 11
91.88020836921007
 21
8.958447594109687
 31
0.0
  0
LINE
  5
48A
330
18
100
AcDbEntity
  8
1
 62
     1
100
AcDbLine
 10
89.15944752477586
 20
9.248597310942365
 30
0.0
 11
88.40201044894097
 21
9.350813071915423
 31
0.0
  0
LINE
  5
48B
330
18
100
AcDbEntity
  8
1
 62
     1
100
AcDbLine
 10
86.43868668071373
 20
9.615532688449525
 30
0.0
 11
86.08963514440867
 21
9.662562985152046
 31
0.0
  0
ARC
  5
48C
330
18
100
AcDbEntity
  8
1
 62
     1
100
AcDbCircle
 10
98.26085503627948
 20
-60.9431482059794
 30
0.0
 40
67.02760755575936
100
AcDbArc
 50
94.4787072648816
 51
94.93051206110532
  0
LINE
  5
48D
330
18
100
AcDbEntity
  8
1
 62
     1
100
AcDbLine
 10
92.5
 20
-0.79823676757245
 30
0.0
 11
93.02676105800563
 21
-1.119048118057354
 31
0.0
  0
LINE
  5
48E
330
18
100
AcDbEntity
  8
1
 62
     1
100
AcDbLine
 10
93.02676105800562
 20
5.87980366608498
 30
0.0
 11
93.02676105800563
 21
-1.119048118057337
 31
0.0
  0
ARC
  5
48F
330
18
100
AcDbEntity
  8
1
 62
     1
100
AcDbCircle
 10
86.07240074515744
 20
-69.03473211849284
 30
0.0
 40
75.14658760449232
100
AcDbArc
 50
85.0932569572815
 51
85.56739672612801
  0
LINE
  5
490
330
18
100
AcDbEntity
  8
1
 62
     1
100
AcDbLine
 10
91.88020836921007
 20
5.887092576429965
 30
0.0
 11
91.88020836921005
 21
-1.175513660622328
 31
0.0
  0
LINE
  5
491
330
18
100
AcDbEntity
  8
1
 62
     1
100
AcDbLine
 10
91.88020836921007
 20
-1.175513659039513
 30
0.0
 11
92.5
 21
-0.79823676757245
 31
0.0
  0
LINE
  5
492
330
18
100
AcDbEntity
  8
1
 62
     1
100
AcDbLine
 10
92.49999999999999
 20
-0.7982367675724498
 30
0.0
 11
92.49999999999999
 21
5.836431323950309
 31
0.0
  0
ARC
  5
493
330
18
100
AcDbEntity
  8
1
 62
     1
100
AcDbCircle
 10
89.32954919914538
 20
-59.90585914385892
 30
0.0
 40
65.98639256275996
100
AcDbArc
 50
85.07028443410239
 51
85.41796002098543
  0
LINE
  5
494
330
18
100
AcDbEntity
  8
1
 62
     1
100
AcDbLine
 10
94.60096921364428
 20
5.869640563362183
 30
0.0
 11
94.60096921364428
 21
-1.041435200754113
 31
0.0
  0
LINE
  5
495
330
18
100
AcDbEntity
  8
1
 62
     1
100
AcDbLine
 10
94.60096921364425
 20
-1.041435200754002
 30
0.0
 11
95.0
 21
-0.79823676757245
 31
0.0
  0
LINE
  5
496
330
18
100
AcDbEntity
  8
1
 62
     1
100
AcDbLine
 10
83.77886752691893
 20
9.88079959651931
 30
0.0
 11
83.72113247308103
 21
9.88079959651931
 31
0.0
  0
LINE
  5
497
330
18
100
AcDbEntity
  8
1
 62
     1
100
AcDbLine
 10
81.27886752691897
 20
9.88079959651931
 30
0.0
 11
81.22113247308101
 21
9.88079959651931
 31
0.0
  0
LINE
  5
498
330
18
100
AcDbEntity
  8
1
 62
     1
100
AcDbLine
 10
78.77886752691894
 20
9.88079959651931
 30
0.0
 11
78.72113247308104
 21
9.88079959651931
 31
0.0
  0
LINE
  5
499
330
18
100
AcDbEntity
  8
1
 62
     1
100
AcDbLine
 10
76.27886752691899
 20
9.88079959651931
 30
0.0
 11
76.22113247308103
 21
9.88079959651931
 31
0.0
  0
LINE
  5
49A
330
18
100
AcDbEntity
  8
1
 62
     1
100
AcDbLine
 10
76.22113247308103
 20
10.0
 30
0.0
 11
76.278867526919
 21
10.0
 31
0.0
  0
LINE
  5
49B
330
18
100
AcDbEntity
  8
1
 62
     1
100
AcDbLine
 10
73.77886752691902
 20
9.88079959651931
 30
0.0
 11
73.72113247308103
 21
9.88079959651931
 31
0.0
  0
LINE
  5
49C
330
18
100
AcDbEntity
  8
1
 62
     1
100
AcDbLine
 10
71.27886752691899
 20
9.88079959651931
 30
0.0
 11
71.22113247308104
 21
9.88079959651931
 31
0.0
  0
LINE
  5
49D
330
18
100
AcDbEntity
  8
1
 62
     1
100
AcDbLine
 10
71.22113247308103
 20
10.0
 30
0.0
 11
71.27886752691899
 21
10.0
 31
0.0
  0
LINE
  5
49E
330
18
100
AcDbEntity
  8
1
 62
     1
100
AcDbLine
 10
66.27886752691896
 20
9.88079959651931
 30
0.0
 11
66.22113247308104
 21
9.88079959651931
 31
0.0
  0
ARC
  5
49F
330
18
100
AcDbEntity
  8
1
 62
     1
100
AcDbCircle
 10
73.89502337134238
 20
-96.02203470121836
 30
0.0
 40
102.2214489951342
100
AcDbArc
 50
85.17113331170259
 51
85.85770142728504
  0
LINE
  5
4A0
330
18
100
AcDbEntity
  8
1
 62
     1
100
AcDbLine
 10
81.278867526919
 20
5.932411788169389
 30
0.0
 11
81.27886752691902
 21
-1.539415256980355
 31
0.0
  0
ARC
  5
4A1
330
18
100
AcDbEntity
  8
1
 62
     1
100
AcDbCircle
 10
-65.76654617939778
 20
242.123630456133
 30
0.0
 40
284.594498897069
100
AcDbArc
 50
301.110079012243
 51
301.3976638514067
  0
LINE
  5
4A2
330
18
100
AcDbEntity
  8
1
 62
     1
100
AcDbLine
 10
82.5
 20
-0.7982367675724498
 30
0.0
 11
82.49999999999999
 21
5.836431323950309
 31
0.0
  0
ARC
  5
4A3
330
18
100
AcDbEntity
  8
1
 62
     1
100
AcDbCircle
 10
71.39502337135983
 20
-96.0220347009965
 30
0.0
 40
102.2214489949117
100
AcDbArc
 50
85.17113331170187
 51
85.8577014272858
  0
ARC
  5
4A4
330
18
100
AcDbEntity
  8
1
 62
     1
100
AcDbCircle
 10
-68.26654618329358
 20
242.1236304625653
 30
0.0
 40
284.5944989045891
100
AcDbArc
 50
301.1100790122454
 51
301.3976638514014
  0
LINE
  5
4A5
330
18
100
AcDbEntity
  8
1
 62
     1
100
AcDbLine
 10
79.99999999999999
 20
-0.7982367675724498
 30
0.0
 11
79.99999999999999
 21
5.836431323950309
 31
0.0
  0
ARC
  5
4A6
330
18
100
AcDbEntity
  8
1
 62
     1
100
AcDbCircle
 10
85.1945251187287
 20
-84.39589983695328
 30
0.0
 40
90.55983825357332
100
AcDbArc
 50
94.09910310605693
 51
94.87408259713996
  0
ARC
  5
4A7
330
18
100
AcDbEntity
  8
1
 62
     1
100
AcDbCircle
 10
215.2260396712052
 20
224.7530484283442
 30
0.0
 40
264.2760837359719
100
AcDbArc
 50
238.5909422183617
 51
238.9006375397269
  0
ARC
  5
4A8
330
18
100
AcDbEntity
  8
1
 62
     1
100
AcDbCircle
 10
76.39502337135356
 20
-96.02203470107222
 30
0.0
 40
102.2214489949876
100
AcDbArc
 50
85.17113331170195
 51
85.85770142728538
  0
ARC
  5
4A9
330
18
100
AcDbEntity
  8
1
 62
     1
100
AcDbCircle
 10
-63.26654618175679
 20
242.1236304600292
 30
0.0
 40
284.5944989016238
100
AcDbArc
 50
301.1100790122443
 51
301.3976638514034
  0
LINE
  5
4AA
330
18
100
AcDbEntity
  8
1
 62
     1
100
AcDbLine
 10
84.99999999999999
 20
-0.7982367675724498
 30
0.0
 11
84.99999999999999
 21
5.836431323950309
 31
0.0
  0
ARC
  5
4AB
330
18
100
AcDbEntity
  8
1
 62
     1
100
AcDbCircle
 10
92.32025324880821
 20
-79.79832855655175
 30
0.0
 40
85.94708762421291
100
AcDbArc
 50
94.15722181714261
 51
94.88589534988078
  0
LINE
  5
4AC
330
18
100
AcDbEntity
  8
1
 62
     1
100
AcDbLine
 10
85.0
 20
-0.79823676757245
 30
0.0
 11
86.08963514440867
 21
-1.459983626415544
 31
0.0
  0
LINE
  5
4AD
330
18
100
AcDbEntity
  8
1
 62
     1
100
AcDbLine
 10
86.08963514440867
 20
5.922726612021266
 30
0.0
 11
86.08963514440869
 21
-1.459983626415538
 31
0.0
  0
ARC
  5
4AE
330
18
100
AcDbEntity
  8
1
 62
     1
100
AcDbCircle
 10
96.27350909627465
 20
-67.08463961919736
 30
0.0
 40
73.19044091246073
100
AcDbArc
 50
94.3560495306098
 51
94.91713443448333
  0
LINE
  5
4AF
330
18
100
AcDbEntity
  8
1
 62
     1
100
AcDbLine
 10
90.0
 20
-0.79823676757245
 30
0.0
 11
90.71438575347331
 21
-1.232877382872469
 31
0.0
  0
LINE
  5
4B0
330
18
100
AcDbEntity
  8
1
 62
     1
100
AcDbLine
 10
90.71438575347331
 20
5.894415809320944
 30
0.0
 11
90.71438575347332
 21
-1.232877382872443
 31
0.0
  0
ARC
  5
4B1
330
18
100
AcDbEntity
  8
1
 62
     1
100
AcDbCircle
 10
90.19452511872144
 20
-84.39589983686365
 30
0.0
 40
90.55983825348339
100
AcDbArc
 50
94.0991031060564
 51
94.8740825971402
  0
ARC
  5
4B2
330
18
100
AcDbEntity
  8
1
 62
     1
100
AcDbCircle
 10
220.2260396692416
 20
224.7530484251081
 30
0.0
 40
264.2760837321867
100
AcDbArc
 50
238.5909422183593
 51
238.900637539729
  0
ARC
  5
4B3
330
18
100
AcDbEntity
  8
1
 62
     1
100
AcDbCircle
 10
79.49112966432358
 20
-88.53683779044424
 30
0.0
 40
94.71260327303503
100
AcDbArc
 50
85.14928722865922
 51
85.79334269929926
  0
LINE
  5
4B4
330
18
100
AcDbEntity
  8
1
 62
     1
100
AcDbLine
 10
86.43868668034169
 20
5.92062611493879
 30
0.0
 11
86.43868668034169
 21
-1.442865997914333
 31
0.0
  0
LINE
  5
4B5
330
18
100
AcDbEntity
  8
1
 62
     1
100
AcDbLine
 10
86.43868668034166
 20
-1.442865997383263
 30
0.0
 11
87.5
 21
-0.79823676757245
 31
0.0
  0
LINE
  5
4B6
330
18
100
AcDbEntity
  8
1
 62
     1
100
AcDbLine
 10
87.49999999999999
 20
-0.7982367675724498
 30
0.0
 11
87.5
 21
5.836431323950309
 31
0.0
  0
ARC
  5
4B7
330
18
100
AcDbEntity
  8
1
 62
     1
100
AcDbCircle
 10
94.29305431618843
 20
-73.3672620948158
 30
0.0
 40
79.49448292746757
100
AcDbArc
 50
94.24987185804176
 51
94.90208435772976
  0
LINE
  5
4B8
330
18
100
AcDbEntity
  8
1
 62
     1
100
AcDbLine
 10
87.5
 20
-0.79823676757245
 30
0.0
 11
88.402010448941
 21
-1.346515937462343
 31
0.0
  0
LINE
  5
4B9
330
18
100
AcDbEntity
  8
1
 62
     1
100
AcDbLine
 10
88.40201044894098
 20
5.908706974880823
 30
0.0
 11
88.402010448941
 21
-1.346515937462339
 31
0.0
  0
ARC
  5
4BA
330
18
100
AcDbEntity
  8
1
 62
     1
100
AcDbCircle
 10
82.79344777913586
 20
-78.57332317083154
 30
0.0
 40
84.71689262921656
100
AcDbArc
 50
85.12015917454555
 51
85.69048157944364
  0
LINE
  5
4BB
330
18
100
AcDbEntity
  8
1
 62
     1
100
AcDbLine
 10
89.15944752477586
 20
5.9040578606245
 30
0.0
 11
89.15944752477586
 21
-1.309312442995276
 31
0.0
  0
LINE
  5
4BC
330
18
100
AcDbEntity
  8
1
 62
     1
100
AcDbLine
 10
89.15944752477586
 20
-1.30931244299528
 30
0.0
 11
90.0
 21
-0.79823676757245
 31
0.0
  0
LINE
  5
4BD
330
18
100
AcDbEntity
  8
1
 62
     1
100
AcDbLine
 10
89.99999999999999
 20
-0.7982367675724498
 30
0.0
 11
89.99999999999999
 21
5.836431323950309
 31
0.0
  0
ARC
  5
4BE
330
18
100
AcDbEntity
  8
1
 62
     1
100
AcDbCircle
 10
87.6945251187266
 20
-84.39589983692682
 30
0.0
 40
90.55983825354677
100
AcDbArc
 50
94.0991031060568
 51
94.87408259714006
  0
ARC
  5
4BF
330
18
100
AcDbEntity
  8
1
 62
     1
100
AcDbCircle
 10
217.7260396687645
 20
224.7530484243221
 30
0.0
 40
264.2760837312672
100
AcDbArc
 50
238.5909422183588
 51
238.9006375397296
  0
ARC
  5
4C0
330
18
100
AcDbEntity
  8
1
 62
     1
100
AcDbCircle
 10
66.3950233713497
 20
-96.02203470112178
 30
0.0
 40
102.2214489950373
100
AcDbArc
 50
85.17113331170212
 51
85.8577014272852
  0
LINE
  5
4C1
330
18
100
AcDbEntity
  8
1
 62
     1
100
AcDbLine
 10
73.77886752691902
 20
5.932411788169389
 30
0.0
 11
73.77886752691903
 21
-1.539415256980355
 31
0.0
  0
ARC
  5
4C2
330
18
100
AcDbEntity
  8
1
 62
     1
100
AcDbCircle
 10
-73.26654618278118
 20
242.1236304617189
 30
0.0
 40
284.5944989035996
100
AcDbArc
 50
301.1100790122451
 51
301.3976638514023
  0
ARC
  5
4C3
330
18
100
AcDbEntity
  8
1
 62
     1
100
AcDbCircle
 10
80.19452511871114
 20
-84.39589983673429
 30
0.0
 40
90.55983825335363
100
AcDbArc
 50
94.09910310605576
 51
94.87408259714066
  0
ARC
  5
4C4
330
18
100
AcDbEntity
  8
1
 62
     1
100
AcDbCircle
 10
210.2260396683933
 20
224.7530484237101
 30
0.0
 40
264.2760837305515
100
AcDbArc
 50
238.5909422183584
 51
238.90063753973
  0
LINE
  5
4C5
330
18
100
AcDbEntity
  8
1
 62
     1
100
AcDbLine
 10
73.72113247308101
 20
5.932411788169389
 30
0.0
 11
73.72113247308103
 21
-1.539415256980355
 31
0.0
  0
ARC
  5
4C6
330
18
100
AcDbEntity
  8
1
 62
     1
100
AcDbCircle
 10
63.89502337135902
 20
-96.02203470100207
 30
0.0
 40
102.2214489949173
100
AcDbArc
 50
85.17113331170168
 51
85.85770142728558
  0
LINE
  5
4C7
330
18
100
AcDbEntity
  8
1
 62
     1
100
AcDbLine
 10
71.27886752691897
 20
5.932411788169389
 30
0.0
 11
71.27886752691897
 21
-1.539415256980355
 31
0.0
  0
ARC
  5
4C8
330
18
100
AcDbEntity
  8
1
 62
     1
100
AcDbCircle
 10
-75.76654618002163
 20
242.1236304571647
 30
0.0
 40
284.5944988982747
100
AcDbArc
 50
301.1100790122431
 51
301.3976638514056
  0
LINE
  5
4C9
330
18
100
AcDbEntity
  8
1
 62
     1
100
AcDbLine
 10
72.49999999999999
 20
-0.7982367675724498
 30
0.0
 11
72.49999999999999
 21
5.836431323950309
 31
0.0
  0
ARC
  5
4CA
330
18
100
AcDbEntity
  8
1
 62
     1
100
AcDbCircle
 10
77.69452511873551
 20
-84.39589983703631
 30
0.0
 40
90.55983825365664
100
AcDbArc
 50
94.09910310605748
 51
94.8740825971398
  0
ARC
  5
4CB
330
18
100
AcDbEntity
  8
1
 62
     1
100
AcDbCircle
 10
207.7260396685618
 20
224.753048423993
 30
0.0
 40
264.2760837308807
100
AcDbArc
 50
238.5909422183591
 51
238.9006375397303
  0
LINE
  5
4CC
330
18
100
AcDbEntity
  8
1
 62
     1
100
AcDbLine
 10
71.22113247308103
 20
5.932411788169386
 30
0.0
 11
71.22113247308103
 21
-1.539415256980355
 31
0.0
  0
ARC
  5
4CD
330
18
100
AcDbEntity
  8
1
 62
     1
100
AcDbCircle
 10
82.69452511872296
 20
-84.39589983688145
 30
0.0
 40
90.55983825350127
100
AcDbArc
 50
94.09910310605659
 51
94.8740825971402
  0
LINE
  5
4CE
330
18
100
AcDbEntity
  8
1
 62
     1
100
AcDbLine
 10
75.0
 20
-0.7982367675724498
 30
0.0
 11
75.0
 21
5.836431323950309
 31
0.0
  0
ARC
  5
4CF
330
18
100
AcDbEntity
  8
1
 62
     1
100
AcDbCircle
 10
212.7260396685589
 20
224.7530484239827
 30
0.0
 40
264.2760837308705
100
AcDbArc
 50
238.5909422183585
 51
238.9006375397297
  0
LINE
  5
4D0
330
18
100
AcDbEntity
  8
1
 62
     1
100
AcDbLine
 10
76.22113247308103
 20
5.932411788169389
 30
0.0
 11
76.22113247308101
 21
-1.539415256980355
 31
0.0
  0
ARC
  5
4D1
330
18
100
AcDbEntity
  8
1
 62
     1
100
AcDbCircle
 10
68.89502337135521
 20
-96.02203470105688
 30
0.0
 40
102.2214489949722
100
AcDbArc
 50
85.17113331170215
 51
85.85770142728565
  0
LINE
  5
4D2
330
18
100
AcDbEntity
  8
1
 62
     1
100
AcDbLine
 10
76.278867526919
 20
5.932411788169389
 30
0.0
 11
76.278867526919
 21
-1.539415256980355
 31
0.0
  0
ARC
  5
4D3
330
18
100
AcDbEntity
  8
1
 62
     1
100
AcDbCircle
 10
-70.76654618291761
 20
242.1236304619426
 30
0.0
 40
284.5944989038617
100
AcDbArc
 50
301.1100790122454
 51
301.3976638514021
  0
LINE
  5
4D4
330
18
100
AcDbEntity
  8
1
 62
     1
100
AcDbLine
 10
77.49999999999999
 20
-0.7982367675724498
 30
0.0
 11
77.5
 21
5.836431323950309
 31
0.0
  0
LINE
  5
4D5
330
18
100
AcDbEntity
  8
1
 62
     1
100
AcDbLine
 10
64.38943390633071
 20
8.86560987727595
 30
0.0
 11
63.72982940999999
 21
7.762072781505989
 31
0.0
  0
LINE
  5
4D6
330
18
100
AcDbEntity
  8
1
 62
     1
100
AcDbLine
 10
63.72982941
 20
7.8
 30
0.0
 11
64.38943390633071
 21
8.94246850253993
 31
0.0
  0
ARC
  5
4D7
330
18
100
AcDbEntity
  8
1
 62
     1
100
AcDbCircle
 10
72.69452511871741
 20
-84.39589983681358
 30
0.0
 40
90.55983825343317
100
AcDbArc
 50
94.0991031060561
 51
94.87408259714034
  0
LINE
  5
4D8
330
18
100
AcDbEntity
  8
1
 62
     1
100
AcDbLine
 10
65.0
 20
-0.7982367675724498
 30
0.0
 11
64.99999999999999
 21
5.836431323950309
 31
0.0
  0
ARC
  5
4D9
330
18
100
AcDbEntity
  8
1
 62
     1
100
AcDbCircle
 10
202.7260396673946
 20
224.7530484220666
 30
0.0
 40
264.2760837286282
100
AcDbArc
 50
238.5909422183575
 51
238.9006375397313
  0
LINE
  5
4DA
330
18
100
AcDbEntity
  8
1
 62
     1
100
AcDbLine
 10
66.22113247308104
 20
5.932411788169386
 30
0.0
 11
66.22113247308103
 21
-1.539415256980355
 31
0.0
  0
ARC
  5
4DB
330
18
100
AcDbEntity
  8
1
 62
     1
100
AcDbCircle
 10
58.60447719260827
 20
-68.64500916808187
 30
0.0
 40
74.75554814887556
100
AcDbArc
 50
85.09220253340528
 51
85.56173021609244
  0
LINE
  5
4DC
330
18
100
AcDbEntity
  8
1
 62
     1
100
AcDbLine
 10
64.38943390633071
 20
-1.169916417042708
 30
0.0
 11
65.0
 21
-0.79823676757245
 31
0.0
  0
ARC
  5
4DD
330
18
100
AcDbEntity
  8
1
 62
     1
100
AcDbCircle
 10
58.89502337134044
 20
-96.02203470124671
 30
0.0
 40
102.2214489951626
100
AcDbArc
 50
85.17113331170285
 51
85.85770142728511
  0
LINE
  5
4DE
330
18
100
AcDbEntity
  8
1
 62
     1
100
AcDbLine
 10
66.27886752691897
 20
5.932411788169386
 30
0.0
 11
66.27886752691897
 21
-1.539415256980355
 31
0.0
  0
ARC
  5
4DF
330
18
100
AcDbEntity
  8
1
 62
     1
100
AcDbCircle
 10
-80.76654618091914
 20
242.123630458654
 30
0.0
 40
284.5944989000135
100
AcDbArc
 50
301.110079012243
 51
301.3976638514038
  0
LINE
  5
4E0
330
18
100
AcDbEntity
  8
1
 62
     1
100
AcDbLine
 10
67.49999999999999
 20
-0.7982367675724498
 30
0.0
 11
67.49999999999999
 21
5.836431323950309
 31
0.0
  0
ARC
  5
4E1
330
18
100
AcDbEntity
  8
1
 62
     1
100
AcDbCircle
 10
75.19452511873101
 20
-84.39589983698163
 30
0.0
 40
90.55983825360175
100
AcDbArc
 50
94.0991031060571
 51
94.87408259713989
  0
ARC
  5
4E2
330
18
100
AcDbEntity
  8
1
 62
     1
100
AcDbCircle
 10
205.2260396683874
 20
224.7530484237045
 30
0.0
 40
264.2760837305437
100
AcDbArc
 50
238.5909422183588
 51
238.9006375397304
  0
LINE
  5
4E3
330
18
100
AcDbEntity
  8
1
 62
     1
100
AcDbLine
 10
68.72113247308104
 20
5.932411788169386
 30
0.0
 11
68.72113247308103
 21
-1.539415256980355
 31
0.0
  0
ARC
  5
4E4
330
18
100
AcDbEntity
  8
1
 62
     1
100
AcDbCircle
 10
61.39502337133735
 20
-96.02203470128873
 30
0.0
 40
102.2214489952048
100
AcDbArc
 50
85.1711333117031
 51
85.85770142728506
  0
LINE
  5
4E5
330
18
100
AcDbEntity
  8
1
 62
     1
100
AcDbLine
 10
68.77886752691897
 20
5.932411788169386
 30
0.0
 11
68.77886752691897
 21
-1.539415256980355
 31
0.0
  0
ARC
  5
4E6
330
18
100
AcDbEntity
  8
1
 62
     1
100
AcDbCircle
 10
-78.26654618076124
 20
242.1236304583934
 30
0.0
 40
284.5944988997088
100
AcDbArc
 50
301.1100790122429
 51
301.3976638514039
  0
LINE
  5
4E7
330
18
100
AcDbEntity
  8
1
 62
     1
100
AcDbLine
 10
70.0
 20
-0.7982367675724498
 30
0.0
 11
69.99999999999999
 21
5.836431323950309
 31
0.0
  0
LINE
  5
4E8
330
18
100
AcDbEntity
  8
1
 62
     1
100
AcDbLine
 10
76.27886752691899
 20
5.932411788169387
 30
0.0
 11
76.22113247308101
 21
5.932411788169387
 31
0.0
  0
LINE
  5
4E9
330
18
100
AcDbEntity
  8
1
 62
     1
100
AcDbLine
 10
68.77886752691896
 20
9.88079959651931
 30
0.0
 11
68.72113247308106
 21
9.88079959651931
 31
0.0
  0
LINE
  5
4EA
330
18
100
AcDbEntity
  8
1
 62
     1
100
AcDbLine
 10
91.88020836921007
 20
8.958447594109685
 30
0.0
 11
91.88020836921007
 21
8.958429581922
 31
0.0
  0
LINE
  5
4EB
330
18
100
AcDbEntity
  8
1
 62
     1
100
AcDbLine
 10
91.88020836921007
 20
8.958429581922
 30
0.0
 11
91.88020836921007
 21
8.953173742042708
 31
0.0
  0
LINE
  5
4EC
330
18
100
AcDbEntity
  8
1
 62
     1
100
AcDbLine
 10
91.88020836921007
 20
8.953173742042708
 30
0.0
 11
91.88020836921008
 21
8.880988173063846
 31
0.0
  0
LINE
  5
4ED
330
18
100
AcDbEntity
  8
1
 62
     1
100
AcDbLine
 10
91.88020836921007
 20
8.880988173273387
 30
0.0
 11
92.5
 21
7.844428433085596
 31
0.0
  0
LINE
  5
4EE
330
18
100
AcDbEntity
  8
1
 62
     1
100
AcDbLine
 10
92.50000000000001
 20
7.844428433085597
 30
0.0
 11
92.50000000000001
 21
7.884937499074579
 31
0.0
  0
LINE
  5
4EF
330
18
100
AcDbEntity
  8
1
 62
     1
100
AcDbLine
 10
92.5
 20
7.844428433085596
 30
0.0
 11
93.02676105800563
 21
8.72585037444762
 31
0.0
  0
LINE
  5
4F0
330
18
100
AcDbEntity
  8
1
 62
     1
100
AcDbLine
 10
93.02676105800563
 20
8.797313990518626
 30
0.0
 11
93.02676105800563
 21
8.797297350086223
 31
0.0
  0
LINE
  5
4F1
330
18
100
AcDbEntity
  8
1
 62
     1
100
AcDbLine
 10
93.02676105800563
 20
8.797297350086223
 30
0.0
 11
93.02676105800563
 21
8.792443653878355
 31
0.0
  0
LINE
  5
4F2
330
18
100
AcDbEntity
  8
1
 62
     1
100
AcDbLine
 10
93.02676105800563
 20
8.792443653878355
 30
0.0
 11
93.02676105800562
 21
8.725850374447587
 31
0.0
  0
LINE
  5
4F3
330
18
100
AcDbEntity
  8
1
 62
     1
100
AcDbLine
 10
94.60096921364428
 20
8.576078773507403
 30
0.0
 11
94.60096921364428
 21
8.576063965872795
 31
0.0
  0
LINE
  5
4F4
330
18
100
AcDbEntity
  8
1
 62
     1
100
AcDbLine
 10
94.60096921364428
 20
8.576063965872795
 30
0.0
 11
94.60096921364428
 21
8.571747262912465
 31
0.0
  0
LINE
  5
4F5
330
18
100
AcDbEntity
  8
1
 62
     1
100
AcDbLine
 10
94.60096921364428
 20
8.571747262912465
 30
0.0
 11
94.60096921364428
 21
8.51261063669862
 31
0.0
  0
LINE
  5
4F6
330
18
100
AcDbEntity
  8
1
 62
     1
100
AcDbLine
 10
94.60096921364425
 20
8.512610636698662
 30
0.0
 11
95.0
 21
7.844428433085596
 31
0.0
  0
LINE
  5
4F7
330
18
100
AcDbEntity
  8
1
 62
     1
100
AcDbLine
 10
81.278867526919
 20
10.0
 30
0.0
 11
81.278867526919
 21
9.99997248852044
 31
0.0
  0
LINE
  5
4F8
330
18
100
AcDbEntity
  8
1
 62
     1
100
AcDbLine
 10
81.278867526919
 20
9.99997248852044
 30
0.0
 11
81.278867526919
 21
9.991927371943767
 31
0.0
  0
LINE
  5
4F9
330
18
100
AcDbEntity
  8
1
 62
     1
100
AcDbLine
 10
81.278867526919
 20
9.991927371943767
 30
0.0
 11
81.27886752691902
 21
9.880799596519308
 31
0.0
  0
ARC
  5
4FA
330
18
100
AcDbEntity
  8
1
 62
     1
100
AcDbCircle
 10
-325.7331199953703
 20
-235.5934789909541
 30
0.0
 40
475.3066027757632
100
AcDbArc
 50
30.80850366817374
 51
31.09473075022268
  0
LINE
  5
4FB
330
18
100
AcDbEntity
  8
1
 62
     1
100
AcDbLine
 10
82.5
 20
7.844428433085597
 30
0.0
 11
82.50000000000001
 21
7.884937499074579
 31
0.0
  0
LINE
  5
4FC
330
18
100
AcDbEntity
  8
1
 62
     1
100
AcDbLine
 10
78.77886752691897
 20
10.0
 30
0.0
 11
78.77886752691897
 21
9.99997248852044
 31
0.0
  0
LINE
  5
4FD
330
18
100
AcDbEntity
  8
1
 62
     1
100
AcDbLine
 10
78.77886752691897
 20
9.99997248852044
 30
0.0
 11
78.77886752691897
 21
9.991927371943767
 31
0.0
  0
LINE
  5
4FE
330
18
100
AcDbEntity
  8
1
 62
     1
100
AcDbLine
 10
78.77886752691897
 20
9.991927371943767
 30
0.0
 11
78.77886752691897
 21
9.880799596519308
 31
0.0
  0
ARC
  5
4FF
330
18
100
AcDbEntity
  8
1
 62
     1
100
AcDbCircle
 10
-328.2331199947554
 20
-235.5934789905904
 30
0.0
 40
475.3066027750489
100
AcDbArc
 50
30.80850366817406
 51
31.09473075022342
  0
LINE
  5
500
330
18
100
AcDbEntity
  8
1
 62
     1
100
AcDbLine
 10
77.50000000000001
 20
7.844428433085597
 30
0.0
 11
77.5
 21
7.8849375
 31
0.0
  0
ARC
  5
501
330
18
100
AcDbEntity
  8
1
 62
     1
100
AcDbCircle
 10
457.2622077101806
 20
-218.5161415405182
 30
0.0
 40
442.1068347445663
100
AcDbArc
 50
148.8948548370854
 51
149.2025759960976
  0
LINE
  5
502
330
18
100
AcDbEntity
  8
1
 62
     1
100
AcDbLine
 10
78.72113247308104
 20
10.0
 30
0.0
 11
78.72113247308104
 21
9.99997248852044
 31
0.0
  0
LINE
  5
503
330
18
100
AcDbEntity
  8
1
 62
     1
100
AcDbLine
 10
78.72113247308104
 20
9.99997248852044
 30
0.0
 11
78.72113247308104
 21
9.991927371943767
 31
0.0
  0
LINE
  5
504
330
18
100
AcDbEntity
  8
1
 62
     1
100
AcDbLine
 10
78.72113247308104
 20
9.991927371943767
 30
0.0
 11
78.72113247308104
 21
9.880799596519308
 31
0.0
  0
LINE
  5
505
330
18
100
AcDbEntity
  8
1
 62
     1
100
AcDbLine
 10
83.77886752691896
 20
10.0
 30
0.0
 11
83.77886752691896
 21
9.99997248852044
 31
0.0
  0
LINE
  5
506
330
18
100
AcDbEntity
  8
1
 62
     1
100
AcDbLine
 10
83.77886752691896
 20
9.99997248852044
 30
0.0
 11
83.77886752691896
 21
9.991927371943767
 31
0.0
  0
LINE
  5
507
330
18
100
AcDbEntity
  8
1
 62
     1
100
AcDbLine
 10
83.77886752691896
 20
9.991927371943767
 30
0.0
 11
83.77886752691896
 21
9.880799596519308
 31
0.0
  0
ARC
  5
508
330
18
100
AcDbEntity
  8
1
 62
     1
100
AcDbCircle
 10
-323.2331199885588
 20
-235.5934789868666
 30
0.0
 40
475.3066027678195
100
AcDbArc
 50
30.80850366817108
 51
31.09473075022481
  0
LINE
  5
509
330
18
100
AcDbEntity
  8
1
 62
     1
100
AcDbLine
 10
85.0
 20
7.844428433085597
 30
0.0
 11
85.0
 21
7.884937499074579
 31
0.0
  0
ARC
  5
50A
330
18
100
AcDbEntity
  8
1
 62
     1
100
AcDbCircle
 10
452.3925060947137
 20
-211.1170826569562
 30
0.0
 40
427.6931201740587
100
AcDbArc
 50
148.921608208112
 51
149.2055668167392
  0
LINE
  5
50B
330
18
100
AcDbEntity
  8
1
 62
     1
100
AcDbLine
 10
86.08963514440869
 20
9.772240051873053
 30
0.0
 11
86.0896351444087
 21
9.772214700972384
 31
0.0
  0
LINE
  5
50C
330
18
100
AcDbEntity
  8
1
 62
     1
100
AcDbLine
 10
86.0896351444087
 20
9.772214700972384
 30
0.0
 11
86.08963514440867
 21
9.764804598011434
 31
0.0
  0
LINE
  5
50D
330
18
100
AcDbEntity
  8
1
 62
     1
100
AcDbLine
 10
86.08963514440867
 20
9.764804598011434
 30
0.0
 11
86.08963514440869
 21
9.662562985152046
 31
0.0
  0
LINE
  5
50E
330
18
100
AcDbEntity
  8
1
 62
     1
100
AcDbLine
 10
90.0
 20
7.844428433085596
 30
0.0
 11
90.71438575347332
 21
9.038593709200242
 31
0.0
  0
LINE
  5
50F
330
18
100
AcDbEntity
  8
1
 62
     1
100
AcDbLine
 10
90.71438575347331
 20
9.122289344303438
 30
0.0
 11
90.71438575347331
 21
9.122269907565762
 31
0.0
  0
LINE
  5
510
330
18
100
AcDbEntity
  8
1
 62
     1
100
AcDbLine
 10
90.71438575347331
 20
9.122269907565762
 30
0.0
 11
90.7143857534733
 21
9.11659625289827
 31
0.0
  0
LINE
  5
511
330
18
100
AcDbEntity
  8
1
 62
     1
100
AcDbLine
 10
90.7143857534733
 20
9.11659625289827
 30
0.0
 11
90.71438575347331
 21
9.038593709200208
 31
0.0
  0
ARC
  5
512
330
18
100
AcDbEntity
  8
1
 62
     1
100
AcDbCircle
 10
462.2622077105921
 20
-218.5161415407637
 30
0.0
 40
442.1068347450453
100
AcDbArc
 50
148.8948548370857
 51
149.2025759960976
  0
LINE
  5
513
330
18
100
AcDbEntity
  8
1
 62
     1
100
AcDbLine
 10
83.72113247308104
 20
10.0
 30
0.0
 11
83.72113247308103
 21
9.99997248852044
 31
0.0
  0
LINE
  5
514
330
18
100
AcDbEntity
  8
1
 62
     1
100
AcDbLine
 10
83.72113247308103
 20
9.99997248852044
 30
0.0
 11
83.72113247308104
 21
9.991927371943767
 31
0.0
  0
LINE
  5
515
330
18
100
AcDbEntity
  8
1
 62
     1
100
AcDbLine
 10
83.72113247308104
 20
9.991927371943767
 30
0.0
 11
83.72113247308104
 21
9.880799596519308
 31
0.0
  0
LINE
  5
516
330
18
100
AcDbEntity
  8
1
 62
     1
100
AcDbLine
 10
86.43868668034169
 20
9.723185235314244
 30
0.0
 11
86.43868668034169
 21
9.723160344178353
 31
0.0
  0
LINE
  5
517
330
18
100
AcDbEntity
  8
1
 62
     1
100
AcDbLine
 10
86.43868668034169
 20
9.723160344178353
 30
0.0
 11
86.43868668034166
 21
9.715885328640558
 31
0.0
  0
LINE
  5
518
330
18
100
AcDbEntity
  8
1
 62
     1
100
AcDbLine
 10
86.43868668034166
 20
9.715885328640558
 30
0.0
 11
86.43868668034168
 21
9.615532685831594
 31
0.0
  0
LINE
  5
519
330
18
100
AcDbEntity
  8
1
 62
     1
100
AcDbLine
 10
86.43868668034166
 20
9.615532685911267
 30
0.0
 11
87.5
 21
7.844428433085596
 31
0.0
  0
LINE
  5
51A
330
18
100
AcDbEntity
  8
1
 62
     1
100
AcDbLine
 10
87.5
 20
7.844428433085597
 30
0.0
 11
87.5
 21
7.8849375
 31
0.0
  0
LINE
  5
51B
330
18
100
AcDbEntity
  8
1
 62
     1
100
AcDbLine
 10
87.5
 20
7.844428433085596
 30
0.0
 11
88.402010448941
 21
9.350813071915432
 31
0.0
  0
LINE
  5
51C
330
18
100
AcDbEntity
  8
1
 62
     1
100
AcDbLine
 10
88.402010448941
 20
9.447264698088246
 30
0.0
 11
88.402010448941
 21
9.447242353801567
 31
0.0
  0
LINE
  5
51D
330
18
100
AcDbEntity
  8
1
 62
     1
100
AcDbLine
 10
88.402010448941
 20
9.447242353801567
 30
0.0
 11
88.402010448941
 21
9.440715366927721
 31
0.0
  0
LINE
  5
51E
330
18
100
AcDbEntity
  8
1
 62
     1
100
AcDbLine
 10
88.402010448941
 20
9.440715366927721
 30
0.0
 11
88.402010448941
 21
9.35081307191542
 31
0.0
  0
LINE
  5
51F
330
18
100
AcDbEntity
  8
1
 62
     1
100
AcDbLine
 10
89.15944752477586
 20
9.340816414711966
 30
0.0
 11
89.15944752477586
 21
9.340795034281259
 31
0.0
  0
LINE
  5
520
330
18
100
AcDbEntity
  8
1
 62
     1
100
AcDbLine
 10
89.15944752477586
 20
9.340795034281259
 30
0.0
 11
89.15944752477586
 21
9.334551007099131
 31
0.0
  0
LINE
  5
521
330
18
100
AcDbEntity
  8
1
 62
     1
100
AcDbLine
 10
89.15944752477586
 20
9.334551007099131
 30
0.0
 11
89.15944752477586
 21
9.24859731094236
 31
0.0
  0
LINE
  5
522
330
18
100
AcDbEntity
  8
1
 62
     1
100
AcDbLine
 10
89.15944752477586
 20
9.248597310942372
 30
0.0
 11
90.0
 21
7.844428433085596
 31
0.0
  0
LINE
  5
523
330
18
100
AcDbEntity
  8
1
 62
     1
100
AcDbLine
 10
90.00000000000001
 20
7.844428433085597
 30
0.0
 11
90.0
 21
7.8849375
 31
0.0
  0
LINE
  5
524
330
18
100
AcDbEntity
  8
1
 62
     1
100
AcDbLine
 10
80.00000000000001
 20
7.844428433085597
 30
0.0
 11
80.0
 21
7.8849375
 31
0.0
  0
ARC
  5
525
330
18
100
AcDbEntity
  8
1
 62
     1
100
AcDbCircle
 10
459.7622077063543
 20
-218.516141538224
 30
0.0
 40
442.1068347401048
100
AcDbArc
 50
148.8948548370838
 51
149.2025759960991
  0
LINE
  5
526
330
18
100
AcDbEntity
  8
1
 62
     1
100
AcDbLine
 10
81.22113247308104
 20
10.0
 30
0.0
 11
81.22113247308104
 21
9.99997248852044
 31
0.0
  0
LINE
  5
527
330
18
100
AcDbEntity
  8
1
 62
     1
100
AcDbLine
 10
81.22113247308104
 20
9.99997248852044
 30
0.0
 11
81.22113247308103
 21
9.991927371943767
 31
0.0
  0
LINE
  5
528
330
18
100
AcDbEntity
  8
1
 62
     1
100
AcDbLine
 10
81.22113247308103
 20
9.991927371943767
 30
0.0
 11
81.22113247308104
 21
9.880799596519308
 31
0.0
  0
LINE
  5
529
330
18
100
AcDbEntity
  8
1
 62
     1
100
AcDbLine
 10
73.77886752691902
 20
10.0
 30
0.0
 11
73.77886752691902
 21
9.99997248852044
 31
0.0
  0
LINE
  5
52A
330
18
100
AcDbEntity
  8
1
 62
     1
100
AcDbLine
 10
73.77886752691902
 20
9.99997248852044
 30
0.0
 11
73.77886752691902
 21
9.991927371943767
 31
0.0
  0
LINE
  5
52B
330
18
100
AcDbEntity
  8
1
 62
     1
100
AcDbLine
 10
73.77886752691902
 20
9.991927371943767
 30
0.0
 11
73.77886752691903
 21
9.880799596519308
 31
0.0
  0
ARC
  5
52C
330
18
100
AcDbEntity
  8
1
 62
     1
100
AcDbCircle
 10
-333.233119986493
 20
-235.5934789856272
 30
0.0
 40
475.3066027654104
100
AcDbArc
 50
30.80850366817031
 51
31.09473075022549
  0
LINE
  5
52D
330
18
100
AcDbEntity
  8
1
 62
     1
100
AcDbLine
 10
75.0
 20
7.844428433085597
 30
0.0
 11
75.00000000000001
 21
7.884937499074579
 31
0.0
  0
ARC
  5
52E
330
18
100
AcDbEntity
  8
1
 62
     1
100
AcDbCircle
 10
452.2622077100441
 20
-218.5161415404316
 30
0.0
 40
442.1068347444046
100
AcDbArc
 50
148.8948548370859
 51
149.2025759960982
  0
LINE
  5
52F
330
18
100
AcDbEntity
  8
1
 62
     1
100
AcDbLine
 10
73.72113247308103
 20
10.0
 30
0.0
 11
73.72113247308103
 21
9.99997248852044
 31
0.0
  0
LINE
  5
530
330
18
100
AcDbEntity
  8
1
 62
     1
100
AcDbLine
 10
73.72113247308103
 20
9.99997248852044
 30
0.0
 11
73.72113247308101
 21
9.991927371943767
 31
0.0
  0
LINE
  5
531
330
18
100
AcDbEntity
  8
1
 62
     1
100
AcDbLine
 10
73.72113247308101
 20
9.991927371943767
 30
0.0
 11
73.72113247308103
 21
9.880799596519308
 31
0.0
  0
LINE
  5
532
330
18
100
AcDbEntity
  8
1
 62
     1
100
AcDbLine
 10
71.27886752691899
 20
10.0
 30
0.0
 11
71.27886752691899
 21
9.999999999988741
 31
0.0
  0
LINE
  5
533
330
18
100
AcDbEntity
  8
1
 62
     1
100
AcDbLine
 10
71.27886752691899
 20
9.999999999988741
 30
0.0
 11
71.27886752691899
 21
9.999999996746467
 31
0.0
  0
LINE
  5
534
330
18
100
AcDbEntity
  8
1
 62
     1
100
AcDbLine
 10
71.27886752691899
 20
9.999999996746467
 30
0.0
 11
71.27886752691899
 21
9.999999160826821
 31
0.0
  0
LINE
  5
535
330
18
100
AcDbEntity
  8
1
 62
     1
100
AcDbLine
 10
71.27886752691899
 20
9.999999160826821
 30
0.0
 11
71.27886752691899
 21
9.999784527347252
 31
0.0
  0
LINE
  5
536
330
18
100
AcDbEntity
  8
1
 62
     1
100
AcDbLine
 10
71.27886752691899
 20
9.999784527347252
 30
0.0
 11
71.27886752691899
 21
9.984121700555042
 31
0.0
  0
LINE
  5
537
330
18
100
AcDbEntity
  8
1
 62
     1
100
AcDbLine
 10
71.27886752691899
 20
9.984121700555042
 30
0.0
 11
71.27886752691897
 21
9.880799596519308
 31
0.0
  0
ARC
  5
538
330
18
100
AcDbEntity
  8
1
 62
     1
100
AcDbCircle
 10
-335.7331199975774
 20
-235.5934789922814
 30
0.0
 40
475.3066027783387
100
AcDbArc
 50
30.80850366817489
 51
31.09473075022228
  0
LINE
  5
539
330
18
100
AcDbEntity
  8
1
 62
     1
100
AcDbLine
 10
72.50000000000001
 20
7.844428433085597
 30
0.0
 11
72.5
 21
7.8849375
 31
0.0
  0
LINE
  5
53A
330
18
100
AcDbEntity
  8
1
 62
     1
100
AcDbLine
 10
70.0
 20
7.844428433085597
 30
0.0
 11
70.0
 21
7.8849375
 31
0.0
  0
ARC
  5
53B
330
18
100
AcDbEntity
  8
1
 62
     1
100
AcDbCircle
 10
449.7622077120989
 20
-218.5161415416661
 30
0.0
 40
442.1068347468017
100
AcDbArc
 50
148.8948548370865
 51
149.2025759960971
  0
LINE
  5
53C
330
18
100
AcDbEntity
  8
1
 62
     1
100
AcDbLine
 10
71.22113247308103
 20
10.0
 30
0.0
 11
71.22113247308103
 21
9.99997248852044
 31
0.0
  0
LINE
  5
53D
330
18
100
AcDbEntity
  8
1
 62
     1
100
AcDbLine
 10
71.22113247308103
 20
9.99997248852044
 30
0.0
 11
71.22113247308103
 21
9.991927371943767
 31
0.0
  0
LINE
  5
53E
330
18
100
AcDbEntity
  8
1
 62
     1
100
AcDbLine
 10
71.22113247308103
 20
9.991927371943767
 30
0.0
 11
71.22113247308103
 21
9.880799596519308
 31
0.0
  0
ARC
  5
53F
330
18
100
AcDbEntity
  8
1
 62
     1
100
AcDbCircle
 10
454.7622077064643
 20
-218.5161415382915
 30
0.0
 40
442.1068347402339
100
AcDbArc
 50
148.8948548370837
 51
149.2025759960989
  0
LINE
  5
540
330
18
100
AcDbEntity
  8
1
 62
     1
100
AcDbLine
 10
76.22113247308103
 20
10.0
 30
0.0
 11
76.22113247308101
 21
9.99997248852044
 31
0.0
  0
LINE
  5
541
330
18
100
AcDbEntity
  8
1
 62
     1
100
AcDbLine
 10
76.22113247308101
 20
9.99997248852044
 30
0.0
 11
76.22113247308103
 21
9.991927371943767
 31
0.0
  0
LINE
  5
542
330
18
100
AcDbEntity
  8
1
 62
     1
100
AcDbLine
 10
76.22113247308103
 20
9.991927371943767
 30
0.0
 11
76.22113247308101
 21
9.880799596519308
 31
0.0
  0
LINE
  5
543
330
18
100
AcDbEntity
  8
1
 62
     1
100
AcDbLine
 10
76.278867526919
 20
10.0
 30
0.0
 11
76.27886752691899
 21
9.99997248852044
 31
0.0
  0
LINE
  5
544
330
18
100
AcDbEntity
  8
1
 62
     1
100
AcDbLine
 10
76.27886752691899
 20
9.99997248852044
 30
0.0
 11
76.27886752691902
 21
9.991927371943767
 31
0.0
  0
LINE
  5
545
330
18
100
AcDbEntity
  8
1
 62
     1
100
AcDbLine
 10
76.27886752691902
 20
9.991927371943767
 30
0.0
 11
76.278867526919
 21
9.880799596519308
 31
0.0
  0
ARC
  5
546
330
18
100
AcDbEntity
  8
1
 62
     1
100
AcDbCircle
 10
-330.7331199936177
 20
-235.5934789898982
 30
0.0
 40
475.3066027737171
100
AcDbArc
 50
30.80850366817263
 51
31.09473075022281
  0
LINE
  5
547
330
18
100
AcDbEntity
  8
1
 62
     1
100
AcDbLine
 10
65.0
 20
7.844428433085597
 30
0.0
 11
65.0
 21
7.8849375
 31
0.0
  0
ARC
  5
548
330
18
100
AcDbEntity
  8
1
 62
     1
100
AcDbCircle
 10
444.762207709135
 20
-218.5161415398915
 30
0.0
 40
442.1068347433473
100
AcDbArc
 50
148.894854837085
 51
149.202575996098
  0
LINE
  5
549
330
18
100
AcDbEntity
  8
1
 62
     1
100
AcDbLine
 10
66.22113247308104
 20
10.0
 30
0.0
 11
66.22113247308104
 21
9.99997248852044
 31
0.0
  0
LINE
  5
54A
330
18
100
AcDbEntity
  8
1
 62
     1
100
AcDbLine
 10
66.22113247308104
 20
9.99997248852044
 30
0.0
 11
66.22113247308104
 21
9.991927371943767
 31
0.0
  0
LINE
  5
54B
330
18
100
AcDbEntity
  8
1
 62
     1
100
AcDbLine
 10
66.22113247308104
 20
9.991927371943767
 30
0.0
 11
66.22113247308104
 21
9.880799596519308
 31
0.0
  0
LINE
  5
54C
330
18
100
AcDbEntity
  8
1
 62
     1
100
AcDbLine
 10
64.38943390633071
 20
8.942468502539922
 30
0.0
 11
64.38943390633071
 21
8.942450627709222
 31
0.0
  0
LINE
  5
54D
330
18
100
AcDbEntity
  8
1
 62
     1
100
AcDbLine
 10
64.38943390633071
 20
8.942450627709222
 30
0.0
 11
64.38943390633071
 21
8.937235063858799
 31
0.0
  0
LINE
  5
54E
330
18
100
AcDbEntity
  8
1
 62
     1
100
AcDbLine
 10
64.38943390633071
 20
8.937235063858799
 30
0.0
 11
64.38943390633071
 21
8.865609877275933
 31
0.0
  0
LINE
  5
54F
330
18
100
AcDbEntity
  8
1
 62
     1
100
AcDbLine
 10
64.38943390633071
 20
8.86560987727594
 30
0.0
 11
65.0
 21
7.844428433085596
 31
0.0
  0
LINE
  5
550
330
18
100
AcDbEntity
  8
1
 62
     1
100
AcDbLine
 10
66.27886752691897
 20
10.0
 30
0.0
 11
66.27886752691897
 21
9.99997248852044
 31
0.0
  0
LINE
  5
551
330
18
100
AcDbEntity
  8
1
 62
     1
100
AcDbLine
 10
66.27886752691897
 20
9.99997248852044
 30
0.0
 11
66.27886752691897
 21
9.991927371943767
 31
0.0
  0
LINE
  5
552
330
18
100
AcDbEntity
  8
1
 62
     1
100
AcDbLine
 10
66.27886752691897
 20
9.991927371943767
 30
0.0
 11
66.27886752691897
 21
9.880799596519308
 31
0.0
  0
ARC
  5
553
330
18
100
AcDbEntity
  8
1
 62
     1
100
AcDbCircle
 10
-340.7331199922312
 20
-235.5934789890792
 30
0.0
 40
475.3066027721068
100
AcDbArc
 50
30.80850366817343
 51
31.09473075022458
  0
LINE
  5
554
330
18
100
AcDbEntity
  8
1
 62
     1
100
AcDbLine
 10
67.50000000000001
 20
7.844428433085597
 30
0.0
 11
67.5
 21
7.8849375
 31
0.0
  0
ARC
  5
555
330
18
100
AcDbEntity
  8
1
 62
     1
100
AcDbCircle
 10
447.2622077067445
 20
-218.5161415384586
 30
0.0
 40
442.1068347405602
100
AcDbArc
 50
148.8948548370839
 51
149.2025759960989
  0
LINE
  5
556
330
18
100
AcDbEntity
  8
1
 62
     1
100
AcDbLine
 10
68.72113247308104
 20
10.0
 30
0.0
 11
68.72113247308104
 21
9.99997248852044
 31
0.0
  0
LINE
  5
557
330
18
100
AcDbEntity
  8
1
 62
     1
100
AcDbLine
 10
68.72113247308104
 20
9.99997248852044
 30
0.0
 11
68.72113247308103
 21
9.991927371943767
 31
0.0
  0
LINE
  5
558
330
18
100
AcDbEntity
  8
1
 62
     1
100
AcDbLine
 10
68.72113247308103
 20
9.991927371943767
 30
0.0
 11
68.72113247308103
 21
9.880799596519308
 31
0.0
  0
LINE
  5
559
330
18
100
AcDbEntity
  8
1
 62
     1
100
AcDbLine
 10
68.77886752691897
 20
10.0
 30
0.0
 11
68.77886752691897
 21
9.99997248852044
 31
0.0
  0
LINE
  5
55A
330
18
100
AcDbEntity
  8
1
 62
     1
100
AcDbLine
 10
68.77886752691897
 20
9.99997248852044
 30
0.0
 11
68.77886752691897
 21
9.991927371943767
 31
0.0
  0
LINE
  5
55B
330
18
100
AcDbEntity
  8
1
 62
     1
100
AcDbLine
 10
68.77886752691897
 20
9.991927371943767
 30
0.0
 11
68.77886752691897
 21
9.880799596519308
 31
0.0
  0
ARC
  5
55C
330
18
100
AcDbEntity
  8
1
 62
     1
100
AcDbCircle
 10
-338.2331199952232
 20
-235.5934789908719
 30
0.0
 40
475.3066027755948
100
AcDbArc
 50
30.80850366817431
 51
31.09473075022335
  0
LINE
  5
55D
330
18
100
AcDbEntity
  8
1
 62
     1
100
AcDbLine
 10
94.60096921364428
 20
-6.252715153142475
 30
0.0
 11
93.02676105800563
 21
-6.543748336853151
 31
0.0
  0
LINE
  5
55E
330
18
100
AcDbEntity
  8
1
 62
     1
100
AcDbLine
 10
91.88020836921004
 20
-6.752475419648178
 30
0.0
 11
90.71438575347332
 21
-6.962185371563971
 31
0.0
  0
LINE
  5
55F
330
18
100
AcDbEntity
  8
1
 62
     1
100
AcDbLine
 10
89.15944752477586
 20
-7.238297594859623
 30
0.0
 11
88.40201044894098
 21
-7.3714308082447
 31
0.0
  0
LINE
  5
560
330
18
100
AcDbEntity
  8
1
 62
     1
100
AcDbLine
 10
86.43868668034165
 20
-7.712750321859112
 30
0.0
 11
86.08963514440867
 21
-7.77290068833296
 31
0.0
  0
LINE
  5
561
330
18
100
AcDbEntity
  8
1
 62
     1
100
AcDbLine
 10
95.0
 20
7.844428433085595
 30
0.0
 11
95.00000000000001
 21
7.875000528266837
 31
0.0
  0
LINE
  5
562
330
18
100
AcDbEntity
  8
1
 62
     1
100
AcDbLine
 10
95.00000000000001
 20
7.875000528266837
 30
0.0
 11
95.0
 21
7.882477728977474
 31
0.0
  0
LINE
  5
563
330
18
100
AcDbEntity
  8
1
 62
     1
100
AcDbLine
 10
95.0
 20
7.882477728977474
 30
0.0
 11
95.0
 21
7.884325654700142
 31
0.0
  0
LINE
  5
564
330
18
100
AcDbEntity
  8
1
 62
     1
100
AcDbLine
 10
95.0
 20
7.884325654700142
 30
0.0
 11
95.0
 21
7.884784928127324
 31
0.0
  0
LINE
  5
565
330
18
100
AcDbEntity
  8
1
 62
     1
100
AcDbLine
 10
95.0
 20
7.884784928127324
 30
0.0
 11
95.0
 21
7.884899405851114
 31
0.0
  0
LINE
  5
566
330
18
100
AcDbEntity
  8
1
 62
     1
100
AcDbLine
 10
95.0
 20
7.884899405851114
 30
0.0
 11
95.0
 21
7.884927982573668
 31
0.0
  0
LINE
  5
567
330
18
100
AcDbEntity
  8
1
 62
     1
100
AcDbLine
 10
95.0
 20
7.884927982573668
 30
0.0
 11
95.0
 21
7.884935121407803
 31
0.0
  0
LINE
  5
568
330
18
100
AcDbEntity
  8
1
 62
     1
100
AcDbLine
 10
95.0
 20
7.884935121407803
 30
0.0
 11
95.0
 21
7.884936905447531
 31
0.0
  0
LINE
  5
569
330
18
100
AcDbEntity
  8
1
 62
     1
100
AcDbLine
 10
95.0
 20
7.884936905447531
 30
0.0
 11
94.99999999999999
 21
7.884937351373832
 31
0.0
  0
LINE
  5
56A
330
18
100
AcDbEntity
  8
1
 62
     1
100
AcDbLine
 10
94.99999999999999
 20
7.884937351373832
 30
0.0
 11
95.0
 21
7.884937462844952
 31
0.0
  0
LINE
  5
56B
330
18
100
AcDbEntity
  8
1
 62
     1
100
AcDbLine
 10
95.0
 20
7.884937462844952
 30
0.0
 11
95.00000000000001
 21
7.884937490711424
 31
0.0
  0
LINE
  5
56C
330
18
100
AcDbEntity
  8
1
 62
     1
100
AcDbLine
 10
95.00000000000001
 20
7.884937490711424
 30
0.0
 11
95.0
 21
7.884937497677879
 31
0.0
  0
LINE
  5
56D
330
18
100
AcDbEntity
  8
1
 62
     1
100
AcDbLine
 10
95.0
 20
7.884937497677879
 30
0.0
 11
94.99999999999999
 21
7.884937499419472
 31
0.0
  0
LINE
  5
56E
330
18
100
AcDbEntity
  8
1
 62
     1
100
AcDbLine
 10
94.99999999999999
 20
7.884937499419472
 30
0.0
 11
95.0
 21
7.884937499854868
 31
0.0
  0
LINE
  5
56F
330
18
100
AcDbEntity
  8
1
 62
     1
100
AcDbLine
 10
95.0
 20
7.884937499854868
 30
0.0
 11
95.0
 21
7.884937499963717
 31
0.0
  0
LINE
  5
570
330
18
100
AcDbEntity
  8
1
 62
     1
100
AcDbLine
 10
95.0
 20
7.884937499963717
 30
0.0
 11
95.0
 21
7.884937499990929
 31
0.0
  0
LINE
  5
571
330
18
100
AcDbEntity
  8
1
 62
     1
100
AcDbLine
 10
95.0
 20
7.884937499990929
 30
0.0
 11
94.99999999999999
 21
7.884937499998921
 31
0.0
  0
LINE
  5
572
330
18
100
AcDbEntity
  8
1
 62
     1
100
AcDbLine
 10
94.99999999999999
 20
7.884937499998921
 30
0.0
 11
95.0
 21
7.884937499999999
 31
0.0
  0
LINE
  5
573
330
18
100
AcDbEntity
  8
1
 62
     1
100
AcDbLine
 10
95.00000000000003
 20
7.625100728707055
 30
0.0
 11
95.00000000000003
 21
7.844428433085596
 31
0.0
  0
LINE
  5
574
330
18
100
AcDbEntity
  8
1
 62
     1
100
AcDbLine
 10
95.00000000000001
 20
7.625100728707056
 30
0.0
 11
95.0
 21
5.836431323950311
 31
0.0
  0
LINE
  5
575
330
18
100
AcDbEntity
  8
1
 62
     1
100
AcDbLine
 10
95.0
 20
-0.7982367675724503
 30
0.0
 11
95.0
 21
5.836431323950311
 31
0.0
  0
LINE
  5
576
330
18
100
AcDbEntity
  8
1
 62
     1
100
AcDbLine
 10
95.0
 20
-5.301726962011329
 30
0.0
 11
95.0
 21
-2.099204947105029
 31
0.0
  0
LINE
  5
577
330
18
100
AcDbEntity
  8
1
 62
     1
100
AcDbLine
 10
95.0
 20
-7.884937499999999
 30
0.0
 11
95.0
 21
-7.884396283918712
 31
0.0
  0
LINE
  5
578
330
18
100
AcDbEntity
  8
1
 62
     1
100
AcDbLine
 10
95.0
 20
-7.884396283918712
 30
0.0
 11
95.0
 21
-7.717427163766919
 31
0.0
  0
LINE
  5
579
330
18
100
AcDbEntity
  8
1
 62
     1
100
AcDbLine
 10
95.0
 20
-7.717427163766919
 30
0.0
 11
95.0
 21
-5.301726962011329
 31
0.0
  0
LINE
  5
57A
330
18
100
AcDbEntity
  8
1
 62
     1
100
AcDbLine
 10
78.77886752691897
 20
-8.05024784560009
 30
0.0
 11
78.72113247308103
 21
-8.05024784560009
 31
0.0
  0
LINE
  5
57B
330
18
100
AcDbEntity
  8
1
 62
     1
100
AcDbLine
 10
76.27886752691903
 20
-8.05024784560009
 30
0.0
 11
76.22113247308104
 21
-8.05024784560009
 31
0.0
  0
LINE
  5
57C
330
18
100
AcDbEntity
  8
1
 62
     1
100
AcDbLine
 10
73.77886752691902
 20
-8.05024784560009
 30
0.0
 11
73.72113247308103
 21
-8.05024784560009
 31
0.0
  0
LINE
  5
57D
330
18
100
AcDbEntity
  8
1
 62
     1
100
AcDbLine
 10
71.27886752691902
 20
-8.05024784560009
 30
0.0
 11
71.221132473081
 21
-8.05024784560009
 31
0.0
  0
LINE
  5
57E
330
18
100
AcDbEntity
  8
1
 62
     1
100
AcDbLine
 10
68.77886752691899
 20
-8.05024784560009
 30
0.0
 11
68.72113247308101
 21
-8.05024784560009
 31
0.0
  0
LINE
  5
57F
330
18
100
AcDbEntity
  8
1
 62
     1
100
AcDbLine
 10
66.27886752691897
 20
-8.05024784560009
 30
0.0
 11
66.22113247308104
 21
-8.05024784560009
 31
0.0
  0
LINE
  5
580
330
18
100
AcDbEntity
  8
1
 62
     1
100
AcDbLine
 10
64.3894339063307
 20
-6.731890317261607
 30
0.0
 11
64.38943390633071
 21
-8.942468502539922
 31
0.0
  0
ARC
  5
581
330
18
100
AcDbEntity
  8
1
 62
     1
100
AcDbCircle
 10
102.1717585746504
 20
10.24511827005203
 30
0.0
 40
41.42123717242394
100
AcDbArc
 50
201.8626992661642
 51
204.1961627284214
  0
LINE
  5
582
330
18
100
AcDbEntity
  8
1
 62
     1
100
AcDbLine
 10
63.72982941000001
 20
-5.179374955015529
 30
0.0
 11
63.72982941
 21
-7.8
 31
0.0
  0
LINE
  5
583
330
18
100
AcDbEntity
  8
1
 62
     1
100
AcDbLine
 10
63.72982941000001
 20
-2.099204947105051
 30
0.0
 11
63.72982941000001
 21
-5.179374955015529
 31
0.0
  0
LINE
  5
584
330
18
100
AcDbEntity
  8
1
 62
     1
100
AcDbLine
 10
63.72982941
 20
5.832158697717156
 30
0.0
 11
63.72982941
 21
-0.7682617617738771
 31
0.0
  0
LINE
  5
585
330
18
100
AcDbEntity
  8
1
 62
     1
100
AcDbLine
 10
63.72982941
 20
7.625100728707056
 30
0.0
 11
63.72982941
 21
5.832158697717156
 31
0.0
  0
LINE
  5
586
330
18
100
AcDbEntity
  8
1
 62
     1
100
AcDbLine
 10
63.72982941
 20
7.762072781505985
 30
0.0
 11
63.72982941
 21
7.62510072870708
 31
0.0
  0
LINE
  5
587
330
18
100
AcDbEntity
  8
1
 62
     1
100
AcDbLine
 10
63.72982941
 20
7.8
 30
0.0
 11
63.72982941
 21
7.799991080559971
 31
0.0
  0
LINE
  5
588
330
18
100
AcDbEntity
  8
1
 62
     1
100
AcDbLine
 10
63.72982941
 20
7.799991080559971
 30
0.0
 11
63.72982941
 21
7.797396683876388
 31
0.0
  0
LINE
  5
589
330
18
100
AcDbEntity
  8
1
 62
     1
100
AcDbLine
 10
63.72982941
 20
7.797396683876388
 30
0.0
 11
63.72982940999999
 21
7.762072781505987
 31
0.0
  0
LINE
  5
58A
330
18
100
AcDbEntity
  8
1
 62
     1
100
AcDbLine
 10
95.0
 20
-0.7982367675724586
 30
0.0
 11
95.0
 21
-2.099204947105029
 31
0.0
  0
LINE
  5
58B
330
18
100
AcDbEntity
  8
1
 62
     1
100
AcDbLine
 10
63.72982941
 20
-0.7682617617738772
 30
0.0
 11
63.72982941
 21
-2.099204947105029
 31
0.0
  0
LINE
  5
58C
330
18
100
AcDbEntity
  8
1
 62
     1
100
AcDbLine
 10
92.50000000000001
 20
7.8849375
 30
0.0
 11
91.88020836921007
 21
8.958447594109705
 31
0.0
  0
LINE
  5
58D
330
18
100
AcDbEntity
  8
1
 62
     1
100
AcDbLine
 10
93.02676105800563
 20
8.797313990518656
 30
0.0
 11
92.5
 21
7.8849375
 31
0.0
  0
LINE
  5
58E
330
18
100
AcDbEntity
  8
1
 62
     1
100
AcDbLine
 10
94.99999999999999
 20
7.8849375
 30
0.0
 11
94.60096921364426
 21
8.576078773507431
 31
0.0
  0
LINE
  5
58F
330
18
100
AcDbEntity
  8
1
 62
     1
100
AcDbLine
 10
82.5
 20
7.884937500000001
 30
0.0
 11
81.27886752691897
 21
9.999999999999995
 31
0.0
  0
LINE
  5
590
330
18
100
AcDbEntity
  8
1
 62
     1
100
AcDbLine
 10
80.0
 20
7.8849375
 30
0.0
 11
78.77886752691897
 21
9.999999999999998
 31
0.0
  0
LINE
  5
591
330
18
100
AcDbEntity
  8
1
 62
     1
100
AcDbLine
 10
78.72113247308106
 20
10.00000000000001
 30
0.0
 11
77.5
 21
7.8849375
 31
0.0
  0
LINE
  5
592
330
18
100
AcDbEntity
  8
1
 62
     1
100
AcDbLine
 10
85.0
 20
7.884937500000001
 30
0.0
 11
83.77886752691896
 21
10.00000000000002
 31
0.0
  0
LINE
  5
593
330
18
100
AcDbEntity
  8
1
 62
     1
100
AcDbLine
 10
86.08963514440869
 20
9.772240051873071
 30
0.0
 11
85.0
 21
7.8849375
 31
0.0
  0
LINE
  5
594
330
18
100
AcDbEntity
  8
1
 62
     1
100
AcDbLine
 10
90.71438575347331
 20
9.122289344303441
 30
0.0
 11
90.0
 21
7.884937499999999
 31
0.0
  0
LINE
  5
595
330
18
100
AcDbEntity
  8
1
 62
     1
100
AcDbLine
 10
83.72113247308104
 20
10.00000000000002
 30
0.0
 11
82.5
 21
7.8849375
 31
0.0
  0
LINE
  5
596
330
18
100
AcDbEntity
  8
1
 62
     1
100
AcDbLine
 10
87.5
 20
7.8849375
 30
0.0
 11
86.43868668034166
 21
9.723185235314237
 31
0.0
  0
LINE
  5
597
330
18
100
AcDbEntity
  8
1
 62
     1
100
AcDbLine
 10
88.402010448941
 20
9.447264698088256
 30
0.0
 11
87.5
 21
7.8849375
 31
0.0
  0
LINE
  5
598
330
18
100
AcDbEntity
  8
1
 62
     1
100
AcDbLine
 10
90.0
 20
7.8849375
 30
0.0
 11
89.15944752477586
 21
9.34081641471198
 31
0.0
  0
LINE
  5
599
330
18
100
AcDbEntity
  8
1
 62
     1
100
AcDbLine
 10
81.22113247308104
 20
10.00000000000002
 30
0.0
 11
80.0
 21
7.8849375
 31
0.0
  0
LINE
  5
59A
330
18
100
AcDbEntity
  8
1
 62
     1
100
AcDbLine
 10
75.0
 20
7.8849375
 30
0.0
 11
73.778867526919
 21
9.999999999999988
 31
0.0
  0
LINE
  5
59B
330
18
100
AcDbEntity
  8
1
 62
     1
100
AcDbLine
 10
73.72113247308103
 20
10.0
 30
0.0
 11
72.5
 21
7.8849375
 31
0.0
  0
LINE
  5
59C
330
18
100
AcDbEntity
  8
1
 62
     1
100
AcDbLine
 10
72.50000000000001
 20
7.8849375
 30
0.0
 11
71.27886752691897
 21
9.999999999999993
 31
0.0
  0
LINE
  5
59D
330
18
100
AcDbEntity
  8
1
 62
     1
100
AcDbLine
 10
71.22113247308101
 20
10.0
 30
0.0
 11
70.0
 21
7.8849375
 31
0.0
  0
LINE
  5
59E
330
18
100
AcDbEntity
  8
1
 62
     1
100
AcDbLine
 10
76.22113247308103
 20
10.0
 30
0.0
 11
75.0
 21
7.8849375
 31
0.0
  0
LINE
  5
59F
330
18
100
AcDbEntity
  8
1
 62
     1
100
AcDbLine
 10
77.50000000000001
 20
7.8849375
 30
0.0
 11
76.27886752691897
 21
9.999999999999995
 31
0.0
  0
LINE
  5
5A0
330
18
100
AcDbEntity
  8
1
 62
     1
100
AcDbLine
 10
66.22113247308104
 20
10.00000000000001
 30
0.0
 11
65.00000000000001
 21
7.8849375
 31
0.0
  0
LINE
  5
5A1
330
18
100
AcDbEntity
  8
1
 62
     1
100
AcDbLine
 10
65.00000000000001
 20
7.8849375
 30
0.0
 11
64.38943390633071
 21
8.942468502539917
 31
0.0
  0
LINE
  5
5A2
330
18
100
AcDbEntity
  8
1
 62
     1
100
AcDbLine
 10
67.50000000000001
 20
7.8849375
 30
0.0
 11
66.27886752691896
 21
9.999999999999998
 31
0.0
  0
LINE
  5
5A3
330
18
100
AcDbEntity
  8
1
 62
     1
100
AcDbLine
 10
68.72113247308103
 20
10.00000000000001
 30
0.0
 11
67.50000000000001
 21
7.8849375
 31
0.0
  0
LINE
  5
5A4
330
18
100
AcDbEntity
  8
1
 62
     1
100
AcDbLine
 10
70.0
 20
7.884937499999999
 30
0.0
 11
68.77886752691897
 21
9.999999999999998
 31
0.0
  0
LINE
  5
5A5
330
18
100
AcDbEntity
  8
1
 62
     1
100
AcDbLine
 10
93.02676105800563
 20
-8.797313990518626
 30
0.0
 11
94.60096921364428
 21
-8.576078773507403
 31
0.0
  0
LINE
  5
5A6
330
18
100
AcDbEntity
  8
1
 62
     1
100
AcDbLine
 10
90.71438575347331
 20
-9.122289344303438
 30
0.0
 11
91.88020836921005
 21
-8.958447594109685
 31
0.0
  0
LINE
  5
5A7
330
18
100
AcDbEntity
  8
1
 62
     1
100
AcDbLine
 10
88.40201044894098
 20
-9.447264698088244
 30
0.0
 11
89.15944752477586
 21
-9.340816414711968
 31
0.0
  0
LINE
  5
5A8
330
18
100
AcDbEntity
  8
1
 62
     1
100
AcDbLine
 10
86.08963514440869
 20
-9.772240051873055
 30
0.0
 11
86.4386866803417
 21
-9.723185235314245
 31
0.0
  0
LINE
  5
5A9
330
18
100
AcDbEntity
  8
1
 62
     1
100
AcDbLine
 10
83.72113247308104
 20
-10.0
 30
0.0
 11
83.77886752691897
 21
-10.0
 31
0.0
  0
LINE
  5
5AA
330
18
100
AcDbEntity
  8
1
 62
     1
100
AcDbLine
 10
81.22113247308103
 20
-10.0
 30
0.0
 11
81.27886752691903
 21
-10.0
 31
0.0
  0
LINE
  5
5AB
330
18
100
AcDbEntity
  8
1
 62
     1
100
AcDbLine
 10
78.72113247308104
 20
-10.0
 30
0.0
 11
78.77886752691899
 21
-10.0
 31
0.0
  0
LINE
  5
5AC
330
18
100
AcDbEntity
  8
1
 62
     1
100
AcDbLine
 10
76.22113247308103
 20
-10.0
 30
0.0
 11
76.27886752691903
 21
-10.0
 31
0.0
  0
LINE
  5
5AD
330
18
100
AcDbEntity
  8
1
 62
     1
100
AcDbLine
 10
73.72113247308101
 20
-10.0
 30
0.0
 11
73.77886752691903
 21
-10.0
 31
0.0
  0
LINE
  5
5AE
330
18
100
AcDbEntity
  8
1
 62
     1
100
AcDbLine
 10
71.22113247308101
 20
-9.999999999999998
 30
0.0
 11
71.278867526919
 21
-9.999999999999998
 31
0.0
  0
LINE
  5
5AF
330
18
100
AcDbEntity
  8
1
 62
     1
100
AcDbLine
 10
68.72113247308104
 20
-9.999999999999998
 30
0.0
 11
68.778867526919
 21
-9.999999999999998
 31
0.0
  0
LINE
  5
5B0
330
18
100
AcDbEntity
  8
1
 62
     1
100
AcDbLine
 10
66.22113247308103
 20
-10.0
 30
0.0
 11
66.27886752691897
 21
-10.0
 31
0.0
  0
LINE
  5
5B1
330
18
100
AcDbEntity
  8
1
 62
     1
100
AcDbLine
 10
63.72982941
 20
-7.8
 30
0.0
 11
64.38943390633071
 21
-8.94246850253993
 31
0.0
  0
LINE
  5
5B2
330
18
100
AcDbEntity
  8
SK1
100
AcDbLine
 10
0.0000000000000018
 20
8.0
 30
0.0
 11
-30.0
 21
8.0
 31
0.0
  0
LINE
  5
5B3
330
18
100
AcDbEntity
  8
SK1
100
AcDbLine
 10
-44.2
 20
-6.0
 30
0.0
 11
-30.0
 21
-6.0
 31
0.0
  0
LINE
  5
5B4
330
18
100
AcDbEntity
  8
SK1
100
AcDbLine
 10
-30.0
 20
-6.000000000000001
 30
0.0
 11
-30.0
 21
-8.0
 31
0.0
  0
LINE
  5
5B5
330
18
100
AcDbEntity
  8
SK1
100
AcDbLine
 10
-44.2
 20
5.291502622129183
 30
0.0
 11
-30.0
 21
5.291502622129183
 31
0.0
  0
LINE
  5
5B6
330
18
100
AcDbEntity
  8
SK1
100
AcDbLine
 10
-44.2
 20
6.0
 30
0.0
 11
-30.0
 21
6.0
 31
0.0
  0
ARC
  5
5B7
330
18
100
AcDbEntity
  8
SK1
100
AcDbCircle
 10
-28.37461810038426
 20
-5.268278464119851
 30
0.0
 40
19.02461876913062
100
AcDbArc
 50
146.2860609758307
 51
150.9140540140714
  0
LINE
  5
5B8
330
18
100
AcDbEntity
  8
SK1
100
AcDbLine
 10
-44.2
 20
6.000000000000002
 30
0.0
 11
-44.2
 21
5.291502622129183
 31
0.0
  0
LINE
  5
5B9
330
18
100
AcDbEntity
  8
SK1
100
AcDbLine
 10
-45.0
 20
6.000000000000002
 30
0.0
 11
-44.2
 21
6.000000000000002
 31
0.0
  0
LINE
  5
5BA
330
18
100
AcDbEntity
  8
SK1
100
AcDbLine
 10
-30.0
 20
8.0
 30
0.0
 11
-30.0
 21
7.999581057069505
 31
0.0
  0
LINE
  5
5BB
330
18
100
AcDbEntity
  8
SK1
100
AcDbLine
 10
-30.0
 20
7.999581057069505
 30
0.0
 11
-30.0
 21
7.871315972465617
 31
0.0
  0
LINE
  5
5BC
330
18
100
AcDbEntity
  8
SK1
100
AcDbLine
 10
-30.0
 20
7.871315972465617
 30
0.0
 11
-30.0
 21
6.000000000000001
 31
0.0
  0
LINE
  5
5BD
330
18
100
AcDbEntity
  8
SK1
100
AcDbLine
 10
-44.2
 20
-5.291502622129179
 30
0.0
 11
-44.19999999999999
 21
-6.000000000000002
 31
0.0
  0
LINE
  5
5BE
330
18
100
AcDbEntity
  8
SK1
100
AcDbLine
 10
-45.0
 20
3.979949748426483
 30
0.0
 11
-45.00000000000001
 21
-3.979949748426481
 31
0.0
  0
LINE
  5
5BF
330
18
100
AcDbEntity
  8
SK1
100
AcDbLine
 10
-45.0
 20
6.000000000000001
 30
0.0
 11
-44.99999999999999
 21
3.979949748426481
 31
0.0
  0
LINE
  5
5C0
330
18
100
AcDbEntity
  8
SK1
100
AcDbLine
 10
-45.0
 20
-3.97994974842648
 30
0.0
 11
-44.99999999999999
 21
-5.999999999999999
 31
0.0
  0
ARC
  5
5C1
330
18
100
AcDbEntity
  8
SK1
100
AcDbCircle
 10
-28.37461810040418
 20
5.268278464108
 30
0.0
 40
19.02461876910746
100
AcDbArc
 50
209.0859459859266
 51
213.7139390241729
  0
LINE
  5
5C2
330
18
100
AcDbEntity
  8
SK1
100
AcDbLine
 10
-45.0
 20
-6.0
 30
0.0
 11
-44.2
 21
-6.000000000000001
 31
0.0
  0
LINE
  5
5C3
330
18
100
AcDbEntity
  8
SK1
100
AcDbLine
 10
-30.0
 20
5.291502622129163
 30
0.0
 11
-30.0
 21
-5.291502622129178
 31
0.0
  0
LINE
  5
5C4
330
18
100
AcDbEntity
  8
SK1
100
AcDbLine
 10
-44.2
 20
-5.291502622129178
 30
0.0
 11
-30.0
 21
-5.291502622129178
 31
0.0
  0
LINE
  5
5C5
330
18
100
AcDbEntity
  8
SK1
100
AcDbLine
 10
-30.0
 20
-8.0
 30
0.0
 11
0.0
 21
-8.0
 31
0.0
  0
DIMENSION
  5
5C6
330
18
100
AcDbEntity
  8
2
100
AcDbDimension
  2
*D0
 10
110.0000000000001
 20
-9.999999999999948
 30
0.0
 11
107.6092500000001
 21
0.0000000000000421
 31
0.0
 70
    32
  1
M20
 71
     5
 42
20.0
  3
STANDARD
100
AcDbAlignedDimension
 13
95.0
 23
10.0
 33
0.0
 14
95.0
 24
-10.0
 34
0.0
 50
90.0000000000002
100
AcDbRotatedDimension
  0
DIMENSION
  5
5D3
330
18
100
AcDbEntity
  8
2
100
AcDbDimension
  2
*D1
 10
95.0
 20
75.0
 30
0.0
 11
47.5
 21
77.39075
 31
0.0
 70
    32
  1
<>
 71
     5
 42
95.0
  3
STANDARD
100
AcDbAlignedDimension
 13
0.0
 23
0.0
 33
0.0
 14
95.0
 24
0.0
 34
0.0
100
AcDbRotatedDimension
  0
DIMENSION
  5
5E0
330
18
100
AcDbEntity
  8
SK2
100
AcDbDimension
  2
*D2
 10
-59.99999999995917
 20
-8.000000000153102
 30
0.0
 11
-62.39075
 21
-0.0000000001653035
 31
0.0
 70
    32
  1
%%c<>
 71
     5
 42
16.0
  3
STANDARD
100
AcDbAlignedDimension
 13
-30.0
 23
8.0
 33
0.0
 14
-30.0
 24
-8.0
 34
0.0
 50
90.0000000002924
100
AcDbRotatedDimension
  0
DIMENSION
  5
5ED
330
18
100
AcDbEntity
  8
2
100
AcDbDimension
  2
*D3
 10
95.0
 20
60.0
 30
0.0
 11
79.364914705
 21
62.39775
 31
0.0
 70
    32
  1
<>
 71
     5
 42
31.27017059
  3
STANDARD
100
AcDbAlignedDimension
 13
63.72982941
 23
7.8
 33
0.0
 14
95.0
 24
10.0
 34
0.0
100
AcDbRotatedDimension
  0
DIMENSION
  5
5FA
330
18
100
AcDbEntity
  8
SK2
100
AcDbDimension
  2
*D4
 10
95.0
 20
90.0
 30
0.0
 11
25.0
 21
92.431
 31
0.0
 70
    32
  1
<>
 71
     5
 42
140.0
  3
STANDARD
100
AcDbAlignedDimension
 13
-45.0
 23
10.0
 33
0.0
 14
95.0
 24
10.0
 34
0.0
100
AcDbRotatedDimension
  0
ENDSEC
  0
SECTION
  2
OBJECTS
  0
DICTIONARY
  5
C
330
0
100
AcDbDictionary
281
     1
  3
ACAD_COLOR
350
387
  3
ACAD_GROUP
350
D
  3
ACAD_LAYOUT
350
301
  3
ACAD_MATERIAL
350
386
  3
ACAD_MLEADERSTYLE
350
607
  3
ACAD_MLINESTYLE
350
E
  3
ACAD_PLOTSETTINGS
350
302
  3
ACAD_PLOTSTYLENAME
350
2FF
  3
ACAD_SCALELIST
350
3A0
  3
ACAD_TABLESTYLE
350
388
  3
ACAD_VISUALSTYLE
350
3C5
  3
ACDBHEADERROUNDTRIPXREC
350
608
  3
AcDbVariableDictionary
350
357
  0
DICTIONARY
  5
387
102
{ACAD_REACTORS
330
C
102
}
330
C
100
AcDbDictionary
281
     1
  0
DICTIONARY
  5
D
102
{ACAD_REACTORS
330
C
102
}
330
C
100
AcDbDictionary
281
     1
  0
DICTIONARY
  5
301
102
{ACAD_REACTORS
330
C
102
}
330
C
100
AcDbDictionary
281
     1
  3
Layout1
350
33B
  3
Model
350
303
  0
DICTIONARY
  5
386
102
{ACAD_REACTORS
330
C
102
}
330
C
100
AcDbDictionary
281
     1
  3
ByBlock
350
3C3
  3
ByLayer
350
3C2
  3
Global
350
3C4
  0
DICTIONARY
  5
607
102
{ACAD_REACTORS
330
C
102
}
330
C
100
AcDbDictionary
281
     1
  0
DICTIONARY
  5
E
102
{ACAD_REACTORS
330
C
102
}
330
C
100
AcDbDictionary
281
     1
  3
STANDARD
350
1B
  0
DICTIONARY
  5
302
102
{ACAD_REACTORS
330
C
102
}
330
C
100
AcDbDictionary
281
     1
  0
ACDBDICTIONARYWDFLT
  5
2FF
102
{ACAD_REACTORS
330
C
102
}
330
C
100
AcDbDictionary
281
     1
  3
Normal
350
300
100
AcDbDictionaryWithDefault
340
300
  0
DICTIONARY
  5
3A0
102
{ACAD_REACTORS
330
C
102
}
330
C
100
AcDbDictionary
281
     1
  3
A0
350
3A1
  3
A1
350
3A2
  3
A2
350
3A3
  3
A3
350
3A4
  3
A4
350
3A5
  3
A5
350
3A6
  3
A6
350
3A7
  3
A7
350
3A8
  3
A8
350
3A9
  3
A9
350
3AA
  3
B0
350
3AB
  3
B1
350
3AC
  3
B2
350
3AD
  3
B3
350
3AE
  3
B4
350
3AF
  3
B5
350
3B0
  3
B6
350
3B1
  3
B7
350
3B2
  3
B8
350
3B3
  3
B9
350
3B4
  3
C0
350
3B5
  3
C1
350
3B6
  3
C2
350
3B7
  3
C3
350
3B8
  3
C4
350
3B9
  3
C5
350
3BA
  3
C6
350
3BB
  3
C7
350
3BC
  3
C8
350
3BD
  3
C9
350
3BE
  3
D0
350
3BF
  3
D1
350
3C0
  3
D2
350
3C1
  0
DICTIONARY
  5
388
102
{ACAD_REACTORS
330
C
102
}
330
C
100
AcDbDictionary
281
     1
  3
Standard
350
389
  0
DICTIONARY
  5
3C5
102
{ACAD_REACTORS
330
C
102
}
330
C
100
AcDbDictionary
281
     1
  3
2dWireframe
350
3CA
  3
3D Hidden
350
3CC
  3
3dWireframe
350
3CB
  3
Basic
350
3CD
  3
Brighten
350
3D1
  3
ColorChange
350
3D5
  3
Conceptual
350
3CF
  3
Dim
350
3D0
  3
Facepattern
350
3D4
  3
Flat
350
3C6
  3
FlatWithEdges
350
3C7
  3
Gouraud
350
3C8
  3
GouraudWithEdges
350
3C9
  3
Linepattern
350
3D3
  3
Realistic
350
3CE
  3
Thicken
350
3D2
  0
DICTIONARY
  5
608
102
{ACAD_REACTORS
330
C
102
}
330
C
100
AcDbDictionary
281
     1
  3
COLORDICT
350
609
  3
MATERIALDICT
350
60A
  0
DICTIONARY
  5
357
102
{ACAD_REACTORS
330
C
102
}
330
C
100
AcDbDictionary
281
     1
  3
CANNOSCALE
350
60B
  3
CTABLESTYLE
350
38D
  3
DIMASSOC
350
359
  3
HIDETEXT
350
358
  3
PROJECTNAME
350
38E
  0
LAYOUT
  5
33B
102
{ACAD_REACTORS
330
301
102
}
330
301
100
AcDbPlotSettings
  1

  2
Lexmark Optra PS2
  4

  6

 40
0.0
 41
0.0
 42
0.0
 43
0.0
 44
0.0
 45
0.0
 46
0.0
 47
0.0
 48
0.0
 49
0.0
140
0.0
141
0.0
142
1.0
143
1.0
 70
   688
 72
     0
 73
     0
 74
     5
  7
monochrome.ctb
 75
    16
147
1.0
148
0.0
149
0.0
100
AcDbLayout
  1
Layout1
 70
     1
 71
     1
 10
0.0
 20
0.0
 11
12.0
 21
9.0
 12
0.0
 22
0.0
 32
0.0
 14
0.0
 24
0.0
 34
0.0
 15
0.0
 25
0.0
 35
0.0
146
0.0
 13
0.0
 23
0.0
 33
0.0
 16
1.0
 26
0.0
 36
0.0
 17
0.0
 27
1.0
 37
0.0
 76
     0
330
338
  0
LAYOUT
  5
303
102
{ACAD_REACTORS
330
301
102
}
330
301
100
AcDbPlotSettings
  1

  2
Lexmark Optra Rx
  4
A4
  6

 40
6.805083274841307
 41
5.535083293914794
 42
6.974411010742187
 43
7.14373779296875
 44
209.9733276367186
 45
296.9259948730469
 46
0.0
 47
0.0
 48
0.0
 49
0.0
140
0.0
141
0.0
142
1.0
143
2.976565420630886
 70
 11952
 72
     1
 73
     1
 74
     0
  7
monochrome.ctb
 75
     0
147
0.335957675604539
148
204.1199660668592
149
172.3933209647495
100
AcDbLayout
  1
Model
 70
     1
 71
     0
 10
0.0
 20
0.0
 11
12.0
 21
9.0
 12
0.0
 22
0.0
 32
0.0
 14
0.0
 24
0.0
 34
0.0
 15
0.0
 25
0.0
 35
0.0
146
0.0
 13
0.0
 23
0.0
 33
0.0
 16
1.0
 26
0.0
 36
0.0
 17
0.0
 27
1.0
 37
0.0
 76
     0
330
18
331
39A
  0
MATERIAL
  5
3C3
102
{ACAD_REACTORS
330
386
102
}
102
{ACAD_XDICTIONARY
360
60E
102
}
330
386
100
AcDbMaterial
  1
ByBlock
  0
MATERIAL
  5
3C2
102
{ACAD_REACTORS
330
386
102
}
102
{ACAD_XDICTIONARY
360
60C
102
}
330
386
100
AcDbMaterial
  1
ByLayer
  0
MATERIAL
  5
3C4
102
{ACAD_REACTORS
330
386
102
}
102
{ACAD_XDICTIONARY
360
610
102
}
330
386
100
AcDbMaterial
  1
Global
  0
MLINESTYLE
  5
1B
102
{ACAD_REACTORS
330
E
102
}
330
E
100
AcDbMlineStyle
  2
STANDARD
 70
     0
  3

 62
     0
 51
90.0
 52
90.0
 71
     2
 49
0.5
 62
   256
  6
BYLAYER
 49
-0.5
 62
   256
  6
BYLAYER
  0
ACDBPLACEHOLDER
  5
300
102
{ACAD_REACTORS
330
2FF
102
}
330
2FF
  0
SCALE
  5
3A1
102
{ACAD_REACTORS
330
3A0
102
}
330
3A0
100
AcDbScale
 70
     0
300
1:1
140
1.0
141
1.0
290
     1
  0
SCALE
  5
3A2
102
{ACAD_REACTORS
330
3A0
102
}
330
3A0
100
AcDbScale
 70
     0
300
1:2
140
1.0
141
2.0
290
     0
  0
SCALE
  5
3A3
102
{ACAD_REACTORS
330
3A0
102
}
330
3A0
100
AcDbScale
 70
     0
300
1:4
140
1.0
141
4.0
290
     0
  0
SCALE
  5
3A4
102
{ACAD_REACTORS
330
3A0
102
}
330
3A0
100
AcDbScale
 70
     0
300
1:5
140
1.0
141
5.0
290
     0
  0
SCALE
  5
3A5
102
{ACAD_REACTORS
330
3A0
102
}
330
3A0
100
AcDbScale
 70
     0
300
1:8
140
1.0
141
8.0
290
     0
  0
SCALE
  5
3A6
102
{ACAD_REACTORS
330
3A0
102
}
330
3A0
100
AcDbScale
 70
     0
300
1:10
140
1.0
141
10.0
290
     0
  0
SCALE
  5
3A7
102
{ACAD_REACTORS
330
3A0
102
}
330
3A0
100
AcDbScale
 70
     0
300
1:16
140
1.0
141
16.0
290
     0
  0
SCALE
  5
3A8
102
{ACAD_REACTORS
330
3A0
102
}
330
3A0
100
AcDbScale
 70
     0
300
1:20
140
1.0
141
20.0
290
     0
  0
SCALE
  5
3A9
102
{ACAD_REACTORS
330
3A0
102
}
330
3A0
100
AcDbScale
 70
     0
300
1:30
140
1.0
141
30.0
290
     0
  0
SCALE
  5
3AA
102
{ACAD_REACTORS
330
3A0
102
}
330
3A0
100
AcDbScale
 70
     0
300
1:40
140
1.0
141
40.0
290
     0
  0
SCALE
  5
3AB
102
{ACAD_REACTORS
330
3A0
102
}
330
3A0
100
AcDbScale
 70
     0
300
1:50
140
1.0
141
50.0
290
     0
  0
SCALE
  5
3AC
102
{ACAD_REACTORS
330
3A0
102
}
330
3A0
100
AcDbScale
 70
     0
300
1:100
140
1.0
141
100.0
290
     0
  0
SCALE
  5
3AD
102
{ACAD_REACTORS
330
3A0
102
}
330
3A0
100
AcDbScale
 70
     0
300
2:1
140
2.0
141
1.0
290
     0
  0
SCALE
  5
3AE
102
{ACAD_REACTORS
330
3A0
102
}
330
3A0
100
AcDbScale
 70
     0
300
4:1
140
4.0
141
1.0
290
     0
  0
SCALE
  5
3AF
102
{ACAD_REACTORS
330
3A0
102
}
330
3A0
100
AcDbScale
 70
     0
300
8:1
140
8.0
141
1.0
290
     0
  0
SCALE
  5
3B0
102
{ACAD_REACTORS
330
3A0
102
}
330
3A0
100
AcDbScale
 70
     0
300
10:1
140
10.0
141
1.0
290
     0
  0
SCALE
  5
3B1
102
{ACAD_REACTORS
330
3A0
102
}
330
3A0
100
AcDbScale
 70
     0
300
100:1
140
100.0
141
1.0
290
     0
  0
SCALE
  5
3B2
102
{ACAD_REACTORS
330
3A0
102
}
330
3A0
100
AcDbScale
 70
     0
300
1/128" = 1'-0"
140
0.0078125
141
12.0
290
     0
  0
SCALE
  5
3B3
102
{ACAD_REACTORS
330
3A0
102
}
330
3A0
100
AcDbScale
 70
     0
300
1/64" = 1'-0"
140
0.015625
141
12.0
290
     0
  0
SCALE
  5
3B4
102
{ACAD_REACTORS
330
3A0
102
}
330
3A0
100
AcDbScale
 70
     0
300
1/32" = 1'-0"
140
0.03125
141
12.0
290
     0
  0
SCALE
  5
3B5
102
{ACAD_REACTORS
330
3A0
102
}
330
3A0
100
AcDbScale
 70
     0
300
1/16" = 1'-0"
140
0.0625
141
12.0
290
     0
  0
SCALE
  5
3B6
102
{ACAD_REACTORS
330
3A0
102
}
330
3A0
100
AcDbScale
 70
     0
300
3/32" = 1'-0"
140
0.09375
141
12.0
290
     0
  0
SCALE
  5
3B7
102
{ACAD_REACTORS
330
3A0
102
}
330
3A0
100
AcDbScale
 70
     0
300
1/8" = 1'-0"
140
0.125
141
12.0
290
     0
  0
SCALE
  5
3B8
102
{ACAD_REACTORS
330
3A0
102
}
330
3A0
100
AcDbScale
 70
     0
300
3/16" = 1'-0"
140
0.1875
141
12.0
290
     0
  0
SCALE
  5
3B9
102
{ACAD_REACTORS
330
3A0
102
}
330
3A0
100
AcDbScale
 70
     0
300
1/4" = 1'-0"
140
0.25
141
12.0
290
     0
  0
SCALE
  5
3BA
102
{ACAD_REACTORS
330
3A0
102
}
330
3A0
100
AcDbScale
 70
     0
300
3/8" = 1'-0"
140
0.375
141
12.0
290
     0
  0
SCALE
  5
3BB
102
{ACAD_REACTORS
330
3A0
102
}
330
3A0
100
AcDbScale
 70
     0
300
1/2" = 1'-0"
140
0.5
141
12.0
290
     0
  0
SCALE
  5
3BC
102
{ACAD_REACTORS
330
3A0
102
}
330
3A0
100
AcDbScale
 70
     0
300
3/4" = 1'-0"
140
0.75
141
12.0
290
     0
  0
SCALE
  5
3BD
102
{ACAD_REACTORS
330
3A0
102
}
330
3A0
100
AcDbScale
 70
     0
300
1" = 1'-0"
140
1.0
141
12.0
290
     0
  0
SCALE
  5
3BE
102
{ACAD_REACTORS
330
3A0
102
}
330
3A0
100
AcDbScale
 70
     0
300
1-1/2" = 1'-0"
140
1.5
141
12.0
290
     0
  0
SCALE
  5
3BF
102
{ACAD_REACTORS
330
3A0
102
}
330
3A0
100
AcDbScale
 70
     0
300
3" = 1'-0"
140
3.0
141
12.0
290
     0
  0
SCALE
  5
3C0
102
{ACAD_REACTORS
330
3A0
102
}
330
3A0
100
AcDbScale
 70
     0
300
6" = 1'-0"
140
6.0
141
12.0
290
     0
  0
SCALE
  5
3C1
102
{ACAD_REACTORS
330
3A0
102
}
330
3A0
100
AcDbScale
 70
     0
300
1'-0" = 1'-0"
140
12.0
141
12.0
290
     0
  0
TABLESTYLE
  5
389
102
{ACAD_REACTORS
330
388
102
}
330
388
100
AcDbTableStyle
  3
Standard
 70
     0
 71
     0
 40
1.5
 41
1.5
280
     0
281
     0
  7
STANDARD
140
4.5
170
     2
 62
     0
 63
   257
283
     0
274
    -2
284
     1
 64
     0
275
    -2
285
     1
 65
     0
276
    -2
286
     1
 66
     0
277
    -2
287
     1
 67
     0
278
    -2
288
     1
 68
     0
279
    -2
289
     1
 69
     0
  7
STANDARD
140
6.0
170
     5
 62
     0
 63
   257
283
     0
274
    -2
284
     1
 64
     0
275
    -2
285
     1
 65
     0
276
    -2
286
     1
 66
     0
277
    -2
287
     1
 67
     0
278
    -2
288
     1
 68
     0
279
    -2
289
     1
 69
     0
  7
STANDARD
140
4.5
170
     5
 62
     0
 63
   257
283
     0
274
    -2
284
     1
 64
     0
275
    -2
285
     1
 65
     0
276
    -2
286
     1
 66
     0
277
    -2
287
     1
 67
     0
278
    -2
288
     1
 68
     0
279
    -2
289
     1
 69
     0
  0
VISUALSTYLE
  5
3CA
102
{ACAD_REACTORS
330
3C5
102
}
102
{ACAD_XDICTIONARY
360
61A
102
}
330
3C5
100
AcDbVisualStyle
  2
2dWireframe
 70
     4
 71
     0
 72
     2
 73
     0
 90
        0
 40
-0.6
 41
-30.0
 62
     5
 63
     7
 74
     1
 91
        4
 64
     7
 65
   257
 75
     1
175
     1
 42
1.0
 92
        0
 66
   257
 43
1.0
 76
     1
 77
     6
 78
     2
 67
     7
 79
     5
170
     0
171
     0
290
     0
174
     0
 93
        1
 44
0.0
173
     0
291
     0
 45
0.0
1001
ACAD
1000
AcDbSavedByObjectVersion
1070
     0
  0
VISUALSTYLE
  5
3CC
102
{ACAD_REACTORS
330
3C5
102
}
102
{ACAD_XDICTIONARY
360
61E
102
}
330
3C5
100
AcDbVisualStyle
  2
3D Hidden
 70
     6
 71
     1
 72
     2
 73
     2
 90
        0
 40
-0.6
 41
-30.0
 62
     5
 63
     7
 74
     2
 91
        2
 64
     7
 65
   257
 75
     2
175
     1
 42
40.0
 92
        0
 66
   257
 43
1.0
 76
     1
 77
     6
 78
     2
 67
     7
 79
     3
170
     0
171
     0
290
     0
174
     0
 93
        1
 44
0.0
173
     0
291
     0
 45
0.0
1001
ACAD
1000
AcDbSavedByObjectVersion
1070
     0
  0
VISUALSTYLE
  5
3CB
102
{ACAD_REACTORS
330
3C5
102
}
102
{ACAD_XDICTIONARY
360
61C
102
}
330
3C5
100
AcDbVisualStyle
  2
3dWireframe
 70
     5
 71
     0
 72
     2
 73
     0
 90
        0
 40
-0.6
 41
-30.0
 62
     5
 63
     7
 74
     1
 91
        4
 64
     7
 65
   257
 75
     1
175
     1
 42
1.0
 92
        0
 66
   257
 43
1.0
 76
     1
 77
     6
 78
     2
 67
     7
 79
     5
170
     0
171
     0
290
     0
174
     0
 93
        1
 44
0.0
173
     0
291
     0
 45
0.0
1001
ACAD
1000
AcDbSavedByObjectVersion
1070
     0
  0
VISUALSTYLE
  5
3CD
102
{ACAD_REACTORS
330
3C5
102
}
102
{ACAD_XDICTIONARY
360
620
102
}
330
3C5
100
AcDbVisualStyle
  2
Basic
 70
     7
 71
     1
 72
     0
 73
     1
 90
        0
 40
-0.6
 41
-30.0
 62
     5
 63
     7
 74
     0
 91
        4
 64
     7
 65
   257
 75
     1
175
     1
 42
1.0
 92
        8
 66
     7
 43
1.0
 76
     1
 77
     6
 78
     2
 67
     7
 79
     5
170
     0
171
     0
290
     0
174
     0
 93
        1
 44
0.0
173
     0
291
     1
 45
0.0
1001
ACAD
1000
AcDbSavedByObjectVersion
1070
     0
  0
VISUALSTYLE
  5
3D1
102
{ACAD_REACTORS
330
3C5
102
}
102
{ACAD_XDICTIONARY
360
628
102
}
330
3C5
100
AcDbVisualStyle
  2
Brighten
 70
    12
 71
     2
 72
     2
 73
     0
 90
        0
 40
-0.6
 41
-30.0
 62
     5
 63
     7
 74
     1
 91
        4
 64
     7
 65
   257
 75
     1
175
     1
 42
1.0
 92
        8
 66
     7
 43
1.0
 76
     1
 77
     6
 78
     2
 67
     7
 79
     5
170
     0
171
     0
290
     0
174
     0
 93
        1
 44
50.0
173
     0
291
     1
 45
0.0
1001
ACAD
1000
AcDbSavedByObjectVersion
1070
     0
  0
VISUALSTYLE
  5
3D5
102
{ACAD_REACTORS
330
3C5
102
}
102
{ACAD_XDICTIONARY
360
630
102
}
330
3C5
100
AcDbVisualStyle
  2
ColorChange
 70
    16
 71
     2
 72
     2
 73
     3
 90
        0
 40
-0.6
 41
-30.0
 62
     5
 63
     8
 74
     1
 91
        4
 64
     7
 65
   257
 75
     1
175
     1
 42
1.0
 92
        8
 66
     8
 43
1.0
 76
     1
 77
     6
 78
     2
 67
     7
 79
     5
170
     0
171
     0
290
     0
174
     0
 93
        1
 44
0.0
173
     0
291
     1
 45
0.0
1001
ACAD
1000
AcDbSavedByObjectVersion
1070
     0
  0
VISUALSTYLE
  5
3CF
102
{ACAD_REACTORS
330
3C5
102
}
102
{ACAD_XDICTIONARY
360
624
102
}
330
3C5
100
AcDbVisualStyle
  2
Conceptual
 70
     9
 71
     3
 72
     2
 73
     0
 90
        0
 40
-0.6
 41
-30.0
 62
     5
 63
     7
 74
     2
 91
        2
 64
     7
 65
   257
 75
     1
175
     1
 42
40.0
 92
        8
 66
     7
 43
1.0
 76
     1
 77
     6
 78
     2
 67
     7
 79
     3
170
     0
171
     0
290
     0
174
     0
 93
        1
 44
0.0
173
     0
291
     0
 45
0.0
1001
ACAD
1000
AcDbSavedByObjectVersion
1070
     0
  0
VISUALSTYLE
  5
3D0
102
{ACAD_REACTORS
330
3C5
102
}
102
{ACAD_XDICTIONARY
360
626
102
}
330
3C5
100
AcDbVisualStyle
  2
Dim
 70
    11
 71
     2
 72
     2
 73
     0
 90
        0
 40
-0.6
 41
-30.0
 62
     5
 63
     7
 74
     1
 91
        4
 64
     7
 65
   257
 75
     1
175
     1
 42
1.0
 92
        8
 66
     7
 43
1.0
 76
     1
 77
     6
 78
     2
 67
     7
 79
     5
170
     0
171
     0
290
     0
174
     0
 93
        1
 44
-50.0
173
     0
291
     1
 45
0.0
1001
ACAD
1000
AcDbSavedByObjectVersion
1070
     0
  0
VISUALSTYLE
  5
3D4
102
{ACAD_REACTORS
330
3C5
102
}
102
{ACAD_XDICTIONARY
360
62E
102
}
330
3C5
100
AcDbVisualStyle
  2
Facepattern
 70
    15
 71
     2
 72
     2
 73
     0
 90
        0
 40
-0.6
 41
-30.0
 62
     5
 63
     7
 74
     1
 91
        4
 64
     7
 65
   257
 75
     1
175
     1
 42
1.0
 92
        8
 66
     7
 43
1.0
 76
     1
 77
     6
 78
     2
 67
     7
 79
     5
170
     0
171
     0
290
     0
174
     0
 93
        1
 44
0.0
173
     0
291
     1
 45
0.0
1001
ACAD
1000
AcDbSavedByObjectVersion
1070
     0
  0
VISUALSTYLE
  5
3C6
102
{ACAD_REACTORS
330
3C5
102
}
102
{ACAD_XDICTIONARY
360
612
102
}
330
3C5
100
AcDbVisualStyle
  2
Flat
 70
     0
 71
     2
 72
     1
 73
     1
 90
        2
 40
-0.6
 41
30.0
 62
     5
 63
     7
 74
     0
 91
        4
 64
     7
 65
   257
 75
     1
175
     1
 42
1.0
 92
        8
 66
     7
 43
1.0
 76
     1
 77
     6
 78
     2
 67
     7
 79
     5
170
     0
171
     0
290
     0
174
     0
 93
       13
 44
0.0
173
     0
291
     1
 45
0.0
1001
ACAD
1000
AcDbSavedByObjectVersion
1070
     0
  0
VISUALSTYLE
  5
3C7
102
{ACAD_REACTORS
330
3C5
102
}
102
{ACAD_XDICTIONARY
360
614
102
}
330
3C5
100
AcDbVisualStyle
  2
FlatWithEdges
 70
     1
 71
     2
 72
     1
 73
     1
 90
        2
 40
-0.6
 41
30.0
 62
     5
 63
     7
 74
     1
 91
        4
 64
     7
 65
   257
 75
     1
175
     1
 42
1.0
 92
        0
 66
   257
 43
1.0
 76
     1
 77
     6
 78
     2
 67
     7
 79
     5
170
     0
171
     0
290
     0
174
     0
 93
       13
 44
0.0
173
     0
291
     1
 45
0.0
1001
ACAD
1000
AcDbSavedByObjectVersion
1070
     0
  0
VISUALSTYLE
  5
3C8
102
{ACAD_REACTORS
330
3C5
102
}
102
{ACAD_XDICTIONARY
360
616
102
}
330
3C5
100
AcDbVisualStyle
  2
Gouraud
 70
     2
 71
     2
 72
     2
 73
     1
 90
        2
 40
-0.6
 41
30.0
 62
     5
 63
     7
 74
     0
 91
        4
 64
     7
 65
   257
 75
     1
175
     1
 42
1.0
 92
        0
 66
     7
 43
1.0
 76
     1
 77
     6
 78
     2
 67
     7
 79
     5
170
     0
171
     0
290
     0
174
     0
 93
       13
 44
0.0
173
     0
291
     1
 45
0.0
1001
ACAD
1000
AcDbSavedByObjectVersion
1070
     0
  0
VISUALSTYLE
  5
3C9
102
{ACAD_REACTORS
330
3C5
102
}
102
{ACAD_XDICTIONARY
360
618
102
}
330
3C5
100
AcDbVisualStyle
  2
GouraudWithEdges
 70
     3
 71
     2
 72
     2
 73
     1
 90
        2
 40
-0.6
 41
30.0
 62
     5
 63
     7
 74
     1
 91
        4
 64
     7
 65
   257
 75
     1
175
     1
 42
1.0
 92
        0
 66
   257
 43
1.0
 76
     1
 77
     6
 78
     2
 67
     7
 79
     5
170
     0
171
     0
290
     0
174
     0
 93
       13
 44
0.0
173
     0
291
     1
 45
0.0
1001
ACAD
1000
AcDbSavedByObjectVersion
1070
     0
  0
VISUALSTYLE
  5
3D3
102
{ACAD_REACTORS
330
3C5
102
}
102
{ACAD_XDICTIONARY
360
62C
102
}
330
3C5
100
AcDbVisualStyle
  2
Linepattern
 70
    14
 71
     2
 72
     2
 73
     0
 90
        0
 40
-0.6
 41
-30.0
 62
     5
 63
     7
 74
     1
 91
        4
 64
     7
 65
   257
 75
     7
175
     7
 42
1.0
 92
        8
 66
     7
 43
1.0
 76
     1
 77
     6
 78
     2
 67
     7
 79
     5
170
     0
171
     0
290
     0
174
     0
 93
        1
 44
0.0
173
     0
291
     1
 45
0.0
1001
ACAD
1000
AcDbSavedByObjectVersion
1070
     0
  0
VISUALSTYLE
  5
3CE
102
{ACAD_REACTORS
330
3C5
102
}
102
{ACAD_XDICTIONARY
360
622
102
}
330
3C5
100
AcDbVisualStyle
  2
Realistic
 70
     8
 71
     2
 72
     2
 73
     0
 90
        0
 40
-0.6
 41
-30.0
 62
     5
 63
     7
 74
     1
 91
        0
 64
     7
 65
   257
 75
     1
175
     1
 42
1.0
 92
        8
 66
     8
 43
1.0
 76
     1
 77
     6
 78
     2
 67
     7
 79
     5
170
     0
171
     0
290
     0
174
     0
 93
       13
 44
0.0
173
     0
291
     0
 45
0.0
1001
ACAD
1000
AcDbSavedByObjectVersion
1070
     0
  0
VISUALSTYLE
  5
3D2
102
{ACAD_REACTORS
330
3C5
102
}
102
{ACAD_XDICTIONARY
360
62A
102
}
330
3C5
100
AcDbVisualStyle
  2
Thicken
 70
    13
 71
     2
 72
     2
 73
     0
 90
        0
 40
-0.6
 41
-30.0
 62
     5
 63
     7
 74
     1
 91
        4
 64
     7
 65
   257
 75
     1
175
     1
 42
1.0
 92
       12
 66
     7
 43
1.0
 76
     1
 77
     6
 78
     2
 67
     7
 79
     5
170
     0
171
     0
290
     0
174
     0
 93
        1
 44
0.0
173
     0
291
     1
 45
0.0
1001
ACAD
1000
AcDbSavedByObjectVersion
1070
     0
  0
XRECORD
  5
609
102
{ACAD_REACTORS
330
608
102
}
330
608
100
AcDbXrecord
280
     1
340
387
  0
XRECORD
  5
60A
102
{ACAD_REACTORS
330
608
102
}
330
608
100
AcDbXrecord
280
     1
340
386
  0
DICTIONARYVAR
  5
60B
102
{ACAD_REACTORS
330
357
102
}
330
357
100
DictionaryVariables
280
     0
  1
1:1
  0
DICTIONARYVAR
  5
38D
102
{ACAD_REACTORS
330
357
102
}
330
357
100
DictionaryVariables
280
     0
  1
Standard
  0
DICTIONARYVAR
  5
359
102
{ACAD_REACTORS
330
357
102
}
330
357
100
DictionaryVariables
280
     0
  1
2
  0
DICTIONARYVAR
  5
358
102
{ACAD_REACTORS
330
357
102
}
330
357
100
DictionaryVariables
280
     0
  1
1
  0
DICTIONARYVAR
  5
38E
102
{ACAD_REACTORS
330
357
102
}
330
357
100
DictionaryVariables
280
     0
  1

  0
DICTIONARY
  5
60E
330
3C3
100
AcDbDictionary
280
     1
281
     1
  3
ACAD_XREC_ROUNDTRIP
360
60F
  0
DICTIONARY
  5
60C
330
3C2
100
AcDbDictionary
280
     1
281
     1
  3
ACAD_XREC_ROUNDTRIP
360
60D
  0
DICTIONARY
  5
610
330
3C4
100
AcDbDictionary
280
     1
281
     1
  3
ACAD_XREC_ROUNDTRIP
360
611
  0
DICTIONARY
  5
61A
330
3CA
100
AcDbDictionary
280
     1
281
     1
  3
ACAD_XREC_ROUNDTRIP
360
61B
  0
DICTIONARY
  5
61E
330
3CC
100
AcDbDictionary
280
     1
281
     1
  3
ACAD_XREC_ROUNDTRIP
360
61F
  0
DICTIONARY
  5
61C
330
3CB
100
AcDbDictionary
280
     1
281
     1
  3
ACAD_XREC_ROUNDTRIP
360
61D
  0
DICTIONARY
  5
620
330
3CD
100
AcDbDictionary
280
     1
281
     1
  3
ACAD_XREC_ROUNDTRIP
360
621
  0
DICTIONARY
  5
628
330
3D1
100
AcDbDictionary
280
     1
281
     1
  3
ACAD_XREC_ROUNDTRIP
360
629
  0
DICTIONARY
  5
630
330
3D5
100
AcDbDictionary
280
     1
281
     1
  3
ACAD_XREC_ROUNDTRIP
360
631
  0
DICTIONARY
  5
624
330
3CF
100
AcDbDictionary
280
     1
281
     1
  3
ACAD_XREC_ROUNDTRIP
360
625
  0
DICTIONARY
  5
626
330
3D0
100
AcDbDictionary
280
     1
281
     1
  3
ACAD_XREC_ROUNDTRIP
360
627
  0
DICTIONARY
  5
62E
330
3D4
100
AcDbDictionary
280
     1
281
     1
  3
ACAD_XREC_ROUNDTRIP
360
62F
  0
DICTIONARY
  5
612
330
3C6
100
AcDbDictionary
280
     1
281
     1
  3
ACAD_XREC_ROUNDTRIP
360
613
  0
DICTIONARY
  5
614
330
3C7
100
AcDbDictionary
280
     1
281
     1
  3
ACAD_XREC_ROUNDTRIP
360
615
  0
DICTIONARY
  5
616
330
3C8
100
AcDbDictionary
280
     1
281
     1
  3
ACAD_XREC_ROUNDTRIP
360
617
  0
DICTIONARY
  5
618
330
3C9
100
AcDbDictionary
280
     1
281
     1
  3
ACAD_XREC_ROUNDTRIP
360
619
  0
DICTIONARY
  5
62C
330
3D3
100
AcDbDictionary
280
     1
281
     1
  3
ACAD_XREC_ROUNDTRIP
360
62D
  0
DICTIONARY
  5
622
330
3CE
100
AcDbDictionary
280
     1
281
     1
  3
ACAD_XREC_ROUNDTRIP
360
623
  0
DICTIONARY
  5
62A
330
3D2
100
AcDbDictionary
280
     1
281
     1
  3
ACAD_XREC_ROUNDTRIP
360
62B
  0
XRECORD
  5
60F
102
{ACAD_REACTORS
330
60E
102
}
330
60E
100
AcDbXrecord
280
     1
102
MATERIAL
148
0.0
149
0.0
149
0.0
 93
        0
 94
      127
282
     0
 72
     1
 77
     1
171
     1
175
     1
179
     1
273
     0
  0
XRECORD
  5
60D
102
{ACAD_REACTORS
330
60C
102
}
330
60C
100
AcDbXrecord
280
     1
102
MATERIAL
148
0.0
149
0.0
149
0.0
 93
        0
 94
      127
282
     0
 72
     1
 77
     1
171
     1
175
     1
179
     1
273
     0
  0
XRECORD
  5
611
102
{ACAD_REACTORS
330
610
102
}
330
610
100
AcDbXrecord
280
     1
102
MATERIAL
148
0.0
149
0.0
149
0.0
 93
        0
 94
      127
282
     0
 72
     1
 77
     1
171
     1
175
     1
179
     1
273
     0
  0
XRECORD
  5
61B
102
{ACAD_REACTORS
330
61A
102
}
330
61A
100
AcDbXrecord
280
     1
102
RTVSPropertyOp0
 70
     1
102
RTVSPropertyOp1
 70
     1
102
RTVSPropertyOp2
 70
     1
102
RTVSPropertyOp3
 70
     1
102
RTVSPropertyOp4
 70
     1
102
RTVSPropertyOp5
 70
     1
102
RTVSPropertyOp6
 70
     1
102
RTVSPropertyOp7
 70
     1
102
RTVSPropertyOp8
 70
     1
102
RTVSPropertyOp9
 70
     1
102
RTVSPropertyOp10
 70
     1
102
RTVSPropertyOp11
 70
     1
102
RTVSPropertyOp12
 70
     1
102
RTVSPropertyOp13
 70
     1
102
RTVSPropertyOp14
 70
     1
102
RTVSPropertyOp15
 70
     1
102
RTVSPropertyOp16
 70
     1
102
RTVSPropertyOp17
 70
     1
102
RTVSPropertyOp18
 70
     1
102
RTVSPropertyOp19
 70
     1
102
RTVSPropertyOp20
 70
     1
102
RTVSPropertyOp21
 70
     1
102
RTVSPropertyOp22
 70
     1
102
RTVSPropertyOp23
 70
     1
102
RTVSPropertyOp24
 70
     1
102
RTVSPropertyOp25
 70
     1
102
RTVSPropertyOp26
 70
     1
102
RTVSPropertyOp27
 70
     1
102
RTVSPropertyOp28
 70
     1
102
RTVSPropertyOp29
 70
     1
102
RTVSPropertyOp30
 70
     1
102
RTVSPropertyOp31
 70
     1
102
RTVSPropertyOp32
 70
     1
  0
XRECORD
  5
61F
102
{ACAD_REACTORS
330
61E
102
}
330
61E
100
AcDbXrecord
280
     1
102
RTVSPropertyOp0
 70
     1
102
RTVSPropertyOp1
 70
     1
102
RTVSPropertyOp2
 70
     1
102
RTVSPropertyOp3
 70
     1
102
RTVSPropertyOp4
 70
     1
102
RTVSPropertyOp5
 70
     1
102
RTVSPropertyOp6
 70
     1
102
RTVSPropertyOp7
 70
     1
102
RTVSPropertyOp8
 70
     1
102
RTVSPropertyOp9
 70
     1
102
RTVSPropertyOp10
 70
     1
102
RTVSPropertyOp11
 70
     1
102
RTVSPropertyOp12
 70
     1
102
RTVSPropertyOp13
 70
     1
102
RTVSPropertyOp14
 70
     1
102
RTVSPropertyOp15
 70
     1
102
RTVSPropertyOp16
 70
     1
102
RTVSPropertyOp17
 70
     1
102
RTVSPropertyOp18
 70
     1
102
RTVSPropertyOp19
 70
     1
102
RTVSPropertyOp20
 70
     1
102
RTVSPropertyOp21
 70
     1
102
RTVSPropertyOp22
 70
     1
102
RTVSPropertyOp23
 70
     1
102
RTVSPropertyOp24
 70
     1
102
RTVSPropertyOp25
 70
     1
102
RTVSPropertyOp26
 70
     1
102
RTVSPropertyOp27
 70
     1
102
RTVSPropertyOp28
 70
     1
102
RTVSPropertyOp29
 70
     1
102
RTVSPropertyOp30
 70
     1
102
RTVSPropertyOp31
 70
     1
102
RTVSPropertyOp32
 70
     1
  0
XRECORD
  5
61D
102
{ACAD_REACTORS
330
61C
102
}
330
61C
100
AcDbXrecord
280
     1
102
RTVSPropertyOp0
 70
     1
102
RTVSPropertyOp1
 70
     1
102
RTVSPropertyOp2
 70
     1
102
RTVSPropertyOp3
 70
     1
102
RTVSPropertyOp4
 70
     1
102
RTVSPropertyOp5
 70
     1
102
RTVSPropertyOp6
 70
     1
102
RTVSPropertyOp7
 70
     1
102
RTVSPropertyOp8
 70
     1
102
RTVSPropertyOp9
 70
     1
102
RTVSPropertyOp10
 70
     1
102
RTVSPropertyOp11
 70
     1
102
RTVSPropertyOp12
 70
     1
102
RTVSPropertyOp13
 70
     1
102
RTVSPropertyOp14
 70
     1
102
RTVSPropertyOp15
 70
     1
102
RTVSPropertyOp16
 70
     1
102
RTVSPropertyOp17
 70
     1
102
RTVSPropertyOp18
 70
     1
102
RTVSPropertyOp19
 70
     1
102
RTVSPropertyOp20
 70
     1
102
RTVSPropertyOp21
 70
     1
102
RTVSPropertyOp22
 70
     1
102
RTVSPropertyOp23
 70
     1
102
RTVSPropertyOp24
 70
     1
102
RTVSPropertyOp25
 70
     1
102
RTVSPropertyOp26
 70
     1
102
RTVSPropertyOp27
 70
     1
102
RTVSPropertyOp28
 70
     1
102
RTVSPropertyOp29
 70
     1
102
RTVSPropertyOp30
 70
     1
102
RTVSPropertyOp31
 70
     1
102
RTVSPropertyOp32
 70
     1
  0
XRECORD
  5
621
102
{ACAD_REACTORS
330
620
102
}
330
620
100
AcDbXrecord
280
     1
102
RTVSPropertyOp0
 70
     1
102
RTVSPropertyOp1
 70
     1
102
RTVSPropertyOp2
 70
     1
102
RTVSPropertyOp3
 70
     1
102
RTVSPropertyOp4
 70
     1
102
RTVSPropertyOp5
 70
     1
102
RTVSPropertyOp6
 70
     1
102
RTVSPropertyOp7
 70
     1
102
RTVSPropertyOp8
 70
     1
102
RTVSPropertyOp9
 70
     1
102
RTVSPropertyOp10
 70
     1
102
RTVSPropertyOp11
 70
     1
102
RTVSPropertyOp12
 70
     1
102
RTVSPropertyOp13
 70
     1
102
RTVSPropertyOp14
 70
     1
102
RTVSPropertyOp15
 70
     1
102
RTVSPropertyOp16
 70
     1
102
RTVSPropertyOp17
 70
     1
102
RTVSPropertyOp18
 70
     1
102
RTVSPropertyOp19
 70
     1
102
RTVSPropertyOp20
 70
     1
102
RTVSPropertyOp21
 70
     1
102
RTVSPropertyOp22
 70
     1
102
RTVSPropertyOp23
 70
     1
102
RTVSPropertyOp24
 70
     1
102
RTVSPropertyOp25
 70
     1
102
RTVSPropertyOp26
 70
     1
102
RTVSPropertyOp27
 70
     1
102
RTVSPropertyOp28
 70
     1
102
RTVSPropertyOp29
 70
     1
102
RTVSPropertyOp30
 70
     1
102
RTVSPropertyOp31
 70
     1
102
RTVSPropertyOp32
 70
     1
  0
XRECORD
  5
629
102
{ACAD_REACTORS
330
628
102
}
330
628
100
AcDbXrecord
280
     1
102
RTVSPropertyOp0
 70
     1
102
RTVSPropertyOp1
 70
     1
102
RTVSPropertyOp2
 70
     1
102
RTVSPropertyOp3
 70
     1
102
RTVSPropertyOp4
 70
     1
102
RTVSPropertyOp5
 70
     1
102
RTVSPropertyOp6
 70
     1
102
RTVSPropertyOp7
 70
     1
102
RTVSPropertyOp8
 70
     1
102
RTVSPropertyOp9
 70
     1
102
RTVSPropertyOp10
 70
     1
102
RTVSPropertyOp11
 70
     1
102
RTVSPropertyOp12
 70
     1
102
RTVSPropertyOp13
 70
     1
102
RTVSPropertyOp14
 70
     1
102
RTVSPropertyOp15
 70
     1
102
RTVSPropertyOp16
 70
     1
102
RTVSPropertyOp17
 70
     1
102
RTVSPropertyOp18
 70
     1
102
RTVSPropertyOp19
 70
     1
102
RTVSPropertyOp20
 70
     1
102
RTVSPropertyOp21
 70
     1
102
RTVSPropertyOp22
 70
     1
102
RTVSPropertyOp23
 70
     1
102
RTVSPropertyOp24
 70
     1
102
RTVSPropertyOp25
 70
     1
102
RTVSPropertyOp26
 70
     1
102
RTVSPropertyOp27
 70
     1
102
RTVSPropertyOp28
 70
     1
102
RTVSPropertyOp29
 70
     1
102
RTVSPropertyOp30
 70
     1
102
RTVSPropertyOp31
 70
     1
102
RTVSPropertyOp32
 70
     1
  0
XRECORD
  5
631
102
{ACAD_REACTORS
330
630
102
}
330
630
100
AcDbXrecord
280
     1
102
RTVSPropertyOp0
 70
     1
102
RTVSPropertyOp1
 70
     1
102
RTVSPropertyOp2
 70
     1
102
RTVSPropertyOp3
 70
     1
102
RTVSPropertyOp4
 70
     1
102
RTVSPropertyOp5
 70
     1
102
RTVSPropertyOp6
 70
     1
102
RTVSPropertyOp7
 70
     1
102
RTVSPropertyOp8
 70
     1
102
RTVSPropertyOp9
 70
     1
102
RTVSPropertyOp10
 70
     1
102
RTVSPropertyOp11
 70
     1
102
RTVSPropertyOp12
 70
     1
102
RTVSPropertyOp13
 70
     1
102
RTVSPropertyOp14
 70
     1
102
RTVSPropertyOp15
 70
     1
102
RTVSPropertyOp16
 70
     1
102
RTVSPropertyOp17
 70
     1
102
RTVSPropertyOp18
 70
     1
102
RTVSPropertyOp19
 70
     1
102
RTVSPropertyOp20
 70
     1
102
RTVSPropertyOp21
 70
     1
102
RTVSPropertyOp22
 70
     1
102
RTVSPropertyOp23
 70
     1
102
RTVSPropertyOp24
 70
     1
102
RTVSPropertyOp25
 70
     1
102
RTVSPropertyOp26
 70
     1
102
RTVSPropertyOp27
 70
     1
102
RTVSPropertyOp28
 70
     1
102
RTVSPropertyOp29
 70
     1
102
RTVSPropertyOp30
 70
     1
102
RTVSPropertyOp31
 70
     1
102
RTVSPropertyOp32
 70
     1
  0
XRECORD
  5
625
102
{ACAD_REACTORS
330
624
102
}
330
624
100
AcDbXrecord
280
     1
102
RTVSPropertyOp0
 70
     1
102
RTVSPropertyOp1
 70
     1
102
RTVSPropertyOp2
 70
     1
102
RTVSPropertyOp3
 70
     1
102
RTVSPropertyOp4
 70
     1
102
RTVSPropertyOp5
 70
     1
102
RTVSPropertyOp6
 70
     1
102
RTVSPropertyOp7
 70
     1
102
RTVSPropertyOp8
 70
     1
102
RTVSPropertyOp9
 70
     1
102
RTVSPropertyOp10
 70
     1
102
RTVSPropertyOp11
 70
     1
102
RTVSPropertyOp12
 70
     1
102
RTVSPropertyOp13
 70
     1
102
RTVSPropertyOp14
 70
     1
102
RTVSPropertyOp15
 70
     1
102
RTVSPropertyOp16
 70
     1
102
RTVSPropertyOp17
 70
     1
102
RTVSPropertyOp18
 70
     1
102
RTVSPropertyOp19
 70
     1
102
RTVSPropertyOp20
 70
     1
102
RTVSPropertyOp21
 70
     1
102
RTVSPropertyOp22
 70
     1
102
RTVSPropertyOp23
 70
     1
102
RTVSPropertyOp24
 70
     1
102
RTVSPropertyOp25
 70
     1
102
RTVSPropertyOp26
 70
     1
102
RTVSPropertyOp27
 70
     1
102
RTVSPropertyOp28
 70
     1
102
RTVSPropertyOp29
 70
     1
102
RTVSPropertyOp30
 70
     1
102
RTVSPropertyOp31
 70
     1
102
RTVSPropertyOp32
 70
     1
  0
XRECORD
  5
627
102
{ACAD_REACTORS
330
626
102
}
330
626
100
AcDbXrecord
280
     1
102
RTVSPropertyOp0
 70
     1
102
RTVSPropertyOp1
 70
     1
102
RTVSPropertyOp2
 70
     1
102
RTVSPropertyOp3
 70
     1
102
RTVSPropertyOp4
 70
     1
102
RTVSPropertyOp5
 70
     1
102
RTVSPropertyOp6
 70
     1
102
RTVSPropertyOp7
 70
     1
102
RTVSPropertyOp8
 70
     1
102
RTVSPropertyOp9
 70
     1
102
RTVSPropertyOp10
 70
     1
102
RTVSPropertyOp11
 70
     1
102
RTVSPropertyOp12
 70
     1
102
RTVSPropertyOp13
 70
     1
102
RTVSPropertyOp14
 70
     1
102
RTVSPropertyOp15
 70
     1
102
RTVSPropertyOp16
 70
     1
102
RTVSPropertyOp17
 70
     1
102
RTVSPropertyOp18
 70
     1
102
RTVSPropertyOp19
 70
     1
102
RTVSPropertyOp20
 70
     1
102
RTVSPropertyOp21
 70
     1
102
RTVSPropertyOp22
 70
     1
102
RTVSPropertyOp23
 70
     1
102
RTVSPropertyOp24
 70
     1
102
RTVSPropertyOp25
 70
     1
102
RTVSPropertyOp26
 70
     1
102
RTVSPropertyOp27
 70
     1
102
RTVSPropertyOp28
 70
     1
102
RTVSPropertyOp29
 70
     1
102
RTVSPropertyOp30
 70
     1
102
RTVSPropertyOp31
 70
     1
102
RTVSPropertyOp32
 70
     1
  0
XRECORD
  5
62F
102
{ACAD_REACTORS
330
62E
102
}
330
62E
100
AcDbXrecord
280
     1
102
RTVSPropertyOp0
 70
     1
102
RTVSPropertyOp1
 70
     1
102
RTVSPropertyOp2
 70
     1
102
RTVSPropertyOp3
 70
     1
102
RTVSPropertyOp4
 70
     1
102
RTVSPropertyOp5
 70
     1
102
RTVSPropertyOp6
 70
     1
102
RTVSPropertyOp7
 70
     1
102
RTVSPropertyOp8
 70
     1
102
RTVSPropertyOp9
 70
     1
102
RTVSPropertyOp10
 70
     1
102
RTVSPropertyOp11
 70
     1
102
RTVSPropertyOp12
 70
     1
102
RTVSPropertyOp13
 70
     1
102
RTVSPropertyOp14
 70
     1
102
RTVSPropertyOp15
 70
     1
102
RTVSPropertyOp16
 70
     1
102
RTVSPropertyOp17
 70
     1
102
RTVSPropertyOp18
 70
     1
102
RTVSPropertyOp19
 70
     1
102
RTVSPropertyOp20
 70
     1
102
RTVSPropertyOp21
 70
     1
102
RTVSPropertyOp22
 70
     1
102
RTVSPropertyOp23
 70
     1
102
RTVSPropertyOp24
 70
     1
102
RTVSPropertyOp25
 70
     1
102
RTVSPropertyOp26
 70
     1
102
RTVSPropertyOp27
 70
     1
102
RTVSPropertyOp28
 70
     1
102
RTVSPropertyOp29
 70
     1
102
RTVSPropertyOp30
 70
     1
102
RTVSPropertyOp31
 70
     1
102
RTVSPropertyOp32
 70
     1
  0
XRECORD
  5
613
102
{ACAD_REACTORS
330
612
102
}
330
612
100
AcDbXrecord
280
     1
102
RTVSPropertyOp0
 70
     1
102
RTVSPropertyOp1
 70
     1
102
RTVSPropertyOp2
 70
     1
102
RTVSPropertyOp3
 70
     1
102
RTVSPropertyOp4
 70
     1
102
RTVSPropertyOp5
 70
     1
102
RTVSPropertyOp6
 70
     1
102
RTVSPropertyOp7
 70
     1
102
RTVSPropertyOp8
 70
     1
102
RTVSPropertyOp9
 70
     1
102
RTVSPropertyOp10
 70
     1
102
RTVSPropertyOp11
 70
     1
102
RTVSPropertyOp12
 70
     1
102
RTVSPropertyOp13
 70
     1
102
RTVSPropertyOp14
 70
     1
102
RTVSPropertyOp15
 70
     1
102
RTVSPropertyOp16
 70
     1
102
RTVSPropertyOp17
 70
     1
102
RTVSPropertyOp18
 70
     1
102
RTVSPropertyOp19
 70
     1
102
RTVSPropertyOp20
 70
     1
102
RTVSPropertyOp21
 70
     1
102
RTVSPropertyOp22
 70
     1
102
RTVSPropertyOp23
 70
     1
102
RTVSPropertyOp24
 70
     1
102
RTVSPropertyOp25
 70
     1
102
RTVSPropertyOp26
 70
     1
102
RTVSPropertyOp27
 70
     1
102
RTVSPropertyOp28
 70
     1
102
RTVSPropertyOp29
 70
     1
102
RTVSPropertyOp30
 70
     1
102
RTVSPropertyOp31
 70
     1
102
RTVSPropertyOp32
 70
     1
  0
XRECORD
  5
615
102
{ACAD_REACTORS
330
614
102
}
330
614
100
AcDbXrecord
280
     1
102
RTVSPropertyOp0
 70
     1
102
RTVSPropertyOp1
 70
     1
102
RTVSPropertyOp2
 70
     1
102
RTVSPropertyOp3
 70
     1
102
RTVSPropertyOp4
 70
     1
102
RTVSPropertyOp5
 70
     1
102
RTVSPropertyOp6
 70
     1
102
RTVSPropertyOp7
 70
     1
102
RTVSPropertyOp8
 70
     1
102
RTVSPropertyOp9
 70
     1
102
RTVSPropertyOp10
 70
     1
102
RTVSPropertyOp11
 70
     1
102
RTVSPropertyOp12
 70
     1
102
RTVSPropertyOp13
 70
     1
102
RTVSPropertyOp14
 70
     1
102
RTVSPropertyOp15
 70
     1
102
RTVSPropertyOp16
 70
     1
102
RTVSPropertyOp17
 70
     1
102
RTVSPropertyOp18
 70
     1
102
RTVSPropertyOp19
 70
     1
102
RTVSPropertyOp20
 70
     1
102
RTVSPropertyOp21
 70
     1
102
RTVSPropertyOp22
 70
     1
102
RTVSPropertyOp23
 70
     1
102
RTVSPropertyOp24
 70
     1
102
RTVSPropertyOp25
 70
     1
102
RTVSPropertyOp26
 70
     1
102
RTVSPropertyOp27
 70
     1
102
RTVSPropertyOp28
 70
     1
102
RTVSPropertyOp29
 70
     1
102
RTVSPropertyOp30
 70
     1
102
RTVSPropertyOp31
 70
     1
102
RTVSPropertyOp32
 70
     1
  0
XRECORD
  5
617
102
{ACAD_REACTORS
330
616
102
}
330
616
100
AcDbXrecord
280
     1
102
RTVSPropertyOp0
 70
     1
102
RTVSPropertyOp1
 70
     1
102
RTVSPropertyOp2
 70
     1
102
RTVSPropertyOp3
 70
     1
102
RTVSPropertyOp4
 70
     1
102
RTVSPropertyOp5
 70
     1
102
RTVSPropertyOp6
 70
     1
102
RTVSPropertyOp7
 70
     1
102
RTVSPropertyOp8
 70
     1
102
RTVSPropertyOp9
 70
     1
102
RTVSPropertyOp10
 70
     1
102
RTVSPropertyOp11
 70
     1
102
RTVSPropertyOp12
 70
     1
102
RTVSPropertyOp13
 70
     1
102
RTVSPropertyOp14
 70
     1
102
RTVSPropertyOp15
 70
     1
102
RTVSPropertyOp16
 70
     1
102
RTVSPropertyOp17
 70
     1
102
RTVSPropertyOp18
 70
     1
102
RTVSPropertyOp19
 70
     1
102
RTVSPropertyOp20
 70
     1
102
RTVSPropertyOp21
 70
     1
102
RTVSPropertyOp22
 70
     1
102
RTVSPropertyOp23
 70
     1
102
RTVSPropertyOp24
 70
     1
102
RTVSPropertyOp25
 70
     1
102
RTVSPropertyOp26
 70
     1
102
RTVSPropertyOp27
 70
     1
102
RTVSPropertyOp28
 70
     1
102
RTVSPropertyOp29
 70
     1
102
RTVSPropertyOp30
 70
     1
102
RTVSPropertyOp31
 70
     1
102
RTVSPropertyOp32
 70
     1
  0
XRECORD
  5
619
102
{ACAD_REACTORS
330
618
102
}
330
618
100
AcDbXrecord
280
     1
102
RTVSPropertyOp0
 70
     1
102
RTVSPropertyOp1
 70
     1
102
RTVSPropertyOp2
 70
     1
102
RTVSPropertyOp3
 70
     1
102
RTVSPropertyOp4
 70
     1
102
RTVSPropertyOp5
 70
     1
102
RTVSPropertyOp6
 70
     1
102
RTVSPropertyOp7
 70
     1
102
RTVSPropertyOp8
 70
     1
102
RTVSPropertyOp9
 70
     1
102
RTVSPropertyOp10
 70
     1
102
RTVSPropertyOp11
 70
     1
102
RTVSPropertyOp12
 70
     1
102
RTVSPropertyOp13
 70
     1
102
RTVSPropertyOp14
 70
     1
102
RTVSPropertyOp15
 70
     1
102
RTVSPropertyOp16
 70
     1
102
RTVSPropertyOp17
 70
     1
102
RTVSPropertyOp18
 70
     1
102
RTVSPropertyOp19
 70
     1
102
RTVSPropertyOp20
 70
     1
102
RTVSPropertyOp21
 70
     1
102
RTVSPropertyOp22
 70
     1
102
RTVSPropertyOp23
 70
     1
102
RTVSPropertyOp24
 70
     1
102
RTVSPropertyOp25
 70
     1
102
RTVSPropertyOp26
 70
     1
102
RTVSPropertyOp27
 70
     1
102
RTVSPropertyOp28
 70
     1
102
RTVSPropertyOp29
 70
     1
102
RTVSPropertyOp30
 70
     1
102
RTVSPropertyOp31
 70
     1
102
RTVSPropertyOp32
 70
     1
  0
XRECORD
  5
62D
102
{ACAD_REACTORS
330
62C
102
}
330
62C
100
AcDbXrecord
280
     1
102
RTVSPropertyOp0
 70
     1
102
RTVSPropertyOp1
 70
     1
102
RTVSPropertyOp2
 70
     1
102
RTVSPropertyOp3
 70
     1
102
RTVSPropertyOp4
 70
     1
102
RTVSPropertyOp5
 70
     1
102
RTVSPropertyOp6
 70
     1
102
RTVSPropertyOp7
 70
     1
102
RTVSPropertyOp8
 70
     1
102
RTVSPropertyOp9
 70
     1
102
RTVSPropertyOp10
 70
     1
102
RTVSPropertyOp11
 70
     1
102
RTVSPropertyOp12
 70
     1
102
RTVSPropertyOp13
 70
     1
102
RTVSPropertyOp14
 70
     1
102
RTVSPropertyOp15
 70
     1
102
RTVSPropertyOp16
 70
     1
102
RTVSPropertyOp17
 70
     1
102
RTVSPropertyOp18
 70
     1
102
RTVSPropertyOp19
 70
     1
102
RTVSPropertyOp20
 70
     1
102
RTVSPropertyOp21
 70
     1
102
RTVSPropertyOp22
 70
     1
102
RTVSPropertyOp23
 70
     1
102
RTVSPropertyOp24
 70
     1
102
RTVSPropertyOp25
 70
     1
102
RTVSPropertyOp26
 70
     1
102
RTVSPropertyOp27
 70
     1
102
RTVSPropertyOp28
 70
     1
102
RTVSPropertyOp29
 70
     1
102
RTVSPropertyOp30
 70
     1
102
RTVSPropertyOp31
 70
     1
102
RTVSPropertyOp32
 70
     1
  0
XRECORD
  5
623
102
{ACAD_REACTORS
330
622
102
}
330
622
100
AcDbXrecord
280
     1
102
RTVSPropertyOp0
 70
     1
102
RTVSPropertyOp1
 70
     1
102
RTVSPropertyOp2
 70
     1
102
RTVSPropertyOp3
 70
     1
102
RTVSPropertyOp4
 70
     1
102
RTVSPropertyOp5
 70
     1
102
RTVSPropertyOp6
 70
     1
102
RTVSPropertyOp7
 70
     1
102
RTVSPropertyOp8
 70
     1
102
RTVSPropertyOp9
 70
     1
102
RTVSPropertyOp10
 70
     1
102
RTVSPropertyOp11
 70
     1
102
RTVSPropertyOp12
 70
     1
102
RTVSPropertyOp13
 70
     1
102
RTVSPropertyOp14
 70
     1
102
RTVSPropertyOp15
 70
     1
102
RTVSPropertyOp16
 70
     1
102
RTVSPropertyOp17
 70
     1
102
RTVSPropertyOp18
 70
     1
102
RTVSPropertyOp19
 70
     1
102
RTVSPropertyOp20
 70
     1
102
RTVSPropertyOp21
 70
     1
102
RTVSPropertyOp22
 70
     1
102
RTVSPropertyOp23
 70
     1
102
RTVSPropertyOp24
 70
     1
102
RTVSPropertyOp25
 70
     1
102
RTVSPropertyOp26
 70
     1
102
RTVSPropertyOp27
 70
     1
102
RTVSPropertyOp28
 70
     1
102
RTVSPropertyOp29
 70
     1
102
RTVSPropertyOp30
 70
     1
102
RTVSPropertyOp31
 70
     1
102
RTVSPropertyOp32
 70
     1
  0
XRECORD
  5
62B
102
{ACAD_REACTORS
330
62A
102
}
330
62A
100
AcDbXrecord
280
     1
102
RTVSPropertyOp0
 70
     1
102
RTVSPropertyOp1
 70
     1
102
RTVSPropertyOp2
 70
     1
102
RTVSPropertyOp3
 70
     1
102
RTVSPropertyOp4
 70
     1
102
RTVSPropertyOp5
 70
     1
102
RTVSPropertyOp6
 70
     1
102
RTVSPropertyOp7
 70
     1
102
RTVSPropertyOp8
 70
     1
102
RTVSPropertyOp9
 70
     1
102
RTVSPropertyOp10
 70
     1
102
RTVSPropertyOp11
 70
     1
102
RTVSPropertyOp12
 70
     1
102
RTVSPropertyOp13
 70
     1
102
RTVSPropertyOp14
 70
     1
102
RTVSPropertyOp15
 70
     1
102
RTVSPropertyOp16
 70
     1
102
RTVSPropertyOp17
 70
     1
102
RTVSPropertyOp18
 70
     1
102
RTVSPropertyOp19
 70
     1
102
RTVSPropertyOp20
 70
     1
102
RTVSPropertyOp21
 70
     1
102
RTVSPropertyOp22
 70
     1
102
RTVSPropertyOp23
 70
     1
102
RTVSPropertyOp24
 70
     1
102
RTVSPropertyOp25
 70
     1
102
RTVSPropertyOp26
 70
     1
102
RTVSPropertyOp27
 70
     1
102
RTVSPropertyOp28
 70
     1
102
RTVSPropertyOp29
 70
     1
102
RTVSPropertyOp30
 70
     1
102
RTVSPropertyOp31
 70
     1
102
RTVSPropertyOp32
 70
     1
  0
ENDSEC
  0
EOF
