  0
SECTION
  2
HEADER
  9
$ACADVER
  1
AC1015
  9
$ACADMAINTVER
 70
     6
  9
$DWGCODEPAGE
  3
ANSI_1252
  9
$INSBASE
 10
0.0
 20
0.0
 30
0.0
  9
$EXTMIN
 10
1.000000000000000E+20
 20
1.000000000000000E+20
 30
1.000000000000000E+20
  9
$EXTMAX
 10
-1.000000000000000E+20
 20
-1.000000000000000E+20
 30
-1.000000000000000E+20
  9
$LIMMIN
 10
-170.0
 20
-170.0
  9
$LIMMAX
 10
519.0
 20
260.0
  9
$ORTHOMODE
 70
     0
  9
$REGENMODE
 70
     1
  9
$FILLMODE
 70
     1
  9
$QTEXTMODE
 70
     0
  9
$MIRRTEXT
 70
     0
  9
$LTSCALE
 40
1.0
  9
$ATTMODE
 70
     1
  9
$TEXTSIZE
 40
3.5
  9
$TRACEWID
 40
1.0
  9
$TEXTSTYLE
  7
SIMPLEX
  9
$CLAYER
  8
1
  9
$CELTYPE
  6
BYLAYER
  9
$CECOLOR
 62
   256
  9
$CELTSCALE
 40
1.0
  9
$DISPSILH
 70
     0
  9
$DIMSCALE
 40
1.0
  9
$DIMASZ
 40
2.5
  9
$DIMEXO
 40
0.0
  9
$DIMDLI
 40
3.75
  9
$DIMRND
 40
0.0
  9
$DIMDLE
 40
0.0
  9
$DIMEXE
 40
1.25
  9
$DIMTP
 40
0.0
  9
$DIMTM
 40
0.0
  9
$DIMTXT
 40
3.5
  9
$DIMCEN
 40
0.0
  9
$DIMTSZ
 40
0.0
  9
$DIMTOL
 70
     0
  9
$DIMLIM
 70
     0
  9
$DIMTIH
 70
     0
  9
$DIMTOH
 70
     0
  9
$DIMSE1
 70
     0
  9
$DIMSE2
 70
     0
  9
$DIMTAD
 70
     1
  9
$DIMZIN
 70
     8
  9
$DIMBLK
  1

  9
$DIMASO
 70
     1
  9
$DIMSHO
 70
     1
  9
$DIMPOST
  1

  9
$DIMAPOST
  1

  9
$DIMALT
 70
     0
  9
$DIMALTD
 70
     3
  9
$DIMALTF
 40
0.039370078
  9
$DIMLFAC
 40
1.0
  9
$DIMTOFL
 70
     0
  9
$DIMTVP
 40
0.0
  9
$DIMTIX
 70
     0
  9
$DIMSOXD
 70
     0
  9
$DIMSAH
 70
     0
  9
$DIMBLK1
  1

  9
$DIMBLK2
  1

  9
$DIMSTYLE
  2
STANDARD
  9
$DIMCLRD
 70
     0
  9
$DIMCLRE
 70
     0
  9
$DIMCLRT
 70
     0
  9
$DIMTFAC
 40
1.0
  9
$DIMGAP
 40
0.625
  9
$DIMJUST
 70
     0
  9
$DIMSD1
 70
     0
  9
$DIMSD2
 70
     0
  9
$DIMTOLJ
 70
     0
  9
$DIMTZIN
 70
     8
  9
$DIMALTZ
 70
     0
  9
$DIMALTTZ
 70
     0
  9
$DIMUPT
 70
     0
  9
$DIMDEC
 70
     2
  9
$DIMTDEC
 70
     2
  9
$DIMALTU
 70
     2
  9
$DIMALTTD
 70
     3
  9
$DIMTXSTY
  7
SIMPLEX
  9
$DIMAUNIT
 70
     0
  9
$DIMADEC
 70
     2
  9
$DIMALTRND
 40
0.0
  9
$DIMAZIN
 70
     2
  9
$DIMDSEP
 70
    46
  9
$DIMATFIT
 70
     3
  9
$DIMFRAC
 70
     0
  9
$DIMLDRBLK
  1

  9
$DIMLUNIT
 70
     2
  9
$DIMLWD
 70
    -2
  9
$DIMLWE
 70
    -2
  9
$DIMTMOVE
 70
     0
  9
$LUNITS
 70
     2
  9
$LUPREC
 70
     4
  9
$SKETCHINC
 40
1.0
  9
$FILLETRAD
 40
0.0
  9
$AUNITS
 70
     0
  9
$AUPREC
 70
     0
  9
$MENU
  1
c:\tdm21\cad\caduti13\tdm13
  9
$ELEVATION
 40
0.0
  9
$PELEVATION
 40
0.0
  9
$THICKNESS
 40
0.0
  9
$LIMCHECK
 70
     0
  9
$CHAMFERA
 40
0.0
  9
$CHAMFERB
 40
0.0
  9
$CHAMFERC
 40
0.0
  9
$CHAMFERD
 40
0.0
  9
$SKPOLY
 70
     0
  9
$TDCREATE
 40
2454957.593642639
  9
$TDUCREATE
 40
2454957.510309306
  9
$TDUPDATE
 40
2456860.780321748
  9
$TDUUPDATE
 40
2456860.696988415
  9
$TDINDWG
 40
0.0009643519
  9
$TDUSRTIMER
 40
0.0009475231
  9
$USRTIMER
 70
     1
  9
$ANGBASE
 50
0.0
  9
$ANGDIR
 70
     0
  9
$PDMODE
 70
     1
  9
$PDSIZE
 40
0.0
  9
$PLINEWID
 40
0.0
  9
$SPLFRAME
 70
     0
  9
$SPLINETYPE
 70
     6
  9
$SPLINESEGS
 70
     8
  9
$HANDSEED
  5
69D
  9
$SURFTAB1
 70
     6
  9
$SURFTAB2
 70
     6
  9
$SURFTYPE
 70
     6
  9
$SURFU
 70
     6
  9
$SURFV
 70
     6
  9
$UCSBASE
  2

  9
$UCSNAME
  2

  9
$UCSORG
 10
0.0
 20
0.0
 30
0.0
  9
$UCSXDIR
 10
1.0
 20
0.0
 30
0.0
  9
$UCSYDIR
 10
0.0
 20
1.0
 30
0.0
  9
$UCSORTHOREF
  2

  9
$UCSORTHOVIEW
 70
     0
  9
$UCSORGTOP
 10
0.0
 20
0.0
 30
0.0
  9
$UCSORGBOTTOM
 10
0.0
 20
0.0
 30
0.0
  9
$UCSORGLEFT
 10
0.0
 20
0.0
 30
0.0
  9
$UCSORGRIGHT
 10
0.0
 20
0.0
 30
0.0
  9
$UCSORGFRONT
 10
0.0
 20
0.0
 30
0.0
  9
$UCSORGBACK
 10
0.0
 20
0.0
 30
0.0
  9
$PUCSBASE
  2

  9
$PUCSNAME
  2

  9
$PUCSORG
 10
0.0
 20
0.0
 30
0.0
  9
$PUCSXDIR
 10
1.0
 20
0.0
 30
0.0
  9
$PUCSYDIR
 10
0.0
 20
1.0
 30
0.0
  9
$PUCSORTHOREF
  2

  9
$PUCSORTHOVIEW
 70
     0
  9
$PUCSORGTOP
 10
0.0
 20
0.0
 30
0.0
  9
$PUCSORGBOTTOM
 10
0.0
 20
0.0
 30
0.0
  9
$PUCSORGLEFT
 10
0.0
 20
0.0
 30
0.0
  9
$PUCSORGRIGHT
 10
0.0
 20
0.0
 30
0.0
  9
$PUCSORGFRONT
 10
0.0
 20
0.0
 30
0.0
  9
$PUCSORGBACK
 10
0.0
 20
0.0
 30
0.0
  9
$USERI1
 70
     0
  9
$USERI2
 70
     0
  9
$USERI3
 70
     0
  9
$USERI4
 70
     0
  9
$USERI5
 70
     0
  9
$USERR1
 40
0.0
  9
$USERR2
 40
0.0
  9
$USERR3
 40
0.0
  9
$USERR4
 40
0.0
  9
$USERR5
 40
0.0
  9
$WORLDVIEW
 70
     1
  9
$SHADEDGE
 70
     3
  9
$SHADEDIF
 70
    70
  9
$TILEMODE
 70
     1
  9
$MAXACTVP
 70
    64
  9
$PINSBASE
 10
0.0
 20
0.0
 30
0.0
  9
$PLIMCHECK
 70
     0
  9
$PEXTMIN
 10
0.0
 20
0.0
 30
0.0
  9
$PEXTMAX
 10
0.0
 20
0.0
 30
0.0
  9
$PLIMMIN
 10
0.0
 20
0.0
  9
$PLIMMAX
 10
12.0
 20
9.0
  9
$UNITMODE
 70
     0
  9
$VISRETAIN
 70
     0
  9
$PLINEGEN
 70
     0
  9
$PSLTSCALE
 70
     1
  9
$TREEDEPTH
 70
  3020
  9
$CMLSTYLE
  2
STANDARD
  9
$CMLJUST
 70
     0
  9
$CMLSCALE
 40
20.0
  9
$PROXYGRAPHICS
 70
     1
  9
$MEASUREMENT
 70
     1
  9
$CELWEIGHT
370
    -1
  9
$ENDCAPS
280
     0
  9
$JOINSTYLE
280
     0
  9
$LWDISPLAY
290
     0
  9
$INSUNITS
 70
     4
  9
$HYPERLINKBASE
  1

  9
$STYLESHEET
  1
MONOCHROME.CTB
  9
$XEDIT
290
     1
  9
$CEPSNTYPE
380
     0
  9
$PSTYLEMODE
290
     1
  9
$FINGERPRINTGUID
  2
{46B44192-1510-48B1-B61B-CBE2ADA013A7}
  9
$VERSIONGUID
  2
{6160D478-9A74-4C97-9D8A-D4A65CE74B12}
  9
$EXTNAMES
290
     1
  9
$PSVPSCALE
 40
0.0
  9
$OLESTARTUP
290
     0
  0
ENDSEC
  0
SECTION
  2
CLASSES
  0
CLASS
  1
ACDBDICTIONARYWDFLT
  2
AcDbDictionaryWithDefault
  3
ObjectDBX Classes
 90
        0
280
     0
281
     0
  0
CLASS
  1
ACDBPLACEHOLDER
  2
AcDbPlaceHolder
  3
ObjectDBX Classes
 90
        0
280
     0
281
     0
  0
CLASS
  1
LAYOUT
  2
AcDbLayout
  3
ObjectDBX Classes
 90
        0
280
     0
281
     0
  0
CLASS
  1
DICTIONARYVAR
  2
AcDbDictionaryVar
  3
ObjectDBX Classes
 90
        0
280
     0
281
     0
  0
CLASS
  1
TABLESTYLE
  2
AcDbTableStyle
  3
ObjectDBX Classes
 90
     4095
280
     0
281
     0
  0
CLASS
  1
SCALE
  2
AcDbScale
  3
ObjectDBX Classes
 90
     1153
280
     0
281
     0
  0
CLASS
  1
MATERIAL
  2
AcDbMaterial
  3
ObjectDBX Classes
 90
     1153
280
     0
281
     0
  0
CLASS
  1
VISUALSTYLE
  2
AcDbVisualStyle
  3
ObjectDBX Classes
 90
     4095
280
     0
281
     0
  0
ENDSEC
  0
SECTION
  2
TABLES
  0
TABLE
  2
VPORT
  5
8
330
0
100
AcDbSymbolTable
 70
     1
  0
VPORT
  5
39A
330
8
100
AcDbSymbolTableRecord
100
AcDbViewportTableRecord
  2
*Active
 70
     0
 10
0.0
 20
0.0
 11
1.0
 21
1.0
 12
218.9201881351169
 22
109.7549380673833
 13
0.0
 23
0.0
 14
5.0
 24
5.0
 15
5.0
 25
5.0
 16
0.0
 26
0.0
 36
1.0
 17
0.0
 27
0.0
 37
0.0
 40
564.6711112651689
 41
1.066073697585768
 42
50.0
 43
0.0
 44
0.0
 50
0.0
 51
0.0
 71
     0
 72
  2000
 73
     1
 74
     1
 75
     0
 76
     0
 77
     0
 78
     0
281
     0
 65
     1
110
0.0
120
0.0
130
0.0
111
1.0
121
0.0
131
0.0
112
0.0
122
1.0
132
0.0
 79
     0
146
0.0
  0
ENDTAB
  0
TABLE
  2
LTYPE
  5
5
330
0
100
AcDbSymbolTable
 70
     3
  0
LTYPE
  5
12
330
5
100
AcDbSymbolTableRecord
100
AcDbLinetypeTableRecord
  2
BYBLOCK
 70
     0
  3

 72
    65
 73
     0
 40
0.0
  0
LTYPE
  5
13
330
5
100
AcDbSymbolTableRecord
100
AcDbLinetypeTableRecord
  2
BYLAYER
 70
     0
  3

 72
    65
 73
     0
 40
0.0
  0
LTYPE
  5
14
330
5
100
AcDbSymbolTableRecord
100
AcDbLinetypeTableRecord
  2
CONTINUOUS
 70
     0
  3
Solid line
 72
    65
 73
     0
 40
0.0
  0
LTYPE
  5
20
330
5
100
AcDbSymbolTableRecord
100
AcDbLinetypeTableRecord
  2
HIDDEN
 70
     0
  3
Hidden __ __ __ __ __ __ __ __ __ __ __ __ __ _
 72
    65
 73
     2
 40
9.524999999999997
 49
6.349999999999998
 74
     0
 49
-3.174999999999998
 74
     0
  0
LTYPE
  5
351
330
5
100
AcDbSymbolTableRecord
100
AcDbLinetypeTableRecord
  2
CENTER
 70
     0
  3
Dash dot __ . __ . __ . __ . __ . __ . __ . __
 72
    65
 73
     4
 40
25.4
 49
12.7
 74
     0
 49
-6.349999999999998
 74
     0
 49
0.0
 74
     0
 49
-6.349999999999998
 74
     0
  0
ENDTAB
  0
TABLE
  2
LAYER
  5
2
330
0
100
AcDbSymbolTable
 70
    16
  0
LAYER
  5
F
330
2
100
AcDbSymbolTableRecord
100
AcDbLayerTableRecord
  2
0
 70
     0
 62
     7
  6
CONTINUOUS
370
    -3
390
300
  0
LAYER
  5
23
330
2
100
AcDbSymbolTableRecord
100
AcDbLayerTableRecord
  2
1
 70
     0
 62
     4
  6
CONTINUOUS
370
    -3
390
300
  0
LAYER
  5
24
330
2
100
AcDbSymbolTableRecord
100
AcDbLayerTableRecord
  2
SK1
 70
     0
 62
     4
  6
CONTINUOUS
370
    -3
390
300
  0
LAYER
  5
25
330
2
100
AcDbSymbolTableRecord
100
AcDbLayerTableRecord
  2
2
 70
     0
 62
     7
  6
CONTINUOUS
370
    -3
390
300
  0
LAYER
  5
26
330
2
100
AcDbSymbolTableRecord
100
AcDbLayerTableRecord
  2
2L
 70
     0
 62
     7
  6
CONTINUOUS
370
    -3
390
300
  0
LAYER
  5
27
330
2
100
AcDbSymbolTableRecord
100
AcDbLayerTableRecord
  2
SK2
 70
     0
 62
     7
  6
CONTINUOUS
370
    -3
390
300
  0
LAYER
  5
28
330
2
100
AcDbSymbolTableRecord
100
AcDbLayerTableRecord
  2
3
 70
     0
 62
     1
  6
HIDDEN
370
    -3
390
300
  0
LAYER
  5
29
330
2
100
AcDbSymbolTableRecord
100
AcDbLayerTableRecord
  2
SK3
 70
     0
 62
     1
  6
HIDDEN
370
    -3
390
300
  0
LAYER
  5
2A
330
2
100
AcDbSymbolTableRecord
100
AcDbLayerTableRecord
  2
4
 70
     0
 62
     2
  6
CENTER
370
    -3
390
300
  0
LAYER
  5
2B
330
2
100
AcDbSymbolTableRecord
100
AcDbLayerTableRecord
  2
SK4
 70
     0
 62
     2
  6
CENTER
370
    -3
390
300
  0
LAYER
  5
2C
330
2
100
AcDbSymbolTableRecord
100
AcDbLayerTableRecord
  2
5
 70
     0
 62
    -7
  6
CONTINUOUS
370
    -3
390
300
  0
LAYER
  5
2D
330
2
100
AcDbSymbolTableRecord
100
AcDbLayerTableRecord
  2
6
 70
     0
 62
     5
  6
CONTINUOUS
370
    -3
390
300
  0
LAYER
  5
2E
330
2
100
AcDbSymbolTableRecord
100
AcDbLayerTableRecord
  2
SK6
 70
     0
 62
     5
  6
CONTINUOUS
370
    -3
390
300
  0
LAYER
  5
2F
330
2
100
AcDbSymbolTableRecord
100
AcDbLayerTableRecord
  2
DEFPOINTS
 70
     0
 62
     7
  6
CONTINUOUS
290
     0
370
    -3
390
300
  0
LAYER
  5
375
330
2
100
AcDbSymbolTableRecord
100
AcDbLayerTableRecord
  2
CUT
 70
     0
 62
     1
  6
CONTINUOUS
370
    -3
390
300
  0
LAYER
  5
376
330
2
100
AcDbSymbolTableRecord
100
AcDbLayerTableRecord
  2
NOCUT
 70
     0
 62
     7
  6
CONTINUOUS
370
    -3
390
300
  0
ENDTAB
  0
TABLE
  2
STYLE
  5
3
330
0
100
AcDbSymbolTable
 70
     4
  0
STYLE
  5
10
330
3
100
AcDbSymbolTableRecord
100
AcDbTextStyleTableRecord
  2
STANDARD
 70
     0
 40
0.0
 41
1.0
 50
0.0
 71
     0
 42
5.0
  3
txt
  4

  0
STYLE
  5
1D
330
3
100
AcDbSymbolTableRecord
100
AcDbTextStyleTableRecord
  2
TXT
 70
     0
 40
8.0
 41
1.0
 50
0.0
 71
     0
 42
8.0
  3
txt
  4

  0
STYLE
  5
1E
330
3
100
AcDbSymbolTableRecord
100
AcDbTextStyleTableRecord
  2
SIMPLEX
 70
     0
 40
0.0
 41
1.0
 50
0.0
 71
     0
 42
3.5
  3
simplex
  4

  0
STYLE
  5
34C
330
3
100
AcDbSymbolTableRecord
100
AcDbTextStyleTableRecord
  2

 70
     1
 40
0.0
 41
1.0
 50
0.0
 71
     0
 42
2.5
  3
ltypeshp.shx
  4

  0
ENDTAB
  0
TABLE
  2
VIEW
  5
6
330
0
100
AcDbSymbolTable
 70
     0
  0
ENDTAB
  0
TABLE
  2
UCS
  5
7
330
0
100
AcDbSymbolTable
 70
     0
  0
ENDTAB
  0
TABLE
  2
APPID
  5
9
330
0
100
AcDbSymbolTable
 70
     1
  0
APPID
  5
11
330
9
100
AcDbSymbolTableRecord
100
AcDbRegAppTableRecord
  2
ACAD
 70
     0
  0
ENDTAB
  0
TABLE
  2
DIMSTYLE
  5
A
330
0
100
AcDbSymbolTable
 70
     1
100
AcDbDimStyleTable
  0
DIMSTYLE
105
3F
102
{ACAD_REACTORS
330
631
330
63E
330
64B
330
658
330
665
102
}
330
A
100
AcDbSymbolTableRecord
100
AcDbDimStyleTableRecord
  2
STANDARD
 70
     0
 41
2.5
 42
0.0
 43
3.75
 44
1.25
 73
     0
 74
     0
 77
     1
 78
     8
 79
     2
140
3.5
141
0.0
143
0.039370078
147
0.625
171
     3
178
     0
179
     2
271
     2
272
     2
274
     3
283
     0
284
     8
340
1E
  0
ENDTAB
  0
TABLE
  2
BLOCK_RECORD
  5
1
330
0
100
AcDbSymbolTable
 70
     5
  0
BLOCK_RECORD
  5
18
330
1
100
AcDbSymbolTableRecord
100
AcDbBlockTableRecord
  2
*MODEL_SPACE
340
303
  0
BLOCK_RECORD
  5
338
330
1
100
AcDbSymbolTableRecord
100
AcDbBlockTableRecord
  2
*Paper_Space
340
33B
  0
BLOCK_RECORD
  5
632
330
1
100
AcDbSymbolTableRecord
100
AcDbBlockTableRecord
  2
*D0
340
0
  0
BLOCK_RECORD
  5
63F
330
1
100
AcDbSymbolTableRecord
100
AcDbBlockTableRecord
  2
*D1
340
0
  0
BLOCK_RECORD
  5
64C
330
1
100
AcDbSymbolTableRecord
100
AcDbBlockTableRecord
  2
*D2
340
0
  0
BLOCK_RECORD
  5
659
330
1
100
AcDbSymbolTableRecord
100
AcDbBlockTableRecord
  2
*D3
340
0
  0
BLOCK_RECORD
  5
666
330
1
100
AcDbSymbolTableRecord
100
AcDbBlockTableRecord
  2
*D4
340
0
  0
ENDTAB
  0
ENDSEC
  0
SECTION
  2
BLOCKS
  0
BLOCK
  5
32
330
18
100
AcDbEntity
  8
0
100
AcDbBlockBegin
  2
*MODEL_SPACE
 70
     0
 10
0.0
 20
0.0
 30
0.0
  3
*MODEL_SPACE
  1

  0
ENDBLK
  5
33
330
18
100
AcDbEntity
  8
0
100
AcDbBlockEnd
  0
BLOCK
  5
339
330
338
100
AcDbEntity
 67
     1
  8
0
100
AcDbBlockBegin
  2
*Paper_Space
 70
     0
 10
0.0
 20
0.0
 30
0.0
  3
*Paper_Space
  1

  0
ENDBLK
  5
33A
330
338
100
AcDbEntity
 67
     1
  8
0
100
AcDbBlockEnd
  0
BLOCK
  5
633
330
632
100
AcDbEntity
  8
0
100
AcDbBlockBegin
  2
*D0
 70
     1
 10
0.0
 20
0.0
 30
0.0
  3
*D0
  1

  0
LINE
  5
635
330
632
100
AcDbEntity
  8
2
 62
     0
370
    -2
100
AcDbLine
 10
83.0
 20
6.0
 30
0.0
 11
99.25
 21
6.000000000000058
 31
0.0
  0
LINE
  5
636
330
632
100
AcDbEntity
  8
2
 62
     0
370
    -2
100
AcDbLine
 10
83.0
 20
-6.0
 30
0.0
 11
99.25000000000004
 21
-5.999999999999943
 31
0.0
  0
LINE
  5
637
330
632
100
AcDbEntity
  8
2
 62
     0
370
    -2
100
AcDbLine
 10
98.00000000000001
 20
3.500000000000053
 30
0.0
 11
98.00000000000003
 21
-3.499999999999948
 31
0.0
  0
SOLID
  5
638
330
632
100
AcDbEntity
  8
2
 62
     0
100
AcDbTrace
 10
98.41666666666669
 20
3.500000000000055
 30
0.0
 11
97.58333333333334
 21
3.500000000000052
 31
0.0
 12
98.0
 22
6.000000000000053
 32
0.0
 13
98.0
 23
6.000000000000053
 33
0.0
  0
SOLID
  5
639
330
632
100
AcDbEntity
  8
2
 62
     0
100
AcDbTrace
 10
97.58333333333336
 20
-3.499999999999949
 30
0.0
 11
98.4166666666667
 21
-3.499999999999946
 31
0.0
 12
98.00000000000004
 22
-5.999999999999948
 32
0.0
 13
98.00000000000004
 23
-5.999999999999948
 33
0.0
  0
MTEXT
  5
63A
330
632
100
AcDbEntity
  8
2
 62
     0
100
AcDbMText
 10
95.60925000000003
 20
0.0000000000000444
 30
0.0
 40
3.5
 41
0.0
 71
     5
 72
     1
  1
M12
  7
SIMPLEX
 11
-3.552713678800501E-15
 21
1.0
 31
0.0
 73
     1
 44
1.0
  0
POINT
  5
63B
330
632
100
AcDbEntity
  8
DEFPOINTS
 62
     0
100
AcDbPoint
 10
83.0
 20
6.0
 30
0.0
  0
POINT
  5
63C
330
632
100
AcDbEntity
  8
DEFPOINTS
 62
     0
100
AcDbPoint
 10
83.0
 20
-6.0
 30
0.0
  0
POINT
  5
63D
330
632
100
AcDbEntity
  8
DEFPOINTS
 62
     0
100
AcDbPoint
 10
98.00000000000004
 20
-5.999999999999948
 30
0.0
  0
ENDBLK
  5
634
330
632
100
AcDbEntity
  8
0
100
AcDbBlockEnd
  0
BLOCK
  5
640
330
63F
100
AcDbEntity
  8
0
100
AcDbBlockBegin
  2
*D1
 70
     1
 10
0.0
 20
0.0
 30
0.0
  3
*D1
  1

  0
LINE
  5
642
330
63F
100
AcDbEntity
  8
2
 62
     0
370
    -2
100
AcDbLine
 10
0.0
 20
0.0
 30
0.0
 11
0.0
 21
76.25
 31
0.0
  0
LINE
  5
643
330
63F
100
AcDbEntity
  8
2
 62
     0
370
    -2
100
AcDbLine
 10
83.0
 20
0.0
 30
0.0
 11
83.0
 21
76.25
 31
0.0
  0
LINE
  5
644
330
63F
100
AcDbEntity
  8
2
 62
     0
370
    -2
100
AcDbLine
 10
2.5
 20
75.0
 30
0.0
 11
80.5
 21
75.0
 31
0.0
  0
SOLID
  5
645
330
63F
100
AcDbEntity
  8
2
 62
     0
100
AcDbTrace
 10
2.5
 20
75.41666666666667
 30
0.0
 11
2.5
 21
74.58333333333333
 31
0.0
 12
0.0
 22
75.0
 32
0.0
 13
0.0
 23
75.0
 33
0.0
  0
SOLID
  5
646
330
63F
100
AcDbEntity
  8
2
 62
     0
100
AcDbTrace
 10
80.5
 20
74.58333333333333
 30
0.0
 11
80.5
 21
75.41666666666667
 31
0.0
 12
83.0
 22
75.0
 32
0.0
 13
83.0
 23
75.0
 33
0.0
  0
MTEXT
  5
647
330
63F
100
AcDbEntity
  8
2
 62
     0
100
AcDbMText
 10
41.5
 20
77.39075
 30
0.0
 40
3.5
 41
0.0
 71
     5
 72
     1
  1
83
  7
SIMPLEX
 73
     1
 44
1.0
  0
POINT
  5
648
330
63F
100
AcDbEntity
  8
DEFPOINTS
 62
     0
100
AcDbPoint
 10
0.0
 20
0.0
 30
0.0
  0
POINT
  5
649
330
63F
100
AcDbEntity
  8
DEFPOINTS
 62
     0
100
AcDbPoint
 10
83.0
 20
0.0
 30
0.0
  0
POINT
  5
64A
330
63F
100
AcDbEntity
  8
DEFPOINTS
 62
     0
100
AcDbPoint
 10
83.0
 20
75.0
 30
0.0
  0
ENDBLK
  5
641
330
63F
100
AcDbEntity
  8
0
100
AcDbBlockEnd
  0
BLOCK
  5
64D
330
64C
100
AcDbEntity
  8
0
100
AcDbBlockBegin
  2
*D2
 70
     1
 10
0.0
 20
0.0
 30
0.0
  3
*D2
  1

  0
LINE
  5
64F
330
64C
100
AcDbEntity
  8
SK2
 62
     0
370
    -2
100
AcDbLine
 10
-17.0
 20
4.5
 30
0.0
 11
-43.25000000002296
 21
4.499999999866036
 31
0.0
  0
LINE
  5
650
330
64C
100
AcDbEntity
  8
SK2
 62
     0
370
    -2
100
AcDbLine
 10
-17.0
 20
-4.5
 30
0.0
 11
-43.24999999997704
 21
-4.500000000133964
 31
0.0
  0
LINE
  5
651
330
64C
100
AcDbEntity
  8
SK2
 62
     0
370
    -2
100
AcDbLine
 10
-42.0000000000102
 20
1.999999999872415
 30
0.0
 11
-41.9999999999898
 21
-2.000000000127585
 31
0.0
  0
SOLID
  5
652
330
64C
100
AcDbEntity
  8
SK2
 62
     0
100
AcDbTrace
 10
-41.58333333334354
 20
1.999999999874541
 30
0.0
 11
-42.41666666667687
 21
1.999999999870289
 31
0.0
 12
-42.00000000002296
 22
4.499999999872415
 32
0.0
 13
-42.00000000002296
 23
4.499999999872415
 33
0.0
  0
SOLID
  5
653
330
64C
100
AcDbEntity
  8
SK2
 62
     0
100
AcDbTrace
 10
-42.41666666665646
 20
-2.000000000129711
 30
0.0
 11
-41.58333333332313
 21
-2.000000000125459
 31
0.0
 12
-41.99999999997704
 22
-4.500000000127585
 32
0.0
 13
-41.99999999997704
 23
-4.500000000127585
 33
0.0
  0
MTEXT
  5
654
330
64C
100
AcDbEntity
  8
SK2
 62
     0
100
AcDbMText
 10
-44.39075
 20
-0.0000000001397857
 30
0.0
 40
3.5
 41
0.0
 71
     5
 72
     1
  1
%%c9
  7
SIMPLEX
 11
-5.103275826614764E-12
 21
1.0
 31
0.0
 73
     1
 44
1.0
  0
POINT
  5
655
330
64C
100
AcDbEntity
  8
DEFPOINTS
 62
     0
100
AcDbPoint
 10
-17.0
 20
4.5
 30
0.0
  0
POINT
  5
656
330
64C
100
AcDbEntity
  8
DEFPOINTS
 62
     0
100
AcDbPoint
 10
-17.0
 20
-4.5
 30
0.0
  0
POINT
  5
657
330
64C
100
AcDbEntity
  8
DEFPOINTS
 62
     0
100
AcDbPoint
 10
-41.99999999997704
 20
-4.500000000127585
 30
0.0
  0
ENDBLK
  5
64E
330
64C
100
AcDbEntity
  8
0
100
AcDbBlockEnd
  0
BLOCK
  5
65A
330
659
100
AcDbEntity
  8
0
100
AcDbBlockBegin
  2
*D3
 70
     1
 10
0.0
 20
0.0
 30
0.0
  3
*D3
  1

  0
LINE
  5
65C
330
659
100
AcDbEntity
  8
2
 62
     0
370
    -2
100
AcDbLine
 10
59.04737206
 20
4.35
 30
0.0
 11
59.04737206
 21
61.25
 31
0.0
  0
LINE
  5
65D
330
659
100
AcDbEntity
  8
2
 62
     0
370
    -2
100
AcDbLine
 10
83.0
 20
6.0
 30
0.0
 11
83.0
 21
61.25
 31
0.0
  0
LINE
  5
65E
330
659
100
AcDbEntity
  8
2
 62
     0
370
    -2
100
AcDbLine
 10
61.54737206
 20
60.0
 30
0.0
 11
80.5
 21
60.0
 31
0.0
  0
SOLID
  5
65F
330
659
100
AcDbEntity
  8
2
 62
     0
100
AcDbTrace
 10
61.54737206
 20
60.41666666666666
 30
0.0
 11
61.54737206
 21
59.58333333333334
 31
0.0
 12
59.04737206
 22
60.0
 32
0.0
 13
59.04737206
 23
60.0
 33
0.0
  0
SOLID
  5
660
330
659
100
AcDbEntity
  8
2
 62
     0
100
AcDbTrace
 10
80.5
 20
59.58333333333334
 30
0.0
 11
80.5
 21
60.41666666666666
 31
0.0
 12
83.0
 22
60.0
 32
0.0
 13
83.0
 23
60.0
 33
0.0
  0
MTEXT
  5
661
330
659
100
AcDbEntity
  8
2
 62
     0
100
AcDbMText
 10
71.02368603
 20
62.39775
 30
0.0
 40
3.5
 41
0.0
 71
     5
 72
     1
  1
23.95
  7
SIMPLEX
 73
     1
 44
1.0
  0
POINT
  5
662
330
659
100
AcDbEntity
  8
DEFPOINTS
 62
     0
100
AcDbPoint
 10
59.04737206
 20
4.35
 30
0.0
  0
POINT
  5
663
330
659
100
AcDbEntity
  8
DEFPOINTS
 62
     0
100
AcDbPoint
 10
83.0
 20
6.0
 30
0.0
  0
POINT
  5
664
330
659
100
AcDbEntity
  8
DEFPOINTS
 62
     0
100
AcDbPoint
 10
83.0
 20
60.0
 30
0.0
  0
ENDBLK
  5
65B
330
659
100
AcDbEntity
  8
0
100
AcDbBlockEnd
  0
BLOCK
  5
667
330
666
100
AcDbEntity
  8
0
100
AcDbBlockBegin
  2
*D4
 70
     1
 10
0.0
 20
0.0
 30
0.0
  3
*D4
  1

  0
LINE
  5
669
330
666
100
AcDbEntity
  8
SK2
 62
     0
370
    -2
100
AcDbLine
 10
-27.0
 20
6.0
 30
0.0
 11
-27.0
 21
91.25
 31
0.0
  0
LINE
  5
66A
330
666
100
AcDbEntity
  8
SK2
 62
     0
370
    -2
100
AcDbLine
 10
85.0
 20
6.0
 30
0.0
 11
85.0
 21
91.25
 31
0.0
  0
LINE
  5
66B
330
666
100
AcDbEntity
  8
SK2
 62
     0
370
    -2
100
AcDbLine
 10
-24.5
 20
90.0
 30
0.0
 11
82.5
 21
90.0
 31
0.0
  0
SOLID
  5
66C
330
666
100
AcDbEntity
  8
SK2
 62
     0
100
AcDbTrace
 10
-24.5
 20
90.41666666666667
 30
0.0
 11
-24.5
 21
89.58333333333333
 31
0.0
 12
-27.0
 22
90.0
 32
0.0
 13
-27.0
 23
90.0
 33
0.0
  0
SOLID
  5
66D
330
666
100
AcDbEntity
  8
SK2
 62
     0
100
AcDbTrace
 10
82.5
 20
89.58333333333333
 30
0.0
 11
82.5
 21
90.41666666666667
 31
0.0
 12
85.0
 22
90.0
 32
0.0
 13
85.0
 23
90.0
 33
0.0
  0
MTEXT
  5
66E
330
666
100
AcDbEntity
  8
SK2
 62
     0
100
AcDbMText
 10
29.0
 20
92.39075
 30
0.0
 40
3.5
 41
0.0
 71
     5
 72
     1
  1
112
  7
SIMPLEX
 73
     1
 44
1.0
  0
POINT
  5
66F
330
666
100
AcDbEntity
  8
DEFPOINTS
 62
     0
100
AcDbPoint
 10
-27.0
 20
6.0
 30
0.0
  0
POINT
  5
670
330
666
100
AcDbEntity
  8
DEFPOINTS
 62
     0
100
AcDbPoint
 10
85.0
 20
6.0
 30
0.0
  0
POINT
  5
671
330
666
100
AcDbEntity
  8
DEFPOINTS
 62
     0
100
AcDbPoint
 10
85.0
 20
90.0
 30
0.0
  0
ENDBLK
  5
668
330
666
100
AcDbEntity
  8
0
100
AcDbBlockEnd
  0
ENDSEC
  0
SECTION
  2
ENTITIES
  0
LINE
  5
3D6
330
18
100
AcDbEntity
  8
SK4
100
AcDbLine
 10
-29.0
 20
0.0
 30
0.0
 11
39.0
 21
0.0
 31
0.0
  0
LINE
  5
3D7
330
18
100
AcDbEntity
  8
4
100
AcDbLine
 10
37.0
 20
0.0
 30
0.0
 11
87.0
 21
0.0
 31
0.0
  0
LINE
  5
3D8
330
18
100
AcDbEntity
  8
SK4
100
AcDbLine
 10
37.0
 20
0.0
 30
0.0
 11
87.0
 21
0.0
 31
0.0
  0
LINE
  5
3D9
330
18
100
AcDbEntity
  8
1
100
AcDbLine
 10
39.0
 20
4.5
 30
0.0
 11
39.00000000000001
 21
4.495526130175515
 31
0.0
  0
LINE
  5
3DA
330
18
100
AcDbEntity
  8
1
100
AcDbLine
 10
39.00000000000001
 20
4.495526130175515
 30
0.0
 11
39.0
 21
4.09623024490539
 31
0.0
  0
LINE
  5
3DB
330
18
100
AcDbEntity
  8
1
100
AcDbLine
 10
39.0
 20
4.09623024490539
 30
0.0
 11
39.0
 21
-4.5
 31
0.0
  0
LINE
  5
3DC
330
18
100
AcDbEntity
  8
1
100
AcDbLine
 10
39.0
 20
4.5
 30
0.0
 11
0.0000000000000018
 21
4.5
 31
0.0
  0
LINE
  5
3DD
330
18
100
AcDbEntity
  8
1
100
AcDbLine
 10
44.5
 20
-2.607555023326702
 30
0.0
 11
59.04737206
 21
-2.607555023326702
 31
0.0
  0
LINE
  5
3DE
330
18
100
AcDbEntity
  8
1
100
AcDbLine
 10
44.5
 20
3.481832391187675
 30
0.0
 11
59.04737206
 21
3.481832391187674
 31
0.0
  0
LINE
  5
3DF
330
18
100
AcDbEntity
  8
1
100
AcDbLine
 10
39.0
 20
4.35
 30
0.0
 11
59.04737206
 21
4.35
 31
0.0
  0
LINE
  5
3E0
330
18
100
AcDbEntity
  8
1
100
AcDbLine
 10
44.5
 20
-0.3811893599269352
 30
0.0
 11
44.5
 21
-2.607555023326706
 31
0.0
  0
LINE
  5
3E1
330
18
100
AcDbEntity
  8
1
100
AcDbLine
 10
44.5
 20
4.333266051361086
 30
0.0
 11
44.5
 21
3.481832391187673
 31
0.0
  0
LINE
  5
3E2
330
18
100
AcDbEntity
  8
1
100
AcDbLine
 10
59.04737206
 20
-1.259522968262928
 30
0.0
 11
59.04737206
 21
-2.607555023326703
 31
0.0
  0
LINE
  5
3E3
330
18
100
AcDbEntity
  8
1
100
AcDbLine
 10
44.5
 20
-0.3811893599269338
 30
0.0
 11
59.04737206
 21
-0.3811893599269342
 31
0.0
  0
LINE
  5
3E4
330
18
100
AcDbEntity
  8
1
100
AcDbLine
 10
44.49999999999999
 20
4.333266051361085
 30
0.0
 11
59.04737206
 21
4.333266051361085
 31
0.0
  0
LINE
  5
3E5
330
18
100
AcDbEntity
  8
1
100
AcDbLine
 10
59.04737206
 20
4.35
 30
0.0
 11
59.04737205999999
 21
4.349996049386248
 31
0.0
  0
LINE
  5
3E6
330
18
100
AcDbEntity
  8
1
100
AcDbLine
 10
59.04737205999999
 20
4.349996049386248
 30
0.0
 11
59.04737206
 21
4.348848158027531
 31
0.0
  0
LINE
  5
3E7
330
18
100
AcDbEntity
  8
1
100
AcDbLine
 10
59.04737206
 20
4.348848158027531
 30
0.0
 11
59.04737205999999
 21
4.333266051361085
 31
0.0
  0
LINE
  5
3E8
330
18
100
AcDbEntity
  8
1
100
AcDbLine
 10
59.04737206
 20
4.333266051361085
 30
0.0
 11
59.04737206
 21
3.481832391187678
 31
0.0
  0
LINE
  5
3E9
330
18
100
AcDbEntity
  8
1
100
AcDbLine
 10
59.04737206000001
 20
3.481832391187674
 30
0.0
 11
59.04737205999999
 21
-0.3811893599269345
 31
0.0
  0
LINE
  5
3EA
330
18
100
AcDbEntity
  8
1
100
AcDbLine
 10
59.04737205999999
 20
-2.607555023326703
 30
0.0
 11
59.04737206
 21
-4.35
 31
0.0
  0
LINE
  5
3EB
330
18
100
AcDbEntity
  8
1
100
AcDbLine
 10
-0.000000000000004
 20
-4.5
 30
0.0
 11
39.0
 21
-4.5
 31
0.0
  0
LINE
  5
3EC
330
18
100
AcDbEntity
  8
1
100
AcDbLine
 10
39.0
 20
-4.35
 30
0.0
 11
59.04737206
 21
-4.35
 31
0.0
  0
LINE
  5
3ED
330
18
100
AcDbEntity
  8
1
100
AcDbLine
 10
59.04737206
 20
-0.3811893599306744
 30
0.0
 11
59.04737206000001
 21
-0.6553243888401067
 31
0.0
  0
LINE
  5
3EE
330
18
100
AcDbEntity
  8
1
100
AcDbLine
 10
59.04737206000001
 20
-0.6553243888401067
 30
0.0
 11
59.04737206
 21
-1.259522968263018
 31
0.0
  0
LINE
  5
3EF
330
18
100
AcDbEntity
  8
1
 62
     1
100
AcDbLine
 10
83.0
 20
2.0
 30
0.0
 11
85.0
 21
-0.0000000000000004
 31
0.0
  0
LINE
  5
3F0
330
18
100
AcDbEntity
  8
1
 62
     1
100
AcDbLine
 10
83.0
 20
4.515711442717575
 30
0.0
 11
82.99999999999997
 21
4.534456249037526
 31
0.0
  0
LINE
  5
3F1
330
18
100
AcDbEntity
  8
1
 62
     1
100
AcDbLine
 10
82.99999999999999
 20
4.515711442717576
 30
0.0
 11
82.99999999999999
 21
3.491795570352811
 31
0.0
  0
LINE
  5
3F2
330
18
100
AcDbEntity
  8
1
 62
     1
100
AcDbLine
 10
83.0
 20
-0.4118781971331118
 30
0.0
 11
82.99999999999999
 21
3.491795570352811
 31
0.0
  0
LINE
  5
3F3
330
18
100
AcDbEntity
  8
1
 62
     1
100
AcDbLine
 10
83.0
 20
-2.892863145402587
 30
0.0
 11
83.0
 21
-1.259522968263017
 31
0.0
  0
LINE
  5
3F4
330
18
100
AcDbEntity
  8
1
 62
     1
100
AcDbLine
 10
83.0
 20
-4.53445625
 30
0.0
 11
83.00000000000001
 21
-4.534111674097669
 31
0.0
  0
LINE
  5
3F5
330
18
100
AcDbEntity
  8
1
 62
     1
100
AcDbLine
 10
83.00000000000001
 20
-4.534111674097669
 30
0.0
 11
83.0
 21
-4.427483015729178
 31
0.0
  0
LINE
  5
3F6
330
18
100
AcDbEntity
  8
1
 62
     1
100
AcDbLine
 10
83.0
 20
-4.427483015729178
 30
0.0
 11
83.0
 21
-2.892863145402587
 31
0.0
  0
LINE
  5
3F7
330
18
100
AcDbEntity
  8
1
 62
     1
100
AcDbLine
 10
66.34613247308104
 20
6.0
 30
0.0
 11
66.40386752691897
 21
6.0
 31
0.0
  0
LINE
  5
3F8
330
18
100
AcDbEntity
  8
1
 62
     1
100
AcDbLine
 10
59.04737206
 20
4.35
 30
0.0
 11
59.70193383359748
 21
5.483734253517515
 31
0.0
  0
LINE
  5
3F9
330
18
100
AcDbEntity
  8
1
 62
     1
100
AcDbLine
 10
79.98191017211394
 20
-5.369148763609953
 30
0.0
 11
79.5
 21
-4.53445625
 31
0.0
  0
LINE
  5
3FA
330
18
100
AcDbEntity
  8
1
 62
     1
100
AcDbLine
 10
78.36324576417286
 20
-5.5966285758356
 30
0.0
 11
77.75
 21
-4.53445625
 31
0.0
  0
LINE
  5
3FB
330
18
100
AcDbEntity
  8
1
 62
     1
100
AcDbLine
 10
76.74458135623176
 20
-5.824108388061224
 30
0.0
 11
76.0
 21
-4.53445625
 31
0.0
  0
LINE
  5
3FC
330
18
100
AcDbEntity
  8
1
 62
     1
100
AcDbLine
 10
61.09613247308104
 20
-6.000000000000006
 30
0.0
 11
60.25000000000001
 21
-4.53445625
 31
0.0
  0
LINE
  5
3FD
330
18
100
AcDbEntity
  8
1
 62
     1
100
AcDbLine
 10
62.84613247308106
 20
-6.000000000000031
 30
0.0
 11
62.00000000000001
 21
-4.53445625
 31
0.0
  0
LINE
  5
3FE
330
18
100
AcDbEntity
  8
1
 62
     1
100
AcDbLine
 10
64.59613247308103
 20
-5.999999999999993
 30
0.0
 11
63.75000000000001
 21
-4.53445625
 31
0.0
  0
LINE
  5
3FF
330
18
100
AcDbEntity
  8
1
 62
     1
100
AcDbLine
 10
68.09613247308104
 20
-6.000000000000019
 30
0.0
 11
67.25
 21
-4.53445625
 31
0.0
  0
LINE
  5
400
330
18
100
AcDbEntity
  8
1
 62
     1
100
AcDbLine
 10
69.84613247308103
 20
-5.999999999999995
 30
0.0
 11
69.0
 21
-4.53445625
 31
0.0
  0
LINE
  5
401
330
18
100
AcDbEntity
  8
1
 62
     1
100
AcDbLine
 10
71.59613247308103
 20
-5.999999999999995
 30
0.0
 11
70.75
 21
-4.53445625
 31
0.0
  0
LINE
  5
402
330
18
100
AcDbEntity
  8
1
 62
     1
100
AcDbLine
 10
75.09613247308103
 20
-5.999999999999995
 30
0.0
 11
74.25
 21
-4.53445625
 31
0.0
  0
LINE
  5
403
330
18
100
AcDbEntity
  8
1
 62
     1
100
AcDbLine
 10
82.74204209257817
 20
3.514061429647177
 30
0.0
 11
81.60057458005502
 21
3.521599784133134
 31
0.0
  0
LINE
  5
404
330
18
100
AcDbEntity
  8
1
 62
     1
100
AcDbLine
 10
82.74204209257816
 20
-0.5670988367331995
 30
0.0
 11
81.60057458005505
 21
-0.6234644961608768
 31
0.0
  0
LINE
  5
405
330
18
100
AcDbEntity
  8
1
 62
     1
100
AcDbLine
 10
80.83751184771984
 20
3.526537563310508
 30
0.0
 11
79.98191017211393
 21
3.53198929372443
 31
0.0
  0
LINE
  5
406
330
18
100
AcDbEntity
  8
1
 62
     1
100
AcDbLine
 10
80.83751184835953
 20
-0.6610913907620741
 30
0.0
 11
79.98191017211393
 21
-0.7032346132397049
 31
0.0
  0
LINE
  5
407
330
18
100
AcDbEntity
  8
1
 62
     1
100
AcDbLine
 10
78.93298160286152
 20
3.538564125217333
 30
0.0
 11
78.36324576428376
 21
3.542090125745815
 31
0.0
  0
LINE
  5
408
330
18
100
AcDbEntity
  8
1
 62
     1
100
AcDbLine
 10
78.93298160286152
 20
-0.7548375857109111
 30
0.0
 11
78.36324576433753
 21
-0.7828391860295774
 31
0.0
  0
LINE
  5
409
330
18
100
AcDbEntity
  8
1
 62
     1
100
AcDbLine
 10
77.02845135800321
 20
3.550240294838229
 30
0.0
 11
76.74458135623178
 21
3.551955205052371
 31
0.0
  0
LINE
  5
40A
330
18
100
AcDbEntity
  8
1
 62
     1
100
AcDbLine
 10
77.02845135887512
 20
-0.8483731768120661
 30
0.0
 11
76.74458135623178
 21
-0.8622984659057922
 31
0.0
  0
ARC
  5
40B
330
18
100
AcDbEntity
  8
1
 62
     1
100
AcDbCircle
 10
63.77552329315549
 20
4.516086202539825
 30
0.0
 40
20.60280338997061
100
AcDbArc
 50
337.0108781391353
 51
338.9237628159676
  0
LINE
  5
40C
330
18
100
AcDbEntity
  8
1
 62
     1
100
AcDbLine
 10
82.74204209257817
 20
-3.530473931717694
 30
0.0
 11
82.74204209257816
 21
-4.981252243550026
 31
0.0
  0
LINE
  5
40D
330
18
100
AcDbEntity
  8
1
 62
     1
100
AcDbLine
 10
75.15386752691896
 20
3.559447072901631
 30
0.0
 11
75.09613247308101
 21
3.559447072901633
 31
0.0
  0
LINE
  5
40E
330
18
100
AcDbEntity
  8
1
 62
     1
100
AcDbLine
 10
75.153867526919
 20
-0.9236491541882046
 30
0.0
 11
75.09613247308104
 21
-0.9236491541882049
 31
0.0
  0
LINE
  5
40F
330
18
100
AcDbEntity
  8
1
 62
     1
100
AcDbLine
 10
73.40386752691899
 20
3.559447072901633
 30
0.0
 11
73.34613247308106
 21
3.559447072901633
 31
0.0
  0
LINE
  5
410
330
18
100
AcDbEntity
  8
1
 62
     1
100
AcDbLine
 10
73.40386752691899
 20
-0.9236491541882049
 30
0.0
 11
73.34613247308106
 21
-0.9236491541882049
 31
0.0
  0
LINE
  5
411
330
18
100
AcDbEntity
  8
1
 62
     1
100
AcDbLine
 10
71.65386752691894
 20
3.559447072901633
 30
0.0
 11
71.59613247308103
 21
3.559447072901633
 31
0.0
  0
LINE
  5
412
330
18
100
AcDbEntity
  8
1
 62
     1
100
AcDbLine
 10
71.65386752691894
 20
-0.9236491541882045
 30
0.0
 11
71.59613247308101
 21
-0.9236491541882045
 31
0.0
  0
LINE
  5
413
330
18
100
AcDbEntity
  8
1
 62
     1
100
AcDbLine
 10
69.903867526919
 20
3.559447072901632
 30
0.0
 11
69.84613247308104
 21
3.559447072901632
 31
0.0
  0
LINE
  5
414
330
18
100
AcDbEntity
  8
1
 62
     1
100
AcDbLine
 10
69.903867526919
 20
-0.9236491541882046
 30
0.0
 11
69.84613247308104
 21
-0.9236491541882046
 31
0.0
  0
LINE
  5
415
330
18
100
AcDbEntity
  8
1
 62
     1
100
AcDbLine
 10
68.15386752691896
 20
3.559447072901633
 30
0.0
 11
68.09613247308103
 21
3.559447072901633
 31
0.0
  0
LINE
  5
416
330
18
100
AcDbEntity
  8
1
 62
     1
100
AcDbLine
 10
68.15386752691896
 20
-0.9236491541882046
 30
0.0
 11
68.09613247308103
 21
-0.9236491541882046
 31
0.0
  0
LINE
  5
417
330
18
100
AcDbEntity
  8
1
 62
     1
100
AcDbLine
 10
66.40386752691897
 20
3.559447072901633
 30
0.0
 11
66.34613247308104
 21
3.559447072901633
 31
0.0
  0
LINE
  5
418
330
18
100
AcDbEntity
  8
1
 62
     1
100
AcDbLine
 10
66.40386752691897
 20
-0.9236491541882046
 30
0.0
 11
66.34613247308104
 21
-0.9236491541882046
 31
0.0
  0
LINE
  5
419
330
18
100
AcDbEntity
  8
1
 62
     1
100
AcDbLine
 10
64.65386752691896
 20
-0.9236491541882046
 30
0.0
 11
64.59613247308103
 21
-0.9236491541882046
 31
0.0
  0
LINE
  5
41A
330
18
100
AcDbEntity
  8
1
 62
     1
100
AcDbLine
 10
62.90386752691897
 20
3.559447072901633
 30
0.0
 11
62.84613247308106
 21
3.559447072901633
 31
0.0
  0
LINE
  5
41B
330
18
100
AcDbEntity
  8
1
 62
     1
100
AcDbLine
 10
62.84613247308104
 20
3.559447072901633
 30
0.0
 11
62.84613247308105
 21
-0.9236491541882109
 31
0.0
  0
LINE
  5
41C
330
18
100
AcDbEntity
  8
1
 62
     1
100
AcDbLine
 10
62.90386752691897
 20
-0.9236491541882046
 30
0.0
 11
62.84613247308104
 21
-0.9236491541882046
 31
0.0
  0
LINE
  5
41D
330
18
100
AcDbEntity
  8
1
 62
     1
100
AcDbLine
 10
61.15386752691898
 20
3.559447072901633
 30
0.0
 11
61.09613247308104
 21
3.559447072901633
 31
0.0
  0
LINE
  5
41E
330
18
100
AcDbEntity
  8
1
 62
     1
100
AcDbLine
 10
61.15386752691899
 20
-0.9236491541882046
 30
0.0
 11
61.09613247308104
 21
-0.9236491541882046
 31
0.0
  0
LINE
  5
41F
330
18
100
AcDbEntity
  8
1
 62
     1
100
AcDbLine
 10
74.25
 20
-2.892863145402587
 30
0.0
 11
74.65448276721737
 21
-3.869581290785179
 31
0.0
  0
LINE
  5
420
330
18
100
AcDbEntity
  8
1
 62
     1
100
AcDbLine
 10
74.65448276721737
 20
-3.869581290785179
 30
0.0
 11
75.09613247308104
 21
-4.830148707360055
 31
0.0
  0
LINE
  5
421
330
18
100
AcDbEntity
  8
1
 62
     1
100
AcDbLine
 10
75.09613247308103
 20
-4.830148707360054
 30
0.0
 11
75.09613247308103
 21
-6.0
 31
0.0
  0
LINE
  5
422
330
18
100
AcDbEntity
  8
1
 62
     1
100
AcDbLine
 10
73.40386752691899
 20
-4.830148707360053
 30
0.0
 11
73.84551722048556
 21
-3.869582802398363
 31
0.0
  0
LINE
  5
423
330
18
100
AcDbEntity
  8
1
 62
     1
100
AcDbLine
 10
73.84551722048556
 20
-3.869582802398363
 30
0.0
 11
74.25
 21
-2.892863145402587
 31
0.0
  0
LINE
  5
424
330
18
100
AcDbEntity
  8
1
 62
     1
100
AcDbLine
 10
73.40386752691897
 20
-4.830148707360054
 30
0.0
 11
73.40386752691897
 21
-6.0
 31
0.0
  0
LINE
  5
425
330
18
100
AcDbEntity
  8
1
 62
     1
100
AcDbLine
 10
74.25
 20
-4.53445625
 30
0.0
 11
74.25
 21
-4.534111674097669
 31
0.0
  0
LINE
  5
426
330
18
100
AcDbEntity
  8
1
 62
     1
100
AcDbLine
 10
74.25
 20
-4.534111674097669
 30
0.0
 11
74.25
 21
-4.427483015729178
 31
0.0
  0
LINE
  5
427
330
18
100
AcDbEntity
  8
1
 62
     1
100
AcDbLine
 10
74.25
 20
-4.427483015729178
 30
0.0
 11
74.25
 21
-2.892863145402587
 31
0.0
  0
LINE
  5
428
330
18
100
AcDbEntity
  8
1
 62
     1
100
AcDbLine
 10
72.5
 20
-2.892863145402587
 30
0.0
 11
72.90448276721739
 21
-3.869581290785183
 31
0.0
  0
LINE
  5
429
330
18
100
AcDbEntity
  8
1
 62
     1
100
AcDbLine
 10
72.90448276721739
 20
-3.869581290785183
 30
0.0
 11
73.34613247308104
 21
-4.830148707360077
 31
0.0
  0
LINE
  5
42A
330
18
100
AcDbEntity
  8
1
 62
     1
100
AcDbLine
 10
73.34613247308104
 20
-6.000000000000019
 30
0.0
 11
72.5
 21
-4.53445625
 31
0.0
  0
LINE
  5
42B
330
18
100
AcDbEntity
  8
1
 62
     1
100
AcDbLine
 10
73.34613247308103
 20
-4.830148707360054
 30
0.0
 11
73.34613247308104
 21
-6.0
 31
0.0
  0
LINE
  5
42C
330
18
100
AcDbEntity
  8
1
 62
     1
100
AcDbLine
 10
75.15386752691897
 20
-4.830148707360053
 30
0.0
 11
75.59551722048558
 21
-3.869582802398368
 31
0.0
  0
LINE
  5
42D
330
18
100
AcDbEntity
  8
1
 62
     1
100
AcDbLine
 10
75.59551722048558
 20
-3.869582802398368
 30
0.0
 11
76.0
 21
-2.892863145402587
 31
0.0
  0
LINE
  5
42E
330
18
100
AcDbEntity
  8
1
 62
     1
100
AcDbLine
 10
75.15386752691899
 20
-4.830148707360054
 30
0.0
 11
75.15386752691897
 21
-6.0
 31
0.0
  0
LINE
  5
42F
330
18
100
AcDbEntity
  8
1
 62
     1
100
AcDbLine
 10
76.0
 20
-4.53445625
 30
0.0
 11
75.15386752691897
 21
-5.999999999999994
 31
0.0
  0
ARC
  5
430
330
18
100
AcDbEntity
  8
1
 62
     1
100
AcDbCircle
 10
56.31538867245524
 20
6.143978891666673
 30
0.0
 40
24.88403036780334
100
AcDbArc
 50
335.3560869792713
 51
338.7052777873444
  0
LINE
  5
431
330
18
100
AcDbEntity
  8
1
 62
     1
100
AcDbLine
 10
78.93298160286156
 20
-4.232139328178919
 30
0.0
 11
78.93298160286157
 21
-5.516560464763693
 31
0.0
  0
ARC
  5
432
330
18
100
AcDbEntity
  8
1
 62
     1
100
AcDbCircle
 10
100.3461064969203
 20
5.165348410227097
 30
0.0
 40
22.3494393894516
100
AcDbArc
 50
201.1343659965873
 51
204.33369662077
  0
LINE
  5
433
330
18
100
AcDbEntity
  8
1
 62
     1
100
AcDbLine
 10
79.5
 20
-4.53445625
 30
0.0
 11
79.5
 21
-4.534111674097669
 31
0.0
  0
LINE
  5
434
330
18
100
AcDbEntity
  8
1
 62
     1
100
AcDbLine
 10
79.5
 20
-4.534111674097669
 30
0.0
 11
79.5
 21
-4.427483015729178
 31
0.0
  0
LINE
  5
435
330
18
100
AcDbEntity
  8
1
 62
     1
100
AcDbLine
 10
79.5
 20
-4.427483015729178
 30
0.0
 11
79.5
 21
-2.892863145402587
 31
0.0
  0
LINE
  5
436
330
18
100
AcDbEntity
  8
1
 62
     1
100
AcDbLine
 10
79.98191017211393
 20
-4.043860788255465
 30
0.0
 11
79.98191017211394
 21
-5.369148763609936
 31
0.0
  0
ARC
  5
437
330
18
100
AcDbEntity
  8
1
 62
     1
100
AcDbCircle
 10
60.07534975175223
 20
5.309189000112971
 30
0.0
 40
22.70791032425577
100
AcDbArc
 50
336.1082841393651
 51
338.8260023546687
  0
LINE
  5
438
330
18
100
AcDbEntity
  8
1
 62
     1
100
AcDbLine
 10
80.83751184771985
 20
-3.887743655292649
 30
0.0
 11
80.83751184771985
 21
-5.248906354156861
 31
0.0
  0
LINE
  5
439
330
18
100
AcDbEntity
  8
1
 62
     1
100
AcDbLine
 10
81.25
 20
-4.53445625
 30
0.0
 11
80.83751184771985
 21
-5.24890635415683
 31
0.0
  0
ARC
  5
43A
330
18
100
AcDbEntity
  8
1
 62
     1
100
AcDbCircle
 10
100.7846275247974
 20
4.636105275910435
 30
0.0
 40
20.93533076475386
100
AcDbArc
 50
201.0774874674973
 51
203.6028659817536
  0
LINE
  5
43B
330
18
100
AcDbEntity
  8
1
 62
     1
100
AcDbLine
 10
81.25
 20
-4.53445625
 30
0.0
 11
81.25
 21
-4.534111674097669
 31
0.0
  0
LINE
  5
43C
330
18
100
AcDbEntity
  8
1
 62
     1
100
AcDbLine
 10
81.25
 20
-4.534111674097669
 30
0.0
 11
81.25
 21
-4.427483015729178
 31
0.0
  0
LINE
  5
43D
330
18
100
AcDbEntity
  8
1
 62
     1
100
AcDbLine
 10
81.25
 20
-4.427483015729178
 30
0.0
 11
81.25
 21
-2.892863145402587
 31
0.0
  0
LINE
  5
43E
330
18
100
AcDbEntity
  8
1
 62
     1
100
AcDbLine
 10
81.60057458005504
 20
-5.14166895138433
 30
0.0
 11
81.25
 21
-4.53445625
 31
0.0
  0
LINE
  5
43F
330
18
100
AcDbEntity
  8
1
 62
     1
100
AcDbLine
 10
81.60057458005502
 20
-3.746344160114335
 30
0.0
 11
81.60057458005504
 21
-5.141668951384299
 31
0.0
  0
ARC
  5
440
330
18
100
AcDbEntity
  8
1
 62
     1
100
AcDbCircle
 10
99.92772355036787
 20
5.709568765806085
 30
0.0
 40
23.78777245663042
100
AcDbArc
 50
201.2005835513308
 51
204.9716187099471
  0
LINE
  5
441
330
18
100
AcDbEntity
  8
1
 62
     1
100
AcDbLine
 10
78.36324576417286
 20
-4.333110771777106
 30
0.0
 11
78.36324576417286
 21
-5.596628575835571
 31
0.0
  0
LINE
  5
442
330
18
100
AcDbEntity
  8
1
 62
     1
100
AcDbLine
 10
77.02845135800322
 20
-4.56650107881688
 30
0.0
 11
77.40392143050738
 21
-3.735990255547213
 31
0.0
  0
LINE
  5
443
330
18
100
AcDbEntity
  8
1
 62
     1
100
AcDbLine
 10
77.40392143050738
 20
-3.735990255547213
 30
0.0
 11
77.75
 21
-2.892863145402587
 31
0.0
  0
LINE
  5
444
330
18
100
AcDbEntity
  8
1
 62
     1
100
AcDbLine
 10
77.02845135800325
 20
-4.566501078816892
 30
0.0
 11
77.02845135800325
 21
-5.784214575370529
 31
0.0
  0
LINE
  5
445
330
18
100
AcDbEntity
  8
1
 62
     1
100
AcDbLine
 10
77.75
 20
-4.53445625
 30
0.0
 11
77.02845135800325
 21
-5.784214575370466
 31
0.0
  0
LINE
  5
446
330
18
100
AcDbEntity
  8
1
 62
     1
100
AcDbLine
 10
77.75
 20
-4.53445625
 30
0.0
 11
77.75
 21
-4.534111674097669
 31
0.0
  0
LINE
  5
447
330
18
100
AcDbEntity
  8
1
 62
     1
100
AcDbLine
 10
77.75
 20
-4.534111674097669
 30
0.0
 11
77.75
 21
-4.427483015729178
 31
0.0
  0
LINE
  5
448
330
18
100
AcDbEntity
  8
1
 62
     1
100
AcDbLine
 10
77.75
 20
-4.427483015729178
 30
0.0
 11
77.75
 21
-2.892863145402587
 31
0.0
  0
ARC
  5
449
330
18
100
AcDbEntity
  8
1
 62
     1
100
AcDbCircle
 10
99.53317827084405
 20
6.270016553386643
 30
0.0
 40
25.25424846368476
100
AcDbArc
 50
201.2739514735151
 51
205.5328102039484
  0
LINE
  5
44A
330
18
100
AcDbEntity
  8
1
 62
     1
100
AcDbLine
 10
76.0
 20
-4.53445625
 30
0.0
 11
76.00000000000001
 21
-4.534111674097669
 31
0.0
  0
LINE
  5
44B
330
18
100
AcDbEntity
  8
1
 62
     1
100
AcDbLine
 10
76.00000000000001
 20
-4.534111674097669
 30
0.0
 11
76.0
 21
-4.427483015729178
 31
0.0
  0
LINE
  5
44C
330
18
100
AcDbEntity
  8
1
 62
     1
100
AcDbLine
 10
76.0
 20
-4.427483015729178
 30
0.0
 11
75.99999999999999
 21
-2.892863145402587
 31
0.0
  0
LINE
  5
44D
330
18
100
AcDbEntity
  8
1
 62
     1
100
AcDbLine
 10
76.74458135623176
 20
-4.61560968206653
 30
0.0
 11
76.74458135623176
 21
-5.824108388061208
 31
0.0
  0
LINE
  5
44E
330
18
100
AcDbEntity
  8
1
 62
     1
100
AcDbLine
 10
70.75
 20
-2.892863145402587
 30
0.0
 11
71.15448276721737
 21
-3.869581290785179
 31
0.0
  0
LINE
  5
44F
330
18
100
AcDbEntity
  8
1
 62
     1
100
AcDbLine
 10
71.15448276721737
 20
-3.869581290785179
 30
0.0
 11
71.59613247308104
 21
-4.830148707360055
 31
0.0
  0
LINE
  5
450
330
18
100
AcDbEntity
  8
1
 62
     1
100
AcDbLine
 10
71.59613247308101
 20
-4.830148707360054
 30
0.0
 11
71.59613247308103
 21
-6.0
 31
0.0
  0
LINE
  5
451
330
18
100
AcDbEntity
  8
1
 62
     1
100
AcDbLine
 10
71.65386752691896
 20
-4.830148707360076
 30
0.0
 11
72.09551722048558
 21
-3.86958280239838
 31
0.0
  0
LINE
  5
452
330
18
100
AcDbEntity
  8
1
 62
     1
100
AcDbLine
 10
72.09551722048558
 20
-3.86958280239838
 30
0.0
 11
72.5
 21
-2.892863145402587
 31
0.0
  0
LINE
  5
453
330
18
100
AcDbEntity
  8
1
 62
     1
100
AcDbLine
 10
71.65386752691896
 20
-4.830148707360054
 30
0.0
 11
71.65386752691896
 21
-6.0
 31
0.0
  0
LINE
  5
454
330
18
100
AcDbEntity
  8
1
 62
     1
100
AcDbLine
 10
72.5
 20
-4.53445625
 30
0.0
 11
72.50000000000001
 21
-4.534111674097669
 31
0.0
  0
LINE
  5
455
330
18
100
AcDbEntity
  8
1
 62
     1
100
AcDbLine
 10
72.50000000000001
 20
-4.534111674097669
 30
0.0
 11
72.50000000000001
 21
-4.427483015729178
 31
0.0
  0
LINE
  5
456
330
18
100
AcDbEntity
  8
1
 62
     1
100
AcDbLine
 10
72.50000000000001
 20
-4.427483015729178
 30
0.0
 11
72.5
 21
-2.892863145402587
 31
0.0
  0
LINE
  5
457
330
18
100
AcDbEntity
  8
1
 62
     1
100
AcDbLine
 10
69.90386752691897
 20
-4.830148707360038
 30
0.0
 11
70.34551722048558
 21
-3.869582802398356
 31
0.0
  0
LINE
  5
458
330
18
100
AcDbEntity
  8
1
 62
     1
100
AcDbLine
 10
70.34551722048558
 20
-3.869582802398356
 30
0.0
 11
70.75
 21
-2.892863145402587
 31
0.0
  0
LINE
  5
459
330
18
100
AcDbEntity
  8
1
 62
     1
100
AcDbLine
 10
69.90386752691902
 20
-4.830148707360054
 30
0.0
 11
69.90386752691902
 21
-6.0
 31
0.0
  0
LINE
  5
45A
330
18
100
AcDbEntity
  8
1
 62
     1
100
AcDbLine
 10
70.75
 20
-4.53445625
 30
0.0
 11
69.90386752691902
 21
-5.99999999999992
 31
0.0
  0
LINE
  5
45B
330
18
100
AcDbEntity
  8
1
 62
     1
100
AcDbLine
 10
70.75
 20
-4.53445625
 30
0.0
 11
70.75
 21
-4.534111674097669
 31
0.0
  0
LINE
  5
45C
330
18
100
AcDbEntity
  8
1
 62
     1
100
AcDbLine
 10
70.75
 20
-4.534111674097669
 30
0.0
 11
70.75
 21
-4.427483015729178
 31
0.0
  0
LINE
  5
45D
330
18
100
AcDbEntity
  8
1
 62
     1
100
AcDbLine
 10
70.75
 20
-4.427483015729178
 30
0.0
 11
70.75
 21
-2.892863145402587
 31
0.0
  0
LINE
  5
45E
330
18
100
AcDbEntity
  8
1
 62
     1
100
AcDbLine
 10
69.0
 20
-2.892863145402587
 30
0.0
 11
69.40448276721735
 21
-3.869581290785178
 31
0.0
  0
LINE
  5
45F
330
18
100
AcDbEntity
  8
1
 62
     1
100
AcDbLine
 10
69.40448276721735
 20
-3.869581290785178
 30
0.0
 11
69.84613247308103
 21
-4.830148707360055
 31
0.0
  0
LINE
  5
460
330
18
100
AcDbEntity
  8
1
 62
     1
100
AcDbLine
 10
69.84613247308103
 20
-4.830148707360054
 30
0.0
 11
69.84613247308103
 21
-6.0
 31
0.0
  0
LINE
  5
461
330
18
100
AcDbEntity
  8
1
 62
     1
100
AcDbLine
 10
68.15386752691896
 20
-4.830148707360076
 30
0.0
 11
68.59551722048555
 21
-3.869582802398377
 31
0.0
  0
LINE
  5
462
330
18
100
AcDbEntity
  8
1
 62
     1
100
AcDbLine
 10
68.59551722048555
 20
-3.869582802398377
 30
0.0
 11
69.0
 21
-2.892863145402587
 31
0.0
  0
LINE
  5
463
330
18
100
AcDbEntity
  8
1
 62
     1
100
AcDbLine
 10
68.15386752691896
 20
-4.830148707360054
 30
0.0
 11
68.15386752691896
 21
-6.0
 31
0.0
  0
LINE
  5
464
330
18
100
AcDbEntity
  8
1
 62
     1
100
AcDbLine
 10
69.0
 20
-4.53445625
 30
0.0
 11
69.00000000000001
 21
-4.534111674097669
 31
0.0
  0
LINE
  5
465
330
18
100
AcDbEntity
  8
1
 62
     1
100
AcDbLine
 10
69.00000000000001
 20
-4.534111674097669
 30
0.0
 11
68.99999999999999
 21
-4.427483015729178
 31
0.0
  0
LINE
  5
466
330
18
100
AcDbEntity
  8
1
 62
     1
100
AcDbLine
 10
68.99999999999999
 20
-4.427483015729178
 30
0.0
 11
68.99999999999999
 21
-2.892863145402587
 31
0.0
  0
LINE
  5
467
330
18
100
AcDbEntity
  8
1
 62
     1
100
AcDbLine
 10
67.25
 20
-2.892863145402587
 30
0.0
 11
67.65448276721737
 21
-3.869581290785185
 31
0.0
  0
LINE
  5
468
330
18
100
AcDbEntity
  8
1
 62
     1
100
AcDbLine
 10
67.65448276721737
 20
-3.869581290785185
 30
0.0
 11
68.09613247308104
 21
-4.830148707360077
 31
0.0
  0
LINE
  5
469
330
18
100
AcDbEntity
  8
1
 62
     1
100
AcDbLine
 10
68.09613247308104
 20
-4.830148707360054
 30
0.0
 11
68.09613247308104
 21
-6.0
 31
0.0
  0
LINE
  5
46A
330
18
100
AcDbEntity
  8
1
 62
     1
100
AcDbLine
 10
65.5
 20
-2.892863145402587
 30
0.0
 11
65.90448276721737
 21
-3.869581290785188
 31
0.0
  0
LINE
  5
46B
330
18
100
AcDbEntity
  8
1
 62
     1
100
AcDbLine
 10
65.90448276721737
 20
-3.869581290785188
 30
0.0
 11
66.34613247308104
 21
-4.830148707360077
 31
0.0
  0
LINE
  5
46C
330
18
100
AcDbEntity
  8
1
 62
     1
100
AcDbLine
 10
66.34613247308104
 20
-6.000000000000019
 30
0.0
 11
65.5
 21
-4.53445625
 31
0.0
  0
LINE
  5
46D
330
18
100
AcDbEntity
  8
1
 62
     1
100
AcDbLine
 10
66.34613247308104
 20
-4.830148707360054
 30
0.0
 11
66.34613247308104
 21
-6.0
 31
0.0
  0
LINE
  5
46E
330
18
100
AcDbEntity
  8
1
 62
     1
100
AcDbLine
 10
66.40386752691896
 20
-4.830148707360053
 30
0.0
 11
66.84551722048555
 21
-3.869582802398365
 31
0.0
  0
LINE
  5
46F
330
18
100
AcDbEntity
  8
1
 62
     1
100
AcDbLine
 10
66.84551722048555
 20
-3.869582802398365
 30
0.0
 11
67.25
 21
-2.892863145402587
 31
0.0
  0
LINE
  5
470
330
18
100
AcDbEntity
  8
1
 62
     1
100
AcDbLine
 10
66.40386752691897
 20
-4.830148707360054
 30
0.0
 11
66.40386752691897
 21
-6.0
 31
0.0
  0
LINE
  5
471
330
18
100
AcDbEntity
  8
1
 62
     1
100
AcDbLine
 10
67.25
 20
-4.53445625
 30
0.0
 11
67.25
 21
-4.534111674097669
 31
0.0
  0
LINE
  5
472
330
18
100
AcDbEntity
  8
1
 62
     1
100
AcDbLine
 10
67.25
 20
-4.534111674097669
 30
0.0
 11
67.25
 21
-4.427483015729178
 31
0.0
  0
LINE
  5
473
330
18
100
AcDbEntity
  8
1
 62
     1
100
AcDbLine
 10
67.25
 20
-4.427483015729178
 30
0.0
 11
67.25
 21
-2.892863145402587
 31
0.0
  0
ARC
  5
474
330
18
100
AcDbEntity
  8
1
 62
     1
100
AcDbCircle
 10
62.58640975249935
 20
-34.63177374337993
 30
0.0
 40
38.27769622452119
100
AcDbArc
 50
94.32170756673298
 51
95.30498608293519
  0
LINE
  5
475
330
18
100
AcDbEntity
  8
1
 62
     1
100
AcDbLine
 10
59.18900836413131
 20
-0.4310448069772351
 30
0.0
 11
59.70193383359748
 21
-0.74335214380267
 31
0.0
  0
LINE
  5
476
330
18
100
AcDbEntity
  8
1
 62
     1
100
AcDbLine
 10
60.25
 20
-2.892863145402587
 30
0.0
 11
60.65448276721738
 21
-3.869581290785177
 31
0.0
  0
LINE
  5
477
330
18
100
AcDbEntity
  8
1
 62
     1
100
AcDbLine
 10
60.65448276721738
 20
-3.869581290785177
 30
0.0
 11
61.09613247308104
 21
-4.830148707360062
 31
0.0
  0
LINE
  5
478
330
18
100
AcDbEntity
  8
1
 62
     1
100
AcDbLine
 10
61.09613247308104
 20
-4.830148707360054
 30
0.0
 11
61.09613247308104
 21
-6.0
 31
0.0
  0
ARC
  5
479
330
18
100
AcDbEntity
  8
1
 62
     1
100
AcDbCircle
 10
37.31611118268113
 20
6.038959745202641
 30
0.0
 40
24.61224709155908
100
AcDbArc
 50
335.4414463986708
 51
338.72109685126
  0
LINE
  5
47A
330
18
100
AcDbEntity
  8
1
 62
     1
100
AcDbLine
 10
59.70193383359747
 20
-4.190488829739001
 30
0.0
 11
59.70193383359747
 21
-5.483734253517514
 31
0.0
  0
LINE
  5
47B
330
18
100
AcDbEntity
  8
1
 62
     1
100
AcDbLine
 10
60.25000000000001
 20
-4.53445625
 30
0.0
 11
59.70193383359748
 21
-5.48373425351751
 31
0.0
  0
LINE
  5
47C
330
18
100
AcDbEntity
  8
1
 62
     1
100
AcDbLine
 10
60.25000000000001
 20
-4.53445625
 30
0.0
 11
60.25000000000001
 21
-4.534111674097669
 31
0.0
  0
LINE
  5
47D
330
18
100
AcDbEntity
  8
1
 62
     1
100
AcDbLine
 10
60.25000000000001
 20
-4.534111674097669
 30
0.0
 11
60.25000000000001
 21
-4.427483015729178
 31
0.0
  0
LINE
  5
47E
330
18
100
AcDbEntity
  8
1
 62
     1
100
AcDbLine
 10
60.25000000000001
 20
-4.427483015729178
 30
0.0
 11
60.25000000000001
 21
-2.892863145402587
 31
0.0
  0
LINE
  5
47F
330
18
100
AcDbEntity
  8
1
 62
     1
100
AcDbLine
 10
61.15386752691897
 20
-4.830148707360051
 30
0.0
 11
61.59551722048558
 21
-3.869582802398365
 31
0.0
  0
LINE
  5
480
330
18
100
AcDbEntity
  8
1
 62
     1
100
AcDbLine
 10
61.59551722048558
 20
-3.869582802398365
 30
0.0
 11
62.00000000000001
 21
-2.892863145402587
 31
0.0
  0
LINE
  5
481
330
18
100
AcDbEntity
  8
1
 62
     1
100
AcDbLine
 10
61.15386752691899
 20
-4.830148707360054
 30
0.0
 11
61.15386752691899
 21
-6.0
 31
0.0
  0
LINE
  5
482
330
18
100
AcDbEntity
  8
1
 62
     1
100
AcDbLine
 10
62.00000000000001
 20
-4.53445625
 30
0.0
 11
61.15386752691899
 21
-5.999999999999981
 31
0.0
  0
LINE
  5
483
330
18
100
AcDbEntity
  8
1
 62
     1
100
AcDbLine
 10
62.00000000000001
 20
-2.892863145402587
 30
0.0
 11
62.40448276721737
 21
-3.869581290785193
 31
0.0
  0
LINE
  5
484
330
18
100
AcDbEntity
  8
1
 62
     1
100
AcDbLine
 10
62.40448276721737
 20
-3.869581290785193
 30
0.0
 11
62.84613247308106
 21
-4.830148707360092
 31
0.0
  0
LINE
  5
485
330
18
100
AcDbEntity
  8
1
 62
     1
100
AcDbLine
 10
62.00000000000001
 20
-4.53445625
 30
0.0
 11
62.00000000000001
 21
-4.534111674097669
 31
0.0
  0
LINE
  5
486
330
18
100
AcDbEntity
  8
1
 62
     1
100
AcDbLine
 10
62.00000000000001
 20
-4.534111674097669
 30
0.0
 11
62.00000000000001
 21
-4.427483015729178
 31
0.0
  0
LINE
  5
487
330
18
100
AcDbEntity
  8
1
 62
     1
100
AcDbLine
 10
62.00000000000001
 20
-4.427483015729178
 30
0.0
 11
62.00000000000001
 21
-2.892863145402587
 31
0.0
  0
LINE
  5
488
330
18
100
AcDbEntity
  8
1
 62
     1
100
AcDbLine
 10
62.84613247308105
 20
-4.830148707360054
 30
0.0
 11
62.84613247308106
 21
-6.0
 31
0.0
  0
LINE
  5
489
330
18
100
AcDbEntity
  8
1
 62
     1
100
AcDbLine
 10
62.90386752691897
 20
-4.830148707360053
 30
0.0
 11
63.34551722048559
 21
-3.869582802398365
 31
0.0
  0
LINE
  5
48A
330
18
100
AcDbEntity
  8
1
 62
     1
100
AcDbLine
 10
63.34551722048559
 20
-3.869582802398365
 30
0.0
 11
63.75
 21
-2.892863145402587
 31
0.0
  0
LINE
  5
48B
330
18
100
AcDbEntity
  8
1
 62
     1
100
AcDbLine
 10
62.90386752691898
 20
-4.830148707360054
 30
0.0
 11
62.90386752691898
 21
-6.0
 31
0.0
  0
LINE
  5
48C
330
18
100
AcDbEntity
  8
1
 62
     1
100
AcDbLine
 10
63.75000000000001
 20
-4.53445625
 30
0.0
 11
62.90386752691898
 21
-5.999999999999994
 31
0.0
  0
LINE
  5
48D
330
18
100
AcDbEntity
  8
1
 62
     1
100
AcDbLine
 10
63.75
 20
-2.892863145402587
 30
0.0
 11
64.15448276721737
 21
-3.869581290785174
 31
0.0
  0
LINE
  5
48E
330
18
100
AcDbEntity
  8
1
 62
     1
100
AcDbLine
 10
64.15448276721737
 20
-3.869581290785174
 30
0.0
 11
64.59613247308104
 21
-4.830148707360055
 31
0.0
  0
LINE
  5
48F
330
18
100
AcDbEntity
  8
1
 62
     1
100
AcDbLine
 10
63.75000000000001
 20
-4.53445625
 30
0.0
 11
63.75000000000001
 21
-4.534111674097669
 31
0.0
  0
LINE
  5
490
330
18
100
AcDbEntity
  8
1
 62
     1
100
AcDbLine
 10
63.75000000000001
 20
-4.534111674097669
 30
0.0
 11
63.75000000000001
 21
-4.427483015729178
 31
0.0
  0
LINE
  5
491
330
18
100
AcDbEntity
  8
1
 62
     1
100
AcDbLine
 10
63.75000000000001
 20
-4.427483015729178
 30
0.0
 11
63.75000000000001
 21
-2.892863145402587
 31
0.0
  0
LINE
  5
492
330
18
100
AcDbEntity
  8
1
 62
     1
100
AcDbLine
 10
64.59613247308103
 20
-4.830148707360054
 30
0.0
 11
64.59613247308103
 21
-6.0
 31
0.0
  0
LINE
  5
493
330
18
100
AcDbEntity
  8
1
 62
     1
100
AcDbLine
 10
64.65386752691899
 20
-4.830148707360053
 30
0.0
 11
65.09551722048559
 21
-3.869582802398367
 31
0.0
  0
LINE
  5
494
330
18
100
AcDbEntity
  8
1
 62
     1
100
AcDbLine
 10
65.09551722048559
 20
-3.869582802398367
 30
0.0
 11
65.5
 21
-2.892863145402587
 31
0.0
  0
LINE
  5
495
330
18
100
AcDbEntity
  8
1
 62
     1
100
AcDbLine
 10
64.65386752691897
 20
-4.830148707360054
 30
0.0
 11
64.65386752691897
 21
-6.0
 31
0.0
  0
LINE
  5
496
330
18
100
AcDbEntity
  8
1
 62
     1
100
AcDbLine
 10
65.5
 20
-4.53445625
 30
0.0
 11
65.5
 21
-4.534111674097669
 31
0.0
  0
LINE
  5
497
330
18
100
AcDbEntity
  8
1
 62
     1
100
AcDbLine
 10
65.5
 20
-4.534111674097669
 30
0.0
 11
65.5
 21
-4.427483015729178
 31
0.0
  0
LINE
  5
498
330
18
100
AcDbEntity
  8
1
 62
     1
100
AcDbLine
 10
65.5
 20
-4.427483015729178
 30
0.0
 11
65.49999999999999
 21
-2.892863145402587
 31
0.0
  0
LINE
  5
499
330
18
100
AcDbEntity
  8
1
 62
     1
100
AcDbLine
 10
59.04737206
 20
-1.259522968262928
 30
0.0
 11
59.04737206
 21
-2.607555023326703
 31
0.0
  0
LINE
  5
49A
330
18
100
AcDbEntity
  8
1
 62
     1
100
AcDbLine
 10
82.96485954445673
 20
-0.431044806977235
 30
0.0
 11
83.0
 21
-0.4118781971331115
 31
0.0
  0
LINE
  5
49B
330
18
100
AcDbEntity
  8
1
 62
     1
100
AcDbLine
 10
81.28514045554327
 20
-0.431044806977235
 30
0.0
 11
81.25
 21
-0.4118781971331121
 31
0.0
  0
LINE
  5
49C
330
18
100
AcDbEntity
  8
1
 62
     1
100
AcDbLine
 10
81.21485954445671
 20
-0.431044806977235
 30
0.0
 11
81.25
 21
-0.4118781971331121
 31
0.0
  0
LINE
  5
49D
330
18
100
AcDbEntity
  8
1
 62
     1
100
AcDbLine
 10
79.53514045554329
 20
-0.431044806977235
 30
0.0
 11
79.5
 21
-0.4118781971331117
 31
0.0
  0
LINE
  5
49E
330
18
100
AcDbEntity
  8
1
 62
     1
100
AcDbLine
 10
79.46485954445671
 20
-0.431044806977235
 30
0.0
 11
79.5
 21
-0.4118781971331117
 31
0.0
  0
LINE
  5
49F
330
18
100
AcDbEntity
  8
1
 62
     1
100
AcDbLine
 10
77.78514045554329
 20
-0.431044806977235
 30
0.0
 11
77.75
 21
-0.4118781971331117
 31
0.0
  0
LINE
  5
4A0
330
18
100
AcDbEntity
  8
1
 62
     1
100
AcDbLine
 10
77.71485954445671
 20
-0.4310448069772349
 30
0.0
 11
77.75
 21
-0.4118781971331117
 31
0.0
  0
LINE
  5
4A1
330
18
100
AcDbEntity
  8
1
 62
     1
100
AcDbLine
 10
76.03514045554329
 20
-0.431044806977235
 30
0.0
 11
76.0
 21
-0.4118781971331116
 31
0.0
  0
LINE
  5
4A2
330
18
100
AcDbEntity
  8
1
 62
     1
100
AcDbLine
 10
75.96485954445671
 20
-0.431044806977235
 30
0.0
 11
76.0
 21
-0.4118781971331116
 31
0.0
  0
LINE
  5
4A3
330
18
100
AcDbEntity
  8
1
 62
     1
100
AcDbLine
 10
74.28514045554329
 20
-0.4310448069772351
 30
0.0
 11
74.25
 21
-0.4118781971331117
 31
0.0
  0
LINE
  5
4A4
330
18
100
AcDbEntity
  8
1
 62
     1
100
AcDbLine
 10
74.21485954445673
 20
-0.431044806977235
 30
0.0
 11
74.25
 21
-0.4118781971331117
 31
0.0
  0
LINE
  5
4A5
330
18
100
AcDbEntity
  8
1
 62
     1
100
AcDbLine
 10
72.53514045554329
 20
-0.431044806977235
 30
0.0
 11
72.5
 21
-0.4118781971331117
 31
0.0
  0
LINE
  5
4A6
330
18
100
AcDbEntity
  8
1
 62
     1
100
AcDbLine
 10
72.46485954445671
 20
-0.431044806977235
 30
0.0
 11
72.5
 21
-0.4118781971331117
 31
0.0
  0
LINE
  5
4A7
330
18
100
AcDbEntity
  8
1
 62
     1
100
AcDbLine
 10
70.78514045554329
 20
-0.431044806977235
 30
0.0
 11
70.75
 21
-0.4118781971331116
 31
0.0
  0
LINE
  5
4A8
330
18
100
AcDbEntity
  8
1
 62
     1
100
AcDbLine
 10
70.71485954445673
 20
-0.431044806977235
 30
0.0
 11
70.75
 21
-0.4118781971331116
 31
0.0
  0
LINE
  5
4A9
330
18
100
AcDbEntity
  8
1
 62
     1
100
AcDbLine
 10
69.03514045554329
 20
-0.4310448069772351
 30
0.0
 11
69.0
 21
-0.4118781971331121
 31
0.0
  0
LINE
  5
4AA
330
18
100
AcDbEntity
  8
1
 62
     1
100
AcDbLine
 10
68.96485954445671
 20
-0.431044806977235
 30
0.0
 11
69.0
 21
-0.4118781971331121
 31
0.0
  0
LINE
  5
4AB
330
18
100
AcDbEntity
  8
1
 62
     1
100
AcDbLine
 10
67.28514045554329
 20
-0.431044806977235
 30
0.0
 11
67.25
 21
-0.4118781971331117
 31
0.0
  0
LINE
  5
4AC
330
18
100
AcDbEntity
  8
1
 62
     1
100
AcDbLine
 10
67.21485954445671
 20
-0.431044806977235
 30
0.0
 11
67.25
 21
-0.4118781971331117
 31
0.0
  0
LINE
  5
4AD
330
18
100
AcDbEntity
  8
1
 62
     1
100
AcDbLine
 10
65.53514045554329
 20
-0.431044806977235
 30
0.0
 11
65.5
 21
-0.4118781971331117
 31
0.0
  0
LINE
  5
4AE
330
18
100
AcDbEntity
  8
1
 62
     1
100
AcDbLine
 10
65.46485954445671
 20
-0.431044806977235
 30
0.0
 11
65.5
 21
-0.4118781971331117
 31
0.0
  0
LINE
  5
4AF
330
18
100
AcDbEntity
  8
1
 62
     1
100
AcDbLine
 10
63.78514045554329
 20
-0.431044806977235
 30
0.0
 11
63.75
 21
-0.4118781971331117
 31
0.0
  0
LINE
  5
4B0
330
18
100
AcDbEntity
  8
1
 62
     1
100
AcDbLine
 10
63.71485954445673
 20
-0.4310448069772351
 30
0.0
 11
63.75
 21
-0.4118781971331117
 31
0.0
  0
LINE
  5
4B1
330
18
100
AcDbEntity
  8
1
 62
     1
100
AcDbLine
 10
62.03514045554329
 20
-0.431044806977235
 30
0.0
 11
62.0
 21
-0.4118781971331116
 31
0.0
  0
LINE
  5
4B2
330
18
100
AcDbEntity
  8
1
 62
     1
100
AcDbLine
 10
61.96485954445673
 20
-0.431044806977235
 30
0.0
 11
62.0
 21
-0.4118781971331116
 31
0.0
  0
LINE
  5
4B3
330
18
100
AcDbEntity
  8
1
 62
     1
100
AcDbLine
 10
60.28514045554329
 20
-0.4310448069772351
 30
0.0
 11
60.25000000000001
 21
-0.4118781971331117
 31
0.0
  0
LINE
  5
4B4
330
18
100
AcDbEntity
  8
1
 62
     1
100
AcDbLine
 10
60.21485954445673
 20
-0.431044806977235
 30
0.0
 11
60.25000000000001
 21
-0.4118781971331117
 31
0.0
  0
ARC
  5
4B5
330
18
100
AcDbEntity
  8
1
 62
     1
100
AcDbCircle
 10
59.00736293885623
 20
-0.7195400229751655
 30
0.0
 40
0.3408807083571769
100
AcDbArc
 50
57.80422492412535
 51
83.25623229094923
  0
LINE
  5
4B6
330
18
100
AcDbEntity
  8
1
 62
     1
100
AcDbLine
 10
82.74204209257815
 20
4.94886581180456
 30
0.0
 11
81.60057458005501
 21
5.103729188314777
 31
0.0
  0
LINE
  5
4B7
330
18
100
AcDbEntity
  8
1
 62
     1
100
AcDbLine
 10
81.60057458005504
 20
5.141668951384299
 30
0.0
 11
82.74204209257816
 21
4.981252243550025
 31
0.0
  0
LINE
  5
4B8
330
18
100
AcDbEntity
  8
1
 62
     1
100
AcDbLine
 10
80.83751184835953
 20
5.207108231595681
 30
0.0
 11
79.98191017211393
 21
5.322895783736119
 31
0.0
  0
LINE
  5
4B9
330
18
100
AcDbEntity
  8
1
 62
     1
100
AcDbLine
 10
80.83751184771985
 20
5.248906354156861
 30
0.0
 11
80.83751184771985
 21
5.248896617255003
 31
0.0
  0
LINE
  5
4BA
330
18
100
AcDbEntity
  8
1
 62
     1
100
AcDbLine
 10
80.83751184771985
 20
5.248896617255003
 30
0.0
 11
80.83751184771985
 21
5.246056892190191
 31
0.0
  0
LINE
  5
4BB
330
18
100
AcDbEntity
  8
1
 62
     1
100
AcDbLine
 10
80.83751184771985
 20
5.246056892190191
 30
0.0
 11
80.83751184771985
 21
5.207108227080221
 31
0.0
  0
LINE
  5
4BC
330
18
100
AcDbEntity
  8
1
 62
     1
100
AcDbLine
 10
79.98191017211394
 20
5.369148763609935
 30
0.0
 11
80.83751184771985
 21
5.24890635415686
 31
0.0
  0
LINE
  5
4BD
330
18
100
AcDbEntity
  8
1
 62
     1
100
AcDbLine
 10
79.98191017211394
 20
5.369148763609936
 30
0.0
 11
79.98191017211394
 21
5.369138007204415
 31
0.0
  0
LINE
  5
4BE
330
18
100
AcDbEntity
  8
1
 62
     1
100
AcDbLine
 10
79.98191017211394
 20
5.369138007204415
 30
0.0
 11
79.98191017211393
 21
5.365999430463599
 31
0.0
  0
LINE
  5
4BF
330
18
100
AcDbEntity
  8
1
 62
     1
100
AcDbLine
 10
79.98191017211393
 20
5.365999430463599
 30
0.0
 11
79.98191017211394
 21
5.322895783736114
 31
0.0
  0
LINE
  5
4C0
330
18
100
AcDbEntity
  8
1
 62
     1
100
AcDbLine
 10
78.93298160286152
 20
5.464673785377496
 30
0.0
 11
78.36324576433755
 21
5.54160754996157
 31
0.0
  0
LINE
  5
4C1
330
18
100
AcDbEntity
  8
1
 62
     1
100
AcDbLine
 10
78.36324576417286
 20
5.59662857583557
 30
0.0
 11
78.93298160286157
 21
5.516560464763692
 31
0.0
  0
LINE
  5
4C2
330
18
100
AcDbEntity
  8
1
 62
     1
100
AcDbLine
 10
77.02845135887513
 20
5.721660709843257
 30
0.0
 11
76.74458135623178
 21
5.759920127187654
 31
0.0
  0
LINE
  5
4C3
330
18
100
AcDbEntity
  8
1
 62
     1
100
AcDbLine
 10
76.74458135623176
 20
5.824108388061208
 30
0.0
 11
77.02845135800325
 21
5.784214575370529
 31
0.0
  0
ARC
  5
4C4
330
18
100
AcDbEntity
  8
1
 62
     1
100
AcDbCircle
 10
80.13174245470877
 20
-28.24914467247717
 30
0.0
 40
31.87028100050701
100
AcDbArc
 50
84.83651360980924
 51
85.30199109142438
  0
LINE
  5
4C5
330
18
100
AcDbEntity
  8
1
 62
     1
100
AcDbLine
 10
82.74204209257816
 20
3.514061429647178
 30
0.0
 11
82.74204209257815
 21
-0.5670988367332077
 31
0.0
  0
LINE
  5
4C6
330
18
100
AcDbEntity
  8
1
 62
     1
100
AcDbLine
 10
82.96485954445671
 20
-0.4310448069772352
 30
0.0
 11
82.74204209257815
 21
-0.567098836733197
 31
0.0
  0
LINE
  5
4C7
330
18
100
AcDbEntity
  8
1
 62
     1
100
AcDbLine
 10
75.15386752691896
 20
5.928479757911586
 30
0.0
 11
75.096132473081
 21
5.928479757911586
 31
0.0
  0
LINE
  5
4C8
330
18
100
AcDbEntity
  8
1
 62
     1
100
AcDbLine
 10
75.09613247308103
 20
6.0
 30
0.0
 11
75.15386752691897
 21
6.0
 31
0.0
  0
LINE
  5
4C9
330
18
100
AcDbEntity
  8
1
 62
     1
100
AcDbLine
 10
73.40386752691899
 20
5.928479757911586
 30
0.0
 11
73.34613247308106
 21
5.928479757911586
 31
0.0
  0
LINE
  5
4CA
330
18
100
AcDbEntity
  8
1
 62
     1
100
AcDbLine
 10
73.34613247308104
 20
6.0
 30
0.0
 11
73.40386752691899
 21
6.0
 31
0.0
  0
LINE
  5
4CB
330
18
100
AcDbEntity
  8
1
 62
     1
100
AcDbLine
 10
71.65386752691894
 20
5.928479757911584
 30
0.0
 11
71.59613247308098
 21
5.928479757911584
 31
0.0
  0
LINE
  5
4CC
330
18
100
AcDbEntity
  8
1
 62
     1
100
AcDbLine
 10
71.59613247308103
 20
6.0
 30
0.0
 11
71.65386752691896
 21
5.999999999999999
 31
0.0
  0
LINE
  5
4CD
330
18
100
AcDbEntity
  8
1
 62
     1
100
AcDbLine
 10
69.90386752691904
 20
5.928479757911587
 30
0.0
 11
69.84613247308106
 21
5.928479757911587
 31
0.0
  0
LINE
  5
4CE
330
18
100
AcDbEntity
  8
1
 62
     1
100
AcDbLine
 10
69.84613247308103
 20
6.0
 30
0.0
 11
69.90386752691902
 21
6.0
 31
0.0
  0
LINE
  5
4CF
330
18
100
AcDbEntity
  8
1
 62
     1
100
AcDbLine
 10
68.15386752691896
 20
5.928479757911586
 30
0.0
 11
68.09613247308103
 21
5.928479757911586
 31
0.0
  0
LINE
  5
4D0
330
18
100
AcDbEntity
  8
1
 62
     1
100
AcDbLine
 10
68.09613247308104
 20
6.0
 30
0.0
 11
68.15386752691897
 21
6.000000000000001
 31
0.0
  0
LINE
  5
4D1
330
18
100
AcDbEntity
  8
1
 62
     1
100
AcDbLine
 10
66.40386752691897
 20
5.928479757911586
 30
0.0
 11
66.34613247308104
 21
5.928479757911586
 31
0.0
  0
LINE
  5
4D2
330
18
100
AcDbEntity
  8
1
 62
     1
100
AcDbLine
 10
64.59613247308103
 20
6.0
 30
0.0
 11
64.65386752691897
 21
6.0
 31
0.0
  0
LINE
  5
4D3
330
18
100
AcDbEntity
  8
1
 62
     1
100
AcDbLine
 10
62.84613247308106
 20
6.0
 30
0.0
 11
62.90386752691898
 21
6.0
 31
0.0
  0
LINE
  5
4D4
330
18
100
AcDbEntity
  8
1
 62
     1
100
AcDbLine
 10
61.15386752691899
 20
5.928479757911586
 30
0.0
 11
61.09613247308104
 21
5.928479757911586
 31
0.0
  0
LINE
  5
4D5
330
18
100
AcDbEntity
  8
1
 62
     1
100
AcDbLine
 10
61.09613247308104
 20
6.0
 30
0.0
 11
61.15386752691899
 21
6.0
 31
0.0
  0
ARC
  5
4D6
330
18
100
AcDbEntity
  8
1
 62
     1
100
AcDbCircle
 10
67.67853089974886
 20
-51.65282402007889
 30
0.0
 40
55.35516959107598
100
AcDbArc
 50
85.00315520053813
 51
85.88175546765085
  0
LINE
  5
4D7
330
18
100
AcDbEntity
  8
1
 62
     1
100
AcDbLine
 10
71.65386752691896
 20
3.559447072901632
 30
0.0
 11
71.65386752691896
 21
-0.9236491541882109
 31
0.0
  0
LINE
  5
4D8
330
18
100
AcDbEntity
  8
1
 62
     1
100
AcDbLine
 10
72.46485954445671
 20
-0.4310448069772352
 30
0.0
 11
71.65386752691896
 21
-0.9236491541882104
 31
0.0
  0
ARC
  5
4D9
330
18
100
AcDbEntity
  8
1
 62
     1
100
AcDbCircle
 10
74.9671194983502
 20
-44.05215124614232
 30
0.0
 40
47.7306388396746
100
AcDbArc
 50
94.0498863223251
 51
95.06883580783403
  0
LINE
  5
4DA
330
18
100
AcDbEntity
  8
1
 62
     1
100
AcDbLine
 10
70.75
 20
-0.4118781971331122
 30
0.0
 11
70.75
 21
3.491795570352811
 31
0.0
  0
LINE
  5
4DB
330
18
100
AcDbEntity
  8
1
 62
     1
100
AcDbLine
 10
70.78514045554329
 20
-0.4310448069772351
 30
0.0
 11
71.59613247308103
 21
-0.9236491541882045
 31
0.0
  0
LINE
  5
4DC
330
18
100
AcDbEntity
  8
1
 62
     1
100
AcDbLine
 10
71.59613247308101
 20
3.559447072901633
 30
0.0
 11
71.59613247308103
 21
-0.9236491541882109
 31
0.0
  0
ARC
  5
4DD
330
18
100
AcDbEntity
  8
1
 62
     1
100
AcDbCircle
 10
79.94970967030702
 20
-40.85551778889742
 30
0.0
 40
44.52287584450038
100
AcDbArc
 50
94.12818895367097
 51
95.08951161792072
  0
LINE
  5
4DE
330
18
100
AcDbEntity
  8
1
 62
     1
100
AcDbLine
 10
76.03514045554329
 20
-0.4310448069772351
 30
0.0
 11
76.74458135623176
 21
-0.8622984659057973
 31
0.0
  0
LINE
  5
4DF
330
18
100
AcDbEntity
  8
1
 62
     1
100
AcDbLine
 10
76.74458135623176
 20
3.551955205052369
 30
0.0
 11
76.74458135623176
 21
-0.8622984659057925
 31
0.0
  0
ARC
  5
4E0
330
18
100
AcDbEntity
  8
1
 62
     1
100
AcDbCircle
 10
81.35932276531854
 20
-36.82520784052529
 30
0.0
 40
40.47825584228642
100
AcDbArc
 50
94.2447328150081
 51
95.11568628280057
  0
LINE
  5
4E1
330
18
100
AcDbEntity
  8
1
 62
     1
100
AcDbLine
 10
77.78514045554327
 20
-0.4310448069772352
 30
0.0
 11
78.36324576417286
 21
-0.7828391856199627
 31
0.0
  0
LINE
  5
4E2
330
18
100
AcDbEntity
  8
1
 62
     1
100
AcDbLine
 10
78.36324576417286
 20
3.542090125246466
 30
0.0
 11
78.36324576417287
 21
-0.7828391858656819
 31
0.0
  0
ARC
  5
4E3
330
18
100
AcDbEntity
  8
1
 62
     1
100
AcDbCircle
 10
84.19558494012195
 20
-29.10574026135168
 30
0.0
 40
32.73035400388169
100
AcDbArc
 50
94.54743822086016
 51
95.16334948219523
  0
LINE
  5
4E4
330
18
100
AcDbEntity
  8
1
 62
     1
100
AcDbLine
 10
81.24999999999997
 20
-0.4118781971331107
 30
0.0
 11
81.25
 21
3.491795570352811
 31
0.0
  0
LINE
  5
4E5
330
18
100
AcDbEntity
  8
1
 62
     1
100
AcDbLine
 10
81.28514045554329
 20
-0.4310448069772352
 30
0.0
 11
81.60057458005504
 21
-0.6234644961608877
 31
0.0
  0
LINE
  5
4E6
330
18
100
AcDbEntity
  8
1
 62
     1
100
AcDbLine
 10
81.60057458005504
 20
3.521599784133134
 30
0.0
 11
81.60057458005504
 21
-0.6234644961608782
 31
0.0
  0
ARC
  5
4E7
330
18
100
AcDbEntity
  8
1
 62
     1
100
AcDbCircle
 10
77.89256982944103
 20
-33.94601339195939
 30
0.0
 40
37.58808743287684
100
AcDbArc
 50
84.87541196299523
 51
85.50640013321193
  0
LINE
  5
4E8
330
18
100
AcDbEntity
  8
1
 62
     1
100
AcDbLine
 10
80.83751184771985
 20
3.52653756331051
 30
0.0
 11
80.83751184771985
 21
-0.6610913901887951
 31
0.0
  0
LINE
  5
4E9
330
18
100
AcDbEntity
  8
1
 62
     1
100
AcDbLine
 10
81.21485954445671
 20
-0.4310448069772352
 30
0.0
 11
80.83751184771984
 21
-0.6610913891658194
 31
0.0
  0
ARC
  5
4EA
330
18
100
AcDbEntity
  8
1
 62
     1
100
AcDbCircle
 10
82.77486725885217
 20
-32.91093475044179
 30
0.0
 40
36.5497491268556
100
AcDbArc
 50
94.38253657867097
 51
95.1406123518124
  0
LINE
  5
4EB
330
18
100
AcDbEntity
  8
1
 62
     1
100
AcDbLine
 10
79.53514045554329
 20
-0.4310448069772351
 30
0.0
 11
79.98191017211394
 21
-0.7032346132397185
 31
0.0
  0
LINE
  5
4EC
330
18
100
AcDbEntity
  8
1
 62
     1
100
AcDbLine
 10
79.98191017211393
 20
3.531989293724429
 30
0.0
 11
79.98191017211393
 21
-0.7032346132397046
 31
0.0
  0
ARC
  5
4ED
330
18
100
AcDbEntity
  8
1
 62
     1
100
AcDbCircle
 10
78.46711949834973
 20
-44.05215124613571
 30
0.0
 40
47.73063883966798
100
AcDbArc
 50
94.0498863223251
 51
95.06883580783419
  0
LINE
  5
4EE
330
18
100
AcDbEntity
  8
1
 62
     1
100
AcDbLine
 10
74.24999999999999
 20
-0.4118781971331115
 30
0.0
 11
74.25
 21
3.491795570352811
 31
0.0
  0
LINE
  5
4EF
330
18
100
AcDbEntity
  8
1
 62
     1
100
AcDbLine
 10
74.28514045554329
 20
-0.4310448069772352
 30
0.0
 11
75.09613247308103
 21
-0.9236491541882045
 31
0.0
  0
LINE
  5
4F0
330
18
100
AcDbEntity
  8
1
 62
     1
100
AcDbLine
 10
75.09613247308103
 20
3.559447072901632
 30
0.0
 11
75.09613247308101
 21
-0.9236491541882109
 31
0.0
  0
ARC
  5
4F1
330
18
100
AcDbEntity
  8
1
 62
     1
100
AcDbCircle
 10
69.42853089975186
 20
-51.65282402003761
 30
0.0
 40
55.3551695910346
100
AcDbArc
 50
85.0031552005375
 51
85.88175546765085
  0
LINE
  5
4F2
330
18
100
AcDbEntity
  8
1
 62
     1
100
AcDbLine
 10
73.40386752691897
 20
3.559447072901633
 30
0.0
 11
73.40386752691896
 21
-0.9236491541882109
 31
0.0
  0
LINE
  5
4F3
330
18
100
AcDbEntity
  8
1
 62
     1
100
AcDbLine
 10
74.21485954445671
 20
-0.4310448069772351
 30
0.0
 11
73.40386752691897
 21
-0.9236491541882033
 31
0.0
  0
ARC
  5
4F4
330
18
100
AcDbEntity
  8
1
 62
     1
100
AcDbCircle
 10
76.717119498352
 20
-44.05215124616461
 30
0.0
 40
47.73063883969697
100
AcDbArc
 50
94.04988632232538
 51
95.06883580783385
  0
LINE
  5
4F5
330
18
100
AcDbEntity
  8
1
 62
     1
100
AcDbLine
 10
72.50000000000001
 20
-0.4118781971331122
 30
0.0
 11
72.5
 21
3.491795570352811
 31
0.0
  0
LINE
  5
4F6
330
18
100
AcDbEntity
  8
1
 62
     1
100
AcDbLine
 10
72.53514045554329
 20
-0.4310448069772351
 30
0.0
 11
73.34613247308104
 21
-0.9236491541882106
 31
0.0
  0
LINE
  5
4F7
330
18
100
AcDbEntity
  8
1
 62
     1
100
AcDbLine
 10
73.34613247308103
 20
3.559447072901633
 30
0.0
 11
73.34613247308104
 21
-0.923649154188213
 31
0.0
  0
ARC
  5
4F8
330
18
100
AcDbEntity
  8
1
 62
     1
100
AcDbCircle
 10
71.17853089975053
 20
-51.65282402006027
 30
0.0
 40
55.35516959105729
100
AcDbArc
 50
85.00315520053816
 51
85.88175546765116
  0
LINE
  5
4F9
330
18
100
AcDbEntity
  8
1
 62
     1
100
AcDbLine
 10
75.15386752691899
 20
3.559447072901633
 30
0.0
 11
75.15386752691897
 21
-0.9236491541882109
 31
0.0
  0
LINE
  5
4FA
330
18
100
AcDbEntity
  8
1
 62
     1
100
AcDbLine
 10
75.96485954445671
 20
-0.4310448069772351
 30
0.0
 11
75.15386752691896
 21
-0.9236491541882033
 31
0.0
  0
LINE
  5
4FB
330
18
100
AcDbEntity
  8
1
 62
     1
100
AcDbLine
 10
76.0
 20
-0.4118781971331122
 30
0.0
 11
75.99999999999999
 21
3.491795570352811
 31
0.0
  0
ARC
  5
4FC
330
18
100
AcDbEntity
  8
1
 62
     1
100
AcDbCircle
 10
75.6376169456344
 20
-39.95167913086011
 30
0.0
 40
43.6149010034506
100
AcDbArc
 50
84.91942271360264
 51
85.6668355391128
  0
LINE
  5
4FD
330
18
100
AcDbEntity
  8
1
 62
     1
100
AcDbLine
 10
78.93298160286157
 20
3.538564125217331
 30
0.0
 11
78.93298160286157
 21
-0.754837585710911
 31
0.0
  0
LINE
  5
4FE
330
18
100
AcDbEntity
  8
1
 62
     1
100
AcDbLine
 10
79.46485954445671
 20
-0.4310448069772355
 30
0.0
 11
78.93298160286153
 21
-0.7548375857109247
 31
0.0
  0
LINE
  5
4FF
330
18
100
AcDbEntity
  8
1
 62
     1
100
AcDbLine
 10
79.5
 20
-0.4118781971331115
 30
0.0
 11
79.5
 21
3.491795570352811
 31
0.0
  0
ARC
  5
500
330
18
100
AcDbEntity
  8
1
 62
     1
100
AcDbCircle
 10
73.36412225057225
 20
-46.29473666894153
 30
0.0
 40
49.97946451831908
100
AcDbArc
 50
84.96560148415158
 51
85.79549215894839
  0
LINE
  5
501
330
18
100
AcDbEntity
  8
1
 62
     1
100
AcDbLine
 10
77.02845135800325
 20
3.550240294838227
 30
0.0
 11
77.02845135800324
 21
-0.8483731759021381
 31
0.0
  0
LINE
  5
502
330
18
100
AcDbEntity
  8
1
 62
     1
100
AcDbLine
 10
77.71485954445671
 20
-0.4310448069772351
 30
0.0
 11
77.02845135800322
 21
-0.8483731746462233
 31
0.0
  0
LINE
  5
503
330
18
100
AcDbEntity
  8
1
 62
     1
100
AcDbLine
 10
77.75
 20
-0.4118781971331115
 30
0.0
 11
77.75
 21
3.491795570352811
 31
0.0
  0
ARC
  5
504
330
18
100
AcDbEntity
  8
1
 62
     1
100
AcDbCircle
 10
62.42853089973944
 20
-51.65282402019945
 30
0.0
 40
55.35516959119691
100
AcDbArc
 50
85.00315520053927
 51
85.88175546765005
  0
LINE
  5
505
330
18
100
AcDbEntity
  8
1
 62
     1
100
AcDbLine
 10
66.40386752691897
 20
3.559447072901633
 30
0.0
 11
66.40386752691896
 21
-0.9236491541882109
 31
0.0
  0
LINE
  5
506
330
18
100
AcDbEntity
  8
1
 62
     1
100
AcDbLine
 10
67.21485954445671
 20
-0.4310448069772351
 30
0.0
 11
66.40386752691897
 21
-0.9236491541882033
 31
0.0
  0
ARC
  5
507
330
18
100
AcDbEntity
  8
1
 62
     1
100
AcDbCircle
 10
69.71711949835417
 20
-44.05215124619119
 30
0.0
 40
47.73063883972363
100
AcDbArc
 50
94.0498863223257
 51
95.0688358078336
  0
LINE
  5
508
330
18
100
AcDbEntity
  8
1
 62
     1
100
AcDbLine
 10
65.5
 20
-0.4118781971331122
 30
0.0
 11
65.49999999999999
 21
3.491795570352811
 31
0.0
  0
LINE
  5
509
330
18
100
AcDbEntity
  8
1
 62
     1
100
AcDbLine
 10
65.53514045554329
 20
-0.4310448069772351
 30
0.0
 11
66.34613247308104
 21
-0.9236491541882106
 31
0.0
  0
LINE
  5
50A
330
18
100
AcDbEntity
  8
1
 62
     1
100
AcDbLine
 10
66.34613247308104
 20
3.559447072901632
 30
0.0
 11
66.34613247308103
 21
-0.9236491541882109
 31
0.0
  0
ARC
  5
50B
330
18
100
AcDbEntity
  8
1
 62
     1
100
AcDbCircle
 10
71.46711949835651
 20
-44.05215124622002
 30
0.0
 40
47.73063883975257
100
AcDbArc
 50
94.04988632232606
 51
95.06883580783334
  0
LINE
  5
50C
330
18
100
AcDbEntity
  8
1
 62
     1
100
AcDbLine
 10
67.25000000000001
 20
-0.4118781971331115
 30
0.0
 11
67.25
 21
3.491795570352811
 31
0.0
  0
LINE
  5
50D
330
18
100
AcDbEntity
  8
1
 62
     1
100
AcDbLine
 10
67.28514045554327
 20
-0.4310448069772351
 30
0.0
 11
68.09613247308104
 21
-0.9236491541882106
 31
0.0
  0
LINE
  5
50E
330
18
100
AcDbEntity
  8
1
 62
     1
100
AcDbLine
 10
68.09613247308104
 20
3.559447072901633
 30
0.0
 11
68.09613247308104
 21
-0.923649154188213
 31
0.0
  0
ARC
  5
50F
330
18
100
AcDbEntity
  8
1
 62
     1
100
AcDbCircle
 10
64.17853089975638
 20
-51.65282401998026
 30
0.0
 40
55.35516959097707
100
AcDbArc
 50
85.003155200537
 51
85.88175546765127
  0
LINE
  5
510
330
18
100
AcDbEntity
  8
1
 62
     1
100
AcDbLine
 10
68.15386752691896
 20
3.559447072901633
 30
0.0
 11
68.15386752691896
 21
-0.9236491541882109
 31
0.0
  0
LINE
  5
511
330
18
100
AcDbEntity
  8
1
 62
     1
100
AcDbLine
 10
68.96485954445671
 20
-0.4310448069772352
 30
0.0
 11
68.15386752691896
 21
-0.9236491541882104
 31
0.0
  0
ARC
  5
512
330
18
100
AcDbEntity
  8
1
 62
     1
100
AcDbCircle
 10
73.21711949834744
 20
-44.05215124610749
 30
0.0
 40
47.73063883963967
100
AcDbArc
 50
94.04988632232478
 51
95.06883580783445
  0
LINE
  5
513
330
18
100
AcDbEntity
  8
1
 62
     1
100
AcDbLine
 10
69.0
 20
-0.4118781971331122
 30
0.0
 11
68.99999999999999
 21
3.491795570352811
 31
0.0
  0
LINE
  5
514
330
18
100
AcDbEntity
  8
1
 62
     1
100
AcDbLine
 10
69.03514045554329
 20
-0.4310448069772351
 30
0.0
 11
69.84613247308103
 21
-0.9236491541882045
 31
0.0
  0
LINE
  5
515
330
18
100
AcDbEntity
  8
1
 62
     1
100
AcDbLine
 10
69.84613247308103
 20
3.559447072901633
 30
0.0
 11
69.84613247308101
 21
-0.9236491541882109
 31
0.0
  0
ARC
  5
516
330
18
100
AcDbEntity
  8
1
 62
     1
100
AcDbCircle
 10
65.92853089975515
 20
-51.65282401999906
 30
0.0
 40
55.35516959099591
100
AcDbArc
 50
85.00315520053742
 51
85.8817554676514
  0
LINE
  5
517
330
18
100
AcDbEntity
  8
1
 62
     1
100
AcDbLine
 10
69.90386752691902
 20
3.559447072901632
 30
0.0
 11
69.903867526919
 21
-0.9236491541882109
 31
0.0
  0
LINE
  5
518
330
18
100
AcDbEntity
  8
1
 62
     1
100
AcDbLine
 10
70.71485954445671
 20
-0.4310448069772351
 30
0.0
 11
69.90386752691897
 21
-0.9236491541881995
 31
0.0
  0
ARC
  5
519
330
18
100
AcDbEntity
  8
1
 62
     1
100
AcDbCircle
 10
60.67853089975331
 20
-51.65282402002018
 30
0.0
 40
55.3551695910171
100
AcDbArc
 50
85.00315520053742
 51
85.88175546765103
  0
LINE
  5
51A
330
18
100
AcDbEntity
  8
1
 62
     1
100
AcDbLine
 10
64.65386752691897
 20
3.559447072901633
 30
0.0
 11
64.65386752691897
 21
-0.9236491541882109
 31
0.0
  0
LINE
  5
51B
330
18
100
AcDbEntity
  8
1
 62
     1
100
AcDbLine
 10
65.46485954445671
 20
-0.4310448069772351
 30
0.0
 11
64.65386752691896
 21
-0.9236491541882033
 31
0.0
  0
LINE
  5
51C
330
18
100
AcDbEntity
  8
1
 62
     1
100
AcDbLine
 10
59.18900836413131
 20
4.575060437224234
 30
0.0
 11
59.70193383359748
 21
5.433117793082115
 31
0.0
  0
ARC
  5
51D
330
18
100
AcDbEntity
  8
1
 62
     1
100
AcDbCircle
 10
64.4671194983475
 20
-44.05215124610895
 30
0.0
 40
47.73063883964113
100
AcDbArc
 50
94.04988632232468
 51
95.06883580783433
  0
LINE
  5
51E
330
18
100
AcDbEntity
  8
1
 62
     1
100
AcDbLine
 10
60.25000000000001
 20
-0.4118781971331107
 30
0.0
 11
60.25000000000001
 21
3.491795570352811
 31
0.0
  0
LINE
  5
51F
330
18
100
AcDbEntity
  8
1
 62
     1
100
AcDbLine
 10
60.28514045554329
 20
-0.4310448069772352
 30
0.0
 11
61.09613247308104
 21
-0.9236491541882064
 31
0.0
  0
LINE
  5
520
330
18
100
AcDbEntity
  8
1
 62
     1
100
AcDbLine
 10
61.09613247308104
 20
3.559447072901632
 30
0.0
 11
61.09613247308104
 21
-0.9236491541882051
 31
0.0
  0
ARC
  5
521
330
18
100
AcDbEntity
  8
1
 62
     1
100
AcDbCircle
 10
56.45056227948928
 20
-39.1966685390236
 30
0.0
 40
42.85727732924808
100
AcDbArc
 50
84.9138569700778
 51
85.6490707755465
  0
LINE
  5
522
330
18
100
AcDbEntity
  8
1
 62
     1
100
AcDbLine
 10
59.70193383359747
 20
3.537109657762103
 30
0.0
 11
59.70193383359748
 21
-0.7433521438026682
 31
0.0
  0
LINE
  5
523
330
18
100
AcDbEntity
  8
1
 62
     1
100
AcDbLine
 10
60.21485954445673
 20
-0.4310448069772352
 30
0.0
 11
59.70193383359748
 21
-0.7433521438026696
 31
0.0
  0
ARC
  5
524
330
18
100
AcDbEntity
  8
1
 62
     1
100
AcDbCircle
 10
57.17853089974975
 20
-51.65282402006719
 30
0.0
 40
55.35516959106425
100
AcDbArc
 50
85.00315520053798
 51
85.88175546765088
  0
LINE
  5
525
330
18
100
AcDbEntity
  8
1
 62
     1
100
AcDbLine
 10
61.15386752691899
 20
3.559447072901633
 30
0.0
 11
61.15386752691898
 21
-0.9236491541882109
 31
0.0
  0
LINE
  5
526
330
18
100
AcDbEntity
  8
1
 62
     1
100
AcDbLine
 10
61.96485954445673
 20
-0.4310448069772351
 30
0.0
 11
61.15386752691897
 21
-0.9236491541882031
 31
0.0
  0
ARC
  5
527
330
18
100
AcDbEntity
  8
1
 62
     1
100
AcDbCircle
 10
66.21711949834878
 20
-44.05215124612305
 30
0.0
 40
47.73063883965528
100
AcDbArc
 50
94.049886322325
 51
95.06883580783435
  0
LINE
  5
528
330
18
100
AcDbEntity
  8
1
 62
     1
100
AcDbLine
 10
62.0
 20
-0.4118781971331115
 30
0.0
 11
62.00000000000001
 21
3.491795570352811
 31
0.0
  0
LINE
  5
529
330
18
100
AcDbEntity
  8
1
 62
     1
100
AcDbLine
 10
62.03514045554329
 20
-0.4310448069772352
 30
0.0
 11
62.84613247308106
 21
-0.9236491541882152
 31
0.0
  0
ARC
  5
52A
330
18
100
AcDbEntity
  8
1
 62
     1
100
AcDbCircle
 10
58.92853089974123
 20
-51.65282402017427
 30
0.0
 40
55.35516959117167
100
AcDbArc
 50
85.00315520053886
 51
85.88175546765004
  0
LINE
  5
52B
330
18
100
AcDbEntity
  8
1
 62
     1
100
AcDbLine
 10
62.90386752691898
 20
3.559447072901633
 30
0.0
 11
62.90386752691897
 21
-0.9236491541882109
 31
0.0
  0
LINE
  5
52C
330
18
100
AcDbEntity
  8
1
 62
     1
100
AcDbLine
 10
63.71485954445673
 20
-0.4310448069772351
 30
0.0
 11
62.90386752691897
 21
-0.9236491541882033
 31
0.0
  0
ARC
  5
52D
330
18
100
AcDbEntity
  8
1
 62
     1
100
AcDbCircle
 10
67.96711949835286
 20
-44.05215124617497
 30
0.0
 40
47.73063883970737
100
AcDbArc
 50
94.0498863223255
 51
95.06883580783375
  0
LINE
  5
52E
330
18
100
AcDbEntity
  8
1
 62
     1
100
AcDbLine
 10
63.75
 20
-0.4118781971331115
 30
0.0
 11
63.75000000000001
 21
3.491795570352811
 31
0.0
  0
LINE
  5
52F
330
18
100
AcDbEntity
  8
1
 62
     1
100
AcDbLine
 10
63.78514045554329
 20
-0.4310448069772352
 30
0.0
 11
64.59613247308104
 21
-0.9236491541882045
 31
0.0
  0
LINE
  5
530
330
18
100
AcDbEntity
  8
1
 62
     1
100
AcDbLine
 10
64.59613247308103
 20
3.559447072901632
 30
0.0
 11
64.59613247308103
 21
-0.9236491541882109
 31
0.0
  0
LINE
  5
531
330
18
100
AcDbEntity
  8
1
 62
     1
100
AcDbLine
 10
64.65386752691896
 20
3.559447072901633
 30
0.0
 11
64.59613247308103
 21
3.559447072901633
 31
0.0
  0
LINE
  5
532
330
18
100
AcDbEntity
  8
1
 62
     1
100
AcDbLine
 10
82.96485954445671
 20
4.575060437224234
 30
0.0
 11
83.0
 21
4.515711442717573
 31
0.0
  0
LINE
  5
533
330
18
100
AcDbEntity
  8
1
 62
     1
100
AcDbLine
 10
81.28514045554327
 20
4.575060437224233
 30
0.0
 11
81.25
 21
4.515711442717575
 31
0.0
  0
LINE
  5
534
330
18
100
AcDbEntity
  8
1
 62
     1
100
AcDbLine
 10
81.21485954445671
 20
4.575060437224234
 30
0.0
 11
81.25
 21
4.515711442717575
 31
0.0
  0
LINE
  5
535
330
18
100
AcDbEntity
  8
1
 62
     1
100
AcDbLine
 10
79.53514045554329
 20
4.575060437224233
 30
0.0
 11
79.49999999999997
 21
4.515711442717574
 31
0.0
  0
LINE
  5
536
330
18
100
AcDbEntity
  8
1
 62
     1
100
AcDbLine
 10
79.46485954445671
 20
4.575060437224233
 30
0.0
 11
79.49999999999997
 21
4.515711442717574
 31
0.0
  0
LINE
  5
537
330
18
100
AcDbEntity
  8
1
 62
     1
100
AcDbLine
 10
77.78514045554329
 20
4.575060437224233
 30
0.0
 11
77.75
 21
4.515711442717574
 31
0.0
  0
LINE
  5
538
330
18
100
AcDbEntity
  8
1
 62
     1
100
AcDbLine
 10
77.71485954445671
 20
4.575060437224233
 30
0.0
 11
77.75
 21
4.515711442717574
 31
0.0
  0
LINE
  5
539
330
18
100
AcDbEntity
  8
1
 62
     1
100
AcDbLine
 10
76.03514045554329
 20
4.575060437224233
 30
0.0
 11
75.99999999999999
 21
4.515711442717574
 31
0.0
  0
LINE
  5
53A
330
18
100
AcDbEntity
  8
1
 62
     1
100
AcDbLine
 10
75.96485954445673
 20
4.575060437224234
 30
0.0
 11
75.99999999999999
 21
4.515711442717574
 31
0.0
  0
LINE
  5
53B
330
18
100
AcDbEntity
  8
1
 62
     1
100
AcDbLine
 10
74.28514045554329
 20
4.575060437224234
 30
0.0
 11
74.24999999999999
 21
4.515711442717574
 31
0.0
  0
LINE
  5
53C
330
18
100
AcDbEntity
  8
1
 62
     1
100
AcDbLine
 10
74.21485954445671
 20
4.575060437224233
 30
0.0
 11
74.24999999999999
 21
4.515711442717574
 31
0.0
  0
LINE
  5
53D
330
18
100
AcDbEntity
  8
1
 62
     1
100
AcDbLine
 10
72.53514045554329
 20
4.575060437224233
 30
0.0
 11
72.5
 21
4.515711442717574
 31
0.0
  0
LINE
  5
53E
330
18
100
AcDbEntity
  8
1
 62
     1
100
AcDbLine
 10
72.46485954445671
 20
4.575060437224233
 30
0.0
 11
72.5
 21
4.515711442717574
 31
0.0
  0
LINE
  5
53F
330
18
100
AcDbEntity
  8
1
 62
     1
100
AcDbLine
 10
70.78514045554329
 20
4.575060437224233
 30
0.0
 11
70.75
 21
4.515711442717574
 31
0.0
  0
LINE
  5
540
330
18
100
AcDbEntity
  8
1
 62
     1
100
AcDbLine
 10
70.71485954445671
 20
4.575060437224233
 30
0.0
 11
70.75
 21
4.515711442717574
 31
0.0
  0
LINE
  5
541
330
18
100
AcDbEntity
  8
1
 62
     1
100
AcDbLine
 10
69.03514045554329
 20
4.575060437224233
 30
0.0
 11
69.0
 21
4.515711442717575
 31
0.0
  0
LINE
  5
542
330
18
100
AcDbEntity
  8
1
 62
     1
100
AcDbLine
 10
68.96485954445671
 20
4.575060437224233
 30
0.0
 11
69.0
 21
4.515711442717575
 31
0.0
  0
LINE
  5
543
330
18
100
AcDbEntity
  8
1
 62
     1
100
AcDbLine
 10
67.28514045554329
 20
4.575060437224234
 30
0.0
 11
67.25
 21
4.515711442717574
 31
0.0
  0
LINE
  5
544
330
18
100
AcDbEntity
  8
1
 62
     1
100
AcDbLine
 10
67.21485954445671
 20
4.575060437224233
 30
0.0
 11
67.25
 21
4.515711442717574
 31
0.0
  0
LINE
  5
545
330
18
100
AcDbEntity
  8
1
 62
     1
100
AcDbLine
 10
65.53514045554329
 20
4.575060437224233
 30
0.0
 11
65.5
 21
4.515711442717574
 31
0.0
  0
LINE
  5
546
330
18
100
AcDbEntity
  8
1
 62
     1
100
AcDbLine
 10
65.46485954445671
 20
4.575060437224234
 30
0.0
 11
65.5
 21
4.515711442717574
 31
0.0
  0
LINE
  5
547
330
18
100
AcDbEntity
  8
1
 62
     1
100
AcDbLine
 10
63.78514045554329
 20
4.575060437224233
 30
0.0
 11
63.75
 21
4.515711442717574
 31
0.0
  0
LINE
  5
548
330
18
100
AcDbEntity
  8
1
 62
     1
100
AcDbLine
 10
63.71485954445673
 20
4.575060437224233
 30
0.0
 11
63.75
 21
4.515711442717574
 31
0.0
  0
LINE
  5
549
330
18
100
AcDbEntity
  8
1
 62
     1
100
AcDbLine
 10
62.0351404555433
 20
4.575060437224233
 30
0.0
 11
62.00000000000001
 21
4.515711442717574
 31
0.0
  0
LINE
  5
54A
330
18
100
AcDbEntity
  8
1
 62
     1
100
AcDbLine
 10
61.96485954445673
 20
4.575060437224233
 30
0.0
 11
62.00000000000001
 21
4.515711442717574
 31
0.0
  0
LINE
  5
54B
330
18
100
AcDbEntity
  8
1
 62
     1
100
AcDbLine
 10
60.28514045554329
 20
4.575060437224233
 30
0.0
 11
60.25000000000001
 21
4.515711442717574
 31
0.0
  0
LINE
  5
54C
330
18
100
AcDbEntity
  8
1
 62
     1
100
AcDbLine
 10
60.21485954445673
 20
4.575060437224234
 30
0.0
 11
60.25000000000001
 21
4.515711442717574
 31
0.0
  0
ARC
  5
54D
330
18
100
AcDbEntity
  8
1
 62
     1
100
AcDbCircle
 10
78.86092717526469
 20
-7.109720149632206
 30
0.0
 40
22.88052807416322
100
AcDbArc
 50
149.2904184529454
 51
149.9921390737969
  0
LINE
  5
54E
330
18
100
AcDbEntity
  8
1
 62
     1
100
AcDbLine
 10
62.90386752691898
 20
5.928479757911586
 30
0.0
 11
62.84613247308109
 21
5.928479757911586
 31
0.0
  0
LINE
  5
54F
330
18
100
AcDbEntity
  8
1
 62
     1
100
AcDbLine
 10
64.65386752691896
 20
5.928479757911586
 30
0.0
 11
64.59613247308103
 21
5.928479757911584
 31
0.0
  0
LINE
  5
550
330
18
100
AcDbEntity
  8
1
 62
     1
100
AcDbLine
 10
82.74204209257816
 20
4.981252243550026
 30
0.0
 11
82.74204209257815
 21
4.981244667843644
 31
0.0
  0
LINE
  5
551
330
18
100
AcDbEntity
  8
1
 62
     1
100
AcDbLine
 10
82.74204209257815
 20
4.981244667843644
 30
0.0
 11
82.74204209257817
 21
4.979037828007647
 31
0.0
  0
LINE
  5
552
330
18
100
AcDbEntity
  8
1
 62
     1
100
AcDbLine
 10
82.74204209257817
 20
4.979037828007647
 30
0.0
 11
82.74204209257816
 21
4.948865811804561
 31
0.0
  0
LINE
  5
553
330
18
100
AcDbEntity
  8
1
 62
     1
100
AcDbLine
 10
82.96485954445671
 20
4.575060437224234
 30
0.0
 11
82.74204209257815
 21
4.948865811804555
 31
0.0
  0
LINE
  5
554
330
18
100
AcDbEntity
  8
1
 62
     1
100
AcDbLine
 10
71.65386752691896
 20
6.0
 30
0.0
 11
71.65386752691896
 21
5.999983493112263
 31
0.0
  0
LINE
  5
555
330
18
100
AcDbEntity
  8
1
 62
     1
100
AcDbLine
 10
71.65386752691896
 20
5.999983493112263
 30
0.0
 11
71.65386752691896
 21
5.99515642316626
 31
0.0
  0
LINE
  5
556
330
18
100
AcDbEntity
  8
1
 62
     1
100
AcDbLine
 10
71.65386752691896
 20
5.99515642316626
 30
0.0
 11
71.65386752691896
 21
5.928479757911584
 31
0.0
  0
LINE
  5
557
330
18
100
AcDbEntity
  8
1
 62
     1
100
AcDbLine
 10
72.46485954445671
 20
4.575060437224234
 30
0.0
 11
71.65386752691896
 21
5.928479757911601
 31
0.0
  0
LINE
  5
558
330
18
100
AcDbEntity
  8
1
 62
     1
100
AcDbLine
 10
72.49999999999999
 20
4.515711442717574
 30
0.0
 11
72.49999999999999
 21
4.534456249037526
 31
0.0
  0
LINE
  5
559
330
18
100
AcDbEntity
  8
1
 62
     1
100
AcDbLine
 10
70.78514045554329
 20
4.575060437224234
 30
0.0
 11
71.59613247308103
 21
5.928479757911585
 31
0.0
  0
LINE
  5
55A
330
18
100
AcDbEntity
  8
1
 62
     1
100
AcDbLine
 10
71.59613247308103
 20
6.0
 30
0.0
 11
71.59613247308103
 21
5.999983493112263
 31
0.0
  0
LINE
  5
55B
330
18
100
AcDbEntity
  8
1
 62
     1
100
AcDbLine
 10
71.59613247308103
 20
5.999983493112263
 30
0.0
 11
71.59613247308103
 21
5.995156423166261
 31
0.0
  0
LINE
  5
55C
330
18
100
AcDbEntity
  8
1
 62
     1
100
AcDbLine
 10
71.59613247308103
 20
5.995156423166261
 30
0.0
 11
71.59613247308103
 21
5.928479757911585
 31
0.0
  0
LINE
  5
55D
330
18
100
AcDbEntity
  8
1
 62
     1
100
AcDbLine
 10
76.03514045554329
 20
4.575060437224234
 30
0.0
 11
76.74458135623176
 21
5.759920127187669
 31
0.0
  0
LINE
  5
55E
330
18
100
AcDbEntity
  8
1
 62
     1
100
AcDbLine
 10
76.74458135623176
 20
5.824108388061208
 30
0.0
 11
76.74458135623175
 21
5.824093544983604
 31
0.0
  0
LINE
  5
55F
330
18
100
AcDbEntity
  8
1
 62
     1
100
AcDbLine
 10
76.74458135623175
 20
5.824093544983604
 30
0.0
 11
76.74458135623175
 21
5.819755448588622
 31
0.0
  0
LINE
  5
560
330
18
100
AcDbEntity
  8
1
 62
     1
100
AcDbLine
 10
76.74458135623175
 20
5.819755448588622
 30
0.0
 11
76.74458135623175
 21
5.759920127187653
 31
0.0
  0
LINE
  5
561
330
18
100
AcDbEntity
  8
1
 62
     1
100
AcDbLine
 10
77.78514045554329
 20
4.575060437224234
 30
0.0
 11
78.36324576417286
 21
5.541607548836128
 31
0.0
  0
LINE
  5
562
330
18
100
AcDbEntity
  8
1
 62
     1
100
AcDbLine
 10
78.36324576417286
 20
5.596628575835571
 30
0.0
 11
78.36324576417286
 21
5.596615818306549
 31
0.0
  0
LINE
  5
563
330
18
100
AcDbEntity
  8
1
 62
     1
100
AcDbLine
 10
78.36324576417286
 20
5.596615818306549
 30
0.0
 11
78.36324576417285
 21
5.592890162923202
 31
0.0
  0
LINE
  5
564
330
18
100
AcDbEntity
  8
1
 62
     1
100
AcDbLine
 10
78.36324576417285
 20
5.592890162923202
 30
0.0
 11
78.36324576417286
 21
5.541607548801382
 31
0.0
  0
LINE
  5
565
330
18
100
AcDbEntity
  8
1
 62
     1
100
AcDbLine
 10
81.25000000000001
 20
4.515711442717574
 30
0.0
 11
81.25
 21
4.53445625
 31
0.0
  0
LINE
  5
566
330
18
100
AcDbEntity
  8
1
 62
     1
100
AcDbLine
 10
81.28514045554329
 20
4.575060437224234
 30
0.0
 11
81.60057458005504
 21
5.103729188314806
 31
0.0
  0
LINE
  5
567
330
18
100
AcDbEntity
  8
1
 62
     1
100
AcDbLine
 10
81.60057458005504
 20
5.141668951384299
 30
0.0
 11
81.60057458005505
 21
5.141660099191498
 31
0.0
  0
LINE
  5
568
330
18
100
AcDbEntity
  8
1
 62
     1
100
AcDbLine
 10
81.60057458005505
 20
5.141660099191498
 30
0.0
 11
81.60057458005502
 21
5.139079563380067
 31
0.0
  0
LINE
  5
569
330
18
100
AcDbEntity
  8
1
 62
     1
100
AcDbLine
 10
81.60057458005502
 20
5.139079563380067
 30
0.0
 11
81.60057458005502
 21
5.103729188314774
 31
0.0
  0
LINE
  5
56A
330
18
100
AcDbEntity
  8
1
 62
     1
100
AcDbLine
 10
81.21485954445671
 20
4.575060437224234
 30
0.0
 11
80.83751184771984
 21
5.207108227210091
 31
0.0
  0
LINE
  5
56B
330
18
100
AcDbEntity
  8
1
 62
     1
100
AcDbLine
 10
79.50000000000001
 20
4.515711442717575
 30
0.0
 11
79.5
 21
4.53445625
 31
0.0
  0
LINE
  5
56C
330
18
100
AcDbEntity
  8
1
 62
     1
100
AcDbLine
 10
79.53514045554329
 20
4.575060437224234
 30
0.0
 11
79.98191017211394
 21
5.322895783736139
 31
0.0
  0
LINE
  5
56D
330
18
100
AcDbEntity
  8
1
 62
     1
100
AcDbLine
 10
74.25000000000001
 20
4.515711442717575
 30
0.0
 11
74.25
 21
4.53445625
 31
0.0
  0
LINE
  5
56E
330
18
100
AcDbEntity
  8
1
 62
     1
100
AcDbLine
 10
74.28514045554329
 20
4.575060437224234
 30
0.0
 11
75.09613247308104
 21
5.928479757911585
 31
0.0
  0
LINE
  5
56F
330
18
100
AcDbEntity
  8
1
 62
     1
100
AcDbLine
 10
75.09613247308103
 20
6.0
 30
0.0
 11
75.09613247308103
 21
5.999983493112263
 31
0.0
  0
LINE
  5
570
330
18
100
AcDbEntity
  8
1
 62
     1
100
AcDbLine
 10
75.09613247308103
 20
5.999983493112263
 30
0.0
 11
75.09613247308103
 21
5.995156423166261
 31
0.0
  0
LINE
  5
571
330
18
100
AcDbEntity
  8
1
 62
     1
100
AcDbLine
 10
75.09613247308103
 20
5.995156423166261
 30
0.0
 11
75.09613247308104
 21
5.928479757911584
 31
0.0
  0
LINE
  5
572
330
18
100
AcDbEntity
  8
1
 62
     1
100
AcDbLine
 10
73.40386752691897
 20
6.0
 30
0.0
 11
73.40386752691897
 21
5.999983493112263
 31
0.0
  0
LINE
  5
573
330
18
100
AcDbEntity
  8
1
 62
     1
100
AcDbLine
 10
73.40386752691897
 20
5.999983493112263
 30
0.0
 11
73.40386752691897
 21
5.995156423166261
 31
0.0
  0
LINE
  5
574
330
18
100
AcDbEntity
  8
1
 62
     1
100
AcDbLine
 10
73.40386752691897
 20
5.995156423166261
 30
0.0
 11
73.40386752691897
 21
5.928479757911584
 31
0.0
  0
LINE
  5
575
330
18
100
AcDbEntity
  8
1
 62
     1
100
AcDbLine
 10
74.21485954445671
 20
4.575060437224234
 30
0.0
 11
73.40386752691899
 21
5.928479757911584
 31
0.0
  0
LINE
  5
576
330
18
100
AcDbEntity
  8
1
 62
     1
100
AcDbLine
 10
72.53514045554329
 20
4.575060437224234
 30
0.0
 11
73.34613247308104
 21
5.928479757911603
 31
0.0
  0
LINE
  5
577
330
18
100
AcDbEntity
  8
1
 62
     1
100
AcDbLine
 10
73.34613247308104
 20
6.0
 30
0.0
 11
73.34613247308103
 21
5.999983493112263
 31
0.0
  0
LINE
  5
578
330
18
100
AcDbEntity
  8
1
 62
     1
100
AcDbLine
 10
73.34613247308103
 20
5.999983493112263
 30
0.0
 11
73.34613247308104
 21
5.995156423166261
 31
0.0
  0
LINE
  5
579
330
18
100
AcDbEntity
  8
1
 62
     1
100
AcDbLine
 10
73.34613247308104
 20
5.995156423166261
 30
0.0
 11
73.34613247308103
 21
5.928479757911584
 31
0.0
  0
LINE
  5
57A
330
18
100
AcDbEntity
  8
1
 62
     1
100
AcDbLine
 10
75.15386752691897
 20
6.0
 30
0.0
 11
75.15386752691897
 21
5.999983493112263
 31
0.0
  0
LINE
  5
57B
330
18
100
AcDbEntity
  8
1
 62
     1
100
AcDbLine
 10
75.15386752691897
 20
5.999983493112263
 30
0.0
 11
75.15386752691897
 21
5.995156423166261
 31
0.0
  0
LINE
  5
57C
330
18
100
AcDbEntity
  8
1
 62
     1
100
AcDbLine
 10
75.15386752691897
 20
5.995156423166261
 30
0.0
 11
75.15386752691897
 21
5.928479757911584
 31
0.0
  0
LINE
  5
57D
330
18
100
AcDbEntity
  8
1
 62
     1
100
AcDbLine
 10
75.96485954445671
 20
4.575060437224234
 30
0.0
 11
75.15386752691897
 21
5.928479757911584
 31
0.0
  0
LINE
  5
57E
330
18
100
AcDbEntity
  8
1
 62
     1
100
AcDbLine
 10
76.0
 20
4.515711442717574
 30
0.0
 11
76.0
 21
4.53445625
 31
0.0
  0
LINE
  5
57F
330
18
100
AcDbEntity
  8
1
 62
     1
100
AcDbLine
 10
78.93298160286157
 20
5.516560464763693
 30
0.0
 11
78.93298160286157
 21
5.516548421808902
 31
0.0
  0
LINE
  5
580
330
18
100
AcDbEntity
  8
1
 62
     1
100
AcDbLine
 10
78.93298160286157
 20
5.516548421808902
 30
0.0
 11
78.93298160286159
 21
5.513032472910552
 31
0.0
  0
LINE
  5
581
330
18
100
AcDbEntity
  8
1
 62
     1
100
AcDbLine
 10
78.93298160286159
 20
5.513032472910552
 30
0.0
 11
78.93298160286157
 21
5.464673785377489
 31
0.0
  0
LINE
  5
582
330
18
100
AcDbEntity
  8
1
 62
     1
100
AcDbLine
 10
79.46485954445673
 20
4.575060437224234
 30
0.0
 11
78.93298160286153
 21
5.464673785377497
 31
0.0
  0
LINE
  5
583
330
18
100
AcDbEntity
  8
1
 62
     1
100
AcDbLine
 10
77.02845135800325
 20
5.784214575370529
 30
0.0
 11
77.02845135800325
 21
5.784200103665582
 31
0.0
  0
LINE
  5
584
330
18
100
AcDbEntity
  8
1
 62
     1
100
AcDbLine
 10
77.02845135800325
 20
5.784200103665582
 30
0.0
 11
77.02845135800327
 21
5.779971104894928
 31
0.0
  0
LINE
  5
585
330
18
100
AcDbEntity
  8
1
 62
     1
100
AcDbLine
 10
77.02845135800327
 20
5.779971104894928
 30
0.0
 11
77.02845135800327
 21
5.721660703706451
 31
0.0
  0
LINE
  5
586
330
18
100
AcDbEntity
  8
1
 62
     1
100
AcDbLine
 10
77.71485954445671
 20
4.575060437224234
 30
0.0
 11
77.02845135800322
 21
5.72166070389266
 31
0.0
  0
LINE
  5
587
330
18
100
AcDbEntity
  8
1
 62
     1
100
AcDbLine
 10
77.75
 20
4.515711442717574
 30
0.0
 11
77.75
 21
4.53445625
 31
0.0
  0
LINE
  5
588
330
18
100
AcDbEntity
  8
1
 62
     1
100
AcDbLine
 10
66.40386752691897
 20
6.0
 30
0.0
 11
66.40386752691897
 21
5.999983493112263
 31
0.0
  0
LINE
  5
589
330
18
100
AcDbEntity
  8
1
 62
     1
100
AcDbLine
 10
66.40386752691897
 20
5.999983493112263
 30
0.0
 11
66.40386752691897
 21
5.995156423166261
 31
0.0
  0
LINE
  5
58A
330
18
100
AcDbEntity
  8
1
 62
     1
100
AcDbLine
 10
66.40386752691897
 20
5.995156423166261
 30
0.0
 11
66.40386752691896
 21
5.928479757911584
 31
0.0
  0
LINE
  5
58B
330
18
100
AcDbEntity
  8
1
 62
     1
100
AcDbLine
 10
67.21485954445671
 20
4.575060437224234
 30
0.0
 11
66.40386752691899
 21
5.928479757911584
 31
0.0
  0
LINE
  5
58C
330
18
100
AcDbEntity
  8
1
 62
     1
100
AcDbLine
 10
65.5
 20
4.515711442717574
 30
0.0
 11
65.5
 21
4.53445625
 31
0.0
  0
LINE
  5
58D
330
18
100
AcDbEntity
  8
1
 62
     1
100
AcDbLine
 10
65.53514045554329
 20
4.575060437224234
 30
0.0
 11
66.34613247308104
 21
5.928479757911603
 31
0.0
  0
LINE
  5
58E
330
18
100
AcDbEntity
  8
1
 62
     1
100
AcDbLine
 10
66.34613247308104
 20
6.0
 30
0.0
 11
66.34613247308104
 21
5.999983493112263
 31
0.0
  0
LINE
  5
58F
330
18
100
AcDbEntity
  8
1
 62
     1
100
AcDbLine
 10
66.34613247308104
 20
5.999983493112263
 30
0.0
 11
66.34613247308104
 21
5.995156423166261
 31
0.0
  0
LINE
  5
590
330
18
100
AcDbEntity
  8
1
 62
     1
100
AcDbLine
 10
66.34613247308104
 20
5.995156423166261
 30
0.0
 11
66.34613247308104
 21
5.928479757911585
 31
0.0
  0
LINE
  5
591
330
18
100
AcDbEntity
  8
1
 62
     1
100
AcDbLine
 10
67.25000000000001
 20
4.515711442717574
 30
0.0
 11
67.25
 21
4.53445625
 31
0.0
  0
LINE
  5
592
330
18
100
AcDbEntity
  8
1
 62
     1
100
AcDbLine
 10
67.28514045554329
 20
4.575060437224234
 30
0.0
 11
68.09613247308104
 21
5.928479757911603
 31
0.0
  0
LINE
  5
593
330
18
100
AcDbEntity
  8
1
 62
     1
100
AcDbLine
 10
68.09613247308104
 20
6.0
 30
0.0
 11
68.09613247308103
 21
5.999983493112263
 31
0.0
  0
LINE
  5
594
330
18
100
AcDbEntity
  8
1
 62
     1
100
AcDbLine
 10
68.09613247308103
 20
5.999983493112263
 30
0.0
 11
68.09613247308106
 21
5.995156423166261
 31
0.0
  0
LINE
  5
595
330
18
100
AcDbEntity
  8
1
 62
     1
100
AcDbLine
 10
68.09613247308106
 20
5.995156423166261
 30
0.0
 11
68.09613247308103
 21
5.928479757911584
 31
0.0
  0
LINE
  5
596
330
18
100
AcDbEntity
  8
1
 62
     1
100
AcDbLine
 10
68.15386752691896
 20
6.0
 30
0.0
 11
68.15386752691896
 21
5.999983493112263
 31
0.0
  0
LINE
  5
597
330
18
100
AcDbEntity
  8
1
 62
     1
100
AcDbLine
 10
68.15386752691896
 20
5.999983493112263
 30
0.0
 11
68.15386752691896
 21
5.995156423166261
 31
0.0
  0
LINE
  5
598
330
18
100
AcDbEntity
  8
1
 62
     1
100
AcDbLine
 10
68.15386752691896
 20
5.995156423166261
 30
0.0
 11
68.15386752691896
 21
5.928479757911584
 31
0.0
  0
LINE
  5
599
330
18
100
AcDbEntity
  8
1
 62
     1
100
AcDbLine
 10
68.96485954445673
 20
4.575060437224234
 30
0.0
 11
68.15386752691896
 21
5.928479757911601
 31
0.0
  0
LINE
  5
59A
330
18
100
AcDbEntity
  8
1
 62
     1
100
AcDbLine
 10
69.0
 20
4.515711442717574
 30
0.0
 11
68.99999999999999
 21
4.529849969843802
 31
0.0
  0
LINE
  5
59B
330
18
100
AcDbEntity
  8
1
 62
     1
100
AcDbLine
 10
68.99999999999999
 20
4.529849969843802
 30
0.0
 11
69.0
 21
4.533314921826737
 31
0.0
  0
LINE
  5
59C
330
18
100
AcDbEntity
  8
1
 62
     1
100
AcDbLine
 10
69.0
 20
4.533314921826737
 30
0.0
 11
69.0
 21
4.534172212456747
 31
0.0
  0
LINE
  5
59D
330
18
100
AcDbEntity
  8
1
 62
     1
100
AcDbLine
 10
69.0
 20
4.534172212456747
 30
0.0
 11
69.0
 21
4.534385403273317
 31
0.0
  0
LINE
  5
59E
330
18
100
AcDbEntity
  8
1
 62
     1
100
AcDbLine
 10
69.0
 20
4.534385403273317
 30
0.0
 11
69.0
 21
4.534438558702238
 31
0.0
  0
LINE
  5
59F
330
18
100
AcDbEntity
  8
1
 62
     1
100
AcDbLine
 10
69.0
 20
4.534438558702238
 30
0.0
 11
69.0
 21
4.534451829726724
 31
0.0
  0
LINE
  5
5A0
330
18
100
AcDbEntity
  8
1
 62
     1
100
AcDbLine
 10
69.0
 20
4.534451829726724
 30
0.0
 11
69.0
 21
4.534455145250774
 31
0.0
  0
LINE
  5
5A1
330
18
100
AcDbEntity
  8
1
 62
     1
100
AcDbLine
 10
69.0
 20
4.534455145250774
 30
0.0
 11
69.00000000000001
 21
4.534455973852593
 31
0.0
  0
LINE
  5
5A2
330
18
100
AcDbEntity
  8
1
 62
     1
100
AcDbLine
 10
69.00000000000001
 20
4.534455973852593
 30
0.0
 11
69.0
 21
4.534456180968136
 31
0.0
  0
LINE
  5
5A3
330
18
100
AcDbEntity
  8
1
 62
     1
100
AcDbLine
 10
69.0
 20
4.534456180968136
 30
0.0
 11
68.99999999999999
 21
4.534456232742658
 31
0.0
  0
LINE
  5
5A4
330
18
100
AcDbEntity
  8
1
 62
     1
100
AcDbLine
 10
68.99999999999999
 20
4.534456232742658
 30
0.0
 11
69.0
 21
4.534456245685742
 31
0.0
  0
LINE
  5
5A5
330
18
100
AcDbEntity
  8
1
 62
     1
100
AcDbLine
 10
69.0
 20
4.534456245685742
 30
0.0
 11
69.0
 21
4.534456248921445
 31
0.0
  0
LINE
  5
5A6
330
18
100
AcDbEntity
  8
1
 62
     1
100
AcDbLine
 10
69.0
 20
4.534456248921445
 30
0.0
 11
69.00000000000001
 21
4.534456249730362
 31
0.0
  0
LINE
  5
5A7
330
18
100
AcDbEntity
  8
1
 62
     1
100
AcDbLine
 10
69.00000000000001
 20
4.534456249730362
 30
0.0
 11
69.0
 21
4.534456249932592
 31
0.0
  0
LINE
  5
5A8
330
18
100
AcDbEntity
  8
1
 62
     1
100
AcDbLine
 10
69.0
 20
4.534456249932592
 30
0.0
 11
69.00000000000001
 21
4.534456249983148
 31
0.0
  0
LINE
  5
5A9
330
18
100
AcDbEntity
  8
1
 62
     1
100
AcDbLine
 10
69.00000000000001
 20
4.534456249983148
 30
0.0
 11
69.0
 21
4.534456249995787
 31
0.0
  0
LINE
  5
5AA
330
18
100
AcDbEntity
  8
1
 62
     1
100
AcDbLine
 10
69.0
 20
4.534456249995787
 30
0.0
 11
69.0
 21
4.534456249999499
 31
0.0
  0
LINE
  5
5AB
330
18
100
AcDbEntity
  8
1
 62
     1
100
AcDbLine
 10
69.0
 20
4.534456249999499
 30
0.0
 11
69.0
 21
4.53445625
 31
0.0
  0
LINE
  5
5AC
330
18
100
AcDbEntity
  8
1
 62
     1
100
AcDbLine
 10
69.03514045554329
 20
4.575060437224234
 30
0.0
 11
69.84613247308103
 21
5.928479757911585
 31
0.0
  0
LINE
  5
5AD
330
18
100
AcDbEntity
  8
1
 62
     1
100
AcDbLine
 10
69.84613247308103
 20
6.0
 30
0.0
 11
69.84613247308103
 21
5.999983493112263
 31
0.0
  0
LINE
  5
5AE
330
18
100
AcDbEntity
  8
1
 62
     1
100
AcDbLine
 10
69.84613247308103
 20
5.999983493112263
 30
0.0
 11
69.84613247308103
 21
5.995156423166261
 31
0.0
  0
LINE
  5
5AF
330
18
100
AcDbEntity
  8
1
 62
     1
100
AcDbLine
 10
69.84613247308103
 20
5.995156423166261
 30
0.0
 11
69.84613247308103
 21
5.928479757911584
 31
0.0
  0
LINE
  5
5B0
330
18
100
AcDbEntity
  8
1
 62
     1
100
AcDbLine
 10
69.90386752691902
 20
6.0
 30
0.0
 11
69.90386752691902
 21
5.999983493112263
 31
0.0
  0
LINE
  5
5B1
330
18
100
AcDbEntity
  8
1
 62
     1
100
AcDbLine
 10
69.90386752691902
 20
5.999983493112263
 30
0.0
 11
69.903867526919
 21
5.995156423166261
 31
0.0
  0
LINE
  5
5B2
330
18
100
AcDbEntity
  8
1
 62
     1
100
AcDbLine
 10
69.903867526919
 20
5.995156423166261
 30
0.0
 11
69.90386752691899
 21
5.928479757911584
 31
0.0
  0
LINE
  5
5B3
330
18
100
AcDbEntity
  8
1
 62
     1
100
AcDbLine
 10
70.71485954445671
 20
4.575060437224234
 30
0.0
 11
69.90386752691899
 21
5.928479757911573
 31
0.0
  0
LINE
  5
5B4
330
18
100
AcDbEntity
  8
1
 62
     1
100
AcDbLine
 10
70.75
 20
4.515711442717574
 30
0.0
 11
70.75
 21
4.53445625
 31
0.0
  0
LINE
  5
5B5
330
18
100
AcDbEntity
  8
1
 62
     1
100
AcDbLine
 10
64.65386752691897
 20
6.0
 30
0.0
 11
64.65386752691897
 21
5.999983493112263
 31
0.0
  0
LINE
  5
5B6
330
18
100
AcDbEntity
  8
1
 62
     1
100
AcDbLine
 10
64.65386752691897
 20
5.999983493112263
 30
0.0
 11
64.65386752691897
 21
5.995156423166261
 31
0.0
  0
LINE
  5
5B7
330
18
100
AcDbEntity
  8
1
 62
     1
100
AcDbLine
 10
64.65386752691897
 20
5.995156423166261
 30
0.0
 11
64.65386752691897
 21
5.928479757911584
 31
0.0
  0
LINE
  5
5B8
330
18
100
AcDbEntity
  8
1
 62
     1
100
AcDbLine
 10
65.46485954445671
 20
4.575060437224234
 30
0.0
 11
64.65386752691897
 21
5.928479757911584
 31
0.0
  0
LINE
  5
5B9
330
18
100
AcDbEntity
  8
1
 62
     1
100
AcDbLine
 10
63.78514045554329
 20
4.575060437224234
 30
0.0
 11
64.59613247308104
 21
5.928479757911585
 31
0.0
  0
LINE
  5
5BA
330
18
100
AcDbEntity
  8
1
 62
     1
100
AcDbLine
 10
64.59613247308103
 20
6.0
 30
0.0
 11
64.59613247308103
 21
5.999983493112263
 31
0.0
  0
LINE
  5
5BB
330
18
100
AcDbEntity
  8
1
 62
     1
100
AcDbLine
 10
64.59613247308103
 20
5.999983493112263
 30
0.0
 11
64.59613247308103
 21
5.995156423166261
 31
0.0
  0
LINE
  5
5BC
330
18
100
AcDbEntity
  8
1
 62
     1
100
AcDbLine
 10
64.59613247308103
 20
5.995156423166261
 30
0.0
 11
64.59613247308103
 21
5.928479757911584
 31
0.0
  0
LINE
  5
5BD
330
18
100
AcDbEntity
  8
1
 62
     1
100
AcDbLine
 10
60.25000000000001
 20
4.515711442717574
 30
0.0
 11
60.25000000000001
 21
4.53445625
 31
0.0
  0
LINE
  5
5BE
330
18
100
AcDbEntity
  8
1
 62
     1
100
AcDbLine
 10
60.28514045554329
 20
4.575060437224234
 30
0.0
 11
61.09613247308104
 21
5.928479757911592
 31
0.0
  0
LINE
  5
5BF
330
18
100
AcDbEntity
  8
1
 62
     1
100
AcDbLine
 10
61.09613247308104
 20
6.0
 30
0.0
 11
61.09613247308103
 21
5.999983493112263
 31
0.0
  0
LINE
  5
5C0
330
18
100
AcDbEntity
  8
1
 62
     1
100
AcDbLine
 10
61.09613247308103
 20
5.999983493112263
 30
0.0
 11
61.09613247308105
 21
5.995156423166261
 31
0.0
  0
LINE
  5
5C1
330
18
100
AcDbEntity
  8
1
 62
     1
100
AcDbLine
 10
61.09613247308105
 20
5.995156423166261
 30
0.0
 11
61.09613247308104
 21
5.928479757911586
 31
0.0
  0
LINE
  5
5C2
330
18
100
AcDbEntity
  8
1
 62
     1
100
AcDbLine
 10
59.70193383359747
 20
5.483734253517514
 30
0.0
 11
59.70193383359747
 21
5.48372250038789
 31
0.0
  0
LINE
  5
5C3
330
18
100
AcDbEntity
  8
1
 62
     1
100
AcDbLine
 10
59.70193383359747
 20
5.48372250038789
 30
0.0
 11
59.70193383359748
 21
5.480291585475334
 31
0.0
  0
LINE
  5
5C4
330
18
100
AcDbEntity
  8
1
 62
     1
100
AcDbLine
 10
59.70193383359748
 20
5.480291585475334
 30
0.0
 11
59.70193383359747
 21
5.433117793082095
 31
0.0
  0
LINE
  5
5C5
330
18
100
AcDbEntity
  8
1
 62
     1
100
AcDbLine
 10
60.21485954445673
 20
4.575060437224234
 30
0.0
 11
59.70193383359748
 21
5.433117793082113
 31
0.0
  0
LINE
  5
5C6
330
18
100
AcDbEntity
  8
1
 62
     1
100
AcDbLine
 10
61.15386752691899
 20
6.0
 30
0.0
 11
61.15386752691898
 21
5.999983493112263
 31
0.0
  0
LINE
  5
5C7
330
18
100
AcDbEntity
  8
1
 62
     1
100
AcDbLine
 10
61.15386752691898
 20
5.999983493112263
 30
0.0
 11
61.15386752691899
 21
5.995156423166261
 31
0.0
  0
LINE
  5
5C8
330
18
100
AcDbEntity
  8
1
 62
     1
100
AcDbLine
 10
61.15386752691899
 20
5.995156423166261
 30
0.0
 11
61.15386752691899
 21
5.928479757911584
 31
0.0
  0
LINE
  5
5C9
330
18
100
AcDbEntity
  8
1
 62
     1
100
AcDbLine
 10
61.96485954445673
 20
4.575060437224234
 30
0.0
 11
61.15386752691897
 21
5.928479757911584
 31
0.0
  0
LINE
  5
5CA
330
18
100
AcDbEntity
  8
1
 62
     1
100
AcDbLine
 10
62.0
 20
4.515711442717574
 30
0.0
 11
62.00000000000001
 21
4.53445625
 31
0.0
  0
LINE
  5
5CB
330
18
100
AcDbEntity
  8
1
 62
     1
100
AcDbLine
 10
62.03514045554329
 20
4.575060437224234
 30
0.0
 11
62.84613247308106
 21
5.928479757911615
 31
0.0
  0
LINE
  5
5CC
330
18
100
AcDbEntity
  8
1
 62
     1
100
AcDbLine
 10
62.84613247308106
 20
6.0
 30
0.0
 11
62.84613247308106
 21
5.999983493112263
 31
0.0
  0
LINE
  5
5CD
330
18
100
AcDbEntity
  8
1
 62
     1
100
AcDbLine
 10
62.84613247308106
 20
5.999983493112263
 30
0.0
 11
62.84613247308106
 21
5.995156423166261
 31
0.0
  0
LINE
  5
5CE
330
18
100
AcDbEntity
  8
1
 62
     1
100
AcDbLine
 10
62.84613247308106
 20
5.995156423166261
 30
0.0
 11
62.84613247308106
 21
5.928479757911584
 31
0.0
  0
LINE
  5
5CF
330
18
100
AcDbEntity
  8
1
 62
     1
100
AcDbLine
 10
62.90386752691898
 20
6.0
 30
0.0
 11
62.90386752691898
 21
5.999983493112263
 31
0.0
  0
LINE
  5
5D0
330
18
100
AcDbEntity
  8
1
 62
     1
100
AcDbLine
 10
62.90386752691898
 20
5.999983493112263
 30
0.0
 11
62.90386752691898
 21
5.995156423166261
 31
0.0
  0
LINE
  5
5D1
330
18
100
AcDbEntity
  8
1
 62
     1
100
AcDbLine
 10
62.90386752691898
 20
5.995156423166261
 30
0.0
 11
62.90386752691898
 21
5.928479757911584
 31
0.0
  0
LINE
  5
5D2
330
18
100
AcDbEntity
  8
1
 62
     1
100
AcDbLine
 10
63.71485954445673
 20
4.575060437224234
 30
0.0
 11
62.90386752691898
 21
5.928479757911584
 31
0.0
  0
LINE
  5
5D3
330
18
100
AcDbEntity
  8
1
 62
     1
100
AcDbLine
 10
63.75
 20
4.515711442717574
 30
0.0
 11
63.75000000000001
 21
4.53445625
 31
0.0
  0
LINE
  5
5D4
330
18
100
AcDbEntity
  8
1
 62
     1
100
AcDbLine
 10
82.74204209257816
 20
-3.530473931717694
 30
0.0
 11
81.60057458005502
 21
-3.746344160114337
 31
0.0
  0
LINE
  5
5D5
330
18
100
AcDbEntity
  8
1
 62
     1
100
AcDbLine
 10
80.83751184771982
 20
-3.887743655292654
 30
0.0
 11
79.98191017211393
 21
-4.043860788255466
 31
0.0
  0
LINE
  5
5D6
330
18
100
AcDbEntity
  8
1
 62
     1
100
AcDbLine
 10
78.93298160286156
 20
-4.232139328178924
 30
0.0
 11
78.36324576428373
 21
-4.333110772387968
 31
0.0
  0
LINE
  5
5D7
330
18
100
AcDbEntity
  8
1
 62
     1
100
AcDbLine
 10
77.02845135800322
 20
-4.566501078816897
 30
0.0
 11
76.74458135623178
 21
-4.615609682066532
 31
0.0
  0
LINE
  5
5D8
330
18
100
AcDbEntity
  8
1
 62
     1
100
AcDbLine
 10
83.0
 20
-4.53445625
 30
0.0
 11
82.74204209257816
 21
-4.981252243549998
 31
0.0
  0
LINE
  5
5D9
330
18
100
AcDbEntity
  8
1
 62
     1
100
AcDbLine
 10
75.153867526919
 20
-4.830148707360054
 30
0.0
 11
75.09613247308106
 21
-4.830148707360054
 31
0.0
  0
LINE
  5
5DA
330
18
100
AcDbEntity
  8
1
 62
     1
100
AcDbLine
 10
73.40386752691899
 20
-4.830148707360054
 30
0.0
 11
73.34613247308101
 21
-4.830148707360054
 31
0.0
  0
LINE
  5
5DB
330
18
100
AcDbEntity
  8
1
 62
     1
100
AcDbLine
 10
71.65386752691894
 20
-4.830148707360054
 30
0.0
 11
71.59613247308103
 21
-4.830148707360054
 31
0.0
  0
LINE
  5
5DC
330
18
100
AcDbEntity
  8
1
 62
     1
100
AcDbLine
 10
69.903867526919
 20
-4.830148707360054
 30
0.0
 11
69.84613247308104
 21
-4.830148707360054
 31
0.0
  0
LINE
  5
5DD
330
18
100
AcDbEntity
  8
1
 62
     1
100
AcDbLine
 10
68.15386752691896
 20
-4.830148707360054
 30
0.0
 11
68.09613247308103
 21
-4.830148707360054
 31
0.0
  0
LINE
  5
5DE
330
18
100
AcDbEntity
  8
1
 62
     1
100
AcDbLine
 10
66.40386752691899
 20
-4.830148707360054
 30
0.0
 11
66.34613247308103
 21
-4.830148707360054
 31
0.0
  0
LINE
  5
5DF
330
18
100
AcDbEntity
  8
1
 62
     1
100
AcDbLine
 10
64.65386752691897
 20
-4.830148707360054
 30
0.0
 11
64.59613247308104
 21
-4.830148707360054
 31
0.0
  0
LINE
  5
5E0
330
18
100
AcDbEntity
  8
1
 62
     1
100
AcDbLine
 10
62.90386752691898
 20
-4.830148707360054
 30
0.0
 11
62.84613247308105
 21
-4.830148707360054
 31
0.0
  0
LINE
  5
5E1
330
18
100
AcDbEntity
  8
1
 62
     1
100
AcDbLine
 10
61.15386752691898
 20
-4.830148707360054
 30
0.0
 11
61.09613247308104
 21
-4.830148707360054
 31
0.0
  0
LINE
  5
5E2
330
18
100
AcDbEntity
  8
1
 62
     1
100
AcDbLine
 10
72.5
 20
-4.53445625
 30
0.0
 11
71.65386752691896
 21
-6.000000000000018
 31
0.0
  0
LINE
  5
5E3
330
18
100
AcDbEntity
  8
1
 62
     1
100
AcDbLine
 10
74.25
 20
-4.53445625
 30
0.0
 11
73.40386752691897
 21
-5.999999999999994
 31
0.0
  0
LINE
  5
5E4
330
18
100
AcDbEntity
  8
1
 62
     1
100
AcDbLine
 10
79.5
 20
-4.53445625
 30
0.0
 11
78.93298160286157
 21
-5.516560464763611
 31
0.0
  0
LINE
  5
5E5
330
18
100
AcDbEntity
  8
1
 62
     1
100
AcDbLine
 10
67.25
 20
-4.53445625
 30
0.0
 11
66.40386752691897
 21
-5.999999999999994
 31
0.0
  0
LINE
  5
5E6
330
18
100
AcDbEntity
  8
1
 62
     1
100
AcDbLine
 10
69.0
 20
-4.53445625
 30
0.0
 11
68.15386752691896
 21
-6.000000000000018
 31
0.0
  0
LINE
  5
5E7
330
18
100
AcDbEntity
  8
1
 62
     1
100
AcDbLine
 10
65.5
 20
-4.53445625
 30
0.0
 11
64.65386752691897
 21
-5.999999999999994
 31
0.0
  0
LINE
  5
5E8
330
18
100
AcDbEntity
  8
1
 62
     1
100
AcDbLine
 10
59.70193383359748
 20
-4.190488829739003
 30
0.0
 11
59.35927352564334
 21
-3.405349395289941
 31
0.0
  0
LINE
  5
5E9
330
18
100
AcDbEntity
  8
1
 62
     1
100
AcDbLine
 10
59.35927352564334
 20
-3.405349395289941
 30
0.0
 11
59.04737206
 21
-2.607555023326703
 31
0.0
  0
LINE
  5
5EA
330
18
100
AcDbEntity
  8
1
 62
     1
100
AcDbLine
 10
59.04737205999999
 20
-2.607555023326703
 30
0.0
 11
59.04737206
 21
-4.35
 31
0.0
  0
LINE
  5
5EB
330
18
100
AcDbEntity
  8
1
 62
     1
100
AcDbLine
 10
59.04737206000001
 20
3.481832391187674
 30
0.0
 11
59.04737205999999
 21
-0.3811893599269345
 31
0.0
  0
LINE
  5
5EC
330
18
100
AcDbEntity
  8
1
 62
     1
100
AcDbLine
 10
59.04737206
 20
4.333266051361085
 30
0.0
 11
59.04737206
 21
3.481832391187678
 31
0.0
  0
LINE
  5
5ED
330
18
100
AcDbEntity
  8
1
 62
     1
100
AcDbLine
 10
59.04737206
 20
4.35
 30
0.0
 11
59.04737205999999
 21
4.349996049386248
 31
0.0
  0
LINE
  5
5EE
330
18
100
AcDbEntity
  8
1
 62
     1
100
AcDbLine
 10
59.04737205999999
 20
4.349996049386248
 30
0.0
 11
59.04737206
 21
4.348848158027531
 31
0.0
  0
LINE
  5
5EF
330
18
100
AcDbEntity
  8
1
 62
     1
100
AcDbLine
 10
59.04737206
 20
4.348848158027531
 30
0.0
 11
59.04737205999999
 21
4.333266051361085
 31
0.0
  0
LINE
  5
5F0
330
18
100
AcDbEntity
  8
1
 62
     1
100
AcDbLine
 10
83.0
 20
-2.0
 30
0.0
 11
85.0
 21
-0.0000000000000004
 31
0.0
  0
LINE
  5
5F1
330
18
100
AcDbEntity
  8
1
 62
     1
100
AcDbLine
 10
83.0
 20
-0.411878197133112
 30
0.0
 11
83.0
 21
-1.259522968263018
 31
0.0
  0
LINE
  5
5F2
330
18
100
AcDbEntity
  8
1
 62
     1
100
AcDbLine
 10
59.04737206
 20
-0.3811893599306743
 30
0.0
 11
59.04737206
 21
-0.6553243888401066
 31
0.0
  0
LINE
  5
5F3
330
18
100
AcDbEntity
  8
1
 62
     1
100
AcDbLine
 10
59.04737206
 20
-0.6553243888401066
 30
0.0
 11
59.04737206
 21
-1.259522968263018
 31
0.0
  0
LINE
  5
5F4
330
18
100
AcDbEntity
  8
1
 62
     1
100
AcDbLine
 10
83.0
 20
4.53445625
 30
0.0
 11
82.74204209257815
 21
4.981252243550019
 31
0.0
  0
LINE
  5
5F5
330
18
100
AcDbEntity
  8
1
 62
     1
100
AcDbLine
 10
72.50000000000001
 20
4.53445625
 30
0.0
 11
71.65386752691896
 21
6.000000000000018
 31
0.0
  0
LINE
  5
5F6
330
18
100
AcDbEntity
  8
1
 62
     1
100
AcDbLine
 10
71.59613247308104
 20
6.0
 30
0.0
 11
70.75
 21
4.53445625
 31
0.0
  0
LINE
  5
5F7
330
18
100
AcDbEntity
  8
1
 62
     1
100
AcDbLine
 10
76.74458135623178
 20
5.824108388061224
 30
0.0
 11
76.0
 21
4.53445625
 31
0.0
  0
LINE
  5
5F8
330
18
100
AcDbEntity
  8
1
 62
     1
100
AcDbLine
 10
78.36324576417285
 20
5.5966285758356
 30
0.0
 11
77.75
 21
4.53445625
 31
0.0
  0
LINE
  5
5F9
330
18
100
AcDbEntity
  8
1
 62
     1
100
AcDbLine
 10
81.60057458005504
 20
5.141668951384331
 30
0.0
 11
81.25
 21
4.53445625
 31
0.0
  0
LINE
  5
5FA
330
18
100
AcDbEntity
  8
1
 62
     1
100
AcDbLine
 10
81.25
 20
4.53445625
 30
0.0
 11
80.83751184771985
 21
5.248906354156853
 31
0.0
  0
LINE
  5
5FB
330
18
100
AcDbEntity
  8
1
 62
     1
100
AcDbLine
 10
79.98191017211396
 20
5.369148763609953
 30
0.0
 11
79.5
 21
4.53445625
 31
0.0
  0
LINE
  5
5FC
330
18
100
AcDbEntity
  8
1
 62
     1
100
AcDbLine
 10
75.09613247308103
 20
6.0
 30
0.0
 11
74.25
 21
4.53445625
 31
0.0
  0
LINE
  5
5FD
330
18
100
AcDbEntity
  8
1
 62
     1
100
AcDbLine
 10
74.25
 20
4.53445625
 30
0.0
 11
73.40386752691897
 21
5.999999999999997
 31
0.0
  0
LINE
  5
5FE
330
18
100
AcDbEntity
  8
1
 62
     1
100
AcDbLine
 10
73.34613247308104
 20
6.000000000000019
 30
0.0
 11
72.5
 21
4.53445625
 31
0.0
  0
LINE
  5
5FF
330
18
100
AcDbEntity
  8
1
 62
     1
100
AcDbLine
 10
76.0
 20
4.53445625
 30
0.0
 11
75.15386752691897
 21
5.999999999999998
 31
0.0
  0
LINE
  5
600
330
18
100
AcDbEntity
  8
1
 62
     1
100
AcDbLine
 10
79.50000000000001
 20
4.534456250000001
 30
0.0
 11
78.93298160286153
 21
5.516560464763679
 31
0.0
  0
LINE
  5
601
330
18
100
AcDbEntity
  8
1
 62
     1
100
AcDbLine
 10
77.75
 20
4.53445625
 30
0.0
 11
77.02845135800322
 21
5.78421457537052
 31
0.0
  0
LINE
  5
602
330
18
100
AcDbEntity
  8
1
 62
     1
100
AcDbLine
 10
67.25
 20
4.534456250000001
 30
0.0
 11
66.40386752691897
 21
5.999999999999998
 31
0.0
  0
LINE
  5
603
330
18
100
AcDbEntity
  8
1
 62
     1
100
AcDbLine
 10
66.34613247308104
 20
6.000000000000019
 30
0.0
 11
65.5
 21
4.53445625
 31
0.0
  0
LINE
  5
604
330
18
100
AcDbEntity
  8
1
 62
     1
100
AcDbLine
 10
68.09613247308104
 20
6.000000000000018
 30
0.0
 11
67.25
 21
4.53445625
 31
0.0
  0
LINE
  5
605
330
18
100
AcDbEntity
  8
1
 62
     1
100
AcDbLine
 10
69.0
 20
4.53445625
 30
0.0
 11
68.15386752691896
 21
6.000000000000018
 31
0.0
  0
LINE
  5
606
330
18
100
AcDbEntity
  8
1
 62
     1
100
AcDbLine
 10
69.84613247308103
 20
6.0
 30
0.0
 11
69.0
 21
4.53445625
 31
0.0
  0
LINE
  5
607
330
18
100
AcDbEntity
  8
1
 62
     1
100
AcDbLine
 10
70.75
 20
4.53445625
 30
0.0
 11
69.90386752691897
 21
5.999999999999986
 31
0.0
  0
LINE
  5
608
330
18
100
AcDbEntity
  8
1
 62
     1
100
AcDbLine
 10
65.5
 20
4.53445625
 30
0.0
 11
64.65386752691897
 21
5.999999999999998
 31
0.0
  0
LINE
  5
609
330
18
100
AcDbEntity
  8
1
 62
     1
100
AcDbLine
 10
64.59613247308103
 20
5.999999999999999
 30
0.0
 11
63.75000000000001
 21
4.53445625
 31
0.0
  0
LINE
  5
60A
330
18
100
AcDbEntity
  8
1
 62
     1
100
AcDbLine
 10
61.09613247308104
 20
6.000000000000005
 30
0.0
 11
60.25000000000001
 21
4.53445625
 31
0.0
  0
LINE
  5
60B
330
18
100
AcDbEntity
  8
1
 62
     1
100
AcDbLine
 10
60.25000000000001
 20
4.534456250000001
 30
0.0
 11
59.70193383359748
 21
5.483734253517513
 31
0.0
  0
LINE
  5
60C
330
18
100
AcDbEntity
  8
1
 62
     1
100
AcDbLine
 10
62.00000000000001
 20
4.534456250000001
 30
0.0
 11
61.15386752691897
 21
5.999999999999997
 31
0.0
  0
LINE
  5
60D
330
18
100
AcDbEntity
  8
1
 62
     1
100
AcDbLine
 10
62.84613247308106
 20
6.00000000000003
 30
0.0
 11
62.00000000000001
 21
4.53445625
 31
0.0
  0
LINE
  5
60E
330
18
100
AcDbEntity
  8
1
 62
     1
100
AcDbLine
 10
63.75000000000001
 20
4.53445625
 30
0.0
 11
62.90386752691898
 21
5.999999999999997
 31
0.0
  0
LINE
  5
60F
330
18
100
AcDbEntity
  8
1
 62
     1
100
AcDbLine
 10
81.60057458005504
 20
-5.141668951384299
 30
0.0
 11
82.74204209257816
 21
-4.981252243550025
 31
0.0
  0
LINE
  5
610
330
18
100
AcDbEntity
  8
1
 62
     1
100
AcDbLine
 10
79.98191017211394
 20
-5.369148763609935
 30
0.0
 11
80.83751184771985
 21
-5.24890635415686
 31
0.0
  0
LINE
  5
611
330
18
100
AcDbEntity
  8
1
 62
     1
100
AcDbLine
 10
78.36324576417285
 20
-5.59662857583557
 30
0.0
 11
78.93298160286157
 21
-5.516560464763691
 31
0.0
  0
LINE
  5
612
330
18
100
AcDbEntity
  8
1
 62
     1
100
AcDbLine
 10
76.74458135623176
 20
-5.824108388061208
 30
0.0
 11
77.02845135800325
 21
-5.784214575370529
 31
0.0
  0
LINE
  5
613
330
18
100
AcDbEntity
  8
1
 62
     1
100
AcDbLine
 10
75.09613247308103
 20
-6.0
 30
0.0
 11
75.15386752691899
 21
-6.0
 31
0.0
  0
LINE
  5
614
330
18
100
AcDbEntity
  8
1
 62
     1
100
AcDbLine
 10
73.34613247308103
 20
-6.0
 30
0.0
 11
73.40386752691899
 21
-6.0
 31
0.0
  0
LINE
  5
615
330
18
100
AcDbEntity
  8
1
 62
     1
100
AcDbLine
 10
71.59613247308103
 20
-6.0
 30
0.0
 11
71.65386752691899
 21
-6.0
 31
0.0
  0
LINE
  5
616
330
18
100
AcDbEntity
  8
1
 62
     1
100
AcDbLine
 10
69.84613247308101
 20
-6.0
 30
0.0
 11
69.90386752691902
 21
-6.0
 31
0.0
  0
LINE
  5
617
330
18
100
AcDbEntity
  8
1
 62
     1
100
AcDbLine
 10
68.09613247308104
 20
-6.0
 30
0.0
 11
68.15386752691896
 21
-6.0
 31
0.0
  0
LINE
  5
618
330
18
100
AcDbEntity
  8
1
 62
     1
100
AcDbLine
 10
66.34613247308104
 20
-6.0
 30
0.0
 11
66.40386752691899
 21
-6.0
 31
0.0
  0
LINE
  5
619
330
18
100
AcDbEntity
  8
1
 62
     1
100
AcDbLine
 10
64.59613247308103
 20
-6.0
 30
0.0
 11
64.65386752691897
 21
-6.0
 31
0.0
  0
LINE
  5
61A
330
18
100
AcDbEntity
  8
1
 62
     1
100
AcDbLine
 10
62.84613247308105
 20
-6.0
 30
0.0
 11
62.90386752691897
 21
-6.0
 31
0.0
  0
LINE
  5
61B
330
18
100
AcDbEntity
  8
1
 62
     1
100
AcDbLine
 10
61.09613247308105
 20
-6.0
 30
0.0
 11
61.15386752691899
 21
-6.0
 31
0.0
  0
LINE
  5
61C
330
18
100
AcDbEntity
  8
1
 62
     1
100
AcDbLine
 10
59.04737206
 20
-4.350000000000001
 30
0.0
 11
59.70193383359748
 21
-5.483734253517515
 31
0.0
  0
LINE
  5
61D
330
18
100
AcDbEntity
  8
SK1
100
AcDbLine
 10
0.0000000000000018
 20
4.5
 30
0.0
 11
-17.0
 21
4.5
 31
0.0
  0
LINE
  5
61E
330
18
100
AcDbEntity
  8
SK1
100
AcDbLine
 10
-26.55
 20
-3.5
 30
0.0
 11
-17.0
 21
-3.5
 31
0.0
  0
LINE
  5
61F
330
18
100
AcDbEntity
  8
SK1
100
AcDbLine
 10
-17.0
 20
-3.499999999999964
 30
0.0
 11
-17.0
 21
-4.5
 31
0.0
  0
LINE
  5
620
330
18
100
AcDbEntity
  8
SK1
100
AcDbLine
 10
-26.55
 20
2.828427124746192
 30
0.0
 11
-17.0
 21
2.828427124746192
 31
0.0
  0
LINE
  5
621
330
18
100
AcDbEntity
  8
SK1
100
AcDbLine
 10
-26.55
 20
3.5
 30
0.0
 11
-17.0
 21
3.5
 31
0.0
  0
ARC
  5
622
330
18
100
AcDbEntity
  8
SK1
100
AcDbCircle
 10
-18.60494415543276
 20
-2.221132645436342
 30
0.0
 40
9.41362387468697
100
AcDbArc
 50
147.5615924265876
 51
153.1008352577538
  0
LINE
  5
623
330
18
100
AcDbEntity
  8
SK1
100
AcDbLine
 10
-26.55
 20
3.499999999999965
 30
0.0
 11
-26.55
 21
2.828427124746192
 31
0.0
  0
LINE
  5
624
330
18
100
AcDbEntity
  8
SK1
100
AcDbLine
 10
-26.99999999999999
 20
3.5
 30
0.0
 11
-26.55
 21
3.500000000000001
 31
0.0
  0
LINE
  5
625
330
18
100
AcDbEntity
  8
SK1
100
AcDbLine
 10
-17.0
 20
4.5
 30
0.0
 11
-17.0
 21
4.499790197742024
 31
0.0
  0
LINE
  5
626
330
18
100
AcDbEntity
  8
SK1
100
AcDbLine
 10
-17.0
 20
4.499790197742024
 30
0.0
 11
-17.0
 21
4.435752692613256
 31
0.0
  0
LINE
  5
627
330
18
100
AcDbEntity
  8
SK1
100
AcDbLine
 10
-17.0
 20
4.435752692613256
 30
0.0
 11
-17.0
 21
3.499999999999965
 31
0.0
  0
LINE
  5
628
330
18
100
AcDbEntity
  8
SK1
100
AcDbLine
 10
-27.0
 20
3.499999999999999
 30
0.0
 11
-27.0
 21
2.037768387231484
 31
0.0
  0
LINE
  5
629
330
18
100
AcDbEntity
  8
SK1
100
AcDbLine
 10
-27.0
 20
-2.037768387231483
 30
0.0
 11
-27.0
 21
-3.499999999999998
 31
0.0
  0
ARC
  5
62A
330
18
100
AcDbEntity
  8
SK1
100
AcDbCircle
 10
-18.60494415543322
 20
2.221132645436361
 30
0.0
 40
9.413623874686566
100
AcDbArc
 50
206.8991647422476
 51
212.4384075734138
  0
LINE
  5
62B
330
18
100
AcDbEntity
  8
SK1
100
AcDbLine
 10
-27.0
 20
-3.5
 30
0.0
 11
-26.55
 21
-3.5
 31
0.0
  0
LINE
  5
62C
330
18
100
AcDbEntity
  8
SK1
100
AcDbLine
 10
-26.55
 20
-2.828427124746232
 30
0.0
 11
-26.55
 21
-3.499999999999964
 31
0.0
  0
LINE
  5
62D
330
18
100
AcDbEntity
  8
SK1
100
AcDbLine
 10
-17.0
 20
2.828427124746195
 30
0.0
 11
-17.0
 21
-2.828427124746189
 31
0.0
  0
LINE
  5
62E
330
18
100
AcDbEntity
  8
SK1
100
AcDbLine
 10
-27.00000000000001
 20
2.037768387231484
 30
0.0
 11
-27.0
 21
-2.037768387231482
 31
0.0
  0
LINE
  5
62F
330
18
100
AcDbEntity
  8
SK1
100
AcDbLine
 10
-26.55
 20
-2.828427124746188
 30
0.0
 11
-17.0
 21
-2.828427124746188
 31
0.0
  0
LINE
  5
630
330
18
100
AcDbEntity
  8
SK1
100
AcDbLine
 10
-17.0
 20
-4.5
 30
0.0
 11
0.0000000000000004
 21
-4.5
 31
0.0
  0
DIMENSION
  5
631
330
18
100
AcDbEntity
  8
2
100
AcDbDimension
  2
*D0
 10
98.00000000000004
 20
-5.999999999999948
 30
0.0
 11
95.60925000000003
 21
0.0000000000000444
 31
0.0
 70
    32
  1
M12
 71
     5
 42
12.0
  3
STANDARD
100
AcDbAlignedDimension
 13
83.0
 23
6.0
 33
0.0
 14
83.0
 24
-6.0
 34
0.0
 50
90.0000000000002
100
AcDbRotatedDimension
  0
DIMENSION
  5
63E
330
18
100
AcDbEntity
  8
2
100
AcDbDimension
  2
*D1
 10
83.0
 20
75.0
 30
0.0
 11
41.5
 21
77.39075
 31
0.0
 70
    32
  1
<>
 71
     5
 42
83.0
  3
STANDARD
100
AcDbAlignedDimension
 13
0.0
 23
0.0
 33
0.0
 14
83.0
 24
0.0
 34
0.0
100
AcDbRotatedDimension
  0
DIMENSION
  5
64B
330
18
100
AcDbEntity
  8
SK2
100
AcDbDimension
  2
*D2
 10
-41.99999999997704
 20
-4.500000000127585
 30
0.0
 11
-44.39075
 21
-0.0000000001397857
 31
0.0
 70
    32
  1
%%c<>
 71
     5
 42
9.0
  3
STANDARD
100
AcDbAlignedDimension
 13
-17.0
 23
4.5
 33
0.0
 14
-17.0
 24
-4.5
 34
0.0
 50
90.0000000002924
100
AcDbRotatedDimension
  0
DIMENSION
  5
658
330
18
100
AcDbEntity
  8
2
100
AcDbDimension
  2
*D3
 10
83.0
 20
60.0
 30
0.0
 11
71.02368603
 21
62.39775
 31
0.0
 70
    32
  1
<>
 71
     5
 42
23.95262794
  3
STANDARD
100
AcDbAlignedDimension
 13
59.04737206
 23
4.35
 33
0.0
 14
83.0
 24
6.0
 34
0.0
100
AcDbRotatedDimension
  0
DIMENSION
  5
665
330
18
100
AcDbEntity
  8
SK2
100
AcDbDimension
  2
*D4
 10
85.0
 20
90.0
 30
0.0
 11
29.0
 21
92.39075
 31
0.0
 70
    32
  1
<>
 71
     5
 42
112.0
  3
STANDARD
100
AcDbAlignedDimension
 13
-27.0
 23
6.0
 33
0.0
 14
85.0
 24
6.0
 34
0.0
100
AcDbRotatedDimension
  0
ENDSEC
  0
SECTION
  2
OBJECTS
  0
DICTIONARY
  5
C
330
0
100
AcDbDictionary
281
     1
  3
ACAD_COLOR
350
387
  3
ACAD_GROUP
350
D
  3
ACAD_LAYOUT
350
301
  3
ACAD_MATERIAL
350
386
  3
ACAD_MLEADERSTYLE
350
672
  3
ACAD_MLINESTYLE
350
E
  3
ACAD_PLOTSETTINGS
350
302
  3
ACAD_PLOTSTYLENAME
350
2FF
  3
ACAD_SCALELIST
350
3A0
  3
ACAD_TABLESTYLE
350
388
  3
ACAD_VISUALSTYLE
350
3C5
  3
ACDBHEADERROUNDTRIPXREC
350
673
  3
AcDbVariableDictionary
350
357
  0
DICTIONARY
  5
387
102
{ACAD_REACTORS
330
C
102
}
330
C
100
AcDbDictionary
281
     1
  0
DICTIONARY
  5
D
102
{ACAD_REACTORS
330
C
102
}
330
C
100
AcDbDictionary
281
     1
  0
DICTIONARY
  5
301
102
{ACAD_REACTORS
330
C
102
}
330
C
100
AcDbDictionary
281
     1
  3
Layout1
350
33B
  3
Model
350
303
  0
DICTIONARY
  5
386
102
{ACAD_REACTORS
330
C
102
}
330
C
100
AcDbDictionary
281
     1
  3
ByBlock
350
3C3
  3
ByLayer
350
3C2
  3
Global
350
3C4
  0
DICTIONARY
  5
672
102
{ACAD_REACTORS
330
C
102
}
330
C
100
AcDbDictionary
281
     1
  0
DICTIONARY
  5
E
102
{ACAD_REACTORS
330
C
102
}
330
C
100
AcDbDictionary
281
     1
  3
STANDARD
350
1B
  0
DICTIONARY
  5
302
102
{ACAD_REACTORS
330
C
102
}
330
C
100
AcDbDictionary
281
     1
  0
ACDBDICTIONARYWDFLT
  5
2FF
102
{ACAD_REACTORS
330
C
102
}
330
C
100
AcDbDictionary
281
     1
  3
Normal
350
300
100
AcDbDictionaryWithDefault
340
300
  0
DICTIONARY
  5
3A0
102
{ACAD_REACTORS
330
C
102
}
330
C
100
AcDbDictionary
281
     1
  3
A0
350
3A1
  3
A1
350
3A2
  3
A2
350
3A3
  3
A3
350
3A4
  3
A4
350
3A5
  3
A5
350
3A6
  3
A6
350
3A7
  3
A7
350
3A8
  3
A8
350
3A9
  3
A9
350
3AA
  3
B0
350
3AB
  3
B1
350
3AC
  3
B2
350
3AD
  3
B3
350
3AE
  3
B4
350
3AF
  3
B5
350
3B0
  3
B6
350
3B1
  3
B7
350
3B2
  3
B8
350
3B3
  3
B9
350
3B4
  3
C0
350
3B5
  3
C1
350
3B6
  3
C2
350
3B7
  3
C3
350
3B8
  3
C4
350
3B9
  3
C5
350
3BA
  3
C6
350
3BB
  3
C7
350
3BC
  3
C8
350
3BD
  3
C9
350
3BE
  3
D0
350
3BF
  3
D1
350
3C0
  3
D2
350
3C1
  0
DICTIONARY
  5
388
102
{ACAD_REACTORS
330
C
102
}
330
C
100
AcDbDictionary
281
     1
  3
Standard
350
389
  0
DICTIONARY
  5
3C5
102
{ACAD_REACTORS
330
C
102
}
330
C
100
AcDbDictionary
281
     1
  3
2dWireframe
350
3CA
  3
3D Hidden
350
3CC
  3
3dWireframe
350
3CB
  3
Basic
350
3CD
  3
Brighten
350
3D1
  3
ColorChange
350
3D5
  3
Conceptual
350
3CF
  3
Dim
350
3D0
  3
Facepattern
350
3D4
  3
Flat
350
3C6
  3
FlatWithEdges
350
3C7
  3
Gouraud
350
3C8
  3
GouraudWithEdges
350
3C9
  3
Linepattern
350
3D3
  3
Realistic
350
3CE
  3
Thicken
350
3D2
  0
DICTIONARY
  5
673
102
{ACAD_REACTORS
330
C
102
}
330
C
100
AcDbDictionary
281
     1
  3
COLORDICT
350
674
  3
MATERIALDICT
350
675
  0
DICTIONARY
  5
357
102
{ACAD_REACTORS
330
C
102
}
330
C
100
AcDbDictionary
281
     1
  3
CANNOSCALE
350
676
  3
CTABLESTYLE
350
38D
  3
DIMASSOC
350
359
  3
HIDETEXT
350
358
  3
PROJECTNAME
350
38E
  0
LAYOUT
  5
33B
102
{ACAD_REACTORS
330
301
102
}
330
301
100
AcDbPlotSettings
  1

  2
Lexmark Optra PS2
  4

  6

 40
0.0
 41
0.0
 42
0.0
 43
0.0
 44
0.0
 45
0.0
 46
0.0
 47
0.0
 48
0.0
 49
0.0
140
0.0
141
0.0
142
1.0
143
1.0
 70
   688
 72
     0
 73
     0
 74
     5
  7
monochrome.ctb
 75
    16
147
1.0
148
0.0
149
0.0
100
AcDbLayout
  1
Layout1
 70
     1
 71
     1
 10
0.0
 20
0.0
 11
12.0
 21
9.0
 12
0.0
 22
0.0
 32
0.0
 14
0.0
 24
0.0
 34
0.0
 15
0.0
 25
0.0
 35
0.0
146
0.0
 13
0.0
 23
0.0
 33
0.0
 16
1.0
 26
0.0
 36
0.0
 17
0.0
 27
1.0
 37
0.0
 76
     0
330
338
  0
LAYOUT
  5
303
102
{ACAD_REACTORS
330
301
102
}
330
301
100
AcDbPlotSettings
  1

  2
Lexmark Optra Rx
  4
A4
  6

 40
6.805083274841307
 41
5.535083293914794
 42
6.974411010742187
 43
7.14373779296875
 44
209.9733276367186
 45
296.9259948730469
 46
0.0
 47
0.0
 48
0.0
 49
0.0
140
0.0
141
0.0
142
1.0
143
2.976565420630886
 70
 11952
 72
     1
 73
     1
 74
     0
  7
monochrome.ctb
 75
     0
147
0.335957675604539
148
204.1199660668592
149
172.3933209647495
100
AcDbLayout
  1
Model
 70
     1
 71
     0
 10
0.0
 20
0.0
 11
12.0
 21
9.0
 12
0.0
 22
0.0
 32
0.0
 14
0.0
 24
0.0
 34
0.0
 15
0.0
 25
0.0
 35
0.0
146
0.0
 13
0.0
 23
0.0
 33
0.0
 16
1.0
 26
0.0
 36
0.0
 17
0.0
 27
1.0
 37
0.0
 76
     0
330
18
331
39A
  0
MATERIAL
  5
3C3
102
{ACAD_REACTORS
330
386
102
}
102
{ACAD_XDICTIONARY
360
679
102
}
330
386
100
AcDbMaterial
  1
ByBlock
  0
MATERIAL
  5
3C2
102
{ACAD_REACTORS
330
386
102
}
102
{ACAD_XDICTIONARY
360
677
102
}
330
386
100
AcDbMaterial
  1
ByLayer
  0
MATERIAL
  5
3C4
102
{ACAD_REACTORS
330
386
102
}
102
{ACAD_XDICTIONARY
360
67B
102
}
330
386
100
AcDbMaterial
  1
Global
  0
MLINESTYLE
  5
1B
102
{ACAD_REACTORS
330
E
102
}
330
E
100
AcDbMlineStyle
  2
STANDARD
 70
     0
  3

 62
     0
 51
90.0
 52
90.0
 71
     2
 49
0.5
 62
   256
  6
BYLAYER
 49
-0.5
 62
   256
  6
BYLAYER
  0
ACDBPLACEHOLDER
  5
300
102
{ACAD_REACTORS
330
2FF
102
}
330
2FF
  0
SCALE
  5
3A1
102
{ACAD_REACTORS
330
3A0
102
}
330
3A0
100
AcDbScale
 70
     0
300
1:1
140
1.0
141
1.0
290
     1
  0
SCALE
  5
3A2
102
{ACAD_REACTORS
330
3A0
102
}
330
3A0
100
AcDbScale
 70
     0
300
1:2
140
1.0
141
2.0
290
     0
  0
SCALE
  5
3A3
102
{ACAD_REACTORS
330
3A0
102
}
330
3A0
100
AcDbScale
 70
     0
300
1:4
140
1.0
141
4.0
290
     0
  0
SCALE
  5
3A4
102
{ACAD_REACTORS
330
3A0
102
}
330
3A0
100
AcDbScale
 70
     0
300
1:5
140
1.0
141
5.0
290
     0
  0
SCALE
  5
3A5
102
{ACAD_REACTORS
330
3A0
102
}
330
3A0
100
AcDbScale
 70
     0
300
1:8
140
1.0
141
8.0
290
     0
  0
SCALE
  5
3A6
102
{ACAD_REACTORS
330
3A0
102
}
330
3A0
100
AcDbScale
 70
     0
300
1:10
140
1.0
141
10.0
290
     0
  0
SCALE
  5
3A7
102
{ACAD_REACTORS
330
3A0
102
}
330
3A0
100
AcDbScale
 70
     0
300
1:16
140
1.0
141
16.0
290
     0
  0
SCALE
  5
3A8
102
{ACAD_REACTORS
330
3A0
102
}
330
3A0
100
AcDbScale
 70
     0
300
1:20
140
1.0
141
20.0
290
     0
  0
SCALE
  5
3A9
102
{ACAD_REACTORS
330
3A0
102
}
330
3A0
100
AcDbScale
 70
     0
300
1:30
140
1.0
141
30.0
290
     0
  0
SCALE
  5
3AA
102
{ACAD_REACTORS
330
3A0
102
}
330
3A0
100
AcDbScale
 70
     0
300
1:40
140
1.0
141
40.0
290
     0
  0
SCALE
  5
3AB
102
{ACAD_REACTORS
330
3A0
102
}
330
3A0
100
AcDbScale
 70
     0
300
1:50
140
1.0
141
50.0
290
     0
  0
SCALE
  5
3AC
102
{ACAD_REACTORS
330
3A0
102
}
330
3A0
100
AcDbScale
 70
     0
300
1:100
140
1.0
141
100.0
290
     0
  0
SCALE
  5
3AD
102
{ACAD_REACTORS
330
3A0
102
}
330
3A0
100
AcDbScale
 70
     0
300
2:1
140
2.0
141
1.0
290
     0
  0
SCALE
  5
3AE
102
{ACAD_REACTORS
330
3A0
102
}
330
3A0
100
AcDbScale
 70
     0
300
4:1
140
4.0
141
1.0
290
     0
  0
SCALE
  5
3AF
102
{ACAD_REACTORS
330
3A0
102
}
330
3A0
100
AcDbScale
 70
     0
300
8:1
140
8.0
141
1.0
290
     0
  0
SCALE
  5
3B0
102
{ACAD_REACTORS
330
3A0
102
}
330
3A0
100
AcDbScale
 70
     0
300
10:1
140
10.0
141
1.0
290
     0
  0
SCALE
  5
3B1
102
{ACAD_REACTORS
330
3A0
102
}
330
3A0
100
AcDbScale
 70
     0
300
100:1
140
100.0
141
1.0
290
     0
  0
SCALE
  5
3B2
102
{ACAD_REACTORS
330
3A0
102
}
330
3A0
100
AcDbScale
 70
     0
300
1/128" = 1'-0"
140
0.0078125
141
12.0
290
     0
  0
SCALE
  5
3B3
102
{ACAD_REACTORS
330
3A0
102
}
330
3A0
100
AcDbScale
 70
     0
300
1/64" = 1'-0"
140
0.015625
141
12.0
290
     0
  0
SCALE
  5
3B4
102
{ACAD_REACTORS
330
3A0
102
}
330
3A0
100
AcDbScale
 70
     0
300
1/32" = 1'-0"
140
0.03125
141
12.0
290
     0
  0
SCALE
  5
3B5
102
{ACAD_REACTORS
330
3A0
102
}
330
3A0
100
AcDbScale
 70
     0
300
1/16" = 1'-0"
140
0.0625
141
12.0
290
     0
  0
SCALE
  5
3B6
102
{ACAD_REACTORS
330
3A0
102
}
330
3A0
100
AcDbScale
 70
     0
300
3/32" = 1'-0"
140
0.09375
141
12.0
290
     0
  0
SCALE
  5
3B7
102
{ACAD_REACTORS
330
3A0
102
}
330
3A0
100
AcDbScale
 70
     0
300
1/8" = 1'-0"
140
0.125
141
12.0
290
     0
  0
SCALE
  5
3B8
102
{ACAD_REACTORS
330
3A0
102
}
330
3A0
100
AcDbScale
 70
     0
300
3/16" = 1'-0"
140
0.1875
141
12.0
290
     0
  0
SCALE
  5
3B9
102
{ACAD_REACTORS
330
3A0
102
}
330
3A0
100
AcDbScale
 70
     0
300
1/4" = 1'-0"
140
0.25
141
12.0
290
     0
  0
SCALE
  5
3BA
102
{ACAD_REACTORS
330
3A0
102
}
330
3A0
100
AcDbScale
 70
     0
300
3/8" = 1'-0"
140
0.375
141
12.0
290
     0
  0
SCALE
  5
3BB
102
{ACAD_REACTORS
330
3A0
102
}
330
3A0
100
AcDbScale
 70
     0
300
1/2" = 1'-0"
140
0.5
141
12.0
290
     0
  0
SCALE
  5
3BC
102
{ACAD_REACTORS
330
3A0
102
}
330
3A0
100
AcDbScale
 70
     0
300
3/4" = 1'-0"
140
0.75
141
12.0
290
     0
  0
SCALE
  5
3BD
102
{ACAD_REACTORS
330
3A0
102
}
330
3A0
100
AcDbScale
 70
     0
300
1" = 1'-0"
140
1.0
141
12.0
290
     0
  0
SCALE
  5
3BE
102
{ACAD_REACTORS
330
3A0
102
}
330
3A0
100
AcDbScale
 70
     0
300
1-1/2" = 1'-0"
140
1.5
141
12.0
290
     0
  0
SCALE
  5
3BF
102
{ACAD_REACTORS
330
3A0
102
}
330
3A0
100
AcDbScale
 70
     0
300
3" = 1'-0"
140
3.0
141
12.0
290
     0
  0
SCALE
  5
3C0
102
{ACAD_REACTORS
330
3A0
102
}
330
3A0
100
AcDbScale
 70
     0
300
6" = 1'-0"
140
6.0
141
12.0
290
     0
  0
SCALE
  5
3C1
102
{ACAD_REACTORS
330
3A0
102
}
330
3A0
100
AcDbScale
 70
     0
300
1'-0" = 1'-0"
140
12.0
141
12.0
290
     0
  0
TABLESTYLE
  5
389
102
{ACAD_REACTORS
330
388
102
}
330
388
100
AcDbTableStyle
  3
Standard
 70
     0
 71
     0
 40
1.5
 41
1.5
280
     0
281
     0
  7
STANDARD
140
4.5
170
     2
 62
     0
 63
   257
283
     0
274
    -2
284
     1
 64
     0
275
    -2
285
     1
 65
     0
276
    -2
286
     1
 66
     0
277
    -2
287
     1
 67
     0
278
    -2
288
     1
 68
     0
279
    -2
289
     1
 69
     0
  7
STANDARD
140
6.0
170
     5
 62
     0
 63
   257
283
     0
274
    -2
284
     1
 64
     0
275
    -2
285
     1
 65
     0
276
    -2
286
     1
 66
     0
277
    -2
287
     1
 67
     0
278
    -2
288
     1
 68
     0
279
    -2
289
     1
 69
     0
  7
STANDARD
140
4.5
170
     5
 62
     0
 63
   257
283
     0
274
    -2
284
     1
 64
     0
275
    -2
285
     1
 65
     0
276
    -2
286
     1
 66
     0
277
    -2
287
     1
 67
     0
278
    -2
288
     1
 68
     0
279
    -2
289
     1
 69
     0
  0
VISUALSTYLE
  5
3CA
102
{ACAD_REACTORS
330
3C5
102
}
102
{ACAD_XDICTIONARY
360
685
102
}
330
3C5
100
AcDbVisualStyle
  2
2dWireframe
 70
     4
 71
     0
 72
     2
 73
     0
 90
        0
 40
-0.6
 41
-30.0
 62
     5
 63
     7
 74
     1
 91
        4
 64
     7
 65
   257
 75
     1
175
     1
 42
1.0
 92
        0
 66
   257
 43
1.0
 76
     1
 77
     6
 78
     2
 67
     7
 79
     5
170
     0
171
     0
290
     0
174
     0
 93
        1
 44
0.0
173
     0
291
     0
 45
0.0
1001
ACAD
1000
AcDbSavedByObjectVersion
1070
     0
  0
VISUALSTYLE
  5
3CC
102
{ACAD_REACTORS
330
3C5
102
}
102
{ACAD_XDICTIONARY
360
689
102
}
330
3C5
100
AcDbVisualStyle
  2
3D Hidden
 70
     6
 71
     1
 72
     2
 73
     2
 90
        0
 40
-0.6
 41
-30.0
 62
     5
 63
     7
 74
     2
 91
        2
 64
     7
 65
   257
 75
     2
175
     1
 42
40.0
 92
        0
 66
   257
 43
1.0
 76
     1
 77
     6
 78
     2
 67
     7
 79
     3
170
     0
171
     0
290
     0
174
     0
 93
        1
 44
0.0
173
     0
291
     0
 45
0.0
1001
ACAD
1000
AcDbSavedByObjectVersion
1070
     0
  0
VISUALSTYLE
  5
3CB
102
{ACAD_REACTORS
330
3C5
102
}
102
{ACAD_XDICTIONARY
360
687
102
}
330
3C5
100
AcDbVisualStyle
  2
3dWireframe
 70
     5
 71
     0
 72
     2
 73
     0
 90
        0
 40
-0.6
 41
-30.0
 62
     5
 63
     7
 74
     1
 91
        4
 64
     7
 65
   257
 75
     1
175
     1
 42
1.0
 92
        0
 66
   257
 43
1.0
 76
     1
 77
     6
 78
     2
 67
     7
 79
     5
170
     0
171
     0
290
     0
174
     0
 93
        1
 44
0.0
173
     0
291
     0
 45
0.0
1001
ACAD
1000
AcDbSavedByObjectVersion
1070
     0
  0
VISUALSTYLE
  5
3CD
102
{ACAD_REACTORS
330
3C5
102
}
102
{ACAD_XDICTIONARY
360
68B
102
}
330
3C5
100
AcDbVisualStyle
  2
Basic
 70
     7
 71
     1
 72
     0
 73
     1
 90
        0
 40
-0.6
 41
-30.0
 62
     5
 63
     7
 74
     0
 91
        4
 64
     7
 65
   257
 75
     1
175
     1
 42
1.0
 92
        8
 66
     7
 43
1.0
 76
     1
 77
     6
 78
     2
 67
     7
 79
     5
170
     0
171
     0
290
     0
174
     0
 93
        1
 44
0.0
173
     0
291
     1
 45
0.0
1001
ACAD
1000
AcDbSavedByObjectVersion
1070
     0
  0
VISUALSTYLE
  5
3D1
102
{ACAD_REACTORS
330
3C5
102
}
102
{ACAD_XDICTIONARY
360
693
102
}
330
3C5
100
AcDbVisualStyle
  2
Brighten
 70
    12
 71
     2
 72
     2
 73
     0
 90
        0
 40
-0.6
 41
-30.0
 62
     5
 63
     7
 74
     1
 91
        4
 64
     7
 65
   257
 75
     1
175
     1
 42
1.0
 92
        8
 66
     7
 43
1.0
 76
     1
 77
     6
 78
     2
 67
     7
 79
     5
170
     0
171
     0
290
     0
174
     0
 93
        1
 44
50.0
173
     0
291
     1
 45
0.0
1001
ACAD
1000
AcDbSavedByObjectVersion
1070
     0
  0
VISUALSTYLE
  5
3D5
102
{ACAD_REACTORS
330
3C5
102
}
102
{ACAD_XDICTIONARY
360
69B
102
}
330
3C5
100
AcDbVisualStyle
  2
ColorChange
 70
    16
 71
     2
 72
     2
 73
     3
 90
        0
 40
-0.6
 41
-30.0
 62
     5
 63
     8
 74
     1
 91
        4
 64
     7
 65
   257
 75
     1
175
     1
 42
1.0
 92
        8
 66
     8
 43
1.0
 76
     1
 77
     6
 78
     2
 67
     7
 79
     5
170
     0
171
     0
290
     0
174
     0
 93
        1
 44
0.0
173
     0
291
     1
 45
0.0
1001
ACAD
1000
AcDbSavedByObjectVersion
1070
     0
  0
VISUALSTYLE
  5
3CF
102
{ACAD_REACTORS
330
3C5
102
}
102
{ACAD_XDICTIONARY
360
68F
102
}
330
3C5
100
AcDbVisualStyle
  2
Conceptual
 70
     9
 71
     3
 72
     2
 73
     0
 90
        0
 40
-0.6
 41
-30.0
 62
     5
 63
     7
 74
     2
 91
        2
 64
     7
 65
   257
 75
     1
175
     1
 42
40.0
 92
        8
 66
     7
 43
1.0
 76
     1
 77
     6
 78
     2
 67
     7
 79
     3
170
     0
171
     0
290
     0
174
     0
 93
        1
 44
0.0
173
     0
291
     0
 45
0.0
1001
ACAD
1000
AcDbSavedByObjectVersion
1070
     0
  0
VISUALSTYLE
  5
3D0
102
{ACAD_REACTORS
330
3C5
102
}
102
{ACAD_XDICTIONARY
360
691
102
}
330
3C5
100
AcDbVisualStyle
  2
Dim
 70
    11
 71
     2
 72
     2
 73
     0
 90
        0
 40
-0.6
 41
-30.0
 62
     5
 63
     7
 74
     1
 91
        4
 64
     7
 65
   257
 75
     1
175
     1
 42
1.0
 92
        8
 66
     7
 43
1.0
 76
     1
 77
     6
 78
     2
 67
     7
 79
     5
170
     0
171
     0
290
     0
174
     0
 93
        1
 44
-50.0
173
     0
291
     1
 45
0.0
1001
ACAD
1000
AcDbSavedByObjectVersion
1070
     0
  0
VISUALSTYLE
  5
3D4
102
{ACAD_REACTORS
330
3C5
102
}
102
{ACAD_XDICTIONARY
360
699
102
}
330
3C5
100
AcDbVisualStyle
  2
Facepattern
 70
    15
 71
     2
 72
     2
 73
     0
 90
        0
 40
-0.6
 41
-30.0
 62
     5
 63
     7
 74
     1
 91
        4
 64
     7
 65
   257
 75
     1
175
     1
 42
1.0
 92
        8
 66
     7
 43
1.0
 76
     1
 77
     6
 78
     2
 67
     7
 79
     5
170
     0
171
     0
290
     0
174
     0
 93
        1
 44
0.0
173
     0
291
     1
 45
0.0
1001
ACAD
1000
AcDbSavedByObjectVersion
1070
     0
  0
VISUALSTYLE
  5
3C6
102
{ACAD_REACTORS
330
3C5
102
}
102
{ACAD_XDICTIONARY
360
67D
102
}
330
3C5
100
AcDbVisualStyle
  2
Flat
 70
     0
 71
     2
 72
     1
 73
     1
 90
        2
 40
-0.6
 41
30.0
 62
     5
 63
     7
 74
     0
 91
        4
 64
     7
 65
   257
 75
     1
175
     1
 42
1.0
 92
        8
 66
     7
 43
1.0
 76
     1
 77
     6
 78
     2
 67
     7
 79
     5
170
     0
171
     0
290
     0
174
     0
 93
       13
 44
0.0
173
     0
291
     1
 45
0.0
1001
ACAD
1000
AcDbSavedByObjectVersion
1070
     0
  0
VISUALSTYLE
  5
3C7
102
{ACAD_REACTORS
330
3C5
102
}
102
{ACAD_XDICTIONARY
360
67F
102
}
330
3C5
100
AcDbVisualStyle
  2
FlatWithEdges
 70
     1
 71
     2
 72
     1
 73
     1
 90
        2
 40
-0.6
 41
30.0
 62
     5
 63
     7
 74
     1
 91
        4
 64
     7
 65
   257
 75
     1
175
     1
 42
1.0
 92
        0
 66
   257
 43
1.0
 76
     1
 77
     6
 78
     2
 67
     7
 79
     5
170
     0
171
     0
290
     0
174
     0
 93
       13
 44
0.0
173
     0
291
     1
 45
0.0
1001
ACAD
1000
AcDbSavedByObjectVersion
1070
     0
  0
VISUALSTYLE
  5
3C8
102
{ACAD_REACTORS
330
3C5
102
}
102
{ACAD_XDICTIONARY
360
681
102
}
330
3C5
100
AcDbVisualStyle
  2
Gouraud
 70
     2
 71
     2
 72
     2
 73
     1
 90
        2
 40
-0.6
 41
30.0
 62
     5
 63
     7
 74
     0
 91
        4
 64
     7
 65
   257
 75
     1
175
     1
 42
1.0
 92
        0
 66
     7
 43
1.0
 76
     1
 77
     6
 78
     2
 67
     7
 79
     5
170
     0
171
     0
290
     0
174
     0
 93
       13
 44
0.0
173
     0
291
     1
 45
0.0
1001
ACAD
1000
AcDbSavedByObjectVersion
1070
     0
  0
VISUALSTYLE
  5
3C9
102
{ACAD_REACTORS
330
3C5
102
}
102
{ACAD_XDICTIONARY
360
683
102
}
330
3C5
100
AcDbVisualStyle
  2
GouraudWithEdges
 70
     3
 71
     2
 72
     2
 73
     1
 90
        2
 40
-0.6
 41
30.0
 62
     5
 63
     7
 74
     1
 91
        4
 64
     7
 65
   257
 75
     1
175
     1
 42
1.0
 92
        0
 66
   257
 43
1.0
 76
     1
 77
     6
 78
     2
 67
     7
 79
     5
170
     0
171
     0
290
     0
174
     0
 93
       13
 44
0.0
173
     0
291
     1
 45
0.0
1001
ACAD
1000
AcDbSavedByObjectVersion
1070
     0
  0
VISUALSTYLE
  5
3D3
102
{ACAD_REACTORS
330
3C5
102
}
102
{ACAD_XDICTIONARY
360
697
102
}
330
3C5
100
AcDbVisualStyle
  2
Linepattern
 70
    14
 71
     2
 72
     2
 73
     0
 90
        0
 40
-0.6
 41
-30.0
 62
     5
 63
     7
 74
     1
 91
        4
 64
     7
 65
   257
 75
     7
175
     7
 42
1.0
 92
        8
 66
     7
 43
1.0
 76
     1
 77
     6
 78
     2
 67
     7
 79
     5
170
     0
171
     0
290
     0
174
     0
 93
        1
 44
0.0
173
     0
291
     1
 45
0.0
1001
ACAD
1000
AcDbSavedByObjectVersion
1070
     0
  0
VISUALSTYLE
  5
3CE
102
{ACAD_REACTORS
330
3C5
102
}
102
{ACAD_XDICTIONARY
360
68D
102
}
330
3C5
100
AcDbVisualStyle
  2
Realistic
 70
     8
 71
     2
 72
     2
 73
     0
 90
        0
 40
-0.6
 41
-30.0
 62
     5
 63
     7
 74
     1
 91
        0
 64
     7
 65
   257
 75
     1
175
     1
 42
1.0
 92
        8
 66
     8
 43
1.0
 76
     1
 77
     6
 78
     2
 67
     7
 79
     5
170
     0
171
     0
290
     0
174
     0
 93
       13
 44
0.0
173
     0
291
     0
 45
0.0
1001
ACAD
1000
AcDbSavedByObjectVersion
1070
     0
  0
VISUALSTYLE
  5
3D2
102
{ACAD_REACTORS
330
3C5
102
}
102
{ACAD_XDICTIONARY
360
695
102
}
330
3C5
100
AcDbVisualStyle
  2
Thicken
 70
    13
 71
     2
 72
     2
 73
     0
 90
        0
 40
-0.6
 41
-30.0
 62
     5
 63
     7
 74
     1
 91
        4
 64
     7
 65
   257
 75
     1
175
     1
 42
1.0
 92
       12
 66
     7
 43
1.0
 76
     1
 77
     6
 78
     2
 67
     7
 79
     5
170
     0
171
     0
290
     0
174
     0
 93
        1
 44
0.0
173
     0
291
     1
 45
0.0
1001
ACAD
1000
AcDbSavedByObjectVersion
1070
     0
  0
XRECORD
  5
674
102
{ACAD_REACTORS
330
673
102
}
330
673
100
AcDbXrecord
280
     1
340
387
  0
XRECORD
  5
675
102
{ACAD_REACTORS
330
673
102
}
330
673
100
AcDbXrecord
280
     1
340
386
  0
DICTIONARYVAR
  5
676
102
{ACAD_REACTORS
330
357
102
}
330
357
100
DictionaryVariables
280
     0
  1
1:1
  0
DICTIONARYVAR
  5
38D
102
{ACAD_REACTORS
330
357
102
}
330
357
100
DictionaryVariables
280
     0
  1
Standard
  0
DICTIONARYVAR
  5
359
102
{ACAD_REACTORS
330
357
102
}
330
357
100
DictionaryVariables
280
     0
  1
2
  0
DICTIONARYVAR
  5
358
102
{ACAD_REACTORS
330
357
102
}
330
357
100
DictionaryVariables
280
     0
  1
1
  0
DICTIONARYVAR
  5
38E
102
{ACAD_REACTORS
330
357
102
}
330
357
100
DictionaryVariables
280
     0
  1

  0
DICTIONARY
  5
679
330
3C3
100
AcDbDictionary
280
     1
281
     1
  3
ACAD_XREC_ROUNDTRIP
360
67A
  0
DICTIONARY
  5
677
330
3C2
100
AcDbDictionary
280
     1
281
     1
  3
ACAD_XREC_ROUNDTRIP
360
678
  0
DICTIONARY
  5
67B
330
3C4
100
AcDbDictionary
280
     1
281
     1
  3
ACAD_XREC_ROUNDTRIP
360
67C
  0
DICTIONARY
  5
685
330
3CA
100
AcDbDictionary
280
     1
281
     1
  3
ACAD_XREC_ROUNDTRIP
360
686
  0
DICTIONARY
  5
689
330
3CC
100
AcDbDictionary
280
     1
281
     1
  3
ACAD_XREC_ROUNDTRIP
360
68A
  0
DICTIONARY
  5
687
330
3CB
100
AcDbDictionary
280
     1
281
     1
  3
ACAD_XREC_ROUNDTRIP
360
688
  0
DICTIONARY
  5
68B
330
3CD
100
AcDbDictionary
280
     1
281
     1
  3
ACAD_XREC_ROUNDTRIP
360
68C
  0
DICTIONARY
  5
693
330
3D1
100
AcDbDictionary
280
     1
281
     1
  3
ACAD_XREC_ROUNDTRIP
360
694
  0
DICTIONARY
  5
69B
330
3D5
100
AcDbDictionary
280
     1
281
     1
  3
ACAD_XREC_ROUNDTRIP
360
69C
  0
DICTIONARY
  5
68F
330
3CF
100
AcDbDictionary
280
     1
281
     1
  3
ACAD_XREC_ROUNDTRIP
360
690
  0
DICTIONARY
  5
691
330
3D0
100
AcDbDictionary
280
     1
281
     1
  3
ACAD_XREC_ROUNDTRIP
360
692
  0
DICTIONARY
  5
699
330
3D4
100
AcDbDictionary
280
     1
281
     1
  3
ACAD_XREC_ROUNDTRIP
360
69A
  0
DICTIONARY
  5
67D
330
3C6
100
AcDbDictionary
280
     1
281
     1
  3
ACAD_XREC_ROUNDTRIP
360
67E
  0
DICTIONARY
  5
67F
330
3C7
100
AcDbDictionary
280
     1
281
     1
  3
ACAD_XREC_ROUNDTRIP
360
680
  0
DICTIONARY
  5
681
330
3C8
100
AcDbDictionary
280
     1
281
     1
  3
ACAD_XREC_ROUNDTRIP
360
682
  0
DICTIONARY
  5
683
330
3C9
100
AcDbDictionary
280
     1
281
     1
  3
ACAD_XREC_ROUNDTRIP
360
684
  0
DICTIONARY
  5
697
330
3D3
100
AcDbDictionary
280
     1
281
     1
  3
ACAD_XREC_ROUNDTRIP
360
698
  0
DICTIONARY
  5
68D
330
3CE
100
AcDbDictionary
280
     1
281
     1
  3
ACAD_XREC_ROUNDTRIP
360
68E
  0
DICTIONARY
  5
695
330
3D2
100
AcDbDictionary
280
     1
281
     1
  3
ACAD_XREC_ROUNDTRIP
360
696
  0
XRECORD
  5
67A
102
{ACAD_REACTORS
330
679
102
}
330
679
100
AcDbXrecord
280
     1
102
MATERIAL
148
0.0
149
0.0
149
0.0
 93
        0
 94
      127
282
     0
 72
     1
 77
     1
171
     1
175
     1
179
     1
273
     0
  0
XRECORD
  5
678
102
{ACAD_REACTORS
330
677
102
}
330
677
100
AcDbXrecord
280
     1
102
MATERIAL
148
0.0
149
0.0
149
0.0
 93
        0
 94
      127
282
     0
 72
     1
 77
     1
171
     1
175
     1
179
     1
273
     0
  0
XRECORD
  5
67C
102
{ACAD_REACTORS
330
67B
102
}
330
67B
100
AcDbXrecord
280
     1
102
MATERIAL
148
0.0
149
0.0
149
0.0
 93
        0
 94
      127
282
     0
 72
     1
 77
     1
171
     1
175
     1
179
     1
273
     0
  0
XRECORD
  5
686
102
{ACAD_REACTORS
330
685
102
}
330
685
100
AcDbXrecord
280
     1
102
RTVSPropertyOp0
 70
     1
102
RTVSPropertyOp1
 70
     1
102
RTVSPropertyOp2
 70
     1
102
RTVSPropertyOp3
 70
     1
102
RTVSPropertyOp4
 70
     1
102
RTVSPropertyOp5
 70
     1
102
RTVSPropertyOp6
 70
     1
102
RTVSPropertyOp7
 70
     1
102
RTVSPropertyOp8
 70
     1
102
RTVSPropertyOp9
 70
     1
102
RTVSPropertyOp10
 70
     1
102
RTVSPropertyOp11
 70
     1
102
RTVSPropertyOp12
 70
     1
102
RTVSPropertyOp13
 70
     1
102
RTVSPropertyOp14
 70
     1
102
RTVSPropertyOp15
 70
     1
102
RTVSPropertyOp16
 70
     1
102
RTVSPropertyOp17
 70
     1
102
RTVSPropertyOp18
 70
     1
102
RTVSPropertyOp19
 70
     1
102
RTVSPropertyOp20
 70
     1
102
RTVSPropertyOp21
 70
     1
102
RTVSPropertyOp22
 70
     1
102
RTVSPropertyOp23
 70
     1
102
RTVSPropertyOp24
 70
     1
102
RTVSPropertyOp25
 70
     1
102
RTVSPropertyOp26
 70
     1
102
RTVSPropertyOp27
 70
     1
102
RTVSPropertyOp28
 70
     1
102
RTVSPropertyOp29
 70
     1
102
RTVSPropertyOp30
 70
     1
102
RTVSPropertyOp31
 70
     1
102
RTVSPropertyOp32
 70
     1
  0
XRECORD
  5
68A
102
{ACAD_REACTORS
330
689
102
}
330
689
100
AcDbXrecord
280
     1
102
RTVSPropertyOp0
 70
     1
102
RTVSPropertyOp1
 70
     1
102
RTVSPropertyOp2
 70
     1
102
RTVSPropertyOp3
 70
     1
102
RTVSPropertyOp4
 70
     1
102
RTVSPropertyOp5
 70
     1
102
RTVSPropertyOp6
 70
     1
102
RTVSPropertyOp7
 70
     1
102
RTVSPropertyOp8
 70
     1
102
RTVSPropertyOp9
 70
     1
102
RTVSPropertyOp10
 70
     1
102
RTVSPropertyOp11
 70
     1
102
RTVSPropertyOp12
 70
     1
102
RTVSPropertyOp13
 70
     1
102
RTVSPropertyOp14
 70
     1
102
RTVSPropertyOp15
 70
     1
102
RTVSPropertyOp16
 70
     1
102
RTVSPropertyOp17
 70
     1
102
RTVSPropertyOp18
 70
     1
102
RTVSPropertyOp19
 70
     1
102
RTVSPropertyOp20
 70
     1
102
RTVSPropertyOp21
 70
     1
102
RTVSPropertyOp22
 70
     1
102
RTVSPropertyOp23
 70
     1
102
RTVSPropertyOp24
 70
     1
102
RTVSPropertyOp25
 70
     1
102
RTVSPropertyOp26
 70
     1
102
RTVSPropertyOp27
 70
     1
102
RTVSPropertyOp28
 70
     1
102
RTVSPropertyOp29
 70
     1
102
RTVSPropertyOp30
 70
     1
102
RTVSPropertyOp31
 70
     1
102
RTVSPropertyOp32
 70
     1
  0
XRECORD
  5
688
102
{ACAD_REACTORS
330
687
102
}
330
687
100
AcDbXrecord
280
     1
102
RTVSPropertyOp0
 70
     1
102
RTVSPropertyOp1
 70
     1
102
RTVSPropertyOp2
 70
     1
102
RTVSPropertyOp3
 70
     1
102
RTVSPropertyOp4
 70
     1
102
RTVSPropertyOp5
 70
     1
102
RTVSPropertyOp6
 70
     1
102
RTVSPropertyOp7
 70
     1
102
RTVSPropertyOp8
 70
     1
102
RTVSPropertyOp9
 70
     1
102
RTVSPropertyOp10
 70
     1
102
RTVSPropertyOp11
 70
     1
102
RTVSPropertyOp12
 70
     1
102
RTVSPropertyOp13
 70
     1
102
RTVSPropertyOp14
 70
     1
102
RTVSPropertyOp15
 70
     1
102
RTVSPropertyOp16
 70
     1
102
RTVSPropertyOp17
 70
     1
102
RTVSPropertyOp18
 70
     1
102
RTVSPropertyOp19
 70
     1
102
RTVSPropertyOp20
 70
     1
102
RTVSPropertyOp21
 70
     1
102
RTVSPropertyOp22
 70
     1
102
RTVSPropertyOp23
 70
     1
102
RTVSPropertyOp24
 70
     1
102
RTVSPropertyOp25
 70
     1
102
RTVSPropertyOp26
 70
     1
102
RTVSPropertyOp27
 70
     1
102
RTVSPropertyOp28
 70
     1
102
RTVSPropertyOp29
 70
     1
102
RTVSPropertyOp30
 70
     1
102
RTVSPropertyOp31
 70
     1
102
RTVSPropertyOp32
 70
     1
  0
XRECORD
  5
68C
102
{ACAD_REACTORS
330
68B
102
}
330
68B
100
AcDbXrecord
280
     1
102
RTVSPropertyOp0
 70
     1
102
RTVSPropertyOp1
 70
     1
102
RTVSPropertyOp2
 70
     1
102
RTVSPropertyOp3
 70
     1
102
RTVSPropertyOp4
 70
     1
102
RTVSPropertyOp5
 70
     1
102
RTVSPropertyOp6
 70
     1
102
RTVSPropertyOp7
 70
     1
102
RTVSPropertyOp8
 70
     1
102
RTVSPropertyOp9
 70
     1
102
RTVSPropertyOp10
 70
     1
102
RTVSPropertyOp11
 70
     1
102
RTVSPropertyOp12
 70
     1
102
RTVSPropertyOp13
 70
     1
102
RTVSPropertyOp14
 70
     1
102
RTVSPropertyOp15
 70
     1
102
RTVSPropertyOp16
 70
     1
102
RTVSPropertyOp17
 70
     1
102
RTVSPropertyOp18
 70
     1
102
RTVSPropertyOp19
 70
     1
102
RTVSPropertyOp20
 70
     1
102
RTVSPropertyOp21
 70
     1
102
RTVSPropertyOp22
 70
     1
102
RTVSPropertyOp23
 70
     1
102
RTVSPropertyOp24
 70
     1
102
RTVSPropertyOp25
 70
     1
102
RTVSPropertyOp26
 70
     1
102
RTVSPropertyOp27
 70
     1
102
RTVSPropertyOp28
 70
     1
102
RTVSPropertyOp29
 70
     1
102
RTVSPropertyOp30
 70
     1
102
RTVSPropertyOp31
 70
     1
102
RTVSPropertyOp32
 70
     1
  0
XRECORD
  5
694
102
{ACAD_REACTORS
330
693
102
}
330
693
100
AcDbXrecord
280
     1
102
RTVSPropertyOp0
 70
     1
102
RTVSPropertyOp1
 70
     1
102
RTVSPropertyOp2
 70
     1
102
RTVSPropertyOp3
 70
     1
102
RTVSPropertyOp4
 70
     1
102
RTVSPropertyOp5
 70
     1
102
RTVSPropertyOp6
 70
     1
102
RTVSPropertyOp7
 70
     1
102
RTVSPropertyOp8
 70
     1
102
RTVSPropertyOp9
 70
     1
102
RTVSPropertyOp10
 70
     1
102
RTVSPropertyOp11
 70
     1
102
RTVSPropertyOp12
 70
     1
102
RTVSPropertyOp13
 70
     1
102
RTVSPropertyOp14
 70
     1
102
RTVSPropertyOp15
 70
     1
102
RTVSPropertyOp16
 70
     1
102
RTVSPropertyOp17
 70
     1
102
RTVSPropertyOp18
 70
     1
102
RTVSPropertyOp19
 70
     1
102
RTVSPropertyOp20
 70
     1
102
RTVSPropertyOp21
 70
     1
102
RTVSPropertyOp22
 70
     1
102
RTVSPropertyOp23
 70
     1
102
RTVSPropertyOp24
 70
     1
102
RTVSPropertyOp25
 70
     1
102
RTVSPropertyOp26
 70
     1
102
RTVSPropertyOp27
 70
     1
102
RTVSPropertyOp28
 70
     1
102
RTVSPropertyOp29
 70
     1
102
RTVSPropertyOp30
 70
     1
102
RTVSPropertyOp31
 70
     1
102
RTVSPropertyOp32
 70
     1
  0
XRECORD
  5
69C
102
{ACAD_REACTORS
330
69B
102
}
330
69B
100
AcDbXrecord
280
     1
102
RTVSPropertyOp0
 70
     1
102
RTVSPropertyOp1
 70
     1
102
RTVSPropertyOp2
 70
     1
102
RTVSPropertyOp3
 70
     1
102
RTVSPropertyOp4
 70
     1
102
RTVSPropertyOp5
 70
     1
102
RTVSPropertyOp6
 70
     1
102
RTVSPropertyOp7
 70
     1
102
RTVSPropertyOp8
 70
     1
102
RTVSPropertyOp9
 70
     1
102
RTVSPropertyOp10
 70
     1
102
RTVSPropertyOp11
 70
     1
102
RTVSPropertyOp12
 70
     1
102
RTVSPropertyOp13
 70
     1
102
RTVSPropertyOp14
 70
     1
102
RTVSPropertyOp15
 70
     1
102
RTVSPropertyOp16
 70
     1
102
RTVSPropertyOp17
 70
     1
102
RTVSPropertyOp18
 70
     1
102
RTVSPropertyOp19
 70
     1
102
RTVSPropertyOp20
 70
     1
102
RTVSPropertyOp21
 70
     1
102
RTVSPropertyOp22
 70
     1
102
RTVSPropertyOp23
 70
     1
102
RTVSPropertyOp24
 70
     1
102
RTVSPropertyOp25
 70
     1
102
RTVSPropertyOp26
 70
     1
102
RTVSPropertyOp27
 70
     1
102
RTVSPropertyOp28
 70
     1
102
RTVSPropertyOp29
 70
     1
102
RTVSPropertyOp30
 70
     1
102
RTVSPropertyOp31
 70
     1
102
RTVSPropertyOp32
 70
     1
  0
XRECORD
  5
690
102
{ACAD_REACTORS
330
68F
102
}
330
68F
100
AcDbXrecord
280
     1
102
RTVSPropertyOp0
 70
     1
102
RTVSPropertyOp1
 70
     1
102
RTVSPropertyOp2
 70
     1
102
RTVSPropertyOp3
 70
     1
102
RTVSPropertyOp4
 70
     1
102
RTVSPropertyOp5
 70
     1
102
RTVSPropertyOp6
 70
     1
102
RTVSPropertyOp7
 70
     1
102
RTVSPropertyOp8
 70
     1
102
RTVSPropertyOp9
 70
     1
102
RTVSPropertyOp10
 70
     1
102
RTVSPropertyOp11
 70
     1
102
RTVSPropertyOp12
 70
     1
102
RTVSPropertyOp13
 70
     1
102
RTVSPropertyOp14
 70
     1
102
RTVSPropertyOp15
 70
     1
102
RTVSPropertyOp16
 70
     1
102
RTVSPropertyOp17
 70
     1
102
RTVSPropertyOp18
 70
     1
102
RTVSPropertyOp19
 70
     1
102
RTVSPropertyOp20
 70
     1
102
RTVSPropertyOp21
 70
     1
102
RTVSPropertyOp22
 70
     1
102
RTVSPropertyOp23
 70
     1
102
RTVSPropertyOp24
 70
     1
102
RTVSPropertyOp25
 70
     1
102
RTVSPropertyOp26
 70
     1
102
RTVSPropertyOp27
 70
     1
102
RTVSPropertyOp28
 70
     1
102
RTVSPropertyOp29
 70
     1
102
RTVSPropertyOp30
 70
     1
102
RTVSPropertyOp31
 70
     1
102
RTVSPropertyOp32
 70
     1
  0
XRECORD
  5
692
102
{ACAD_REACTORS
330
691
102
}
330
691
100
AcDbXrecord
280
     1
102
RTVSPropertyOp0
 70
     1
102
RTVSPropertyOp1
 70
     1
102
RTVSPropertyOp2
 70
     1
102
RTVSPropertyOp3
 70
     1
102
RTVSPropertyOp4
 70
     1
102
RTVSPropertyOp5
 70
     1
102
RTVSPropertyOp6
 70
     1
102
RTVSPropertyOp7
 70
     1
102
RTVSPropertyOp8
 70
     1
102
RTVSPropertyOp9
 70
     1
102
RTVSPropertyOp10
 70
     1
102
RTVSPropertyOp11
 70
     1
102
RTVSPropertyOp12
 70
     1
102
RTVSPropertyOp13
 70
     1
102
RTVSPropertyOp14
 70
     1
102
RTVSPropertyOp15
 70
     1
102
RTVSPropertyOp16
 70
     1
102
RTVSPropertyOp17
 70
     1
102
RTVSPropertyOp18
 70
     1
102
RTVSPropertyOp19
 70
     1
102
RTVSPropertyOp20
 70
     1
102
RTVSPropertyOp21
 70
     1
102
RTVSPropertyOp22
 70
     1
102
RTVSPropertyOp23
 70
     1
102
RTVSPropertyOp24
 70
     1
102
RTVSPropertyOp25
 70
     1
102
RTVSPropertyOp26
 70
     1
102
RTVSPropertyOp27
 70
     1
102
RTVSPropertyOp28
 70
     1
102
RTVSPropertyOp29
 70
     1
102
RTVSPropertyOp30
 70
     1
102
RTVSPropertyOp31
 70
     1
102
RTVSPropertyOp32
 70
     1
  0
XRECORD
  5
69A
102
{ACAD_REACTORS
330
699
102
}
330
699
100
AcDbXrecord
280
     1
102
RTVSPropertyOp0
 70
     1
102
RTVSPropertyOp1
 70
     1
102
RTVSPropertyOp2
 70
     1
102
RTVSPropertyOp3
 70
     1
102
RTVSPropertyOp4
 70
     1
102
RTVSPropertyOp5
 70
     1
102
RTVSPropertyOp6
 70
     1
102
RTVSPropertyOp7
 70
     1
102
RTVSPropertyOp8
 70
     1
102
RTVSPropertyOp9
 70
     1
102
RTVSPropertyOp10
 70
     1
102
RTVSPropertyOp11
 70
     1
102
RTVSPropertyOp12
 70
     1
102
RTVSPropertyOp13
 70
     1
102
RTVSPropertyOp14
 70
     1
102
RTVSPropertyOp15
 70
     1
102
RTVSPropertyOp16
 70
     1
102
RTVSPropertyOp17
 70
     1
102
RTVSPropertyOp18
 70
     1
102
RTVSPropertyOp19
 70
     1
102
RTVSPropertyOp20
 70
     1
102
RTVSPropertyOp21
 70
     1
102
RTVSPropertyOp22
 70
     1
102
RTVSPropertyOp23
 70
     1
102
RTVSPropertyOp24
 70
     1
102
RTVSPropertyOp25
 70
     1
102
RTVSPropertyOp26
 70
     1
102
RTVSPropertyOp27
 70
     1
102
RTVSPropertyOp28
 70
     1
102
RTVSPropertyOp29
 70
     1
102
RTVSPropertyOp30
 70
     1
102
RTVSPropertyOp31
 70
     1
102
RTVSPropertyOp32
 70
     1
  0
XRECORD
  5
67E
102
{ACAD_REACTORS
330
67D
102
}
330
67D
100
AcDbXrecord
280
     1
102
RTVSPropertyOp0
 70
     1
102
RTVSPropertyOp1
 70
     1
102
RTVSPropertyOp2
 70
     1
102
RTVSPropertyOp3
 70
     1
102
RTVSPropertyOp4
 70
     1
102
RTVSPropertyOp5
 70
     1
102
RTVSPropertyOp6
 70
     1
102
RTVSPropertyOp7
 70
     1
102
RTVSPropertyOp8
 70
     1
102
RTVSPropertyOp9
 70
     1
102
RTVSPropertyOp10
 70
     1
102
RTVSPropertyOp11
 70
     1
102
RTVSPropertyOp12
 70
     1
102
RTVSPropertyOp13
 70
     1
102
RTVSPropertyOp14
 70
     1
102
RTVSPropertyOp15
 70
     1
102
RTVSPropertyOp16
 70
     1
102
RTVSPropertyOp17
 70
     1
102
RTVSPropertyOp18
 70
     1
102
RTVSPropertyOp19
 70
     1
102
RTVSPropertyOp20
 70
     1
102
RTVSPropertyOp21
 70
     1
102
RTVSPropertyOp22
 70
     1
102
RTVSPropertyOp23
 70
     1
102
RTVSPropertyOp24
 70
     1
102
RTVSPropertyOp25
 70
     1
102
RTVSPropertyOp26
 70
     1
102
RTVSPropertyOp27
 70
     1
102
RTVSPropertyOp28
 70
     1
102
RTVSPropertyOp29
 70
     1
102
RTVSPropertyOp30
 70
     1
102
RTVSPropertyOp31
 70
     1
102
RTVSPropertyOp32
 70
     1
  0
XRECORD
  5
680
102
{ACAD_REACTORS
330
67F
102
}
330
67F
100
AcDbXrecord
280
     1
102
RTVSPropertyOp0
 70
     1
102
RTVSPropertyOp1
 70
     1
102
RTVSPropertyOp2
 70
     1
102
RTVSPropertyOp3
 70
     1
102
RTVSPropertyOp4
 70
     1
102
RTVSPropertyOp5
 70
     1
102
RTVSPropertyOp6
 70
     1
102
RTVSPropertyOp7
 70
     1
102
RTVSPropertyOp8
 70
     1
102
RTVSPropertyOp9
 70
     1
102
RTVSPropertyOp10
 70
     1
102
RTVSPropertyOp11
 70
     1
102
RTVSPropertyOp12
 70
     1
102
RTVSPropertyOp13
 70
     1
102
RTVSPropertyOp14
 70
     1
102
RTVSPropertyOp15
 70
     1
102
RTVSPropertyOp16
 70
     1
102
RTVSPropertyOp17
 70
     1
102
RTVSPropertyOp18
 70
     1
102
RTVSPropertyOp19
 70
     1
102
RTVSPropertyOp20
 70
     1
102
RTVSPropertyOp21
 70
     1
102
RTVSPropertyOp22
 70
     1
102
RTVSPropertyOp23
 70
     1
102
RTVSPropertyOp24
 70
     1
102
RTVSPropertyOp25
 70
     1
102
RTVSPropertyOp26
 70
     1
102
RTVSPropertyOp27
 70
     1
102
RTVSPropertyOp28
 70
     1
102
RTVSPropertyOp29
 70
     1
102
RTVSPropertyOp30
 70
     1
102
RTVSPropertyOp31
 70
     1
102
RTVSPropertyOp32
 70
     1
  0
XRECORD
  5
682
102
{ACAD_REACTORS
330
681
102
}
330
681
100
AcDbXrecord
280
     1
102
RTVSPropertyOp0
 70
     1
102
RTVSPropertyOp1
 70
     1
102
RTVSPropertyOp2
 70
     1
102
RTVSPropertyOp3
 70
     1
102
RTVSPropertyOp4
 70
     1
102
RTVSPropertyOp5
 70
     1
102
RTVSPropertyOp6
 70
     1
102
RTVSPropertyOp7
 70
     1
102
RTVSPropertyOp8
 70
     1
102
RTVSPropertyOp9
 70
     1
102
RTVSPropertyOp10
 70
     1
102
RTVSPropertyOp11
 70
     1
102
RTVSPropertyOp12
 70
     1
102
RTVSPropertyOp13
 70
     1
102
RTVSPropertyOp14
 70
     1
102
RTVSPropertyOp15
 70
     1
102
RTVSPropertyOp16
 70
     1
102
RTVSPropertyOp17
 70
     1
102
RTVSPropertyOp18
 70
     1
102
RTVSPropertyOp19
 70
     1
102
RTVSPropertyOp20
 70
     1
102
RTVSPropertyOp21
 70
     1
102
RTVSPropertyOp22
 70
     1
102
RTVSPropertyOp23
 70
     1
102
RTVSPropertyOp24
 70
     1
102
RTVSPropertyOp25
 70
     1
102
RTVSPropertyOp26
 70
     1
102
RTVSPropertyOp27
 70
     1
102
RTVSPropertyOp28
 70
     1
102
RTVSPropertyOp29
 70
     1
102
RTVSPropertyOp30
 70
     1
102
RTVSPropertyOp31
 70
     1
102
RTVSPropertyOp32
 70
     1
  0
XRECORD
  5
684
102
{ACAD_REACTORS
330
683
102
}
330
683
100
AcDbXrecord
280
     1
102
RTVSPropertyOp0
 70
     1
102
RTVSPropertyOp1
 70
     1
102
RTVSPropertyOp2
 70
     1
102
RTVSPropertyOp3
 70
     1
102
RTVSPropertyOp4
 70
     1
102
RTVSPropertyOp5
 70
     1
102
RTVSPropertyOp6
 70
     1
102
RTVSPropertyOp7
 70
     1
102
RTVSPropertyOp8
 70
     1
102
RTVSPropertyOp9
 70
     1
102
RTVSPropertyOp10
 70
     1
102
RTVSPropertyOp11
 70
     1
102
RTVSPropertyOp12
 70
     1
102
RTVSPropertyOp13
 70
     1
102
RTVSPropertyOp14
 70
     1
102
RTVSPropertyOp15
 70
     1
102
RTVSPropertyOp16
 70
     1
102
RTVSPropertyOp17
 70
     1
102
RTVSPropertyOp18
 70
     1
102
RTVSPropertyOp19
 70
     1
102
RTVSPropertyOp20
 70
     1
102
RTVSPropertyOp21
 70
     1
102
RTVSPropertyOp22
 70
     1
102
RTVSPropertyOp23
 70
     1
102
RTVSPropertyOp24
 70
     1
102
RTVSPropertyOp25
 70
     1
102
RTVSPropertyOp26
 70
     1
102
RTVSPropertyOp27
 70
     1
102
RTVSPropertyOp28
 70
     1
102
RTVSPropertyOp29
 70
     1
102
RTVSPropertyOp30
 70
     1
102
RTVSPropertyOp31
 70
     1
102
RTVSPropertyOp32
 70
     1
  0
XRECORD
  5
698
102
{ACAD_REACTORS
330
697
102
}
330
697
100
AcDbXrecord
280
     1
102
RTVSPropertyOp0
 70
     1
102
RTVSPropertyOp1
 70
     1
102
RTVSPropertyOp2
 70
     1
102
RTVSPropertyOp3
 70
     1
102
RTVSPropertyOp4
 70
     1
102
RTVSPropertyOp5
 70
     1
102
RTVSPropertyOp6
 70
     1
102
RTVSPropertyOp7
 70
     1
102
RTVSPropertyOp8
 70
     1
102
RTVSPropertyOp9
 70
     1
102
RTVSPropertyOp10
 70
     1
102
RTVSPropertyOp11
 70
     1
102
RTVSPropertyOp12
 70
     1
102
RTVSPropertyOp13
 70
     1
102
RTVSPropertyOp14
 70
     1
102
RTVSPropertyOp15
 70
     1
102
RTVSPropertyOp16
 70
     1
102
RTVSPropertyOp17
 70
     1
102
RTVSPropertyOp18
 70
     1
102
RTVSPropertyOp19
 70
     1
102
RTVSPropertyOp20
 70
     1
102
RTVSPropertyOp21
 70
     1
102
RTVSPropertyOp22
 70
     1
102
RTVSPropertyOp23
 70
     1
102
RTVSPropertyOp24
 70
     1
102
RTVSPropertyOp25
 70
     1
102
RTVSPropertyOp26
 70
     1
102
RTVSPropertyOp27
 70
     1
102
RTVSPropertyOp28
 70
     1
102
RTVSPropertyOp29
 70
     1
102
RTVSPropertyOp30
 70
     1
102
RTVSPropertyOp31
 70
     1
102
RTVSPropertyOp32
 70
     1
  0
XRECORD
  5
68E
102
{ACAD_REACTORS
330
68D
102
}
330
68D
100
AcDbXrecord
280
     1
102
RTVSPropertyOp0
 70
     1
102
RTVSPropertyOp1
 70
     1
102
RTVSPropertyOp2
 70
     1
102
RTVSPropertyOp3
 70
     1
102
RTVSPropertyOp4
 70
     1
102
RTVSPropertyOp5
 70
     1
102
RTVSPropertyOp6
 70
     1
102
RTVSPropertyOp7
 70
     1
102
RTVSPropertyOp8
 70
     1
102
RTVSPropertyOp9
 70
     1
102
RTVSPropertyOp10
 70
     1
102
RTVSPropertyOp11
 70
     1
102
RTVSPropertyOp12
 70
     1
102
RTVSPropertyOp13
 70
     1
102
RTVSPropertyOp14
 70
     1
102
RTVSPropertyOp15
 70
     1
102
RTVSPropertyOp16
 70
     1
102
RTVSPropertyOp17
 70
     1
102
RTVSPropertyOp18
 70
     1
102
RTVSPropertyOp19
 70
     1
102
RTVSPropertyOp20
 70
     1
102
RTVSPropertyOp21
 70
     1
102
RTVSPropertyOp22
 70
     1
102
RTVSPropertyOp23
 70
     1
102
RTVSPropertyOp24
 70
     1
102
RTVSPropertyOp25
 70
     1
102
RTVSPropertyOp26
 70
     1
102
RTVSPropertyOp27
 70
     1
102
RTVSPropertyOp28
 70
     1
102
RTVSPropertyOp29
 70
     1
102
RTVSPropertyOp30
 70
     1
102
RTVSPropertyOp31
 70
     1
102
RTVSPropertyOp32
 70
     1
  0
XRECORD
  5
696
102
{ACAD_REACTORS
330
695
102
}
330
695
100
AcDbXrecord
280
     1
102
RTVSPropertyOp0
 70
     1
102
RTVSPropertyOp1
 70
     1
102
RTVSPropertyOp2
 70
     1
102
RTVSPropertyOp3
 70
     1
102
RTVSPropertyOp4
 70
     1
102
RTVSPropertyOp5
 70
     1
102
RTVSPropertyOp6
 70
     1
102
RTVSPropertyOp7
 70
     1
102
RTVSPropertyOp8
 70
     1
102
RTVSPropertyOp9
 70
     1
102
RTVSPropertyOp10
 70
     1
102
RTVSPropertyOp11
 70
     1
102
RTVSPropertyOp12
 70
     1
102
RTVSPropertyOp13
 70
     1
102
RTVSPropertyOp14
 70
     1
102
RTVSPropertyOp15
 70
     1
102
RTVSPropertyOp16
 70
     1
102
RTVSPropertyOp17
 70
     1
102
RTVSPropertyOp18
 70
     1
102
RTVSPropertyOp19
 70
     1
102
RTVSPropertyOp20
 70
     1
102
RTVSPropertyOp21
 70
     1
102
RTVSPropertyOp22
 70
     1
102
RTVSPropertyOp23
 70
     1
102
RTVSPropertyOp24
 70
     1
102
RTVSPropertyOp25
 70
     1
102
RTVSPropertyOp26
 70
     1
102
RTVSPropertyOp27
 70
     1
102
RTVSPropertyOp28
 70
     1
102
RTVSPropertyOp29
 70
     1
102
RTVSPropertyOp30
 70
     1
102
RTVSPropertyOp31
 70
     1
102
RTVSPropertyOp32
 70
     1
  0
ENDSEC
  0
EOF
