  0
SECTION
  2
HEADER
  9
$ACADVER
  1
AC1015
  9
$ACADMAINTVER
 70
     6
  9
$DWGCODEPAGE
  3
ANSI_1252
  9
$INSBASE
 10
0.0
 20
0.0
 30
0.0
  9
$EXTMIN
 10
1.000000000000000E+20
 20
1.000000000000000E+20
 30
1.000000000000000E+20
  9
$EXTMAX
 10
-1.000000000000000E+20
 20
-1.000000000000000E+20
 30
-1.000000000000000E+20
  9
$LIMMIN
 10
-170.0
 20
-170.0
  9
$LIMMAX
 10
519.0
 20
260.0
  9
$ORTHOMODE
 70
     0
  9
$REGENMODE
 70
     1
  9
$FILLMODE
 70
     1
  9
$QTEXTMODE
 70
     0
  9
$MIRRTEXT
 70
     0
  9
$LTSCALE
 40
1.0
  9
$ATTMODE
 70
     1
  9
$TEXTSIZE
 40
3.5
  9
$TRACEWID
 40
1.0
  9
$TEXTSTYLE
  7
SIMPLEX
  9
$CLAYER
  8
1
  9
$CELTYPE
  6
BYLAYER
  9
$CECOLOR
 62
   256
  9
$CELTSCALE
 40
1.0
  9
$DISPSILH
 70
     0
  9
$DIMSCALE
 40
1.0
  9
$DIMASZ
 40
2.5
  9
$DIMEXO
 40
0.0
  9
$DIMDLI
 40
3.75
  9
$DIMRND
 40
0.0
  9
$DIMDLE
 40
0.0
  9
$DIMEXE
 40
1.25
  9
$DIMTP
 40
0.0
  9
$DIMTM
 40
0.0
  9
$DIMTXT
 40
3.5
  9
$DIMCEN
 40
0.0
  9
$DIMTSZ
 40
0.0
  9
$DIMTOL
 70
     0
  9
$DIMLIM
 70
     0
  9
$DIMTIH
 70
     0
  9
$DIMTOH
 70
     0
  9
$DIMSE1
 70
     0
  9
$DIMSE2
 70
     0
  9
$DIMTAD
 70
     1
  9
$DIMZIN
 70
     8
  9
$DIMBLK
  1

  9
$DIMASO
 70
     1
  9
$DIMSHO
 70
     1
  9
$DIMPOST
  1

  9
$DIMAPOST
  1

  9
$DIMALT
 70
     0
  9
$DIMALTD
 70
     3
  9
$DIMALTF
 40
0.039370078
  9
$DIMLFAC
 40
1.0
  9
$DIMTOFL
 70
     0
  9
$DIMTVP
 40
0.0
  9
$DIMTIX
 70
     0
  9
$DIMSOXD
 70
     0
  9
$DIMSAH
 70
     0
  9
$DIMBLK1
  1

  9
$DIMBLK2
  1

  9
$DIMSTYLE
  2
STANDARD
  9
$DIMCLRD
 70
     0
  9
$DIMCLRE
 70
     0
  9
$DIMCLRT
 70
     0
  9
$DIMTFAC
 40
1.0
  9
$DIMGAP
 40
0.625
  9
$DIMJUST
 70
     0
  9
$DIMSD1
 70
     0
  9
$DIMSD2
 70
     0
  9
$DIMTOLJ
 70
     0
  9
$DIMTZIN
 70
     8
  9
$DIMALTZ
 70
     0
  9
$DIMALTTZ
 70
     0
  9
$DIMUPT
 70
     0
  9
$DIMDEC
 70
     2
  9
$DIMTDEC
 70
     2
  9
$DIMALTU
 70
     2
  9
$DIMALTTD
 70
     3
  9
$DIMTXSTY
  7
SIMPLEX
  9
$DIMAUNIT
 70
     0
  9
$DIMADEC
 70
     2
  9
$DIMALTRND
 40
0.0
  9
$DIMAZIN
 70
     2
  9
$DIMDSEP
 70
    46
  9
$DIMATFIT
 70
     3
  9
$DIMFRAC
 70
     0
  9
$DIMLDRBLK
  1

  9
$DIMLUNIT
 70
     2
  9
$DIMLWD
 70
    -2
  9
$DIMLWE
 70
    -2
  9
$DIMTMOVE
 70
     0
  9
$LUNITS
 70
     2
  9
$LUPREC
 70
     4
  9
$SKETCHINC
 40
1.0
  9
$FILLETRAD
 40
0.0
  9
$AUNITS
 70
     0
  9
$AUPREC
 70
     0
  9
$MENU
  1
c:\tdm21\cad\caduti13\tdm13
  9
$ELEVATION
 40
0.0
  9
$PELEVATION
 40
0.0
  9
$THICKNESS
 40
0.0
  9
$LIMCHECK
 70
     0
  9
$CHAMFERA
 40
0.0
  9
$CHAMFERB
 40
0.0
  9
$CHAMFERC
 40
0.0
  9
$CHAMFERD
 40
0.0
  9
$SKPOLY
 70
     0
  9
$TDCREATE
 40
2454957.593642639
  9
$TDUCREATE
 40
2454957.510309306
  9
$TDUPDATE
 40
2456860.715677349
  9
$TDUUPDATE
 40
2456860.632344016
  9
$TDINDWG
 40
0.0009643519
  9
$TDUSRTIMER
 40
0.0009475231
  9
$USRTIMER
 70
     1
  9
$ANGBASE
 50
0.0
  9
$ANGDIR
 70
     0
  9
$PDMODE
 70
     1
  9
$PDSIZE
 40
0.0
  9
$PLINEWID
 40
0.0
  9
$SPLFRAME
 70
     0
  9
$SPLINETYPE
 70
     6
  9
$SPLINESEGS
 70
     8
  9
$HANDSEED
  5
62F
  9
$SURFTAB1
 70
     6
  9
$SURFTAB2
 70
     6
  9
$SURFTYPE
 70
     6
  9
$SURFU
 70
     6
  9
$SURFV
 70
     6
  9
$UCSBASE
  2

  9
$UCSNAME
  2

  9
$UCSORG
 10
0.0
 20
0.0
 30
0.0
  9
$UCSXDIR
 10
1.0
 20
0.0
 30
0.0
  9
$UCSYDIR
 10
0.0
 20
1.0
 30
0.0
  9
$UCSORTHOREF
  2

  9
$UCSORTHOVIEW
 70
     0
  9
$UCSORGTOP
 10
0.0
 20
0.0
 30
0.0
  9
$UCSORGBOTTOM
 10
0.0
 20
0.0
 30
0.0
  9
$UCSORGLEFT
 10
0.0
 20
0.0
 30
0.0
  9
$UCSORGRIGHT
 10
0.0
 20
0.0
 30
0.0
  9
$UCSORGFRONT
 10
0.0
 20
0.0
 30
0.0
  9
$UCSORGBACK
 10
0.0
 20
0.0
 30
0.0
  9
$PUCSBASE
  2

  9
$PUCSNAME
  2

  9
$PUCSORG
 10
0.0
 20
0.0
 30
0.0
  9
$PUCSXDIR
 10
1.0
 20
0.0
 30
0.0
  9
$PUCSYDIR
 10
0.0
 20
1.0
 30
0.0
  9
$PUCSORTHOREF
  2

  9
$PUCSORTHOVIEW
 70
     0
  9
$PUCSORGTOP
 10
0.0
 20
0.0
 30
0.0
  9
$PUCSORGBOTTOM
 10
0.0
 20
0.0
 30
0.0
  9
$PUCSORGLEFT
 10
0.0
 20
0.0
 30
0.0
  9
$PUCSORGRIGHT
 10
0.0
 20
0.0
 30
0.0
  9
$PUCSORGFRONT
 10
0.0
 20
0.0
 30
0.0
  9
$PUCSORGBACK
 10
0.0
 20
0.0
 30
0.0
  9
$USERI1
 70
     0
  9
$USERI2
 70
     0
  9
$USERI3
 70
     0
  9
$USERI4
 70
     0
  9
$USERI5
 70
     0
  9
$USERR1
 40
0.0
  9
$USERR2
 40
0.0
  9
$USERR3
 40
0.0
  9
$USERR4
 40
0.0
  9
$USERR5
 40
0.0
  9
$WORLDVIEW
 70
     1
  9
$SHADEDGE
 70
     3
  9
$SHADEDIF
 70
    70
  9
$TILEMODE
 70
     1
  9
$MAXACTVP
 70
    64
  9
$PINSBASE
 10
0.0
 20
0.0
 30
0.0
  9
$PLIMCHECK
 70
     0
  9
$PEXTMIN
 10
0.0
 20
0.0
 30
0.0
  9
$PEXTMAX
 10
0.0
 20
0.0
 30
0.0
  9
$PLIMMIN
 10
0.0
 20
0.0
  9
$PLIMMAX
 10
12.0
 20
9.0
  9
$UNITMODE
 70
     0
  9
$VISRETAIN
 70
     0
  9
$PLINEGEN
 70
     0
  9
$PSLTSCALE
 70
     1
  9
$TREEDEPTH
 70
  3020
  9
$CMLSTYLE
  2
STANDARD
  9
$CMLJUST
 70
     0
  9
$CMLSCALE
 40
20.0
  9
$PROXYGRAPHICS
 70
     1
  9
$MEASUREMENT
 70
     1
  9
$CELWEIGHT
370
    -1
  9
$ENDCAPS
280
     0
  9
$JOINSTYLE
280
     0
  9
$LWDISPLAY
290
     0
  9
$INSUNITS
 70
     4
  9
$HYPERLINKBASE
  1

  9
$STYLESHEET
  1
MONOCHROME.CTB
  9
$XEDIT
290
     1
  9
$CEPSNTYPE
380
     0
  9
$PSTYLEMODE
290
     1
  9
$FINGERPRINTGUID
  2
{46B44192-1510-48B1-B61B-CBE2ADA013A7}
  9
$VERSIONGUID
  2
{6160D478-9A74-4C97-9D8A-D4A65CE74B12}
  9
$EXTNAMES
290
     1
  9
$PSVPSCALE
 40
0.0
  9
$OLESTARTUP
290
     0
  0
ENDSEC
  0
SECTION
  2
CLASSES
  0
CLASS
  1
ACDBDICTIONARYWDFLT
  2
AcDbDictionaryWithDefault
  3
ObjectDBX Classes
 90
        0
280
     0
281
     0
  0
CLASS
  1
ACDBPLACEHOLDER
  2
AcDbPlaceHolder
  3
ObjectDBX Classes
 90
        0
280
     0
281
     0
  0
CLASS
  1
LAYOUT
  2
AcDbLayout
  3
ObjectDBX Classes
 90
        0
280
     0
281
     0
  0
CLASS
  1
DICTIONARYVAR
  2
AcDbDictionaryVar
  3
ObjectDBX Classes
 90
        0
280
     0
281
     0
  0
CLASS
  1
TABLESTYLE
  2
AcDbTableStyle
  3
ObjectDBX Classes
 90
     4095
280
     0
281
     0
  0
CLASS
  1
SCALE
  2
AcDbScale
  3
ObjectDBX Classes
 90
     1153
280
     0
281
     0
  0
CLASS
  1
MATERIAL
  2
AcDbMaterial
  3
ObjectDBX Classes
 90
     1153
280
     0
281
     0
  0
CLASS
  1
VISUALSTYLE
  2
AcDbVisualStyle
  3
ObjectDBX Classes
 90
     4095
280
     0
281
     0
  0
ENDSEC
  0
SECTION
  2
TABLES
  0
TABLE
  2
VPORT
  5
8
330
0
100
AcDbSymbolTable
 70
     1
  0
VPORT
  5
39A
330
8
100
AcDbSymbolTableRecord
100
AcDbViewportTableRecord
  2
*Active
 70
     0
 10
0.0
 20
0.0
 11
1.0
 21
1.0
 12
218.9201881351169
 22
109.7549380673833
 13
0.0
 23
0.0
 14
5.0
 24
5.0
 15
5.0
 25
5.0
 16
0.0
 26
0.0
 36
1.0
 17
0.0
 27
0.0
 37
0.0
 40
564.6711112651689
 41
1.066073697585768
 42
50.0
 43
0.0
 44
0.0
 50
0.0
 51
0.0
 71
     0
 72
  2000
 73
     1
 74
     1
 75
     0
 76
     0
 77
     0
 78
     0
281
     0
 65
     1
110
0.0
120
0.0
130
0.0
111
1.0
121
0.0
131
0.0
112
0.0
122
1.0
132
0.0
 79
     0
146
0.0
  0
ENDTAB
  0
TABLE
  2
LTYPE
  5
5
330
0
100
AcDbSymbolTable
 70
     3
  0
LTYPE
  5
12
330
5
100
AcDbSymbolTableRecord
100
AcDbLinetypeTableRecord
  2
BYBLOCK
 70
     0
  3

 72
    65
 73
     0
 40
0.0
  0
LTYPE
  5
13
330
5
100
AcDbSymbolTableRecord
100
AcDbLinetypeTableRecord
  2
BYLAYER
 70
     0
  3

 72
    65
 73
     0
 40
0.0
  0
LTYPE
  5
14
330
5
100
AcDbSymbolTableRecord
100
AcDbLinetypeTableRecord
  2
CONTINUOUS
 70
     0
  3
Solid line
 72
    65
 73
     0
 40
0.0
  0
LTYPE
  5
20
330
5
100
AcDbSymbolTableRecord
100
AcDbLinetypeTableRecord
  2
HIDDEN
 70
     0
  3
Hidden __ __ __ __ __ __ __ __ __ __ __ __ __ _
 72
    65
 73
     2
 40
9.524999999999997
 49
6.349999999999998
 74
     0
 49
-3.174999999999998
 74
     0
  0
LTYPE
  5
351
330
5
100
AcDbSymbolTableRecord
100
AcDbLinetypeTableRecord
  2
CENTER
 70
     0
  3
Dash dot __ . __ . __ . __ . __ . __ . __ . __
 72
    65
 73
     4
 40
25.4
 49
12.7
 74
     0
 49
-6.349999999999998
 74
     0
 49
0.0
 74
     0
 49
-6.349999999999998
 74
     0
  0
ENDTAB
  0
TABLE
  2
LAYER
  5
2
330
0
100
AcDbSymbolTable
 70
    16
  0
LAYER
  5
F
330
2
100
AcDbSymbolTableRecord
100
AcDbLayerTableRecord
  2
0
 70
     0
 62
     7
  6
CONTINUOUS
370
    -3
390
300
  0
LAYER
  5
23
330
2
100
AcDbSymbolTableRecord
100
AcDbLayerTableRecord
  2
1
 70
     0
 62
     4
  6
CONTINUOUS
370
    -3
390
300
  0
LAYER
  5
24
330
2
100
AcDbSymbolTableRecord
100
AcDbLayerTableRecord
  2
SK1
 70
     0
 62
     4
  6
CONTINUOUS
370
    -3
390
300
  0
LAYER
  5
25
330
2
100
AcDbSymbolTableRecord
100
AcDbLayerTableRecord
  2
2
 70
     0
 62
     7
  6
CONTINUOUS
370
    -3
390
300
  0
LAYER
  5
26
330
2
100
AcDbSymbolTableRecord
100
AcDbLayerTableRecord
  2
2L
 70
     0
 62
     7
  6
CONTINUOUS
370
    -3
390
300
  0
LAYER
  5
27
330
2
100
AcDbSymbolTableRecord
100
AcDbLayerTableRecord
  2
SK2
 70
     0
 62
     7
  6
CONTINUOUS
370
    -3
390
300
  0
LAYER
  5
28
330
2
100
AcDbSymbolTableRecord
100
AcDbLayerTableRecord
  2
3
 70
     0
 62
     1
  6
HIDDEN
370
    -3
390
300
  0
LAYER
  5
29
330
2
100
AcDbSymbolTableRecord
100
AcDbLayerTableRecord
  2
SK3
 70
     0
 62
     1
  6
HIDDEN
370
    -3
390
300
  0
LAYER
  5
2A
330
2
100
AcDbSymbolTableRecord
100
AcDbLayerTableRecord
  2
4
 70
     0
 62
     2
  6
CENTER
370
    -3
390
300
  0
LAYER
  5
2B
330
2
100
AcDbSymbolTableRecord
100
AcDbLayerTableRecord
  2
SK4
 70
     0
 62
     2
  6
CENTER
370
    -3
390
300
  0
LAYER
  5
2C
330
2
100
AcDbSymbolTableRecord
100
AcDbLayerTableRecord
  2
5
 70
     0
 62
    -7
  6
CONTINUOUS
370
    -3
390
300
  0
LAYER
  5
2D
330
2
100
AcDbSymbolTableRecord
100
AcDbLayerTableRecord
  2
6
 70
     0
 62
     5
  6
CONTINUOUS
370
    -3
390
300
  0
LAYER
  5
2E
330
2
100
AcDbSymbolTableRecord
100
AcDbLayerTableRecord
  2
SK6
 70
     0
 62
     5
  6
CONTINUOUS
370
    -3
390
300
  0
LAYER
  5
2F
330
2
100
AcDbSymbolTableRecord
100
AcDbLayerTableRecord
  2
DEFPOINTS
 70
     0
 62
     7
  6
CONTINUOUS
290
     0
370
    -3
390
300
  0
LAYER
  5
375
330
2
100
AcDbSymbolTableRecord
100
AcDbLayerTableRecord
  2
CUT
 70
     0
 62
     1
  6
CONTINUOUS
370
    -3
390
300
  0
LAYER
  5
376
330
2
100
AcDbSymbolTableRecord
100
AcDbLayerTableRecord
  2
NOCUT
 70
     0
 62
     7
  6
CONTINUOUS
370
    -3
390
300
  0
ENDTAB
  0
TABLE
  2
STYLE
  5
3
330
0
100
AcDbSymbolTable
 70
     4
  0
STYLE
  5
10
330
3
100
AcDbSymbolTableRecord
100
AcDbTextStyleTableRecord
  2
STANDARD
 70
     0
 40
0.0
 41
1.0
 50
0.0
 71
     0
 42
5.0
  3
txt
  4

  0
STYLE
  5
1D
330
3
100
AcDbSymbolTableRecord
100
AcDbTextStyleTableRecord
  2
TXT
 70
     0
 40
8.0
 41
1.0
 50
0.0
 71
     0
 42
8.0
  3
txt
  4

  0
STYLE
  5
1E
330
3
100
AcDbSymbolTableRecord
100
AcDbTextStyleTableRecord
  2
SIMPLEX
 70
     0
 40
0.0
 41
1.0
 50
0.0
 71
     0
 42
3.5
  3
simplex
  4

  0
STYLE
  5
34C
330
3
100
AcDbSymbolTableRecord
100
AcDbTextStyleTableRecord
  2

 70
     1
 40
0.0
 41
1.0
 50
0.0
 71
     0
 42
2.5
  3
ltypeshp.shx
  4

  0
ENDTAB
  0
TABLE
  2
VIEW
  5
6
330
0
100
AcDbSymbolTable
 70
     0
  0
ENDTAB
  0
TABLE
  2
UCS
  5
7
330
0
100
AcDbSymbolTable
 70
     0
  0
ENDTAB
  0
TABLE
  2
APPID
  5
9
330
0
100
AcDbSymbolTable
 70
     1
  0
APPID
  5
11
330
9
100
AcDbSymbolTableRecord
100
AcDbRegAppTableRecord
  2
ACAD
 70
     0
  0
ENDTAB
  0
TABLE
  2
DIMSTYLE
  5
A
330
0
100
AcDbSymbolTable
 70
     1
100
AcDbDimStyleTable
  0
DIMSTYLE
105
3F
102
{ACAD_REACTORS
330
5C3
330
5D0
330
5DD
330
5EA
330
5F7
102
}
330
A
100
AcDbSymbolTableRecord
100
AcDbDimStyleTableRecord
  2
STANDARD
 70
     0
 41
2.5
 42
0.0
 43
3.75
 44
1.25
 73
     0
 74
     0
 77
     1
 78
     8
 79
     2
140
3.5
141
0.0
143
0.039370078
147
0.625
171
     3
178
     0
179
     2
271
     2
272
     2
274
     3
283
     0
284
     8
340
1E
  0
ENDTAB
  0
TABLE
  2
BLOCK_RECORD
  5
1
330
0
100
AcDbSymbolTable
 70
     5
  0
BLOCK_RECORD
  5
18
330
1
100
AcDbSymbolTableRecord
100
AcDbBlockTableRecord
  2
*MODEL_SPACE
340
303
  0
BLOCK_RECORD
  5
338
330
1
100
AcDbSymbolTableRecord
100
AcDbBlockTableRecord
  2
*Paper_Space
340
33B
  0
BLOCK_RECORD
  5
5C4
330
1
100
AcDbSymbolTableRecord
100
AcDbBlockTableRecord
  2
*D0
340
0
  0
BLOCK_RECORD
  5
5D1
330
1
100
AcDbSymbolTableRecord
100
AcDbBlockTableRecord
  2
*D1
340
0
  0
BLOCK_RECORD
  5
5DE
330
1
100
AcDbSymbolTableRecord
100
AcDbBlockTableRecord
  2
*D2
340
0
  0
BLOCK_RECORD
  5
5EB
330
1
100
AcDbSymbolTableRecord
100
AcDbBlockTableRecord
  2
*D3
340
0
  0
BLOCK_RECORD
  5
5F8
330
1
100
AcDbSymbolTableRecord
100
AcDbBlockTableRecord
  2
*D4
340
0
  0
ENDTAB
  0
ENDSEC
  0
SECTION
  2
BLOCKS
  0
BLOCK
  5
32
330
18
100
AcDbEntity
  8
0
100
AcDbBlockBegin
  2
*MODEL_SPACE
 70
     0
 10
0.0
 20
0.0
 30
0.0
  3
*MODEL_SPACE
  1

  0
ENDBLK
  5
33
330
18
100
AcDbEntity
  8
0
100
AcDbBlockEnd
  0
BLOCK
  5
339
330
338
100
AcDbEntity
 67
     1
  8
0
100
AcDbBlockBegin
  2
*Paper_Space
 70
     0
 10
0.0
 20
0.0
 30
0.0
  3
*Paper_Space
  1

  0
ENDBLK
  5
33A
330
338
100
AcDbEntity
 67
     1
  8
0
100
AcDbBlockEnd
  0
BLOCK
  5
5C5
330
5C4
100
AcDbEntity
  8
0
100
AcDbBlockBegin
  2
*D0
 70
     1
 10
0.0
 20
0.0
 30
0.0
  3
*D0
  1

  0
LINE
  5
5C7
330
5C4
100
AcDbEntity
  8
2
 62
     0
370
    -2
100
AcDbLine
 10
66.0
 20
4.0
 30
0.0
 11
82.25
 21
4.000000000000056
 31
0.0
  0
LINE
  5
5C8
330
5C4
100
AcDbEntity
  8
2
 62
     0
370
    -2
100
AcDbLine
 10
66.0
 20
-4.0
 30
0.0
 11
82.25000000000003
 21
-3.999999999999943
 31
0.0
  0
LINE
  5
5C9
330
5C4
100
AcDbEntity
  8
2
 62
     0
370
    -2
100
AcDbLine
 10
81.00000000000001
 20
1.500000000000052
 30
0.0
 11
81.00000000000001
 21
-1.499999999999948
 31
0.0
  0
SOLID
  5
5CA
330
5C4
100
AcDbEntity
  8
2
 62
     0
100
AcDbTrace
 10
81.41666666666669
 20
1.500000000000053
 30
0.0
 11
80.58333333333334
 21
1.50000000000005
 31
0.0
 12
81.0
 22
4.000000000000052
 32
0.0
 13
81.0
 23
4.000000000000052
 33
0.0
  0
SOLID
  5
5CB
330
5C4
100
AcDbEntity
  8
2
 62
     0
100
AcDbTrace
 10
80.58333333333334
 20
-1.499999999999949
 30
0.0
 11
81.41666666666669
 21
-1.499999999999946
 31
0.0
 12
81.00000000000003
 22
-3.999999999999948
 32
0.0
 13
81.00000000000003
 23
-3.999999999999948
 33
0.0
  0
MTEXT
  5
5CC
330
5C4
100
AcDbEntity
  8
2
 62
     0
100
AcDbMText
 10
78.60925000000002
 20
0.0000000000000435
 30
0.0
 40
3.5
 41
0.0
 71
     5
 72
     1
  1
M8
  7
SIMPLEX
 11
-3.552713678800502E-15
 21
1.0
 31
0.0
 73
     1
 44
1.0
  0
POINT
  5
5CD
330
5C4
100
AcDbEntity
  8
DEFPOINTS
 62
     0
100
AcDbPoint
 10
66.0
 20
4.0
 30
0.0
  0
POINT
  5
5CE
330
5C4
100
AcDbEntity
  8
DEFPOINTS
 62
     0
100
AcDbPoint
 10
66.0
 20
-4.0
 30
0.0
  0
POINT
  5
5CF
330
5C4
100
AcDbEntity
  8
DEFPOINTS
 62
     0
100
AcDbPoint
 10
81.00000000000003
 20
-3.999999999999948
 30
0.0
  0
ENDBLK
  5
5C6
330
5C4
100
AcDbEntity
  8
0
100
AcDbBlockEnd
  0
BLOCK
  5
5D2
330
5D1
100
AcDbEntity
  8
0
100
AcDbBlockBegin
  2
*D1
 70
     1
 10
0.0
 20
0.0
 30
0.0
  3
*D1
  1

  0
LINE
  5
5D4
330
5D1
100
AcDbEntity
  8
2
 62
     0
370
    -2
100
AcDbLine
 10
0.0
 20
0.0
 30
0.0
 11
0.0
 21
76.25
 31
0.0
  0
LINE
  5
5D5
330
5D1
100
AcDbEntity
  8
2
 62
     0
370
    -2
100
AcDbLine
 10
66.0
 20
0.0
 30
0.0
 11
66.0
 21
76.25
 31
0.0
  0
LINE
  5
5D6
330
5D1
100
AcDbEntity
  8
2
 62
     0
370
    -2
100
AcDbLine
 10
2.5
 20
75.0
 30
0.0
 11
63.5
 21
75.0
 31
0.0
  0
SOLID
  5
5D7
330
5D1
100
AcDbEntity
  8
2
 62
     0
100
AcDbTrace
 10
2.5
 20
75.41666666666667
 30
0.0
 11
2.5
 21
74.58333333333333
 31
0.0
 12
0.0
 22
75.0
 32
0.0
 13
0.0
 23
75.0
 33
0.0
  0
SOLID
  5
5D8
330
5D1
100
AcDbEntity
  8
2
 62
     0
100
AcDbTrace
 10
63.5
 20
74.58333333333333
 30
0.0
 11
63.5
 21
75.41666666666667
 31
0.0
 12
66.0
 22
75.0
 32
0.0
 13
66.0
 23
75.0
 33
0.0
  0
MTEXT
  5
5D9
330
5D1
100
AcDbEntity
  8
2
 62
     0
100
AcDbMText
 10
33.0
 20
77.39075
 30
0.0
 40
3.5
 41
0.0
 71
     5
 72
     1
  1
66
  7
SIMPLEX
 73
     1
 44
1.0
  0
POINT
  5
5DA
330
5D1
100
AcDbEntity
  8
DEFPOINTS
 62
     0
100
AcDbPoint
 10
0.0
 20
0.0
 30
0.0
  0
POINT
  5
5DB
330
5D1
100
AcDbEntity
  8
DEFPOINTS
 62
     0
100
AcDbPoint
 10
66.0
 20
0.0
 30
0.0
  0
POINT
  5
5DC
330
5D1
100
AcDbEntity
  8
DEFPOINTS
 62
     0
100
AcDbPoint
 10
66.0
 20
75.0
 30
0.0
  0
ENDBLK
  5
5D3
330
5D1
100
AcDbEntity
  8
0
100
AcDbBlockEnd
  0
BLOCK
  5
5DF
330
5DE
100
AcDbEntity
  8
0
100
AcDbBlockBegin
  2
*D2
 70
     1
 10
0.0
 20
0.0
 30
0.0
  3
*D2
  1

  0
LINE
  5
5E1
330
5DE
100
AcDbEntity
  8
SK2
 62
     0
370
    -2
100
AcDbLine
 10
-15.06
 20
4.0
 30
0.0
 11
-40.31000000002041
 21
3.999999999871138
 31
0.0
  0
LINE
  5
5E2
330
5DE
100
AcDbEntity
  8
SK2
 62
     0
370
    -2
100
AcDbLine
 10
-15.06
 20
-4.0
 30
0.0
 11
-40.30999999997958
 21
-4.00000000012886
 31
0.0
  0
LINE
  5
5E3
330
5DE
100
AcDbEntity
  8
SK2
 62
     0
370
    -2
100
AcDbLine
 10
-39.06000000000765
 20
1.499999999877518
 30
0.0
 11
-39.05999999999234
 21
-1.500000000122482
 31
0.0
  0
SOLID
  5
5E4
330
5DE
100
AcDbEntity
  8
SK2
 62
     0
100
AcDbTrace
 10
-38.64333333334098
 20
1.499999999879644
 30
0.0
 11
-39.47666666667431
 21
1.499999999875391
 31
0.0
 12
-39.06000000002041
 22
3.999999999877518
 32
0.0
 13
-39.06000000002041
 23
3.999999999877518
 33
0.0
  0
SOLID
  5
5E5
330
5DE
100
AcDbEntity
  8
SK2
 62
     0
100
AcDbTrace
 10
-39.47666666665901
 20
-1.500000000124608
 30
0.0
 11
-38.64333333332568
 21
-1.500000000120355
 31
0.0
 12
-39.05999999997958
 22
-4.000000000122482
 32
0.0
 13
-39.05999999997958
 23
-4.000000000122482
 33
0.0
  0
MTEXT
  5
5E6
330
5DE
100
AcDbEntity
  8
SK2
 62
     0
100
AcDbMText
 10
-41.45074999999999
 20
-0.0000000001346832
 30
0.0
 40
3.5
 41
0.0
 71
     5
 72
     1
  1
%%c8
  7
SIMPLEX
 11
-5.103473199596920E-12
 21
1.0
 31
0.0
 73
     1
 44
1.0
  0
POINT
  5
5E7
330
5DE
100
AcDbEntity
  8
DEFPOINTS
 62
     0
100
AcDbPoint
 10
-15.06
 20
4.0
 30
0.0
  0
POINT
  5
5E8
330
5DE
100
AcDbEntity
  8
DEFPOINTS
 62
     0
100
AcDbPoint
 10
-15.06
 20
-4.0
 30
0.0
  0
POINT
  5
5E9
330
5DE
100
AcDbEntity
  8
DEFPOINTS
 62
     0
100
AcDbPoint
 10
-39.05999999997958
 20
-4.000000000122482
 30
0.0
  0
ENDBLK
  5
5E0
330
5DE
100
AcDbEntity
  8
0
100
AcDbBlockEnd
  0
BLOCK
  5
5EC
330
5EB
100
AcDbEntity
  8
0
100
AcDbBlockBegin
  2
*D3
 70
     1
 10
0.0
 20
0.0
 30
0.0
  3
*D3
  1

  0
LINE
  5
5EE
330
5EB
100
AcDbEntity
  8
2
 62
     0
370
    -2
100
AcDbLine
 10
46.83330818
 20
2.98
 30
0.0
 11
46.83330818
 21
61.25
 31
0.0
  0
LINE
  5
5EF
330
5EB
100
AcDbEntity
  8
2
 62
     0
370
    -2
100
AcDbLine
 10
66.0
 20
4.0
 30
0.0
 11
66.0
 21
61.25
 31
0.0
  0
LINE
  5
5F0
330
5EB
100
AcDbEntity
  8
2
 62
     0
370
    -2
100
AcDbLine
 10
49.33330818
 20
60.0
 30
0.0
 11
63.5
 21
60.0
 31
0.0
  0
SOLID
  5
5F1
330
5EB
100
AcDbEntity
  8
2
 62
     0
100
AcDbTrace
 10
49.33330818
 20
60.41666666666666
 30
0.0
 11
49.33330818
 21
59.58333333333334
 31
0.0
 12
46.83330818
 22
60.0
 32
0.0
 13
46.83330818
 23
60.0
 33
0.0
  0
SOLID
  5
5F2
330
5EB
100
AcDbEntity
  8
2
 62
     0
100
AcDbTrace
 10
63.5
 20
59.58333333333334
 30
0.0
 11
63.5
 21
60.41666666666666
 31
0.0
 12
66.0
 22
60.0
 32
0.0
 13
66.0
 23
60.0
 33
0.0
  0
MTEXT
  5
5F3
330
5EB
100
AcDbEntity
  8
2
 62
     0
100
AcDbMText
 10
56.41665409
 20
62.39775
 30
0.0
 40
3.5
 41
0.0
 71
     5
 72
     1
  1
19.17
  7
SIMPLEX
 73
     1
 44
1.0
  0
POINT
  5
5F4
330
5EB
100
AcDbEntity
  8
DEFPOINTS
 62
     0
100
AcDbPoint
 10
46.83330818
 20
2.98
 30
0.0
  0
POINT
  5
5F5
330
5EB
100
AcDbEntity
  8
DEFPOINTS
 62
     0
100
AcDbPoint
 10
66.0
 20
4.0
 30
0.0
  0
POINT
  5
5F6
330
5EB
100
AcDbEntity
  8
DEFPOINTS
 62
     0
100
AcDbPoint
 10
66.0
 20
60.0
 30
0.0
  0
ENDBLK
  5
5ED
330
5EB
100
AcDbEntity
  8
0
100
AcDbBlockEnd
  0
BLOCK
  5
5F9
330
5F8
100
AcDbEntity
  8
0
100
AcDbBlockBegin
  2
*D4
 70
     1
 10
0.0
 20
0.0
 30
0.0
  3
*D4
  1

  0
LINE
  5
5FB
330
5F8
100
AcDbEntity
  8
SK2
 62
     0
370
    -2
100
AcDbLine
 10
-24.06
 20
4.0
 30
0.0
 11
-24.06
 21
91.25
 31
0.0
  0
LINE
  5
5FC
330
5F8
100
AcDbEntity
  8
SK2
 62
     0
370
    -2
100
AcDbLine
 10
69.24
 20
4.0
 30
0.0
 11
69.24
 21
91.25
 31
0.0
  0
LINE
  5
5FD
330
5F8
100
AcDbEntity
  8
SK2
 62
     0
370
    -2
100
AcDbLine
 10
-21.56
 20
90.0
 30
0.0
 11
66.74
 21
90.0
 31
0.0
  0
SOLID
  5
5FE
330
5F8
100
AcDbEntity
  8
SK2
 62
     0
100
AcDbTrace
 10
-21.56
 20
90.41666666666667
 30
0.0
 11
-21.56
 21
89.58333333333333
 31
0.0
 12
-24.06
 22
90.0
 32
0.0
 13
-24.06
 23
90.0
 33
0.0
  0
SOLID
  5
5FF
330
5F8
100
AcDbEntity
  8
SK2
 62
     0
100
AcDbTrace
 10
66.74
 20
89.58333333333333
 30
0.0
 11
66.74
 21
90.41666666666667
 31
0.0
 12
69.24
 22
90.0
 32
0.0
 13
69.24
 23
90.0
 33
0.0
  0
MTEXT
  5
600
330
5F8
100
AcDbEntity
  8
SK2
 62
     0
100
AcDbMText
 10
22.59
 20
92.39775
 30
0.0
 40
3.5
 41
0.0
 71
     5
 72
     1
  1
93.3
  7
SIMPLEX
 73
     1
 44
1.0
  0
POINT
  5
601
330
5F8
100
AcDbEntity
  8
DEFPOINTS
 62
     0
100
AcDbPoint
 10
-24.06
 20
4.0
 30
0.0
  0
POINT
  5
602
330
5F8
100
AcDbEntity
  8
DEFPOINTS
 62
     0
100
AcDbPoint
 10
69.24
 20
4.0
 30
0.0
  0
POINT
  5
603
330
5F8
100
AcDbEntity
  8
DEFPOINTS
 62
     0
100
AcDbPoint
 10
69.24
 20
90.0
 30
0.0
  0
ENDBLK
  5
5FA
330
5F8
100
AcDbEntity
  8
0
100
AcDbBlockEnd
  0
ENDSEC
  0
SECTION
  2
ENTITIES
  0
LINE
  5
3D6
330
18
100
AcDbEntity
  8
SK4
100
AcDbLine
 10
-26.06
 20
0.0
 30
0.0
 11
25.3
 21
0.0
 31
0.0
  0
LINE
  5
3D7
330
18
100
AcDbEntity
  8
4
100
AcDbLine
 10
23.3
 20
0.0
 30
0.0
 11
71.24000000000001
 21
0.0
 31
0.0
  0
LINE
  5
3D8
330
18
100
AcDbEntity
  8
SK4
100
AcDbLine
 10
23.3
 20
0.0
 30
0.0
 11
71.24000000000001
 21
0.0
 31
0.0
  0
LINE
  5
3D9
330
18
100
AcDbEntity
  8
1
100
AcDbLine
 10
25.3
 20
4.0
 30
0.0
 11
-0.0000000000000018
 21
4.0
 31
0.0
  0
LINE
  5
3DA
330
18
100
AcDbEntity
  8
1
100
AcDbLine
 10
25.3
 20
4.0
 30
0.0
 11
25.29999999999999
 21
3.996023226822679
 31
0.0
  0
LINE
  5
3DB
330
18
100
AcDbEntity
  8
1
100
AcDbLine
 10
25.29999999999999
 20
3.996023226822679
 30
0.0
 11
25.3
 21
3.641093551027013
 31
0.0
  0
LINE
  5
3DC
330
18
100
AcDbEntity
  8
1
100
AcDbLine
 10
25.3
 20
3.641093551027013
 30
0.0
 11
25.3
 21
-4.0
 31
0.0
  0
LINE
  5
3DD
330
18
100
AcDbEntity
  8
1
100
AcDbLine
 10
25.3
 20
4.0
 30
0.0
 11
31.08470746
 21
2.98
 31
0.0
  0
LINE
  5
3DE
330
18
100
AcDbEntity
  8
1
100
AcDbLine
 10
32.0
 20
-0.7344355623444514
 30
0.0
 11
46.83330818
 21
-0.7344355623444515
 31
0.0
  0
LINE
  5
3DF
330
18
100
AcDbEntity
  8
1
100
AcDbLine
 10
32.0
 20
2.644832197006571
 30
0.0
 11
46.83330818000001
 21
2.644832197006569
 31
0.0
  0
LINE
  5
3E0
330
18
100
AcDbEntity
  8
1
100
AcDbLine
 10
31.08470746
 20
2.98
 30
0.0
 11
46.83330818
 21
2.98
 31
0.0
  0
LINE
  5
3E1
330
18
100
AcDbEntity
  8
1
100
AcDbLine
 10
31.08470746
 20
2.98
 30
0.0
 11
31.08470746
 21
2.977037303982896
 31
0.0
  0
LINE
  5
3E2
330
18
100
AcDbEntity
  8
1
100
AcDbLine
 10
31.08470746
 20
2.977037303982896
 30
0.0
 11
31.08470745999999
 21
2.712614695515125
 31
0.0
  0
LINE
  5
3E3
330
18
100
AcDbEntity
  8
1
100
AcDbLine
 10
31.08470745999999
 20
2.712614695515125
 30
0.0
 11
31.08470746
 21
-2.98
 31
0.0
  0
LINE
  5
3E4
330
18
100
AcDbEntity
  8
1
100
AcDbLine
 10
32.0
 20
-2.511511127194455
 30
0.0
 11
32.0
 21
-2.98
 31
0.0
  0
LINE
  5
3E5
330
18
100
AcDbEntity
  8
1
100
AcDbLine
 10
32.0
 20
2.644832197006569
 30
0.0
 11
32.0
 21
-0.7344355623444522
 31
0.0
  0
LINE
  5
3E6
330
18
100
AcDbEntity
  8
1
100
AcDbLine
 10
32.0
 20
-2.511511127194452
 30
0.0
 11
46.83330818000001
 21
-2.511511127194454
 31
0.0
  0
LINE
  5
3E7
330
18
100
AcDbEntity
  8
1
100
AcDbLine
 10
46.83330818
 20
2.98
 30
0.0
 11
46.83330818
 21
2.979928283625073
 31
0.0
  0
LINE
  5
3E8
330
18
100
AcDbEntity
  8
1
100
AcDbLine
 10
46.83330818
 20
2.979928283625073
 30
0.0
 11
46.83330818
 21
2.958365653945888
 31
0.0
  0
LINE
  5
3E9
330
18
100
AcDbEntity
  8
1
100
AcDbLine
 10
46.83330818
 20
2.958365653945888
 30
0.0
 11
46.83330818
 21
2.644832197006441
 31
0.0
  0
LINE
  5
3EA
330
18
100
AcDbEntity
  8
1
100
AcDbLine
 10
46.83330818
 20
2.644832197006555
 30
0.0
 11
46.83330818
 21
-0.4317868554890493
 31
0.0
  0
LINE
  5
3EB
330
18
100
AcDbEntity
  8
1
100
AcDbLine
 10
46.83330818
 20
-0.4317868554890509
 30
0.0
 11
46.83330818
 21
-0.7344355623444375
 31
0.0
  0
LINE
  5
3EC
330
18
100
AcDbEntity
  8
1
100
AcDbLine
 10
46.83330818
 20
-0.7344355623444542
 30
0.0
 11
46.83330818
 21
-2.511511127194302
 31
0.0
  0
LINE
  5
3ED
330
18
100
AcDbEntity
  8
1
100
AcDbLine
 10
-0.0000000000000071
 20
-4.0
 30
0.0
 11
25.29999999999999
 21
-4.0
 31
0.0
  0
LINE
  5
3EE
330
18
100
AcDbEntity
  8
1
100
AcDbLine
 10
25.3
 20
-4.0
 30
0.0
 11
31.08470746
 21
-2.98
 31
0.0
  0
LINE
  5
3EF
330
18
100
AcDbEntity
  8
1
100
AcDbLine
 10
31.08470746
 20
-2.98
 30
0.0
 11
32.0
 21
-2.98
 31
0.0
  0
LINE
  5
3F0
330
18
100
AcDbEntity
  8
1
 62
     1
100
AcDbLine
 10
65.00454786530237
 20
3.378358380096964
 30
0.0
 11
65.81009419414369
 21
3.266395101033431
 31
0.0
  0
LINE
  5
3F1
330
18
100
AcDbEntity
  8
1
 62
     1
100
AcDbLine
 10
60.36345298923243
 20
4.0
 30
0.0
 11
60.38654701076759
 21
4.0
 31
0.0
  0
LINE
  5
3F2
330
18
100
AcDbEntity
  8
1
 62
     1
100
AcDbLine
 10
59.11345298923242
 20
4.0
 30
0.0
 11
59.13654701076759
 21
4.0
 31
0.0
  0
LINE
  5
3F3
330
18
100
AcDbEntity
  8
1
 62
     1
100
AcDbLine
 10
49.11345298923241
 20
4.0
 30
0.0
 11
49.13654701076759
 21
4.0
 31
0.0
  0
LINE
  5
3F4
330
18
100
AcDbEntity
  8
1
 62
     1
100
AcDbLine
 10
50.36345298923241
 20
4.0
 30
0.0
 11
50.38654701076759
 21
4.0
 31
0.0
  0
LINE
  5
3F5
330
18
100
AcDbEntity
  8
1
 62
     1
100
AcDbLine
 10
55.36345298923241
 20
4.0
 30
0.0
 11
55.38654701076759
 21
4.0
 31
0.0
  0
LINE
  5
3F6
330
18
100
AcDbEntity
  8
1
 62
     1
100
AcDbLine
 10
52.86345298923241
 20
4.0
 30
0.0
 11
52.88654701076759
 21
4.0
 31
0.0
  0
LINE
  5
3F7
330
18
100
AcDbEntity
  8
1
 62
     1
100
AcDbLine
 10
51.61345298923241
 20
4.0
 30
0.0
 11
51.63654701076763
 21
4.0
 31
0.0
  0
LINE
  5
3F8
330
18
100
AcDbEntity
  8
1
 62
     1
100
AcDbLine
 10
60.38654701076761
 20
-1.259022517024136
 30
0.0
 11
60.36345298923244
 21
-1.259022517024136
 31
0.0
  0
LINE
  5
3F9
330
18
100
AcDbEntity
  8
1
 62
     1
100
AcDbLine
 10
59.13654701076759
 20
-1.259022517024136
 30
0.0
 11
59.11345298923241
 21
-1.259022517024136
 31
0.0
  0
LINE
  5
3FA
330
18
100
AcDbEntity
  8
1
 62
     1
100
AcDbLine
 10
57.88654701076759
 20
-1.259022517024136
 30
0.0
 11
57.8634529892324
 21
-1.259022517024136
 31
0.0
  0
LINE
  5
3FB
330
18
100
AcDbEntity
  8
1
 62
     1
100
AcDbLine
 10
57.88654701076758
 20
-3.456995060853522
 30
0.0
 11
57.86345298923239
 21
-3.456995060853522
 31
0.0
  0
LINE
  5
3FC
330
18
100
AcDbEntity
  8
1
 62
     1
100
AcDbLine
 10
56.63654701076761
 20
-1.259022517024136
 30
0.0
 11
56.61345298923242
 21
-1.259022517024136
 31
0.0
  0
LINE
  5
3FD
330
18
100
AcDbEntity
  8
1
 62
     1
100
AcDbLine
 10
56.63654701076759
 20
-3.456995060853521
 30
0.0
 11
56.61345298923241
 21
-3.456995060853521
 31
0.0
  0
LINE
  5
3FE
330
18
100
AcDbEntity
  8
1
 62
     1
100
AcDbLine
 10
55.38654701076759
 20
-1.259022517024136
 30
0.0
 11
55.36345298923241
 21
-1.259022517024136
 31
0.0
  0
LINE
  5
3FF
330
18
100
AcDbEntity
  8
1
 62
     1
100
AcDbLine
 10
54.13654701076761
 20
-1.259022517024136
 30
0.0
 11
54.1134529892324
 21
-1.259022517024136
 31
0.0
  0
LINE
  5
400
330
18
100
AcDbEntity
  8
1
 62
     1
100
AcDbLine
 10
52.88654701076759
 20
-1.259022517024136
 30
0.0
 11
52.8634529892324
 21
-1.259022517024136
 31
0.0
  0
LINE
  5
401
330
18
100
AcDbEntity
  8
1
 62
     1
100
AcDbLine
 10
51.63654701076761
 20
-1.259022517024136
 30
0.0
 11
51.61345298923241
 21
-1.259022517024136
 31
0.0
  0
LINE
  5
402
330
18
100
AcDbEntity
  8
1
 62
     1
100
AcDbLine
 10
50.38654701076759
 20
-1.259022517024136
 30
0.0
 11
50.3634529892324
 21
-1.259022517024137
 31
0.0
  0
LINE
  5
403
330
18
100
AcDbEntity
  8
1
 62
     1
100
AcDbLine
 10
50.38654701076759
 20
-3.456995060853521
 30
0.0
 11
50.36345298923241
 21
-3.456995060853523
 31
0.0
  0
LINE
  5
404
330
18
100
AcDbEntity
  8
1
 62
     1
100
AcDbLine
 10
49.13654701076759
 20
-1.259022517024136
 30
0.0
 11
49.11345298923241
 21
-1.259022517024136
 31
0.0
  0
LINE
  5
405
330
18
100
AcDbEntity
  8
1
 62
     1
100
AcDbLine
 10
65.81009419414369
 20
-0.8826920694719895
 30
0.0
 11
65.0045478653024
 21
-0.940407056634472
 31
0.0
  0
LINE
  5
406
330
18
100
AcDbEntity
  8
1
 62
     1
100
AcDbLine
 10
65.81009419414369
 20
-2.753609617718599
 30
0.0
 11
65.00454786530237
 21
-2.853244518428094
 31
0.0
  0
LINE
  5
407
330
18
100
AcDbEntity
  8
1
 62
     1
100
AcDbLine
 10
64.45103479537507
 20
-0.9799966104019178
 30
0.0
 11
63.84740428052827
 21
-1.023112772636293
 31
0.0
  0
LINE
  5
408
330
18
100
AcDbEntity
  8
1
 62
     1
100
AcDbLine
 10
64.45103479518312
 20
-2.923328001691193
 30
0.0
 11
63.84740428052826
 21
-3.001259131970444
 31
0.0
  0
LINE
  5
409
330
18
100
AcDbEntity
  8
1
 62
     1
100
AcDbLine
 10
63.09197539622257
 20
-1.076992905857195
 30
0.0
 11
62.69026069661033
 21
-1.105611616336934
 31
0.0
  0
LINE
  5
40A
330
18
100
AcDbEntity
  8
1
 62
     1
100
AcDbLine
 10
61.73291599850003
 20
-1.173728839666092
 30
0.0
 11
61.53311711098006
 21
-1.187930702221731
 31
0.0
  0
LINE
  5
40B
330
18
100
AcDbEntity
  8
1
 62
     1
100
AcDbLine
 10
48.06491032072882
 20
-1.101022347137484
 30
0.0
 11
47.49517922512393
 21
-0.9320498475912645
 31
0.0
  0
ARC
  5
40C
330
18
100
AcDbEntity
  8
1
 62
     1
100
AcDbCircle
 10
38.3263288666579
 20
-20.49755956144847
 30
0.0
 40
19.89738669170588
100
AcDbArc
 50
60.6962072520321
 51
62.56080560541808
  0
LINE
  5
40D
330
18
100
AcDbEntity
  8
1
 62
     1
100
AcDbLine
 10
47.12741043049979
 20
-0.8224518652205247
 30
0.0
 11
46.83330818
 21
-0.7344355623444515
 31
0.0
  0
LINE
  5
40E
330
18
100
AcDbEntity
  8
1
 62
     1
100
AcDbLine
 10
47.12741043049979
 20
-2.652832334982537
 30
0.0
 11
46.83330818
 21
-2.511511127194455
 31
0.0
  0
ARC
  5
40F
330
18
100
AcDbEntity
  8
1
 62
     1
100
AcDbCircle
 10
72.72709734967165
 20
-7.300474771160105
 30
0.0
 40
8.2776117726686
100
AcDbArc
 50
144.3593511361114
 51
146.6812364429106
  0
LINE
  5
410
330
18
100
AcDbEntity
  8
1
 62
     1
100
AcDbLine
 10
63.09197539622258
 20
-3.100989041301368
 30
0.0
 11
62.69026069575418
 21
-3.155015714151252
 31
0.0
  0
LINE
  5
411
330
18
100
AcDbEntity
  8
1
 62
     1
100
AcDbLine
 10
61.73291599726199
 20
-3.286536407395699
 30
0.0
 11
61.53311711098006
 21
-3.31447474783796
 31
0.0
  0
LINE
  5
412
330
18
100
AcDbEntity
  8
1
 62
     1
100
AcDbLine
 10
60.38654701076758
 20
-3.456995060853522
 30
0.0
 11
60.36345298923244
 21
-3.456995060853522
 31
0.0
  0
LINE
  5
413
330
18
100
AcDbEntity
  8
1
 62
     1
100
AcDbLine
 10
59.13654701076757
 20
-3.456995060853521
 30
0.0
 11
59.11345298923243
 21
-3.456995060853521
 31
0.0
  0
LINE
  5
414
330
18
100
AcDbEntity
  8
1
 62
     1
100
AcDbLine
 10
55.38654701076758
 20
-3.456995060853521
 30
0.0
 11
55.36345298923241
 21
-3.456995060853521
 31
0.0
  0
LINE
  5
415
330
18
100
AcDbEntity
  8
1
 62
     1
100
AcDbLine
 10
54.13654701076761
 20
-3.456995060853521
 30
0.0
 11
54.11345298923242
 21
-3.456995060853521
 31
0.0
  0
LINE
  5
416
330
18
100
AcDbEntity
  8
1
 62
     1
100
AcDbLine
 10
52.88654701076757
 20
-3.456995060853521
 30
0.0
 11
52.8634529892324
 21
-3.456995060853521
 31
0.0
  0
LINE
  5
417
330
18
100
AcDbEntity
  8
1
 62
     1
100
AcDbLine
 10
51.63654701076762
 20
-3.456995060853521
 30
0.0
 11
51.61345298923241
 21
-3.456995060853521
 31
0.0
  0
LINE
  5
418
330
18
100
AcDbEntity
  8
1
 62
     1
100
AcDbLine
 10
49.13654701076758
 20
-3.456995060853521
 30
0.0
 11
49.11345298923241
 21
-3.456995060853521
 31
0.0
  0
ARC
  5
419
330
18
100
AcDbEntity
  8
1
 62
     1
100
AcDbCircle
 10
40.48494449339051
 20
-7.328041424145042
 30
0.0
 40
8.324512424084071
100
AcDbArc
 50
32.63582487004172
 51
35.64260956350594
  0
LINE
  5
41A
330
18
100
AcDbEntity
  8
1
 62
     1
100
AcDbLine
 10
47.12741043049978
 20
-2.652832334982707
 30
0.0
 11
47.25
 21
-2.47712363220325
 31
0.0
  0
LINE
  5
41B
330
18
100
AcDbEntity
  8
1
 62
     1
100
AcDbLine
 10
60.38654701076759
 20
3.471164699431147
 30
0.0
 11
60.36345298923242
 21
3.471164699431146
 31
0.0
  0
LINE
  5
41C
330
18
100
AcDbEntity
  8
1
 62
     1
100
AcDbLine
 10
59.13654701076758
 20
3.471164699431147
 30
0.0
 11
59.11345298923241
 21
3.471164699431147
 31
0.0
  0
LINE
  5
41D
330
18
100
AcDbEntity
  8
1
 62
     1
100
AcDbLine
 10
57.86345298923241
 20
4.0
 30
0.0
 11
57.88654701076759
 21
4.0
 31
0.0
  0
LINE
  5
41E
330
18
100
AcDbEntity
  8
1
 62
     1
100
AcDbLine
 10
56.61345298923241
 20
4.0
 30
0.0
 11
56.63654701076761
 21
4.0
 31
0.0
  0
LINE
  5
41F
330
18
100
AcDbEntity
  8
1
 62
     1
100
AcDbLine
 10
54.1134529892324
 20
4.0
 30
0.0
 11
54.13654701076761
 21
4.0
 31
0.0
  0
LINE
  5
420
330
18
100
AcDbEntity
  8
1
 62
     1
100
AcDbLine
 10
49.1365470107676
 20
3.471164699431148
 30
0.0
 11
49.11345298923242
 21
3.471164699431148
 31
0.0
  0
LINE
  5
421
330
18
100
AcDbEntity
  8
1
 62
     1
100
AcDbLine
 10
65.81009419414369
 20
2.898392227296741
 30
0.0
 11
65.00454786530237
 21
2.993219143170976
 31
0.0
  0
LINE
  5
422
330
18
100
AcDbEntity
  8
1
 62
     1
100
AcDbLine
 10
65.81009419414369
 20
3.266395101033431
 30
0.0
 11
65.81009419414369
 21
3.26631636373852
 31
0.0
  0
LINE
  5
423
330
18
100
AcDbEntity
  8
1
 62
     1
100
AcDbLine
 10
65.81009419414369
 20
3.26631636373852
 30
0.0
 11
65.81009419414369
 21
3.242642016739951
 31
0.0
  0
LINE
  5
424
330
18
100
AcDbEntity
  8
1
 62
     1
100
AcDbLine
 10
65.81009419414369
 20
3.242642016739951
 30
0.0
 11
65.81009419414369
 21
2.8983922272964
 31
0.0
  0
LINE
  5
425
330
18
100
AcDbEntity
  8
1
 62
     1
100
AcDbLine
 10
64.45103479518313
 20
3.056936457554632
 30
0.0
 11
63.84740428052824
 21
3.125047579537959
 31
0.0
  0
LINE
  5
426
330
18
100
AcDbEntity
  8
1
 62
     1
100
AcDbLine
 10
63.84740428052827
 20
3.539190334088976
 30
0.0
 11
64.45103479518312
 21
3.455291433003078
 31
0.0
  0
LINE
  5
427
330
18
100
AcDbEntity
  8
1
 62
     1
100
AcDbLine
 10
62.69026069575418
 20
3.700022288080985
 30
0.0
 11
63.09197539622259
 21
3.644187764972719
 31
0.0
  0
LINE
  5
428
330
18
100
AcDbEntity
  8
1
 62
     1
100
AcDbLine
 10
61.53311711098006
 20
3.860854242072998
 30
0.0
 11
61.732915997262
 21
3.83308409694237
 31
0.0
  0
LINE
  5
429
330
18
100
AcDbEntity
  8
1
 62
     1
100
AcDbLine
 10
63.50000000000001
 20
-0.7123296104989848
 30
0.0
 11
63.84740428052827
 21
-1.023112772636328
 31
0.0
  0
LINE
  5
42A
330
18
100
AcDbEntity
  8
1
 62
     1
100
AcDbLine
 10
63.50000000000001
 20
-2.477123632203111
 30
0.0
 11
63.50000000000001
 21
-0.7123296104989846
 31
0.0
  0
ARC
  5
42B
330
18
100
AcDbEntity
  8
1
 62
     1
100
AcDbCircle
 10
56.42879066553174
 20
-7.538917949647951
 30
0.0
 40
8.69621424672874
100
AcDbArc
 50
31.45239935922627
 51
35.5962802802932
  0
LINE
  5
42C
330
18
100
AcDbEntity
  8
1
 62
     1
100
AcDbLine
 10
63.84740428052827
 20
-1.023112772636292
 30
0.0
 11
63.84740428052827
 21
-3.001259131970444
 31
0.0
  0
LINE
  5
42D
330
18
100
AcDbEntity
  8
1
 62
     1
100
AcDbLine
 10
66.00000000000001
 20
-0.712329610498985
 30
0.0
 11
66.00000000000001
 21
-0.8690675878868295
 31
0.0
  0
LINE
  5
42E
330
18
100
AcDbEntity
  8
1
 62
     1
100
AcDbLine
 10
66.00000000000001
 20
-0.8690675878868285
 30
0.0
 11
66.0
 21
-2.730529029388706
 31
0.0
  0
LINE
  5
42F
330
18
100
AcDbEntity
  8
1
 62
     1
100
AcDbLine
 10
65.81009419414369
 20
-0.8826920694719889
 30
0.0
 11
66.0
 21
-0.7123296104989849
 31
0.0
  0
LINE
  5
430
330
18
100
AcDbEntity
  8
1
 62
     1
100
AcDbLine
 10
65.81009419414369
 20
-0.8826920694719899
 30
0.0
 11
65.8100941941437
 21
-2.753609617718438
 31
0.0
  0
LINE
  5
431
330
18
100
AcDbEntity
  8
1
 62
     1
100
AcDbLine
 10
61.732915997262
 20
-1.173728835110082
 30
0.0
 11
62.25000000000001
 21
-0.7123296104989845
 31
0.0
  0
LINE
  5
432
330
18
100
AcDbEntity
  8
1
 62
     1
100
AcDbLine
 10
61.73291599726198
 20
-1.173728836938594
 30
0.0
 11
61.732915997262
 21
-3.286536407395698
 31
0.0
  0
ARC
  5
433
330
18
100
AcDbEntity
  8
1
 62
     1
100
AcDbCircle
 10
70.26435811832104
 20
-8.161809069588024
 30
0.0
 40
9.826112048759727
100
AcDbArc
 50
144.6514406703158
 51
150.2542941023376
  0
LINE
  5
434
330
18
100
AcDbEntity
  8
1
 62
     1
100
AcDbLine
 10
62.24999999999999
 20
-2.477123632203111
 30
0.0
 11
62.25000000000001
 21
-0.712329610498984
 31
0.0
  0
LINE
  5
435
330
18
100
AcDbEntity
  8
1
 62
     1
100
AcDbLine
 10
62.25000000000001
 20
-0.7123296104989847
 30
0.0
 11
62.69026069575418
 21
-1.105611613180845
 31
0.0
  0
ARC
  5
436
330
18
100
AcDbEntity
  8
1
 62
     1
100
AcDbCircle
 10
54.88603290221261
 20
-7.73787953295828
 30
0.0
 40
9.050102473067593
100
AcDbArc
 50
30.42266372817581
 51
35.54169306531578
  0
LINE
  5
437
330
18
100
AcDbEntity
  8
1
 62
     1
100
AcDbLine
 10
62.69026069575418
 20
-1.105611614496294
 30
0.0
 11
62.69026069575418
 21
-3.155015714151252
 31
0.0
  0
LINE
  5
438
330
18
100
AcDbEntity
  8
1
 62
     1
100
AcDbLine
 10
63.09197539622257
 20
-1.076992905857207
 30
0.0
 11
63.50000000000001
 21
-0.7123296104989848
 31
0.0
  0
LINE
  5
439
330
18
100
AcDbEntity
  8
1
 62
     1
100
AcDbLine
 10
63.09197539622261
 20
-1.076992905857195
 30
0.0
 11
63.0919753962226
 21
-3.100989041301364
 31
0.0
  0
ARC
  5
43A
330
18
100
AcDbEntity
  8
1
 62
     1
100
AcDbCircle
 10
71.05491228102028
 20
-7.860494684440342
 30
0.0
 40
9.276887237701583
100
AcDbArc
 50
144.5276326369105
 51
149.1329301750485
  0
LINE
  5
43B
330
18
100
AcDbEntity
  8
1
 62
     1
100
AcDbLine
 10
64.75
 20
-0.7123296104989849
 30
0.0
 11
65.00454786530236
 21
-0.9404070566344758
 31
0.0
  0
LINE
  5
43C
330
18
100
AcDbEntity
  8
1
 62
     1
100
AcDbLine
 10
64.75
 20
-2.477123632203111
 30
0.0
 11
64.75
 21
-0.7123296104989849
 31
0.0
  0
ARC
  5
43D
330
18
100
AcDbEntity
  8
1
 62
     1
100
AcDbCircle
 10
57.9575693894677
 20
-7.347019813716226
 30
0.0
 40
8.357819463433056
100
AcDbArc
 50
32.52517865988567
 51
35.63898237392921
  0
LINE
  5
43E
330
18
100
AcDbEntity
  8
1
 62
     1
100
AcDbLine
 10
65.00454786530237
 20
-0.9404070566344724
 30
0.0
 11
65.00454786530237
 21
-2.853244518428095
 31
0.0
  0
LINE
  5
43F
330
18
100
AcDbEntity
  8
1
 62
     1
100
AcDbLine
 10
64.45103479518312
 20
-0.979996609691685
 30
0.0
 11
64.75
 21
-0.7123296104989848
 31
0.0
  0
LINE
  5
440
330
18
100
AcDbEntity
  8
1
 62
     1
100
AcDbLine
 10
64.45103479518312
 20
-0.979996610010224
 30
0.0
 11
64.4510347951831
 21
-2.923328001691193
 31
0.0
  0
ARC
  5
441
330
18
100
AcDbEntity
  8
1
 62
     1
100
AcDbCircle
 10
71.87650732030014
 20
-7.573632759177867
 30
0.0
 40
8.761434899584126
100
AcDbArc
 50
144.4296123241125
 51
147.9425753119327
  0
LINE
  5
442
330
18
100
AcDbEntity
  8
1
 62
     1
100
AcDbLine
 10
57.88654701076759
 20
-1.259022517024136
 30
0.0
 11
58.5
 21
-0.7123296104989848
 31
0.0
  0
LINE
  5
443
330
18
100
AcDbEntity
  8
1
 62
     1
100
AcDbLine
 10
57.88654701076759
 20
-1.259022517024137
 30
0.0
 11
57.88654701076758
 21
-3.456995060853522
 31
0.0
  0
ARC
  5
444
330
18
100
AcDbEntity
  8
1
 62
     1
100
AcDbCircle
 10
66.94699996059025
 20
-8.440130935291794
 30
0.0
 40
10.34027053384145
100
AcDbArc
 50
144.7805097447252
 51
151.1897560860831
  0
LINE
  5
445
330
18
100
AcDbEntity
  8
1
 62
     1
100
AcDbLine
 10
61.0
 20
-0.7123296104989849
 30
0.0
 11
61.53311711098006
 21
-1.187930702221736
 31
0.0
  0
LINE
  5
446
330
18
100
AcDbEntity
  8
1
 62
     1
100
AcDbLine
 10
61.00000000000001
 20
-2.477123632203112
 30
0.0
 11
61.0
 21
-0.7123296104989849
 31
0.0
  0
ARC
  5
447
330
18
100
AcDbEntity
  8
1
 62
     1
100
AcDbCircle
 10
53.32777864645686
 20
-7.94471345865906
 30
0.0
 40
9.42119732253366
100
AcDbArc
 50
29.43585825345957
 51
35.4754795256693
  0
LINE
  5
448
330
18
100
AcDbEntity
  8
1
 62
     1
100
AcDbLine
 10
61.53311711098006
 20
-1.187930702221731
 30
0.0
 11
61.53311711098006
 21
-3.31447474783795
 31
0.0
  0
LINE
  5
449
330
18
100
AcDbEntity
  8
1
 62
     1
100
AcDbLine
 10
60.3865470107676
 20
-1.259022517024139
 30
0.0
 11
61.00000000000001
 21
-0.7123296104989851
 31
0.0
  0
LINE
  5
44A
330
18
100
AcDbEntity
  8
1
 62
     1
100
AcDbLine
 10
60.38654701076759
 20
-1.259022517024137
 30
0.0
 11
60.38654701076759
 21
-3.456995060853522
 31
0.0
  0
ARC
  5
44B
330
18
100
AcDbEntity
  8
1
 62
     1
100
AcDbCircle
 10
69.44699996060275
 20
-8.440130935299516
 30
0.0
 40
10.34027053385615
100
AcDbArc
 50
144.7805097447302
 51
151.1897560860791
  0
LINE
  5
44C
330
18
100
AcDbEntity
  8
1
 62
     1
100
AcDbLine
 10
59.75
 20
-0.7123296104989847
 30
0.0
 11
60.36345298923243
 21
-1.259022517024145
 31
0.0
  0
ARC
  5
44D
330
18
100
AcDbEntity
  8
1
 62
     1
100
AcDbCircle
 10
51.7986799857263
 20
-8.129792534690392
 30
0.0
 40
9.755941289670682
100
AcDbArc
 50
28.61614671700273
 51
35.40938245583353
  0
LINE
  5
44E
330
18
100
AcDbEntity
  8
1
 62
     1
100
AcDbLine
 10
60.36345298923244
 20
-1.259022517024137
 30
0.0
 11
60.36345298923243
 21
-3.456995060853522
 31
0.0
  0
LINE
  5
44F
330
18
100
AcDbEntity
  8
1
 62
     1
100
AcDbLine
 10
59.1365470107676
 20
-1.259022517024139
 30
0.0
 11
59.75
 21
-0.7123296104989851
 31
0.0
  0
LINE
  5
450
330
18
100
AcDbEntity
  8
1
 62
     1
100
AcDbLine
 10
59.13654701076759
 20
-1.259022517024137
 30
0.0
 11
59.13654701076759
 21
-3.456995060853522
 31
0.0
  0
ARC
  5
451
330
18
100
AcDbEntity
  8
1
 62
     1
100
AcDbCircle
 10
68.19699996059771
 20
-8.440130935296384
 30
0.0
 40
10.34027053385021
100
AcDbArc
 50
144.7805097447282
 51
151.1897560860808
  0
LINE
  5
452
330
18
100
AcDbEntity
  8
1
 62
     1
100
AcDbLine
 10
59.75000000000001
 20
-2.477123632203112
 30
0.0
 11
59.75
 21
-0.7123296104989849
 31
0.0
  0
LINE
  5
453
330
18
100
AcDbEntity
  8
1
 62
     1
100
AcDbLine
 10
58.5
 20
-0.7123296104989847
 30
0.0
 11
59.11345298923243
 21
-1.259022517024139
 31
0.0
  0
LINE
  5
454
330
18
100
AcDbEntity
  8
1
 62
     1
100
AcDbLine
 10
58.50000000000001
 20
-2.477123632203112
 30
0.0
 11
58.5
 21
-0.7123296104989849
 31
0.0
  0
ARC
  5
455
330
18
100
AcDbEntity
  8
1
 62
     1
100
AcDbCircle
 10
50.54867998573016
 20
-8.129792534687983
 30
0.0
 40
9.755941289666135
100
AcDbArc
 50
28.61614671700125
 51
35.40938245583516
  0
LINE
  5
456
330
18
100
AcDbEntity
  8
1
 62
     1
100
AcDbLine
 10
59.11345298923241
 20
-1.259022517024137
 30
0.0
 11
59.11345298923241
 21
-3.456995060853522
 31
0.0
  0
LINE
  5
457
330
18
100
AcDbEntity
  8
1
 62
     1
100
AcDbLine
 10
57.25
 20
-0.7123296104989848
 30
0.0
 11
57.86345298923241
 21
-1.259022517024138
 31
0.0
  0
ARC
  5
458
330
18
100
AcDbEntity
  8
1
 62
     1
100
AcDbCircle
 10
49.29867998572202
 20
-8.12979253469296
 30
0.0
 40
9.755941289675665
100
AcDbArc
 50
28.61614671700406
 51
35.40938245583126
  0
LINE
  5
459
330
18
100
AcDbEntity
  8
1
 62
     1
100
AcDbLine
 10
57.8634529892324
 20
-1.259022517024137
 30
0.0
 11
57.86345298923241
 21
-3.456995060853522
 31
0.0
  0
LINE
  5
45A
330
18
100
AcDbEntity
  8
1
 62
     1
100
AcDbLine
 10
56.6365470107676
 20
-1.259022517024135
 30
0.0
 11
57.25000000000001
 21
-0.7123296104989848
 31
0.0
  0
LINE
  5
45B
330
18
100
AcDbEntity
  8
1
 62
     1
100
AcDbLine
 10
56.63654701076761
 20
-1.259022517024137
 30
0.0
 11
56.6365470107676
 21
-3.456995060853522
 31
0.0
  0
ARC
  5
45C
330
18
100
AcDbEntity
  8
1
 62
     1
100
AcDbCircle
 10
65.69699996058702
 20
-8.440130935290043
 30
0.0
 40
10.34027053383779
100
AcDbArc
 50
144.7805097447227
 51
151.189756086083
  0
LINE
  5
45D
330
18
100
AcDbEntity
  8
1
 62
     1
100
AcDbLine
 10
57.25000000000001
 20
-2.477123632203111
 30
0.0
 11
57.25000000000001
 21
-0.7123296104989846
 31
0.0
  0
LINE
  5
45E
330
18
100
AcDbEntity
  8
1
 62
     1
100
AcDbLine
 10
56.00000000000001
 20
-0.7123296104989851
 30
0.0
 11
56.61345298923241
 21
-1.259022517024139
 31
0.0
  0
ARC
  5
45F
330
18
100
AcDbEntity
  8
1
 62
     1
100
AcDbCircle
 10
48.04867998572158
 20
-8.129792534693223
 30
0.0
 40
9.755941289676183
100
AcDbArc
 50
28.61614671700412
 51
35.40938245583096
  0
LINE
  5
460
330
18
100
AcDbEntity
  8
1
 62
     1
100
AcDbLine
 10
56.61345298923241
 20
-1.259022517024137
 30
0.0
 11
56.61345298923241
 21
-3.456995060853522
 31
0.0
  0
LINE
  5
461
330
18
100
AcDbEntity
  8
1
 62
     1
100
AcDbLine
 10
55.38654701076759
 20
-1.259022517024139
 30
0.0
 11
56.00000000000001
 21
-0.7123296104989849
 31
0.0
  0
LINE
  5
462
330
18
100
AcDbEntity
  8
1
 62
     1
100
AcDbLine
 10
55.38654701076758
 20
-1.259022517024137
 30
0.0
 11
55.38654701076759
 21
-3.456995060853522
 31
0.0
  0
ARC
  5
463
330
18
100
AcDbEntity
  8
1
 62
     1
100
AcDbCircle
 10
64.44699996059958
 20
-8.440130935297878
 30
0.0
 40
10.34027053385259
100
AcDbArc
 50
144.7805097447274
 51
151.1897560860785
  0
LINE
  5
464
330
18
100
AcDbEntity
  8
1
 62
     1
100
AcDbLine
 10
56.00000000000001
 20
-2.477123632203111
 30
0.0
 11
55.99999999999999
 21
-0.7123296104989852
 31
0.0
  0
LINE
  5
465
330
18
100
AcDbEntity
  8
1
 62
     1
100
AcDbLine
 10
54.75000000000001
 20
-0.7123296104989851
 30
0.0
 11
55.36345298923241
 21
-1.259022517024136
 31
0.0
  0
LINE
  5
466
330
18
100
AcDbEntity
  8
1
 62
     1
100
AcDbLine
 10
54.75
 20
-2.477123632203111
 30
0.0
 11
54.75000000000001
 21
-0.712329610498985
 31
0.0
  0
ARC
  5
467
330
18
100
AcDbEntity
  8
1
 62
     1
100
AcDbCircle
 10
46.79867998572661
 20
-8.129792534689877
 30
0.0
 40
9.755941289670144
100
AcDbArc
 50
28.61614671700109
 51
35.40938245583209
  0
LINE
  5
468
330
18
100
AcDbEntity
  8
1
 62
     1
100
AcDbLine
 10
55.36345298923241
 20
-1.259022517024137
 30
0.0
 11
55.36345298923241
 21
-3.456995060853522
 31
0.0
  0
LINE
  5
469
330
18
100
AcDbEntity
  8
1
 62
     1
100
AcDbLine
 10
54.1365470107676
 20
-1.259022517024133
 30
0.0
 11
54.75
 21
-0.7123296104989848
 31
0.0
  0
LINE
  5
46A
330
18
100
AcDbEntity
  8
1
 62
     1
100
AcDbLine
 10
54.13654701076761
 20
-1.259022517024137
 30
0.0
 11
54.13654701076761
 21
-3.456995060853522
 31
0.0
  0
ARC
  5
46B
330
18
100
AcDbEntity
  8
1
 62
     1
100
AcDbCircle
 10
63.19699996059249
 20
-8.44013093529335
 30
0.0
 40
10.34027053384418
100
AcDbArc
 50
144.7805097447252
 51
151.1897560860815
  0
LINE
  5
46C
330
18
100
AcDbEntity
  8
1
 62
     1
100
AcDbLine
 10
53.5
 20
-0.7123296104989849
 30
0.0
 11
54.11345298923241
 21
-1.259022517024137
 31
0.0
  0
LINE
  5
46D
330
18
100
AcDbEntity
  8
1
 62
     1
100
AcDbLine
 10
53.49999999999999
 20
-2.477123632203111
 30
0.0
 11
53.50000000000001
 21
-0.7123296104989846
 31
0.0
  0
ARC
  5
46E
330
18
100
AcDbEntity
  8
1
 62
     1
100
AcDbCircle
 10
45.54867998572973
 20
-8.129792534687999
 30
0.0
 40
9.755941289666499
100
AcDbArc
 50
28.61614671700024
 51
35.40938245583376
  0
LINE
  5
46F
330
18
100
AcDbEntity
  8
1
 62
     1
100
AcDbLine
 10
54.11345298923241
 20
-1.259022517024137
 30
0.0
 11
54.1134529892324
 21
-3.456995060853522
 31
0.0
  0
LINE
  5
470
330
18
100
AcDbEntity
  8
1
 62
     1
100
AcDbLine
 10
52.88654701076759
 20
-1.259022517024139
 30
0.0
 11
53.5
 21
-0.7123296104989847
 31
0.0
  0
LINE
  5
471
330
18
100
AcDbEntity
  8
1
 62
     1
100
AcDbLine
 10
52.88654701076759
 20
-1.259022517024137
 30
0.0
 11
52.88654701076759
 21
-3.456995060853522
 31
0.0
  0
ARC
  5
472
330
18
100
AcDbEntity
  8
1
 62
     1
100
AcDbCircle
 10
61.94699996059714
 20
-8.44013093529631
 30
0.0
 40
10.34027053384969
100
AcDbArc
 50
144.7805097447267
 51
151.1897560860797
  0
LINE
  5
473
330
18
100
AcDbEntity
  8
1
 62
     1
100
AcDbLine
 10
48.5
 20
-0.7123296104989847
 30
0.0
 11
49.11345298923241
 21
-1.259022517024139
 31
0.0
  0
LINE
  5
474
330
18
100
AcDbEntity
  8
1
 62
     1
100
AcDbLine
 10
48.50000000000001
 20
-2.477123632203111
 30
0.0
 11
48.50000000000001
 21
-0.7123296104989849
 31
0.0
  0
ARC
  5
475
330
18
100
AcDbEntity
  8
1
 62
     1
100
AcDbCircle
 10
40.54867998572497
 20
-8.129792534691099
 30
0.0
 40
9.755941289672176
100
AcDbArc
 50
28.61614671700278
 51
35.4093824558324
  0
LINE
  5
476
330
18
100
AcDbEntity
  8
1
 62
     1
100
AcDbLine
 10
49.11345298923241
 20
-1.259022517024135
 30
0.0
 11
49.11345298923241
 21
-3.45699506085352
 31
0.0
  0
LINE
  5
477
330
18
100
AcDbEntity
  8
1
 62
     1
100
AcDbLine
 10
48.06491032072881
 20
-1.101022347137497
 30
0.0
 11
48.5
 21
-0.7123296104989847
 31
0.0
  0
LINE
  5
478
330
18
100
AcDbEntity
  8
1
 62
     1
100
AcDbLine
 10
48.06491032072882
 20
-1.101022347137494
 30
0.0
 11
48.06491032072881
 21
-3.146302918535307
 31
0.0
  0
ARC
  5
479
330
18
100
AcDbEntity
  8
1
 62
     1
100
AcDbCircle
 10
56.16602762028921
 20
-7.933939125340611
 30
0.0
 40
9.410037183732536
100
AcDbArc
 50
144.5560591171204
 51
149.4175632105346
  0
LINE
  5
47A
330
18
100
AcDbEntity
  8
1
 62
     1
100
AcDbLine
 10
49.13654701076759
 20
-1.259022517024136
 30
0.0
 11
49.75
 21
-0.7123296104989849
 31
0.0
  0
LINE
  5
47B
330
18
100
AcDbEntity
  8
1
 62
     1
100
AcDbLine
 10
49.13654701076759
 20
-1.259022517024137
 30
0.0
 11
49.13654701076759
 21
-3.456995060853522
 31
0.0
  0
ARC
  5
47C
330
18
100
AcDbEntity
  8
1
 62
     1
100
AcDbCircle
 10
58.19699996060911
 20
-8.440130935303527
 30
0.0
 40
10.34027053386365
100
AcDbArc
 50
144.7805097447323
 51
151.1897560860765
  0
LINE
  5
47D
330
18
100
AcDbEntity
  8
1
 62
     1
100
AcDbLine
 10
49.75000000000001
 20
-2.477123632203112
 30
0.0
 11
49.75000000000001
 21
-0.7123296104989849
 31
0.0
  0
LINE
  5
47E
330
18
100
AcDbEntity
  8
1
 62
     1
100
AcDbLine
 10
49.75
 20
-0.7123296104989849
 30
0.0
 11
50.3634529892324
 21
-1.259022517024136
 31
0.0
  0
ARC
  5
47F
330
18
100
AcDbEntity
  8
1
 62
     1
100
AcDbCircle
 10
41.79867998572686
 20
-8.129792534689985
 30
0.0
 40
9.755941289669988
100
AcDbArc
 50
28.61614671700235
 51
35.4093824558335
  0
LINE
  5
480
330
18
100
AcDbEntity
  8
1
 62
     1
100
AcDbLine
 10
50.36345298923241
 20
-1.259022517024137
 30
0.0
 11
50.3634529892324
 21
-3.456995060853522
 31
0.0
  0
LINE
  5
481
330
18
100
AcDbEntity
  8
1
 62
     1
100
AcDbLine
 10
50.38654701076759
 20
-1.259022517024138
 30
0.0
 11
51.00000000000001
 21
-0.7123296104989847
 31
0.0
  0
LINE
  5
482
330
18
100
AcDbEntity
  8
1
 62
     1
100
AcDbLine
 10
50.38654701076759
 20
-1.259022517024137
 30
0.0
 11
50.38654701076759
 21
-3.456995060853522
 31
0.0
  0
ARC
  5
483
330
18
100
AcDbEntity
  8
1
 62
     1
100
AcDbCircle
 10
59.44699996058455
 20
-8.44013093528869
 30
0.0
 40
10.34027053383499
100
AcDbArc
 50
144.780509744721
 51
151.189756086083
  0
LINE
  5
484
330
18
100
AcDbEntity
  8
1
 62
     1
100
AcDbLine
 10
51.0
 20
-0.7123296104989849
 30
0.0
 11
51.61345298923241
 21
-1.259022517024136
 31
0.0
  0
LINE
  5
485
330
18
100
AcDbEntity
  8
1
 62
     1
100
AcDbLine
 10
51.0
 20
-2.477123632203111
 30
0.0
 11
51.00000000000001
 21
-0.7123296104989849
 31
0.0
  0
ARC
  5
486
330
18
100
AcDbEntity
  8
1
 62
     1
100
AcDbCircle
 10
43.04867998572667
 20
-8.129792534689972
 30
0.0
 40
9.75594128967014
100
AcDbArc
 50
28.61614671700176
 51
35.40938245583278
  0
LINE
  5
487
330
18
100
AcDbEntity
  8
1
 62
     1
100
AcDbLine
 10
51.6134529892324
 20
-1.259022517024137
 30
0.0
 11
51.6134529892324
 21
-3.456995060853522
 31
0.0
  0
LINE
  5
488
330
18
100
AcDbEntity
  8
1
 62
     1
100
AcDbLine
 10
52.25
 20
-0.7123296104989849
 30
0.0
 11
52.8634529892324
 21
-1.259022517024137
 31
0.0
  0
LINE
  5
489
330
18
100
AcDbEntity
  8
1
 62
     1
100
AcDbLine
 10
52.25000000000001
 20
-2.477123632203112
 30
0.0
 11
52.25000000000001
 21
-0.7123296104989849
 31
0.0
  0
ARC
  5
48A
330
18
100
AcDbEntity
  8
1
 62
     1
100
AcDbCircle
 10
44.29867998572047
 20
-8.129792534693848
 30
0.0
 40
9.755941289677446
100
AcDbArc
 50
28.61614671700434
 51
35.40938245583019
  0
LINE
  5
48B
330
18
100
AcDbEntity
  8
1
 62
     1
100
AcDbLine
 10
52.8634529892324
 20
-1.259022517024137
 30
0.0
 11
52.8634529892324
 21
-3.456995060853522
 31
0.0
  0
LINE
  5
48C
330
18
100
AcDbEntity
  8
1
 62
     1
100
AcDbLine
 10
51.63654701076759
 20
-1.259022517024133
 30
0.0
 11
52.25000000000001
 21
-0.7123296104989849
 31
0.0
  0
LINE
  5
48D
330
18
100
AcDbEntity
  8
1
 62
     1
100
AcDbLine
 10
51.63654701076761
 20
-1.259022517024137
 30
0.0
 11
51.63654701076761
 21
-3.456995060853522
 31
0.0
  0
ARC
  5
48E
330
18
100
AcDbEntity
  8
1
 62
     1
100
AcDbCircle
 10
60.6969999605862
 20
-8.440130935289524
 30
0.0
 40
10.34027053383682
100
AcDbArc
 50
144.7805097447225
 51
151.1897560860833
  0
LINE
  5
48F
330
18
100
AcDbEntity
  8
1
 62
     1
100
AcDbLine
 10
47.12741043049976
 20
-0.8224518652205202
 30
0.0
 11
47.25
 21
-0.7123296104989847
 31
0.0
  0
LINE
  5
490
330
18
100
AcDbEntity
  8
1
 62
     1
100
AcDbLine
 10
47.12741043049978
 20
-0.8224518652205238
 30
0.0
 11
47.12741043049978
 21
-2.652832334982537
 31
0.0
  0
LINE
  5
491
330
18
100
AcDbEntity
  8
1
 62
     1
100
AcDbLine
 10
47.25
 20
-0.7123296104989848
 30
0.0
 11
47.49517922512385
 21
-0.9320498475912053
 31
0.0
  0
LINE
  5
492
330
18
100
AcDbEntity
  8
1
 62
     1
100
AcDbLine
 10
47.25
 20
-2.477123632203111
 30
0.0
 11
47.25000000000001
 21
-0.7123296104989846
 31
0.0
  0
LINE
  5
493
330
18
100
AcDbEntity
  8
1
 62
     1
100
AcDbLine
 10
47.49517922512386
 20
-0.9320498475912036
 30
0.0
 11
47.49517922512386
 21
-2.838630854112177
 31
0.0
  0
ARC
  5
494
330
18
100
AcDbEntity
  8
1
 62
     1
100
AcDbCircle
 10
55.81467434437008
 20
-14.16493041018429
 30
0.0
 40
19.05646598531678
100
AcDbArc
 50
113.9960608750105
 51
115.8852451216929
  0
LINE
  5
495
330
18
100
AcDbEntity
  8
1
 62
     1
100
AcDbLine
 10
47.49517922512385
 20
3.362131426875754
 30
0.0
 11
48.06491032072882
 21
3.691065828981647
 31
0.0
  0
LINE
  5
496
330
18
100
AcDbEntity
  8
1
 62
     1
100
AcDbLine
 10
47.12741043049977
 20
2.797059070205459
 30
0.0
 11
46.83330818
 21
2.644832197006569
 31
0.0
  0
LINE
  5
497
330
18
100
AcDbEntity
  8
1
 62
     1
100
AcDbLine
 10
46.83330818
 20
2.98
 30
0.0
 11
47.12741043049978
 21
3.149800013852881
 31
0.0
  0
ARC
  5
498
330
18
100
AcDbEntity
  8
1
 62
     1
100
AcDbCircle
 10
56.92141138904439
 20
-3.078868412760389
 30
0.0
 40
10.71150677158334
100
AcDbArc
 50
32.05339832905334
 51
33.91915155487415
  0
LINE
  5
499
330
18
100
AcDbEntity
  8
1
 62
     1
100
AcDbLine
 10
63.09197539622253
 20
3.208197320937662
 30
0.0
 11
62.69026069575418
 21
3.251434552548292
 31
0.0
  0
LINE
  5
49A
330
18
100
AcDbEntity
  8
1
 62
     1
100
AcDbLine
 10
61.732915997262
 20
3.351603388262433
 30
0.0
 11
61.53311711098005
 21
3.371979181993375
 31
0.0
  0
LINE
  5
49B
330
18
100
AcDbEntity
  8
1
 62
     1
100
AcDbLine
 10
57.8865470107676
 20
3.471164699431148
 30
0.0
 11
57.86345298923241
 21
3.471164699431148
 31
0.0
  0
LINE
  5
49C
330
18
100
AcDbEntity
  8
1
 62
     1
100
AcDbLine
 10
56.63654701076761
 20
3.471164699431148
 30
0.0
 11
56.61345298923241
 21
3.471164699431148
 31
0.0
  0
LINE
  5
49D
330
18
100
AcDbEntity
  8
1
 62
     1
100
AcDbLine
 10
55.38654701076757
 20
3.471164699431147
 30
0.0
 11
55.3634529892324
 21
3.471164699431147
 31
0.0
  0
LINE
  5
49E
330
18
100
AcDbEntity
  8
1
 62
     1
100
AcDbLine
 10
54.1365470107676
 20
3.471164699431148
 30
0.0
 11
54.1134529892324
 21
3.471164699431148
 31
0.0
  0
LINE
  5
49F
330
18
100
AcDbEntity
  8
1
 62
     1
100
AcDbLine
 10
52.88654701076759
 20
3.471164699431148
 30
0.0
 11
52.8634529892324
 21
3.471164699431148
 31
0.0
  0
LINE
  5
4A0
330
18
100
AcDbEntity
  8
1
 62
     1
100
AcDbLine
 10
51.6365470107676
 20
3.471164699431148
 30
0.0
 11
51.61345298923239
 21
3.471164699431148
 31
0.0
  0
LINE
  5
4A1
330
18
100
AcDbEntity
  8
1
 62
     1
100
AcDbLine
 10
50.38654701076759
 20
3.471164699431148
 30
0.0
 11
50.36345298923239
 21
3.471164699431148
 31
0.0
  0
ARC
  5
4A2
330
18
100
AcDbEntity
  8
1
 62
     1
100
AcDbCircle
 10
56.27021187935384
 20
-3.04227543515767
 30
0.0
 40
10.64261467348612
100
AcDbArc
 50
145.5399706360723
 51
147.9467816955137
  0
LINE
  5
4A3
330
18
100
AcDbEntity
  8
1
 62
     1
100
AcDbLine
 10
47.12741043049978
 20
2.797059070205466
 30
0.0
 11
47.25
 21
2.605834969500407
 31
0.0
  0
LINE
  5
4A4
330
18
100
AcDbEntity
  8
1
 62
     1
100
AcDbLine
 10
66.0
 20
3.24
 30
0.0
 11
69.24000000000001
 21
-0.0000000000000004
 31
0.0
  0
LINE
  5
4A5
330
18
100
AcDbEntity
  8
1
 62
     1
100
AcDbLine
 10
66.83701159374826
 20
-0.4317868554890494
 30
0.0
 11
66.93722563737792
 21
-0.3758994398125302
 31
0.0
  0
LINE
  5
4A6
330
18
100
AcDbEntity
  8
1
 62
     1
100
AcDbLine
 10
66.93722563737792
 20
-0.3758994398125302
 30
0.0
 11
67.03596184418419
 21
-0.3151824682556886
 31
0.0
  0
LINE
  5
4A7
330
18
100
AcDbEntity
  8
1
 62
     1
100
AcDbLine
 10
67.03596184418419
 20
-0.3151824682556886
 30
0.0
 11
67.13279972370566
 21
-0.2493992140037256
 31
0.0
  0
LINE
  5
4A8
330
18
100
AcDbEntity
  8
1
 62
     1
100
AcDbLine
 10
67.13279972370566
 20
-0.2493992140037256
 30
0.0
 11
67.22718262820375
 21
-0.1782343094619676
 31
0.0
  0
LINE
  5
4A9
330
18
100
AcDbEntity
  8
1
 62
     1
100
AcDbLine
 10
67.22718262820375
 20
-0.1782343094619676
 30
0.0
 11
67.31836710253735
 21
-0.1012724368605766
 31
0.0
  0
LINE
  5
4AA
330
18
100
AcDbEntity
  8
1
 62
     1
100
AcDbLine
 10
67.31836710253735
 20
-0.1012724368605766
 30
0.0
 11
67.40533989285933
 21
-0.0179768288156107
 31
0.0
  0
LINE
  5
4AB
330
18
100
AcDbEntity
  8
1
 62
     1
100
AcDbLine
 10
67.40533989285933
 20
-0.0179768288156107
 30
0.0
 11
67.44682464129596
 21
0.0262468029402644
 31
0.0
  0
LINE
  5
4AC
330
18
100
AcDbEntity
  8
1
 62
     1
100
AcDbLine
 10
67.44682464129596
 20
0.0262468029402644
 30
0.0
 11
67.48669688117756
 21
0.0723200966045037
 31
0.0
  0
LINE
  5
4AD
330
18
100
AcDbEntity
  8
1
 62
     1
100
AcDbLine
 10
67.48669688117756
 20
0.0723200966045037
 30
0.0
 11
67.52468647778625
 21
0.1203412697514768
 31
0.0
  0
LINE
  5
4AE
330
18
100
AcDbEntity
  8
1
 62
     1
100
AcDbLine
 10
67.52468647778625
 20
0.1203412697514768
 30
0.0
 11
67.56048903911994
 21
0.1704177386194147
 31
0.0
  0
LINE
  5
4AF
330
18
100
AcDbEntity
  8
1
 62
     1
100
AcDbLine
 10
67.56048903911994
 20
0.1704177386194147
 30
0.0
 11
67.59373032531816
 21
0.2226372429893468
 31
0.0
  0
LINE
  5
4B0
330
18
100
AcDbEntity
  8
1
 62
     1
100
AcDbLine
 10
67.59373032531816
 20
0.2226372429893468
 30
0.0
 11
67.62400561359183
 21
0.2771036732581499
 31
0.0
  0
LINE
  5
4B1
330
18
100
AcDbEntity
  8
1
 62
     1
100
AcDbLine
 10
67.62400561359183
 20
0.2771036732581499
 30
0.0
 11
67.65082225329266
 21
0.3338339485690755
 31
0.0
  0
LINE
  5
4B2
330
18
100
AcDbEntity
  8
1
 62
     1
100
AcDbLine
 10
67.65082225329266
 20
0.3338339485690755
 30
0.0
 11
67.66277845616149
 21
0.3630582259727344
 31
0.0
  0
LINE
  5
4B3
330
18
100
AcDbEntity
  8
1
 62
     1
100
AcDbLine
 10
67.66277845616149
 20
0.3630582259727344
 30
0.0
 11
67.67367489600035
 21
0.3928410687985996
 31
0.0
  0
LINE
  5
4B4
330
18
100
AcDbEntity
  8
1
 62
     1
100
AcDbLine
 10
67.67367489600035
 20
0.3928410687985996
 30
0.0
 11
67.6834497973743
 21
0.4231832835897077
 31
0.0
  0
LINE
  5
4B5
330
18
100
AcDbEntity
  8
1
 62
     1
100
AcDbLine
 10
67.6834497973743
 20
0.4231832835897077
 30
0.0
 11
67.6920338700908
 21
0.4540510608450509
 31
0.0
  0
LINE
  5
4B6
330
18
100
AcDbEntity
  8
1
 62
     1
100
AcDbLine
 10
67.6920338700908
 20
0.4540510608450509
 30
0.0
 11
67.69936668011171
 21
0.485432538973672
 31
0.0
  0
LINE
  5
4B7
330
18
100
AcDbEntity
  8
1
 62
     1
100
AcDbLine
 10
67.69936668011171
 20
0.485432538973672
 30
0.0
 11
67.70539308796141
 21
0.5172883785338049
 31
0.0
  0
LINE
  5
4B8
330
18
100
AcDbEntity
  8
1
 62
     1
100
AcDbLine
 10
67.70539308796141
 20
0.5172883785338049
 30
0.0
 11
67.71005925739267
 21
0.5495747227011718
 31
0.0
  0
LINE
  5
4B9
330
18
100
AcDbEntity
  8
1
 62
     1
100
AcDbLine
 10
67.71005925739267
 20
0.5495747227011718
 30
0.0
 11
67.71332987127127
 21
0.5822600002949481
 31
0.0
  0
LINE
  5
4BA
330
18
100
AcDbEntity
  8
1
 62
     1
100
AcDbLine
 10
67.71332987127127
 20
0.5822600002949481
 30
0.0
 11
67.71517271037166
 21
0.6152715434531845
 31
0.0
  0
LINE
  5
4BB
330
18
100
AcDbEntity
  8
1
 62
     1
100
AcDbLine
 10
67.71517271037166
 20
0.6152715434531845
 30
0.0
 11
67.715570586257
 21
0.6485757077736973
 31
0.0
  0
LINE
  5
4BC
330
18
100
AcDbEntity
  8
1
 62
     1
100
AcDbLine
 10
67.715570586257
 20
0.6485757077736973
 30
0.0
 11
67.71452325465424
 21
0.6820967920760789
 31
0.0
  0
LINE
  5
4BD
330
18
100
AcDbEntity
  8
1
 62
     1
100
AcDbLine
 10
67.71452325465424
 20
0.6820967920760789
 30
0.0
 11
67.71203528646596
 21
0.7157797400615591
 31
0.0
  0
LINE
  5
4BE
330
18
100
AcDbEntity
  8
1
 62
     1
100
AcDbLine
 10
67.71203528646596
 20
0.7157797400615591
 30
0.0
 11
67.70813341534758
 21
0.7495722654487742
 31
0.0
  0
LINE
  5
4BF
330
18
100
AcDbEntity
  8
1
 62
     1
100
AcDbLine
 10
67.70813341534758
 20
0.7495722654487742
 30
0.0
 11
67.70285099239946
 21
0.7833998994569612
 31
0.0
  0
LINE
  5
4C0
330
18
100
AcDbEntity
  8
1
 62
     1
100
AcDbLine
 10
67.70285099239946
 20
0.7833998994569612
 30
0.0
 11
67.69623031085061
 21
0.8172310946525191
 31
0.0
  0
LINE
  5
4C1
330
18
100
AcDbEntity
  8
1
 62
     1
100
AcDbLine
 10
67.69623031085061
 20
0.8172310946525191
 30
0.0
 11
67.68832889793092
 21
0.8509986469590372
 31
0.0
  0
LINE
  5
4C2
330
18
100
AcDbEntity
  8
1
 62
     1
100
AcDbLine
 10
67.68832889793092
 20
0.8509986469590372
 30
0.0
 11
67.6689139992298
 21
0.9182117973178726
 31
0.0
  0
LINE
  5
4C3
330
18
100
AcDbEntity
  8
1
 62
     1
100
AcDbLine
 10
67.6689139992298
 20
0.9182117973178726
 30
0.0
 11
67.64512411372914
 21
0.9847660052273322
 31
0.0
  0
LINE
  5
4C4
330
18
100
AcDbEntity
  8
1
 62
     1
100
AcDbLine
 10
67.64512411372914
 20
0.9847660052273322
 30
0.0
 11
67.61749045128131
 21
1.050486508456592
 31
0.0
  0
LINE
  5
4C5
330
18
100
AcDbEntity
  8
1
 62
     1
100
AcDbLine
 10
67.61749045128131
 20
1.050486508456592
 30
0.0
 11
67.58651970674761
 21
1.115275588019315
 31
0.0
  0
LINE
  5
4C6
330
18
100
AcDbEntity
  8
1
 62
     1
100
AcDbLine
 10
67.58651970674761
 20
1.115275588019315
 30
0.0
 11
67.55267290908311
 21
1.179093528881013
 31
0.0
  0
LINE
  5
4C7
330
18
100
AcDbEntity
  8
1
 62
     1
100
AcDbLine
 10
67.55267290908311
 20
1.179093528881013
 30
0.0
 11
67.47791402929178
 21
1.303851682507454
 31
0.0
  0
LINE
  5
4C8
330
18
100
AcDbEntity
  8
1
 62
     1
100
AcDbLine
 10
67.47791402929178
 20
1.303851682507454
 30
0.0
 11
67.39583911912372
 21
1.424980539743006
 31
0.0
  0
LINE
  5
4C9
330
18
100
AcDbEntity
  8
1
 62
     1
100
AcDbLine
 10
67.39583911912372
 20
1.424980539743006
 30
0.0
 11
67.30833402988688
 21
1.542866227931152
 31
0.0
  0
LINE
  5
4CA
330
18
100
AcDbEntity
  8
1
 62
     1
100
AcDbLine
 10
67.30833402988688
 20
1.542866227931152
 30
0.0
 11
67.12205484759757
 21
1.770364319257683
 31
0.0
  0
LINE
  5
4CB
330
18
100
AcDbEntity
  8
1
 62
     1
100
AcDbLine
 10
67.12205484759757
 20
1.770364319257683
 30
0.0
 11
66.92605973579256
 21
1.988616625781155
 31
0.0
  0
LINE
  5
4CC
330
18
100
AcDbEntity
  8
1
 62
     1
100
AcDbLine
 10
66.92605973579256
 20
1.988616625781155
 30
0.0
 11
66.51898805067528
 21
2.401785822827966
 31
0.0
  0
LINE
  5
4CD
330
18
100
AcDbEntity
  8
1
 62
     1
100
AcDbLine
 10
66.51898805067528
 20
2.401785822827966
 30
0.0
 11
66.0
 21
2.875681150841064
 31
0.0
  0
ARC
  5
4CE
330
18
100
AcDbEntity
  8
1
 62
     1
100
AcDbCircle
 10
28.95630914023769
 20
71.07246857862613
 30
0.0
 40
80.9185300935849
100
AcDbArc
 50
297.244564407183
 51
297.9132337184411
  0
LINE
  5
4CF
330
18
100
AcDbEntity
  8
1
 62
     1
100
AcDbLine
 10
64.45103479518312
 20
3.455291433003078
 30
0.0
 11
64.45103479518312
 21
3.455206272634716
 31
0.0
  0
LINE
  5
4D0
330
18
100
AcDbEntity
  8
1
 62
     1
100
AcDbLine
 10
64.45103479518312
 20
3.455206272634716
 30
0.0
 11
64.45103479518312
 21
3.429589296729839
 31
0.0
  0
LINE
  5
4D1
330
18
100
AcDbEntity
  8
1
 62
     1
100
AcDbLine
 10
64.45103479518312
 20
3.429589296729839
 30
0.0
 11
64.4510347951831
 21
3.05693645755463
 31
0.0
  0
ARC
  5
4D2
330
18
100
AcDbEntity
  8
1
 62
     1
100
AcDbCircle
 10
56.18207841582928
 20
-2.746321836826303
 30
0.0
 40
10.1021624296228
100
AcDbArc
 50
31.99194455521659
 51
35.06166416015991
  0
LINE
  5
4D3
330
18
100
AcDbEntity
  8
1
 62
     1
100
AcDbLine
 10
64.74999999999999
 20
2.605834969500407
 30
0.0
 11
64.75
 21
2.937468749999999
 31
0.0
  0
ARC
  5
4D4
330
18
100
AcDbEntity
  8
1
 62
     1
100
AcDbCircle
 10
72.11781739808838
 20
-2.78175279092167
 30
0.0
 40
10.16328942660889
100
AcDbArc
 50
144.4652470603523
 51
147.9876759024411
  0
LINE
  5
4D5
330
18
100
AcDbEntity
  8
1
 62
     1
100
AcDbLine
 10
63.84740428052827
 20
3.539190334088975
 30
0.0
 11
63.84740428052827
 21
3.539101845957453
 31
0.0
  0
LINE
  5
4D6
330
18
100
AcDbEntity
  8
1
 62
     1
100
AcDbLine
 10
63.84740428052827
 20
3.539101845957453
 30
0.0
 11
63.84740428052826
 21
3.512476156953976
 31
0.0
  0
LINE
  5
4D7
330
18
100
AcDbEntity
  8
1
 62
     1
100
AcDbLine
 10
63.84740428052826
 20
3.512476156953976
 30
0.0
 11
63.84740428052826
 21
3.125047579537954
 31
0.0
  0
LINE
  5
4D8
330
18
100
AcDbEntity
  8
1
 62
     1
100
AcDbLine
 10
66.0
 20
2.875681150841074
 30
0.0
 11
66.0
 21
2.605834969500406
 31
0.0
  0
LINE
  5
4D9
330
18
100
AcDbEntity
  8
1
 62
     1
100
AcDbLine
 10
66.0
 20
3.24
 30
0.0
 11
66.0
 21
3.239922045416868
 31
0.0
  0
LINE
  5
4DA
330
18
100
AcDbEntity
  8
1
 62
     1
100
AcDbLine
 10
66.0
 20
3.239922045416868
 30
0.0
 11
66.0
 21
3.216483915799845
 31
0.0
  0
LINE
  5
4DB
330
18
100
AcDbEntity
  8
1
 62
     1
100
AcDbLine
 10
66.0
 20
3.216483915799845
 30
0.0
 11
65.99999999999999
 21
2.875681150840945
 31
0.0
  0
LINE
  5
4DC
330
18
100
AcDbEntity
  8
1
 62
     1
100
AcDbLine
 10
61.732915997262
 20
3.83308409694237
 30
0.0
 11
61.73291599726199
 21
3.832981478718959
 31
0.0
  0
LINE
  5
4DD
330
18
100
AcDbEntity
  8
1
 62
     1
100
AcDbLine
 10
61.73291599726199
 20
3.832981478718959
 30
0.0
 11
61.732915997262
 21
3.802060803042241
 31
0.0
  0
LINE
  5
4DE
330
18
100
AcDbEntity
  8
1
 62
     1
100
AcDbLine
 10
61.732915997262
 20
3.802060803042241
 30
0.0
 11
61.73291599726199
 21
3.351603388262431
 31
0.0
  0
ARC
  5
4DF
330
18
100
AcDbEntity
  8
1
 62
     1
100
AcDbCircle
 10
54.91634940763022
 20
-1.920564116069306
 30
0.0
 40
8.617593119518192
100
AcDbArc
 50
31.68328034934972
 51
37.71960195806915
  0
LINE
  5
4E0
330
18
100
AcDbEntity
  8
1
 62
     1
100
AcDbLine
 10
62.25000000000001
 20
2.605834969500407
 30
0.0
 11
62.25000000000001
 21
2.937468749999999
 31
0.0
  0
ARC
  5
4E1
330
18
100
AcDbEntity
  8
1
 62
     1
100
AcDbCircle
 10
70.4558185905365
 20
-2.512098939296179
 30
0.0
 40
9.670973938393672
100
AcDbArc
 50
143.4174978387538
 51
148.0483866618661
  0
LINE
  5
4E2
330
18
100
AcDbEntity
  8
1
 62
     1
100
AcDbLine
 10
62.69026069575418
 20
3.700022288080985
 30
0.0
 11
62.69026069575418
 21
3.699926561251559
 31
0.0
  0
LINE
  5
4E3
330
18
100
AcDbEntity
  8
1
 62
     1
100
AcDbLine
 10
62.69026069575418
 20
3.699926561251559
 30
0.0
 11
62.69026069575419
 21
3.671102729694085
 31
0.0
  0
LINE
  5
4E4
330
18
100
AcDbEntity
  8
1
 62
     1
100
AcDbLine
 10
62.69026069575419
 20
3.671102729694085
 30
0.0
 11
62.69026069575418
 21
3.25143455254829
 31
0.0
  0
LINE
  5
4E5
330
18
100
AcDbEntity
  8
1
 62
     1
100
AcDbLine
 10
63.09197539622259
 20
3.644187764972719
 30
0.0
 11
63.09197539622259
 21
3.64409468250313
 31
0.0
  0
LINE
  5
4E6
330
18
100
AcDbEntity
  8
1
 62
     1
100
AcDbLine
 10
63.09197539622259
 20
3.64409468250313
 30
0.0
 11
63.09197539622261
 21
3.616074418162153
 31
0.0
  0
LINE
  5
4E7
330
18
100
AcDbEntity
  8
1
 62
     1
100
AcDbLine
 10
63.09197539622261
 20
3.616074418162153
 30
0.0
 11
63.09197539622259
 21
3.208197320937658
 31
0.0
  0
ARC
  5
4E8
330
18
100
AcDbEntity
  8
1
 62
     1
100
AcDbCircle
 10
55.52347006608992
 20
-2.35443848908631
 30
0.0
 40
9.392863858440538
100
AcDbArc
 50
31.87576872303443
 51
36.31482668630598
  0
LINE
  5
4E9
330
18
100
AcDbEntity
  8
1
 62
     1
100
AcDbLine
 10
63.49999999999999
 20
2.605834969500407
 30
0.0
 11
63.50000000000001
 21
2.937468749999999
 31
0.0
  0
ARC
  5
4EA
330
18
100
AcDbEntity
  8
1
 62
     1
100
AcDbCircle
 10
73.73593481914529
 20
-3.020199599395425
 30
0.0
 40
10.60184631710836
100
AcDbArc
 50
145.4443145231156
 51
147.9495888596866
  0
LINE
  5
4EB
330
18
100
AcDbEntity
  8
1
 62
     1
100
AcDbLine
 10
65.00454786530237
 20
3.378358380096964
 30
0.0
 11
65.00454786530237
 21
3.378276011611714
 31
0.0
  0
LINE
  5
4EC
330
18
100
AcDbEntity
  8
1
 62
     1
100
AcDbLine
 10
65.00454786530237
 20
3.378276011611714
 30
0.0
 11
65.00454786530237
 21
3.353504230003832
 31
0.0
  0
LINE
  5
4ED
330
18
100
AcDbEntity
  8
1
 62
     1
100
AcDbLine
 10
65.00454786530237
 20
3.353504230003832
 30
0.0
 11
65.00454786530238
 21
2.993219143170975
 31
0.0
  0
LINE
  5
4EE
330
18
100
AcDbEntity
  8
1
 62
     1
100
AcDbLine
 10
58.5
 20
2.605834969500407
 30
0.0
 11
58.5
 21
2.937468749999999
 31
0.0
  0
LINE
  5
4EF
330
18
100
AcDbEntity
  8
1
 62
     1
100
AcDbLine
 10
58.5
 20
2.605834969500408
 30
0.0
 11
58.81000440955165
 21
3.072586547486674
 31
0.0
  0
LINE
  5
4F0
330
18
100
AcDbEntity
  8
1
 62
     1
100
AcDbLine
 10
58.81000440955165
 20
3.072586547486674
 30
0.0
 11
58.96308605509898
 21
3.281625375938175
 31
0.0
  0
LINE
  5
4F1
330
18
100
AcDbEntity
  8
1
 62
     1
100
AcDbLine
 10
58.96308605509898
 20
3.281625375938175
 30
0.0
 11
59.11345298923243
 21
3.47116469943115
 31
0.0
  0
LINE
  5
4F2
330
18
100
AcDbEntity
  8
1
 62
     1
100
AcDbLine
 10
59.11345298923242
 20
4.0
 30
0.0
 11
59.11345298923241
 21
3.999887487678777
 31
0.0
  0
LINE
  5
4F3
330
18
100
AcDbEntity
  8
1
 62
     1
100
AcDbLine
 10
59.11345298923241
 20
3.999887487678777
 30
0.0
 11
59.11345298923241
 21
3.965950348793222
 31
0.0
  0
LINE
  5
4F4
330
18
100
AcDbEntity
  8
1
 62
     1
100
AcDbLine
 10
59.11345298923241
 20
3.965950348793222
 30
0.0
 11
59.11345298923242
 21
3.471164699431147
 31
0.0
  0
LINE
  5
4F5
330
18
100
AcDbEntity
  8
1
 62
     1
100
AcDbLine
 10
59.13654701076759
 20
4.0
 30
0.0
 11
59.13654701076759
 21
3.999887487678777
 31
0.0
  0
LINE
  5
4F6
330
18
100
AcDbEntity
  8
1
 62
     1
100
AcDbLine
 10
59.13654701076759
 20
3.999887487678777
 30
0.0
 11
59.13654701076759
 21
3.965950348793222
 31
0.0
  0
LINE
  5
4F7
330
18
100
AcDbEntity
  8
1
 62
     1
100
AcDbLine
 10
59.13654701076759
 20
3.965950348793222
 30
0.0
 11
59.1365470107676
 21
3.471164699431147
 31
0.0
  0
LINE
  5
4F8
330
18
100
AcDbEntity
  8
1
 62
     1
100
AcDbLine
 10
59.13654701076759
 20
3.471164699431149
 30
0.0
 11
59.2869204445483
 21
3.281616803217443
 31
0.0
  0
LINE
  5
4F9
330
18
100
AcDbEntity
  8
1
 62
     1
100
AcDbLine
 10
59.2869204445483
 20
3.281616803217443
 30
0.0
 11
59.43999730298533
 21
3.072584133199218
 31
0.0
  0
LINE
  5
4FA
330
18
100
AcDbEntity
  8
1
 62
     1
100
AcDbLine
 10
59.43999730298533
 20
3.072584133199218
 30
0.0
 11
59.75
 21
2.605834969500408
 31
0.0
  0
LINE
  5
4FB
330
18
100
AcDbEntity
  8
1
 62
     1
100
AcDbLine
 10
59.74999999999999
 20
2.605834969500407
 30
0.0
 11
59.75
 21
2.937468749999999
 31
0.0
  0
LINE
  5
4FC
330
18
100
AcDbEntity
  8
1
 62
     1
100
AcDbLine
 10
59.75
 20
2.605834969500408
 30
0.0
 11
60.06000440955163
 21
3.072586547486675
 31
0.0
  0
LINE
  5
4FD
330
18
100
AcDbEntity
  8
1
 62
     1
100
AcDbLine
 10
60.06000440955163
 20
3.072586547486675
 30
0.0
 11
60.21308605509898
 21
3.281625375938182
 31
0.0
  0
LINE
  5
4FE
330
18
100
AcDbEntity
  8
1
 62
     1
100
AcDbLine
 10
60.21308605509898
 20
3.281625375938182
 30
0.0
 11
60.36345298923243
 21
3.471164699431157
 31
0.0
  0
LINE
  5
4FF
330
18
100
AcDbEntity
  8
1
 62
     1
100
AcDbLine
 10
60.36345298923243
 20
4.0
 30
0.0
 11
60.36345298923242
 21
3.999887487678777
 31
0.0
  0
LINE
  5
500
330
18
100
AcDbEntity
  8
1
 62
     1
100
AcDbLine
 10
60.36345298923242
 20
3.999887487678777
 30
0.0
 11
60.36345298923243
 21
3.965950348793222
 31
0.0
  0
LINE
  5
501
330
18
100
AcDbEntity
  8
1
 62
     1
100
AcDbLine
 10
60.36345298923243
 20
3.965950348793222
 30
0.0
 11
60.36345298923243
 21
3.471164699431147
 31
0.0
  0
LINE
  5
502
330
18
100
AcDbEntity
  8
1
 62
     1
100
AcDbLine
 10
60.38654701076759
 20
4.0
 30
0.0
 11
60.38654701076759
 21
3.999887487678777
 31
0.0
  0
LINE
  5
503
330
18
100
AcDbEntity
  8
1
 62
     1
100
AcDbLine
 10
60.38654701076759
 20
3.999887487678777
 30
0.0
 11
60.38654701076759
 21
3.965950348793221
 31
0.0
  0
LINE
  5
504
330
18
100
AcDbEntity
  8
1
 62
     1
100
AcDbLine
 10
60.38654701076759
 20
3.965950348793221
 30
0.0
 11
60.38654701076759
 21
3.471164699431146
 31
0.0
  0
LINE
  5
505
330
18
100
AcDbEntity
  8
1
 62
     1
100
AcDbLine
 10
60.38654701076759
 20
3.471164699431148
 30
0.0
 11
60.53692044454833
 21
3.281616803217447
 31
0.0
  0
LINE
  5
506
330
18
100
AcDbEntity
  8
1
 62
     1
100
AcDbLine
 10
60.53692044454833
 20
3.281616803217447
 30
0.0
 11
60.68999730298533
 21
3.072584133199223
 31
0.0
  0
LINE
  5
507
330
18
100
AcDbEntity
  8
1
 62
     1
100
AcDbLine
 10
60.68999730298533
 20
3.072584133199223
 30
0.0
 11
61.0
 21
2.605834969500408
 31
0.0
  0
LINE
  5
508
330
18
100
AcDbEntity
  8
1
 62
     1
100
AcDbLine
 10
60.99999999999999
 20
2.605834969500407
 30
0.0
 11
61.0
 21
2.937468749999999
 31
0.0
  0
ARC
  5
509
330
18
100
AcDbEntity
  8
1
 62
     1
100
AcDbCircle
 10
68.75986832247888
 20
-2.217068294349748
 30
0.0
 40
9.136414868965769
100
AcDbArc
 50
142.2822382803889
 51
148.1382759484681
  0
LINE
  5
50A
330
18
100
AcDbEntity
  8
1
 62
     1
100
AcDbLine
 10
61.53311711098006
 20
3.860854242072998
 30
0.0
 11
61.53311711098006
 21
3.860750076978827
 31
0.0
  0
LINE
  5
50B
330
18
100
AcDbEntity
  8
1
 62
     1
100
AcDbLine
 10
61.53311711098006
 20
3.860750076978827
 30
0.0
 11
61.53311711098006
 21
3.8293582422451
 31
0.0
  0
LINE
  5
50C
330
18
100
AcDbEntity
  8
1
 62
     1
100
AcDbLine
 10
61.53311711098006
 20
3.8293582422451
 30
0.0
 11
61.53311711098006
 21
3.371979181993344
 31
0.0
  0
LINE
  5
50D
330
18
100
AcDbEntity
  8
1
 62
     1
100
AcDbLine
 10
57.88654701076759
 20
4.0
 30
0.0
 11
57.88654701076759
 21
3.999887487678777
 31
0.0
  0
LINE
  5
50E
330
18
100
AcDbEntity
  8
1
 62
     1
100
AcDbLine
 10
57.88654701076759
 20
3.999887487678777
 30
0.0
 11
57.88654701076759
 21
3.965950348793222
 31
0.0
  0
LINE
  5
50F
330
18
100
AcDbEntity
  8
1
 62
     1
100
AcDbLine
 10
57.88654701076759
 20
3.965950348793222
 30
0.0
 11
57.88654701076759
 21
3.471164699431147
 31
0.0
  0
LINE
  5
510
330
18
100
AcDbEntity
  8
1
 62
     1
100
AcDbLine
 10
57.88654701076759
 20
3.471164699431145
 30
0.0
 11
58.03692044454831
 21
3.281616803217442
 31
0.0
  0
LINE
  5
511
330
18
100
AcDbEntity
  8
1
 62
     1
100
AcDbLine
 10
58.03692044454831
 20
3.281616803217442
 30
0.0
 11
58.18999730298533
 21
3.072584133199218
 31
0.0
  0
LINE
  5
512
330
18
100
AcDbEntity
  8
1
 62
     1
100
AcDbLine
 10
58.18999730298533
 20
3.072584133199218
 30
0.0
 11
58.5
 21
2.605834969500408
 31
0.0
  0
LINE
  5
513
330
18
100
AcDbEntity
  8
1
 62
     1
100
AcDbLine
 10
52.88654701076759
 20
4.0
 30
0.0
 11
52.88654701076759
 21
3.999887487678777
 31
0.0
  0
LINE
  5
514
330
18
100
AcDbEntity
  8
1
 62
     1
100
AcDbLine
 10
52.88654701076759
 20
3.999887487678777
 30
0.0
 11
52.88654701076758
 21
3.965950348793222
 31
0.0
  0
LINE
  5
515
330
18
100
AcDbEntity
  8
1
 62
     1
100
AcDbLine
 10
52.88654701076758
 20
3.965950348793222
 30
0.0
 11
52.88654701076759
 21
3.471164699431147
 31
0.0
  0
LINE
  5
516
330
18
100
AcDbEntity
  8
1
 62
     1
100
AcDbLine
 10
52.88654701076759
 20
3.471164699431149
 30
0.0
 11
53.03692044454833
 21
3.28161680321745
 31
0.0
  0
LINE
  5
517
330
18
100
AcDbEntity
  8
1
 62
     1
100
AcDbLine
 10
53.03692044454833
 20
3.28161680321745
 30
0.0
 11
53.18999730298531
 21
3.07258413319922
 31
0.0
  0
LINE
  5
518
330
18
100
AcDbEntity
  8
1
 62
     1
100
AcDbLine
 10
53.18999730298531
 20
3.07258413319922
 30
0.0
 11
53.5
 21
2.605834969500408
 31
0.0
  0
LINE
  5
519
330
18
100
AcDbEntity
  8
1
 62
     1
100
AcDbLine
 10
53.5
 20
2.605834969500407
 30
0.0
 11
53.50000000000001
 21
2.937468749999999
 31
0.0
  0
LINE
  5
51A
330
18
100
AcDbEntity
  8
1
 62
     1
100
AcDbLine
 10
53.5
 20
2.605834969500408
 30
0.0
 11
53.81000440955165
 21
3.072586547486671
 31
0.0
  0
LINE
  5
51B
330
18
100
AcDbEntity
  8
1
 62
     1
100
AcDbLine
 10
53.81000440955165
 20
3.072586547486671
 30
0.0
 11
53.96308605509898
 21
3.281625375938173
 31
0.0
  0
LINE
  5
51C
330
18
100
AcDbEntity
  8
1
 62
     1
100
AcDbLine
 10
53.96308605509898
 20
3.281625375938173
 30
0.0
 11
54.11345298923241
 21
3.471164699431146
 31
0.0
  0
LINE
  5
51D
330
18
100
AcDbEntity
  8
1
 62
     1
100
AcDbLine
 10
54.11345298923241
 20
4.0
 30
0.0
 11
54.11345298923241
 21
3.999887487678777
 31
0.0
  0
LINE
  5
51E
330
18
100
AcDbEntity
  8
1
 62
     1
100
AcDbLine
 10
54.11345298923241
 20
3.999887487678777
 30
0.0
 11
54.1134529892324
 21
3.965950348793222
 31
0.0
  0
LINE
  5
51F
330
18
100
AcDbEntity
  8
1
 62
     1
100
AcDbLine
 10
54.1134529892324
 20
3.965950348793222
 30
0.0
 11
54.11345298923241
 21
3.471164699431147
 31
0.0
  0
LINE
  5
520
330
18
100
AcDbEntity
  8
1
 62
     1
100
AcDbLine
 10
54.13654701076761
 20
4.0
 30
0.0
 11
54.13654701076761
 21
3.999887487678777
 31
0.0
  0
LINE
  5
521
330
18
100
AcDbEntity
  8
1
 62
     1
100
AcDbLine
 10
54.13654701076761
 20
3.999887487678777
 30
0.0
 11
54.13654701076761
 21
3.965950348793222
 31
0.0
  0
LINE
  5
522
330
18
100
AcDbEntity
  8
1
 62
     1
100
AcDbLine
 10
54.13654701076761
 20
3.965950348793222
 30
0.0
 11
54.13654701076761
 21
3.471164699431147
 31
0.0
  0
LINE
  5
523
330
18
100
AcDbEntity
  8
1
 62
     1
100
AcDbLine
 10
54.1365470107676
 20
3.471164699431141
 30
0.0
 11
54.28692044454831
 21
3.281616803217439
 31
0.0
  0
LINE
  5
524
330
18
100
AcDbEntity
  8
1
 62
     1
100
AcDbLine
 10
54.28692044454831
 20
3.281616803217439
 30
0.0
 11
54.43999730298534
 21
3.072584133199219
 31
0.0
  0
LINE
  5
525
330
18
100
AcDbEntity
  8
1
 62
     1
100
AcDbLine
 10
54.43999730298534
 20
3.072584133199219
 30
0.0
 11
54.75
 21
2.605834969500407
 31
0.0
  0
LINE
  5
526
330
18
100
AcDbEntity
  8
1
 62
     1
100
AcDbLine
 10
54.75000000000001
 20
2.605834969500407
 30
0.0
 11
54.75000000000001
 21
2.937468749999999
 31
0.0
  0
LINE
  5
527
330
18
100
AcDbEntity
  8
1
 62
     1
100
AcDbLine
 10
54.75
 20
2.605834969500407
 30
0.0
 11
55.06000440955165
 21
3.072586547486669
 31
0.0
  0
LINE
  5
528
330
18
100
AcDbEntity
  8
1
 62
     1
100
AcDbLine
 10
55.06000440955165
 20
3.072586547486669
 30
0.0
 11
55.21308605509897
 21
3.281625375938168
 31
0.0
  0
LINE
  5
529
330
18
100
AcDbEntity
  8
1
 62
     1
100
AcDbLine
 10
55.21308605509897
 20
3.281625375938168
 30
0.0
 11
55.36345298923241
 21
3.471164699431146
 31
0.0
  0
LINE
  5
52A
330
18
100
AcDbEntity
  8
1
 62
     1
100
AcDbLine
 10
55.36345298923241
 20
4.0
 30
0.0
 11
55.36345298923241
 21
3.999887487678777
 31
0.0
  0
LINE
  5
52B
330
18
100
AcDbEntity
  8
1
 62
     1
100
AcDbLine
 10
55.36345298923241
 20
3.999887487678777
 30
0.0
 11
55.3634529892324
 21
3.965950348793222
 31
0.0
  0
LINE
  5
52C
330
18
100
AcDbEntity
  8
1
 62
     1
100
AcDbLine
 10
55.3634529892324
 20
3.965950348793222
 30
0.0
 11
55.3634529892324
 21
3.471164699431147
 31
0.0
  0
LINE
  5
52D
330
18
100
AcDbEntity
  8
1
 62
     1
100
AcDbLine
 10
55.38654701076759
 20
4.0
 30
0.0
 11
55.38654701076758
 21
3.999887487678777
 31
0.0
  0
LINE
  5
52E
330
18
100
AcDbEntity
  8
1
 62
     1
100
AcDbLine
 10
55.38654701076758
 20
3.999887487678777
 30
0.0
 11
55.38654701076759
 21
3.965950348793222
 31
0.0
  0
LINE
  5
52F
330
18
100
AcDbEntity
  8
1
 62
     1
100
AcDbLine
 10
55.38654701076759
 20
3.965950348793222
 30
0.0
 11
55.38654701076759
 21
3.471164699431147
 31
0.0
  0
LINE
  5
530
330
18
100
AcDbEntity
  8
1
 62
     1
100
AcDbLine
 10
55.38654701076759
 20
3.471164699431149
 30
0.0
 11
55.5369204445483
 21
3.281616803217439
 31
0.0
  0
LINE
  5
531
330
18
100
AcDbEntity
  8
1
 62
     1
100
AcDbLine
 10
55.5369204445483
 20
3.281616803217439
 30
0.0
 11
55.68999730298534
 21
3.072584133199221
 31
0.0
  0
LINE
  5
532
330
18
100
AcDbEntity
  8
1
 62
     1
100
AcDbLine
 10
55.68999730298534
 20
3.072584133199221
 30
0.0
 11
56.00000000000001
 21
2.605834969500408
 31
0.0
  0
LINE
  5
533
330
18
100
AcDbEntity
  8
1
 62
     1
100
AcDbLine
 10
55.99999999999999
 20
2.605834969500407
 30
0.0
 11
56.00000000000001
 21
2.937468749999999
 31
0.0
  0
LINE
  5
534
330
18
100
AcDbEntity
  8
1
 62
     1
100
AcDbLine
 10
56.00000000000001
 20
2.605834969500408
 30
0.0
 11
56.31000440955163
 21
3.072586547486669
 31
0.0
  0
LINE
  5
535
330
18
100
AcDbEntity
  8
1
 62
     1
100
AcDbLine
 10
56.31000440955163
 20
3.072586547486669
 30
0.0
 11
56.46308605509899
 21
3.281625375938171
 31
0.0
  0
LINE
  5
536
330
18
100
AcDbEntity
  8
1
 62
     1
100
AcDbLine
 10
56.46308605509899
 20
3.281625375938171
 30
0.0
 11
56.61345298923241
 21
3.471164699431148
 31
0.0
  0
LINE
  5
537
330
18
100
AcDbEntity
  8
1
 62
     1
100
AcDbLine
 10
56.61345298923241
 20
4.0
 30
0.0
 11
56.61345298923242
 21
3.999887487678777
 31
0.0
  0
LINE
  5
538
330
18
100
AcDbEntity
  8
1
 62
     1
100
AcDbLine
 10
56.61345298923242
 20
3.999887487678777
 30
0.0
 11
56.61345298923241
 21
3.965950348793222
 31
0.0
  0
LINE
  5
539
330
18
100
AcDbEntity
  8
1
 62
     1
100
AcDbLine
 10
56.61345298923241
 20
3.965950348793222
 30
0.0
 11
56.61345298923241
 21
3.471164699431147
 31
0.0
  0
LINE
  5
53A
330
18
100
AcDbEntity
  8
1
 62
     1
100
AcDbLine
 10
56.63654701076761
 20
4.0
 30
0.0
 11
56.6365470107676
 21
3.999887487678777
 31
0.0
  0
LINE
  5
53B
330
18
100
AcDbEntity
  8
1
 62
     1
100
AcDbLine
 10
56.6365470107676
 20
3.999887487678777
 30
0.0
 11
56.63654701076761
 21
3.965950348793222
 31
0.0
  0
LINE
  5
53C
330
18
100
AcDbEntity
  8
1
 62
     1
100
AcDbLine
 10
56.63654701076761
 20
3.965950348793222
 30
0.0
 11
56.63654701076761
 21
3.471164699431147
 31
0.0
  0
LINE
  5
53D
330
18
100
AcDbEntity
  8
1
 62
     1
100
AcDbLine
 10
56.63654701076759
 20
3.471164699431143
 30
0.0
 11
56.78692044454832
 21
3.281616803217447
 31
0.0
  0
LINE
  5
53E
330
18
100
AcDbEntity
  8
1
 62
     1
100
AcDbLine
 10
56.78692044454832
 20
3.281616803217447
 30
0.0
 11
56.93999730298533
 21
3.07258413319922
 31
0.0
  0
LINE
  5
53F
330
18
100
AcDbEntity
  8
1
 62
     1
100
AcDbLine
 10
56.93999730298533
 20
3.07258413319922
 30
0.0
 11
57.25
 21
2.605834969500407
 31
0.0
  0
LINE
  5
540
330
18
100
AcDbEntity
  8
1
 62
     1
100
AcDbLine
 10
57.25
 20
2.605834969500407
 30
0.0
 11
57.25000000000001
 21
2.937468749999999
 31
0.0
  0
LINE
  5
541
330
18
100
AcDbEntity
  8
1
 62
     1
100
AcDbLine
 10
57.25
 20
2.605834969500407
 30
0.0
 11
57.56000440955165
 21
3.072586547486669
 31
0.0
  0
LINE
  5
542
330
18
100
AcDbEntity
  8
1
 62
     1
100
AcDbLine
 10
57.56000440955165
 20
3.072586547486669
 30
0.0
 11
57.71308605509897
 21
3.281625375938175
 31
0.0
  0
LINE
  5
543
330
18
100
AcDbEntity
  8
1
 62
     1
100
AcDbLine
 10
57.71308605509897
 20
3.281625375938175
 30
0.0
 11
57.86345298923241
 21
3.471164699431148
 31
0.0
  0
LINE
  5
544
330
18
100
AcDbEntity
  8
1
 62
     1
100
AcDbLine
 10
57.86345298923241
 20
4.0
 30
0.0
 11
57.86345298923241
 21
3.999887487678777
 31
0.0
  0
LINE
  5
545
330
18
100
AcDbEntity
  8
1
 62
     1
100
AcDbLine
 10
57.86345298923241
 20
3.999887487678777
 30
0.0
 11
57.86345298923241
 21
3.965950348793222
 31
0.0
  0
LINE
  5
546
330
18
100
AcDbEntity
  8
1
 62
     1
100
AcDbLine
 10
57.86345298923241
 20
3.965950348793222
 30
0.0
 11
57.86345298923243
 21
3.471164699431147
 31
0.0
  0
LINE
  5
547
330
18
100
AcDbEntity
  8
1
 62
     1
100
AcDbLine
 10
51.63654701076761
 20
4.0
 30
0.0
 11
51.63654701076761
 21
3.999887487678777
 31
0.0
  0
LINE
  5
548
330
18
100
AcDbEntity
  8
1
 62
     1
100
AcDbLine
 10
51.63654701076761
 20
3.999887487678777
 30
0.0
 11
51.63654701076761
 21
3.965950348793222
 31
0.0
  0
LINE
  5
549
330
18
100
AcDbEntity
  8
1
 62
     1
100
AcDbLine
 10
51.63654701076761
 20
3.965950348793222
 30
0.0
 11
51.63654701076761
 21
3.471164699431147
 31
0.0
  0
LINE
  5
54A
330
18
100
AcDbEntity
  8
1
 62
     1
100
AcDbLine
 10
51.63654701076759
 20
3.471164699431141
 30
0.0
 11
51.78692044454831
 21
3.281616803217443
 31
0.0
  0
LINE
  5
54B
330
18
100
AcDbEntity
  8
1
 62
     1
100
AcDbLine
 10
51.78692044454831
 20
3.281616803217443
 30
0.0
 11
51.93999730298533
 21
3.072584133199222
 31
0.0
  0
LINE
  5
54C
330
18
100
AcDbEntity
  8
1
 62
     1
100
AcDbLine
 10
51.93999730298533
 20
3.072584133199222
 30
0.0
 11
52.25
 21
2.605834969500408
 31
0.0
  0
LINE
  5
54D
330
18
100
AcDbEntity
  8
1
 62
     1
100
AcDbLine
 10
52.25
 20
2.605834969500407
 30
0.0
 11
52.25000000000001
 21
2.937468749999999
 31
0.0
  0
LINE
  5
54E
330
18
100
AcDbEntity
  8
1
 62
     1
100
AcDbLine
 10
52.25
 20
2.605834969500408
 30
0.0
 11
52.56000440955165
 21
3.072586547486663
 31
0.0
  0
LINE
  5
54F
330
18
100
AcDbEntity
  8
1
 62
     1
100
AcDbLine
 10
52.56000440955165
 20
3.072586547486663
 30
0.0
 11
52.71308605509896
 21
3.281625375938166
 31
0.0
  0
LINE
  5
550
330
18
100
AcDbEntity
  8
1
 62
     1
100
AcDbLine
 10
52.71308605509896
 20
3.281625375938166
 30
0.0
 11
52.86345298923239
 21
3.471164699431146
 31
0.0
  0
LINE
  5
551
330
18
100
AcDbEntity
  8
1
 62
     1
100
AcDbLine
 10
52.86345298923241
 20
4.0
 30
0.0
 11
52.86345298923241
 21
3.999887487678777
 31
0.0
  0
LINE
  5
552
330
18
100
AcDbEntity
  8
1
 62
     1
100
AcDbLine
 10
52.86345298923241
 20
3.999887487678777
 30
0.0
 11
52.86345298923241
 21
3.965950348793222
 31
0.0
  0
LINE
  5
553
330
18
100
AcDbEntity
  8
1
 62
     1
100
AcDbLine
 10
52.86345298923241
 20
3.965950348793222
 30
0.0
 11
52.86345298923241
 21
3.471164699431147
 31
0.0
  0
LINE
  5
554
330
18
100
AcDbEntity
  8
1
 62
     1
100
AcDbLine
 10
51.0
 20
2.605834969500407
 30
0.0
 11
51.31000440955165
 21
3.072586547486667
 31
0.0
  0
LINE
  5
555
330
18
100
AcDbEntity
  8
1
 62
     1
100
AcDbLine
 10
51.31000440955165
 20
3.072586547486667
 30
0.0
 11
51.46308605509897
 21
3.281625375938171
 31
0.0
  0
LINE
  5
556
330
18
100
AcDbEntity
  8
1
 62
     1
100
AcDbLine
 10
51.46308605509897
 20
3.281625375938171
 30
0.0
 11
51.61345298923241
 21
3.471164699431146
 31
0.0
  0
LINE
  5
557
330
18
100
AcDbEntity
  8
1
 62
     1
100
AcDbLine
 10
51.61345298923241
 20
4.0
 30
0.0
 11
51.61345298923241
 21
3.999887487678777
 31
0.0
  0
LINE
  5
558
330
18
100
AcDbEntity
  8
1
 62
     1
100
AcDbLine
 10
51.61345298923241
 20
3.999887487678777
 30
0.0
 11
51.6134529892324
 21
3.965950348793222
 31
0.0
  0
LINE
  5
559
330
18
100
AcDbEntity
  8
1
 62
     1
100
AcDbLine
 10
51.6134529892324
 20
3.965950348793222
 30
0.0
 11
51.61345298923241
 21
3.471164699431147
 31
0.0
  0
LINE
  5
55A
330
18
100
AcDbEntity
  8
1
 62
     1
100
AcDbLine
 10
48.49999999999999
 20
2.605834969500407
 30
0.0
 11
48.5
 21
2.937468749999999
 31
0.0
  0
LINE
  5
55B
330
18
100
AcDbEntity
  8
1
 62
     1
100
AcDbLine
 10
48.5
 20
2.605834969500408
 30
0.0
 11
48.81000440955165
 21
3.07258654748667
 31
0.0
  0
LINE
  5
55C
330
18
100
AcDbEntity
  8
1
 62
     1
100
AcDbLine
 10
48.81000440955165
 20
3.07258654748667
 30
0.0
 11
48.96308605509897
 21
3.281625375938173
 31
0.0
  0
LINE
  5
55D
330
18
100
AcDbEntity
  8
1
 62
     1
100
AcDbLine
 10
48.96308605509897
 20
3.281625375938173
 30
0.0
 11
49.11345298923241
 21
3.471164699431149
 31
0.0
  0
LINE
  5
55E
330
18
100
AcDbEntity
  8
1
 62
     1
100
AcDbLine
 10
49.11345298923241
 20
4.0
 30
0.0
 11
49.11345298923241
 21
3.999887487678777
 31
0.0
  0
LINE
  5
55F
330
18
100
AcDbEntity
  8
1
 62
     1
100
AcDbLine
 10
49.11345298923241
 20
3.999887487678777
 30
0.0
 11
49.11345298923241
 21
3.965950348793221
 31
0.0
  0
LINE
  5
560
330
18
100
AcDbEntity
  8
1
 62
     1
100
AcDbLine
 10
49.11345298923241
 20
3.965950348793221
 30
0.0
 11
49.11345298923241
 21
3.471164699431147
 31
0.0
  0
LINE
  5
561
330
18
100
AcDbEntity
  8
1
 62
     1
100
AcDbLine
 10
48.06491032072882
 20
3.691065828981648
 30
0.0
 11
48.06491032072882
 21
3.690970535958582
 31
0.0
  0
LINE
  5
562
330
18
100
AcDbEntity
  8
1
 62
     1
100
AcDbLine
 10
48.06491032072882
 20
3.690970535958582
 30
0.0
 11
48.06491032072881
 21
3.662278570979125
 31
0.0
  0
LINE
  5
563
330
18
100
AcDbEntity
  8
1
 62
     1
100
AcDbLine
 10
48.06491032072881
 20
3.662278570979125
 30
0.0
 11
48.06491032072881
 21
3.244545689848525
 31
0.0
  0
ARC
  5
564
330
18
100
AcDbEntity
  8
1
 62
     1
100
AcDbCircle
 10
40.67929170082802
 20
-2.250025077147117
 30
0.0
 40
9.205354213246801
100
AcDbArc
 50
31.8360520786993
 51
36.64760210759199
  0
LINE
  5
565
330
18
100
AcDbEntity
  8
1
 62
     1
100
AcDbLine
 10
49.13654701076759
 20
4.0
 30
0.0
 11
49.13654701076759
 21
3.999887487678777
 31
0.0
  0
LINE
  5
566
330
18
100
AcDbEntity
  8
1
 62
     1
100
AcDbLine
 10
49.13654701076759
 20
3.999887487678777
 30
0.0
 11
49.13654701076759
 21
3.965950348793222
 31
0.0
  0
LINE
  5
567
330
18
100
AcDbEntity
  8
1
 62
     1
100
AcDbLine
 10
49.13654701076759
 20
3.965950348793222
 30
0.0
 11
49.13654701076759
 21
3.471164699431148
 31
0.0
  0
LINE
  5
568
330
18
100
AcDbEntity
  8
1
 62
     1
100
AcDbLine
 10
49.13654701076759
 20
3.471164699431145
 30
0.0
 11
49.28692044454831
 21
3.281616803217445
 31
0.0
  0
LINE
  5
569
330
18
100
AcDbEntity
  8
1
 62
     1
100
AcDbLine
 10
49.28692044454831
 20
3.281616803217445
 30
0.0
 11
49.43999730298531
 21
3.072584133199217
 31
0.0
  0
LINE
  5
56A
330
18
100
AcDbEntity
  8
1
 62
     1
100
AcDbLine
 10
49.43999730298531
 20
3.072584133199217
 30
0.0
 11
49.75
 21
2.605834969500408
 31
0.0
  0
LINE
  5
56B
330
18
100
AcDbEntity
  8
1
 62
     1
100
AcDbLine
 10
49.74999999999999
 20
2.605834969500407
 30
0.0
 11
49.75
 21
2.937468749999999
 31
0.0
  0
LINE
  5
56C
330
18
100
AcDbEntity
  8
1
 62
     1
100
AcDbLine
 10
49.75
 20
2.605834969500408
 30
0.0
 11
50.06000440955165
 21
3.072586547486667
 31
0.0
  0
LINE
  5
56D
330
18
100
AcDbEntity
  8
1
 62
     1
100
AcDbLine
 10
50.06000440955165
 20
3.072586547486667
 30
0.0
 11
50.21308605509897
 21
3.281625375938173
 31
0.0
  0
LINE
  5
56E
330
18
100
AcDbEntity
  8
1
 62
     1
100
AcDbLine
 10
50.21308605509897
 20
3.281625375938173
 30
0.0
 11
50.36345298923241
 21
3.471164699431145
 31
0.0
  0
LINE
  5
56F
330
18
100
AcDbEntity
  8
1
 62
     1
100
AcDbLine
 10
50.36345298923241
 20
4.0
 30
0.0
 11
50.36345298923241
 21
3.999887487678777
 31
0.0
  0
LINE
  5
570
330
18
100
AcDbEntity
  8
1
 62
     1
100
AcDbLine
 10
50.36345298923241
 20
3.999887487678777
 30
0.0
 11
50.3634529892324
 21
3.965950348793222
 31
0.0
  0
LINE
  5
571
330
18
100
AcDbEntity
  8
1
 62
     1
100
AcDbLine
 10
50.3634529892324
 20
3.965950348793222
 30
0.0
 11
50.36345298923241
 21
3.471164699431147
 31
0.0
  0
LINE
  5
572
330
18
100
AcDbEntity
  8
1
 62
     1
100
AcDbLine
 10
50.38654701076759
 20
4.0
 30
0.0
 11
50.38654701076759
 21
3.999887487678777
 31
0.0
  0
LINE
  5
573
330
18
100
AcDbEntity
  8
1
 62
     1
100
AcDbLine
 10
50.38654701076759
 20
3.999887487678777
 30
0.0
 11
50.38654701076758
 21
3.965950348793222
 31
0.0
  0
LINE
  5
574
330
18
100
AcDbEntity
  8
1
 62
     1
100
AcDbLine
 10
50.38654701076758
 20
3.965950348793222
 30
0.0
 11
50.38654701076759
 21
3.471164699431147
 31
0.0
  0
LINE
  5
575
330
18
100
AcDbEntity
  8
1
 62
     1
100
AcDbLine
 10
50.38654701076759
 20
3.471164699431149
 30
0.0
 11
50.5369204445483
 21
3.281616803217447
 31
0.0
  0
LINE
  5
576
330
18
100
AcDbEntity
  8
1
 62
     1
100
AcDbLine
 10
50.5369204445483
 20
3.281616803217447
 30
0.0
 11
50.68999730298533
 21
3.072584133199223
 31
0.0
  0
LINE
  5
577
330
18
100
AcDbEntity
  8
1
 62
     1
100
AcDbLine
 10
50.68999730298533
 20
3.072584133199223
 30
0.0
 11
51.0
 21
2.605834969500407
 31
0.0
  0
LINE
  5
578
330
18
100
AcDbEntity
  8
1
 62
     1
100
AcDbLine
 10
50.99999999999999
 20
2.605834969500407
 30
0.0
 11
51.00000000000001
 21
2.937468749999999
 31
0.0
  0
LINE
  5
579
330
18
100
AcDbEntity
  8
1
 62
     1
100
AcDbLine
 10
47.12741043049978
 20
3.149800013852881
 30
0.0
 11
47.12741043049978
 21
3.149724525487023
 31
0.0
  0
LINE
  5
57A
330
18
100
AcDbEntity
  8
1
 62
     1
100
AcDbLine
 10
47.12741043049978
 20
3.149724525487023
 30
0.0
 11
47.12741043049979
 21
3.127029663709359
 31
0.0
  0
LINE
  5
57B
330
18
100
AcDbEntity
  8
1
 62
     1
100
AcDbLine
 10
47.12741043049979
 20
3.127029663709359
 30
0.0
 11
47.12741043049978
 21
2.797059070205459
 31
0.0
  0
LINE
  5
57C
330
18
100
AcDbEntity
  8
1
 62
     1
100
AcDbLine
 10
47.24999999999999
 20
2.605834969500407
 30
0.0
 11
47.25
 21
2.937468749999999
 31
0.0
  0
LINE
  5
57D
330
18
100
AcDbEntity
  8
1
 62
     1
100
AcDbLine
 10
47.49517922512385
 20
3.362131426875754
 30
0.0
 11
47.49517922512386
 21
3.362049616132226
 31
0.0
  0
LINE
  5
57E
330
18
100
AcDbEntity
  8
1
 62
     1
100
AcDbLine
 10
47.49517922512386
 20
3.362049616132226
 30
0.0
 11
47.49517922512385
 21
3.337446545421905
 31
0.0
  0
LINE
  5
57F
330
18
100
AcDbEntity
  8
1
 62
     1
100
AcDbLine
 10
47.49517922512385
 20
3.337446545421905
 30
0.0
 11
47.49517922512385
 21
2.979628521999089
 31
0.0
  0
LINE
  5
580
330
18
100
AcDbEntity
  8
1
 62
     1
100
AcDbLine
 10
46.83330818
 20
-0.7344355623444542
 30
0.0
 11
46.83330818
 21
-2.511511127194302
 31
0.0
  0
LINE
  5
581
330
18
100
AcDbEntity
  8
1
 62
     1
100
AcDbLine
 10
46.83330818
 20
-0.4317868554890509
 30
0.0
 11
46.83330818
 21
-0.7344355623444375
 31
0.0
  0
LINE
  5
582
330
18
100
AcDbEntity
  8
1
 62
     1
100
AcDbLine
 10
46.83330818
 20
2.644832197006555
 30
0.0
 11
46.83330818
 21
-0.4317868554890493
 31
0.0
  0
LINE
  5
583
330
18
100
AcDbEntity
  8
1
 62
     1
100
AcDbLine
 10
46.83330818
 20
2.98
 30
0.0
 11
46.83330818
 21
2.979928283625073
 31
0.0
  0
LINE
  5
584
330
18
100
AcDbEntity
  8
1
 62
     1
100
AcDbLine
 10
46.83330818
 20
2.979928283625073
 30
0.0
 11
46.83330818
 21
2.958365653945888
 31
0.0
  0
LINE
  5
585
330
18
100
AcDbEntity
  8
1
 62
     1
100
AcDbLine
 10
46.83330818
 20
2.958365653945888
 30
0.0
 11
46.83330818
 21
2.644832197006441
 31
0.0
  0
LINE
  5
586
330
18
100
AcDbEntity
  8
1
 62
     1
100
AcDbLine
 10
67.70554631902688
 20
-1.534453680764831
 30
0.0
 11
67.7021308806895
 21
-1.53771944024034
 31
0.0
  0
LINE
  5
587
330
18
100
AcDbEntity
  8
1
 62
     1
100
AcDbLine
 10
67.7021308806895
 20
-1.53771944024034
 30
0.0
 11
67.69388257237475
 21
-1.544790192745598
 31
0.0
  0
LINE
  5
588
330
18
100
AcDbEntity
  8
1
 62
     1
100
AcDbLine
 10
67.69388257237475
 20
-1.544790192745598
 30
0.0
 11
67.68383027217939
 21
-1.552548450965351
 31
0.0
  0
LINE
  5
589
330
18
100
AcDbEntity
  8
1
 62
     1
100
AcDbLine
 10
67.68383027217939
 20
-1.552548450965351
 30
0.0
 11
67.65872892364949
 21
-1.569998348905127
 31
0.0
  0
LINE
  5
58A
330
18
100
AcDbEntity
  8
1
 62
     1
100
AcDbLine
 10
67.65872892364949
 20
-1.569998348905127
 30
0.0
 11
67.59169494552788
 21
-1.611720204241593
 31
0.0
  0
LINE
  5
58B
330
18
100
AcDbEntity
  8
1
 62
     1
100
AcDbLine
 10
67.59169494552788
 20
-1.611720204241593
 30
0.0
 11
67.19805386168905
 21
-1.844751364693414
 31
0.0
  0
LINE
  5
58C
330
18
100
AcDbEntity
  8
1
 62
     1
100
AcDbLine
 10
67.19805386168905
 20
-1.844751364693414
 30
0.0
 11
66.72632373336025
 21
-2.156445477899969
 31
0.0
  0
LINE
  5
58D
330
18
100
AcDbEntity
  8
1
 62
     1
100
AcDbLine
 10
66.72632373336025
 20
-2.156445477899969
 30
0.0
 11
66.36480787187278
 21
-2.427501002908845
 31
0.0
  0
LINE
  5
58E
330
18
100
AcDbEntity
  8
1
 62
     1
100
AcDbLine
 10
66.36480787187278
 20
-2.427501002908845
 30
0.0
 11
66.0
 21
-2.730529029388872
 31
0.0
  0
LINE
  5
58F
330
18
100
AcDbEntity
  8
1
 62
     1
100
AcDbLine
 10
67.70554631913102
 20
-1.534453680868987
 30
0.0
 11
69.24000000000001
 21
-0.0000000000000008
 31
0.0
  0
LINE
  5
590
330
18
100
AcDbEntity
  8
1
 62
     1
100
AcDbLine
 10
64.75
 20
2.937468749999999
 30
0.0
 11
64.45103479518312
 21
3.455291433003078
 31
0.0
  0
LINE
  5
591
330
18
100
AcDbEntity
  8
1
 62
     1
100
AcDbLine
 10
63.84740428052827
 20
3.539190334088978
 30
0.0
 11
63.50000000000001
 21
2.937468749999999
 31
0.0
  0
LINE
  5
592
330
18
100
AcDbEntity
  8
1
 62
     1
100
AcDbLine
 10
66.00000000000001
 20
2.937468749999999
 30
0.0
 11
65.81009419414369
 21
3.26639510103343
 31
0.0
  0
LINE
  5
593
330
18
100
AcDbEntity
  8
1
 62
     1
100
AcDbLine
 10
62.25000000000001
 20
2.93746875
 30
0.0
 11
61.732915997262
 21
3.833084096942371
 31
0.0
  0
LINE
  5
594
330
18
100
AcDbEntity
  8
1
 62
     1
100
AcDbLine
 10
62.69026069575418
 20
3.700022288081009
 30
0.0
 11
62.25000000000001
 21
2.937468749999999
 31
0.0
  0
LINE
  5
595
330
18
100
AcDbEntity
  8
1
 62
     1
100
AcDbLine
 10
63.50000000000001
 20
2.937468749999999
 30
0.0
 11
63.09197539622257
 21
3.644187764972711
 31
0.0
  0
LINE
  5
596
330
18
100
AcDbEntity
  8
1
 62
     1
100
AcDbLine
 10
65.00454786530237
 20
3.378358380096971
 30
0.0
 11
64.75
 21
2.937468749999999
 31
0.0
  0
LINE
  5
597
330
18
100
AcDbEntity
  8
1
 62
     1
100
AcDbLine
 10
59.11345298923242
 20
4.000000000000003
 30
0.0
 11
58.5
 21
2.937468749999999
 31
0.0
  0
LINE
  5
598
330
18
100
AcDbEntity
  8
1
 62
     1
100
AcDbLine
 10
59.75
 20
2.937468749999999
 30
0.0
 11
59.13654701076759
 21
4.000000000000002
 31
0.0
  0
LINE
  5
599
330
18
100
AcDbEntity
  8
1
 62
     1
100
AcDbLine
 10
60.36345298923244
 20
4.000000000000015
 30
0.0
 11
59.75
 21
2.937468749999999
 31
0.0
  0
LINE
  5
59A
330
18
100
AcDbEntity
  8
1
 62
     1
100
AcDbLine
 10
61.0
 20
2.937468749999999
 30
0.0
 11
60.3865470107676
 21
4.000000000000002
 31
0.0
  0
LINE
  5
59B
330
18
100
AcDbEntity
  8
1
 62
     1
100
AcDbLine
 10
61.53311711098006
 20
3.860854242072999
 30
0.0
 11
61.0
 21
2.937468749999999
 31
0.0
  0
LINE
  5
59C
330
18
100
AcDbEntity
  8
1
 62
     1
100
AcDbLine
 10
58.5
 20
2.937468749999999
 30
0.0
 11
57.88654701076759
 21
3.999999999999997
 31
0.0
  0
LINE
  5
59D
330
18
100
AcDbEntity
  8
1
 62
     1
100
AcDbLine
 10
53.50000000000001
 20
2.937468749999999
 30
0.0
 11
52.88654701076759
 21
4.000000000000002
 31
0.0
  0
LINE
  5
59E
330
18
100
AcDbEntity
  8
1
 62
     1
100
AcDbLine
 10
54.11345298923241
 20
3.999999999999998
 30
0.0
 11
53.50000000000001
 21
2.937468749999999
 31
0.0
  0
LINE
  5
59F
330
18
100
AcDbEntity
  8
1
 62
     1
100
AcDbLine
 10
54.75000000000001
 20
2.93746875
 30
0.0
 11
54.13654701076759
 21
3.999999999999992
 31
0.0
  0
LINE
  5
5A0
330
18
100
AcDbEntity
  8
1
 62
     1
100
AcDbLine
 10
55.36345298923241
 20
3.999999999999998
 30
0.0
 11
54.75000000000001
 21
2.937468749999999
 31
0.0
  0
LINE
  5
5A1
330
18
100
AcDbEntity
  8
1
 62
     1
100
AcDbLine
 10
56.00000000000001
 20
2.937468749999999
 30
0.0
 11
55.38654701076759
 21
4.000000000000002
 31
0.0
  0
LINE
  5
5A2
330
18
100
AcDbEntity
  8
1
 62
     1
100
AcDbLine
 10
56.61345298923241
 20
4.000000000000002
 30
0.0
 11
56.00000000000001
 21
2.937468749999999
 31
0.0
  0
LINE
  5
5A3
330
18
100
AcDbEntity
  8
1
 62
     1
100
AcDbLine
 10
57.25000000000001
 20
2.937468749999999
 30
0.0
 11
56.63654701076759
 21
3.999999999999995
 31
0.0
  0
LINE
  5
5A4
330
18
100
AcDbEntity
  8
1
 62
     1
100
AcDbLine
 10
57.86345298923241
 20
4.000000000000002
 30
0.0
 11
57.25000000000001
 21
2.937468749999999
 31
0.0
  0
LINE
  5
5A5
330
18
100
AcDbEntity
  8
1
 62
     1
100
AcDbLine
 10
52.25000000000001
 20
2.937468749999999
 30
0.0
 11
51.63654701076759
 21
3.999999999999992
 31
0.0
  0
LINE
  5
5A6
330
18
100
AcDbEntity
  8
1
 62
     1
100
AcDbLine
 10
52.86345298923241
 20
3.999999999999998
 30
0.0
 11
52.25000000000001
 21
2.937468749999999
 31
0.0
  0
LINE
  5
5A7
330
18
100
AcDbEntity
  8
1
 62
     1
100
AcDbLine
 10
51.61345298923241
 20
3.999999999999998
 30
0.0
 11
51.00000000000001
 21
2.937468749999999
 31
0.0
  0
LINE
  5
5A8
330
18
100
AcDbEntity
  8
1
 62
     1
100
AcDbLine
 10
49.11345298923241
 20
4.000000000000002
 30
0.0
 11
48.5
 21
2.937468749999999
 31
0.0
  0
LINE
  5
5A9
330
18
100
AcDbEntity
  8
1
 62
     1
100
AcDbLine
 10
48.49999999999999
 20
2.937468749999999
 30
0.0
 11
48.06491032072882
 21
3.691065828981647
 31
0.0
  0
LINE
  5
5AA
330
18
100
AcDbEntity
  8
1
 62
     1
100
AcDbLine
 10
49.75000000000001
 20
2.93746875
 30
0.0
 11
49.13654701076759
 21
3.999999999999997
 31
0.0
  0
LINE
  5
5AB
330
18
100
AcDbEntity
  8
1
 62
     1
100
AcDbLine
 10
50.3634529892324
 20
3.999999999999997
 30
0.0
 11
49.74999999999999
 21
2.937468749999999
 31
0.0
  0
LINE
  5
5AC
330
18
100
AcDbEntity
  8
1
 62
     1
100
AcDbLine
 10
51.00000000000001
 20
2.937468749999999
 30
0.0
 11
50.38654701076759
 21
4.000000000000002
 31
0.0
  0
LINE
  5
5AD
330
18
100
AcDbEntity
  8
1
 62
     1
100
AcDbLine
 10
47.25
 20
2.937468749999999
 30
0.0
 11
47.12741043049978
 21
3.149800013852875
 31
0.0
  0
LINE
  5
5AE
330
18
100
AcDbEntity
  8
1
 62
     1
100
AcDbLine
 10
47.49517922512386
 20
3.362131426875762
 30
0.0
 11
47.25
 21
2.937468749999999
 31
0.0
  0
LINE
  5
5AF
330
18
100
AcDbEntity
  8
SK1
100
AcDbLine
 10
0.0000000000000036
 20
4.0
 30
0.0
 11
-15.06
 21
4.0
 31
0.0
  0
LINE
  5
5B0
330
18
100
AcDbEntity
  8
SK1
100
AcDbLine
 10
-23.66
 20
-3.100000000000001
 30
0.0
 11
-15.05999999999999
 21
-3.100000000000001
 31
0.0
  0
LINE
  5
5B1
330
18
100
AcDbEntity
  8
SK1
100
AcDbLine
 10
-15.05999999999999
 20
-3.099999999999976
 30
0.0
 11
-15.06
 21
-4.0
 31
0.0
  0
LINE
  5
5B2
330
18
100
AcDbEntity
  8
SK1
100
AcDbLine
 10
-23.66
 20
2.527844931952908
 30
0.0
 11
-15.06
 21
2.527844931952908
 31
0.0
  0
ARC
  5
5B3
330
18
100
AcDbEntity
  8
SK1
100
AcDbCircle
 10
-16.51660051049982
 20
-2.03570525695105
 30
0.0
 40
8.476422949494246
100
AcDbArc
 50
147.4275854344567
 51
152.8647789262311
  0
LINE
  5
5B4
330
18
100
AcDbEntity
  8
SK1
100
AcDbLine
 10
-23.66
 20
3.099999999999976
 30
0.0
 11
-23.66
 21
2.527844931952908
 31
0.0
  0
LINE
  5
5B5
330
18
100
AcDbEntity
  8
SK1
100
AcDbLine
 10
-24.06
 20
3.100000000000001
 30
0.0
 11
-23.66
 21
3.100000000000001
 31
0.0
  0
LINE
  5
5B6
330
18
100
AcDbEntity
  8
SK1
100
AcDbLine
 10
-15.06
 20
4.0
 30
0.0
 11
-15.06
 21
3.999811216513347
 31
0.0
  0
LINE
  5
5B7
330
18
100
AcDbEntity
  8
SK1
100
AcDbLine
 10
-15.06
 20
3.999811216513347
 30
0.0
 11
-15.06
 21
3.942171026145378
 31
0.0
  0
LINE
  5
5B8
330
18
100
AcDbEntity
  8
SK1
100
AcDbLine
 10
-15.06
 20
3.942171026145378
 30
0.0
 11
-15.05999999999999
 21
3.099999999999976
 31
0.0
  0
LINE
  5
5B9
330
18
100
AcDbEntity
  8
SK1
100
AcDbLine
 10
-23.65999999999999
 20
3.100000000000001
 30
0.0
 11
-15.06
 21
3.100000000000001
 31
0.0
  0
LINE
  5
5BA
330
18
100
AcDbEntity
  8
SK1
100
AcDbLine
 10
-23.66
 20
-2.527844931952906
 30
0.0
 11
-15.06
 21
-2.527844931952906
 31
0.0
  0
LINE
  5
5BB
330
18
100
AcDbEntity
  8
SK1
100
AcDbLine
 10
-23.66
 20
-2.527844931952936
 30
0.0
 11
-23.66
 21
-3.099999999999976
 31
0.0
  0
LINE
  5
5BC
330
18
100
AcDbEntity
  8
SK1
100
AcDbLine
 10
-24.06
 20
3.099999999999997
 30
0.0
 11
-24.06
 21
1.830300521772314
 31
0.0
  0
LINE
  5
5BD
330
18
100
AcDbEntity
  8
SK1
100
AcDbLine
 10
-24.06
 20
-1.830300521772311
 30
0.0
 11
-24.06
 21
-3.100000000000001
 31
0.0
  0
ARC
  5
5BE
330
18
100
AcDbEntity
  8
SK1
100
AcDbCircle
 10
-16.51660051050393
 20
2.035705256948764
 30
0.0
 40
8.476422949489542
100
AcDbArc
 50
207.1352210737679
 51
212.5724145655452
  0
LINE
  5
5BF
330
18
100
AcDbEntity
  8
SK1
100
AcDbLine
 10
-24.06
 20
-3.100000000000001
 30
0.0
 11
-23.66
 21
-3.1
 31
0.0
  0
LINE
  5
5C0
330
18
100
AcDbEntity
  8
SK1
100
AcDbLine
 10
-15.06
 20
2.52784493195291
 30
0.0
 11
-15.06
 21
-2.527844931952906
 31
0.0
  0
LINE
  5
5C1
330
18
100
AcDbEntity
  8
SK1
100
AcDbLine
 10
-24.06
 20
1.830300521772313
 30
0.0
 11
-24.06
 21
-1.830300521772312
 31
0.0
  0
LINE
  5
5C2
330
18
100
AcDbEntity
  8
SK1
100
AcDbLine
 10
-15.06
 20
-4.0
 30
0.0
 11
0.0000000000000053
 21
-4.0
 31
0.0
  0
DIMENSION
  5
5C3
330
18
100
AcDbEntity
  8
2
100
AcDbDimension
  2
*D0
 10
81.00000000000003
 20
-3.999999999999948
 30
0.0
 11
78.60925000000002
 21
0.0000000000000435
 31
0.0
 70
    32
  1
M8
 71
     5
 42
8.0
  3
STANDARD
100
AcDbAlignedDimension
 13
66.0
 23
4.0
 33
0.0
 14
66.0
 24
-4.0
 34
0.0
 50
90.0000000000002
100
AcDbRotatedDimension
  0
DIMENSION
  5
5D0
330
18
100
AcDbEntity
  8
2
100
AcDbDimension
  2
*D1
 10
66.0
 20
75.0
 30
0.0
 11
33.0
 21
77.39075
 31
0.0
 70
    32
  1
<>
 71
     5
 42
66.0
  3
STANDARD
100
AcDbAlignedDimension
 13
0.0
 23
0.0
 33
0.0
 14
66.0
 24
0.0
 34
0.0
100
AcDbRotatedDimension
  0
DIMENSION
  5
5DD
330
18
100
AcDbEntity
  8
SK2
100
AcDbDimension
  2
*D2
 10
-39.05999999997958
 20
-4.000000000122482
 30
0.0
 11
-41.45074999999999
 21
-0.0000000001346832
 31
0.0
 70
    32
  1
%%c<>
 71
     5
 42
8.0
  3
STANDARD
100
AcDbAlignedDimension
 13
-15.06
 23
4.0
 33
0.0
 14
-15.06
 24
-4.0
 34
0.0
 50
90.0000000002924
100
AcDbRotatedDimension
  0
DIMENSION
  5
5EA
330
18
100
AcDbEntity
  8
2
100
AcDbDimension
  2
*D3
 10
66.0
 20
60.0
 30
0.0
 11
56.41665409
 21
62.39775
 31
0.0
 70
    32
  1
<>
 71
     5
 42
19.16669182
  3
STANDARD
100
AcDbAlignedDimension
 13
46.83330818
 23
2.98
 33
0.0
 14
66.0
 24
4.0
 34
0.0
100
AcDbRotatedDimension
  0
DIMENSION
  5
5F7
330
18
100
AcDbEntity
  8
SK2
100
AcDbDimension
  2
*D4
 10
69.24
 20
90.0
 30
0.0
 11
22.59
 21
92.39775
 31
0.0
 70
    32
  1
<>
 71
     5
 42
93.3
  3
STANDARD
100
AcDbAlignedDimension
 13
-24.06
 23
4.0
 33
0.0
 14
69.24
 24
4.0
 34
0.0
100
AcDbRotatedDimension
  0
ENDSEC
  0
SECTION
  2
OBJECTS
  0
DICTIONARY
  5
C
330
0
100
AcDbDictionary
281
     1
  3
ACAD_COLOR
350
387
  3
ACAD_GROUP
350
D
  3
ACAD_LAYOUT
350
301
  3
ACAD_MATERIAL
350
386
  3
ACAD_MLEADERSTYLE
350
604
  3
ACAD_MLINESTYLE
350
E
  3
ACAD_PLOTSETTINGS
350
302
  3
ACAD_PLOTSTYLENAME
350
2FF
  3
ACAD_SCALELIST
350
3A0
  3
ACAD_TABLESTYLE
350
388
  3
ACAD_VISUALSTYLE
350
3C5
  3
ACDBHEADERROUNDTRIPXREC
350
605
  3
AcDbVariableDictionary
350
357
  0
DICTIONARY
  5
387
102
{ACAD_REACTORS
330
C
102
}
330
C
100
AcDbDictionary
281
     1
  0
DICTIONARY
  5
D
102
{ACAD_REACTORS
330
C
102
}
330
C
100
AcDbDictionary
281
     1
  0
DICTIONARY
  5
301
102
{ACAD_REACTORS
330
C
102
}
330
C
100
AcDbDictionary
281
     1
  3
Layout1
350
33B
  3
Model
350
303
  0
DICTIONARY
  5
386
102
{ACAD_REACTORS
330
C
102
}
330
C
100
AcDbDictionary
281
     1
  3
ByBlock
350
3C3
  3
ByLayer
350
3C2
  3
Global
350
3C4
  0
DICTIONARY
  5
604
102
{ACAD_REACTORS
330
C
102
}
330
C
100
AcDbDictionary
281
     1
  0
DICTIONARY
  5
E
102
{ACAD_REACTORS
330
C
102
}
330
C
100
AcDbDictionary
281
     1
  3
STANDARD
350
1B
  0
DICTIONARY
  5
302
102
{ACAD_REACTORS
330
C
102
}
330
C
100
AcDbDictionary
281
     1
  0
ACDBDICTIONARYWDFLT
  5
2FF
102
{ACAD_REACTORS
330
C
102
}
330
C
100
AcDbDictionary
281
     1
  3
Normal
350
300
100
AcDbDictionaryWithDefault
340
300
  0
DICTIONARY
  5
3A0
102
{ACAD_REACTORS
330
C
102
}
330
C
100
AcDbDictionary
281
     1
  3
A0
350
3A1
  3
A1
350
3A2
  3
A2
350
3A3
  3
A3
350
3A4
  3
A4
350
3A5
  3
A5
350
3A6
  3
A6
350
3A7
  3
A7
350
3A8
  3
A8
350
3A9
  3
A9
350
3AA
  3
B0
350
3AB
  3
B1
350
3AC
  3
B2
350
3AD
  3
B3
350
3AE
  3
B4
350
3AF
  3
B5
350
3B0
  3
B6
350
3B1
  3
B7
350
3B2
  3
B8
350
3B3
  3
B9
350
3B4
  3
C0
350
3B5
  3
C1
350
3B6
  3
C2
350
3B7
  3
C3
350
3B8
  3
C4
350
3B9
  3
C5
350
3BA
  3
C6
350
3BB
  3
C7
350
3BC
  3
C8
350
3BD
  3
C9
350
3BE
  3
D0
350
3BF
  3
D1
350
3C0
  3
D2
350
3C1
  0
DICTIONARY
  5
388
102
{ACAD_REACTORS
330
C
102
}
330
C
100
AcDbDictionary
281
     1
  3
Standard
350
389
  0
DICTIONARY
  5
3C5
102
{ACAD_REACTORS
330
C
102
}
330
C
100
AcDbDictionary
281
     1
  3
2dWireframe
350
3CA
  3
3D Hidden
350
3CC
  3
3dWireframe
350
3CB
  3
Basic
350
3CD
  3
Brighten
350
3D1
  3
ColorChange
350
3D5
  3
Conceptual
350
3CF
  3
Dim
350
3D0
  3
Facepattern
350
3D4
  3
Flat
350
3C6
  3
FlatWithEdges
350
3C7
  3
Gouraud
350
3C8
  3
GouraudWithEdges
350
3C9
  3
Linepattern
350
3D3
  3
Realistic
350
3CE
  3
Thicken
350
3D2
  0
DICTIONARY
  5
605
102
{ACAD_REACTORS
330
C
102
}
330
C
100
AcDbDictionary
281
     1
  3
COLORDICT
350
606
  3
MATERIALDICT
350
607
  0
DICTIONARY
  5
357
102
{ACAD_REACTORS
330
C
102
}
330
C
100
AcDbDictionary
281
     1
  3
CANNOSCALE
350
608
  3
CTABLESTYLE
350
38D
  3
DIMASSOC
350
359
  3
HIDETEXT
350
358
  3
PROJECTNAME
350
38E
  0
LAYOUT
  5
33B
102
{ACAD_REACTORS
330
301
102
}
330
301
100
AcDbPlotSettings
  1

  2
Lexmark Optra PS2
  4

  6

 40
0.0
 41
0.0
 42
0.0
 43
0.0
 44
0.0
 45
0.0
 46
0.0
 47
0.0
 48
0.0
 49
0.0
140
0.0
141
0.0
142
1.0
143
1.0
 70
   688
 72
     0
 73
     0
 74
     5
  7
monochrome.ctb
 75
    16
147
1.0
148
0.0
149
0.0
100
AcDbLayout
  1
Layout1
 70
     1
 71
     1
 10
0.0
 20
0.0
 11
12.0
 21
9.0
 12
0.0
 22
0.0
 32
0.0
 14
0.0
 24
0.0
 34
0.0
 15
0.0
 25
0.0
 35
0.0
146
0.0
 13
0.0
 23
0.0
 33
0.0
 16
1.0
 26
0.0
 36
0.0
 17
0.0
 27
1.0
 37
0.0
 76
     0
330
338
  0
LAYOUT
  5
303
102
{ACAD_REACTORS
330
301
102
}
330
301
100
AcDbPlotSettings
  1

  2
Lexmark Optra Rx
  4
A4
  6

 40
6.805083274841307
 41
5.535083293914794
 42
6.974411010742187
 43
7.14373779296875
 44
209.9733276367186
 45
296.9259948730469
 46
0.0
 47
0.0
 48
0.0
 49
0.0
140
0.0
141
0.0
142
1.0
143
2.976565420630886
 70
 11952
 72
     1
 73
     1
 74
     0
  7
monochrome.ctb
 75
     0
147
0.335957675604539
148
204.1199660668592
149
172.3933209647495
100
AcDbLayout
  1
Model
 70
     1
 71
     0
 10
0.0
 20
0.0
 11
12.0
 21
9.0
 12
0.0
 22
0.0
 32
0.0
 14
0.0
 24
0.0
 34
0.0
 15
0.0
 25
0.0
 35
0.0
146
0.0
 13
0.0
 23
0.0
 33
0.0
 16
1.0
 26
0.0
 36
0.0
 17
0.0
 27
1.0
 37
0.0
 76
     0
330
18
331
39A
  0
MATERIAL
  5
3C3
102
{ACAD_REACTORS
330
386
102
}
102
{ACAD_XDICTIONARY
360
60B
102
}
330
386
100
AcDbMaterial
  1
ByBlock
  0
MATERIAL
  5
3C2
102
{ACAD_REACTORS
330
386
102
}
102
{ACAD_XDICTIONARY
360
609
102
}
330
386
100
AcDbMaterial
  1
ByLayer
  0
MATERIAL
  5
3C4
102
{ACAD_REACTORS
330
386
102
}
102
{ACAD_XDICTIONARY
360
60D
102
}
330
386
100
AcDbMaterial
  1
Global
  0
MLINESTYLE
  5
1B
102
{ACAD_REACTORS
330
E
102
}
330
E
100
AcDbMlineStyle
  2
STANDARD
 70
     0
  3

 62
     0
 51
90.0
 52
90.0
 71
     2
 49
0.5
 62
   256
  6
BYLAYER
 49
-0.5
 62
   256
  6
BYLAYER
  0
ACDBPLACEHOLDER
  5
300
102
{ACAD_REACTORS
330
2FF
102
}
330
2FF
  0
SCALE
  5
3A1
102
{ACAD_REACTORS
330
3A0
102
}
330
3A0
100
AcDbScale
 70
     0
300
1:1
140
1.0
141
1.0
290
     1
  0
SCALE
  5
3A2
102
{ACAD_REACTORS
330
3A0
102
}
330
3A0
100
AcDbScale
 70
     0
300
1:2
140
1.0
141
2.0
290
     0
  0
SCALE
  5
3A3
102
{ACAD_REACTORS
330
3A0
102
}
330
3A0
100
AcDbScale
 70
     0
300
1:4
140
1.0
141
4.0
290
     0
  0
SCALE
  5
3A4
102
{ACAD_REACTORS
330
3A0
102
}
330
3A0
100
AcDbScale
 70
     0
300
1:5
140
1.0
141
5.0
290
     0
  0
SCALE
  5
3A5
102
{ACAD_REACTORS
330
3A0
102
}
330
3A0
100
AcDbScale
 70
     0
300
1:8
140
1.0
141
8.0
290
     0
  0
SCALE
  5
3A6
102
{ACAD_REACTORS
330
3A0
102
}
330
3A0
100
AcDbScale
 70
     0
300
1:10
140
1.0
141
10.0
290
     0
  0
SCALE
  5
3A7
102
{ACAD_REACTORS
330
3A0
102
}
330
3A0
100
AcDbScale
 70
     0
300
1:16
140
1.0
141
16.0
290
     0
  0
SCALE
  5
3A8
102
{ACAD_REACTORS
330
3A0
102
}
330
3A0
100
AcDbScale
 70
     0
300
1:20
140
1.0
141
20.0
290
     0
  0
SCALE
  5
3A9
102
{ACAD_REACTORS
330
3A0
102
}
330
3A0
100
AcDbScale
 70
     0
300
1:30
140
1.0
141
30.0
290
     0
  0
SCALE
  5
3AA
102
{ACAD_REACTORS
330
3A0
102
}
330
3A0
100
AcDbScale
 70
     0
300
1:40
140
1.0
141
40.0
290
     0
  0
SCALE
  5
3AB
102
{ACAD_REACTORS
330
3A0
102
}
330
3A0
100
AcDbScale
 70
     0
300
1:50
140
1.0
141
50.0
290
     0
  0
SCALE
  5
3AC
102
{ACAD_REACTORS
330
3A0
102
}
330
3A0
100
AcDbScale
 70
     0
300
1:100
140
1.0
141
100.0
290
     0
  0
SCALE
  5
3AD
102
{ACAD_REACTORS
330
3A0
102
}
330
3A0
100
AcDbScale
 70
     0
300
2:1
140
2.0
141
1.0
290
     0
  0
SCALE
  5
3AE
102
{ACAD_REACTORS
330
3A0
102
}
330
3A0
100
AcDbScale
 70
     0
300
4:1
140
4.0
141
1.0
290
     0
  0
SCALE
  5
3AF
102
{ACAD_REACTORS
330
3A0
102
}
330
3A0
100
AcDbScale
 70
     0
300
8:1
140
8.0
141
1.0
290
     0
  0
SCALE
  5
3B0
102
{ACAD_REACTORS
330
3A0
102
}
330
3A0
100
AcDbScale
 70
     0
300
10:1
140
10.0
141
1.0
290
     0
  0
SCALE
  5
3B1
102
{ACAD_REACTORS
330
3A0
102
}
330
3A0
100
AcDbScale
 70
     0
300
100:1
140
100.0
141
1.0
290
     0
  0
SCALE
  5
3B2
102
{ACAD_REACTORS
330
3A0
102
}
330
3A0
100
AcDbScale
 70
     0
300
1/128" = 1'-0"
140
0.0078125
141
12.0
290
     0
  0
SCALE
  5
3B3
102
{ACAD_REACTORS
330
3A0
102
}
330
3A0
100
AcDbScale
 70
     0
300
1/64" = 1'-0"
140
0.015625
141
12.0
290
     0
  0
SCALE
  5
3B4
102
{ACAD_REACTORS
330
3A0
102
}
330
3A0
100
AcDbScale
 70
     0
300
1/32" = 1'-0"
140
0.03125
141
12.0
290
     0
  0
SCALE
  5
3B5
102
{ACAD_REACTORS
330
3A0
102
}
330
3A0
100
AcDbScale
 70
     0
300
1/16" = 1'-0"
140
0.0625
141
12.0
290
     0
  0
SCALE
  5
3B6
102
{ACAD_REACTORS
330
3A0
102
}
330
3A0
100
AcDbScale
 70
     0
300
3/32" = 1'-0"
140
0.09375
141
12.0
290
     0
  0
SCALE
  5
3B7
102
{ACAD_REACTORS
330
3A0
102
}
330
3A0
100
AcDbScale
 70
     0
300
1/8" = 1'-0"
140
0.125
141
12.0
290
     0
  0
SCALE
  5
3B8
102
{ACAD_REACTORS
330
3A0
102
}
330
3A0
100
AcDbScale
 70
     0
300
3/16" = 1'-0"
140
0.1875
141
12.0
290
     0
  0
SCALE
  5
3B9
102
{ACAD_REACTORS
330
3A0
102
}
330
3A0
100
AcDbScale
 70
     0
300
1/4" = 1'-0"
140
0.25
141
12.0
290
     0
  0
SCALE
  5
3BA
102
{ACAD_REACTORS
330
3A0
102
}
330
3A0
100
AcDbScale
 70
     0
300
3/8" = 1'-0"
140
0.375
141
12.0
290
     0
  0
SCALE
  5
3BB
102
{ACAD_REACTORS
330
3A0
102
}
330
3A0
100
AcDbScale
 70
     0
300
1/2" = 1'-0"
140
0.5
141
12.0
290
     0
  0
SCALE
  5
3BC
102
{ACAD_REACTORS
330
3A0
102
}
330
3A0
100
AcDbScale
 70
     0
300
3/4" = 1'-0"
140
0.75
141
12.0
290
     0
  0
SCALE
  5
3BD
102
{ACAD_REACTORS
330
3A0
102
}
330
3A0
100
AcDbScale
 70
     0
300
1" = 1'-0"
140
1.0
141
12.0
290
     0
  0
SCALE
  5
3BE
102
{ACAD_REACTORS
330
3A0
102
}
330
3A0
100
AcDbScale
 70
     0
300
1-1/2" = 1'-0"
140
1.5
141
12.0
290
     0
  0
SCALE
  5
3BF
102
{ACAD_REACTORS
330
3A0
102
}
330
3A0
100
AcDbScale
 70
     0
300
3" = 1'-0"
140
3.0
141
12.0
290
     0
  0
SCALE
  5
3C0
102
{ACAD_REACTORS
330
3A0
102
}
330
3A0
100
AcDbScale
 70
     0
300
6" = 1'-0"
140
6.0
141
12.0
290
     0
  0
SCALE
  5
3C1
102
{ACAD_REACTORS
330
3A0
102
}
330
3A0
100
AcDbScale
 70
     0
300
1'-0" = 1'-0"
140
12.0
141
12.0
290
     0
  0
TABLESTYLE
  5
389
102
{ACAD_REACTORS
330
388
102
}
330
388
100
AcDbTableStyle
  3
Standard
 70
     0
 71
     0
 40
1.5
 41
1.5
280
     0
281
     0
  7
STANDARD
140
4.5
170
     2
 62
     0
 63
   257
283
     0
274
    -2
284
     1
 64
     0
275
    -2
285
     1
 65
     0
276
    -2
286
     1
 66
     0
277
    -2
287
     1
 67
     0
278
    -2
288
     1
 68
     0
279
    -2
289
     1
 69
     0
  7
STANDARD
140
6.0
170
     5
 62
     0
 63
   257
283
     0
274
    -2
284
     1
 64
     0
275
    -2
285
     1
 65
     0
276
    -2
286
     1
 66
     0
277
    -2
287
     1
 67
     0
278
    -2
288
     1
 68
     0
279
    -2
289
     1
 69
     0
  7
STANDARD
140
4.5
170
     5
 62
     0
 63
   257
283
     0
274
    -2
284
     1
 64
     0
275
    -2
285
     1
 65
     0
276
    -2
286
     1
 66
     0
277
    -2
287
     1
 67
     0
278
    -2
288
     1
 68
     0
279
    -2
289
     1
 69
     0
  0
VISUALSTYLE
  5
3CA
102
{ACAD_REACTORS
330
3C5
102
}
102
{ACAD_XDICTIONARY
360
617
102
}
330
3C5
100
AcDbVisualStyle
  2
2dWireframe
 70
     4
 71
     0
 72
     2
 73
     0
 90
        0
 40
-0.6
 41
-30.0
 62
     5
 63
     7
 74
     1
 91
        4
 64
     7
 65
   257
 75
     1
175
     1
 42
1.0
 92
        0
 66
   257
 43
1.0
 76
     1
 77
     6
 78
     2
 67
     7
 79
     5
170
     0
171
     0
290
     0
174
     0
 93
        1
 44
0.0
173
     0
291
     0
 45
0.0
1001
ACAD
1000
AcDbSavedByObjectVersion
1070
     0
  0
VISUALSTYLE
  5
3CC
102
{ACAD_REACTORS
330
3C5
102
}
102
{ACAD_XDICTIONARY
360
61B
102
}
330
3C5
100
AcDbVisualStyle
  2
3D Hidden
 70
     6
 71
     1
 72
     2
 73
     2
 90
        0
 40
-0.6
 41
-30.0
 62
     5
 63
     7
 74
     2
 91
        2
 64
     7
 65
   257
 75
     2
175
     1
 42
40.0
 92
        0
 66
   257
 43
1.0
 76
     1
 77
     6
 78
     2
 67
     7
 79
     3
170
     0
171
     0
290
     0
174
     0
 93
        1
 44
0.0
173
     0
291
     0
 45
0.0
1001
ACAD
1000
AcDbSavedByObjectVersion
1070
     0
  0
VISUALSTYLE
  5
3CB
102
{ACAD_REACTORS
330
3C5
102
}
102
{ACAD_XDICTIONARY
360
619
102
}
330
3C5
100
AcDbVisualStyle
  2
3dWireframe
 70
     5
 71
     0
 72
     2
 73
     0
 90
        0
 40
-0.6
 41
-30.0
 62
     5
 63
     7
 74
     1
 91
        4
 64
     7
 65
   257
 75
     1
175
     1
 42
1.0
 92
        0
 66
   257
 43
1.0
 76
     1
 77
     6
 78
     2
 67
     7
 79
     5
170
     0
171
     0
290
     0
174
     0
 93
        1
 44
0.0
173
     0
291
     0
 45
0.0
1001
ACAD
1000
AcDbSavedByObjectVersion
1070
     0
  0
VISUALSTYLE
  5
3CD
102
{ACAD_REACTORS
330
3C5
102
}
102
{ACAD_XDICTIONARY
360
61D
102
}
330
3C5
100
AcDbVisualStyle
  2
Basic
 70
     7
 71
     1
 72
     0
 73
     1
 90
        0
 40
-0.6
 41
-30.0
 62
     5
 63
     7
 74
     0
 91
        4
 64
     7
 65
   257
 75
     1
175
     1
 42
1.0
 92
        8
 66
     7
 43
1.0
 76
     1
 77
     6
 78
     2
 67
     7
 79
     5
170
     0
171
     0
290
     0
174
     0
 93
        1
 44
0.0
173
     0
291
     1
 45
0.0
1001
ACAD
1000
AcDbSavedByObjectVersion
1070
     0
  0
VISUALSTYLE
  5
3D1
102
{ACAD_REACTORS
330
3C5
102
}
102
{ACAD_XDICTIONARY
360
625
102
}
330
3C5
100
AcDbVisualStyle
  2
Brighten
 70
    12
 71
     2
 72
     2
 73
     0
 90
        0
 40
-0.6
 41
-30.0
 62
     5
 63
     7
 74
     1
 91
        4
 64
     7
 65
   257
 75
     1
175
     1
 42
1.0
 92
        8
 66
     7
 43
1.0
 76
     1
 77
     6
 78
     2
 67
     7
 79
     5
170
     0
171
     0
290
     0
174
     0
 93
        1
 44
50.0
173
     0
291
     1
 45
0.0
1001
ACAD
1000
AcDbSavedByObjectVersion
1070
     0
  0
VISUALSTYLE
  5
3D5
102
{ACAD_REACTORS
330
3C5
102
}
102
{ACAD_XDICTIONARY
360
62D
102
}
330
3C5
100
AcDbVisualStyle
  2
ColorChange
 70
    16
 71
     2
 72
     2
 73
     3
 90
        0
 40
-0.6
 41
-30.0
 62
     5
 63
     8
 74
     1
 91
        4
 64
     7
 65
   257
 75
     1
175
     1
 42
1.0
 92
        8
 66
     8
 43
1.0
 76
     1
 77
     6
 78
     2
 67
     7
 79
     5
170
     0
171
     0
290
     0
174
     0
 93
        1
 44
0.0
173
     0
291
     1
 45
0.0
1001
ACAD
1000
AcDbSavedByObjectVersion
1070
     0
  0
VISUALSTYLE
  5
3CF
102
{ACAD_REACTORS
330
3C5
102
}
102
{ACAD_XDICTIONARY
360
621
102
}
330
3C5
100
AcDbVisualStyle
  2
Conceptual
 70
     9
 71
     3
 72
     2
 73
     0
 90
        0
 40
-0.6
 41
-30.0
 62
     5
 63
     7
 74
     2
 91
        2
 64
     7
 65
   257
 75
     1
175
     1
 42
40.0
 92
        8
 66
     7
 43
1.0
 76
     1
 77
     6
 78
     2
 67
     7
 79
     3
170
     0
171
     0
290
     0
174
     0
 93
        1
 44
0.0
173
     0
291
     0
 45
0.0
1001
ACAD
1000
AcDbSavedByObjectVersion
1070
     0
  0
VISUALSTYLE
  5
3D0
102
{ACAD_REACTORS
330
3C5
102
}
102
{ACAD_XDICTIONARY
360
623
102
}
330
3C5
100
AcDbVisualStyle
  2
Dim
 70
    11
 71
     2
 72
     2
 73
     0
 90
        0
 40
-0.6
 41
-30.0
 62
     5
 63
     7
 74
     1
 91
        4
 64
     7
 65
   257
 75
     1
175
     1
 42
1.0
 92
        8
 66
     7
 43
1.0
 76
     1
 77
     6
 78
     2
 67
     7
 79
     5
170
     0
171
     0
290
     0
174
     0
 93
        1
 44
-50.0
173
     0
291
     1
 45
0.0
1001
ACAD
1000
AcDbSavedByObjectVersion
1070
     0
  0
VISUALSTYLE
  5
3D4
102
{ACAD_REACTORS
330
3C5
102
}
102
{ACAD_XDICTIONARY
360
62B
102
}
330
3C5
100
AcDbVisualStyle
  2
Facepattern
 70
    15
 71
     2
 72
     2
 73
     0
 90
        0
 40
-0.6
 41
-30.0
 62
     5
 63
     7
 74
     1
 91
        4
 64
     7
 65
   257
 75
     1
175
     1
 42
1.0
 92
        8
 66
     7
 43
1.0
 76
     1
 77
     6
 78
     2
 67
     7
 79
     5
170
     0
171
     0
290
     0
174
     0
 93
        1
 44
0.0
173
     0
291
     1
 45
0.0
1001
ACAD
1000
AcDbSavedByObjectVersion
1070
     0
  0
VISUALSTYLE
  5
3C6
102
{ACAD_REACTORS
330
3C5
102
}
102
{ACAD_XDICTIONARY
360
60F
102
}
330
3C5
100
AcDbVisualStyle
  2
Flat
 70
     0
 71
     2
 72
     1
 73
     1
 90
        2
 40
-0.6
 41
30.0
 62
     5
 63
     7
 74
     0
 91
        4
 64
     7
 65
   257
 75
     1
175
     1
 42
1.0
 92
        8
 66
     7
 43
1.0
 76
     1
 77
     6
 78
     2
 67
     7
 79
     5
170
     0
171
     0
290
     0
174
     0
 93
       13
 44
0.0
173
     0
291
     1
 45
0.0
1001
ACAD
1000
AcDbSavedByObjectVersion
1070
     0
  0
VISUALSTYLE
  5
3C7
102
{ACAD_REACTORS
330
3C5
102
}
102
{ACAD_XDICTIONARY
360
611
102
}
330
3C5
100
AcDbVisualStyle
  2
FlatWithEdges
 70
     1
 71
     2
 72
     1
 73
     1
 90
        2
 40
-0.6
 41
30.0
 62
     5
 63
     7
 74
     1
 91
        4
 64
     7
 65
   257
 75
     1
175
     1
 42
1.0
 92
        0
 66
   257
 43
1.0
 76
     1
 77
     6
 78
     2
 67
     7
 79
     5
170
     0
171
     0
290
     0
174
     0
 93
       13
 44
0.0
173
     0
291
     1
 45
0.0
1001
ACAD
1000
AcDbSavedByObjectVersion
1070
     0
  0
VISUALSTYLE
  5
3C8
102
{ACAD_REACTORS
330
3C5
102
}
102
{ACAD_XDICTIONARY
360
613
102
}
330
3C5
100
AcDbVisualStyle
  2
Gouraud
 70
     2
 71
     2
 72
     2
 73
     1
 90
        2
 40
-0.6
 41
30.0
 62
     5
 63
     7
 74
     0
 91
        4
 64
     7
 65
   257
 75
     1
175
     1
 42
1.0
 92
        0
 66
     7
 43
1.0
 76
     1
 77
     6
 78
     2
 67
     7
 79
     5
170
     0
171
     0
290
     0
174
     0
 93
       13
 44
0.0
173
     0
291
     1
 45
0.0
1001
ACAD
1000
AcDbSavedByObjectVersion
1070
     0
  0
VISUALSTYLE
  5
3C9
102
{ACAD_REACTORS
330
3C5
102
}
102
{ACAD_XDICTIONARY
360
615
102
}
330
3C5
100
AcDbVisualStyle
  2
GouraudWithEdges
 70
     3
 71
     2
 72
     2
 73
     1
 90
        2
 40
-0.6
 41
30.0
 62
     5
 63
     7
 74
     1
 91
        4
 64
     7
 65
   257
 75
     1
175
     1
 42
1.0
 92
        0
 66
   257
 43
1.0
 76
     1
 77
     6
 78
     2
 67
     7
 79
     5
170
     0
171
     0
290
     0
174
     0
 93
       13
 44
0.0
173
     0
291
     1
 45
0.0
1001
ACAD
1000
AcDbSavedByObjectVersion
1070
     0
  0
VISUALSTYLE
  5
3D3
102
{ACAD_REACTORS
330
3C5
102
}
102
{ACAD_XDICTIONARY
360
629
102
}
330
3C5
100
AcDbVisualStyle
  2
Linepattern
 70
    14
 71
     2
 72
     2
 73
     0
 90
        0
 40
-0.6
 41
-30.0
 62
     5
 63
     7
 74
     1
 91
        4
 64
     7
 65
   257
 75
     7
175
     7
 42
1.0
 92
        8
 66
     7
 43
1.0
 76
     1
 77
     6
 78
     2
 67
     7
 79
     5
170
     0
171
     0
290
     0
174
     0
 93
        1
 44
0.0
173
     0
291
     1
 45
0.0
1001
ACAD
1000
AcDbSavedByObjectVersion
1070
     0
  0
VISUALSTYLE
  5
3CE
102
{ACAD_REACTORS
330
3C5
102
}
102
{ACAD_XDICTIONARY
360
61F
102
}
330
3C5
100
AcDbVisualStyle
  2
Realistic
 70
     8
 71
     2
 72
     2
 73
     0
 90
        0
 40
-0.6
 41
-30.0
 62
     5
 63
     7
 74
     1
 91
        0
 64
     7
 65
   257
 75
     1
175
     1
 42
1.0
 92
        8
 66
     8
 43
1.0
 76
     1
 77
     6
 78
     2
 67
     7
 79
     5
170
     0
171
     0
290
     0
174
     0
 93
       13
 44
0.0
173
     0
291
     0
 45
0.0
1001
ACAD
1000
AcDbSavedByObjectVersion
1070
     0
  0
VISUALSTYLE
  5
3D2
102
{ACAD_REACTORS
330
3C5
102
}
102
{ACAD_XDICTIONARY
360
627
102
}
330
3C5
100
AcDbVisualStyle
  2
Thicken
 70
    13
 71
     2
 72
     2
 73
     0
 90
        0
 40
-0.6
 41
-30.0
 62
     5
 63
     7
 74
     1
 91
        4
 64
     7
 65
   257
 75
     1
175
     1
 42
1.0
 92
       12
 66
     7
 43
1.0
 76
     1
 77
     6
 78
     2
 67
     7
 79
     5
170
     0
171
     0
290
     0
174
     0
 93
        1
 44
0.0
173
     0
291
     1
 45
0.0
1001
ACAD
1000
AcDbSavedByObjectVersion
1070
     0
  0
XRECORD
  5
606
102
{ACAD_REACTORS
330
605
102
}
330
605
100
AcDbXrecord
280
     1
340
387
  0
XRECORD
  5
607
102
{ACAD_REACTORS
330
605
102
}
330
605
100
AcDbXrecord
280
     1
340
386
  0
DICTIONARYVAR
  5
608
102
{ACAD_REACTORS
330
357
102
}
330
357
100
DictionaryVariables
280
     0
  1
1:1
  0
DICTIONARYVAR
  5
38D
102
{ACAD_REACTORS
330
357
102
}
330
357
100
DictionaryVariables
280
     0
  1
Standard
  0
DICTIONARYVAR
  5
359
102
{ACAD_REACTORS
330
357
102
}
330
357
100
DictionaryVariables
280
     0
  1
2
  0
DICTIONARYVAR
  5
358
102
{ACAD_REACTORS
330
357
102
}
330
357
100
DictionaryVariables
280
     0
  1
1
  0
DICTIONARYVAR
  5
38E
102
{ACAD_REACTORS
330
357
102
}
330
357
100
DictionaryVariables
280
     0
  1

  0
DICTIONARY
  5
60B
330
3C3
100
AcDbDictionary
280
     1
281
     1
  3
ACAD_XREC_ROUNDTRIP
360
60C
  0
DICTIONARY
  5
609
330
3C2
100
AcDbDictionary
280
     1
281
     1
  3
ACAD_XREC_ROUNDTRIP
360
60A
  0
DICTIONARY
  5
60D
330
3C4
100
AcDbDictionary
280
     1
281
     1
  3
ACAD_XREC_ROUNDTRIP
360
60E
  0
DICTIONARY
  5
617
330
3CA
100
AcDbDictionary
280
     1
281
     1
  3
ACAD_XREC_ROUNDTRIP
360
618
  0
DICTIONARY
  5
61B
330
3CC
100
AcDbDictionary
280
     1
281
     1
  3
ACAD_XREC_ROUNDTRIP
360
61C
  0
DICTIONARY
  5
619
330
3CB
100
AcDbDictionary
280
     1
281
     1
  3
ACAD_XREC_ROUNDTRIP
360
61A
  0
DICTIONARY
  5
61D
330
3CD
100
AcDbDictionary
280
     1
281
     1
  3
ACAD_XREC_ROUNDTRIP
360
61E
  0
DICTIONARY
  5
625
330
3D1
100
AcDbDictionary
280
     1
281
     1
  3
ACAD_XREC_ROUNDTRIP
360
626
  0
DICTIONARY
  5
62D
330
3D5
100
AcDbDictionary
280
     1
281
     1
  3
ACAD_XREC_ROUNDTRIP
360
62E
  0
DICTIONARY
  5
621
330
3CF
100
AcDbDictionary
280
     1
281
     1
  3
ACAD_XREC_ROUNDTRIP
360
622
  0
DICTIONARY
  5
623
330
3D0
100
AcDbDictionary
280
     1
281
     1
  3
ACAD_XREC_ROUNDTRIP
360
624
  0
DICTIONARY
  5
62B
330
3D4
100
AcDbDictionary
280
     1
281
     1
  3
ACAD_XREC_ROUNDTRIP
360
62C
  0
DICTIONARY
  5
60F
330
3C6
100
AcDbDictionary
280
     1
281
     1
  3
ACAD_XREC_ROUNDTRIP
360
610
  0
DICTIONARY
  5
611
330
3C7
100
AcDbDictionary
280
     1
281
     1
  3
ACAD_XREC_ROUNDTRIP
360
612
  0
DICTIONARY
  5
613
330
3C8
100
AcDbDictionary
280
     1
281
     1
  3
ACAD_XREC_ROUNDTRIP
360
614
  0
DICTIONARY
  5
615
330
3C9
100
AcDbDictionary
280
     1
281
     1
  3
ACAD_XREC_ROUNDTRIP
360
616
  0
DICTIONARY
  5
629
330
3D3
100
AcDbDictionary
280
     1
281
     1
  3
ACAD_XREC_ROUNDTRIP
360
62A
  0
DICTIONARY
  5
61F
330
3CE
100
AcDbDictionary
280
     1
281
     1
  3
ACAD_XREC_ROUNDTRIP
360
620
  0
DICTIONARY
  5
627
330
3D2
100
AcDbDictionary
280
     1
281
     1
  3
ACAD_XREC_ROUNDTRIP
360
628
  0
XRECORD
  5
60C
102
{ACAD_REACTORS
330
60B
102
}
330
60B
100
AcDbXrecord
280
     1
102
MATERIAL
148
0.0
149
0.0
149
0.0
 93
        0
 94
      127
282
     0
 72
     1
 77
     1
171
     1
175
     1
179
     1
273
     0
  0
XRECORD
  5
60A
102
{ACAD_REACTORS
330
609
102
}
330
609
100
AcDbXrecord
280
     1
102
MATERIAL
148
0.0
149
0.0
149
0.0
 93
        0
 94
      127
282
     0
 72
     1
 77
     1
171
     1
175
     1
179
     1
273
     0
  0
XRECORD
  5
60E
102
{ACAD_REACTORS
330
60D
102
}
330
60D
100
AcDbXrecord
280
     1
102
MATERIAL
148
0.0
149
0.0
149
0.0
 93
        0
 94
      127
282
     0
 72
     1
 77
     1
171
     1
175
     1
179
     1
273
     0
  0
XRECORD
  5
618
102
{ACAD_REACTORS
330
617
102
}
330
617
100
AcDbXrecord
280
     1
102
RTVSPropertyOp0
 70
     1
102
RTVSPropertyOp1
 70
     1
102
RTVSPropertyOp2
 70
     1
102
RTVSPropertyOp3
 70
     1
102
RTVSPropertyOp4
 70
     1
102
RTVSPropertyOp5
 70
     1
102
RTVSPropertyOp6
 70
     1
102
RTVSPropertyOp7
 70
     1
102
RTVSPropertyOp8
 70
     1
102
RTVSPropertyOp9
 70
     1
102
RTVSPropertyOp10
 70
     1
102
RTVSPropertyOp11
 70
     1
102
RTVSPropertyOp12
 70
     1
102
RTVSPropertyOp13
 70
     1
102
RTVSPropertyOp14
 70
     1
102
RTVSPropertyOp15
 70
     1
102
RTVSPropertyOp16
 70
     1
102
RTVSPropertyOp17
 70
     1
102
RTVSPropertyOp18
 70
     1
102
RTVSPropertyOp19
 70
     1
102
RTVSPropertyOp20
 70
     1
102
RTVSPropertyOp21
 70
     1
102
RTVSPropertyOp22
 70
     1
102
RTVSPropertyOp23
 70
     1
102
RTVSPropertyOp24
 70
     1
102
RTVSPropertyOp25
 70
     1
102
RTVSPropertyOp26
 70
     1
102
RTVSPropertyOp27
 70
     1
102
RTVSPropertyOp28
 70
     1
102
RTVSPropertyOp29
 70
     1
102
RTVSPropertyOp30
 70
     1
102
RTVSPropertyOp31
 70
     1
102
RTVSPropertyOp32
 70
     1
  0
XRECORD
  5
61C
102
{ACAD_REACTORS
330
61B
102
}
330
61B
100
AcDbXrecord
280
     1
102
RTVSPropertyOp0
 70
     1
102
RTVSPropertyOp1
 70
     1
102
RTVSPropertyOp2
 70
     1
102
RTVSPropertyOp3
 70
     1
102
RTVSPropertyOp4
 70
     1
102
RTVSPropertyOp5
 70
     1
102
RTVSPropertyOp6
 70
     1
102
RTVSPropertyOp7
 70
     1
102
RTVSPropertyOp8
 70
     1
102
RTVSPropertyOp9
 70
     1
102
RTVSPropertyOp10
 70
     1
102
RTVSPropertyOp11
 70
     1
102
RTVSPropertyOp12
 70
     1
102
RTVSPropertyOp13
 70
     1
102
RTVSPropertyOp14
 70
     1
102
RTVSPropertyOp15
 70
     1
102
RTVSPropertyOp16
 70
     1
102
RTVSPropertyOp17
 70
     1
102
RTVSPropertyOp18
 70
     1
102
RTVSPropertyOp19
 70
     1
102
RTVSPropertyOp20
 70
     1
102
RTVSPropertyOp21
 70
     1
102
RTVSPropertyOp22
 70
     1
102
RTVSPropertyOp23
 70
     1
102
RTVSPropertyOp24
 70
     1
102
RTVSPropertyOp25
 70
     1
102
RTVSPropertyOp26
 70
     1
102
RTVSPropertyOp27
 70
     1
102
RTVSPropertyOp28
 70
     1
102
RTVSPropertyOp29
 70
     1
102
RTVSPropertyOp30
 70
     1
102
RTVSPropertyOp31
 70
     1
102
RTVSPropertyOp32
 70
     1
  0
XRECORD
  5
61A
102
{ACAD_REACTORS
330
619
102
}
330
619
100
AcDbXrecord
280
     1
102
RTVSPropertyOp0
 70
     1
102
RTVSPropertyOp1
 70
     1
102
RTVSPropertyOp2
 70
     1
102
RTVSPropertyOp3
 70
     1
102
RTVSPropertyOp4
 70
     1
102
RTVSPropertyOp5
 70
     1
102
RTVSPropertyOp6
 70
     1
102
RTVSPropertyOp7
 70
     1
102
RTVSPropertyOp8
 70
     1
102
RTVSPropertyOp9
 70
     1
102
RTVSPropertyOp10
 70
     1
102
RTVSPropertyOp11
 70
     1
102
RTVSPropertyOp12
 70
     1
102
RTVSPropertyOp13
 70
     1
102
RTVSPropertyOp14
 70
     1
102
RTVSPropertyOp15
 70
     1
102
RTVSPropertyOp16
 70
     1
102
RTVSPropertyOp17
 70
     1
102
RTVSPropertyOp18
 70
     1
102
RTVSPropertyOp19
 70
     1
102
RTVSPropertyOp20
 70
     1
102
RTVSPropertyOp21
 70
     1
102
RTVSPropertyOp22
 70
     1
102
RTVSPropertyOp23
 70
     1
102
RTVSPropertyOp24
 70
     1
102
RTVSPropertyOp25
 70
     1
102
RTVSPropertyOp26
 70
     1
102
RTVSPropertyOp27
 70
     1
102
RTVSPropertyOp28
 70
     1
102
RTVSPropertyOp29
 70
     1
102
RTVSPropertyOp30
 70
     1
102
RTVSPropertyOp31
 70
     1
102
RTVSPropertyOp32
 70
     1
  0
XRECORD
  5
61E
102
{ACAD_REACTORS
330
61D
102
}
330
61D
100
AcDbXrecord
280
     1
102
RTVSPropertyOp0
 70
     1
102
RTVSPropertyOp1
 70
     1
102
RTVSPropertyOp2
 70
     1
102
RTVSPropertyOp3
 70
     1
102
RTVSPropertyOp4
 70
     1
102
RTVSPropertyOp5
 70
     1
102
RTVSPropertyOp6
 70
     1
102
RTVSPropertyOp7
 70
     1
102
RTVSPropertyOp8
 70
     1
102
RTVSPropertyOp9
 70
     1
102
RTVSPropertyOp10
 70
     1
102
RTVSPropertyOp11
 70
     1
102
RTVSPropertyOp12
 70
     1
102
RTVSPropertyOp13
 70
     1
102
RTVSPropertyOp14
 70
     1
102
RTVSPropertyOp15
 70
     1
102
RTVSPropertyOp16
 70
     1
102
RTVSPropertyOp17
 70
     1
102
RTVSPropertyOp18
 70
     1
102
RTVSPropertyOp19
 70
     1
102
RTVSPropertyOp20
 70
     1
102
RTVSPropertyOp21
 70
     1
102
RTVSPropertyOp22
 70
     1
102
RTVSPropertyOp23
 70
     1
102
RTVSPropertyOp24
 70
     1
102
RTVSPropertyOp25
 70
     1
102
RTVSPropertyOp26
 70
     1
102
RTVSPropertyOp27
 70
     1
102
RTVSPropertyOp28
 70
     1
102
RTVSPropertyOp29
 70
     1
102
RTVSPropertyOp30
 70
     1
102
RTVSPropertyOp31
 70
     1
102
RTVSPropertyOp32
 70
     1
  0
XRECORD
  5
626
102
{ACAD_REACTORS
330
625
102
}
330
625
100
AcDbXrecord
280
     1
102
RTVSPropertyOp0
 70
     1
102
RTVSPropertyOp1
 70
     1
102
RTVSPropertyOp2
 70
     1
102
RTVSPropertyOp3
 70
     1
102
RTVSPropertyOp4
 70
     1
102
RTVSPropertyOp5
 70
     1
102
RTVSPropertyOp6
 70
     1
102
RTVSPropertyOp7
 70
     1
102
RTVSPropertyOp8
 70
     1
102
RTVSPropertyOp9
 70
     1
102
RTVSPropertyOp10
 70
     1
102
RTVSPropertyOp11
 70
     1
102
RTVSPropertyOp12
 70
     1
102
RTVSPropertyOp13
 70
     1
102
RTVSPropertyOp14
 70
     1
102
RTVSPropertyOp15
 70
     1
102
RTVSPropertyOp16
 70
     1
102
RTVSPropertyOp17
 70
     1
102
RTVSPropertyOp18
 70
     1
102
RTVSPropertyOp19
 70
     1
102
RTVSPropertyOp20
 70
     1
102
RTVSPropertyOp21
 70
     1
102
RTVSPropertyOp22
 70
     1
102
RTVSPropertyOp23
 70
     1
102
RTVSPropertyOp24
 70
     1
102
RTVSPropertyOp25
 70
     1
102
RTVSPropertyOp26
 70
     1
102
RTVSPropertyOp27
 70
     1
102
RTVSPropertyOp28
 70
     1
102
RTVSPropertyOp29
 70
     1
102
RTVSPropertyOp30
 70
     1
102
RTVSPropertyOp31
 70
     1
102
RTVSPropertyOp32
 70
     1
  0
XRECORD
  5
62E
102
{ACAD_REACTORS
330
62D
102
}
330
62D
100
AcDbXrecord
280
     1
102
RTVSPropertyOp0
 70
     1
102
RTVSPropertyOp1
 70
     1
102
RTVSPropertyOp2
 70
     1
102
RTVSPropertyOp3
 70
     1
102
RTVSPropertyOp4
 70
     1
102
RTVSPropertyOp5
 70
     1
102
RTVSPropertyOp6
 70
     1
102
RTVSPropertyOp7
 70
     1
102
RTVSPropertyOp8
 70
     1
102
RTVSPropertyOp9
 70
     1
102
RTVSPropertyOp10
 70
     1
102
RTVSPropertyOp11
 70
     1
102
RTVSPropertyOp12
 70
     1
102
RTVSPropertyOp13
 70
     1
102
RTVSPropertyOp14
 70
     1
102
RTVSPropertyOp15
 70
     1
102
RTVSPropertyOp16
 70
     1
102
RTVSPropertyOp17
 70
     1
102
RTVSPropertyOp18
 70
     1
102
RTVSPropertyOp19
 70
     1
102
RTVSPropertyOp20
 70
     1
102
RTVSPropertyOp21
 70
     1
102
RTVSPropertyOp22
 70
     1
102
RTVSPropertyOp23
 70
     1
102
RTVSPropertyOp24
 70
     1
102
RTVSPropertyOp25
 70
     1
102
RTVSPropertyOp26
 70
     1
102
RTVSPropertyOp27
 70
     1
102
RTVSPropertyOp28
 70
     1
102
RTVSPropertyOp29
 70
     1
102
RTVSPropertyOp30
 70
     1
102
RTVSPropertyOp31
 70
     1
102
RTVSPropertyOp32
 70
     1
  0
XRECORD
  5
622
102
{ACAD_REACTORS
330
621
102
}
330
621
100
AcDbXrecord
280
     1
102
RTVSPropertyOp0
 70
     1
102
RTVSPropertyOp1
 70
     1
102
RTVSPropertyOp2
 70
     1
102
RTVSPropertyOp3
 70
     1
102
RTVSPropertyOp4
 70
     1
102
RTVSPropertyOp5
 70
     1
102
RTVSPropertyOp6
 70
     1
102
RTVSPropertyOp7
 70
     1
102
RTVSPropertyOp8
 70
     1
102
RTVSPropertyOp9
 70
     1
102
RTVSPropertyOp10
 70
     1
102
RTVSPropertyOp11
 70
     1
102
RTVSPropertyOp12
 70
     1
102
RTVSPropertyOp13
 70
     1
102
RTVSPropertyOp14
 70
     1
102
RTVSPropertyOp15
 70
     1
102
RTVSPropertyOp16
 70
     1
102
RTVSPropertyOp17
 70
     1
102
RTVSPropertyOp18
 70
     1
102
RTVSPropertyOp19
 70
     1
102
RTVSPropertyOp20
 70
     1
102
RTVSPropertyOp21
 70
     1
102
RTVSPropertyOp22
 70
     1
102
RTVSPropertyOp23
 70
     1
102
RTVSPropertyOp24
 70
     1
102
RTVSPropertyOp25
 70
     1
102
RTVSPropertyOp26
 70
     1
102
RTVSPropertyOp27
 70
     1
102
RTVSPropertyOp28
 70
     1
102
RTVSPropertyOp29
 70
     1
102
RTVSPropertyOp30
 70
     1
102
RTVSPropertyOp31
 70
     1
102
RTVSPropertyOp32
 70
     1
  0
XRECORD
  5
624
102
{ACAD_REACTORS
330
623
102
}
330
623
100
AcDbXrecord
280
     1
102
RTVSPropertyOp0
 70
     1
102
RTVSPropertyOp1
 70
     1
102
RTVSPropertyOp2
 70
     1
102
RTVSPropertyOp3
 70
     1
102
RTVSPropertyOp4
 70
     1
102
RTVSPropertyOp5
 70
     1
102
RTVSPropertyOp6
 70
     1
102
RTVSPropertyOp7
 70
     1
102
RTVSPropertyOp8
 70
     1
102
RTVSPropertyOp9
 70
     1
102
RTVSPropertyOp10
 70
     1
102
RTVSPropertyOp11
 70
     1
102
RTVSPropertyOp12
 70
     1
102
RTVSPropertyOp13
 70
     1
102
RTVSPropertyOp14
 70
     1
102
RTVSPropertyOp15
 70
     1
102
RTVSPropertyOp16
 70
     1
102
RTVSPropertyOp17
 70
     1
102
RTVSPropertyOp18
 70
     1
102
RTVSPropertyOp19
 70
     1
102
RTVSPropertyOp20
 70
     1
102
RTVSPropertyOp21
 70
     1
102
RTVSPropertyOp22
 70
     1
102
RTVSPropertyOp23
 70
     1
102
RTVSPropertyOp24
 70
     1
102
RTVSPropertyOp25
 70
     1
102
RTVSPropertyOp26
 70
     1
102
RTVSPropertyOp27
 70
     1
102
RTVSPropertyOp28
 70
     1
102
RTVSPropertyOp29
 70
     1
102
RTVSPropertyOp30
 70
     1
102
RTVSPropertyOp31
 70
     1
102
RTVSPropertyOp32
 70
     1
  0
XRECORD
  5
62C
102
{ACAD_REACTORS
330
62B
102
}
330
62B
100
AcDbXrecord
280
     1
102
RTVSPropertyOp0
 70
     1
102
RTVSPropertyOp1
 70
     1
102
RTVSPropertyOp2
 70
     1
102
RTVSPropertyOp3
 70
     1
102
RTVSPropertyOp4
 70
     1
102
RTVSPropertyOp5
 70
     1
102
RTVSPropertyOp6
 70
     1
102
RTVSPropertyOp7
 70
     1
102
RTVSPropertyOp8
 70
     1
102
RTVSPropertyOp9
 70
     1
102
RTVSPropertyOp10
 70
     1
102
RTVSPropertyOp11
 70
     1
102
RTVSPropertyOp12
 70
     1
102
RTVSPropertyOp13
 70
     1
102
RTVSPropertyOp14
 70
     1
102
RTVSPropertyOp15
 70
     1
102
RTVSPropertyOp16
 70
     1
102
RTVSPropertyOp17
 70
     1
102
RTVSPropertyOp18
 70
     1
102
RTVSPropertyOp19
 70
     1
102
RTVSPropertyOp20
 70
     1
102
RTVSPropertyOp21
 70
     1
102
RTVSPropertyOp22
 70
     1
102
RTVSPropertyOp23
 70
     1
102
RTVSPropertyOp24
 70
     1
102
RTVSPropertyOp25
 70
     1
102
RTVSPropertyOp26
 70
     1
102
RTVSPropertyOp27
 70
     1
102
RTVSPropertyOp28
 70
     1
102
RTVSPropertyOp29
 70
     1
102
RTVSPropertyOp30
 70
     1
102
RTVSPropertyOp31
 70
     1
102
RTVSPropertyOp32
 70
     1
  0
XRECORD
  5
610
102
{ACAD_REACTORS
330
60F
102
}
330
60F
100
AcDbXrecord
280
     1
102
RTVSPropertyOp0
 70
     1
102
RTVSPropertyOp1
 70
     1
102
RTVSPropertyOp2
 70
     1
102
RTVSPropertyOp3
 70
     1
102
RTVSPropertyOp4
 70
     1
102
RTVSPropertyOp5
 70
     1
102
RTVSPropertyOp6
 70
     1
102
RTVSPropertyOp7
 70
     1
102
RTVSPropertyOp8
 70
     1
102
RTVSPropertyOp9
 70
     1
102
RTVSPropertyOp10
 70
     1
102
RTVSPropertyOp11
 70
     1
102
RTVSPropertyOp12
 70
     1
102
RTVSPropertyOp13
 70
     1
102
RTVSPropertyOp14
 70
     1
102
RTVSPropertyOp15
 70
     1
102
RTVSPropertyOp16
 70
     1
102
RTVSPropertyOp17
 70
     1
102
RTVSPropertyOp18
 70
     1
102
RTVSPropertyOp19
 70
     1
102
RTVSPropertyOp20
 70
     1
102
RTVSPropertyOp21
 70
     1
102
RTVSPropertyOp22
 70
     1
102
RTVSPropertyOp23
 70
     1
102
RTVSPropertyOp24
 70
     1
102
RTVSPropertyOp25
 70
     1
102
RTVSPropertyOp26
 70
     1
102
RTVSPropertyOp27
 70
     1
102
RTVSPropertyOp28
 70
     1
102
RTVSPropertyOp29
 70
     1
102
RTVSPropertyOp30
 70
     1
102
RTVSPropertyOp31
 70
     1
102
RTVSPropertyOp32
 70
     1
  0
XRECORD
  5
612
102
{ACAD_REACTORS
330
611
102
}
330
611
100
AcDbXrecord
280
     1
102
RTVSPropertyOp0
 70
     1
102
RTVSPropertyOp1
 70
     1
102
RTVSPropertyOp2
 70
     1
102
RTVSPropertyOp3
 70
     1
102
RTVSPropertyOp4
 70
     1
102
RTVSPropertyOp5
 70
     1
102
RTVSPropertyOp6
 70
     1
102
RTVSPropertyOp7
 70
     1
102
RTVSPropertyOp8
 70
     1
102
RTVSPropertyOp9
 70
     1
102
RTVSPropertyOp10
 70
     1
102
RTVSPropertyOp11
 70
     1
102
RTVSPropertyOp12
 70
     1
102
RTVSPropertyOp13
 70
     1
102
RTVSPropertyOp14
 70
     1
102
RTVSPropertyOp15
 70
     1
102
RTVSPropertyOp16
 70
     1
102
RTVSPropertyOp17
 70
     1
102
RTVSPropertyOp18
 70
     1
102
RTVSPropertyOp19
 70
     1
102
RTVSPropertyOp20
 70
     1
102
RTVSPropertyOp21
 70
     1
102
RTVSPropertyOp22
 70
     1
102
RTVSPropertyOp23
 70
     1
102
RTVSPropertyOp24
 70
     1
102
RTVSPropertyOp25
 70
     1
102
RTVSPropertyOp26
 70
     1
102
RTVSPropertyOp27
 70
     1
102
RTVSPropertyOp28
 70
     1
102
RTVSPropertyOp29
 70
     1
102
RTVSPropertyOp30
 70
     1
102
RTVSPropertyOp31
 70
     1
102
RTVSPropertyOp32
 70
     1
  0
XRECORD
  5
614
102
{ACAD_REACTORS
330
613
102
}
330
613
100
AcDbXrecord
280
     1
102
RTVSPropertyOp0
 70
     1
102
RTVSPropertyOp1
 70
     1
102
RTVSPropertyOp2
 70
     1
102
RTVSPropertyOp3
 70
     1
102
RTVSPropertyOp4
 70
     1
102
RTVSPropertyOp5
 70
     1
102
RTVSPropertyOp6
 70
     1
102
RTVSPropertyOp7
 70
     1
102
RTVSPropertyOp8
 70
     1
102
RTVSPropertyOp9
 70
     1
102
RTVSPropertyOp10
 70
     1
102
RTVSPropertyOp11
 70
     1
102
RTVSPropertyOp12
 70
     1
102
RTVSPropertyOp13
 70
     1
102
RTVSPropertyOp14
 70
     1
102
RTVSPropertyOp15
 70
     1
102
RTVSPropertyOp16
 70
     1
102
RTVSPropertyOp17
 70
     1
102
RTVSPropertyOp18
 70
     1
102
RTVSPropertyOp19
 70
     1
102
RTVSPropertyOp20
 70
     1
102
RTVSPropertyOp21
 70
     1
102
RTVSPropertyOp22
 70
     1
102
RTVSPropertyOp23
 70
     1
102
RTVSPropertyOp24
 70
     1
102
RTVSPropertyOp25
 70
     1
102
RTVSPropertyOp26
 70
     1
102
RTVSPropertyOp27
 70
     1
102
RTVSPropertyOp28
 70
     1
102
RTVSPropertyOp29
 70
     1
102
RTVSPropertyOp30
 70
     1
102
RTVSPropertyOp31
 70
     1
102
RTVSPropertyOp32
 70
     1
  0
XRECORD
  5
616
102
{ACAD_REACTORS
330
615
102
}
330
615
100
AcDbXrecord
280
     1
102
RTVSPropertyOp0
 70
     1
102
RTVSPropertyOp1
 70
     1
102
RTVSPropertyOp2
 70
     1
102
RTVSPropertyOp3
 70
     1
102
RTVSPropertyOp4
 70
     1
102
RTVSPropertyOp5
 70
     1
102
RTVSPropertyOp6
 70
     1
102
RTVSPropertyOp7
 70
     1
102
RTVSPropertyOp8
 70
     1
102
RTVSPropertyOp9
 70
     1
102
RTVSPropertyOp10
 70
     1
102
RTVSPropertyOp11
 70
     1
102
RTVSPropertyOp12
 70
     1
102
RTVSPropertyOp13
 70
     1
102
RTVSPropertyOp14
 70
     1
102
RTVSPropertyOp15
 70
     1
102
RTVSPropertyOp16
 70
     1
102
RTVSPropertyOp17
 70
     1
102
RTVSPropertyOp18
 70
     1
102
RTVSPropertyOp19
 70
     1
102
RTVSPropertyOp20
 70
     1
102
RTVSPropertyOp21
 70
     1
102
RTVSPropertyOp22
 70
     1
102
RTVSPropertyOp23
 70
     1
102
RTVSPropertyOp24
 70
     1
102
RTVSPropertyOp25
 70
     1
102
RTVSPropertyOp26
 70
     1
102
RTVSPropertyOp27
 70
     1
102
RTVSPropertyOp28
 70
     1
102
RTVSPropertyOp29
 70
     1
102
RTVSPropertyOp30
 70
     1
102
RTVSPropertyOp31
 70
     1
102
RTVSPropertyOp32
 70
     1
  0
XRECORD
  5
62A
102
{ACAD_REACTORS
330
629
102
}
330
629
100
AcDbXrecord
280
     1
102
RTVSPropertyOp0
 70
     1
102
RTVSPropertyOp1
 70
     1
102
RTVSPropertyOp2
 70
     1
102
RTVSPropertyOp3
 70
     1
102
RTVSPropertyOp4
 70
     1
102
RTVSPropertyOp5
 70
     1
102
RTVSPropertyOp6
 70
     1
102
RTVSPropertyOp7
 70
     1
102
RTVSPropertyOp8
 70
     1
102
RTVSPropertyOp9
 70
     1
102
RTVSPropertyOp10
 70
     1
102
RTVSPropertyOp11
 70
     1
102
RTVSPropertyOp12
 70
     1
102
RTVSPropertyOp13
 70
     1
102
RTVSPropertyOp14
 70
     1
102
RTVSPropertyOp15
 70
     1
102
RTVSPropertyOp16
 70
     1
102
RTVSPropertyOp17
 70
     1
102
RTVSPropertyOp18
 70
     1
102
RTVSPropertyOp19
 70
     1
102
RTVSPropertyOp20
 70
     1
102
RTVSPropertyOp21
 70
     1
102
RTVSPropertyOp22
 70
     1
102
RTVSPropertyOp23
 70
     1
102
RTVSPropertyOp24
 70
     1
102
RTVSPropertyOp25
 70
     1
102
RTVSPropertyOp26
 70
     1
102
RTVSPropertyOp27
 70
     1
102
RTVSPropertyOp28
 70
     1
102
RTVSPropertyOp29
 70
     1
102
RTVSPropertyOp30
 70
     1
102
RTVSPropertyOp31
 70
     1
102
RTVSPropertyOp32
 70
     1
  0
XRECORD
  5
620
102
{ACAD_REACTORS
330
61F
102
}
330
61F
100
AcDbXrecord
280
     1
102
RTVSPropertyOp0
 70
     1
102
RTVSPropertyOp1
 70
     1
102
RTVSPropertyOp2
 70
     1
102
RTVSPropertyOp3
 70
     1
102
RTVSPropertyOp4
 70
     1
102
RTVSPropertyOp5
 70
     1
102
RTVSPropertyOp6
 70
     1
102
RTVSPropertyOp7
 70
     1
102
RTVSPropertyOp8
 70
     1
102
RTVSPropertyOp9
 70
     1
102
RTVSPropertyOp10
 70
     1
102
RTVSPropertyOp11
 70
     1
102
RTVSPropertyOp12
 70
     1
102
RTVSPropertyOp13
 70
     1
102
RTVSPropertyOp14
 70
     1
102
RTVSPropertyOp15
 70
     1
102
RTVSPropertyOp16
 70
     1
102
RTVSPropertyOp17
 70
     1
102
RTVSPropertyOp18
 70
     1
102
RTVSPropertyOp19
 70
     1
102
RTVSPropertyOp20
 70
     1
102
RTVSPropertyOp21
 70
     1
102
RTVSPropertyOp22
 70
     1
102
RTVSPropertyOp23
 70
     1
102
RTVSPropertyOp24
 70
     1
102
RTVSPropertyOp25
 70
     1
102
RTVSPropertyOp26
 70
     1
102
RTVSPropertyOp27
 70
     1
102
RTVSPropertyOp28
 70
     1
102
RTVSPropertyOp29
 70
     1
102
RTVSPropertyOp30
 70
     1
102
RTVSPropertyOp31
 70
     1
102
RTVSPropertyOp32
 70
     1
  0
XRECORD
  5
628
102
{ACAD_REACTORS
330
627
102
}
330
627
100
AcDbXrecord
280
     1
102
RTVSPropertyOp0
 70
     1
102
RTVSPropertyOp1
 70
     1
102
RTVSPropertyOp2
 70
     1
102
RTVSPropertyOp3
 70
     1
102
RTVSPropertyOp4
 70
     1
102
RTVSPropertyOp5
 70
     1
102
RTVSPropertyOp6
 70
     1
102
RTVSPropertyOp7
 70
     1
102
RTVSPropertyOp8
 70
     1
102
RTVSPropertyOp9
 70
     1
102
RTVSPropertyOp10
 70
     1
102
RTVSPropertyOp11
 70
     1
102
RTVSPropertyOp12
 70
     1
102
RTVSPropertyOp13
 70
     1
102
RTVSPropertyOp14
 70
     1
102
RTVSPropertyOp15
 70
     1
102
RTVSPropertyOp16
 70
     1
102
RTVSPropertyOp17
 70
     1
102
RTVSPropertyOp18
 70
     1
102
RTVSPropertyOp19
 70
     1
102
RTVSPropertyOp20
 70
     1
102
RTVSPropertyOp21
 70
     1
102
RTVSPropertyOp22
 70
     1
102
RTVSPropertyOp23
 70
     1
102
RTVSPropertyOp24
 70
     1
102
RTVSPropertyOp25
 70
     1
102
RTVSPropertyOp26
 70
     1
102
RTVSPropertyOp27
 70
     1
102
RTVSPropertyOp28
 70
     1
102
RTVSPropertyOp29
 70
     1
102
RTVSPropertyOp30
 70
     1
102
RTVSPropertyOp31
 70
     1
102
RTVSPropertyOp32
 70
     1
  0
ENDSEC
  0
EOF
