  0
SECTION
  2
HEADER
  9
$ACADVER
  1
AC1015
  9
$ACADMAINTVER
 70
     6
  9
$DWGCODEPAGE
  3
ANSI_1252
  9
$INSBASE
 10
0.0
 20
0.0
 30
0.0
  9
$EXTMIN
 10
1.000000000000000E+20
 20
1.000000000000000E+20
 30
1.000000000000000E+20
  9
$EXTMAX
 10
-1.000000000000000E+20
 20
-1.000000000000000E+20
 30
-1.000000000000000E+20
  9
$LIMMIN
 10
-170.0
 20
-170.0
  9
$LIMMAX
 10
519.0
 20
260.0
  9
$ORTHOMODE
 70
     0
  9
$REGENMODE
 70
     1
  9
$FILLMODE
 70
     1
  9
$QTEXTMODE
 70
     0
  9
$MIRRTEXT
 70
     0
  9
$LTSCALE
 40
1.0
  9
$ATTMODE
 70
     1
  9
$TEXTSIZE
 40
3.5
  9
$TRACEWID
 40
1.0
  9
$TEXTSTYLE
  7
SIMPLEX
  9
$CLAYER
  8
1
  9
$CELTYPE
  6
BYLAYER
  9
$CECOLOR
 62
   256
  9
$CELTSCALE
 40
1.0
  9
$DISPSILH
 70
     0
  9
$DIMSCALE
 40
1.0
  9
$DIMASZ
 40
2.5
  9
$DIMEXO
 40
0.0
  9
$DIMDLI
 40
3.75
  9
$DIMRND
 40
0.0
  9
$DIMDLE
 40
0.0
  9
$DIMEXE
 40
1.25
  9
$DIMTP
 40
0.0
  9
$DIMTM
 40
0.0
  9
$DIMTXT
 40
3.5
  9
$DIMCEN
 40
0.0
  9
$DIMTSZ
 40
0.0
  9
$DIMTOL
 70
     0
  9
$DIMLIM
 70
     0
  9
$DIMTIH
 70
     0
  9
$DIMTOH
 70
     0
  9
$DIMSE1
 70
     0
  9
$DIMSE2
 70
     0
  9
$DIMTAD
 70
     1
  9
$DIMZIN
 70
     8
  9
$DIMBLK
  1

  9
$DIMASO
 70
     1
  9
$DIMSHO
 70
     1
  9
$DIMPOST
  1

  9
$DIMAPOST
  1

  9
$DIMALT
 70
     0
  9
$DIMALTD
 70
     3
  9
$DIMALTF
 40
0.039370078
  9
$DIMLFAC
 40
1.0
  9
$DIMTOFL
 70
     0
  9
$DIMTVP
 40
0.0
  9
$DIMTIX
 70
     0
  9
$DIMSOXD
 70
     0
  9
$DIMSAH
 70
     0
  9
$DIMBLK1
  1

  9
$DIMBLK2
  1

  9
$DIMSTYLE
  2
STANDARD
  9
$DIMCLRD
 70
     0
  9
$DIMCLRE
 70
     0
  9
$DIMCLRT
 70
     0
  9
$DIMTFAC
 40
1.0
  9
$DIMGAP
 40
0.625
  9
$DIMJUST
 70
     0
  9
$DIMSD1
 70
     0
  9
$DIMSD2
 70
     0
  9
$DIMTOLJ
 70
     0
  9
$DIMTZIN
 70
     8
  9
$DIMALTZ
 70
     0
  9
$DIMALTTZ
 70
     0
  9
$DIMUPT
 70
     0
  9
$DIMDEC
 70
     2
  9
$DIMTDEC
 70
     2
  9
$DIMALTU
 70
     2
  9
$DIMALTTD
 70
     3
  9
$DIMTXSTY
  7
SIMPLEX
  9
$DIMAUNIT
 70
     0
  9
$DIMADEC
 70
     2
  9
$DIMALTRND
 40
0.0
  9
$DIMAZIN
 70
     2
  9
$DIMDSEP
 70
    46
  9
$DIMATFIT
 70
     3
  9
$DIMFRAC
 70
     0
  9
$DIMLDRBLK
  1

  9
$DIMLUNIT
 70
     2
  9
$DIMLWD
 70
    -2
  9
$DIMLWE
 70
    -2
  9
$DIMTMOVE
 70
     0
  9
$LUNITS
 70
     2
  9
$LUPREC
 70
     4
  9
$SKETCHINC
 40
1.0
  9
$FILLETRAD
 40
0.0
  9
$AUNITS
 70
     0
  9
$AUPREC
 70
     0
  9
$MENU
  1
c:\tdm21\cad\caduti13\tdm13
  9
$ELEVATION
 40
0.0
  9
$PELEVATION
 40
0.0
  9
$THICKNESS
 40
0.0
  9
$LIMCHECK
 70
     0
  9
$CHAMFERA
 40
0.0
  9
$CHAMFERB
 40
0.0
  9
$CHAMFERC
 40
0.0
  9
$CHAMFERD
 40
0.0
  9
$SKPOLY
 70
     0
  9
$TDCREATE
 40
2454957.593642639
  9
$TDUCREATE
 40
2454957.510309306
  9
$TDUPDATE
 40
2456860.715520637
  9
$TDUUPDATE
 40
2456860.632187303
  9
$TDINDWG
 40
0.0009643519
  9
$TDUSRTIMER
 40
0.0009475231
  9
$USRTIMER
 70
     1
  9
$ANGBASE
 50
0.0
  9
$ANGDIR
 70
     0
  9
$PDMODE
 70
     1
  9
$PDSIZE
 40
0.0
  9
$PLINEWID
 40
0.0
  9
$SPLFRAME
 70
     0
  9
$SPLINETYPE
 70
     6
  9
$SPLINESEGS
 70
     8
  9
$HANDSEED
  5
637
  9
$SURFTAB1
 70
     6
  9
$SURFTAB2
 70
     6
  9
$SURFTYPE
 70
     6
  9
$SURFU
 70
     6
  9
$SURFV
 70
     6
  9
$UCSBASE
  2

  9
$UCSNAME
  2

  9
$UCSORG
 10
0.0
 20
0.0
 30
0.0
  9
$UCSXDIR
 10
1.0
 20
0.0
 30
0.0
  9
$UCSYDIR
 10
0.0
 20
1.0
 30
0.0
  9
$UCSORTHOREF
  2

  9
$UCSORTHOVIEW
 70
     0
  9
$UCSORGTOP
 10
0.0
 20
0.0
 30
0.0
  9
$UCSORGBOTTOM
 10
0.0
 20
0.0
 30
0.0
  9
$UCSORGLEFT
 10
0.0
 20
0.0
 30
0.0
  9
$UCSORGRIGHT
 10
0.0
 20
0.0
 30
0.0
  9
$UCSORGFRONT
 10
0.0
 20
0.0
 30
0.0
  9
$UCSORGBACK
 10
0.0
 20
0.0
 30
0.0
  9
$PUCSBASE
  2

  9
$PUCSNAME
  2

  9
$PUCSORG
 10
0.0
 20
0.0
 30
0.0
  9
$PUCSXDIR
 10
1.0
 20
0.0
 30
0.0
  9
$PUCSYDIR
 10
0.0
 20
1.0
 30
0.0
  9
$PUCSORTHOREF
  2

  9
$PUCSORTHOVIEW
 70
     0
  9
$PUCSORGTOP
 10
0.0
 20
0.0
 30
0.0
  9
$PUCSORGBOTTOM
 10
0.0
 20
0.0
 30
0.0
  9
$PUCSORGLEFT
 10
0.0
 20
0.0
 30
0.0
  9
$PUCSORGRIGHT
 10
0.0
 20
0.0
 30
0.0
  9
$PUCSORGFRONT
 10
0.0
 20
0.0
 30
0.0
  9
$PUCSORGBACK
 10
0.0
 20
0.0
 30
0.0
  9
$USERI1
 70
     0
  9
$USERI2
 70
     0
  9
$USERI3
 70
     0
  9
$USERI4
 70
     0
  9
$USERI5
 70
     0
  9
$USERR1
 40
0.0
  9
$USERR2
 40
0.0
  9
$USERR3
 40
0.0
  9
$USERR4
 40
0.0
  9
$USERR5
 40
0.0
  9
$WORLDVIEW
 70
     1
  9
$SHADEDGE
 70
     3
  9
$SHADEDIF
 70
    70
  9
$TILEMODE
 70
     1
  9
$MAXACTVP
 70
    64
  9
$PINSBASE
 10
0.0
 20
0.0
 30
0.0
  9
$PLIMCHECK
 70
     0
  9
$PEXTMIN
 10
0.0
 20
0.0
 30
0.0
  9
$PEXTMAX
 10
0.0
 20
0.0
 30
0.0
  9
$PLIMMIN
 10
0.0
 20
0.0
  9
$PLIMMAX
 10
12.0
 20
9.0
  9
$UNITMODE
 70
     0
  9
$VISRETAIN
 70
     0
  9
$PLINEGEN
 70
     0
  9
$PSLTSCALE
 70
     1
  9
$TREEDEPTH
 70
  3020
  9
$CMLSTYLE
  2
STANDARD
  9
$CMLJUST
 70
     0
  9
$CMLSCALE
 40
20.0
  9
$PROXYGRAPHICS
 70
     1
  9
$MEASUREMENT
 70
     1
  9
$CELWEIGHT
370
    -1
  9
$ENDCAPS
280
     0
  9
$JOINSTYLE
280
     0
  9
$LWDISPLAY
290
     0
  9
$INSUNITS
 70
     4
  9
$HYPERLINKBASE
  1

  9
$STYLESHEET
  1
MONOCHROME.CTB
  9
$XEDIT
290
     1
  9
$CEPSNTYPE
380
     0
  9
$PSTYLEMODE
290
     1
  9
$FINGERPRINTGUID
  2
{46B44192-1510-48B1-B61B-CBE2ADA013A7}
  9
$VERSIONGUID
  2
{6160D478-9A74-4C97-9D8A-D4A65CE74B12}
  9
$EXTNAMES
290
     1
  9
$PSVPSCALE
 40
0.0
  9
$OLESTARTUP
290
     0
  0
ENDSEC
  0
SECTION
  2
CLASSES
  0
CLASS
  1
ACDBDICTIONARYWDFLT
  2
AcDbDictionaryWithDefault
  3
ObjectDBX Classes
 90
        0
280
     0
281
     0
  0
CLASS
  1
ACDBPLACEHOLDER
  2
AcDbPlaceHolder
  3
ObjectDBX Classes
 90
        0
280
     0
281
     0
  0
CLASS
  1
LAYOUT
  2
AcDbLayout
  3
ObjectDBX Classes
 90
        0
280
     0
281
     0
  0
CLASS
  1
DICTIONARYVAR
  2
AcDbDictionaryVar
  3
ObjectDBX Classes
 90
        0
280
     0
281
     0
  0
CLASS
  1
TABLESTYLE
  2
AcDbTableStyle
  3
ObjectDBX Classes
 90
     4095
280
     0
281
     0
  0
CLASS
  1
SCALE
  2
AcDbScale
  3
ObjectDBX Classes
 90
     1153
280
     0
281
     0
  0
CLASS
  1
MATERIAL
  2
AcDbMaterial
  3
ObjectDBX Classes
 90
     1153
280
     0
281
     0
  0
CLASS
  1
VISUALSTYLE
  2
AcDbVisualStyle
  3
ObjectDBX Classes
 90
     4095
280
     0
281
     0
  0
ENDSEC
  0
SECTION
  2
TABLES
  0
TABLE
  2
VPORT
  5
8
330
0
100
AcDbSymbolTable
 70
     1
  0
VPORT
  5
39A
330
8
100
AcDbSymbolTableRecord
100
AcDbViewportTableRecord
  2
*Active
 70
     0
 10
0.0
 20
0.0
 11
1.0
 21
1.0
 12
218.9201881351169
 22
109.7549380673833
 13
0.0
 23
0.0
 14
5.0
 24
5.0
 15
5.0
 25
5.0
 16
0.0
 26
0.0
 36
1.0
 17
0.0
 27
0.0
 37
0.0
 40
564.6711112651689
 41
1.066073697585768
 42
50.0
 43
0.0
 44
0.0
 50
0.0
 51
0.0
 71
     0
 72
  2000
 73
     1
 74
     1
 75
     0
 76
     0
 77
     0
 78
     0
281
     0
 65
     1
110
0.0
120
0.0
130
0.0
111
1.0
121
0.0
131
0.0
112
0.0
122
1.0
132
0.0
 79
     0
146
0.0
  0
ENDTAB
  0
TABLE
  2
LTYPE
  5
5
330
0
100
AcDbSymbolTable
 70
     3
  0
LTYPE
  5
12
330
5
100
AcDbSymbolTableRecord
100
AcDbLinetypeTableRecord
  2
BYBLOCK
 70
     0
  3

 72
    65
 73
     0
 40
0.0
  0
LTYPE
  5
13
330
5
100
AcDbSymbolTableRecord
100
AcDbLinetypeTableRecord
  2
BYLAYER
 70
     0
  3

 72
    65
 73
     0
 40
0.0
  0
LTYPE
  5
14
330
5
100
AcDbSymbolTableRecord
100
AcDbLinetypeTableRecord
  2
CONTINUOUS
 70
     0
  3
Solid line
 72
    65
 73
     0
 40
0.0
  0
LTYPE
  5
20
330
5
100
AcDbSymbolTableRecord
100
AcDbLinetypeTableRecord
  2
HIDDEN
 70
     0
  3
Hidden __ __ __ __ __ __ __ __ __ __ __ __ __ _
 72
    65
 73
     2
 40
9.524999999999997
 49
6.349999999999998
 74
     0
 49
-3.174999999999998
 74
     0
  0
LTYPE
  5
351
330
5
100
AcDbSymbolTableRecord
100
AcDbLinetypeTableRecord
  2
CENTER
 70
     0
  3
Dash dot __ . __ . __ . __ . __ . __ . __ . __
 72
    65
 73
     4
 40
25.4
 49
12.7
 74
     0
 49
-6.349999999999998
 74
     0
 49
0.0
 74
     0
 49
-6.349999999999998
 74
     0
  0
ENDTAB
  0
TABLE
  2
LAYER
  5
2
330
0
100
AcDbSymbolTable
 70
    16
  0
LAYER
  5
F
330
2
100
AcDbSymbolTableRecord
100
AcDbLayerTableRecord
  2
0
 70
     0
 62
     7
  6
CONTINUOUS
370
    -3
390
300
  0
LAYER
  5
23
330
2
100
AcDbSymbolTableRecord
100
AcDbLayerTableRecord
  2
1
 70
     0
 62
     4
  6
CONTINUOUS
370
    -3
390
300
  0
LAYER
  5
24
330
2
100
AcDbSymbolTableRecord
100
AcDbLayerTableRecord
  2
SK1
 70
     0
 62
     4
  6
CONTINUOUS
370
    -3
390
300
  0
LAYER
  5
25
330
2
100
AcDbSymbolTableRecord
100
AcDbLayerTableRecord
  2
2
 70
     0
 62
     7
  6
CONTINUOUS
370
    -3
390
300
  0
LAYER
  5
26
330
2
100
AcDbSymbolTableRecord
100
AcDbLayerTableRecord
  2
2L
 70
     0
 62
     7
  6
CONTINUOUS
370
    -3
390
300
  0
LAYER
  5
27
330
2
100
AcDbSymbolTableRecord
100
AcDbLayerTableRecord
  2
SK2
 70
     0
 62
     7
  6
CONTINUOUS
370
    -3
390
300
  0
LAYER
  5
28
330
2
100
AcDbSymbolTableRecord
100
AcDbLayerTableRecord
  2
3
 70
     0
 62
     1
  6
HIDDEN
370
    -3
390
300
  0
LAYER
  5
29
330
2
100
AcDbSymbolTableRecord
100
AcDbLayerTableRecord
  2
SK3
 70
     0
 62
     1
  6
HIDDEN
370
    -3
390
300
  0
LAYER
  5
2A
330
2
100
AcDbSymbolTableRecord
100
AcDbLayerTableRecord
  2
4
 70
     0
 62
     2
  6
CENTER
370
    -3
390
300
  0
LAYER
  5
2B
330
2
100
AcDbSymbolTableRecord
100
AcDbLayerTableRecord
  2
SK4
 70
     0
 62
     2
  6
CENTER
370
    -3
390
300
  0
LAYER
  5
2C
330
2
100
AcDbSymbolTableRecord
100
AcDbLayerTableRecord
  2
5
 70
     0
 62
    -7
  6
CONTINUOUS
370
    -3
390
300
  0
LAYER
  5
2D
330
2
100
AcDbSymbolTableRecord
100
AcDbLayerTableRecord
  2
6
 70
     0
 62
     5
  6
CONTINUOUS
370
    -3
390
300
  0
LAYER
  5
2E
330
2
100
AcDbSymbolTableRecord
100
AcDbLayerTableRecord
  2
SK6
 70
     0
 62
     5
  6
CONTINUOUS
370
    -3
390
300
  0
LAYER
  5
2F
330
2
100
AcDbSymbolTableRecord
100
AcDbLayerTableRecord
  2
DEFPOINTS
 70
     0
 62
     7
  6
CONTINUOUS
290
     0
370
    -3
390
300
  0
LAYER
  5
375
330
2
100
AcDbSymbolTableRecord
100
AcDbLayerTableRecord
  2
CUT
 70
     0
 62
     1
  6
CONTINUOUS
370
    -3
390
300
  0
LAYER
  5
376
330
2
100
AcDbSymbolTableRecord
100
AcDbLayerTableRecord
  2
NOCUT
 70
     0
 62
     7
  6
CONTINUOUS
370
    -3
390
300
  0
ENDTAB
  0
TABLE
  2
STYLE
  5
3
330
0
100
AcDbSymbolTable
 70
     4
  0
STYLE
  5
10
330
3
100
AcDbSymbolTableRecord
100
AcDbTextStyleTableRecord
  2
STANDARD
 70
     0
 40
0.0
 41
1.0
 50
0.0
 71
     0
 42
5.0
  3
txt
  4

  0
STYLE
  5
1D
330
3
100
AcDbSymbolTableRecord
100
AcDbTextStyleTableRecord
  2
TXT
 70
     0
 40
8.0
 41
1.0
 50
0.0
 71
     0
 42
8.0
  3
txt
  4

  0
STYLE
  5
1E
330
3
100
AcDbSymbolTableRecord
100
AcDbTextStyleTableRecord
  2
SIMPLEX
 70
     0
 40
0.0
 41
1.0
 50
0.0
 71
     0
 42
3.5
  3
simplex
  4

  0
STYLE
  5
34C
330
3
100
AcDbSymbolTableRecord
100
AcDbTextStyleTableRecord
  2

 70
     1
 40
0.0
 41
1.0
 50
0.0
 71
     0
 42
2.5
  3
ltypeshp.shx
  4

  0
ENDTAB
  0
TABLE
  2
VIEW
  5
6
330
0
100
AcDbSymbolTable
 70
     0
  0
ENDTAB
  0
TABLE
  2
UCS
  5
7
330
0
100
AcDbSymbolTable
 70
     0
  0
ENDTAB
  0
TABLE
  2
APPID
  5
9
330
0
100
AcDbSymbolTable
 70
     1
  0
APPID
  5
11
330
9
100
AcDbSymbolTableRecord
100
AcDbRegAppTableRecord
  2
ACAD
 70
     0
  0
ENDTAB
  0
TABLE
  2
DIMSTYLE
  5
A
330
0
100
AcDbSymbolTable
 70
     1
100
AcDbDimStyleTable
  0
DIMSTYLE
105
3F
102
{ACAD_REACTORS
330
5C8
330
5D6
330
5E3
330
5F1
330
5FF
102
}
330
A
100
AcDbSymbolTableRecord
100
AcDbDimStyleTableRecord
  2
STANDARD
 70
     0
 41
2.5
 42
0.0
 43
3.75
 44
1.25
 73
     0
 74
     0
 77
     1
 78
     8
 79
     2
140
3.5
141
0.0
143
0.039370078
147
0.625
171
     3
178
     0
179
     2
271
     2
272
     2
274
     3
283
     0
284
     8
340
1E
  0
ENDTAB
  0
TABLE
  2
BLOCK_RECORD
  5
1
330
0
100
AcDbSymbolTable
 70
     5
  0
BLOCK_RECORD
  5
18
330
1
100
AcDbSymbolTableRecord
100
AcDbBlockTableRecord
  2
*MODEL_SPACE
340
303
  0
BLOCK_RECORD
  5
338
330
1
100
AcDbSymbolTableRecord
100
AcDbBlockTableRecord
  2
*Paper_Space
340
33B
  0
BLOCK_RECORD
  5
5C9
330
1
100
AcDbSymbolTableRecord
100
AcDbBlockTableRecord
  2
*D0
340
0
  0
BLOCK_RECORD
  5
5D7
330
1
100
AcDbSymbolTableRecord
100
AcDbBlockTableRecord
  2
*D1
340
0
  0
BLOCK_RECORD
  5
5E4
330
1
100
AcDbSymbolTableRecord
100
AcDbBlockTableRecord
  2
*D2
340
0
  0
BLOCK_RECORD
  5
5F2
330
1
100
AcDbSymbolTableRecord
100
AcDbBlockTableRecord
  2
*D3
340
0
  0
BLOCK_RECORD
  5
600
330
1
100
AcDbSymbolTableRecord
100
AcDbBlockTableRecord
  2
*D4
340
0
  0
ENDTAB
  0
ENDSEC
  0
SECTION
  2
BLOCKS
  0
BLOCK
  5
32
330
18
100
AcDbEntity
  8
0
100
AcDbBlockBegin
  2
*MODEL_SPACE
 70
     0
 10
0.0
 20
0.0
 30
0.0
  3
*MODEL_SPACE
  1

  0
ENDBLK
  5
33
330
18
100
AcDbEntity
  8
0
100
AcDbBlockEnd
  0
BLOCK
  5
339
330
338
100
AcDbEntity
 67
     1
  8
0
100
AcDbBlockBegin
  2
*Paper_Space
 70
     0
 10
0.0
 20
0.0
 30
0.0
  3
*Paper_Space
  1

  0
ENDBLK
  5
33A
330
338
100
AcDbEntity
 67
     1
  8
0
100
AcDbBlockEnd
  0
BLOCK
  5
5CA
330
5C9
100
AcDbEntity
  8
0
100
AcDbBlockBegin
  2
*D0
 70
     1
 10
0.0
 20
0.0
 30
0.0
  3
*D0
  1

  0
LINE
  5
5CC
330
5C9
100
AcDbEntity
  8
2
 62
     0
370
    -2
100
AcDbLine
 10
47.0
 20
2.5
 30
0.0
 11
63.25000000000001
 21
2.500000000000056
 31
0.0
  0
LINE
  5
5CD
330
5C9
100
AcDbEntity
  8
2
 62
     0
370
    -2
100
AcDbLine
 10
47.0
 20
-2.5
 30
0.0
 11
63.25000000000002
 21
-2.499999999999944
 31
0.0
  0
LINE
  5
5CE
330
5C9
100
AcDbEntity
  8
2
 62
     0
370
    -2
100
AcDbLine
 10
62.00000000000003
 20
-4.999999999999948
 30
0.0
 11
62.00000000000006
 21
-14.90299999999995
 31
0.0
  0
LINE
  5
5CF
330
5C9
100
AcDbEntity
  8
2
 62
     0
370
    -2
100
AcDbLine
 10
62.0
 20
5.000000000000052
 30
0.0
 11
61.99999999999999
 21
7.500000000000052
 31
0.0
  0
SOLID
  5
5D0
330
5C9
100
AcDbEntity
  8
2
 62
     0
100
AcDbTrace
 10
61.58333333333334
 20
5.000000000000051
 30
0.0
 11
62.41666666666666
 21
5.000000000000052
 31
0.0
 12
62.00000000000001
 22
2.500000000000052
 32
0.0
 13
62.00000000000001
 23
2.500000000000052
 33
0.0
  0
SOLID
  5
5D1
330
5C9
100
AcDbEntity
  8
2
 62
     0
100
AcDbTrace
 10
62.41666666666669
 20
-4.999999999999948
 30
0.0
 11
61.58333333333336
 21
-4.999999999999949
 31
0.0
 12
62.00000000000002
 22
-2.499999999999948
 32
0.0
 13
62.00000000000002
 23
-2.499999999999948
 33
0.0
  0
MTEXT
  5
5D2
330
5C9
100
AcDbEntity
  8
2
 62
     0
100
AcDbMText
 10
59.60925000000005
 20
-11.20149999999995
 30
0.0
 40
3.5
 41
0.0
 71
     5
 72
     1
  1
M5
  7
SIMPLEX
 11
-2.842170943040401E-15
 21
1.0
 31
0.0
 73
     1
 44
1.0
  0
POINT
  5
5D3
330
5C9
100
AcDbEntity
  8
DEFPOINTS
 62
     0
100
AcDbPoint
 10
47.0
 20
2.5
 30
0.0
  0
POINT
  5
5D4
330
5C9
100
AcDbEntity
  8
DEFPOINTS
 62
     0
100
AcDbPoint
 10
47.0
 20
-2.5
 30
0.0
  0
POINT
  5
5D5
330
5C9
100
AcDbEntity
  8
DEFPOINTS
 62
     0
100
AcDbPoint
 10
62.00000000000002
 20
-2.499999999999948
 30
0.0
  0
ENDBLK
  5
5CB
330
5C9
100
AcDbEntity
  8
0
100
AcDbBlockEnd
  0
BLOCK
  5
5D8
330
5D7
100
AcDbEntity
  8
0
100
AcDbBlockBegin
  2
*D1
 70
     1
 10
0.0
 20
0.0
 30
0.0
  3
*D1
  1

  0
LINE
  5
5DA
330
5D7
100
AcDbEntity
  8
2
 62
     0
370
    -2
100
AcDbLine
 10
0.0
 20
0.0
 30
0.0
 11
0.0
 21
76.25
 31
0.0
  0
LINE
  5
5DB
330
5D7
100
AcDbEntity
  8
2
 62
     0
370
    -2
100
AcDbLine
 10
47.0
 20
0.0
 30
0.0
 11
47.0
 21
76.25
 31
0.0
  0
LINE
  5
5DC
330
5D7
100
AcDbEntity
  8
2
 62
     0
370
    -2
100
AcDbLine
 10
2.5
 20
75.0
 30
0.0
 11
44.5
 21
75.0
 31
0.0
  0
SOLID
  5
5DD
330
5D7
100
AcDbEntity
  8
2
 62
     0
100
AcDbTrace
 10
2.5
 20
75.41666666666667
 30
0.0
 11
2.5
 21
74.58333333333333
 31
0.0
 12
0.0
 22
75.0
 32
0.0
 13
0.0
 23
75.0
 33
0.0
  0
SOLID
  5
5DE
330
5D7
100
AcDbEntity
  8
2
 62
     0
100
AcDbTrace
 10
44.5
 20
74.58333333333333
 30
0.0
 11
44.5
 21
75.41666666666667
 31
0.0
 12
47.0
 22
75.0
 32
0.0
 13
47.0
 23
75.0
 33
0.0
  0
MTEXT
  5
5DF
330
5D7
100
AcDbEntity
  8
2
 62
     0
100
AcDbMText
 10
23.5
 20
77.4205
 30
0.0
 40
3.5
 41
0.0
 71
     5
 72
     1
  1
47
  7
SIMPLEX
 73
     1
 44
1.0
  0
POINT
  5
5E0
330
5D7
100
AcDbEntity
  8
DEFPOINTS
 62
     0
100
AcDbPoint
 10
0.0
 20
0.0
 30
0.0
  0
POINT
  5
5E1
330
5D7
100
AcDbEntity
  8
DEFPOINTS
 62
     0
100
AcDbPoint
 10
47.0
 20
0.0
 30
0.0
  0
POINT
  5
5E2
330
5D7
100
AcDbEntity
  8
DEFPOINTS
 62
     0
100
AcDbPoint
 10
47.0
 20
75.0
 30
0.0
  0
ENDBLK
  5
5D9
330
5D7
100
AcDbEntity
  8
0
100
AcDbBlockEnd
  0
BLOCK
  5
5E5
330
5E4
100
AcDbEntity
  8
0
100
AcDbBlockBegin
  2
*D2
 70
     1
 10
0.0
 20
0.0
 30
0.0
  3
*D2
  1

  0
LINE
  5
5E7
330
5E4
100
AcDbEntity
  8
SK2
 62
     0
370
    -2
100
AcDbLine
 10
-14.995
 20
3.0
 30
0.0
 11
-39.2450000000153
 21
2.999999999876242
 31
0.0
  0
LINE
  5
5E8
330
5E4
100
AcDbEntity
  8
SK2
 62
     0
370
    -2
100
AcDbLine
 10
-14.995
 20
-3.0
 30
0.0
 11
-39.24499999998469
 21
-3.000000000123758
 31
0.0
  0
LINE
  5
5E9
330
5E4
100
AcDbEntity
  8
SK2
 62
     0
370
    -2
100
AcDbLine
 10
-37.99499999997193
 20
-5.500000000117378
 30
0.0
 11
-37.99499999992224
 21
-15.23850000011738
 31
0.0
  0
LINE
  5
5EA
330
5E4
100
AcDbEntity
  8
SK2
 62
     0
370
    -2
100
AcDbLine
 10
-37.99500000002806
 20
5.499999999882622
 30
0.0
 11
-37.99500000004081
 21
7.999999999882622
 31
0.0
  0
SOLID
  5
5EB
330
5E4
100
AcDbEntity
  8
SK2
 62
     0
100
AcDbTrace
 10
-38.41166666669472
 20
5.499999999880496
 30
0.0
 11
-37.57833333336139
 21
5.499999999884748
 31
0.0
 12
-37.9950000000153
 22
2.999999999882621
 32
0.0
 13
-37.9950000000153
 23
2.999999999882621
 33
0.0
  0
SOLID
  5
5EC
330
5E4
100
AcDbEntity
  8
SK2
 62
     0
100
AcDbTrace
 10
-37.57833333330527
 20
-5.500000000115252
 30
0.0
 11
-38.4116666666386
 21
-5.500000000119504
 31
0.0
 12
-37.99499999998469
 22
-3.000000000117379
 32
0.0
 13
-37.99499999998469
 23
-3.000000000117379
 33
0.0
  0
MTEXT
  5
5ED
330
5E4
100
AcDbEntity
  8
SK2
 62
     0
100
AcDbMText
 10
-40.3857499999407
 20
-11.61925000012958
 30
0.0
 40
3.5
 41
0.0
 71
     5
 72
     1
  1
%%c6
  7
SIMPLEX
 11
-5.102881080650453E-12
 21
1.0
 31
0.0
 73
     1
 44
1.0
  0
POINT
  5
5EE
330
5E4
100
AcDbEntity
  8
DEFPOINTS
 62
     0
100
AcDbPoint
 10
-14.995
 20
3.0
 30
0.0
  0
POINT
  5
5EF
330
5E4
100
AcDbEntity
  8
DEFPOINTS
 62
     0
100
AcDbPoint
 10
-14.995
 20
-3.0
 30
0.0
  0
POINT
  5
5F0
330
5E4
100
AcDbEntity
  8
DEFPOINTS
 62
     0
100
AcDbPoint
 10
-37.99499999998469
 20
-3.000000000117379
 30
0.0
  0
ENDBLK
  5
5E6
330
5E4
100
AcDbEntity
  8
0
100
AcDbBlockEnd
  0
BLOCK
  5
5F3
330
5F2
100
AcDbEntity
  8
0
100
AcDbBlockBegin
  2
*D3
 70
     1
 10
0.0
 20
0.0
 30
0.0
  3
*D3
  1

  0
LINE
  5
5F5
330
5F2
100
AcDbEntity
  8
2
 62
     0
370
    -2
100
AcDbLine
 10
33.3261285
 20
1.88
 30
0.0
 11
33.3261285
 21
61.25
 31
0.0
  0
LINE
  5
5F6
330
5F2
100
AcDbEntity
  8
2
 62
     0
370
    -2
100
AcDbLine
 10
47.0
 20
2.5
 30
0.0
 11
47.0
 21
61.25
 31
0.0
  0
LINE
  5
5F7
330
5F2
100
AcDbEntity
  8
2
 62
     0
370
    -2
100
AcDbLine
 10
47.0
 20
60.0
 30
0.0
 11
63.78400000000001
 21
60.0
 31
0.0
  0
LINE
  5
5F8
330
5F2
100
AcDbEntity
  8
2
 62
     0
370
    -2
100
AcDbLine
 10
35.8261285
 20
60.0
 30
0.0
 11
44.5
 21
60.0
 31
0.0
  0
SOLID
  5
5F9
330
5F2
100
AcDbEntity
  8
2
 62
     0
100
AcDbTrace
 10
35.8261285
 20
60.41666666666666
 30
0.0
 11
35.8261285
 21
59.58333333333334
 31
0.0
 12
33.3261285
 22
60.0
 32
0.0
 13
33.3261285
 23
60.0
 33
0.0
  0
SOLID
  5
5FA
330
5F2
100
AcDbEntity
  8
2
 62
     0
100
AcDbTrace
 10
44.5
 20
59.58333333333334
 30
0.0
 11
44.5
 21
60.41666666666666
 31
0.0
 12
47.0
 22
60.0
 32
0.0
 13
47.0
 23
60.0
 33
0.0
  0
MTEXT
  5
5FB
330
5F2
100
AcDbEntity
  8
2
 62
     0
100
AcDbMText
 10
56.642
 20
62.39775
 30
0.0
 40
3.5
 41
0.0
 71
     5
 72
     1
  1
13.67
  7
SIMPLEX
 73
     1
 44
1.0
  0
POINT
  5
5FC
330
5F2
100
AcDbEntity
  8
DEFPOINTS
 62
     0
100
AcDbPoint
 10
33.3261285
 20
1.88
 30
0.0
  0
POINT
  5
5FD
330
5F2
100
AcDbEntity
  8
DEFPOINTS
 62
     0
100
AcDbPoint
 10
47.0
 20
2.5
 30
0.0
  0
POINT
  5
5FE
330
5F2
100
AcDbEntity
  8
DEFPOINTS
 62
     0
100
AcDbPoint
 10
47.0
 20
60.0
 30
0.0
  0
ENDBLK
  5
5F4
330
5F2
100
AcDbEntity
  8
0
100
AcDbBlockEnd
  0
BLOCK
  5
601
330
600
100
AcDbEntity
  8
0
100
AcDbBlockBegin
  2
*D4
 70
     1
 10
0.0
 20
0.0
 30
0.0
  3
*D4
  1

  0
LINE
  5
603
330
600
100
AcDbEntity
  8
SK2
 62
     0
370
    -2
100
AcDbLine
 10
-22.995
 20
2.5
 30
0.0
 11
-22.995
 21
91.25
 31
0.0
  0
LINE
  5
604
330
600
100
AcDbEntity
  8
SK2
 62
     0
370
    -2
100
AcDbLine
 10
49.005
 20
2.5
 30
0.0
 11
49.005
 21
91.25
 31
0.0
  0
LINE
  5
605
330
600
100
AcDbEntity
  8
SK2
 62
     0
370
    -2
100
AcDbLine
 10
-20.495
 20
90.0
 30
0.0
 11
46.505
 21
90.0
 31
0.0
  0
SOLID
  5
606
330
600
100
AcDbEntity
  8
SK2
 62
     0
100
AcDbTrace
 10
-20.495
 20
90.41666666666667
 30
0.0
 11
-20.495
 21
89.58333333333333
 31
0.0
 12
-22.995
 22
90.0
 32
0.0
 13
-22.995
 23
90.0
 33
0.0
  0
SOLID
  5
607
330
600
100
AcDbEntity
  8
SK2
 62
     0
100
AcDbTrace
 10
46.505
 20
89.58333333333333
 30
0.0
 11
46.505
 21
90.41666666666667
 31
0.0
 12
49.005
 22
90.0
 32
0.0
 13
49.005
 23
90.0
 33
0.0
  0
MTEXT
  5
608
330
600
100
AcDbEntity
  8
SK2
 62
     0
100
AcDbMText
 10
13.005
 20
92.39075
 30
0.0
 40
3.5
 41
0.0
 71
     5
 72
     1
  1
72
  7
SIMPLEX
 73
     1
 44
1.0
  0
POINT
  5
609
330
600
100
AcDbEntity
  8
DEFPOINTS
 62
     0
100
AcDbPoint
 10
-22.995
 20
2.5
 30
0.0
  0
POINT
  5
60A
330
600
100
AcDbEntity
  8
DEFPOINTS
 62
     0
100
AcDbPoint
 10
49.005
 20
2.5
 30
0.0
  0
POINT
  5
60B
330
600
100
AcDbEntity
  8
DEFPOINTS
 62
     0
100
AcDbPoint
 10
49.005
 20
90.0
 30
0.0
  0
ENDBLK
  5
602
330
600
100
AcDbEntity
  8
0
100
AcDbBlockEnd
  0
ENDSEC
  0
SECTION
  2
ENTITIES
  0
LINE
  5
3D6
330
18
100
AcDbEntity
  8
SK4
100
AcDbLine
 10
-24.995
 20
0.0
 30
0.0
 11
16.1
 21
0.0
 31
0.0
  0
LINE
  5
3D7
330
18
100
AcDbEntity
  8
4
100
AcDbLine
 10
14.1
 20
0.0
 30
0.0
 11
51.005
 21
0.0
 31
0.0
  0
LINE
  5
3D8
330
18
100
AcDbEntity
  8
SK4
100
AcDbLine
 10
14.1
 20
0.0
 30
0.0
 11
51.005
 21
0.0
 31
0.0
  0
LINE
  5
3D9
330
18
100
AcDbEntity
  8
1
100
AcDbLine
 10
16.1
 20
3.0
 30
0.0
 11
-0.0000000000000009
 21
3.0
 31
0.0
  0
LINE
  5
3DA
330
18
100
AcDbEntity
  8
1
100
AcDbLine
 10
16.1
 20
3.0
 30
0.0
 11
16.1
 21
2.99701742011701
 31
0.0
  0
LINE
  5
3DB
330
18
100
AcDbEntity
  8
1
100
AcDbLine
 10
16.1
 20
2.99701742011701
 30
0.0
 11
16.1
 21
2.73082016327026
 31
0.0
  0
LINE
  5
3DC
330
18
100
AcDbEntity
  8
1
100
AcDbLine
 10
16.1
 20
2.73082016327026
 30
0.0
 11
16.1
 21
-3.0
 31
0.0
  0
LINE
  5
3DD
330
18
100
AcDbEntity
  8
1
100
AcDbLine
 10
16.1
 20
3.0
 30
0.0
 11
22.45183564
 21
1.88
 31
0.0
  0
LINE
  5
3DE
330
18
100
AcDbEntity
  8
1
100
AcDbLine
 10
22.45183564
 20
1.88
 30
0.0
 11
22.45183564
 21
1.878130916606659
 31
0.0
  0
LINE
  5
3DF
330
18
100
AcDbEntity
  8
1
100
AcDbLine
 10
22.45183564
 20
1.878130916606659
 30
0.0
 11
22.45183564
 21
1.711313968982696
 31
0.0
  0
LINE
  5
3E0
330
18
100
AcDbEntity
  8
1
100
AcDbLine
 10
22.45183564
 20
1.711313968982696
 30
0.0
 11
22.45183564
 21
-1.88
 31
0.0
  0
LINE
  5
3E1
330
18
100
AcDbEntity
  8
1
100
AcDbLine
 10
23.50000000000001
 20
-1.583981640148568
 30
0.0
 11
33.3261285
 21
-1.583981640148567
 31
0.0
  0
LINE
  5
3E2
330
18
100
AcDbEntity
  8
1
100
AcDbLine
 10
23.50000000000001
 20
-0.4681094061625695
 30
0.0
 11
33.3261285
 21
-0.4681094061625695
 31
0.0
  0
LINE
  5
3E3
330
18
100
AcDbEntity
  8
1
100
AcDbLine
 10
22.45183564
 20
1.88
 30
0.0
 11
33.3261285
 21
1.88
 31
0.0
  0
LINE
  5
3E4
330
18
100
AcDbEntity
  8
1
100
AcDbLine
 10
23.5
 20
-1.583981640148567
 30
0.0
 11
23.50000000000001
 21
-1.88
 31
0.0
  0
LINE
  5
3E5
330
18
100
AcDbEntity
  8
1
100
AcDbLine
 10
23.50000000000001
 20
1.668946704229348
 30
0.0
 11
23.50000000000001
 21
-0.4681094061625696
 31
0.0
  0
LINE
  5
3E6
330
18
100
AcDbEntity
  8
1
100
AcDbLine
 10
23.50000000000001
 20
1.668946704229348
 30
0.0
 11
33.3261285
 21
1.668946704229348
 31
0.0
  0
LINE
  5
3E7
330
18
100
AcDbEntity
  8
1
100
AcDbLine
 10
33.3261285
 20
1.88
 30
0.0
 11
33.3261285
 21
1.877052899947969
 31
0.0
  0
LINE
  5
3E8
330
18
100
AcDbEntity
  8
1
100
AcDbLine
 10
33.3261285
 20
1.877052899947969
 30
0.0
 11
33.3261285
 21
1.8523836068769
 31
0.0
  0
LINE
  5
3E9
330
18
100
AcDbEntity
  8
1
100
AcDbLine
 10
33.32612849999999
 20
1.8523836068769
 30
0.0
 11
33.3261285
 21
1.668946704229326
 31
0.0
  0
LINE
  5
3EA
330
18
100
AcDbEntity
  8
1
100
AcDbLine
 10
33.3261285
 20
1.668946704229346
 30
0.0
 11
33.3261285
 21
-0.269866784680656
 31
0.0
  0
LINE
  5
3EB
330
18
100
AcDbEntity
  8
1
100
AcDbLine
 10
33.3261285
 20
-0.2698667846806941
 30
0.0
 11
33.3261285
 21
-0.4681094061625808
 31
0.0
  0
LINE
  5
3EC
330
18
100
AcDbEntity
  8
1
100
AcDbLine
 10
33.3261285
 20
-0.4681094061625704
 30
0.0
 11
33.3261285
 21
-1.583981640148468
 31
0.0
  0
LINE
  5
3ED
330
18
100
AcDbEntity
  8
1
100
AcDbLine
 10
-0.0000000000000004
 20
-3.0
 30
0.0
 11
16.1
 21
-3.0
 31
0.0
  0
LINE
  5
3EE
330
18
100
AcDbEntity
  8
1
100
AcDbLine
 10
16.1
 20
-3.0
 30
0.0
 11
22.45183564
 21
-1.88
 31
0.0
  0
LINE
  5
3EF
330
18
100
AcDbEntity
  8
1
100
AcDbLine
 10
22.45183564
 20
-1.88
 30
0.0
 11
23.50000000000001
 21
-1.88
 31
0.0
  0
LINE
  5
3F0
330
18
100
AcDbEntity
  8
1
 62
     1
100
AcDbLine
 10
40.98845298923242
 20
2.5
 30
0.0
 11
41.01154701076759
 21
2.5
 31
0.0
  0
LINE
  5
3F1
330
18
100
AcDbEntity
  8
1
 62
     1
100
AcDbLine
 10
41.78845298923241
 20
2.5
 30
0.0
 11
41.81154701076758
 21
2.5
 31
0.0
  0
LINE
  5
3F2
330
18
100
AcDbEntity
  8
1
 62
     1
100
AcDbLine
 10
43.38845298923243
 20
2.5
 30
0.0
 11
43.41154701076759
 21
2.5
 31
0.0
  0
LINE
  5
3F3
330
18
100
AcDbEntity
  8
1
 62
     1
100
AcDbLine
 10
42.58845298923242
 20
2.5
 30
0.0
 11
42.61154701076759
 21
2.5
 31
0.0
  0
LINE
  5
3F4
330
18
100
AcDbEntity
  8
1
 62
     1
100
AcDbLine
 10
35.38845298923242
 20
2.5
 30
0.0
 11
35.41154701076759
 21
2.5
 31
0.0
  0
LINE
  5
3F5
330
18
100
AcDbEntity
  8
1
 62
     1
100
AcDbLine
 10
36.18845298923242
 20
2.5
 30
0.0
 11
36.2115470107676
 21
2.5
 31
0.0
  0
LINE
  5
3F6
330
18
100
AcDbEntity
  8
1
 62
     1
100
AcDbLine
 10
37.78845298923242
 20
2.5
 30
0.0
 11
37.8115470107676
 21
2.5
 31
0.0
  0
LINE
  5
3F7
330
18
100
AcDbEntity
  8
1
 62
     1
100
AcDbLine
 10
36.98845298923242
 20
2.5
 30
0.0
 11
37.01154701076759
 21
2.5
 31
0.0
  0
LINE
  5
3F8
330
18
100
AcDbEntity
  8
1
 62
     1
100
AcDbLine
 10
43.41154701076761
 20
-0.786889073140085
 30
0.0
 11
43.38845298923244
 21
-0.786889073140085
 31
0.0
  0
LINE
  5
3F9
330
18
100
AcDbEntity
  8
1
 62
     1
100
AcDbLine
 10
42.61154701076761
 20
-0.786889073140085
 30
0.0
 11
42.58845298923244
 21
-0.786889073140085
 31
0.0
  0
LINE
  5
3FA
330
18
100
AcDbEntity
  8
1
 62
     1
100
AcDbLine
 10
41.8115470107676
 20
-2.160621913033451
 30
0.0
 11
41.78845298923243
 21
-2.160621913033451
 31
0.0
  0
LINE
  5
3FB
330
18
100
AcDbEntity
  8
1
 62
     1
100
AcDbLine
 10
41.01154701076759
 20
-0.786889073140085
 30
0.0
 11
40.98845298923245
 21
-0.786889073140085
 31
0.0
  0
LINE
  5
3FC
330
18
100
AcDbEntity
  8
1
 62
     1
100
AcDbLine
 10
40.21154701076762
 20
-0.786889073140085
 30
0.0
 11
40.18845298923245
 21
-0.786889073140085
 31
0.0
  0
LINE
  5
3FD
330
18
100
AcDbEntity
  8
1
 62
     1
100
AcDbLine
 10
39.41154701076761
 20
-0.786889073140085
 30
0.0
 11
39.38845298923242
 21
-0.786889073140085
 31
0.0
  0
LINE
  5
3FE
330
18
100
AcDbEntity
  8
1
 62
     1
100
AcDbLine
 10
38.61154701076759
 20
-0.786889073140085
 30
0.0
 11
38.58845298923244
 21
-0.7868890731400854
 31
0.0
  0
LINE
  5
3FF
330
18
100
AcDbEntity
  8
1
 62
     1
100
AcDbLine
 10
37.0115470107676
 20
-0.786889073140085
 30
0.0
 11
36.98845298923243
 21
-0.786889073140085
 31
0.0
  0
LINE
  5
400
330
18
100
AcDbEntity
  8
1
 62
     1
100
AcDbLine
 10
36.21154701076761
 20
-0.786889073140085
 30
0.0
 11
36.18845298923244
 21
-0.786889073140085
 31
0.0
  0
LINE
  5
401
330
18
100
AcDbEntity
  8
1
 62
     1
100
AcDbLine
 10
35.41154701076759
 20
-0.786889073140085
 30
0.0
 11
35.38845298923242
 21
-0.786889073140085
 31
0.0
  0
LINE
  5
402
330
18
100
AcDbEntity
  8
1
 62
     1
100
AcDbLine
 10
34.61154701076759
 20
-0.786889073140085
 30
0.0
 11
34.58845298923242
 21
-0.786889073140085
 31
0.0
  0
LINE
  5
403
330
18
100
AcDbEntity
  8
1
 62
     1
100
AcDbLine
 10
46.88825524034836
 20
-0.5409611465393506
 30
0.0
 11
46.35507089358526
 21
-0.5796661966750469
 31
0.0
  0
LINE
  5
404
330
18
100
AcDbEntity
  8
1
 62
     1
100
AcDbLine
 10
46.88825524034834
 20
-1.702860543084102
 30
0.0
 11
46.35507088055191
 21
-1.769151193538067
 31
0.0
  0
LINE
  5
405
330
18
100
AcDbEntity
  8
1
 62
     1
100
AcDbLine
 10
46.01749824806883
 20
-0.6041265052096467
 30
0.0
 11
45.61519277176845
 21
-0.6332359359621781
 31
0.0
  0
LINE
  5
406
330
18
100
AcDbEntity
  8
1
 62
     1
100
AcDbLine
 10
46.01749824583851
 20
-1.812161727611515
 30
0.0
 11
45.61519276537571
 21
-1.864470807606819
 31
0.0
  0
LINE
  5
407
330
18
100
AcDbEntity
  8
1
 62
     1
100
AcDbLine
 10
45.14674125608222
 20
-0.6670791489286474
 30
0.0
 11
44.87531465029559
 21
-0.6866644573033154
 31
0.0
  0
LINE
  5
408
330
18
100
AcDbEntity
  8
1
 62
     1
100
AcDbLine
 10
44.27598425774009
 20
-0.729853473577461
 30
0.0
 11
44.13543653502337
 21
-0.7399710075215489
 31
0.0
  0
LINE
  5
409
330
18
100
AcDbEntity
  8
1
 62
     1
100
AcDbLine
 10
33.95866030959057
 20
-0.6564880494009078
 30
0.0
 11
33.48267925810491
 21
-0.5149426666866393
 31
0.0
  0
ARC
  5
40A
330
18
100
AcDbEntity
  8
1
 62
     1
100
AcDbCircle
 10
28.1433625462709
 20
-12.50374080476013
 30
0.0
 40
12.08742321038855
100
AcDbArc
 50
61.2425299268115
 51
63.78597354036508
  0
LINE
  5
40B
330
18
100
AcDbEntity
  8
1
 62
     1
100
AcDbLine
 10
33.35866037688106
 20
-0.4778551277598057
 30
0.0
 11
33.3261285
 21
-0.4681094061625695
 31
0.0
  0
LINE
  5
40C
330
18
100
AcDbEntity
  8
1
 62
     1
100
AcDbLine
 10
33.35866036706206
 20
-1.599437700651662
 30
0.0
 11
33.3261285
 21
-1.583981640148567
 31
0.0
  0
LINE
  5
40D
330
18
100
AcDbEntity
  8
1
 62
     1
100
AcDbLine
 10
33.35866037962486
 20
-0.4778551254692046
 30
0.0
 11
33.35866037962486
 21
-1.599437693100084
 31
0.0
  0
ARC
  5
40E
330
18
100
AcDbEntity
  8
1
 62
     1
100
AcDbCircle
 10
42.00412953501553
 20
-4.561470992142961
 30
0.0
 40
5.169860885662546
100
AcDbArc
 50
32.69128099208712
 51
35.74715655362889
  0
LINE
  5
40F
330
18
100
AcDbEntity
  8
1
 62
     1
100
AcDbLine
 10
45.14674125132871
 20
-1.926816244993742
 30
0.0
 11
44.87531465097798
 21
-1.963644505669955
 31
0.0
  0
LINE
  5
410
330
18
100
AcDbEntity
  8
1
 62
     1
100
AcDbLine
 10
44.27598425681888
 20
-2.046786465576951
 30
0.0
 11
44.13543653502339
 21
-2.066645597658731
 31
0.0
  0
ARC
  5
411
330
18
100
AcDbEntity
  8
1
 62
     1
100
AcDbCircle
 10
49.05513185979763
 20
-5.263642763236239
 30
0.0
 40
6.440331894451366
100
AcDbArc
 50
144.6883140662897
 51
151.1966179524997
  0
LINE
  5
412
330
18
100
AcDbEntity
  8
1
 62
     1
100
AcDbLine
 10
43.41154701076758
 20
-2.160621913033451
 30
0.0
 11
43.38845298923242
 21
-2.160621913033451
 31
0.0
  0
ARC
  5
413
330
18
100
AcDbEntity
  8
1
 62
     1
100
AcDbCircle
 10
48.25513185980313
 20
-5.263642763239472
 30
0.0
 40
6.440331894457745
100
AcDbArc
 50
144.6883140662945
 51
151.196617952498
  0
LINE
  5
414
330
18
100
AcDbEntity
  8
1
 62
     1
100
AcDbLine
 10
42.61154701076761
 20
-2.160621913033451
 30
0.0
 11
42.58845298923242
 21
-2.160621913033451
 31
0.0
  0
ARC
  5
415
330
18
100
AcDbEntity
  8
1
 62
     1
100
AcDbCircle
 10
47.45513185978515
 20
-5.263642763228466
 30
0.0
 40
6.440331894436683
100
AcDbArc
 50
144.6883140662819
 51
151.1966179525068
  0
ARC
  5
416
330
18
100
AcDbEntity
  8
1
 62
     1
100
AcDbCircle
 10
46.65513185978938
 20
-5.263642763231239
 30
0.0
 40
6.440331894441732
100
AcDbArc
 50
144.6883140662836
 51
151.1966179525033
  0
LINE
  5
417
330
18
100
AcDbEntity
  8
1
 62
     1
100
AcDbLine
 10
41.01154701076759
 20
-2.160621913033451
 30
0.0
 11
40.98845298923242
 21
-2.160621913033451
 31
0.0
  0
ARC
  5
418
330
18
100
AcDbEntity
  8
1
 62
     1
100
AcDbCircle
 10
45.85513185979165
 20
-5.263642763232542
 30
0.0
 40
6.44033189444435
100
AcDbArc
 50
144.6883140662857
 51
151.1966179525029
  0
LINE
  5
419
330
18
100
AcDbEntity
  8
1
 62
     1
100
AcDbLine
 10
40.21154701076759
 20
-2.160621913033451
 30
0.0
 11
40.18845298923242
 21
-2.160621913033451
 31
0.0
  0
ARC
  5
41A
330
18
100
AcDbEntity
  8
1
 62
     1
100
AcDbCircle
 10
45.05513185979113
 20
-5.263642763232278
 30
0.0
 40
6.440331894443771
100
AcDbArc
 50
144.688314066285
 51
151.1966179525026
  0
LINE
  5
41B
330
18
100
AcDbEntity
  8
1
 62
     1
100
AcDbLine
 10
39.41154701076761
 20
-2.160621913033451
 30
0.0
 11
39.38845298923244
 21
-2.160621913033451
 31
0.0
  0
ARC
  5
41C
330
18
100
AcDbEntity
  8
1
 62
     1
100
AcDbCircle
 10
44.2551318597845
 20
-5.263642763228091
 30
0.0
 40
6.440331894435934
100
AcDbArc
 50
144.6883140662814
 51
151.1966179525069
  0
LINE
  5
41D
330
18
100
AcDbEntity
  8
1
 62
     1
100
AcDbLine
 10
38.61154701076759
 20
-2.160621913033451
 30
0.0
 11
38.58845298923243
 21
-2.160621913033451
 31
0.0
  0
ARC
  5
41E
330
18
100
AcDbEntity
  8
1
 62
     1
100
AcDbCircle
 10
43.45513185979043
 20
-5.263642763231687
 30
0.0
 40
6.440331894442863
100
AcDbArc
 50
144.6883140662857
 51
151.1966179525043
  0
LINE
  5
41F
330
18
100
AcDbEntity
  8
1
 62
     1
100
AcDbLine
 10
37.8115470107676
 20
-2.160621913033451
 30
0.0
 11
37.78845298923242
 21
-2.160621913033453
 31
0.0
  0
ARC
  5
420
330
18
100
AcDbEntity
  8
1
 62
     1
100
AcDbCircle
 10
42.65513185978543
 20
-5.263642763228482
 30
0.0
 40
6.440331894436929
100
AcDbArc
 50
144.6883140662832
 51
151.1966179525078
  0
LINE
  5
421
330
18
100
AcDbEntity
  8
1
 62
     1
100
AcDbLine
 10
37.01154701076761
 20
-2.160621913033451
 30
0.0
 11
36.98845298923241
 21
-2.160621913033453
 31
0.0
  0
ARC
  5
422
330
18
100
AcDbEntity
  8
1
 62
     1
100
AcDbCircle
 10
41.85513185978827
 20
-5.263642763230385
 30
0.0
 40
6.440331894440338
100
AcDbArc
 50
144.688314066284
 51
151.1966179525052
  0
LINE
  5
423
330
18
100
AcDbEntity
  8
1
 62
     1
100
AcDbLine
 10
36.2115470107676
 20
-2.160621913033451
 30
0.0
 11
36.18845298923242
 21
-2.16062191303345
 31
0.0
  0
ARC
  5
424
330
18
100
AcDbEntity
  8
1
 62
     1
100
AcDbCircle
 10
41.05513185979638
 20
-5.263642763235492
 30
0.0
 40
6.440331894449914
100
AcDbArc
 50
144.6883140662886
 51
151.1966179525001
  0
LINE
  5
425
330
18
100
AcDbEntity
  8
1
 62
     1
100
AcDbLine
 10
35.41154701076759
 20
-2.160621913033451
 30
0.0
 11
35.38845298923243
 21
-2.160621913033451
 31
0.0
  0
ARC
  5
426
330
18
100
AcDbEntity
  8
1
 62
     1
100
AcDbCircle
 10
40.25513185979581
 20
-5.263642763234987
 30
0.0
 40
6.440331894449168
100
AcDbArc
 50
144.6883140662894
 51
151.1966179525016
  0
LINE
  5
427
330
18
100
AcDbEntity
  8
1
 62
     1
100
AcDbLine
 10
34.61154701076759
 20
-2.160621913033451
 30
0.0
 11
34.58845298923242
 21
-2.160621913033451
 31
0.0
  0
LINE
  5
428
330
18
100
AcDbEntity
  8
1
 62
     1
100
AcDbLine
 10
33.40000000000001
 20
-1.541192614984855
 30
0.0
 11
33.48267926970222
 21
-1.659518706798474
 31
0.0
  0
LINE
  5
429
330
18
100
AcDbEntity
  8
1
 62
     1
100
AcDbLine
 10
43.4115470107676
 20
2.169477937144467
 30
0.0
 11
43.38845298923243
 21
2.169477937144467
 31
0.0
  0
LINE
  5
42A
330
18
100
AcDbEntity
  8
1
 62
     1
100
AcDbLine
 10
42.58845298923242
 20
2.5
 30
0.0
 11
42.58845298923242
 21
2.499929679799236
 31
0.0
  0
LINE
  5
42B
330
18
100
AcDbEntity
  8
1
 62
     1
100
AcDbLine
 10
42.58845298923242
 20
2.499929679799236
 30
0.0
 11
42.58845298923242
 21
2.478718967995763
 31
0.0
  0
LINE
  5
42C
330
18
100
AcDbEntity
  8
1
 62
     1
100
AcDbLine
 10
42.58845298923242
 20
2.478718967995763
 30
0.0
 11
42.58845298923242
 21
2.169477937144467
 31
0.0
  0
LINE
  5
42D
330
18
100
AcDbEntity
  8
1
 62
     1
100
AcDbLine
 10
41.81154701076761
 20
2.169477937144467
 30
0.0
 11
41.78845298923243
 21
2.169477937144467
 31
0.0
  0
LINE
  5
42E
330
18
100
AcDbEntity
  8
1
 62
     1
100
AcDbLine
 10
41.78845298923242
 20
2.5
 30
0.0
 11
41.78845298923242
 21
2.499929679799236
 31
0.0
  0
LINE
  5
42F
330
18
100
AcDbEntity
  8
1
 62
     1
100
AcDbLine
 10
41.78845298923242
 20
2.499929679799236
 30
0.0
 11
41.78845298923241
 21
2.478718967995763
 31
0.0
  0
LINE
  5
430
330
18
100
AcDbEntity
  8
1
 62
     1
100
AcDbLine
 10
41.78845298923241
 20
2.478718967995763
 30
0.0
 11
41.78845298923241
 21
2.169477937144467
 31
0.0
  0
LINE
  5
431
330
18
100
AcDbEntity
  8
1
 62
     1
100
AcDbLine
 10
41.01154701076761
 20
2.169477937144467
 30
0.0
 11
40.98845298923244
 21
2.169477937144467
 31
0.0
  0
LINE
  5
432
330
18
100
AcDbEntity
  8
1
 62
     1
100
AcDbLine
 10
40.18845298923242
 20
2.5
 30
0.0
 11
40.2115470107676
 21
2.5
 31
0.0
  0
LINE
  5
433
330
18
100
AcDbEntity
  8
1
 62
     1
100
AcDbLine
 10
39.41154701076761
 20
2.169477937144467
 30
0.0
 11
39.38845298923243
 21
2.169477937144467
 31
0.0
  0
LINE
  5
434
330
18
100
AcDbEntity
  8
1
 62
     1
100
AcDbLine
 10
39.4115470107676
 20
2.5
 30
0.0
 11
39.4115470107676
 21
2.499929679799236
 31
0.0
  0
LINE
  5
435
330
18
100
AcDbEntity
  8
1
 62
     1
100
AcDbLine
 10
39.4115470107676
 20
2.499929679799236
 30
0.0
 11
39.4115470107676
 21
2.478718967995763
 31
0.0
  0
LINE
  5
436
330
18
100
AcDbEntity
  8
1
 62
     1
100
AcDbLine
 10
39.4115470107676
 20
2.478718967995763
 30
0.0
 11
39.41154701076759
 21
2.169477937144467
 31
0.0
  0
LINE
  5
437
330
18
100
AcDbEntity
  8
1
 62
     1
100
AcDbLine
 10
39.38845298923242
 20
2.5
 30
0.0
 11
39.4115470107676
 21
2.5
 31
0.0
  0
LINE
  5
438
330
18
100
AcDbEntity
  8
1
 62
     1
100
AcDbLine
 10
38.61154701076759
 20
2.169477937144467
 30
0.0
 11
38.58845298923244
 21
2.169477937144467
 31
0.0
  0
LINE
  5
439
330
18
100
AcDbEntity
  8
1
 62
     1
100
AcDbLine
 10
38.61154701076759
 20
2.5
 30
0.0
 11
38.61154701076759
 21
2.499929679799236
 31
0.0
  0
LINE
  5
43A
330
18
100
AcDbEntity
  8
1
 62
     1
100
AcDbLine
 10
38.61154701076759
 20
2.499929679799236
 30
0.0
 11
38.61154701076759
 21
2.478718967995763
 31
0.0
  0
LINE
  5
43B
330
18
100
AcDbEntity
  8
1
 62
     1
100
AcDbLine
 10
38.61154701076759
 20
2.478718967995763
 30
0.0
 11
38.61154701076759
 21
2.169477937144467
 31
0.0
  0
LINE
  5
43C
330
18
100
AcDbEntity
  8
1
 62
     1
100
AcDbLine
 10
38.58845298923243
 20
2.5
 30
0.0
 11
38.61154701076759
 21
2.5
 31
0.0
  0
LINE
  5
43D
330
18
100
AcDbEntity
  8
1
 62
     1
100
AcDbLine
 10
37.0115470107676
 20
2.169477937144467
 30
0.0
 11
36.98845298923242
 21
2.169477937144467
 31
0.0
  0
LINE
  5
43E
330
18
100
AcDbEntity
  8
1
 62
     1
100
AcDbLine
 10
34.58845298923242
 20
2.5
 30
0.0
 11
34.61154701076759
 21
2.5
 31
0.0
  0
LINE
  5
43F
330
18
100
AcDbEntity
  8
1
 62
     1
100
AcDbLine
 10
43.00000000000001
 20
-0.4406608374251558
 30
0.0
 11
43.38845298923245
 21
-0.7868890731401004
 31
0.0
  0
LINE
  5
440
330
18
100
AcDbEntity
  8
1
 62
     1
100
AcDbLine
 10
43.0
 20
-1.541192614984771
 30
0.0
 11
43.00000000000001
 21
-0.4406608374251555
 31
0.0
  0
ARC
  5
441
330
18
100
AcDbEntity
  8
1
 62
     1
100
AcDbCircle
 10
38.05725852927338
 20
-5.067720617049709
 30
0.0
 40
6.071902398803891
100
AcDbArc
 50
28.60362127649401
 51
35.50695071711932
  0
LINE
  5
442
330
18
100
AcDbEntity
  8
1
 62
     1
100
AcDbLine
 10
43.38845298923243
 20
-0.7868890731400853
 30
0.0
 11
43.38845298923243
 21
-2.160621913033451
 31
0.0
  0
LINE
  5
443
330
18
100
AcDbEntity
  8
1
 62
     1
100
AcDbLine
 10
45.14674125132871
 20
-0.6670791324664068
 30
0.0
 11
45.40000000000001
 21
-0.4406608374251558
 31
0.0
  0
LINE
  5
444
330
18
100
AcDbEntity
  8
1
 62
     1
100
AcDbLine
 10
45.14674125132869
 20
-0.6670791324664087
 30
0.0
 11
45.1467412513287
 21
-1.926816244993742
 31
0.0
  0
ARC
  5
445
330
18
100
AcDbEntity
  8
1
 62
     1
100
AcDbCircle
 10
50.07250182232407
 20
-4.883932207119706
 30
0.0
 40
5.74520813612328
100
AcDbArc
 50
144.4198116515965
 51
149.0220511149751
  0
LINE
  5
446
330
18
100
AcDbEntity
  8
1
 62
     1
100
AcDbLine
 10
44.60000000000001
 20
-0.4406608374251556
 30
0.0
 11
44.87531465019953
 21
-0.686664456970379
 31
0.0
  0
ARC
  5
447
330
18
100
AcDbEntity
  8
1
 62
     1
100
AcDbCircle
 10
40.03823709308228
 20
-4.812732836686603
 30
0.0
 40
5.613640945842524
100
AcDbArc
 50
30.49852175263704
 51
35.64679585063519
  0
LINE
  5
448
330
18
100
AcDbEntity
  8
1
 62
     1
100
AcDbLine
 10
44.87531465019953
 20
-0.686664456970375
 30
0.0
 11
44.87531465019953
 21
-1.963644500956208
 31
0.0
  0
LINE
  5
449
330
18
100
AcDbEntity
  8
1
 62
     1
100
AcDbLine
 10
46.01749824583852
 20
-0.6041264975095268
 30
0.0
 11
46.2
 21
-0.4406608374251555
 31
0.0
  0
LINE
  5
44A
330
18
100
AcDbEntity
  8
1
 62
     1
100
AcDbLine
 10
46.01749824583852
 20
-0.6041264975095145
 30
0.0
 11
46.01749824583852
 21
-1.812161727611517
 31
0.0
  0
ARC
  5
44B
330
18
100
AcDbEntity
  8
1
 62
     1
100
AcDbCircle
 10
50.59801723518061
 20
-4.699290832574476
 30
0.0
 40
5.414479074976922
100
AcDbArc
 50
144.3188864604195
 51
147.7765184948018
  0
LINE
  5
44C
330
18
100
AcDbEntity
  8
1
 62
     1
100
AcDbLine
 10
46.20000000000001
 20
-1.541192614984771
 30
0.0
 11
46.20000000000002
 21
-0.4406608374251553
 31
0.0
  0
LINE
  5
44D
330
18
100
AcDbEntity
  8
1
 62
     1
100
AcDbLine
 10
45.40000000000001
 20
-0.4406608374251557
 30
0.0
 11
45.61519276537572
 21
-0.6332359138583034
 31
0.0
  0
LINE
  5
44E
330
18
100
AcDbEntity
  8
1
 62
     1
100
AcDbLine
 10
45.40000000000001
 20
-1.541192614984771
 30
0.0
 11
45.40000000000001
 21
-0.4406608374251557
 31
0.0
  0
ARC
  5
44F
330
18
100
AcDbEntity
  8
1
 62
     1
100
AcDbCircle
 10
41.02573538046994
 20
-4.684809117760278
 30
0.0
 40
5.386711303403819
100
AcDbArc
 50
31.57178296410681
 51
35.70335584563982
  0
LINE
  5
450
330
18
100
AcDbEntity
  8
1
 62
     1
100
AcDbLine
 10
45.61519276537572
 20
-0.6332359138582948
 30
0.0
 11
45.61519276537573
 21
-1.864470807606819
 31
0.0
  0
LINE
  5
451
330
18
100
AcDbEntity
  8
1
 62
     1
100
AcDbLine
 10
47.00000000000001
 20
-0.4406608374251556
 30
0.0
 11
47.00000000000001
 21
-0.5328375666854588
 31
0.0
  0
LINE
  5
452
330
18
100
AcDbEntity
  8
1
 62
     1
100
AcDbLine
 10
47.0
 20
-0.5328375666854589
 30
0.0
 11
47.00000000000001
 21
-1.68922273922518
 31
0.0
  0
LINE
  5
453
330
18
100
AcDbEntity
  8
1
 62
     1
100
AcDbLine
 10
46.88825524034834
 20
-0.5409611465393489
 30
0.0
 11
47.00000000000001
 21
-0.4406608374251557
 31
0.0
  0
LINE
  5
454
330
18
100
AcDbEntity
  8
1
 62
     1
100
AcDbLine
 10
46.88825524034835
 20
-0.5409611465393501
 30
0.0
 11
46.88825524034834
 21
-1.702860543083997
 31
0.0
  0
ARC
  5
455
330
18
100
AcDbEntity
  8
1
 62
     1
100
AcDbCircle
 10
51.14342422544974
 20
-4.524216373112013
 30
0.0
 40
5.1055355241795
100
AcDbArc
 50
144.2483138330356
 51
146.4539495404728
  0
LINE
  5
456
330
18
100
AcDbEntity
  8
1
 62
     1
100
AcDbLine
 10
43.80000000000001
 20
-0.4406608374251557
 30
0.0
 11
44.13543653502337
 21
-0.739971007521568
 31
0.0
  0
ARC
  5
457
330
18
100
AcDbEntity
  8
1
 62
     1
100
AcDbCircle
 10
39.04037626185669
 20
-4.945947007208014
 30
0.0
 40
5.852088726309257
100
AcDbArc
 50
29.47149738731539
 51
35.5776974873754
  0
LINE
  5
458
330
18
100
AcDbEntity
  8
1
 62
     1
100
AcDbLine
 10
44.13543653502337
 20
-0.7399710075215575
 30
0.0
 11
44.13543653502337
 21
-2.066645597658724
 31
0.0
  0
LINE
  5
459
330
18
100
AcDbEntity
  8
1
 62
     1
100
AcDbLine
 10
43.41154701076759
 20
-0.7868890731400875
 30
0.0
 11
43.80000000000001
 21
-0.4406608374251557
 31
0.0
  0
LINE
  5
45A
330
18
100
AcDbEntity
  8
1
 62
     1
100
AcDbLine
 10
43.41154701076759
 20
-0.7868890731400844
 30
0.0
 11
43.41154701076759
 21
-2.160621913033451
 31
0.0
  0
LINE
  5
45B
330
18
100
AcDbEntity
  8
1
 62
     1
100
AcDbLine
 10
43.80000000000002
 20
-1.541192614984771
 30
0.0
 11
43.80000000000001
 21
-0.4406608374251557
 31
0.0
  0
LINE
  5
45C
330
18
100
AcDbEntity
  8
1
 62
     1
100
AcDbLine
 10
44.27598425681888
 20
-0.7298534703788065
 30
0.0
 11
44.60000000000001
 21
-0.4406608374251558
 31
0.0
  0
LINE
  5
45D
330
18
100
AcDbEntity
  8
1
 62
     1
100
AcDbLine
 10
44.27598425681889
 20
-0.7298534703788058
 30
0.0
 11
44.27598425681889
 21
-2.046786465576949
 31
0.0
  0
ARC
  5
45E
330
18
100
AcDbEntity
  8
1
 62
     1
100
AcDbCircle
 10
49.56756465610163
 20
-5.078163960208398
 30
0.0
 40
6.098324327065026
100
AcDbArc
 50
144.5486340559392
 51
150.1929817841918
  0
LINE
  5
45F
330
18
100
AcDbEntity
  8
1
 62
     1
100
AcDbLine
 10
44.60000000000001
 20
-1.541192614984771
 30
0.0
 11
44.60000000000002
 21
-0.4406608374251555
 31
0.0
  0
LINE
  5
460
330
18
100
AcDbEntity
  8
1
 62
     1
100
AcDbLine
 10
46.2
 20
-0.4406608374251557
 30
0.0
 11
46.35507088055189
 21
-0.5796661517379766
 31
0.0
  0
LINE
  5
461
330
18
100
AcDbEntity
  8
1
 62
     1
100
AcDbLine
 10
46.35507088055189
 20
-0.5796661517379755
 30
0.0
 11
46.35507088055189
 21
-1.769151193538067
 31
0.0
  0
LINE
  5
462
330
18
100
AcDbEntity
  8
1
 62
     1
100
AcDbLine
 10
46.88825524034836
 20
1.793610845133054
 30
0.0
 11
46.35507088055176
 21
1.857595941348206
 31
0.0
  0
LINE
  5
463
330
18
100
AcDbEntity
  8
1
 62
     1
100
AcDbLine
 10
46.88825524034835
 20
2.020727510954668
 30
0.0
 11
46.88825524034835
 21
2.02067891320974
 31
0.0
  0
LINE
  5
464
330
18
100
AcDbEntity
  8
1
 62
     1
100
AcDbLine
 10
46.88825524034835
 20
2.02067891320974
 30
0.0
 11
46.88825524034834
 21
2.006067451288458
 31
0.0
  0
LINE
  5
465
330
18
100
AcDbEntity
  8
1
 62
     1
100
AcDbLine
 10
46.88825524034834
 20
2.006067451288458
 30
0.0
 11
46.88825524034834
 21
1.793610845132999
 31
0.0
  0
LINE
  5
466
330
18
100
AcDbEntity
  8
1
 62
     1
100
AcDbLine
 10
46.35507088055189
 20
2.095770518659884
 30
0.0
 11
46.88825524034835
 21
2.020727510954668
 31
0.0
  0
LINE
  5
467
330
18
100
AcDbEntity
  8
1
 62
     1
100
AcDbLine
 10
45.61519276537572
 20
2.199904629268985
 30
0.0
 11
46.01749824583852
 21
2.143282163295403
 31
0.0
  0
LINE
  5
468
330
18
100
AcDbEntity
  8
1
 62
     1
100
AcDbLine
 10
44.87531465019953
 20
2.304038739878087
 30
0.0
 11
45.1467412513287
 21
2.265836815636137
 31
0.0
  0
LINE
  5
469
330
18
100
AcDbEntity
  8
1
 62
     1
100
AcDbLine
 10
44.13543653502337
 20
2.408172850487186
 30
0.0
 11
44.27598425681889
 21
2.38839146797687
 31
0.0
  0
LINE
  5
46A
330
18
100
AcDbEntity
  8
1
 62
     1
100
AcDbLine
 10
40.60000000000001
 20
-0.4406608374251557
 30
0.0
 11
40.98845298923243
 21
-0.7868890731400939
 31
0.0
  0
LINE
  5
46B
330
18
100
AcDbEntity
  8
1
 62
     1
100
AcDbLine
 10
40.60000000000001
 20
-1.541192614984771
 30
0.0
 11
40.60000000000002
 21
-0.4406608374251557
 31
0.0
  0
ARC
  5
46C
330
18
100
AcDbEntity
  8
1
 62
     1
100
AcDbCircle
 10
35.65725852927014
 20
-5.067720617051539
 30
0.0
 40
6.071902398807603
100
AcDbArc
 50
28.60362127649471
 51
35.50695071711553
  0
LINE
  5
46D
330
18
100
AcDbEntity
  8
1
 62
     1
100
AcDbLine
 10
40.98845298923243
 20
-0.7868890731400853
 30
0.0
 11
40.98845298923243
 21
-2.160621913033451
 31
0.0
  0
LINE
  5
46E
330
18
100
AcDbEntity
  8
1
 62
     1
100
AcDbLine
 10
40.2115470107676
 20
-0.7868890731400875
 30
0.0
 11
40.60000000000001
 21
-0.4406608374251557
 31
0.0
  0
LINE
  5
46F
330
18
100
AcDbEntity
  8
1
 62
     1
100
AcDbLine
 10
40.2115470107676
 20
-0.7868890731400853
 30
0.0
 11
40.2115470107676
 21
-2.160621913033451
 31
0.0
  0
LINE
  5
470
330
18
100
AcDbEntity
  8
1
 62
     1
100
AcDbLine
 10
41.0115470107676
 20
-0.7868890731400877
 30
0.0
 11
41.40000000000001
 21
-0.4406608374251557
 31
0.0
  0
LINE
  5
471
330
18
100
AcDbEntity
  8
1
 62
     1
100
AcDbLine
 10
41.01154701076759
 20
-0.7868890731400853
 30
0.0
 11
41.01154701076759
 21
-2.160621913033451
 31
0.0
  0
LINE
  5
472
330
18
100
AcDbEntity
  8
1
 62
     1
100
AcDbLine
 10
41.4
 20
-1.541192614984771
 30
0.0
 11
41.40000000000001
 21
-0.4406608374251557
 31
0.0
  0
LINE
  5
473
330
18
100
AcDbEntity
  8
1
 62
     1
100
AcDbLine
 10
41.40000000000001
 20
-0.4406608374251557
 30
0.0
 11
41.78845298923241
 21
-0.7868890731400849
 31
0.0
  0
ARC
  5
474
330
18
100
AcDbEntity
  8
1
 62
     1
100
AcDbCircle
 10
36.45725852927436
 20
-5.067720617048956
 30
0.0
 40
6.071902398802655
100
AcDbArc
 50
28.60362127649259
 51
35.50695071711886
  0
LINE
  5
475
330
18
100
AcDbEntity
  8
1
 62
     1
100
AcDbLine
 10
41.78845298923243
 20
-0.7868890731400853
 30
0.0
 11
41.78845298923241
 21
-2.160621913033451
 31
0.0
  0
LINE
  5
476
330
18
100
AcDbEntity
  8
1
 62
     1
100
AcDbLine
 10
41.8115470107676
 20
-0.7868890731400877
 30
0.0
 11
42.20000000000002
 21
-0.4406608374251557
 31
0.0
  0
LINE
  5
477
330
18
100
AcDbEntity
  8
1
 62
     1
100
AcDbLine
 10
41.8115470107676
 20
-0.7868890731400853
 30
0.0
 11
41.8115470107676
 21
-2.160621913033451
 31
0.0
  0
LINE
  5
478
330
18
100
AcDbEntity
  8
1
 62
     1
100
AcDbLine
 10
42.2
 20
-1.541192614984771
 30
0.0
 11
42.2
 21
-0.4406608374251557
 31
0.0
  0
LINE
  5
479
330
18
100
AcDbEntity
  8
1
 62
     1
100
AcDbLine
 10
42.2
 20
-0.4406608374251557
 30
0.0
 11
42.58845298923242
 21
-0.7868890731400888
 31
0.0
  0
ARC
  5
47A
330
18
100
AcDbEntity
  8
1
 62
     1
100
AcDbCircle
 10
37.25725852926961
 20
-5.067720617052053
 30
0.0
 40
6.071902398808328
100
AcDbArc
 50
28.60362127649664
 51
35.50695071711661
  0
LINE
  5
47B
330
18
100
AcDbEntity
  8
1
 62
     1
100
AcDbLine
 10
42.58845298923242
 20
-0.7868890731400853
 30
0.0
 11
42.58845298923242
 21
-2.160621913033451
 31
0.0
  0
LINE
  5
47C
330
18
100
AcDbEntity
  8
1
 62
     1
100
AcDbLine
 10
42.6115470107676
 20
-0.786889073140085
 30
0.0
 11
43.00000000000001
 21
-0.4406608374251557
 31
0.0
  0
LINE
  5
47D
330
18
100
AcDbEntity
  8
1
 62
     1
100
AcDbLine
 10
42.6115470107676
 20
-0.7868890731400854
 30
0.0
 11
42.6115470107676
 21
-2.160621913033451
 31
0.0
  0
LINE
  5
47E
330
18
100
AcDbEntity
  8
1
 62
     1
100
AcDbLine
 10
36.21154701076759
 20
-0.7868890731400875
 30
0.0
 11
36.60000000000001
 21
-0.4406608374251557
 31
0.0
  0
LINE
  5
47F
330
18
100
AcDbEntity
  8
1
 62
     1
100
AcDbLine
 10
36.21154701076759
 20
-0.7868890731400853
 30
0.0
 11
36.2115470107676
 21
-2.160621913033451
 31
0.0
  0
LINE
  5
480
330
18
100
AcDbEntity
  8
1
 62
     1
100
AcDbLine
 10
36.60000000000001
 20
-0.4406608374251557
 30
0.0
 11
36.98845298923243
 21
-0.7868890731400878
 31
0.0
  0
LINE
  5
481
330
18
100
AcDbEntity
  8
1
 62
     1
100
AcDbLine
 10
36.60000000000001
 20
-1.541192614984771
 30
0.0
 11
36.60000000000002
 21
-0.4406608374251557
 31
0.0
  0
ARC
  5
482
330
18
100
AcDbEntity
  8
1
 62
     1
100
AcDbCircle
 10
31.65725852926904
 20
-5.067720617052513
 30
0.0
 40
6.071902398809053
100
AcDbArc
 50
28.60362127649791
 51
35.50695071711699
  0
LINE
  5
483
330
18
100
AcDbEntity
  8
1
 62
     1
100
AcDbLine
 10
36.98845298923242
 20
-0.7868890731400853
 30
0.0
 11
36.98845298923242
 21
-2.160621913033451
 31
0.0
  0
LINE
  5
484
330
18
100
AcDbEntity
  8
1
 62
     1
100
AcDbLine
 10
39.80000000000001
 20
-0.4406608374251558
 30
0.0
 11
40.18845298923242
 21
-0.7868890731400889
 31
0.0
  0
ARC
  5
485
330
18
100
AcDbEntity
  8
1
 62
     1
100
AcDbCircle
 10
34.85725852927262
 20
-5.067720617050067
 30
0.0
 40
6.071902398804719
100
AcDbArc
 50
28.60362127649382
 51
35.50695071711786
  0
LINE
  5
486
330
18
100
AcDbEntity
  8
1
 62
     1
100
AcDbLine
 10
40.18845298923242
 20
-0.7868890731400853
 30
0.0
 11
40.18845298923242
 21
-2.160621913033451
 31
0.0
  0
LINE
  5
487
330
18
100
AcDbEntity
  8
1
 62
     1
100
AcDbLine
 10
39.41154701076759
 20
-0.7868890731400849
 30
0.0
 11
39.80000000000001
 21
-0.4406608374251558
 31
0.0
  0
LINE
  5
488
330
18
100
AcDbEntity
  8
1
 62
     1
100
AcDbLine
 10
39.41154701076759
 20
-0.7868890731400853
 30
0.0
 11
39.41154701076759
 21
-2.160621913033451
 31
0.0
  0
LINE
  5
489
330
18
100
AcDbEntity
  8
1
 62
     1
100
AcDbLine
 10
39.80000000000001
 20
-1.541192614984771
 30
0.0
 11
39.80000000000001
 21
-0.4406608374251557
 31
0.0
  0
LINE
  5
48A
330
18
100
AcDbEntity
  8
1
 62
     1
100
AcDbLine
 10
39.0
 20
-0.4406608374251557
 30
0.0
 11
39.38845298923242
 21
-0.7868890731400888
 31
0.0
  0
ARC
  5
48B
330
18
100
AcDbEntity
  8
1
 62
     1
100
AcDbCircle
 10
34.05725852927736
 20
-5.067720617047361
 30
0.0
 40
6.071902398799275
100
AcDbArc
 50
28.60362127649282
 51
35.50695071712308
  0
LINE
  5
48C
330
18
100
AcDbEntity
  8
1
 62
     1
100
AcDbLine
 10
39.38845298923242
 20
-0.7868890731400853
 30
0.0
 11
39.38845298923242
 21
-2.160621913033451
 31
0.0
  0
LINE
  5
48D
330
18
100
AcDbEntity
  8
1
 62
     1
100
AcDbLine
 10
38.61154701076759
 20
-0.7868890731400875
 30
0.0
 11
39.00000000000001
 21
-0.4406608374251557
 31
0.0
  0
LINE
  5
48E
330
18
100
AcDbEntity
  8
1
 62
     1
100
AcDbLine
 10
38.61154701076759
 20
-0.7868890731400853
 30
0.0
 11
38.61154701076759
 21
-2.160621913033451
 31
0.0
  0
LINE
  5
48F
330
18
100
AcDbEntity
  8
1
 62
     1
100
AcDbLine
 10
39.00000000000001
 20
-1.541192614984771
 30
0.0
 11
39.00000000000001
 21
-0.4406608374251557
 31
0.0
  0
LINE
  5
490
330
18
100
AcDbEntity
  8
1
 62
     1
100
AcDbLine
 10
38.2
 20
-0.4406608374251557
 30
0.0
 11
38.58845298923243
 21
-0.7868890731400939
 31
0.0
  0
LINE
  5
491
330
18
100
AcDbEntity
  8
1
 62
     1
100
AcDbLine
 10
38.20000000000001
 20
-1.541192614984771
 30
0.0
 11
38.20000000000002
 21
-0.4406608374251557
 31
0.0
  0
ARC
  5
492
330
18
100
AcDbEntity
  8
1
 62
     1
100
AcDbCircle
 10
33.25725852927192
 20
-5.067720617050685
 30
0.0
 40
6.071902398805643
100
AcDbArc
 50
28.60362127649569
 51
35.50695071711879
  0
LINE
  5
493
330
18
100
AcDbEntity
  8
1
 62
     1
100
AcDbLine
 10
38.58845298923242
 20
-0.7868890731400853
 30
0.0
 11
38.58845298923243
 21
-2.160621913033451
 31
0.0
  0
LINE
  5
494
330
18
100
AcDbEntity
  8
1
 62
     1
100
AcDbLine
 10
37.8115470107676
 20
-0.7868890731400875
 30
0.0
 11
38.2
 21
-0.4406608374251557
 31
0.0
  0
LINE
  5
495
330
18
100
AcDbEntity
  8
1
 62
     1
100
AcDbLine
 10
37.8115470107676
 20
-0.7868890731400853
 30
0.0
 11
37.8115470107676
 21
-2.160621913033451
 31
0.0
  0
LINE
  5
496
330
18
100
AcDbEntity
  8
1
 62
     1
100
AcDbLine
 10
37.40000000000001
 20
-0.4406608374251555
 30
0.0
 11
37.78845298923243
 21
-0.7868890731400853
 31
0.0
  0
ARC
  5
497
330
18
100
AcDbEntity
  8
1
 62
     1
100
AcDbCircle
 10
32.45725852928171
 20
-5.067720617044411
 30
0.0
 40
6.071902398794028
100
AcDbArc
 50
28.60362127648808
 51
35.50695071712425
  0
LINE
  5
498
330
18
100
AcDbEntity
  8
1
 62
     1
100
AcDbLine
 10
37.78845298923243
 20
-0.7868890731400853
 30
0.0
 11
37.78845298923242
 21
-2.160621913033451
 31
0.0
  0
LINE
  5
499
330
18
100
AcDbEntity
  8
1
 62
     1
100
AcDbLine
 10
37.0115470107676
 20
-0.7868890731400873
 30
0.0
 11
37.40000000000001
 21
-0.4406608374251557
 31
0.0
  0
LINE
  5
49A
330
18
100
AcDbEntity
  8
1
 62
     1
100
AcDbLine
 10
37.0115470107676
 20
-0.7868890731400853
 30
0.0
 11
37.01154701076759
 21
-2.160621913033451
 31
0.0
  0
LINE
  5
49B
330
18
100
AcDbEntity
  8
1
 62
     1
100
AcDbLine
 10
37.40000000000001
 20
-1.541192614984771
 30
0.0
 11
37.40000000000001
 21
-0.4406608374251553
 31
0.0
  0
LINE
  5
49C
330
18
100
AcDbEntity
  8
1
 62
     1
100
AcDbLine
 10
34.20000000000001
 20
-0.4406608374251557
 30
0.0
 11
34.58845298923242
 21
-0.7868890731400875
 31
0.0
  0
ARC
  5
49D
330
18
100
AcDbEntity
  8
1
 62
     1
100
AcDbCircle
 10
29.25725852927154
 20
-5.067720617050842
 30
0.0
 40
6.071902398806046
100
AcDbArc
 50
28.60362127649542
 51
35.50695071711792
  0
LINE
  5
49E
330
18
100
AcDbEntity
  8
1
 62
     1
100
AcDbLine
 10
34.58845298923242
 20
-0.7868890731400843
 30
0.0
 11
34.58845298923242
 21
-2.160621913033451
 31
0.0
  0
LINE
  5
49F
330
18
100
AcDbEntity
  8
1
 62
     1
100
AcDbLine
 10
33.95866030959056
 20
-0.6564880494009209
 30
0.0
 11
34.20000000000001
 21
-0.4406608374251557
 31
0.0
  0
LINE
  5
4A0
330
18
100
AcDbEntity
  8
1
 62
     1
100
AcDbLine
 10
33.95866030959057
 20
-0.6564880494010558
 30
0.0
 11
33.95866030959057
 21
-1.907129108149645
 31
0.0
  0
ARC
  5
4A1
330
18
100
AcDbEntity
  8
1
 62
     1
100
AcDbCircle
 10
38.82494251089173
 20
-4.85222269652617
 30
0.0
 40
5.688064336647916
100
AcDbArc
 50
144.4008480795398
 51
148.8175049495928
  0
LINE
  5
4A2
330
18
100
AcDbEntity
  8
1
 62
     1
100
AcDbLine
 10
34.20000000000001
 20
-1.541192614984771
 30
0.0
 11
34.20000000000002
 21
-0.4406608374251557
 31
0.0
  0
LINE
  5
4A3
330
18
100
AcDbEntity
  8
1
 62
     1
100
AcDbLine
 10
34.61154701076759
 20
-0.7868890731400875
 30
0.0
 11
35.00000000000001
 21
-0.4406608374251557
 31
0.0
  0
LINE
  5
4A4
330
18
100
AcDbEntity
  8
1
 62
     1
100
AcDbLine
 10
34.61154701076759
 20
-0.7868890731400853
 30
0.0
 11
34.61154701076759
 21
-2.160621913033451
 31
0.0
  0
LINE
  5
4A5
330
18
100
AcDbEntity
  8
1
 62
     1
100
AcDbLine
 10
35.00000000000001
 20
-0.4406608374251557
 30
0.0
 11
35.38845298923242
 21
-0.7868890731400875
 31
0.0
  0
LINE
  5
4A6
330
18
100
AcDbEntity
  8
1
 62
     1
100
AcDbLine
 10
35.00000000000001
 20
-1.541192614984771
 30
0.0
 11
35.00000000000001
 21
-0.4406608374251557
 31
0.0
  0
ARC
  5
4A7
330
18
100
AcDbEntity
  8
1
 62
     1
100
AcDbCircle
 10
30.05725852927331
 20
-5.067720617049781
 30
0.0
 40
6.071902398803982
100
AcDbArc
 50
28.60362127649463
 51
35.50695071711952
  0
LINE
  5
4A8
330
18
100
AcDbEntity
  8
1
 62
     1
100
AcDbLine
 10
35.38845298923242
 20
-0.7868890731400853
 30
0.0
 11
35.38845298923242
 21
-2.160621913033451
 31
0.0
  0
LINE
  5
4A9
330
18
100
AcDbEntity
  8
1
 62
     1
100
AcDbLine
 10
35.41154701076759
 20
-0.7868890731400875
 30
0.0
 11
35.80000000000001
 21
-0.4406608374251557
 31
0.0
  0
LINE
  5
4AA
330
18
100
AcDbEntity
  8
1
 62
     1
100
AcDbLine
 10
35.41154701076759
 20
-0.7868890731400853
 30
0.0
 11
35.41154701076759
 21
-2.160621913033451
 31
0.0
  0
LINE
  5
4AB
330
18
100
AcDbEntity
  8
1
 62
     1
100
AcDbLine
 10
35.80000000000001
 20
-0.4406608374251557
 30
0.0
 11
36.18845298923242
 21
-0.7868890731400875
 31
0.0
  0
LINE
  5
4AC
330
18
100
AcDbEntity
  8
1
 62
     1
100
AcDbLine
 10
35.80000000000002
 20
-1.541192614984771
 30
0.0
 11
35.80000000000001
 21
-0.4406608374251558
 31
0.0
  0
ARC
  5
4AD
330
18
100
AcDbEntity
  8
1
 62
     1
100
AcDbCircle
 10
30.85725852926737
 20
-5.067720617053505
 30
0.0
 40
6.071902398810985
100
AcDbArc
 50
28.60362127649865
 51
35.50695071711549
  0
LINE
  5
4AE
330
18
100
AcDbEntity
  8
1
 62
     1
100
AcDbLine
 10
36.18845298923242
 20
-0.7868890731400853
 30
0.0
 11
36.18845298923243
 21
-2.160621913033451
 31
0.0
  0
LINE
  5
4AF
330
18
100
AcDbEntity
  8
1
 62
     1
100
AcDbLine
 10
33.35866037962487
 20
-0.4778551254691928
 30
0.0
 11
33.40000000000001
 21
-0.4406608374251558
 31
0.0
  0
LINE
  5
4B0
330
18
100
AcDbEntity
  8
1
 62
     1
100
AcDbLine
 10
33.35866037962485
 20
-1.59943769310019
 30
0.0
 11
33.40000000000001
 21
-1.541192614984855
 31
0.0
  0
LINE
  5
4B1
330
18
100
AcDbEntity
  8
1
 62
     1
100
AcDbLine
 10
33.40000000000001
 20
-1.541192614984771
 30
0.0
 11
33.40000000000001
 21
-0.4406608374251558
 31
0.0
  0
LINE
  5
4B2
330
18
100
AcDbEntity
  8
1
 62
     1
100
AcDbLine
 10
33.40000000000001
 20
-0.4406608374251556
 30
0.0
 11
33.48267926970222
 21
-0.5149426569786059
 31
0.0
  0
LINE
  5
4B3
330
18
100
AcDbEntity
  8
1
 62
     1
100
AcDbLine
 10
33.48267926970222
 20
-0.5149426569786069
 30
0.0
 11
33.48267926970222
 21
-1.659518706798366
 31
0.0
  0
ARC
  5
4B4
330
18
100
AcDbEntity
  8
1
 62
     1
100
AcDbCircle
 10
39.28063485082874
 20
-9.643790544518291
 30
0.0
 40
12.78387519424847
100
AcDbArc
 50
114.6014550032341
 51
116.9707560705452
  0
LINE
  5
4B5
330
18
100
AcDbEntity
  8
1
 62
     1
100
AcDbLine
 10
33.48267926970222
 20
1.970384629087727
 30
0.0
 11
33.95866030959057
 21
2.245192410773686
 31
0.0
  0
LINE
  5
4B6
330
18
100
AcDbEntity
  8
1
 62
     1
100
AcDbLine
 10
33.35866036706146
 20
1.685935516135871
 30
0.0
 11
33.3261285
 21
1.668946704229348
 31
0.0
  0
LINE
  5
4B7
330
18
100
AcDbEntity
  8
1
 62
     1
100
AcDbLine
 10
33.3261285
 20
1.88
 30
0.0
 11
33.35866037962486
 21
1.898782289470774
 31
0.0
  0
LINE
  5
4B8
330
18
100
AcDbEntity
  8
1
 62
     1
100
AcDbLine
 10
37.8115470107676
 20
-0.786889073140085
 30
0.0
 11
37.78845298923243
 21
-0.786889073140085
 31
0.0
  0
LINE
  5
4B9
330
18
100
AcDbEntity
  8
1
 62
     1
100
AcDbLine
 10
41.8115470107676
 20
-0.786889073140085
 30
0.0
 11
41.78845298923243
 21
-0.786889073140085
 31
0.0
  0
ARC
  5
4BA
330
18
100
AcDbEntity
  8
1
 62
     1
100
AcDbCircle
 10
51.87281113676708
 20
-1.921091783721788
 30
0.0
 40
6.687617258529417
100
AcDbArc
 50
145.5956728319894
 51
148.0224296743265
  0
LINE
  5
4BB
330
18
100
AcDbEntity
  8
1
 62
     1
100
AcDbLine
 10
46.01749824727437
 20
1.897189466580174
 30
0.0
 11
45.61519276537571
 21
1.943421212196607
 31
0.0
  0
LINE
  5
4BC
330
18
100
AcDbEntity
  8
1
 62
     1
100
AcDbLine
 10
45.14674125132871
 20
1.995903509818402
 30
0.0
 11
44.87531465075433
 21
2.025623525503232
 31
0.0
  0
LINE
  5
4BD
330
18
100
AcDbEntity
  8
1
 62
     1
100
AcDbLine
 10
44.27598426192724
 20
2.089371379943239
 30
0.0
 11
44.13543653502337
 21
2.103932129363173
 31
0.0
  0
ARC
  5
4BE
330
18
100
AcDbEntity
  8
1
 62
     1
100
AcDbCircle
 10
39.56072498163438
 20
-0.9614890992212275
 30
0.0
 40
4.963156752374501
100
AcDbArc
 50
31.34493962610624
 51
39.11333881043372
  0
ARC
  5
4BF
330
18
100
AcDbEntity
  8
1
 62
     1
100
AcDbCircle
 10
38.76072498162861
 20
-0.9614890992253766
 30
0.0
 40
4.963156752381595
100
AcDbArc
 50
31.34493962611259
 51
39.11333881042873
  0
LINE
  5
4C0
330
18
100
AcDbEntity
  8
1
 62
     1
100
AcDbLine
 10
42.61154701076761
 20
2.169477937144467
 30
0.0
 11
42.58845298923242
 21
2.169477937144467
 31
0.0
  0
ARC
  5
4C1
330
18
100
AcDbEntity
  8
1
 62
     1
100
AcDbCircle
 10
37.96072498162921
 20
-0.9614890992248846
 30
0.0
 40
4.963156752380828
100
AcDbArc
 50
31.34493962611124
 51
39.11333881042874
  0
ARC
  5
4C2
330
18
100
AcDbEntity
  8
1
 62
     1
100
AcDbCircle
 10
37.16072498162762
 20
-0.9614890992261018
 30
0.0
 40
4.963156752382823
100
AcDbArc
 50
31.34493962611373
 51
39.11333881042812
  0
ARC
  5
4C3
330
18
100
AcDbEntity
  8
1
 62
     1
100
AcDbCircle
 10
36.36072498162535
 20
-0.9614890992278742
 30
0.0
 40
4.963156752385689
100
AcDbArc
 50
31.34493962611762
 51
39.11333881042754
  0
LINE
  5
4C4
330
18
100
AcDbEntity
  8
1
 62
     1
100
AcDbLine
 10
40.2115470107676
 20
2.169477937144467
 30
0.0
 11
40.18845298923244
 21
2.169477937144467
 31
0.0
  0
ARC
  5
4C5
330
18
100
AcDbEntity
  8
1
 62
     1
100
AcDbCircle
 10
35.56072498163631
 20
-0.9614890992198695
 30
0.0
 40
4.963156752372133
100
AcDbArc
 50
31.34493962610446
 51
39.1133388104356
  0
ARC
  5
4C6
330
18
100
AcDbEntity
  8
1
 62
     1
100
AcDbCircle
 10
34.7607249816361
 20
-0.9614890992200187
 30
0.0
 40
4.963156752372391
100
AcDbArc
 50
31.34493962610469
 51
39.11333881043547
  0
ARC
  5
4C7
330
18
100
AcDbEntity
  8
1
 62
     1
100
AcDbCircle
 10
33.96072498163069
 20
-0.9614890992239236
 30
0.0
 40
4.963156752379062
100
AcDbArc
 50
31.34493962611072
 51
39.11333881043096
  0
LINE
  5
4C8
330
18
100
AcDbEntity
  8
1
 62
     1
100
AcDbLine
 10
37.8115470107676
 20
2.169477937144467
 30
0.0
 11
37.78845298923243
 21
2.169477937144467
 31
0.0
  0
ARC
  5
4C9
330
18
100
AcDbEntity
  8
1
 62
     1
100
AcDbCircle
 10
33.16072498162787
 20
-0.9614890992259477
 30
0.0
 40
4.963156752382536
100
AcDbArc
 50
31.3449396261137
 51
39.1133388104285
  0
ARC
  5
4CA
330
18
100
AcDbEntity
  8
1
 62
     1
100
AcDbCircle
 10
32.36072498162925
 20
-0.9614890992250023
 30
0.0
 40
4.963156752380859
100
AcDbArc
 50
31.34493962611266
 51
39.11333881043017
  0
LINE
  5
4CB
330
18
100
AcDbEntity
  8
1
 62
     1
100
AcDbLine
 10
36.21154701076761
 20
2.169477937144467
 30
0.0
 11
36.18845298923244
 21
2.169477937144467
 31
0.0
  0
ARC
  5
4CC
330
18
100
AcDbEntity
  8
1
 62
     1
100
AcDbCircle
 10
31.5607249816315
 20
-0.9614890992233871
 30
0.0
 40
4.963156752378092
100
AcDbArc
 50
31.34493962611025
 51
39.1133388104321
  0
LINE
  5
4CD
330
18
100
AcDbEntity
  8
1
 62
     1
100
AcDbLine
 10
35.41154701076759
 20
2.169477937144467
 30
0.0
 11
35.38845298923241
 21
2.169477937144467
 31
0.0
  0
ARC
  5
4CE
330
18
100
AcDbEntity
  8
1
 62
     1
100
AcDbCircle
 10
30.76072498162857
 20
-0.9614890992253566
 30
0.0
 40
4.963156752381615
100
AcDbArc
 50
31.3449396261121
 51
39.11333881042837
  0
LINE
  5
4CF
330
18
100
AcDbEntity
  8
1
 62
     1
100
AcDbLine
 10
34.61154701076759
 20
2.169477937144467
 30
0.0
 11
34.58845298923242
 21
2.169477937144467
 31
0.0
  0
LINE
  5
4D0
330
18
100
AcDbEntity
  8
1
 62
     1
100
AcDbLine
 10
33.40000000000001
 20
1.6205869291684
 30
0.0
 11
33.48267926970223
 21
1.749710404405948
 31
0.0
  0
LINE
  5
4D1
330
18
100
AcDbEntity
  8
1
 62
     1
100
AcDbLine
 10
47.0
 20
2.005
 30
0.0
 11
49.005
 21
0.0
 31
0.0
  0
LINE
  5
4D2
330
18
100
AcDbEntity
  8
1
 62
     1
100
AcDbLine
 10
47.50313224609266
 20
-0.2698667846806559
 30
0.0
 11
47.56516693092303
 21
-0.2352878781069919
 31
0.0
  0
LINE
  5
4D3
330
18
100
AcDbEntity
  8
1
 62
     1
100
AcDbLine
 10
47.56516693092303
 20
-0.2352878781069919
 30
0.0
 11
47.62629989506875
 21
-0.1977487912325365
 31
0.0
  0
LINE
  5
4D4
330
18
100
AcDbEntity
  8
1
 62
     1
100
AcDbLine
 10
47.62629989506875
 20
-0.1977487912325365
 30
0.0
 11
47.6862755727312
 21
-0.1571050869409649
 31
0.0
  0
LINE
  5
4D5
330
18
100
AcDbEntity
  8
1
 62
     1
100
AcDbLine
 10
47.6862755727312
 20
-0.1571050869409649
 30
0.0
 11
47.74475475817061
 21
-0.1131716548635766
 31
0.0
  0
LINE
  5
4D6
330
18
100
AcDbEntity
  8
1
 62
     1
100
AcDbLine
 10
47.74475475817061
 20
-0.1131716548635766
 30
0.0
 11
47.80129397609817
 21
-0.0656955063008988
 31
0.0
  0
LINE
  5
4D7
330
18
100
AcDbEntity
  8
1
 62
     1
100
AcDbLine
 10
47.80129397609817
 20
-0.0656955063008988
 30
0.0
 11
47.85528589245647
 21
-0.0143546688430596
 31
0.0
  0
LINE
  5
4D8
330
18
100
AcDbEntity
  8
1
 62
     1
100
AcDbLine
 10
47.85528589245647
 20
-0.0143546688430596
 30
0.0
 11
47.88107429314511
 21
0.0128849669723886
 31
0.0
  0
LINE
  5
4D9
330
18
100
AcDbEntity
  8
1
 62
     1
100
AcDbLine
 10
47.88107429314511
 20
0.0128849669723886
 30
0.0
 11
47.90589484903577
 21
0.041253155022215
 31
0.0
  0
LINE
  5
4DA
330
18
100
AcDbEntity
  8
1
 62
     1
100
AcDbLine
 10
47.90589484903577
 20
0.041253155022215
 30
0.0
 11
47.92958231883529
 21
0.0708045760713464
 31
0.0
  0
LINE
  5
4DB
330
18
100
AcDbEntity
  8
1
 62
     1
100
AcDbLine
 10
47.92958231883529
 20
0.0708045760713464
 30
0.0
 11
47.95196047389591
 21
0.1016089770185912
 31
0.0
  0
LINE
  5
4DC
330
18
100
AcDbEntity
  8
1
 62
     1
100
AcDbLine
 10
47.95196047389591
 20
0.1016089770185912
 30
0.0
 11
47.9728037951529
 21
0.1337170941248947
 31
0.0
  0
LINE
  5
4DD
330
18
100
AcDbEntity
  8
1
 62
     1
100
AcDbLine
 10
47.9728037951529
 20
0.1337170941248947
 30
0.0
 11
47.9918744093255
 21
0.1671968771033152
 31
0.0
  0
LINE
  5
4DE
330
18
100
AcDbEntity
  8
1
 62
     1
100
AcDbLine
 10
47.9918744093255
 20
0.1671968771033152
 30
0.0
 11
48.0088768730969
 21
0.2020610574572741
 31
0.0
  0
LINE
  5
4DF
330
18
100
AcDbEntity
  8
1
 62
     1
100
AcDbLine
 10
48.0088768730969
 20
0.2020610574572741
 30
0.0
 11
48.01650962060197
 21
0.2200209442040356
 31
0.0
  0
LINE
  5
4E0
330
18
100
AcDbEntity
  8
1
 62
     1
100
AcDbLine
 10
48.01650962060197
 20
0.2200209442040356
 30
0.0
 11
48.02350857487615
 21
0.2383252784575767
 31
0.0
  0
LINE
  5
4E1
330
18
100
AcDbEntity
  8
1
 62
     1
100
AcDbLine
 10
48.02350857487615
 20
0.2383252784575767
 30
0.0
 11
48.02983387281626
 21
0.2569725584282435
 31
0.0
  0
LINE
  5
4E2
330
18
100
AcDbEntity
  8
1
 62
     1
100
AcDbLine
 10
48.02983387281626
 20
0.2569725584282435
 30
0.0
 11
48.03544710941846
 21
0.2759542160510133
 31
0.0
  0
LINE
  5
4E3
330
18
100
AcDbEntity
  8
1
 62
     1
100
AcDbLine
 10
48.03544710941846
 20
0.2759542160510133
 30
0.0
 11
48.0403064694213
 21
0.2952479773892071
 31
0.0
  0
LINE
  5
4E4
330
18
100
AcDbEntity
  8
1
 62
     1
100
AcDbLine
 10
48.0403064694213
 20
0.2952479773892071
 30
0.0
 11
48.0443787769739
 21
0.3148487736282038
 31
0.0
  0
LINE
  5
4E5
330
18
100
AcDbEntity
  8
1
 62
     1
100
AcDbLine
 10
48.0443787769739
 20
0.3148487736282038
 30
0.0
 11
48.04763182116123
 21
0.3347242102290275
 31
0.0
  0
LINE
  5
4E6
330
18
100
AcDbEntity
  8
1
 62
     1
100
AcDbLine
 10
48.04763182116123
 20
0.3347242102290275
 30
0.0
 11
48.05003583710726
 21
0.3548490894371503
 31
0.0
  0
LINE
  5
4E7
330
18
100
AcDbEntity
  8
1
 62
     1
100
AcDbLine
 10
48.05003583710726
 20
0.3548490894371503
 30
0.0
 11
48.05157360647847
 21
0.375202050332776
 31
0.0
  0
LINE
  5
4E8
330
18
100
AcDbEntity
  8
1
 62
     1
100
AcDbLine
 10
48.05157360647847
 20
0.375202050332776
 30
0.0
 11
48.05222982449192
 21
0.3957351951576817
 31
0.0
  0
LINE
  5
4E9
330
18
100
AcDbEntity
  8
1
 62
     1
100
AcDbLine
 10
48.05222982449192
 20
0.3957351951576817
 30
0.0
 11
48.05199703621699
 21
0.4164280830196637
 31
0.0
  0
LINE
  5
4EA
330
18
100
AcDbEntity
  8
1
 62
     1
100
AcDbLine
 10
48.05199703621699
 20
0.4164280830196637
 30
0.0
 11
48.05088078449814
 21
0.4372381516525462
 31
0.0
  0
LINE
  5
4EB
330
18
100
AcDbEntity
  8
1
 62
     1
100
AcDbLine
 10
48.05088078449814
 20
0.4372381516525462
 30
0.0
 11
48.04888825876485
 21
0.4581221499246046
 31
0.0
  0
LINE
  5
4EC
330
18
100
AcDbEntity
  8
1
 62
     1
100
AcDbLine
 10
48.04888825876485
 20
0.4581221499246046
 30
0.0
 11
48.04603724735445
 21
0.4790595073515415
 31
0.0
  0
LINE
  5
4ED
330
18
100
AcDbEntity
  8
1
 62
     1
100
AcDbLine
 10
48.04603724735445
 20
0.4790595073515415
 30
0.0
 11
48.04235440758344
 21
0.5000022530233997
 31
0.0
  0
LINE
  5
4EE
330
18
100
AcDbEntity
  8
1
 62
     1
100
AcDbLine
 10
48.04235440758344
 20
0.5000022530233997
 30
0.0
 11
48.03786600666068
 21
0.5209271796941737
 31
0.0
  0
LINE
  5
4EF
330
18
100
AcDbEntity
  8
1
 62
     1
100
AcDbLine
 10
48.03786600666068
 20
0.5209271796941737
 30
0.0
 11
48.0266195131396
 21
0.5626115729491854
 31
0.0
  0
LINE
  5
4F0
330
18
100
AcDbEntity
  8
1
 62
     1
100
AcDbLine
 10
48.0266195131396
 20
0.5626115729491854
 30
0.0
 11
48.01260196775912
 21
0.6039349344117662
 31
0.0
  0
LINE
  5
4F1
330
18
100
AcDbEntity
  8
1
 62
     1
100
AcDbLine
 10
48.01260196775912
 20
0.6039349344117662
 30
0.0
 11
47.99613777936992
 21
0.6447709222688048
 31
0.0
  0
LINE
  5
4F2
330
18
100
AcDbEntity
  8
1
 62
     1
100
AcDbLine
 10
47.99613777936992
 20
0.6447709222688048
 30
0.0
 11
47.97754168742105
 21
0.6850470354079912
 31
0.0
  0
LINE
  5
4F3
330
18
100
AcDbEntity
  8
1
 62
     1
100
AcDbLine
 10
47.97754168742105
 20
0.6850470354079912
 30
0.0
 11
47.95710168288969
 21
0.7247323774726274
 31
0.0
  0
LINE
  5
4F4
330
18
100
AcDbEntity
  8
1
 62
     1
100
AcDbLine
 10
47.95710168288969
 20
0.7247323774726274
 30
0.0
 11
47.93506930370781
 21
0.7638293148910094
 31
0.0
  0
LINE
  5
4F5
330
18
100
AcDbEntity
  8
1
 62
     1
100
AcDbLine
 10
47.93506930370781
 20
0.7638293148910094
 30
0.0
 11
47.88711280024906
 21
0.8402725308487184
 31
0.0
  0
LINE
  5
4F6
330
18
100
AcDbEntity
  8
1
 62
     1
100
AcDbLine
 10
47.88711280024906
 20
0.8402725308487184
 30
0.0
 11
47.835103749023
 21
0.9145596842652586
 31
0.0
  0
LINE
  5
4F7
330
18
100
AcDbEntity
  8
1
 62
     1
100
AcDbLine
 10
47.835103749023
 20
0.9145596842652586
 30
0.0
 11
47.78005860940883
 21
0.9869428676223652
 31
0.0
  0
LINE
  5
4F8
330
18
100
AcDbEntity
  8
1
 62
     1
100
AcDbLine
 10
47.78005860940883
 20
0.9869428676223652
 30
0.0
 11
47.66362768077683
 21
1.126816814170285
 31
0.0
  0
LINE
  5
4F9
330
18
100
AcDbEntity
  8
1
 62
     1
100
AcDbLine
 10
47.66362768077683
 20
1.126816814170285
 30
0.0
 11
47.54167700559188
 21
1.261179616254391
 31
0.0
  0
LINE
  5
4FA
330
18
100
AcDbEntity
  8
1
 62
     1
100
AcDbLine
 10
47.54167700559188
 20
1.261179616254391
 30
0.0
 11
47.2891688251176
 21
1.515744191916528
 31
0.0
  0
LINE
  5
4FB
330
18
100
AcDbEntity
  8
1
 62
     1
100
AcDbLine
 10
47.2891688251176
 20
1.515744191916528
 30
0.0
 11
47.0
 21
1.779979560734816
 31
0.0
  0
LINE
  5
4FC
330
18
100
AcDbEntity
  8
1
 62
     1
100
AcDbLine
 10
47.50313224609266
 20
-0.2698667846806558
 30
0.0
 11
47.0
 21
-0.5328375666854588
 31
0.0
  0
LINE
  5
4FD
330
18
100
AcDbEntity
  8
1
 62
     1
100
AcDbLine
 10
46.35507088055189
 20
2.095770518659884
 30
0.0
 11
46.35507088055189
 21
2.095719575255067
 31
0.0
  0
LINE
  5
4FE
330
18
100
AcDbEntity
  8
1
 62
     1
100
AcDbLine
 10
46.35507088055189
 20
2.095719575255067
 30
0.0
 11
46.35507088055189
 21
2.080399604951016
 31
0.0
  0
LINE
  5
4FF
330
18
100
AcDbEntity
  8
1
 62
     1
100
AcDbLine
 10
46.35507088055189
 20
2.080399604951016
 30
0.0
 11
46.35507088055189
 21
1.857595941348253
 31
0.0
  0
LINE
  5
500
330
18
100
AcDbEntity
  8
1
 62
     1
100
AcDbLine
 10
43.4115470107676
 20
2.5
 30
0.0
 11
43.4115470107676
 21
2.499929679799236
 31
0.0
  0
LINE
  5
501
330
18
100
AcDbEntity
  8
1
 62
     1
100
AcDbLine
 10
43.4115470107676
 20
2.499929679799236
 30
0.0
 11
43.41154701076759
 21
2.478718967995763
 31
0.0
  0
LINE
  5
502
330
18
100
AcDbEntity
  8
1
 62
     1
100
AcDbLine
 10
43.41154701076759
 20
2.478718967995763
 30
0.0
 11
43.4115470107676
 21
2.169477937144467
 31
0.0
  0
LINE
  5
503
330
18
100
AcDbEntity
  8
1
 62
     1
100
AcDbLine
 10
43.80000000000001
 20
1.620586929168401
 30
0.0
 11
43.80000000000001
 21
1.82718
 31
0.0
  0
ARC
  5
504
330
18
100
AcDbEntity
  8
1
 62
     1
100
AcDbCircle
 10
41.25740788353211
 20
-1.96531778144236
 30
0.0
 40
6.770229073002907
100
AcDbArc
 50
31.98230809659877
 51
33.72548931500842
  0
LINE
  5
505
330
18
100
AcDbEntity
  8
1
 62
     1
100
AcDbLine
 10
47.00000000000001
 20
1.779979560734816
 30
0.0
 11
47.00000000000001
 21
1.620586929168401
 31
0.0
  0
LINE
  5
506
330
18
100
AcDbEntity
  8
1
 62
     1
100
AcDbLine
 10
47.0
 20
2.005
 30
0.0
 11
47.0
 21
2.004951848245188
 31
0.0
  0
LINE
  5
507
330
18
100
AcDbEntity
  8
1
 62
     1
100
AcDbLine
 10
47.0
 20
2.004951848245188
 30
0.0
 11
47.0
 21
1.990474883000027
 31
0.0
  0
LINE
  5
508
330
18
100
AcDbEntity
  8
1
 62
     1
100
AcDbLine
 10
47.0
 20
1.990474883000027
 30
0.0
 11
47.0
 21
1.779979560734797
 31
0.0
  0
ARC
  5
509
330
18
100
AcDbEntity
  8
1
 62
     1
100
AcDbCircle
 10
50.84138083720354
 20
-1.771714101109206
 30
0.0
 40
6.412189476584487
100
AcDbArc
 50
144.5921572217378
 51
148.0594929906573
  0
LINE
  5
50A
330
18
100
AcDbEntity
  8
1
 62
     1
100
AcDbLine
 10
45.61519276537572
 20
2.199904629268985
 30
0.0
 11
45.61519276537572
 21
2.199849820336843
 31
0.0
  0
LINE
  5
50B
330
18
100
AcDbEntity
  8
1
 62
     1
100
AcDbLine
 10
45.61519276537572
 20
2.199849820336843
 30
0.0
 11
45.61519276537572
 21
2.183359230155335
 31
0.0
  0
LINE
  5
50C
330
18
100
AcDbEntity
  8
1
 62
     1
100
AcDbLine
 10
45.61519276537572
 20
2.183359230155335
 30
0.0
 11
45.6151927653757
 21
1.943421212196605
 31
0.0
  0
LINE
  5
50D
330
18
100
AcDbEntity
  8
1
 62
     1
100
AcDbLine
 10
46.01749824583852
 20
2.143282163295403
 30
0.0
 11
46.01749824583852
 21
2.143229545850083
 31
0.0
  0
LINE
  5
50E
330
18
100
AcDbEntity
  8
1
 62
     1
100
AcDbLine
 10
46.01749824583852
 20
2.143229545850083
 30
0.0
 11
46.01749824583852
 21
2.12740300834454
 31
0.0
  0
LINE
  5
50F
330
18
100
AcDbEntity
  8
1
 62
     1
100
AcDbLine
 10
46.01749824583852
 20
2.12740300834454
 30
0.0
 11
46.01749824583852
 21
1.897189449360438
 31
0.0
  0
ARC
  5
510
330
18
100
AcDbEntity
  8
1
 62
     1
100
AcDbCircle
 10
40.77512730117539
 20
-1.759330621879789
 30
0.0
 40
6.391609809988841
100
AcDbArc
 50
31.92459421427626
 51
34.89552588763958
  0
LINE
  5
511
330
18
100
AcDbEntity
  8
1
 62
     1
100
AcDbLine
 10
46.2
 20
1.620586929168401
 30
0.0
 11
46.20000000000001
 21
1.82718
 31
0.0
  0
LINE
  5
512
330
18
100
AcDbEntity
  8
1
 62
     1
100
AcDbLine
 10
44.60000000000002
 20
1.620586929168401
 30
0.0
 11
44.60000000000001
 21
1.82718
 31
0.0
  0
ARC
  5
513
330
18
100
AcDbEntity
  8
1
 62
     1
100
AcDbCircle
 10
49.77901416070754
 20
-1.60055164008414
 30
0.0
 40
6.098979291357558
100
AcDbArc
 50
143.5179101347584
 51
148.1200489943393
  0
LINE
  5
514
330
18
100
AcDbEntity
  8
1
 62
     1
100
AcDbLine
 10
44.87531465019953
 20
2.304038739878087
 30
0.0
 11
44.87531465019953
 21
2.303979320205665
 31
0.0
  0
LINE
  5
515
330
18
100
AcDbEntity
  8
1
 62
     1
100
AcDbLine
 10
44.87531465019953
 20
2.303979320205665
 30
0.0
 11
44.87531465019953
 21
2.286088928822068
 31
0.0
  0
LINE
  5
516
330
18
100
AcDbEntity
  8
1
 62
     1
100
AcDbLine
 10
44.87531465019953
 20
2.286088928822068
 30
0.0
 11
44.87531465019953
 21
2.025623517205156
 31
0.0
  0
LINE
  5
517
330
18
100
AcDbEntity
  8
1
 62
     1
100
AcDbLine
 10
45.1467412513287
 20
2.265836815636137
 30
0.0
 11
45.1467412513287
 21
2.265779177063894
 31
0.0
  0
LINE
  5
518
330
18
100
AcDbEntity
  8
1
 62
     1
100
AcDbLine
 10
45.1467412513287
 20
2.265779177063894
 30
0.0
 11
45.1467412513287
 21
2.248429906033683
 31
0.0
  0
LINE
  5
519
330
18
100
AcDbEntity
  8
1
 62
     1
100
AcDbLine
 10
45.1467412513287
 20
2.248429906033683
 30
0.0
 11
45.1467412513287
 21
1.995903509818404
 31
0.0
  0
ARC
  5
51A
330
18
100
AcDbEntity
  8
1
 62
     1
100
AcDbCircle
 10
40.35172051140924
 20
-1.510759533733582
 30
0.0
 40
5.940468962603414
100
AcDbArc
 50
31.81049688106307
 51
36.17850584967352
  0
LINE
  5
51B
330
18
100
AcDbEntity
  8
1
 62
     1
100
AcDbLine
 10
45.40000000000001
 20
1.620586929168401
 30
0.0
 11
45.40000000000001
 21
1.82718
 31
0.0
  0
ARC
  5
51C
330
18
100
AcDbEntity
  8
1
 62
     1
100
AcDbCircle
 10
47.62553339778969
 20
-1.23353831362239
 30
0.0
 40
5.435104824714407
100
AcDbArc
 50
141.2302688096431
 51
148.3238788648417
  0
LINE
  5
51D
330
18
100
AcDbEntity
  8
1
 62
     1
100
AcDbLine
 10
43.38845298923244
 20
2.5
 30
0.0
 11
43.38845298923244
 21
2.499929679799236
 31
0.0
  0
LINE
  5
51E
330
18
100
AcDbEntity
  8
1
 62
     1
100
AcDbLine
 10
43.38845298923244
 20
2.499929679799236
 30
0.0
 11
43.38845298923245
 21
2.478718967995763
 31
0.0
  0
LINE
  5
51F
330
18
100
AcDbEntity
  8
1
 62
     1
100
AcDbLine
 10
43.38845298923245
 20
2.478718967995763
 30
0.0
 11
43.38845298923244
 21
2.169477937144467
 31
0.0
  0
ARC
  5
520
330
18
100
AcDbEntity
  8
1
 62
     1
100
AcDbCircle
 10
48.69263261267876
 20
-1.411642751631757
 30
0.0
 40
5.755999571822833
100
AcDbArc
 50
142.3521931789257
 51
148.2112605595465
  0
LINE
  5
521
330
18
100
AcDbEntity
  8
1
 62
     1
100
AcDbLine
 10
44.13543653502337
 20
2.408172850487186
 30
0.0
 11
44.13543653502337
 21
2.408108020504545
 31
0.0
  0
LINE
  5
522
330
18
100
AcDbEntity
  8
1
 62
     1
100
AcDbLine
 10
44.13543653502337
 20
2.408108020504545
 30
0.0
 11
44.13543653502337
 21
2.388571348626905
 31
0.0
  0
LINE
  5
523
330
18
100
AcDbEntity
  8
1
 62
     1
100
AcDbLine
 10
44.13543653502337
 20
2.388571348626905
 30
0.0
 11
44.13543653502337
 21
2.103932129363157
 31
0.0
  0
LINE
  5
524
330
18
100
AcDbEntity
  8
1
 62
     1
100
AcDbLine
 10
44.27598425681889
 20
2.38839146797687
 30
0.0
 11
44.27598425681889
 21
2.388327730306212
 31
0.0
  0
LINE
  5
525
330
18
100
AcDbEntity
  8
1
 62
     1
100
AcDbLine
 10
44.27598425681889
 20
2.388327730306212
 30
0.0
 11
44.27598425681889
 21
2.369123721648281
 31
0.0
  0
LINE
  5
526
330
18
100
AcDbEntity
  8
1
 62
     1
100
AcDbLine
 10
44.27598425681889
 20
2.369123721648281
 30
0.0
 11
44.27598425681889
 21
2.08937129376196
 31
0.0
  0
ARC
  5
527
330
18
100
AcDbEntity
  8
1
 62
     1
100
AcDbCircle
 10
39.96591717689471
 20
-1.232165787341384
 30
0.0
 40
5.441497986003086
100
AcDbArc
 50
31.61655390621551
 51
37.61950956713318
  0
LINE
  5
528
330
18
100
AcDbEntity
  8
1
 62
     1
100
AcDbLine
 10
42.6115470107676
 20
2.5
 30
0.0
 11
42.6115470107676
 21
2.499929679799236
 31
0.0
  0
LINE
  5
529
330
18
100
AcDbEntity
  8
1
 62
     1
100
AcDbLine
 10
42.6115470107676
 20
2.499929679799236
 30
0.0
 11
42.6115470107676
 21
2.478718967995763
 31
0.0
  0
LINE
  5
52A
330
18
100
AcDbEntity
  8
1
 62
     1
100
AcDbLine
 10
42.6115470107676
 20
2.478718967995763
 30
0.0
 11
42.6115470107676
 21
2.169477937144467
 31
0.0
  0
LINE
  5
52B
330
18
100
AcDbEntity
  8
1
 62
     1
100
AcDbLine
 10
43.00000000000001
 20
1.620586929168401
 30
0.0
 11
43.00000000000001
 21
1.82718
 31
0.0
  0
ARC
  5
52C
330
18
100
AcDbEntity
  8
1
 62
     1
100
AcDbCircle
 10
46.82553339778358
 20
-1.233538313618012
 30
0.0
 40
5.435104824706896
100
AcDbArc
 50
141.2302688096389
 51
148.323878864847
  0
LINE
  5
52D
330
18
100
AcDbEntity
  8
1
 62
     1
100
AcDbLine
 10
41.8115470107676
 20
2.5
 30
0.0
 11
41.8115470107676
 21
2.499929679799236
 31
0.0
  0
LINE
  5
52E
330
18
100
AcDbEntity
  8
1
 62
     1
100
AcDbLine
 10
41.8115470107676
 20
2.499929679799236
 30
0.0
 11
41.8115470107676
 21
2.478718967995763
 31
0.0
  0
LINE
  5
52F
330
18
100
AcDbEntity
  8
1
 62
     1
100
AcDbLine
 10
41.8115470107676
 20
2.478718967995763
 30
0.0
 11
41.81154701076759
 21
2.169477937144467
 31
0.0
  0
LINE
  5
530
330
18
100
AcDbEntity
  8
1
 62
     1
100
AcDbLine
 10
42.20000000000002
 20
1.620586929168401
 30
0.0
 11
42.20000000000001
 21
1.82718
 31
0.0
  0
ARC
  5
531
330
18
100
AcDbEntity
  8
1
 62
     1
100
AcDbCircle
 10
46.02553339778538
 20
-1.233538313619244
 30
0.0
 40
5.435104824709081
100
AcDbArc
 50
141.2302688096408
 51
148.323878864846
  0
LINE
  5
532
330
18
100
AcDbEntity
  8
1
 62
     1
100
AcDbLine
 10
41.01154701076759
 20
2.5
 30
0.0
 11
41.01154701076759
 21
2.499929679799236
 31
0.0
  0
LINE
  5
533
330
18
100
AcDbEntity
  8
1
 62
     1
100
AcDbLine
 10
41.01154701076759
 20
2.499929679799236
 30
0.0
 11
41.01154701076759
 21
2.478718967995763
 31
0.0
  0
LINE
  5
534
330
18
100
AcDbEntity
  8
1
 62
     1
100
AcDbLine
 10
41.01154701076759
 20
2.478718967995763
 30
0.0
 11
41.01154701076759
 21
2.169477937144467
 31
0.0
  0
LINE
  5
535
330
18
100
AcDbEntity
  8
1
 62
     1
100
AcDbLine
 10
41.40000000000001
 20
1.620586929168401
 30
0.0
 11
41.40000000000001
 21
1.82718
 31
0.0
  0
LINE
  5
536
330
18
100
AcDbEntity
  8
1
 62
     1
100
AcDbLine
 10
40.2115470107676
 20
2.5
 30
0.0
 11
40.2115470107676
 21
2.499929679799236
 31
0.0
  0
LINE
  5
537
330
18
100
AcDbEntity
  8
1
 62
     1
100
AcDbLine
 10
40.2115470107676
 20
2.499929679799236
 30
0.0
 11
40.2115470107676
 21
2.478718967995763
 31
0.0
  0
LINE
  5
538
330
18
100
AcDbEntity
  8
1
 62
     1
100
AcDbLine
 10
40.2115470107676
 20
2.478718967995763
 30
0.0
 11
40.21154701076759
 21
2.169477937144467
 31
0.0
  0
LINE
  5
539
330
18
100
AcDbEntity
  8
1
 62
     1
100
AcDbLine
 10
40.60000000000001
 20
1.620586929168401
 30
0.0
 11
40.60000000000001
 21
1.82718
 31
0.0
  0
ARC
  5
53A
330
18
100
AcDbEntity
  8
1
 62
     1
100
AcDbCircle
 10
45.22553339778832
 20
-1.233538313621349
 30
0.0
 40
5.435104824712693
100
AcDbArc
 50
141.2302688096428
 51
148.3238788648434
  0
LINE
  5
53B
330
18
100
AcDbEntity
  8
1
 62
     1
100
AcDbLine
 10
40.98845298923243
 20
2.5
 30
0.0
 11
40.98845298923243
 21
2.499929679799236
 31
0.0
  0
LINE
  5
53C
330
18
100
AcDbEntity
  8
1
 62
     1
100
AcDbLine
 10
40.98845298923243
 20
2.499929679799236
 30
0.0
 11
40.98845298923243
 21
2.478718967995763
 31
0.0
  0
LINE
  5
53D
330
18
100
AcDbEntity
  8
1
 62
     1
100
AcDbLine
 10
40.98845298923243
 20
2.478718967995763
 30
0.0
 11
40.98845298923243
 21
2.169477937144467
 31
0.0
  0
LINE
  5
53E
330
18
100
AcDbEntity
  8
1
 62
     1
100
AcDbLine
 10
36.2115470107676
 20
2.5
 30
0.0
 11
36.2115470107676
 21
2.499929679799236
 31
0.0
  0
LINE
  5
53F
330
18
100
AcDbEntity
  8
1
 62
     1
100
AcDbLine
 10
36.2115470107676
 20
2.499929679799236
 30
0.0
 11
36.2115470107676
 21
2.478718967995763
 31
0.0
  0
LINE
  5
540
330
18
100
AcDbEntity
  8
1
 62
     1
100
AcDbLine
 10
36.2115470107676
 20
2.478718967995763
 30
0.0
 11
36.2115470107676
 21
2.169477937144467
 31
0.0
  0
LINE
  5
541
330
18
100
AcDbEntity
  8
1
 62
     1
100
AcDbLine
 10
36.60000000000001
 20
1.620586929168401
 30
0.0
 11
36.60000000000001
 21
1.82718
 31
0.0
  0
ARC
  5
542
330
18
100
AcDbEntity
  8
1
 62
     1
100
AcDbCircle
 10
41.22553339779047
 20
-1.23353831362284
 30
0.0
 40
5.435104824715305
100
AcDbArc
 50
141.2302688096447
 51
148.3238788648419
  0
LINE
  5
543
330
18
100
AcDbEntity
  8
1
 62
     1
100
AcDbLine
 10
36.98845298923243
 20
2.5
 30
0.0
 11
36.98845298923244
 21
2.499929679799236
 31
0.0
  0
LINE
  5
544
330
18
100
AcDbEntity
  8
1
 62
     1
100
AcDbLine
 10
36.98845298923244
 20
2.499929679799236
 30
0.0
 11
36.98845298923243
 21
2.478718967995763
 31
0.0
  0
LINE
  5
545
330
18
100
AcDbEntity
  8
1
 62
     1
100
AcDbLine
 10
36.98845298923243
 20
2.478718967995763
 30
0.0
 11
36.98845298923242
 21
2.169477937144467
 31
0.0
  0
ARC
  5
546
330
18
100
AcDbEntity
  8
1
 62
     1
100
AcDbCircle
 10
44.42553339779535
 20
-1.233538313626045
 30
0.0
 40
5.435104824721133
100
AcDbArc
 50
141.2302688096507
 51
148.3238788648402
  0
LINE
  5
547
330
18
100
AcDbEntity
  8
1
 62
     1
100
AcDbLine
 10
40.18845298923242
 20
2.5
 30
0.0
 11
40.18845298923242
 21
2.499929679799236
 31
0.0
  0
LINE
  5
548
330
18
100
AcDbEntity
  8
1
 62
     1
100
AcDbLine
 10
40.18845298923242
 20
2.499929679799236
 30
0.0
 11
40.18845298923242
 21
2.478718967995763
 31
0.0
  0
LINE
  5
549
330
18
100
AcDbEntity
  8
1
 62
     1
100
AcDbLine
 10
40.18845298923242
 20
2.478718967995763
 30
0.0
 11
40.18845298923242
 21
2.169477937144467
 31
0.0
  0
LINE
  5
54A
330
18
100
AcDbEntity
  8
1
 62
     1
100
AcDbLine
 10
39.8
 20
1.620586929168401
 30
0.0
 11
39.80000000000001
 21
1.82718
 31
0.0
  0
ARC
  5
54B
330
18
100
AcDbEntity
  8
1
 62
     1
100
AcDbCircle
 10
43.62553339778752
 20
-1.233538313620724
 30
0.0
 40
5.435104824711678
100
AcDbArc
 50
141.2302688096427
 51
148.3238788648445
  0
LINE
  5
54C
330
18
100
AcDbEntity
  8
1
 62
     1
100
AcDbLine
 10
39.38845298923242
 20
2.5
 30
0.0
 11
39.38845298923242
 21
2.499929679799236
 31
0.0
  0
LINE
  5
54D
330
18
100
AcDbEntity
  8
1
 62
     1
100
AcDbLine
 10
39.38845298923242
 20
2.499929679799236
 30
0.0
 11
39.38845298923242
 21
2.478718967995763
 31
0.0
  0
LINE
  5
54E
330
18
100
AcDbEntity
  8
1
 62
     1
100
AcDbLine
 10
39.38845298923242
 20
2.478718967995763
 30
0.0
 11
39.38845298923241
 21
2.169477937144467
 31
0.0
  0
LINE
  5
54F
330
18
100
AcDbEntity
  8
1
 62
     1
100
AcDbLine
 10
39.00000000000001
 20
1.620586929168401
 30
0.0
 11
39.00000000000001
 21
1.82718
 31
0.0
  0
ARC
  5
550
330
18
100
AcDbEntity
  8
1
 62
     1
100
AcDbCircle
 10
42.82553339779366
 20
-1.233538313624995
 30
0.0
 40
5.43510482471915
100
AcDbArc
 50
141.230268809648
 51
148.3238788648403
  0
LINE
  5
551
330
18
100
AcDbEntity
  8
1
 62
     1
100
AcDbLine
 10
38.58845298923243
 20
2.5
 30
0.0
 11
38.58845298923243
 21
2.499929679799236
 31
0.0
  0
LINE
  5
552
330
18
100
AcDbEntity
  8
1
 62
     1
100
AcDbLine
 10
38.58845298923243
 20
2.499929679799236
 30
0.0
 11
38.58845298923243
 21
2.478718967995763
 31
0.0
  0
LINE
  5
553
330
18
100
AcDbEntity
  8
1
 62
     1
100
AcDbLine
 10
38.58845298923243
 20
2.478718967995763
 30
0.0
 11
38.58845298923242
 21
2.169477937144467
 31
0.0
  0
LINE
  5
554
330
18
100
AcDbEntity
  8
1
 62
     1
100
AcDbLine
 10
37.8115470107676
 20
2.5
 30
0.0
 11
37.8115470107676
 21
2.499929679799236
 31
0.0
  0
LINE
  5
555
330
18
100
AcDbEntity
  8
1
 62
     1
100
AcDbLine
 10
37.8115470107676
 20
2.499929679799236
 30
0.0
 11
37.8115470107676
 21
2.478718967995763
 31
0.0
  0
LINE
  5
556
330
18
100
AcDbEntity
  8
1
 62
     1
100
AcDbLine
 10
37.8115470107676
 20
2.478718967995763
 30
0.0
 11
37.8115470107676
 21
2.169477937144467
 31
0.0
  0
LINE
  5
557
330
18
100
AcDbEntity
  8
1
 62
     1
100
AcDbLine
 10
38.2
 20
1.620586929168401
 30
0.0
 11
38.20000000000001
 21
1.82718
 31
0.0
  0
ARC
  5
558
330
18
100
AcDbEntity
  8
1
 62
     1
100
AcDbCircle
 10
42.02553339778655
 20
-1.23353831362014
 30
0.0
 40
5.43510482471055
100
AcDbArc
 50
141.2302688096412
 51
148.3238788648445
  0
LINE
  5
559
330
18
100
AcDbEntity
  8
1
 62
     1
100
AcDbLine
 10
37.78845298923242
 20
2.5
 30
0.0
 11
37.78845298923242
 21
2.499929679799236
 31
0.0
  0
LINE
  5
55A
330
18
100
AcDbEntity
  8
1
 62
     1
100
AcDbLine
 10
37.78845298923242
 20
2.499929679799236
 30
0.0
 11
37.78845298923242
 21
2.478718967995763
 31
0.0
  0
LINE
  5
55B
330
18
100
AcDbEntity
  8
1
 62
     1
100
AcDbLine
 10
37.78845298923242
 20
2.478718967995763
 30
0.0
 11
37.78845298923242
 21
2.169477937144467
 31
0.0
  0
LINE
  5
55C
330
18
100
AcDbEntity
  8
1
 62
     1
100
AcDbLine
 10
37.0115470107676
 20
2.5
 30
0.0
 11
37.0115470107676
 21
2.499929679799236
 31
0.0
  0
LINE
  5
55D
330
18
100
AcDbEntity
  8
1
 62
     1
100
AcDbLine
 10
37.0115470107676
 20
2.499929679799236
 30
0.0
 11
37.0115470107676
 21
2.478718967995763
 31
0.0
  0
LINE
  5
55E
330
18
100
AcDbEntity
  8
1
 62
     1
100
AcDbLine
 10
37.0115470107676
 20
2.478718967995763
 30
0.0
 11
37.01154701076759
 21
2.169477937144467
 31
0.0
  0
LINE
  5
55F
330
18
100
AcDbEntity
  8
1
 62
     1
100
AcDbLine
 10
37.40000000000001
 20
1.620586929168401
 30
0.0
 11
37.40000000000001
 21
1.82718
 31
0.0
  0
LINE
  5
560
330
18
100
AcDbEntity
  8
1
 62
     1
100
AcDbLine
 10
35.41154701076759
 20
2.5
 30
0.0
 11
35.41154701076758
 21
2.499929679799236
 31
0.0
  0
LINE
  5
561
330
18
100
AcDbEntity
  8
1
 62
     1
100
AcDbLine
 10
35.41154701076758
 20
2.499929679799236
 30
0.0
 11
35.41154701076759
 21
2.478718967995763
 31
0.0
  0
LINE
  5
562
330
18
100
AcDbEntity
  8
1
 62
     1
100
AcDbLine
 10
35.41154701076759
 20
2.478718967995763
 30
0.0
 11
35.41154701076759
 21
2.169477937144467
 31
0.0
  0
LINE
  5
563
330
18
100
AcDbEntity
  8
1
 62
     1
100
AcDbLine
 10
35.80000000000001
 20
1.620586929168401
 30
0.0
 11
35.80000000000001
 21
1.82718
 31
0.0
  0
ARC
  5
564
330
18
100
AcDbEntity
  8
1
 62
     1
100
AcDbCircle
 10
39.62553339779105
 20
-1.23353831362306
 30
0.0
 40
5.435104824715909
100
AcDbArc
 50
141.2302688096468
 51
148.3238788648431
  0
LINE
  5
565
330
18
100
AcDbEntity
  8
1
 62
     1
100
AcDbLine
 10
35.38845298923242
 20
2.5
 30
0.0
 11
35.38845298923242
 21
2.499929679799236
 31
0.0
  0
LINE
  5
566
330
18
100
AcDbEntity
  8
1
 62
     1
100
AcDbLine
 10
35.38845298923242
 20
2.499929679799236
 30
0.0
 11
35.38845298923241
 21
2.478718967995763
 31
0.0
  0
LINE
  5
567
330
18
100
AcDbEntity
  8
1
 62
     1
100
AcDbLine
 10
35.38845298923241
 20
2.478718967995763
 30
0.0
 11
35.38845298923242
 21
2.169477937144467
 31
0.0
  0
LINE
  5
568
330
18
100
AcDbEntity
  8
1
 62
     1
100
AcDbLine
 10
34.61154701076759
 20
2.5
 30
0.0
 11
34.61154701076759
 21
2.499929679799236
 31
0.0
  0
LINE
  5
569
330
18
100
AcDbEntity
  8
1
 62
     1
100
AcDbLine
 10
34.61154701076759
 20
2.499929679799236
 30
0.0
 11
34.61154701076759
 21
2.478718967995763
 31
0.0
  0
LINE
  5
56A
330
18
100
AcDbEntity
  8
1
 62
     1
100
AcDbLine
 10
34.61154701076759
 20
2.478718967995763
 30
0.0
 11
34.61154701076759
 21
2.169477937144467
 31
0.0
  0
LINE
  5
56B
330
18
100
AcDbEntity
  8
1
 62
     1
100
AcDbLine
 10
35.00000000000001
 20
1.620586929168401
 30
0.0
 11
35.00000000000001
 21
1.82718
 31
0.0
  0
LINE
  5
56C
330
18
100
AcDbEntity
  8
1
 62
     1
100
AcDbLine
 10
33.95866030959057
 20
2.245192410773686
 30
0.0
 11
33.95866030959056
 21
2.245135691034831
 31
0.0
  0
LINE
  5
56D
330
18
100
AcDbEntity
  8
1
 62
     1
100
AcDbLine
 10
33.95866030959056
 20
2.245135691034831
 30
0.0
 11
33.95866030959057
 21
2.228065389859696
 31
0.0
  0
LINE
  5
56E
330
18
100
AcDbEntity
  8
1
 62
     1
100
AcDbLine
 10
33.95866030959057
 20
2.228065389859696
 30
0.0
 11
33.95866030959058
 21
1.979630168294012
 31
0.0
  0
ARC
  5
56F
330
18
100
AcDbEntity
  8
1
 62
     1
100
AcDbCircle
 10
29.08515433242163
 20
-1.555026398606695
 30
0.0
 40
6.020388633301538
100
AcDbArc
 50
31.83457454480483
 51
35.95262721272881
  0
LINE
  5
570
330
18
100
AcDbEntity
  8
1
 62
     1
100
AcDbLine
 10
34.20000000000001
 20
1.620586929168401
 30
0.0
 11
34.20000000000001
 21
1.82718
 31
0.0
  0
ARC
  5
571
330
18
100
AcDbEntity
  8
1
 62
     1
100
AcDbCircle
 10
38.8255333977848
 20
-1.233538313618695
 30
0.0
 40
5.435104824708292
100
AcDbArc
 50
141.2302688096414
 51
148.3238788648477
  0
LINE
  5
572
330
18
100
AcDbEntity
  8
1
 62
     1
100
AcDbLine
 10
34.58845298923242
 20
2.5
 30
0.0
 11
34.58845298923242
 21
2.499929679799236
 31
0.0
  0
LINE
  5
573
330
18
100
AcDbEntity
  8
1
 62
     1
100
AcDbLine
 10
34.58845298923242
 20
2.499929679799236
 30
0.0
 11
34.58845298923242
 21
2.478718967995763
 31
0.0
  0
LINE
  5
574
330
18
100
AcDbEntity
  8
1
 62
     1
100
AcDbLine
 10
34.58845298923242
 20
2.478718967995763
 30
0.0
 11
34.58845298923242
 21
2.169477937144466
 31
0.0
  0
ARC
  5
575
330
18
100
AcDbEntity
  8
1
 62
     1
100
AcDbCircle
 10
40.42553339778694
 20
-1.23353831362037
 30
0.0
 40
5.435104824710995
100
AcDbArc
 50
141.2302688096417
 51
148.3238788648445
  0
LINE
  5
576
330
18
100
AcDbEntity
  8
1
 62
     1
100
AcDbLine
 10
36.18845298923242
 20
2.5
 30
0.0
 11
36.18845298923242
 21
2.499929679799236
 31
0.0
  0
LINE
  5
577
330
18
100
AcDbEntity
  8
1
 62
     1
100
AcDbLine
 10
36.18845298923242
 20
2.499929679799236
 30
0.0
 11
36.18845298923242
 21
2.478718967995763
 31
0.0
  0
LINE
  5
578
330
18
100
AcDbEntity
  8
1
 62
     1
100
AcDbLine
 10
36.18845298923242
 20
2.478718967995763
 30
0.0
 11
36.18845298923242
 21
2.169477937144467
 31
0.0
  0
LINE
  5
579
330
18
100
AcDbEntity
  8
1
 62
     1
100
AcDbLine
 10
33.35866037962486
 20
1.898782289470774
 30
0.0
 11
33.35866037962486
 21
1.898736740765974
 31
0.0
  0
LINE
  5
57A
330
18
100
AcDbEntity
  8
1
 62
     1
100
AcDbLine
 10
33.35866037962486
 20
1.898736740765974
 30
0.0
 11
33.35866037962486
 21
1.885042701426921
 31
0.0
  0
LINE
  5
57B
330
18
100
AcDbEntity
  8
1
 62
     1
100
AcDbLine
 10
33.35866037962486
 20
1.885042701426921
 30
0.0
 11
33.35866037962486
 21
1.685935488530856
 31
0.0
  0
LINE
  5
57C
330
18
100
AcDbEntity
  8
1
 62
     1
100
AcDbLine
 10
33.35866037962485
 20
1.685935488530862
 30
0.0
 11
33.40000000000001
 21
1.6205869291684
 31
0.0
  0
LINE
  5
57D
330
18
100
AcDbEntity
  8
1
 62
     1
100
AcDbLine
 10
33.40000000000001
 20
1.620586929168401
 30
0.0
 11
33.40000000000001
 21
1.82718
 31
0.0
  0
LINE
  5
57E
330
18
100
AcDbEntity
  8
1
 62
     1
100
AcDbLine
 10
33.48267926970222
 20
1.970384629087728
 30
0.0
 11
33.48267926970222
 21
1.970337403784748
 31
0.0
  0
LINE
  5
57F
330
18
100
AcDbEntity
  8
1
 62
     1
100
AcDbLine
 10
33.48267926970222
 20
1.970337403784748
 30
0.0
 11
33.48267926970222
 21
1.956139546673311
 31
0.0
  0
LINE
  5
580
330
18
100
AcDbEntity
  8
1
 62
     1
100
AcDbLine
 10
33.48267926970222
 20
1.956139546673311
 30
0.0
 11
33.48267926970222
 21
1.74971040440594
 31
0.0
  0
LINE
  5
581
330
18
100
AcDbEntity
  8
1
 62
     1
100
AcDbLine
 10
33.3261285
 20
-0.4681094061625704
 30
0.0
 11
33.3261285
 21
-1.583981640148468
 31
0.0
  0
LINE
  5
582
330
18
100
AcDbEntity
  8
1
 62
     1
100
AcDbLine
 10
33.3261285
 20
-0.2698667846806941
 30
0.0
 11
33.3261285
 21
-0.4681094061625808
 31
0.0
  0
LINE
  5
583
330
18
100
AcDbEntity
  8
1
 62
     1
100
AcDbLine
 10
33.3261285
 20
1.668946704229346
 30
0.0
 11
33.3261285
 21
-0.269866784680656
 31
0.0
  0
LINE
  5
584
330
18
100
AcDbEntity
  8
1
 62
     1
100
AcDbLine
 10
33.3261285
 20
1.88
 30
0.0
 11
33.3261285
 21
1.877052899947969
 31
0.0
  0
LINE
  5
585
330
18
100
AcDbEntity
  8
1
 62
     1
100
AcDbLine
 10
33.3261285
 20
1.877052899947969
 30
0.0
 11
33.3261285
 21
1.8523836068769
 31
0.0
  0
LINE
  5
586
330
18
100
AcDbEntity
  8
1
 62
     1
100
AcDbLine
 10
33.32612849999999
 20
1.8523836068769
 30
0.0
 11
33.3261285
 21
1.668946704229326
 31
0.0
  0
LINE
  5
587
330
18
100
AcDbEntity
  8
1
 62
     1
100
AcDbLine
 10
48.04596644810442
 20
-0.9590335508824267
 30
0.0
 11
48.0438684126784
 21
-0.9610409456365767
 31
0.0
  0
LINE
  5
588
330
18
100
AcDbEntity
  8
1
 62
     1
100
AcDbLine
 10
48.0438684126784
 20
-0.9610409456365767
 30
0.0
 11
48.03881410312829
 21
-0.9653823518777771
 31
0.0
  0
LINE
  5
589
330
18
100
AcDbEntity
  8
1
 62
     1
100
AcDbLine
 10
48.03881410312829
 20
-0.9653823518777771
 30
0.0
 11
48.03266721321184
 21
-0.9701400110283944
 31
0.0
  0
LINE
  5
58A
330
18
100
AcDbEntity
  8
1
 62
     1
100
AcDbLine
 10
48.03266721321184
 20
-0.9701400110283944
 30
0.0
 11
48.01734037397149
 21
-0.9808281339206883
 31
0.0
  0
LINE
  5
58B
330
18
100
AcDbEntity
  8
1
 62
     1
100
AcDbLine
 10
48.01734037397149
 20
-0.9808281339206883
 30
0.0
 11
47.97643413878914
 21
-1.006351931596149
 31
0.0
  0
LINE
  5
58C
330
18
100
AcDbEntity
  8
1
 62
     1
100
AcDbLine
 10
47.97643413878914
 20
-1.006351931596149
 30
0.0
 11
47.7356781006966
 21
-1.148739728944188
 31
0.0
  0
LINE
  5
58D
330
18
100
AcDbEntity
  8
1
 62
     1
100
AcDbLine
 10
47.7356781006966
 20
-1.148739728944188
 30
0.0
 11
47.44634631127284
 21
-1.339004883348199
 31
0.0
  0
LINE
  5
58E
330
18
100
AcDbEntity
  8
1
 62
     1
100
AcDbLine
 10
47.44634631127284
 20
-1.339004883348199
 30
0.0
 11
47.22429141428971
 21
-1.504371406610374
 31
0.0
  0
LINE
  5
58F
330
18
100
AcDbEntity
  8
1
 62
     1
100
AcDbLine
 10
47.22429141428971
 20
-1.504371406610374
 30
0.0
 11
47.0
 21
-1.689222739225286
 31
0.0
  0
LINE
  5
590
330
18
100
AcDbEntity
  8
1
 62
     1
100
AcDbLine
 10
48.04596644861098
 20
-0.9590335513890129
 30
0.0
 11
49.005
 21
0.0
 31
0.0
  0
LINE
  5
591
330
18
100
AcDbEntity
  8
1
 62
     1
100
AcDbLine
 10
46.35507088055189
 20
2.095770518659889
 30
0.0
 11
46.20000000000001
 21
1.82718
 31
0.0
  0
LINE
  5
592
330
18
100
AcDbEntity
  8
1
 62
     1
100
AcDbLine
 10
43.80000000000001
 20
1.82718
 30
0.0
 11
43.4115470107676
 21
2.500000000000003
 31
0.0
  0
LINE
  5
593
330
18
100
AcDbEntity
  8
1
 62
     1
100
AcDbLine
 10
47.00000000000001
 20
1.82718
 30
0.0
 11
46.88825524034834
 21
2.020727510954664
 31
0.0
  0
LINE
  5
594
330
18
100
AcDbEntity
  8
1
 62
     1
100
AcDbLine
 10
45.61519276537572
 20
2.19990462926899
 30
0.0
 11
45.40000000000001
 21
1.82718
 31
0.0
  0
LINE
  5
595
330
18
100
AcDbEntity
  8
1
 62
     1
100
AcDbLine
 10
46.2
 20
1.82718
 30
0.0
 11
46.01749824583852
 21
2.143282163295402
 31
0.0
  0
LINE
  5
596
330
18
100
AcDbEntity
  8
1
 62
     1
100
AcDbLine
 10
44.87531465019953
 20
2.304038739878091
 30
0.0
 11
44.60000000000001
 21
1.82718
 31
0.0
  0
LINE
  5
597
330
18
100
AcDbEntity
  8
1
 62
     1
100
AcDbLine
 10
45.40000000000001
 20
1.82718
 30
0.0
 11
45.1467412513287
 21
2.265836815636143
 31
0.0
  0
LINE
  5
598
330
18
100
AcDbEntity
  8
1
 62
     1
100
AcDbLine
 10
43.38845298923244
 20
2.500000000000028
 30
0.0
 11
43.00000000000001
 21
1.82718
 31
0.0
  0
LINE
  5
599
330
18
100
AcDbEntity
  8
1
 62
     1
100
AcDbLine
 10
44.13543653502337
 20
2.408172850487217
 30
0.0
 11
43.80000000000001
 21
1.82718
 31
0.0
  0
LINE
  5
59A
330
18
100
AcDbEntity
  8
1
 62
     1
100
AcDbLine
 10
44.60000000000001
 20
1.82718
 30
0.0
 11
44.27598425681889
 21
2.388391467976868
 31
0.0
  0
LINE
  5
59B
330
18
100
AcDbEntity
  8
1
 62
     1
100
AcDbLine
 10
43.00000000000001
 20
1.82718
 30
0.0
 11
42.6115470107676
 21
2.499999999999997
 31
0.0
  0
LINE
  5
59C
330
18
100
AcDbEntity
  8
1
 62
     1
100
AcDbLine
 10
42.58845298923243
 20
2.500000000000006
 30
0.0
 11
42.20000000000001
 21
1.82718
 31
0.0
  0
LINE
  5
59D
330
18
100
AcDbEntity
  8
1
 62
     1
100
AcDbLine
 10
42.20000000000002
 20
1.82718
 30
0.0
 11
41.8115470107676
 21
2.500000000000003
 31
0.0
  0
LINE
  5
59E
330
18
100
AcDbEntity
  8
1
 62
     1
100
AcDbLine
 10
41.78845298923242
 20
2.499999999999998
 30
0.0
 11
41.40000000000001
 21
1.82718
 31
0.0
  0
LINE
  5
59F
330
18
100
AcDbEntity
  8
1
 62
     1
100
AcDbLine
 10
41.40000000000001
 20
1.82718
 30
0.0
 11
41.0115470107676
 21
2.500000000000003
 31
0.0
  0
LINE
  5
5A0
330
18
100
AcDbEntity
  8
1
 62
     1
100
AcDbLine
 10
40.60000000000001
 20
1.82718
 30
0.0
 11
40.2115470107676
 21
2.500000000000003
 31
0.0
  0
LINE
  5
5A1
330
18
100
AcDbEntity
  8
1
 62
     1
100
AcDbLine
 10
40.98845298923243
 20
2.500000000000015
 30
0.0
 11
40.60000000000001
 21
1.82718
 31
0.0
  0
LINE
  5
5A2
330
18
100
AcDbEntity
  8
1
 62
     1
100
AcDbLine
 10
36.60000000000001
 20
1.82718
 30
0.0
 11
36.2115470107676
 21
2.500000000000003
 31
0.0
  0
LINE
  5
5A3
330
18
100
AcDbEntity
  8
1
 62
     1
100
AcDbLine
 10
36.98845298923244
 20
2.500000000000003
 30
0.0
 11
36.60000000000001
 21
1.82718
 31
0.0
  0
LINE
  5
5A4
330
18
100
AcDbEntity
  8
1
 62
     1
100
AcDbLine
 10
40.18845298923242
 20
2.500000000000006
 30
0.0
 11
39.80000000000001
 21
1.82718
 31
0.0
  0
LINE
  5
5A5
330
18
100
AcDbEntity
  8
1
 62
     1
100
AcDbLine
 10
39.80000000000002
 20
1.82718
 30
0.0
 11
39.41154701076759
 21
2.499999999999998
 31
0.0
  0
LINE
  5
5A6
330
18
100
AcDbEntity
  8
1
 62
     1
100
AcDbLine
 10
39.38845298923243
 20
2.500000000000006
 30
0.0
 11
39.00000000000001
 21
1.82718
 31
0.0
  0
LINE
  5
5A7
330
18
100
AcDbEntity
  8
1
 62
     1
100
AcDbLine
 10
39.00000000000001
 20
1.82718
 30
0.0
 11
38.61154701076759
 21
2.500000000000003
 31
0.0
  0
LINE
  5
5A8
330
18
100
AcDbEntity
  8
1
 62
     1
100
AcDbLine
 10
38.58845298923242
 20
2.500000000000015
 30
0.0
 11
38.20000000000001
 21
1.82718
 31
0.0
  0
LINE
  5
5A9
330
18
100
AcDbEntity
  8
1
 62
     1
100
AcDbLine
 10
38.20000000000001
 20
1.82718
 30
0.0
 11
37.8115470107676
 21
2.500000000000003
 31
0.0
  0
LINE
  5
5AA
330
18
100
AcDbEntity
  8
1
 62
     1
100
AcDbLine
 10
37.78845298923243
 20
2.499999999999998
 30
0.0
 11
37.40000000000001
 21
1.82718
 31
0.0
  0
LINE
  5
5AB
330
18
100
AcDbEntity
  8
1
 62
     1
100
AcDbLine
 10
37.40000000000001
 20
1.82718
 30
0.0
 11
37.0115470107676
 21
2.500000000000002
 31
0.0
  0
LINE
  5
5AC
330
18
100
AcDbEntity
  8
1
 62
     1
100
AcDbLine
 10
35.80000000000002
 20
1.82718
 30
0.0
 11
35.41154701076759
 21
2.500000000000003
 31
0.0
  0
LINE
  5
5AD
330
18
100
AcDbEntity
  8
1
 62
     1
100
AcDbLine
 10
35.38845298923241
 20
2.500000000000002
 30
0.0
 11
35.00000000000001
 21
1.82718
 31
0.0
  0
LINE
  5
5AE
330
18
100
AcDbEntity
  8
1
 62
     1
100
AcDbLine
 10
35.00000000000001
 20
1.82718
 30
0.0
 11
34.61154701076759
 21
2.500000000000003
 31
0.0
  0
LINE
  5
5AF
330
18
100
AcDbEntity
  8
1
 62
     1
100
AcDbLine
 10
34.20000000000001
 20
1.82718
 30
0.0
 11
33.95866030959057
 21
2.245192410773683
 31
0.0
  0
LINE
  5
5B0
330
18
100
AcDbEntity
  8
1
 62
     1
100
AcDbLine
 10
34.58845298923242
 20
2.500000000000002
 30
0.0
 11
34.20000000000001
 21
1.82718
 31
0.0
  0
LINE
  5
5B1
330
18
100
AcDbEntity
  8
1
 62
     1
100
AcDbLine
 10
36.18845298923242
 20
2.500000000000002
 30
0.0
 11
35.80000000000001
 21
1.82718
 31
0.0
  0
LINE
  5
5B2
330
18
100
AcDbEntity
  8
1
 62
     1
100
AcDbLine
 10
33.40000000000001
 20
1.82718
 30
0.0
 11
33.35866037962486
 21
1.898782289470775
 31
0.0
  0
LINE
  5
5B3
330
18
100
AcDbEntity
  8
1
 62
     1
100
AcDbLine
 10
33.48267926970222
 20
1.970384629087727
 30
0.0
 11
33.40000000000001
 21
1.82718
 31
0.0
  0
LINE
  5
5B4
330
18
100
AcDbEntity
  8
SK1
100
AcDbLine
 10
-0.0000000000000009
 20
3.0
 30
0.0
 11
-14.995
 21
3.0
 31
0.0
  0
LINE
  5
5B5
330
18
100
AcDbEntity
  8
SK1
100
AcDbLine
 10
-14.995
 20
-2.45
 30
0.0
 11
-14.995
 21
-3.0
 31
0.0
  0
LINE
  5
5B6
330
18
100
AcDbEntity
  8
SK1
100
AcDbLine
 10
-22.695
 20
1.73132896931808
 30
0.0
 11
-14.995
 21
1.73132896931808
 31
0.0
  0
LINE
  5
5B7
330
18
100
AcDbEntity
  8
SK1
100
AcDbLine
 10
-22.695
 20
2.45
 30
0.0
 11
-14.995
 21
2.45
 31
0.0
  0
ARC
  5
5B8
330
18
100
AcDbEntity
  8
SK1
100
AcDbCircle
 10
-18.19171877166906
 20
-0.9099443639471607
 30
0.0
 40
5.220406378875116
100
AcDbArc
 50
149.6074408112716
 51
156.9418773502788
  0
LINE
  5
5B9
330
18
100
AcDbEntity
  8
SK1
100
AcDbLine
 10
-22.695
 20
2.450000000000001
 30
0.0
 11
-22.695
 21
1.73132896931808
 31
0.0
  0
LINE
  5
5BA
330
18
100
AcDbEntity
  8
SK1
100
AcDbLine
 10
-22.99499999999999
 20
2.45
 30
0.0
 11
-22.695
 21
2.450000000000001
 31
0.0
  0
LINE
  5
5BB
330
18
100
AcDbEntity
  8
SK1
100
AcDbLine
 10
-14.995
 20
3.0
 30
0.0
 11
-14.995
 21
2.999884134508326
 31
0.0
  0
LINE
  5
5BC
330
18
100
AcDbEntity
  8
SK1
100
AcDbLine
 10
-14.995
 20
2.999884134508326
 30
0.0
 11
-14.995
 21
2.96468420831774
 31
0.0
  0
LINE
  5
5BD
330
18
100
AcDbEntity
  8
SK1
100
AcDbLine
 10
-14.995
 20
2.96468420831774
 30
0.0
 11
-14.995
 21
2.450000000000001
 31
0.0
  0
LINE
  5
5BE
330
18
100
AcDbEntity
  8
SK1
100
AcDbLine
 10
-22.695
 20
-1.731328969318078
 30
0.0
 11
-14.995
 21
-1.731328969318078
 31
0.0
  0
LINE
  5
5BF
330
18
100
AcDbEntity
  8
SK1
100
AcDbLine
 10
-22.695
 20
-1.731328969318078
 30
0.0
 11
-22.695
 21
-2.45
 31
0.0
  0
LINE
  5
5C0
330
18
100
AcDbEntity
  8
SK1
100
AcDbLine
 10
-22.695
 20
-2.45
 30
0.0
 11
-14.995
 21
-2.45
 31
0.0
  0
LINE
  5
5C1
330
18
100
AcDbEntity
  8
SK1
100
AcDbLine
 10
-22.995
 20
2.449999999999999
 30
0.0
 11
-22.99499999999999
 21
1.134680571791021
 31
0.0
  0
LINE
  5
5C2
330
18
100
AcDbEntity
  8
SK1
100
AcDbLine
 10
-22.99499999999999
 20
-1.13468057179102
 30
0.0
 11
-22.995
 21
-2.45
 31
0.0
  0
ARC
  5
5C3
330
18
100
AcDbEntity
  8
SK1
100
AcDbCircle
 10
-18.19171877166524
 20
0.9099443639491311
 30
0.0
 40
5.220406378879406
100
AcDbArc
 50
203.0581226497247
 51
210.3925591887258
  0
LINE
  5
5C4
330
18
100
AcDbEntity
  8
SK1
100
AcDbLine
 10
-22.995
 20
-2.450000000000001
 30
0.0
 11
-22.695
 21
-2.45
 31
0.0
  0
LINE
  5
5C5
330
18
100
AcDbEntity
  8
SK1
100
AcDbLine
 10
-14.995
 20
1.731328969318079
 30
0.0
 11
-14.995
 21
-1.731328969318082
 31
0.0
  0
LINE
  5
5C6
330
18
100
AcDbEntity
  8
SK1
100
AcDbLine
 10
-22.995
 20
1.134680571791021
 30
0.0
 11
-22.995
 21
-1.134680571791021
 31
0.0
  0
LINE
  5
5C7
330
18
100
AcDbEntity
  8
SK1
100
AcDbLine
 10
-14.995
 20
-3.0
 30
0.0
 11
0.0000000000000062
 21
-3.0
 31
0.0
  0
DIMENSION
  5
5C8
330
18
100
AcDbEntity
  8
2
100
AcDbDimension
  2
*D0
 10
62.00000000000002
 20
-2.499999999999948
 30
0.0
 11
59.60925000000005
 21
-11.20149999999995
 31
0.0
 70
    32
  1
M5
 71
     5
 42
5.000000000000001
  3
STANDARD
100
AcDbAlignedDimension
 13
47.0
 23
2.5
 33
0.0
 14
47.0
 24
-2.5
 34
0.0
 50
90.0000000000002
100
AcDbRotatedDimension
  0
DIMENSION
  5
5D6
330
18
100
AcDbEntity
  8
2
100
AcDbDimension
  2
*D1
 10
47.0
 20
75.0
 30
0.0
 11
23.5
 21
77.4205
 31
0.0
 70
    32
  1
<>
 71
     5
 42
47.0
  3
STANDARD
100
AcDbAlignedDimension
 13
0.0
 23
0.0
 33
0.0
 14
47.0
 24
0.0
 34
0.0
100
AcDbRotatedDimension
  0
DIMENSION
  5
5E3
330
18
100
AcDbEntity
  8
SK2
100
AcDbDimension
  2
*D2
 10
-37.99499999998469
 20
-3.000000000117379
 30
0.0
 11
-40.3857499999407
 21
-11.61925000012958
 31
0.0
 70
    32
  1
%%c<>
 71
     5
 42
6.000000000000001
  3
STANDARD
100
AcDbAlignedDimension
 13
-14.995
 23
3.0
 33
0.0
 14
-14.995
 24
-3.0
 34
0.0
 50
90.0000000002924
100
AcDbRotatedDimension
  0
DIMENSION
  5
5F1
330
18
100
AcDbEntity
  8
2
100
AcDbDimension
  2
*D3
 10
47.0
 20
60.0
 30
0.0
 11
56.642
 21
62.39775
 31
0.0
 70
    32
  1
<>
 71
     5
 42
13.6738715
  3
STANDARD
100
AcDbAlignedDimension
 13
33.3261285
 23
1.88
 33
0.0
 14
47.0
 24
2.5
 34
0.0
100
AcDbRotatedDimension
  0
DIMENSION
  5
5FF
330
18
100
AcDbEntity
  8
SK2
100
AcDbDimension
  2
*D4
 10
49.005
 20
90.0
 30
0.0
 11
13.005
 21
92.39075
 31
0.0
 70
    32
  1
<>
 71
     5
 42
72.0
  3
STANDARD
100
AcDbAlignedDimension
 13
-22.995
 23
2.5
 33
0.0
 14
49.005
 24
2.5
 34
0.0
100
AcDbRotatedDimension
  0
ENDSEC
  0
SECTION
  2
OBJECTS
  0
DICTIONARY
  5
C
330
0
100
AcDbDictionary
281
     1
  3
ACAD_COLOR
350
387
  3
ACAD_GROUP
350
D
  3
ACAD_LAYOUT
350
301
  3
ACAD_MATERIAL
350
386
  3
ACAD_MLEADERSTYLE
350
60C
  3
ACAD_MLINESTYLE
350
E
  3
ACAD_PLOTSETTINGS
350
302
  3
ACAD_PLOTSTYLENAME
350
2FF
  3
ACAD_SCALELIST
350
3A0
  3
ACAD_TABLESTYLE
350
388
  3
ACAD_VISUALSTYLE
350
3C5
  3
ACDBHEADERROUNDTRIPXREC
350
60D
  3
AcDbVariableDictionary
350
357
  0
DICTIONARY
  5
387
102
{ACAD_REACTORS
330
C
102
}
330
C
100
AcDbDictionary
281
     1
  0
DICTIONARY
  5
D
102
{ACAD_REACTORS
330
C
102
}
330
C
100
AcDbDictionary
281
     1
  0
DICTIONARY
  5
301
102
{ACAD_REACTORS
330
C
102
}
330
C
100
AcDbDictionary
281
     1
  3
Layout1
350
33B
  3
Model
350
303
  0
DICTIONARY
  5
386
102
{ACAD_REACTORS
330
C
102
}
330
C
100
AcDbDictionary
281
     1
  3
ByBlock
350
3C3
  3
ByLayer
350
3C2
  3
Global
350
3C4
  0
DICTIONARY
  5
60C
102
{ACAD_REACTORS
330
C
102
}
330
C
100
AcDbDictionary
281
     1
  0
DICTIONARY
  5
E
102
{ACAD_REACTORS
330
C
102
}
330
C
100
AcDbDictionary
281
     1
  3
STANDARD
350
1B
  0
DICTIONARY
  5
302
102
{ACAD_REACTORS
330
C
102
}
330
C
100
AcDbDictionary
281
     1
  0
ACDBDICTIONARYWDFLT
  5
2FF
102
{ACAD_REACTORS
330
C
102
}
330
C
100
AcDbDictionary
281
     1
  3
Normal
350
300
100
AcDbDictionaryWithDefault
340
300
  0
DICTIONARY
  5
3A0
102
{ACAD_REACTORS
330
C
102
}
330
C
100
AcDbDictionary
281
     1
  3
A0
350
3A1
  3
A1
350
3A2
  3
A2
350
3A3
  3
A3
350
3A4
  3
A4
350
3A5
  3
A5
350
3A6
  3
A6
350
3A7
  3
A7
350
3A8
  3
A8
350
3A9
  3
A9
350
3AA
  3
B0
350
3AB
  3
B1
350
3AC
  3
B2
350
3AD
  3
B3
350
3AE
  3
B4
350
3AF
  3
B5
350
3B0
  3
B6
350
3B1
  3
B7
350
3B2
  3
B8
350
3B3
  3
B9
350
3B4
  3
C0
350
3B5
  3
C1
350
3B6
  3
C2
350
3B7
  3
C3
350
3B8
  3
C4
350
3B9
  3
C5
350
3BA
  3
C6
350
3BB
  3
C7
350
3BC
  3
C8
350
3BD
  3
C9
350
3BE
  3
D0
350
3BF
  3
D1
350
3C0
  3
D2
350
3C1
  0
DICTIONARY
  5
388
102
{ACAD_REACTORS
330
C
102
}
330
C
100
AcDbDictionary
281
     1
  3
Standard
350
389
  0
DICTIONARY
  5
3C5
102
{ACAD_REACTORS
330
C
102
}
330
C
100
AcDbDictionary
281
     1
  3
2dWireframe
350
3CA
  3
3D Hidden
350
3CC
  3
3dWireframe
350
3CB
  3
Basic
350
3CD
  3
Brighten
350
3D1
  3
ColorChange
350
3D5
  3
Conceptual
350
3CF
  3
Dim
350
3D0
  3
Facepattern
350
3D4
  3
Flat
350
3C6
  3
FlatWithEdges
350
3C7
  3
Gouraud
350
3C8
  3
GouraudWithEdges
350
3C9
  3
Linepattern
350
3D3
  3
Realistic
350
3CE
  3
Thicken
350
3D2
  0
DICTIONARY
  5
60D
102
{ACAD_REACTORS
330
C
102
}
330
C
100
AcDbDictionary
281
     1
  3
COLORDICT
350
60E
  3
MATERIALDICT
350
60F
  0
DICTIONARY
  5
357
102
{ACAD_REACTORS
330
C
102
}
330
C
100
AcDbDictionary
281
     1
  3
CANNOSCALE
350
610
  3
CTABLESTYLE
350
38D
  3
DIMASSOC
350
359
  3
HIDETEXT
350
358
  3
PROJECTNAME
350
38E
  0
LAYOUT
  5
33B
102
{ACAD_REACTORS
330
301
102
}
330
301
100
AcDbPlotSettings
  1

  2
Lexmark Optra PS2
  4

  6

 40
0.0
 41
0.0
 42
0.0
 43
0.0
 44
0.0
 45
0.0
 46
0.0
 47
0.0
 48
0.0
 49
0.0
140
0.0
141
0.0
142
1.0
143
1.0
 70
   688
 72
     0
 73
     0
 74
     5
  7
monochrome.ctb
 75
    16
147
1.0
148
0.0
149
0.0
100
AcDbLayout
  1
Layout1
 70
     1
 71
     1
 10
0.0
 20
0.0
 11
12.0
 21
9.0
 12
0.0
 22
0.0
 32
0.0
 14
0.0
 24
0.0
 34
0.0
 15
0.0
 25
0.0
 35
0.0
146
0.0
 13
0.0
 23
0.0
 33
0.0
 16
1.0
 26
0.0
 36
0.0
 17
0.0
 27
1.0
 37
0.0
 76
     0
330
338
  0
LAYOUT
  5
303
102
{ACAD_REACTORS
330
301
102
}
330
301
100
AcDbPlotSettings
  1

  2
Lexmark Optra Rx
  4
A4
  6

 40
6.805083274841307
 41
5.535083293914794
 42
6.974411010742187
 43
7.14373779296875
 44
209.9733276367186
 45
296.9259948730469
 46
0.0
 47
0.0
 48
0.0
 49
0.0
140
0.0
141
0.0
142
1.0
143
2.976565420630886
 70
 11952
 72
     1
 73
     1
 74
     0
  7
monochrome.ctb
 75
     0
147
0.335957675604539
148
204.1199660668592
149
172.3933209647495
100
AcDbLayout
  1
Model
 70
     1
 71
     0
 10
0.0
 20
0.0
 11
12.0
 21
9.0
 12
0.0
 22
0.0
 32
0.0
 14
0.0
 24
0.0
 34
0.0
 15
0.0
 25
0.0
 35
0.0
146
0.0
 13
0.0
 23
0.0
 33
0.0
 16
1.0
 26
0.0
 36
0.0
 17
0.0
 27
1.0
 37
0.0
 76
     0
330
18
331
39A
  0
MATERIAL
  5
3C3
102
{ACAD_REACTORS
330
386
102
}
102
{ACAD_XDICTIONARY
360
613
102
}
330
386
100
AcDbMaterial
  1
ByBlock
  0
MATERIAL
  5
3C2
102
{ACAD_REACTORS
330
386
102
}
102
{ACAD_XDICTIONARY
360
611
102
}
330
386
100
AcDbMaterial
  1
ByLayer
  0
MATERIAL
  5
3C4
102
{ACAD_REACTORS
330
386
102
}
102
{ACAD_XDICTIONARY
360
615
102
}
330
386
100
AcDbMaterial
  1
Global
  0
MLINESTYLE
  5
1B
102
{ACAD_REACTORS
330
E
102
}
330
E
100
AcDbMlineStyle
  2
STANDARD
 70
     0
  3

 62
     0
 51
90.0
 52
90.0
 71
     2
 49
0.5
 62
   256
  6
BYLAYER
 49
-0.5
 62
   256
  6
BYLAYER
  0
ACDBPLACEHOLDER
  5
300
102
{ACAD_REACTORS
330
2FF
102
}
330
2FF
  0
SCALE
  5
3A1
102
{ACAD_REACTORS
330
3A0
102
}
330
3A0
100
AcDbScale
 70
     0
300
1:1
140
1.0
141
1.0
290
     1
  0
SCALE
  5
3A2
102
{ACAD_REACTORS
330
3A0
102
}
330
3A0
100
AcDbScale
 70
     0
300
1:2
140
1.0
141
2.0
290
     0
  0
SCALE
  5
3A3
102
{ACAD_REACTORS
330
3A0
102
}
330
3A0
100
AcDbScale
 70
     0
300
1:4
140
1.0
141
4.0
290
     0
  0
SCALE
  5
3A4
102
{ACAD_REACTORS
330
3A0
102
}
330
3A0
100
AcDbScale
 70
     0
300
1:5
140
1.0
141
5.0
290
     0
  0
SCALE
  5
3A5
102
{ACAD_REACTORS
330
3A0
102
}
330
3A0
100
AcDbScale
 70
     0
300
1:8
140
1.0
141
8.0
290
     0
  0
SCALE
  5
3A6
102
{ACAD_REACTORS
330
3A0
102
}
330
3A0
100
AcDbScale
 70
     0
300
1:10
140
1.0
141
10.0
290
     0
  0
SCALE
  5
3A7
102
{ACAD_REACTORS
330
3A0
102
}
330
3A0
100
AcDbScale
 70
     0
300
1:16
140
1.0
141
16.0
290
     0
  0
SCALE
  5
3A8
102
{ACAD_REACTORS
330
3A0
102
}
330
3A0
100
AcDbScale
 70
     0
300
1:20
140
1.0
141
20.0
290
     0
  0
SCALE
  5
3A9
102
{ACAD_REACTORS
330
3A0
102
}
330
3A0
100
AcDbScale
 70
     0
300
1:30
140
1.0
141
30.0
290
     0
  0
SCALE
  5
3AA
102
{ACAD_REACTORS
330
3A0
102
}
330
3A0
100
AcDbScale
 70
     0
300
1:40
140
1.0
141
40.0
290
     0
  0
SCALE
  5
3AB
102
{ACAD_REACTORS
330
3A0
102
}
330
3A0
100
AcDbScale
 70
     0
300
1:50
140
1.0
141
50.0
290
     0
  0
SCALE
  5
3AC
102
{ACAD_REACTORS
330
3A0
102
}
330
3A0
100
AcDbScale
 70
     0
300
1:100
140
1.0
141
100.0
290
     0
  0
SCALE
  5
3AD
102
{ACAD_REACTORS
330
3A0
102
}
330
3A0
100
AcDbScale
 70
     0
300
2:1
140
2.0
141
1.0
290
     0
  0
SCALE
  5
3AE
102
{ACAD_REACTORS
330
3A0
102
}
330
3A0
100
AcDbScale
 70
     0
300
4:1
140
4.0
141
1.0
290
     0
  0
SCALE
  5
3AF
102
{ACAD_REACTORS
330
3A0
102
}
330
3A0
100
AcDbScale
 70
     0
300
8:1
140
8.0
141
1.0
290
     0
  0
SCALE
  5
3B0
102
{ACAD_REACTORS
330
3A0
102
}
330
3A0
100
AcDbScale
 70
     0
300
10:1
140
10.0
141
1.0
290
     0
  0
SCALE
  5
3B1
102
{ACAD_REACTORS
330
3A0
102
}
330
3A0
100
AcDbScale
 70
     0
300
100:1
140
100.0
141
1.0
290
     0
  0
SCALE
  5
3B2
102
{ACAD_REACTORS
330
3A0
102
}
330
3A0
100
AcDbScale
 70
     0
300
1/128" = 1'-0"
140
0.0078125
141
12.0
290
     0
  0
SCALE
  5
3B3
102
{ACAD_REACTORS
330
3A0
102
}
330
3A0
100
AcDbScale
 70
     0
300
1/64" = 1'-0"
140
0.015625
141
12.0
290
     0
  0
SCALE
  5
3B4
102
{ACAD_REACTORS
330
3A0
102
}
330
3A0
100
AcDbScale
 70
     0
300
1/32" = 1'-0"
140
0.03125
141
12.0
290
     0
  0
SCALE
  5
3B5
102
{ACAD_REACTORS
330
3A0
102
}
330
3A0
100
AcDbScale
 70
     0
300
1/16" = 1'-0"
140
0.0625
141
12.0
290
     0
  0
SCALE
  5
3B6
102
{ACAD_REACTORS
330
3A0
102
}
330
3A0
100
AcDbScale
 70
     0
300
3/32" = 1'-0"
140
0.09375
141
12.0
290
     0
  0
SCALE
  5
3B7
102
{ACAD_REACTORS
330
3A0
102
}
330
3A0
100
AcDbScale
 70
     0
300
1/8" = 1'-0"
140
0.125
141
12.0
290
     0
  0
SCALE
  5
3B8
102
{ACAD_REACTORS
330
3A0
102
}
330
3A0
100
AcDbScale
 70
     0
300
3/16" = 1'-0"
140
0.1875
141
12.0
290
     0
  0
SCALE
  5
3B9
102
{ACAD_REACTORS
330
3A0
102
}
330
3A0
100
AcDbScale
 70
     0
300
1/4" = 1'-0"
140
0.25
141
12.0
290
     0
  0
SCALE
  5
3BA
102
{ACAD_REACTORS
330
3A0
102
}
330
3A0
100
AcDbScale
 70
     0
300
3/8" = 1'-0"
140
0.375
141
12.0
290
     0
  0
SCALE
  5
3BB
102
{ACAD_REACTORS
330
3A0
102
}
330
3A0
100
AcDbScale
 70
     0
300
1/2" = 1'-0"
140
0.5
141
12.0
290
     0
  0
SCALE
  5
3BC
102
{ACAD_REACTORS
330
3A0
102
}
330
3A0
100
AcDbScale
 70
     0
300
3/4" = 1'-0"
140
0.75
141
12.0
290
     0
  0
SCALE
  5
3BD
102
{ACAD_REACTORS
330
3A0
102
}
330
3A0
100
AcDbScale
 70
     0
300
1" = 1'-0"
140
1.0
141
12.0
290
     0
  0
SCALE
  5
3BE
102
{ACAD_REACTORS
330
3A0
102
}
330
3A0
100
AcDbScale
 70
     0
300
1-1/2" = 1'-0"
140
1.5
141
12.0
290
     0
  0
SCALE
  5
3BF
102
{ACAD_REACTORS
330
3A0
102
}
330
3A0
100
AcDbScale
 70
     0
300
3" = 1'-0"
140
3.0
141
12.0
290
     0
  0
SCALE
  5
3C0
102
{ACAD_REACTORS
330
3A0
102
}
330
3A0
100
AcDbScale
 70
     0
300
6" = 1'-0"
140
6.0
141
12.0
290
     0
  0
SCALE
  5
3C1
102
{ACAD_REACTORS
330
3A0
102
}
330
3A0
100
AcDbScale
 70
     0
300
1'-0" = 1'-0"
140
12.0
141
12.0
290
     0
  0
TABLESTYLE
  5
389
102
{ACAD_REACTORS
330
388
102
}
330
388
100
AcDbTableStyle
  3
Standard
 70
     0
 71
     0
 40
1.5
 41
1.5
280
     0
281
     0
  7
STANDARD
140
4.5
170
     2
 62
     0
 63
   257
283
     0
274
    -2
284
     1
 64
     0
275
    -2
285
     1
 65
     0
276
    -2
286
     1
 66
     0
277
    -2
287
     1
 67
     0
278
    -2
288
     1
 68
     0
279
    -2
289
     1
 69
     0
  7
STANDARD
140
6.0
170
     5
 62
     0
 63
   257
283
     0
274
    -2
284
     1
 64
     0
275
    -2
285
     1
 65
     0
276
    -2
286
     1
 66
     0
277
    -2
287
     1
 67
     0
278
    -2
288
     1
 68
     0
279
    -2
289
     1
 69
     0
  7
STANDARD
140
4.5
170
     5
 62
     0
 63
   257
283
     0
274
    -2
284
     1
 64
     0
275
    -2
285
     1
 65
     0
276
    -2
286
     1
 66
     0
277
    -2
287
     1
 67
     0
278
    -2
288
     1
 68
     0
279
    -2
289
     1
 69
     0
  0
VISUALSTYLE
  5
3CA
102
{ACAD_REACTORS
330
3C5
102
}
102
{ACAD_XDICTIONARY
360
61F
102
}
330
3C5
100
AcDbVisualStyle
  2
2dWireframe
 70
     4
 71
     0
 72
     2
 73
     0
 90
        0
 40
-0.6
 41
-30.0
 62
     5
 63
     7
 74
     1
 91
        4
 64
     7
 65
   257
 75
     1
175
     1
 42
1.0
 92
        0
 66
   257
 43
1.0
 76
     1
 77
     6
 78
     2
 67
     7
 79
     5
170
     0
171
     0
290
     0
174
     0
 93
        1
 44
0.0
173
     0
291
     0
 45
0.0
1001
ACAD
1000
AcDbSavedByObjectVersion
1070
     0
  0
VISUALSTYLE
  5
3CC
102
{ACAD_REACTORS
330
3C5
102
}
102
{ACAD_XDICTIONARY
360
623
102
}
330
3C5
100
AcDbVisualStyle
  2
3D Hidden
 70
     6
 71
     1
 72
     2
 73
     2
 90
        0
 40
-0.6
 41
-30.0
 62
     5
 63
     7
 74
     2
 91
        2
 64
     7
 65
   257
 75
     2
175
     1
 42
40.0
 92
        0
 66
   257
 43
1.0
 76
     1
 77
     6
 78
     2
 67
     7
 79
     3
170
     0
171
     0
290
     0
174
     0
 93
        1
 44
0.0
173
     0
291
     0
 45
0.0
1001
ACAD
1000
AcDbSavedByObjectVersion
1070
     0
  0
VISUALSTYLE
  5
3CB
102
{ACAD_REACTORS
330
3C5
102
}
102
{ACAD_XDICTIONARY
360
621
102
}
330
3C5
100
AcDbVisualStyle
  2
3dWireframe
 70
     5
 71
     0
 72
     2
 73
     0
 90
        0
 40
-0.6
 41
-30.0
 62
     5
 63
     7
 74
     1
 91
        4
 64
     7
 65
   257
 75
     1
175
     1
 42
1.0
 92
        0
 66
   257
 43
1.0
 76
     1
 77
     6
 78
     2
 67
     7
 79
     5
170
     0
171
     0
290
     0
174
     0
 93
        1
 44
0.0
173
     0
291
     0
 45
0.0
1001
ACAD
1000
AcDbSavedByObjectVersion
1070
     0
  0
VISUALSTYLE
  5
3CD
102
{ACAD_REACTORS
330
3C5
102
}
102
{ACAD_XDICTIONARY
360
625
102
}
330
3C5
100
AcDbVisualStyle
  2
Basic
 70
     7
 71
     1
 72
     0
 73
     1
 90
        0
 40
-0.6
 41
-30.0
 62
     5
 63
     7
 74
     0
 91
        4
 64
     7
 65
   257
 75
     1
175
     1
 42
1.0
 92
        8
 66
     7
 43
1.0
 76
     1
 77
     6
 78
     2
 67
     7
 79
     5
170
     0
171
     0
290
     0
174
     0
 93
        1
 44
0.0
173
     0
291
     1
 45
0.0
1001
ACAD
1000
AcDbSavedByObjectVersion
1070
     0
  0
VISUALSTYLE
  5
3D1
102
{ACAD_REACTORS
330
3C5
102
}
102
{ACAD_XDICTIONARY
360
62D
102
}
330
3C5
100
AcDbVisualStyle
  2
Brighten
 70
    12
 71
     2
 72
     2
 73
     0
 90
        0
 40
-0.6
 41
-30.0
 62
     5
 63
     7
 74
     1
 91
        4
 64
     7
 65
   257
 75
     1
175
     1
 42
1.0
 92
        8
 66
     7
 43
1.0
 76
     1
 77
     6
 78
     2
 67
     7
 79
     5
170
     0
171
     0
290
     0
174
     0
 93
        1
 44
50.0
173
     0
291
     1
 45
0.0
1001
ACAD
1000
AcDbSavedByObjectVersion
1070
     0
  0
VISUALSTYLE
  5
3D5
102
{ACAD_REACTORS
330
3C5
102
}
102
{ACAD_XDICTIONARY
360
635
102
}
330
3C5
100
AcDbVisualStyle
  2
ColorChange
 70
    16
 71
     2
 72
     2
 73
     3
 90
        0
 40
-0.6
 41
-30.0
 62
     5
 63
     8
 74
     1
 91
        4
 64
     7
 65
   257
 75
     1
175
     1
 42
1.0
 92
        8
 66
     8
 43
1.0
 76
     1
 77
     6
 78
     2
 67
     7
 79
     5
170
     0
171
     0
290
     0
174
     0
 93
        1
 44
0.0
173
     0
291
     1
 45
0.0
1001
ACAD
1000
AcDbSavedByObjectVersion
1070
     0
  0
VISUALSTYLE
  5
3CF
102
{ACAD_REACTORS
330
3C5
102
}
102
{ACAD_XDICTIONARY
360
629
102
}
330
3C5
100
AcDbVisualStyle
  2
Conceptual
 70
     9
 71
     3
 72
     2
 73
     0
 90
        0
 40
-0.6
 41
-30.0
 62
     5
 63
     7
 74
     2
 91
        2
 64
     7
 65
   257
 75
     1
175
     1
 42
40.0
 92
        8
 66
     7
 43
1.0
 76
     1
 77
     6
 78
     2
 67
     7
 79
     3
170
     0
171
     0
290
     0
174
     0
 93
        1
 44
0.0
173
     0
291
     0
 45
0.0
1001
ACAD
1000
AcDbSavedByObjectVersion
1070
     0
  0
VISUALSTYLE
  5
3D0
102
{ACAD_REACTORS
330
3C5
102
}
102
{ACAD_XDICTIONARY
360
62B
102
}
330
3C5
100
AcDbVisualStyle
  2
Dim
 70
    11
 71
     2
 72
     2
 73
     0
 90
        0
 40
-0.6
 41
-30.0
 62
     5
 63
     7
 74
     1
 91
        4
 64
     7
 65
   257
 75
     1
175
     1
 42
1.0
 92
        8
 66
     7
 43
1.0
 76
     1
 77
     6
 78
     2
 67
     7
 79
     5
170
     0
171
     0
290
     0
174
     0
 93
        1
 44
-50.0
173
     0
291
     1
 45
0.0
1001
ACAD
1000
AcDbSavedByObjectVersion
1070
     0
  0
VISUALSTYLE
  5
3D4
102
{ACAD_REACTORS
330
3C5
102
}
102
{ACAD_XDICTIONARY
360
633
102
}
330
3C5
100
AcDbVisualStyle
  2
Facepattern
 70
    15
 71
     2
 72
     2
 73
     0
 90
        0
 40
-0.6
 41
-30.0
 62
     5
 63
     7
 74
     1
 91
        4
 64
     7
 65
   257
 75
     1
175
     1
 42
1.0
 92
        8
 66
     7
 43
1.0
 76
     1
 77
     6
 78
     2
 67
     7
 79
     5
170
     0
171
     0
290
     0
174
     0
 93
        1
 44
0.0
173
     0
291
     1
 45
0.0
1001
ACAD
1000
AcDbSavedByObjectVersion
1070
     0
  0
VISUALSTYLE
  5
3C6
102
{ACAD_REACTORS
330
3C5
102
}
102
{ACAD_XDICTIONARY
360
617
102
}
330
3C5
100
AcDbVisualStyle
  2
Flat
 70
     0
 71
     2
 72
     1
 73
     1
 90
        2
 40
-0.6
 41
30.0
 62
     5
 63
     7
 74
     0
 91
        4
 64
     7
 65
   257
 75
     1
175
     1
 42
1.0
 92
        8
 66
     7
 43
1.0
 76
     1
 77
     6
 78
     2
 67
     7
 79
     5
170
     0
171
     0
290
     0
174
     0
 93
       13
 44
0.0
173
     0
291
     1
 45
0.0
1001
ACAD
1000
AcDbSavedByObjectVersion
1070
     0
  0
VISUALSTYLE
  5
3C7
102
{ACAD_REACTORS
330
3C5
102
}
102
{ACAD_XDICTIONARY
360
619
102
}
330
3C5
100
AcDbVisualStyle
  2
FlatWithEdges
 70
     1
 71
     2
 72
     1
 73
     1
 90
        2
 40
-0.6
 41
30.0
 62
     5
 63
     7
 74
     1
 91
        4
 64
     7
 65
   257
 75
     1
175
     1
 42
1.0
 92
        0
 66
   257
 43
1.0
 76
     1
 77
     6
 78
     2
 67
     7
 79
     5
170
     0
171
     0
290
     0
174
     0
 93
       13
 44
0.0
173
     0
291
     1
 45
0.0
1001
ACAD
1000
AcDbSavedByObjectVersion
1070
     0
  0
VISUALSTYLE
  5
3C8
102
{ACAD_REACTORS
330
3C5
102
}
102
{ACAD_XDICTIONARY
360
61B
102
}
330
3C5
100
AcDbVisualStyle
  2
Gouraud
 70
     2
 71
     2
 72
     2
 73
     1
 90
        2
 40
-0.6
 41
30.0
 62
     5
 63
     7
 74
     0
 91
        4
 64
     7
 65
   257
 75
     1
175
     1
 42
1.0
 92
        0
 66
     7
 43
1.0
 76
     1
 77
     6
 78
     2
 67
     7
 79
     5
170
     0
171
     0
290
     0
174
     0
 93
       13
 44
0.0
173
     0
291
     1
 45
0.0
1001
ACAD
1000
AcDbSavedByObjectVersion
1070
     0
  0
VISUALSTYLE
  5
3C9
102
{ACAD_REACTORS
330
3C5
102
}
102
{ACAD_XDICTIONARY
360
61D
102
}
330
3C5
100
AcDbVisualStyle
  2
GouraudWithEdges
 70
     3
 71
     2
 72
     2
 73
     1
 90
        2
 40
-0.6
 41
30.0
 62
     5
 63
     7
 74
     1
 91
        4
 64
     7
 65
   257
 75
     1
175
     1
 42
1.0
 92
        0
 66
   257
 43
1.0
 76
     1
 77
     6
 78
     2
 67
     7
 79
     5
170
     0
171
     0
290
     0
174
     0
 93
       13
 44
0.0
173
     0
291
     1
 45
0.0
1001
ACAD
1000
AcDbSavedByObjectVersion
1070
     0
  0
VISUALSTYLE
  5
3D3
102
{ACAD_REACTORS
330
3C5
102
}
102
{ACAD_XDICTIONARY
360
631
102
}
330
3C5
100
AcDbVisualStyle
  2
Linepattern
 70
    14
 71
     2
 72
     2
 73
     0
 90
        0
 40
-0.6
 41
-30.0
 62
     5
 63
     7
 74
     1
 91
        4
 64
     7
 65
   257
 75
     7
175
     7
 42
1.0
 92
        8
 66
     7
 43
1.0
 76
     1
 77
     6
 78
     2
 67
     7
 79
     5
170
     0
171
     0
290
     0
174
     0
 93
        1
 44
0.0
173
     0
291
     1
 45
0.0
1001
ACAD
1000
AcDbSavedByObjectVersion
1070
     0
  0
VISUALSTYLE
  5
3CE
102
{ACAD_REACTORS
330
3C5
102
}
102
{ACAD_XDICTIONARY
360
627
102
}
330
3C5
100
AcDbVisualStyle
  2
Realistic
 70
     8
 71
     2
 72
     2
 73
     0
 90
        0
 40
-0.6
 41
-30.0
 62
     5
 63
     7
 74
     1
 91
        0
 64
     7
 65
   257
 75
     1
175
     1
 42
1.0
 92
        8
 66
     8
 43
1.0
 76
     1
 77
     6
 78
     2
 67
     7
 79
     5
170
     0
171
     0
290
     0
174
     0
 93
       13
 44
0.0
173
     0
291
     0
 45
0.0
1001
ACAD
1000
AcDbSavedByObjectVersion
1070
     0
  0
VISUALSTYLE
  5
3D2
102
{ACAD_REACTORS
330
3C5
102
}
102
{ACAD_XDICTIONARY
360
62F
102
}
330
3C5
100
AcDbVisualStyle
  2
Thicken
 70
    13
 71
     2
 72
     2
 73
     0
 90
        0
 40
-0.6
 41
-30.0
 62
     5
 63
     7
 74
     1
 91
        4
 64
     7
 65
   257
 75
     1
175
     1
 42
1.0
 92
       12
 66
     7
 43
1.0
 76
     1
 77
     6
 78
     2
 67
     7
 79
     5
170
     0
171
     0
290
     0
174
     0
 93
        1
 44
0.0
173
     0
291
     1
 45
0.0
1001
ACAD
1000
AcDbSavedByObjectVersion
1070
     0
  0
XRECORD
  5
60E
102
{ACAD_REACTORS
330
60D
102
}
330
60D
100
AcDbXrecord
280
     1
340
387
  0
XRECORD
  5
60F
102
{ACAD_REACTORS
330
60D
102
}
330
60D
100
AcDbXrecord
280
     1
340
386
  0
DICTIONARYVAR
  5
610
102
{ACAD_REACTORS
330
357
102
}
330
357
100
DictionaryVariables
280
     0
  1
1:1
  0
DICTIONARYVAR
  5
38D
102
{ACAD_REACTORS
330
357
102
}
330
357
100
DictionaryVariables
280
     0
  1
Standard
  0
DICTIONARYVAR
  5
359
102
{ACAD_REACTORS
330
357
102
}
330
357
100
DictionaryVariables
280
     0
  1
2
  0
DICTIONARYVAR
  5
358
102
{ACAD_REACTORS
330
357
102
}
330
357
100
DictionaryVariables
280
     0
  1
1
  0
DICTIONARYVAR
  5
38E
102
{ACAD_REACTORS
330
357
102
}
330
357
100
DictionaryVariables
280
     0
  1

  0
DICTIONARY
  5
613
330
3C3
100
AcDbDictionary
280
     1
281
     1
  3
ACAD_XREC_ROUNDTRIP
360
614
  0
DICTIONARY
  5
611
330
3C2
100
AcDbDictionary
280
     1
281
     1
  3
ACAD_XREC_ROUNDTRIP
360
612
  0
DICTIONARY
  5
615
330
3C4
100
AcDbDictionary
280
     1
281
     1
  3
ACAD_XREC_ROUNDTRIP
360
616
  0
DICTIONARY
  5
61F
330
3CA
100
AcDbDictionary
280
     1
281
     1
  3
ACAD_XREC_ROUNDTRIP
360
620
  0
DICTIONARY
  5
623
330
3CC
100
AcDbDictionary
280
     1
281
     1
  3
ACAD_XREC_ROUNDTRIP
360
624
  0
DICTIONARY
  5
621
330
3CB
100
AcDbDictionary
280
     1
281
     1
  3
ACAD_XREC_ROUNDTRIP
360
622
  0
DICTIONARY
  5
625
330
3CD
100
AcDbDictionary
280
     1
281
     1
  3
ACAD_XREC_ROUNDTRIP
360
626
  0
DICTIONARY
  5
62D
330
3D1
100
AcDbDictionary
280
     1
281
     1
  3
ACAD_XREC_ROUNDTRIP
360
62E
  0
DICTIONARY
  5
635
330
3D5
100
AcDbDictionary
280
     1
281
     1
  3
ACAD_XREC_ROUNDTRIP
360
636
  0
DICTIONARY
  5
629
330
3CF
100
AcDbDictionary
280
     1
281
     1
  3
ACAD_XREC_ROUNDTRIP
360
62A
  0
DICTIONARY
  5
62B
330
3D0
100
AcDbDictionary
280
     1
281
     1
  3
ACAD_XREC_ROUNDTRIP
360
62C
  0
DICTIONARY
  5
633
330
3D4
100
AcDbDictionary
280
     1
281
     1
  3
ACAD_XREC_ROUNDTRIP
360
634
  0
DICTIONARY
  5
617
330
3C6
100
AcDbDictionary
280
     1
281
     1
  3
ACAD_XREC_ROUNDTRIP
360
618
  0
DICTIONARY
  5
619
330
3C7
100
AcDbDictionary
280
     1
281
     1
  3
ACAD_XREC_ROUNDTRIP
360
61A
  0
DICTIONARY
  5
61B
330
3C8
100
AcDbDictionary
280
     1
281
     1
  3
ACAD_XREC_ROUNDTRIP
360
61C
  0
DICTIONARY
  5
61D
330
3C9
100
AcDbDictionary
280
     1
281
     1
  3
ACAD_XREC_ROUNDTRIP
360
61E
  0
DICTIONARY
  5
631
330
3D3
100
AcDbDictionary
280
     1
281
     1
  3
ACAD_XREC_ROUNDTRIP
360
632
  0
DICTIONARY
  5
627
330
3CE
100
AcDbDictionary
280
     1
281
     1
  3
ACAD_XREC_ROUNDTRIP
360
628
  0
DICTIONARY
  5
62F
330
3D2
100
AcDbDictionary
280
     1
281
     1
  3
ACAD_XREC_ROUNDTRIP
360
630
  0
XRECORD
  5
614
102
{ACAD_REACTORS
330
613
102
}
330
613
100
AcDbXrecord
280
     1
102
MATERIAL
148
0.0
149
0.0
149
0.0
 93
        0
 94
      127
282
     0
 72
     1
 77
     1
171
     1
175
     1
179
     1
273
     0
  0
XRECORD
  5
612
102
{ACAD_REACTORS
330
611
102
}
330
611
100
AcDbXrecord
280
     1
102
MATERIAL
148
0.0
149
0.0
149
0.0
 93
        0
 94
      127
282
     0
 72
     1
 77
     1
171
     1
175
     1
179
     1
273
     0
  0
XRECORD
  5
616
102
{ACAD_REACTORS
330
615
102
}
330
615
100
AcDbXrecord
280
     1
102
MATERIAL
148
0.0
149
0.0
149
0.0
 93
        0
 94
      127
282
     0
 72
     1
 77
     1
171
     1
175
     1
179
     1
273
     0
  0
XRECORD
  5
620
102
{ACAD_REACTORS
330
61F
102
}
330
61F
100
AcDbXrecord
280
     1
102
RTVSPropertyOp0
 70
     1
102
RTVSPropertyOp1
 70
     1
102
RTVSPropertyOp2
 70
     1
102
RTVSPropertyOp3
 70
     1
102
RTVSPropertyOp4
 70
     1
102
RTVSPropertyOp5
 70
     1
102
RTVSPropertyOp6
 70
     1
102
RTVSPropertyOp7
 70
     1
102
RTVSPropertyOp8
 70
     1
102
RTVSPropertyOp9
 70
     1
102
RTVSPropertyOp10
 70
     1
102
RTVSPropertyOp11
 70
     1
102
RTVSPropertyOp12
 70
     1
102
RTVSPropertyOp13
 70
     1
102
RTVSPropertyOp14
 70
     1
102
RTVSPropertyOp15
 70
     1
102
RTVSPropertyOp16
 70
     1
102
RTVSPropertyOp17
 70
     1
102
RTVSPropertyOp18
 70
     1
102
RTVSPropertyOp19
 70
     1
102
RTVSPropertyOp20
 70
     1
102
RTVSPropertyOp21
 70
     1
102
RTVSPropertyOp22
 70
     1
102
RTVSPropertyOp23
 70
     1
102
RTVSPropertyOp24
 70
     1
102
RTVSPropertyOp25
 70
     1
102
RTVSPropertyOp26
 70
     1
102
RTVSPropertyOp27
 70
     1
102
RTVSPropertyOp28
 70
     1
102
RTVSPropertyOp29
 70
     1
102
RTVSPropertyOp30
 70
     1
102
RTVSPropertyOp31
 70
     1
102
RTVSPropertyOp32
 70
     1
  0
XRECORD
  5
624
102
{ACAD_REACTORS
330
623
102
}
330
623
100
AcDbXrecord
280
     1
102
RTVSPropertyOp0
 70
     1
102
RTVSPropertyOp1
 70
     1
102
RTVSPropertyOp2
 70
     1
102
RTVSPropertyOp3
 70
     1
102
RTVSPropertyOp4
 70
     1
102
RTVSPropertyOp5
 70
     1
102
RTVSPropertyOp6
 70
     1
102
RTVSPropertyOp7
 70
     1
102
RTVSPropertyOp8
 70
     1
102
RTVSPropertyOp9
 70
     1
102
RTVSPropertyOp10
 70
     1
102
RTVSPropertyOp11
 70
     1
102
RTVSPropertyOp12
 70
     1
102
RTVSPropertyOp13
 70
     1
102
RTVSPropertyOp14
 70
     1
102
RTVSPropertyOp15
 70
     1
102
RTVSPropertyOp16
 70
     1
102
RTVSPropertyOp17
 70
     1
102
RTVSPropertyOp18
 70
     1
102
RTVSPropertyOp19
 70
     1
102
RTVSPropertyOp20
 70
     1
102
RTVSPropertyOp21
 70
     1
102
RTVSPropertyOp22
 70
     1
102
RTVSPropertyOp23
 70
     1
102
RTVSPropertyOp24
 70
     1
102
RTVSPropertyOp25
 70
     1
102
RTVSPropertyOp26
 70
     1
102
RTVSPropertyOp27
 70
     1
102
RTVSPropertyOp28
 70
     1
102
RTVSPropertyOp29
 70
     1
102
RTVSPropertyOp30
 70
     1
102
RTVSPropertyOp31
 70
     1
102
RTVSPropertyOp32
 70
     1
  0
XRECORD
  5
622
102
{ACAD_REACTORS
330
621
102
}
330
621
100
AcDbXrecord
280
     1
102
RTVSPropertyOp0
 70
     1
102
RTVSPropertyOp1
 70
     1
102
RTVSPropertyOp2
 70
     1
102
RTVSPropertyOp3
 70
     1
102
RTVSPropertyOp4
 70
     1
102
RTVSPropertyOp5
 70
     1
102
RTVSPropertyOp6
 70
     1
102
RTVSPropertyOp7
 70
     1
102
RTVSPropertyOp8
 70
     1
102
RTVSPropertyOp9
 70
     1
102
RTVSPropertyOp10
 70
     1
102
RTVSPropertyOp11
 70
     1
102
RTVSPropertyOp12
 70
     1
102
RTVSPropertyOp13
 70
     1
102
RTVSPropertyOp14
 70
     1
102
RTVSPropertyOp15
 70
     1
102
RTVSPropertyOp16
 70
     1
102
RTVSPropertyOp17
 70
     1
102
RTVSPropertyOp18
 70
     1
102
RTVSPropertyOp19
 70
     1
102
RTVSPropertyOp20
 70
     1
102
RTVSPropertyOp21
 70
     1
102
RTVSPropertyOp22
 70
     1
102
RTVSPropertyOp23
 70
     1
102
RTVSPropertyOp24
 70
     1
102
RTVSPropertyOp25
 70
     1
102
RTVSPropertyOp26
 70
     1
102
RTVSPropertyOp27
 70
     1
102
RTVSPropertyOp28
 70
     1
102
RTVSPropertyOp29
 70
     1
102
RTVSPropertyOp30
 70
     1
102
RTVSPropertyOp31
 70
     1
102
RTVSPropertyOp32
 70
     1
  0
XRECORD
  5
626
102
{ACAD_REACTORS
330
625
102
}
330
625
100
AcDbXrecord
280
     1
102
RTVSPropertyOp0
 70
     1
102
RTVSPropertyOp1
 70
     1
102
RTVSPropertyOp2
 70
     1
102
RTVSPropertyOp3
 70
     1
102
RTVSPropertyOp4
 70
     1
102
RTVSPropertyOp5
 70
     1
102
RTVSPropertyOp6
 70
     1
102
RTVSPropertyOp7
 70
     1
102
RTVSPropertyOp8
 70
     1
102
RTVSPropertyOp9
 70
     1
102
RTVSPropertyOp10
 70
     1
102
RTVSPropertyOp11
 70
     1
102
RTVSPropertyOp12
 70
     1
102
RTVSPropertyOp13
 70
     1
102
RTVSPropertyOp14
 70
     1
102
RTVSPropertyOp15
 70
     1
102
RTVSPropertyOp16
 70
     1
102
RTVSPropertyOp17
 70
     1
102
RTVSPropertyOp18
 70
     1
102
RTVSPropertyOp19
 70
     1
102
RTVSPropertyOp20
 70
     1
102
RTVSPropertyOp21
 70
     1
102
RTVSPropertyOp22
 70
     1
102
RTVSPropertyOp23
 70
     1
102
RTVSPropertyOp24
 70
     1
102
RTVSPropertyOp25
 70
     1
102
RTVSPropertyOp26
 70
     1
102
RTVSPropertyOp27
 70
     1
102
RTVSPropertyOp28
 70
     1
102
RTVSPropertyOp29
 70
     1
102
RTVSPropertyOp30
 70
     1
102
RTVSPropertyOp31
 70
     1
102
RTVSPropertyOp32
 70
     1
  0
XRECORD
  5
62E
102
{ACAD_REACTORS
330
62D
102
}
330
62D
100
AcDbXrecord
280
     1
102
RTVSPropertyOp0
 70
     1
102
RTVSPropertyOp1
 70
     1
102
RTVSPropertyOp2
 70
     1
102
RTVSPropertyOp3
 70
     1
102
RTVSPropertyOp4
 70
     1
102
RTVSPropertyOp5
 70
     1
102
RTVSPropertyOp6
 70
     1
102
RTVSPropertyOp7
 70
     1
102
RTVSPropertyOp8
 70
     1
102
RTVSPropertyOp9
 70
     1
102
RTVSPropertyOp10
 70
     1
102
RTVSPropertyOp11
 70
     1
102
RTVSPropertyOp12
 70
     1
102
RTVSPropertyOp13
 70
     1
102
RTVSPropertyOp14
 70
     1
102
RTVSPropertyOp15
 70
     1
102
RTVSPropertyOp16
 70
     1
102
RTVSPropertyOp17
 70
     1
102
RTVSPropertyOp18
 70
     1
102
RTVSPropertyOp19
 70
     1
102
RTVSPropertyOp20
 70
     1
102
RTVSPropertyOp21
 70
     1
102
RTVSPropertyOp22
 70
     1
102
RTVSPropertyOp23
 70
     1
102
RTVSPropertyOp24
 70
     1
102
RTVSPropertyOp25
 70
     1
102
RTVSPropertyOp26
 70
     1
102
RTVSPropertyOp27
 70
     1
102
RTVSPropertyOp28
 70
     1
102
RTVSPropertyOp29
 70
     1
102
RTVSPropertyOp30
 70
     1
102
RTVSPropertyOp31
 70
     1
102
RTVSPropertyOp32
 70
     1
  0
XRECORD
  5
636
102
{ACAD_REACTORS
330
635
102
}
330
635
100
AcDbXrecord
280
     1
102
RTVSPropertyOp0
 70
     1
102
RTVSPropertyOp1
 70
     1
102
RTVSPropertyOp2
 70
     1
102
RTVSPropertyOp3
 70
     1
102
RTVSPropertyOp4
 70
     1
102
RTVSPropertyOp5
 70
     1
102
RTVSPropertyOp6
 70
     1
102
RTVSPropertyOp7
 70
     1
102
RTVSPropertyOp8
 70
     1
102
RTVSPropertyOp9
 70
     1
102
RTVSPropertyOp10
 70
     1
102
RTVSPropertyOp11
 70
     1
102
RTVSPropertyOp12
 70
     1
102
RTVSPropertyOp13
 70
     1
102
RTVSPropertyOp14
 70
     1
102
RTVSPropertyOp15
 70
     1
102
RTVSPropertyOp16
 70
     1
102
RTVSPropertyOp17
 70
     1
102
RTVSPropertyOp18
 70
     1
102
RTVSPropertyOp19
 70
     1
102
RTVSPropertyOp20
 70
     1
102
RTVSPropertyOp21
 70
     1
102
RTVSPropertyOp22
 70
     1
102
RTVSPropertyOp23
 70
     1
102
RTVSPropertyOp24
 70
     1
102
RTVSPropertyOp25
 70
     1
102
RTVSPropertyOp26
 70
     1
102
RTVSPropertyOp27
 70
     1
102
RTVSPropertyOp28
 70
     1
102
RTVSPropertyOp29
 70
     1
102
RTVSPropertyOp30
 70
     1
102
RTVSPropertyOp31
 70
     1
102
RTVSPropertyOp32
 70
     1
  0
XRECORD
  5
62A
102
{ACAD_REACTORS
330
629
102
}
330
629
100
AcDbXrecord
280
     1
102
RTVSPropertyOp0
 70
     1
102
RTVSPropertyOp1
 70
     1
102
RTVSPropertyOp2
 70
     1
102
RTVSPropertyOp3
 70
     1
102
RTVSPropertyOp4
 70
     1
102
RTVSPropertyOp5
 70
     1
102
RTVSPropertyOp6
 70
     1
102
RTVSPropertyOp7
 70
     1
102
RTVSPropertyOp8
 70
     1
102
RTVSPropertyOp9
 70
     1
102
RTVSPropertyOp10
 70
     1
102
RTVSPropertyOp11
 70
     1
102
RTVSPropertyOp12
 70
     1
102
RTVSPropertyOp13
 70
     1
102
RTVSPropertyOp14
 70
     1
102
RTVSPropertyOp15
 70
     1
102
RTVSPropertyOp16
 70
     1
102
RTVSPropertyOp17
 70
     1
102
RTVSPropertyOp18
 70
     1
102
RTVSPropertyOp19
 70
     1
102
RTVSPropertyOp20
 70
     1
102
RTVSPropertyOp21
 70
     1
102
RTVSPropertyOp22
 70
     1
102
RTVSPropertyOp23
 70
     1
102
RTVSPropertyOp24
 70
     1
102
RTVSPropertyOp25
 70
     1
102
RTVSPropertyOp26
 70
     1
102
RTVSPropertyOp27
 70
     1
102
RTVSPropertyOp28
 70
     1
102
RTVSPropertyOp29
 70
     1
102
RTVSPropertyOp30
 70
     1
102
RTVSPropertyOp31
 70
     1
102
RTVSPropertyOp32
 70
     1
  0
XRECORD
  5
62C
102
{ACAD_REACTORS
330
62B
102
}
330
62B
100
AcDbXrecord
280
     1
102
RTVSPropertyOp0
 70
     1
102
RTVSPropertyOp1
 70
     1
102
RTVSPropertyOp2
 70
     1
102
RTVSPropertyOp3
 70
     1
102
RTVSPropertyOp4
 70
     1
102
RTVSPropertyOp5
 70
     1
102
RTVSPropertyOp6
 70
     1
102
RTVSPropertyOp7
 70
     1
102
RTVSPropertyOp8
 70
     1
102
RTVSPropertyOp9
 70
     1
102
RTVSPropertyOp10
 70
     1
102
RTVSPropertyOp11
 70
     1
102
RTVSPropertyOp12
 70
     1
102
RTVSPropertyOp13
 70
     1
102
RTVSPropertyOp14
 70
     1
102
RTVSPropertyOp15
 70
     1
102
RTVSPropertyOp16
 70
     1
102
RTVSPropertyOp17
 70
     1
102
RTVSPropertyOp18
 70
     1
102
RTVSPropertyOp19
 70
     1
102
RTVSPropertyOp20
 70
     1
102
RTVSPropertyOp21
 70
     1
102
RTVSPropertyOp22
 70
     1
102
RTVSPropertyOp23
 70
     1
102
RTVSPropertyOp24
 70
     1
102
RTVSPropertyOp25
 70
     1
102
RTVSPropertyOp26
 70
     1
102
RTVSPropertyOp27
 70
     1
102
RTVSPropertyOp28
 70
     1
102
RTVSPropertyOp29
 70
     1
102
RTVSPropertyOp30
 70
     1
102
RTVSPropertyOp31
 70
     1
102
RTVSPropertyOp32
 70
     1
  0
XRECORD
  5
634
102
{ACAD_REACTORS
330
633
102
}
330
633
100
AcDbXrecord
280
     1
102
RTVSPropertyOp0
 70
     1
102
RTVSPropertyOp1
 70
     1
102
RTVSPropertyOp2
 70
     1
102
RTVSPropertyOp3
 70
     1
102
RTVSPropertyOp4
 70
     1
102
RTVSPropertyOp5
 70
     1
102
RTVSPropertyOp6
 70
     1
102
RTVSPropertyOp7
 70
     1
102
RTVSPropertyOp8
 70
     1
102
RTVSPropertyOp9
 70
     1
102
RTVSPropertyOp10
 70
     1
102
RTVSPropertyOp11
 70
     1
102
RTVSPropertyOp12
 70
     1
102
RTVSPropertyOp13
 70
     1
102
RTVSPropertyOp14
 70
     1
102
RTVSPropertyOp15
 70
     1
102
RTVSPropertyOp16
 70
     1
102
RTVSPropertyOp17
 70
     1
102
RTVSPropertyOp18
 70
     1
102
RTVSPropertyOp19
 70
     1
102
RTVSPropertyOp20
 70
     1
102
RTVSPropertyOp21
 70
     1
102
RTVSPropertyOp22
 70
     1
102
RTVSPropertyOp23
 70
     1
102
RTVSPropertyOp24
 70
     1
102
RTVSPropertyOp25
 70
     1
102
RTVSPropertyOp26
 70
     1
102
RTVSPropertyOp27
 70
     1
102
RTVSPropertyOp28
 70
     1
102
RTVSPropertyOp29
 70
     1
102
RTVSPropertyOp30
 70
     1
102
RTVSPropertyOp31
 70
     1
102
RTVSPropertyOp32
 70
     1
  0
XRECORD
  5
618
102
{ACAD_REACTORS
330
617
102
}
330
617
100
AcDbXrecord
280
     1
102
RTVSPropertyOp0
 70
     1
102
RTVSPropertyOp1
 70
     1
102
RTVSPropertyOp2
 70
     1
102
RTVSPropertyOp3
 70
     1
102
RTVSPropertyOp4
 70
     1
102
RTVSPropertyOp5
 70
     1
102
RTVSPropertyOp6
 70
     1
102
RTVSPropertyOp7
 70
     1
102
RTVSPropertyOp8
 70
     1
102
RTVSPropertyOp9
 70
     1
102
RTVSPropertyOp10
 70
     1
102
RTVSPropertyOp11
 70
     1
102
RTVSPropertyOp12
 70
     1
102
RTVSPropertyOp13
 70
     1
102
RTVSPropertyOp14
 70
     1
102
RTVSPropertyOp15
 70
     1
102
RTVSPropertyOp16
 70
     1
102
RTVSPropertyOp17
 70
     1
102
RTVSPropertyOp18
 70
     1
102
RTVSPropertyOp19
 70
     1
102
RTVSPropertyOp20
 70
     1
102
RTVSPropertyOp21
 70
     1
102
RTVSPropertyOp22
 70
     1
102
RTVSPropertyOp23
 70
     1
102
RTVSPropertyOp24
 70
     1
102
RTVSPropertyOp25
 70
     1
102
RTVSPropertyOp26
 70
     1
102
RTVSPropertyOp27
 70
     1
102
RTVSPropertyOp28
 70
     1
102
RTVSPropertyOp29
 70
     1
102
RTVSPropertyOp30
 70
     1
102
RTVSPropertyOp31
 70
     1
102
RTVSPropertyOp32
 70
     1
  0
XRECORD
  5
61A
102
{ACAD_REACTORS
330
619
102
}
330
619
100
AcDbXrecord
280
     1
102
RTVSPropertyOp0
 70
     1
102
RTVSPropertyOp1
 70
     1
102
RTVSPropertyOp2
 70
     1
102
RTVSPropertyOp3
 70
     1
102
RTVSPropertyOp4
 70
     1
102
RTVSPropertyOp5
 70
     1
102
RTVSPropertyOp6
 70
     1
102
RTVSPropertyOp7
 70
     1
102
RTVSPropertyOp8
 70
     1
102
RTVSPropertyOp9
 70
     1
102
RTVSPropertyOp10
 70
     1
102
RTVSPropertyOp11
 70
     1
102
RTVSPropertyOp12
 70
     1
102
RTVSPropertyOp13
 70
     1
102
RTVSPropertyOp14
 70
     1
102
RTVSPropertyOp15
 70
     1
102
RTVSPropertyOp16
 70
     1
102
RTVSPropertyOp17
 70
     1
102
RTVSPropertyOp18
 70
     1
102
RTVSPropertyOp19
 70
     1
102
RTVSPropertyOp20
 70
     1
102
RTVSPropertyOp21
 70
     1
102
RTVSPropertyOp22
 70
     1
102
RTVSPropertyOp23
 70
     1
102
RTVSPropertyOp24
 70
     1
102
RTVSPropertyOp25
 70
     1
102
RTVSPropertyOp26
 70
     1
102
RTVSPropertyOp27
 70
     1
102
RTVSPropertyOp28
 70
     1
102
RTVSPropertyOp29
 70
     1
102
RTVSPropertyOp30
 70
     1
102
RTVSPropertyOp31
 70
     1
102
RTVSPropertyOp32
 70
     1
  0
XRECORD
  5
61C
102
{ACAD_REACTORS
330
61B
102
}
330
61B
100
AcDbXrecord
280
     1
102
RTVSPropertyOp0
 70
     1
102
RTVSPropertyOp1
 70
     1
102
RTVSPropertyOp2
 70
     1
102
RTVSPropertyOp3
 70
     1
102
RTVSPropertyOp4
 70
     1
102
RTVSPropertyOp5
 70
     1
102
RTVSPropertyOp6
 70
     1
102
RTVSPropertyOp7
 70
     1
102
RTVSPropertyOp8
 70
     1
102
RTVSPropertyOp9
 70
     1
102
RTVSPropertyOp10
 70
     1
102
RTVSPropertyOp11
 70
     1
102
RTVSPropertyOp12
 70
     1
102
RTVSPropertyOp13
 70
     1
102
RTVSPropertyOp14
 70
     1
102
RTVSPropertyOp15
 70
     1
102
RTVSPropertyOp16
 70
     1
102
RTVSPropertyOp17
 70
     1
102
RTVSPropertyOp18
 70
     1
102
RTVSPropertyOp19
 70
     1
102
RTVSPropertyOp20
 70
     1
102
RTVSPropertyOp21
 70
     1
102
RTVSPropertyOp22
 70
     1
102
RTVSPropertyOp23
 70
     1
102
RTVSPropertyOp24
 70
     1
102
RTVSPropertyOp25
 70
     1
102
RTVSPropertyOp26
 70
     1
102
RTVSPropertyOp27
 70
     1
102
RTVSPropertyOp28
 70
     1
102
RTVSPropertyOp29
 70
     1
102
RTVSPropertyOp30
 70
     1
102
RTVSPropertyOp31
 70
     1
102
RTVSPropertyOp32
 70
     1
  0
XRECORD
  5
61E
102
{ACAD_REACTORS
330
61D
102
}
330
61D
100
AcDbXrecord
280
     1
102
RTVSPropertyOp0
 70
     1
102
RTVSPropertyOp1
 70
     1
102
RTVSPropertyOp2
 70
     1
102
RTVSPropertyOp3
 70
     1
102
RTVSPropertyOp4
 70
     1
102
RTVSPropertyOp5
 70
     1
102
RTVSPropertyOp6
 70
     1
102
RTVSPropertyOp7
 70
     1
102
RTVSPropertyOp8
 70
     1
102
RTVSPropertyOp9
 70
     1
102
RTVSPropertyOp10
 70
     1
102
RTVSPropertyOp11
 70
     1
102
RTVSPropertyOp12
 70
     1
102
RTVSPropertyOp13
 70
     1
102
RTVSPropertyOp14
 70
     1
102
RTVSPropertyOp15
 70
     1
102
RTVSPropertyOp16
 70
     1
102
RTVSPropertyOp17
 70
     1
102
RTVSPropertyOp18
 70
     1
102
RTVSPropertyOp19
 70
     1
102
RTVSPropertyOp20
 70
     1
102
RTVSPropertyOp21
 70
     1
102
RTVSPropertyOp22
 70
     1
102
RTVSPropertyOp23
 70
     1
102
RTVSPropertyOp24
 70
     1
102
RTVSPropertyOp25
 70
     1
102
RTVSPropertyOp26
 70
     1
102
RTVSPropertyOp27
 70
     1
102
RTVSPropertyOp28
 70
     1
102
RTVSPropertyOp29
 70
     1
102
RTVSPropertyOp30
 70
     1
102
RTVSPropertyOp31
 70
     1
102
RTVSPropertyOp32
 70
     1
  0
XRECORD
  5
632
102
{ACAD_REACTORS
330
631
102
}
330
631
100
AcDbXrecord
280
     1
102
RTVSPropertyOp0
 70
     1
102
RTVSPropertyOp1
 70
     1
102
RTVSPropertyOp2
 70
     1
102
RTVSPropertyOp3
 70
     1
102
RTVSPropertyOp4
 70
     1
102
RTVSPropertyOp5
 70
     1
102
RTVSPropertyOp6
 70
     1
102
RTVSPropertyOp7
 70
     1
102
RTVSPropertyOp8
 70
     1
102
RTVSPropertyOp9
 70
     1
102
RTVSPropertyOp10
 70
     1
102
RTVSPropertyOp11
 70
     1
102
RTVSPropertyOp12
 70
     1
102
RTVSPropertyOp13
 70
     1
102
RTVSPropertyOp14
 70
     1
102
RTVSPropertyOp15
 70
     1
102
RTVSPropertyOp16
 70
     1
102
RTVSPropertyOp17
 70
     1
102
RTVSPropertyOp18
 70
     1
102
RTVSPropertyOp19
 70
     1
102
RTVSPropertyOp20
 70
     1
102
RTVSPropertyOp21
 70
     1
102
RTVSPropertyOp22
 70
     1
102
RTVSPropertyOp23
 70
     1
102
RTVSPropertyOp24
 70
     1
102
RTVSPropertyOp25
 70
     1
102
RTVSPropertyOp26
 70
     1
102
RTVSPropertyOp27
 70
     1
102
RTVSPropertyOp28
 70
     1
102
RTVSPropertyOp29
 70
     1
102
RTVSPropertyOp30
 70
     1
102
RTVSPropertyOp31
 70
     1
102
RTVSPropertyOp32
 70
     1
  0
XRECORD
  5
628
102
{ACAD_REACTORS
330
627
102
}
330
627
100
AcDbXrecord
280
     1
102
RTVSPropertyOp0
 70
     1
102
RTVSPropertyOp1
 70
     1
102
RTVSPropertyOp2
 70
     1
102
RTVSPropertyOp3
 70
     1
102
RTVSPropertyOp4
 70
     1
102
RTVSPropertyOp5
 70
     1
102
RTVSPropertyOp6
 70
     1
102
RTVSPropertyOp7
 70
     1
102
RTVSPropertyOp8
 70
     1
102
RTVSPropertyOp9
 70
     1
102
RTVSPropertyOp10
 70
     1
102
RTVSPropertyOp11
 70
     1
102
RTVSPropertyOp12
 70
     1
102
RTVSPropertyOp13
 70
     1
102
RTVSPropertyOp14
 70
     1
102
RTVSPropertyOp15
 70
     1
102
RTVSPropertyOp16
 70
     1
102
RTVSPropertyOp17
 70
     1
102
RTVSPropertyOp18
 70
     1
102
RTVSPropertyOp19
 70
     1
102
RTVSPropertyOp20
 70
     1
102
RTVSPropertyOp21
 70
     1
102
RTVSPropertyOp22
 70
     1
102
RTVSPropertyOp23
 70
     1
102
RTVSPropertyOp24
 70
     1
102
RTVSPropertyOp25
 70
     1
102
RTVSPropertyOp26
 70
     1
102
RTVSPropertyOp27
 70
     1
102
RTVSPropertyOp28
 70
     1
102
RTVSPropertyOp29
 70
     1
102
RTVSPropertyOp30
 70
     1
102
RTVSPropertyOp31
 70
     1
102
RTVSPropertyOp32
 70
     1
  0
XRECORD
  5
630
102
{ACAD_REACTORS
330
62F
102
}
330
62F
100
AcDbXrecord
280
     1
102
RTVSPropertyOp0
 70
     1
102
RTVSPropertyOp1
 70
     1
102
RTVSPropertyOp2
 70
     1
102
RTVSPropertyOp3
 70
     1
102
RTVSPropertyOp4
 70
     1
102
RTVSPropertyOp5
 70
     1
102
RTVSPropertyOp6
 70
     1
102
RTVSPropertyOp7
 70
     1
102
RTVSPropertyOp8
 70
     1
102
RTVSPropertyOp9
 70
     1
102
RTVSPropertyOp10
 70
     1
102
RTVSPropertyOp11
 70
     1
102
RTVSPropertyOp12
 70
     1
102
RTVSPropertyOp13
 70
     1
102
RTVSPropertyOp14
 70
     1
102
RTVSPropertyOp15
 70
     1
102
RTVSPropertyOp16
 70
     1
102
RTVSPropertyOp17
 70
     1
102
RTVSPropertyOp18
 70
     1
102
RTVSPropertyOp19
 70
     1
102
RTVSPropertyOp20
 70
     1
102
RTVSPropertyOp21
 70
     1
102
RTVSPropertyOp22
 70
     1
102
RTVSPropertyOp23
 70
     1
102
RTVSPropertyOp24
 70
     1
102
RTVSPropertyOp25
 70
     1
102
RTVSPropertyOp26
 70
     1
102
RTVSPropertyOp27
 70
     1
102
RTVSPropertyOp28
 70
     1
102
RTVSPropertyOp29
 70
     1
102
RTVSPropertyOp30
 70
     1
102
RTVSPropertyOp31
 70
     1
102
RTVSPropertyOp32
 70
     1
  0
ENDSEC
  0
EOF
