0
SECTION
2
HEADER
9
$ACADVER
1
AC1015
9
$DWGCODEPAGE
3
ANSI_1252
9
$HANDSEED
5
183
9
$ANGBASE
50
0
9
$ANGDIR
70
0
9
$ATTMODE
70
1
9
$AUNITS
70
0
9
$AUPREC
70
0
9
$CECOLOR
62
256
9
$CELTSCALE
40
1
9
$CELTYPE
6
ByLayer
9
$CELWEIGHT
370
-1
9
$CLAYER
8
0
9
$CMLJUST
70
0
9
$CMLSCALE
40
1
9
$CMLSTYLE
2
Standard
9
$DIMSTYLE
2
Standard
9
$TEXTSIZE
40
0.2
9
$TEXTSTYLE
7
Standard
9
$LUNITS
70
2
9
$LUPREC
70
4
9
$EXTNAMES
290
1
9
$INSUNITS
70
4
9
$LTSCALE
40
1
9
$LWDISPLAY
290
0
9
$PDMODE
70
0
9
$PDSIZE
40
0
9
$PLINEGEN
70
0
0
ENDSEC
0
SECTION
2
CLASSES
0
CLASS
1
RASTERVARIABLES
2
AcDbRasterVariables
3
ISM
90
0
280
0
281
0
0
ENDSEC
0
SECTION
2
TABLES
0
TABLE
2
VPORT
5
179
100
AcDbSymbolTable
0
VPORT
5
1
100
AcDbSymbolTableRecord
100
AcDbViewportTableRecord
2
*Active
70
0
10
0
20
0
11
1
21
1
12
-1
22
1
13
0
23
0
14
0.5
24
0.5
15
10
25
10
16
0
26
0
36
1
17
0
27
0
37
0
0
ENDTAB
0
TABLE
2
LTYPE
5
17a
100
AcDbSymbolTable
0
LTYPE
5
14
100
AcDbSymbolTableRecord
100
AcDbLinetypeTableRecord
70
0
2
ByBlock
3

72
65
73
0
40
0
0
LTYPE
5
15
100
AcDbSymbolTableRecord
100
AcDbLinetypeTableRecord
70
0
2
ByLayer
3

72
65
73
0
40
0
0
LTYPE
5
16
100
AcDbSymbolTableRecord
100
AcDbLinetypeTableRecord
70
0
2
CONTINUOUS
3
Solid line
72
65
73
0
40
0
0
LTYPE
5
3B
100
AcDbSymbolTableRecord
100
AcDbLinetypeTableRecord
70
0
2
DASHED
3
__ __ __ __ __ __ __ __ __
72
65
73
2
40
25.72
49
12.86
74
0
49
-12.86
74
0
0
LTYPE
5
3C
100
AcDbSymbolTableRecord
100
AcDbLinetypeTableRecord
70
0
2
HIDDEN
3
_ _ _ _ _ _ _ _ _ _ _ _ _ _ _
72
65
73
2
40
0.5
49
0.25
74
0
49
-0.25
74
0
0
LTYPE
5
3D
100
AcDbSymbolTableRecord
100
AcDbLinetypeTableRecord
70
0
2
PHANTOM
3
____ _ _ ____ _ _ _____ _ _ ____
72
65
73
6
40
50.5
49
18
74
0
49
-6.5
74
0
49
6.5
74
0
49
-6.5
74
0
49
6.5
74
0
49
-6.5
74
0
0
LTYPE
5
3E
100
AcDbSymbolTableRecord
100
AcDbLinetypeTableRecord
70
0
2
CENTER
3
____ _ ____ _ ____ _ ____
72
65
73
4
40
47.5
49
22
74
0
49
-8.5
74
0
49
8.5
74
0
49
-8.5
74
0
0
LTYPE
5
3F
100
AcDbSymbolTableRecord
100
AcDbLinetypeTableRecord
70
0
2
DOT
3
.........................
72
65
73
2
40
10
49
0
74
0
49
-10
74
0
0
LTYPE
5
40
100
AcDbSymbolTableRecord
100
AcDbLinetypeTableRecord
70
0
2
DASHDOT
3
_._._._._._._._._._._._._._._._.
72
65
73
4
40
70
49
31
74
0
49
-13
74
0
49
13
74
0
49
-13
74
0
0
ENDTAB
0
TABLE
2
LAYER
5
17b
100
AcDbSymbolTable
0
LAYER
5
10
100
AcDbSymbolTableRecord
100
AcDbLayerTableRecord
2
0
70
0
62
7
6
CONTINUOUS
290
1
370
-3
390
0
0
LAYER
5
42
100
AcDbSymbolTableRecord
100
AcDbLayerTableRecord
2
80
70
0
62
-6
6
CONTINUOUS
290
1
370
-3
390
0
0
LAYER
5
44
100
AcDbSymbolTableRecord
100
AcDbLayerTableRecord
2
81
70
0
62
-3
6
CONTINUOUS
290
1
370
-3
390
0
0
LAYER
5
46
100
AcDbSymbolTableRecord
100
AcDbLayerTableRecord
2
1
70
0
62
4
6
CONTINUOUS
290
1
370
-3
390
0
0
LAYER
5
48
100
AcDbSymbolTableRecord
100
AcDbLayerTableRecord
2
2
70
0
62
7
6
CONTINUOUS
290
1
370
-3
390
0
0
LAYER
5
5D
100
AcDbSymbolTableRecord
100
AcDbLayerTableRecord
2
4
70
0
62
-2
6
CENTER
290
1
370
-3
390
0
0
LAYER
5
165
100
AcDbSymbolTableRecord
100
AcDbLayerTableRecord
2
SK1
70
0
62
4
6
CONTINUOUS
290
1
370
-3
390
0
0
LAYER
5
166
100
AcDbSymbolTableRecord
100
AcDbLayerTableRecord
2
SK4
70
0
62
2
6
CENTER
290
1
370
-3
390
0
0
LAYER
5
167
100
AcDbSymbolTableRecord
100
AcDbLayerTableRecord
2
SK6
70
0
62
5
6
CONTINUOUS
290
1
370
-3
390
0
0
LAYER
5
168
100
AcDbSymbolTableRecord
100
AcDbLayerTableRecord
2
SK2
70
0
62
7
6
CONTINUOUS
290
1
370
-3
390
0
0
ENDTAB
0
TABLE
2
STYLE
5
17c
100
AcDbSymbolTable
0
STYLE
5
11
100
AcDbSymbolTableRecord
100
AcDbTextStyleTableRecord
2
Standard
3
txt
70
0
71
0
40
0
41
1
42
0
50
0
0
STYLE
5
E1
100
AcDbSymbolTableRecord
100
AcDbTextStyleTableRecord
2
DEFAULT
3
simplex.shx
70
0
71
0
40
0
41
1
42
0
50
0
0
STYLE
5
104
100
AcDbSymbolTableRecord
100
AcDbTextStyleTableRecord
2
DWGDirectTextStyle
3
SIMPLEX
70
0
71
0
40
0
41
1
42
0
50
0
0
ENDTAB
0
TABLE
2
DIMSTYLE
5
17d
100
AcDbSymbolTable
100
AcDbDimStyleTable
0
DIMSTYLE
105
27
100
AcDbSymbolTableRecord
100
AcDbDimStyleTableRecord
2
Standard
70
0
3
<>
41
0.18
42
0.0625
44
0.18
140
0.18
147
0.09
73
0
74
0
77
1
271
2
275
0
278
52
280
0
340
11
0
ENDTAB
0
TABLE
2
VIEW
5
17e
100
AcDbSymbolTable
0
ENDTAB
0
TABLE
2
UCS
5
17f
100
AcDbSymbolTable
0
ENDTAB
0
TABLE
2
APPID
5
180
100
AcDbSymbolTable
0
APPID
5
12
100
AcDbSymbolTableRecord
100
AcDbRegAppTableRecord
2
ACAD
70
0
0
ENDTAB
0
TABLE
2
BLOCK_RECORD
5
181
100
AcDbSymbolTable
0
BLOCK_RECORD
5
1F
100
AcDbSymbolTableRecord
100
AcDbBlockTableRecord
2
*Model_Space
340
0
70
0
0
BLOCK_RECORD
5
1B
100
AcDbSymbolTableRecord
100
AcDbBlockTableRecord
2
*Paper_Space
340
0
70
0
0
BLOCK_RECORD
5
23
100
AcDbSymbolTableRecord
100
AcDbBlockTableRecord
2
*Paper_Space0
340
0
70
0
0
BLOCK_RECORD
5
106
100
AcDbSymbolTableRecord
100
AcDbBlockTableRecord
2
DimnDraft3D1
340
0
70
0
0
BLOCK_RECORD
5
114
100
AcDbSymbolTableRecord
100
AcDbBlockTableRecord
2
_CLOSED
340
0
70
0
0
BLOCK_RECORD
5
11B
100
AcDbSymbolTableRecord
100
AcDbBlockTableRecord
2
DimnDraft3D2
340
0
70
0
0
BLOCK_RECORD
5
12A
100
AcDbSymbolTableRecord
100
AcDbBlockTableRecord
2
DimnDraft3D3
340
0
70
0
0
BLOCK_RECORD
5
138
100
AcDbSymbolTableRecord
100
AcDbBlockTableRecord
2
DimnDraft3D4
340
0
70
0
0
ENDTAB
0
ENDSEC
0
SECTION
2
BLOCKS
0
BLOCK
5
20
100
AcDbEntity
8
0
100
AcDbBlockBegin
2
*Model_Space
70
0
10
0
20
0
30
0
3
*Model_Space
0
ENDBLK
5
21
100
AcDbEntity
8
0
100
AcDbBlockEnd
0
BLOCK
5
1C
100
AcDbEntity
8
0
100
AcDbBlockBegin
2
*Paper_Space
70
0
10
0
20
0
30
0
3
*Paper_Space
0
ENDBLK
5
1D
100
AcDbEntity
8
0
100
AcDbBlockEnd
0
BLOCK
5
24
100
AcDbEntity
8
0
100
AcDbBlockBegin
2
*Paper_Space0
70
0
10
0
20
0
30
0
3
*Paper_Space0
0
ENDBLK
5
25
100
AcDbEntity
8
0
100
AcDbBlockEnd
0
BLOCK
5
111
100
AcDbEntity
8
0
100
AcDbBlockBegin
2
DimnDraft3D1
70
0
10
0
20
0
30
0
3
DimnDraft3D1
0
MTEXT
5
107
100
AcDbEntity
8
2
62
256
6
ByLayer
370
-1
48
1
60
0
100
AcDbMText
10
161.02
20
4.974342
30
0
210
0
220
0
230
1
1
\W01.000;\fsimplex.shx,bigfont.shx;17.0 
40
4.5
41
0
44
1.084337
50
90
71
7
72
5
7
DEFAULT
0
LINE
5
108
100
AcDbEntity
8
2
62
256
6
ByLayer
370
-1
48
1
60
0
100
AcDbLine
10
151.895
20
16.9
30
0
11
164.145
21
16.9
31
0
39
0
210
0
220
0
230
1
0
LINE
5
109
100
AcDbEntity
8
2
62
256
6
ByLayer
370
-1
48
1
60
0
100
AcDbLine
10
151.895
20
0
30
0
11
164.145
21
0
31
0
39
0
210
0
220
0
230
1
0
LINE
5
10A
100
AcDbEntity
8
2
62
256
6
ByLayer
370
-1
48
1
60
0
100
AcDbLine
10
162.145
20
28.15
30
0
11
162.145
21
-11.25
31
0
39
0
210
0
220
0
230
1
0
LINE
5
10B
100
AcDbEntity
8
2
62
256
6
ByLayer
370
-1
48
1
60
0
100
AcDbLine
10
162.145
20
16.9
30
0
11
161.727003
21
20.074998
31
0
39
0
210
0
220
0
230
1
0
LINE
5
10C
100
AcDbEntity
8
2
62
256
6
ByLayer
370
-1
48
1
60
0
100
AcDbLine
10
162.145
20
16.9
30
0
11
162.562997
21
20.075002
31
0
39
0
210
0
220
0
230
1
0
LINE
5
10D
100
AcDbEntity
8
2
62
256
6
ByLayer
370
-1
48
1
60
0
100
AcDbLine
10
161.727003
20
20.074998
30
0
11
162.562997
21
20.075002
31
0
39
0
210
0
220
0
230
1
0
LINE
5
10E
100
AcDbEntity
8
2
62
256
6
ByLayer
370
-1
48
1
60
0
100
AcDbLine
10
162.145
20
0
30
0
11
162.562997
21
-3.174998
31
0
39
0
210
0
220
0
230
1
0
LINE
5
10F
100
AcDbEntity
8
2
62
256
6
ByLayer
370
-1
48
1
60
0
100
AcDbLine
10
162.145
20
0
30
0
11
161.727003
21
-3.175002
31
0
39
0
210
0
220
0
230
1
0
LINE
5
110
100
AcDbEntity
8
2
62
256
6
ByLayer
370
-1
48
1
60
0
100
AcDbLine
10
162.562997
20
-3.174998
30
0
11
161.727003
21
-3.175002
31
0
39
0
210
0
220
0
230
1
0
ENDBLK
5
112
100
AcDbEntity
8
0
100
AcDbBlockEnd
0
BLOCK
5
115
100
AcDbEntity
8
0
100
AcDbBlockBegin
2
_CLOSED
70
0
10
0
20
0
30
0
3
_CLOSED
0
LINE
5
117
100
AcDbEntity
8
0
62
256
6
ByLayer
370
-2
48
1
60
0
100
AcDbLine
10
-1
20
0.166667
30
0
11
0
21
0
31
0
39
0
210
0
220
0
230
1
0
LINE
5
118
100
AcDbEntity
8
0
62
256
6
ByLayer
370
-2
48
1
60
0
100
AcDbLine
10
0
20
0
30
0
11
-1
21
-0.166667
31
0
39
0
210
0
220
0
230
1
0
LINE
5
119
100
AcDbEntity
8
0
62
256
6
ByLayer
370
-2
48
1
60
0
100
AcDbLine
10
-1
20
0.166667
30
0
11
-1
21
-0.166667
31
0
39
0
210
0
220
0
230
1
0
LINE
5
11A
100
AcDbEntity
8
0
62
256
6
ByLayer
370
-2
48
1
60
0
100
AcDbLine
10
0
20
0
30
0
11
-1
21
0
31
0
39
0
210
0
220
0
230
1
0
ENDBLK
5
116
100
AcDbEntity
8
0
100
AcDbBlockEnd
0
BLOCK
5
127
100
AcDbEntity
8
0
100
AcDbBlockBegin
2
DimnDraft3D2
70
0
10
0
20
0
30
0
3
DimnDraft3D2
0
MTEXT
5
11C
100
AcDbEntity
8
SK2
62
256
6
ByLayer
370
-1
48
1
60
0
100
AcDbMText
10
-132.23
20
-3.659211
30
0
210
0
220
0
230
1
1
\W01.000;\fsimplex.shx,bigfont.shx;%%c25 
40
4.5
41
0
44
1.084337
50
90
71
7
72
5
7
DEFAULT
0
LINE
5
11E
100
AcDbEntity
8
SK2
62
256
6
ByLayer
370
-1
48
1
60
0
100
AcDbLine
10
-123.355
20
-12.49125
30
0
11
-133.105
21
-12.49125
31
0
39
0
210
0
220
0
230
1
0
LINE
5
11F
100
AcDbEntity
8
SK2
62
256
6
ByLayer
370
-1
48
1
60
0
100
AcDbLine
10
-123.355
20
12.49125
30
0
11
-133.105
21
12.49125
31
0
39
0
210
0
220
0
230
1
0
LINE
5
120
100
AcDbEntity
8
SK2
62
256
6
ByLayer
370
-1
48
1
60
0
100
AcDbLine
10
-131.105
20
-12.49125
30
0
11
-131.105
21
12.49125
31
0
39
0
210
0
220
0
230
1
0
LINE
5
121
100
AcDbEntity
8
SK2
62
256
6
ByLayer
370
-1
48
1
60
0
100
AcDbLine
10
-131.105
20
-12.49125
30
0
11
-131.522997
21
-9.316252
31
0
39
0
210
0
220
0
230
1
0
LINE
5
122
100
AcDbEntity
8
SK2
62
256
6
ByLayer
370
-1
48
1
60
0
100
AcDbLine
10
-131.105
20
-12.49125
30
0
11
-130.687003
21
-9.316248
31
0
39
0
210
0
220
0
230
1
0
LINE
5
123
100
AcDbEntity
8
SK2
62
256
6
ByLayer
370
-1
48
1
60
0
100
AcDbLine
10
-131.522997
20
-9.316252
30
0
11
-130.687003
21
-9.316248
31
0
39
0
210
0
220
0
230
1
0
LINE
5
124
100
AcDbEntity
8
SK2
62
256
6
ByLayer
370
-1
48
1
60
0
100
AcDbLine
10
-131.105
20
12.49125
30
0
11
-130.687003
21
9.316252
31
0
39
0
210
0
220
0
230
1
0
LINE
5
125
100
AcDbEntity
8
SK2
62
256
6
ByLayer
370
-1
48
1
60
0
100
AcDbLine
10
-131.105
20
12.49125
30
0
11
-131.522997
21
9.316248
31
0
39
0
210
0
220
0
230
1
0
LINE
5
126
100
AcDbEntity
8
SK2
62
256
6
ByLayer
370
-1
48
1
60
0
100
AcDbLine
10
-130.687003
20
9.316252
30
0
11
-131.522997
21
9.316248
31
0
39
0
210
0
220
0
230
1
0
ENDBLK
5
128
100
AcDbEntity
8
0
100
AcDbBlockEnd
0
BLOCK
5
135
100
AcDbEntity
8
0
100
AcDbBlockBegin
2
DimnDraft3D3
70
0
10
0
20
0
30
0
3
DimnDraft3D3
0
MTEXT
5
12B
100
AcDbEntity
8
SK2
62
256
6
ByLayer
370
-1
48
1
60
0
100
AcDbMText
10
8.579868
20
30.775
30
0
210
0
220
0
230
1
1
\W01.000;\fsimplex.shx,bigfont.shx;270.0 
40
4.5
41
0
44
1.084337
50
0
71
7
72
5
7
DEFAULT
0
LINE
5
12C
100
AcDbEntity
8
SK2
62
256
6
ByLayer
370
-1
48
1
60
0
100
AcDbLine
10
149.895
20
18.9
30
0
11
149.895
21
31.65
31
0
39
0
210
0
220
0
230
1
0
LINE
5
12D
100
AcDbEntity
8
SK2
62
256
6
ByLayer
370
-1
48
1
60
0
100
AcDbLine
10
-121.355
20
14.49125
30
0
11
-121.355
21
31.65
31
0
39
0
210
0
220
0
230
1
0
LINE
5
12E
100
AcDbEntity
8
SK2
62
256
6
ByLayer
370
-1
48
1
60
0
100
AcDbLine
10
149.895
20
29.65
30
0
11
-121.355
21
29.65
31
0
39
0
210
0
220
0
230
1
0
LINE
5
12F
100
AcDbEntity
8
SK2
62
256
6
ByLayer
370
-1
48
1
60
0
100
AcDbLine
10
149.895
20
29.65
30
0
11
146.720002
21
29.232003
31
0
39
0
210
0
220
0
230
1
0
LINE
5
130
100
AcDbEntity
8
SK2
62
256
6
ByLayer
370
-1
48
1
60
0
100
AcDbLine
10
149.895
20
29.65
30
0
11
146.719998
21
30.067997
31
0
39
0
210
0
220
0
230
1
0
LINE
5
131
100
AcDbEntity
8
SK2
62
256
6
ByLayer
370
-1
48
1
60
0
100
AcDbLine
10
146.720002
20
29.232003
30
0
11
146.719998
21
30.067997
31
0
39
0
210
0
220
0
230
1
0
LINE
5
132
100
AcDbEntity
8
SK2
62
256
6
ByLayer
370
-1
48
1
60
0
100
AcDbLine
10
-121.355
20
29.65
30
0
11
-118.180002
21
30.067997
31
0
39
0
210
0
220
0
230
1
0
LINE
5
133
100
AcDbEntity
8
SK2
62
256
6
ByLayer
370
-1
48
1
60
0
100
AcDbLine
10
-121.355
20
29.65
30
0
11
-118.179998
21
29.232003
31
0
39
0
210
0
220
0
230
1
0
LINE
5
134
100
AcDbEntity
8
SK2
62
256
6
ByLayer
370
-1
48
1
60
0
100
AcDbLine
10
-118.180002
20
30.067997
30
0
11
-118.179998
21
29.232003
31
0
39
0
210
0
220
0
230
1
0
ENDBLK
5
136
100
AcDbEntity
8
0
100
AcDbBlockEnd
0
BLOCK
5
143
100
AcDbEntity
8
0
100
AcDbBlockBegin
2
DimnDraft3D4
70
0
10
0
20
0
30
0
3
DimnDraft3D4
0
MTEXT
5
139
100
AcDbEntity
8
2
62
256
6
ByLayer
370
-1
48
1
60
0
100
AcDbMText
10
178.362094
20
-35.950619
30
0
210
0
220
0
230
1
1
\W01.000;\fsimplex.shx,bigfont.shx;91%%d0' 
40
4.5
41
0
44
1.084337
50
44.5
71
7
72
5
7
DEFAULT
0
LINE
5
13A
100
AcDbEntity
8
2
62
256
6
ByLayer
370
-1
48
1
60
0
100
AcDbLine
10
149.668119
20
3.90198
30
0
11
148.746126
21
-48.918955
31
0
39
0
210
0
220
0
230
1
0
LINE
5
13B
100
AcDbEntity
8
2
62
256
6
ByLayer
370
-1
48
1
60
0
100
AcDbLine
10
151.895
20
0
30
0
11
198.526416
21
0
31
0
39
0
210
0
220
0
230
1
0
ARC
5
13C
100
AcDbEntity
8
2
62
256
6
ByLayer
370
-1
48
1
60
0
100
AcDbCircle
39
0
10
149.600009
20
0
30
0
40
46.9264068782928
210
0
220
0
230
1
100
AcDbArc
50
269
51
0
0
LINE
5
13D
100
AcDbEntity
8
2
62
256
6
ByLayer
370
-1
48
1
60
0
100
AcDbLine
10
148.781031
20
-46.91926
30
0
11
151.956256
21
-46.502993
31
0
39
0
210
0
220
0
230
1
0
LINE
5
13E
100
AcDbEntity
8
2
62
256
6
ByLayer
370
-1
48
1
60
0
100
AcDbLine
10
148.781031
20
-46.91926
30
0
11
151.955804
21
-47.338987
31
0
39
0
210
0
220
0
230
1
0
LINE
5
13F
100
AcDbEntity
8
2
62
256
6
ByLayer
370
-1
48
1
60
0
100
AcDbLine
10
151.956256
20
-46.502993
30
0
11
151.955804
21
-47.338987
31
0
39
0
210
0
220
0
230
1
0
LINE
5
140
100
AcDbEntity
8
2
62
256
6
ByLayer
370
-1
48
1
60
0
100
AcDbLine
10
196.526416
20
0
30
0
11
196.890672
21
-3.181612
31
0
39
0
210
0
220
0
230
1
0
LINE
5
141
100
AcDbEntity
8
2
62
256
6
ByLayer
370
-1
48
1
60
0
100
AcDbLine
10
196.526416
20
0
30
0
11
196.054798
21
-3.16748
31
0
39
0
210
0
220
0
230
1
0
LINE
5
142
100
AcDbEntity
8
2
62
256
6
ByLayer
370
-1
48
1
60
0
100
AcDbLine
10
196.890672
20
-3.181612
30
0
11
196.054798
21
-3.16748
31
0
39
0
210
0
220
0
230
1
0
ENDBLK
5
144
100
AcDbEntity
8
0
100
AcDbBlockEnd
0
ENDSEC
0
SECTION
2
ENTITIES
0
ELLIPSE
5
93
100
AcDbEntity
8
1
62
256
6
ByLayer
370
-1
48
1
60
0
100
AcDbEllipse
10
142.213908
20
12.63004
30
0
11
-1.24980961894549
21
0.0218155080466026
31
0
210
0
220
0
230
1
40
0.99988
41
-2.09439399097645
42
-0.523595697126677
0
ELLIPSE
5
94
100
AcDbEntity
8
1
62
256
6
ByLayer
370
-1
48
1
60
0
100
AcDbEllipse
10
141.036146
20
11.785068
30
0
11
1.04984007991436
21
-0.0183250267590664
31
0
210
0
220
0
230
1
40
0.99988
41
3.1152421470603
42
-3.1066824749658
0
ELLIPSE
5
95
100
AcDbEntity
8
1
62
256
6
ByLayer
370
-1
48
1
60
0
100
AcDbEllipse
10
141.036146
20
11.785068
30
0
11
1.04984007991436
21
-0.0183250267590664
31
0
210
0
220
0
230
1
40
0.99988
41
0.936646372615887
42
3.11524309955551
0
ELLIPSE
5
96
100
AcDbEntity
8
1
62
256
6
ByLayer
370
-1
48
1
60
0
100
AcDbEllipse
10
141.037074
20
11.836518
30
0
11
-1.0498400799143
21
0.0183250267591478
31
0
210
0
220
0
230
1
40
0.99988
41
-1.45556899864958
42
1.67989117104527
0
ELLIPSE
5
97
100
AcDbEntity
8
1
62
256
6
ByLayer
370
-1
48
1
60
0
100
AcDbEllipse
10
142.11005
20
12.41182
30
0
11
-1.24980961894549
21
0.0218155080466026
31
0
210
0
220
0
230
1
40
0.99988
41
-0.523598775598292
42
-0.327596007838536
0
ELLIPSE
5
98
100
AcDbEntity
8
1
62
256
6
ByLayer
370
-1
48
1
60
0
100
AcDbEllipse
10
141.036227
20
11.789715
30
0
11
-1.0498400799143
21
0.0183250267591478
31
0
210
0
220
0
230
1
40
0.99988
41
-2.20913297727102
42
-1.45556903857821
0
ELLIPSE
5
99
100
AcDbEntity
8
1
62
256
6
ByLayer
370
-1
48
1
60
0
100
AcDbEllipse
10
142.1109
20
12.458627
30
0
11
-1.24980961894549
21
0.0218155080466026
31
0
210
0
220
0
230
1
40
0.99988
41
-0.523595697126775
42
-0.327592297301406
0
ELLIPSE
5
9A
100
AcDbEntity
8
1
62
256
6
ByLayer
370
-1
48
1
60
0
100
AcDbEllipse
10
141.037025
20
11.835417
30
0
11
1.0498400799143
21
-0.0183250267590654
31
0
210
0
220
0
230
1
40
0.99988
41
-1.46170151763531
42
-0.885664141867081
0
ELLIPSE
5
9B
100
AcDbEntity
8
1
62
256
6
ByLayer
370
-1
48
1
60
0
100
AcDbEllipse
10
142.213057
20
12.583232
30
0
11
-1.24980961894549
21
0.0218155080466026
31
0
210
0
220
0
230
1
40
0.99988
41
-2.09439510239311
42
-0.523598775598252
0
ELLIPSE
5
9C
100
AcDbEntity
8
1
62
256
6
ByLayer
370
-1
48
1
60
0
100
AcDbEllipse
10
141.081051
20
11.838084
30
0
11
0.396814554015215
21
-0.00692642380476557
31
0
210
0
220
0
230
1
40
0.99988
41
2.0943951023908
42
-2.09439510239518
0
ELLIPSE
5
9D
100
AcDbEntity
8
1
62
256
6
ByLayer
370
-1
48
1
60
0
100
AcDbEllipse
10
149.330188
20
6.882086
30
0
11
0.396814554015215
21
-0.00692642380476557
31
0
210
0
220
0
230
1
40
0.99988
41
-2.09439510239518
42
-1.96961464499788E-12
0
ELLIPSE
5
9E
100
AcDbEntity
8
1
62
256
6
ByLayer
370
-1
48
1
60
0
100
AcDbEllipse
10
149.498194
20
16.504307
30
0
11
0.396814554015215
21
-0.00692642380476557
31
0
210
0
220
0
230
1
40
0.99988
41
0
42
2.09439608719498
0
ELLIPSE
5
9F
100
AcDbEntity
8
1
62
256
6
ByLayer
370
-1
48
1
60
0
100
AcDbEllipse
10
146.198411
20
10.997562
30
0
11
-0.184971823603932
21
0.00322869519089718
31
0
210
0
220
0
230
1
40
0.99988
41
-0.250871962424295
42
2.23979881061786E-05
0
ELLIPSE
5
A0
100
AcDbEntity
8
1
62
256
6
ByLayer
370
-1
48
1
60
0
100
AcDbEllipse
10
145.613132
20
11.15847
30
0
11
-0.421935727355997
21
0.00736491551653305
31
0
210
0
220
0
230
1
40
0.99988
41
2.8907206911656
42
-3.14159152112358
0
ELLIPSE
5
A1
100
AcDbEntity
8
1
62
256
6
ByLayer
370
-1
48
1
60
0
100
AcDbEllipse
10
145.786309
20
11.740171
30
0
11
-0.184971823603932
21
0.00322869519089718
31
0
210
0
220
0
230
1
40
0.99988
41
-1.30068497549038
42
-2.39034625654368E-05
0
ELLIPSE
5
A2
100
AcDbEntity
8
1
62
256
6
ByLayer
370
-1
48
1
60
0
100
AcDbEllipse
10
145.634571
20
12.327829
30
0
11
-0.421935727355997
21
0.00736491551653305
31
0
210
0
220
0
230
1
40
0.99988
41
1.84090767809978
42
2.55108055567557
0
ELLIPSE
5
A3
100
AcDbEntity
8
1
62
256
6
ByLayer
370
-1
48
1
60
0
100
AcDbEllipse
10
146.22474
20
12.469757
30
0
11
-0.184971823603932
21
0.00322869519089718
31
0
210
0
220
0
230
1
40
0.99988
41
-2.34612504447794
42
-1.42299168895448E-05
0
ELLIPSE
5
A4
100
AcDbEntity
8
1
62
256
6
ByLayer
370
-1
48
1
60
0
100
AcDbEllipse
10
146.657111
20
12.895738
30
0
11
-0.421935727355997
21
0.00736491551653305
31
0
210
0
220
0
230
1
40
0.99988
41
0.795467609112739
42
1.57036733696494
0
ELLIPSE
5
A5
100
AcDbEntity
8
1
62
256
6
ByLayer
370
-1
48
1
60
0
100
AcDbEllipse
10
147.073973
20
12.454569
30
0
11
-0.184971823603932
21
0.00322869519089718
31
0
210
0
220
0
230
1
40
0.99988
41
-3.14157148721936
42
-0.79632558877265
0
ELLIPSE
5
A6
100
AcDbEntity
8
1
62
256
6
ByLayer
370
-1
48
1
60
0
100
AcDbEllipse
10
147.659253
20
12.293661
30
0
11
-0.421935727355997
21
0.00736491551653305
31
0
210
0
220
0
230
1
40
0.99988
41
1.1130160410921E-06
42
0.524027765428188
0
ELLIPSE
5
A7
100
AcDbEntity
8
1
62
256
6
ByLayer
370
-1
48
1
60
0
100
AcDbEllipse
10
147.486075
20
11.71196
30
0
11
-0.184971823603932
21
0.00322869519089718
31
0
210
0
220
0
230
1
40
0.99988
41
3.14156719214195
42
-1.842665160309
0
ELLIPSE
5
A8
100
AcDbEntity
8
1
62
256
6
ByLayer
370
-1
48
1
60
0
100
AcDbEllipse
10
147.047644
20
10.982374
30
0
11
-0.184971823603932
21
0.00322869519089718
31
0
210
0
220
0
230
1
40
0.99988
41
3.14157461274999
42
-2.88810522929626
0
ELLIPSE
5
A9
100
AcDbEntity
8
1
62
256
6
ByLayer
370
-1
48
1
60
0
100
AcDbEllipse
10
146.636241
20
11.727188
30
0
11
-0.747886075976957
21
0.0130544000150866
31
0
210
0
220
0
230
1
40
0.99988
41
1.5703673383044
42
2.58026546229536
0
ELLIPSE
5
AA
100
AcDbEntity
8
1
62
256
6
ByLayer
370
-1
48
1
60
0
100
AcDbEllipse
10
146.636467
20
11.740113
30
0
11
0.747886075976967
21
-0.0130544000150281
31
0
210
0
220
0
230
1
40
0.99988
41
2.58026546229447
42
2.65572844503324
0
ELLIPSE
5
AB
100
AcDbEntity
8
1
62
256
6
ByLayer
370
-1
48
1
60
0
100
AcDbEllipse
10
146.636512
20
11.742681
30
0
11
1.03484236448684
21
-0.0180632406625053
31
0
210
0
220
0
230
1
40
0.99988
41
-2.09439399097651
42
-1.04805454910223
0
ELLIPSE
5
AC
100
AcDbEntity
8
1
62
256
6
ByLayer
370
-1
48
1
60
0
100
AcDbEllipse
10
147.637813
20
11.124302
30
0
11
-0.421935727355997
21
0.00736491551653305
31
0
210
0
220
0
230
1
40
0.99988
41
-1.15586986215722E-05
42
0.2534874242937
0
ELLIPSE
5
AD
100
AcDbEntity
8
1
62
256
6
ByLayer
370
-1
48
1
60
0
100
AcDbEllipse
10
146.636512
20
11.742681
30
0
11
1.03484236448684
21
-0.0180632406625053
31
0
210
0
220
0
230
1
40
0.99988
41
-3.14073048519878
42
-2.09439399097651
0
ELLIPSE
5
AE
100
AcDbEntity
8
1
62
256
6
ByLayer
370
-1
48
1
60
0
100
AcDbEllipse
10
146.636241
20
11.727188
30
0
11
-0.747886075976957
21
0.0130544000150866
31
0
210
0
220
0
230
1
40
0.99988
41
0.525307899908592
42
1.49056785242724
0
ELLIPSE
5
AF
100
AcDbEntity
8
1
62
256
6
ByLayer
370
-1
48
1
60
0
100
AcDbEllipse
10
146.636467
20
11.740113
30
0
11
0.747886075976967
21
-0.0130544000150281
31
0
210
0
220
0
230
1
40
0.99988
41
-0.561327191294411
42
-0.485864208557293
0
ELLIPSE
5
B0
100
AcDbEntity
8
1
62
256
6
ByLayer
370
-1
48
1
60
0
100
AcDbEllipse
10
146.636241
20
11.727188
30
0
11
0.747886075976965
21
-0.013054400015028
31
0
210
0
220
0
230
1
40
0.99988
41
0.52403096898277
42
1.5703673383044
0
ELLIPSE
5
B1
100
AcDbEntity
8
1
62
256
6
ByLayer
370
-1
48
1
60
0
100
AcDbEllipse
10
146.636241
20
11.727188
30
0
11
-0.747886075976957
21
0.0130544000150866
31
0
210
0
220
0
230
1
40
0.99988
41
2.65572844503234
42
-2.61756168460711
0
ELLIPSE
5
B2
100
AcDbEntity
8
1
62
256
6
ByLayer
370
-1
48
1
60
0
100
AcDbEllipse
10
146.636512
20
11.742681
30
0
11
1.03484236448684
21
-0.0180632406625053
31
0
210
0
220
0
230
1
40
0.99988
41
-1.04805454910223
42
0.00086216839119953
0
ELLIPSE
5
B3
100
AcDbEntity
8
1
62
256
6
ByLayer
370
-1
48
1
60
0
100
AcDbEllipse
10
146.657111
20
12.895738
30
0
11
-0.421935727355997
21
0.00736491551653305
31
0
210
0
220
0
230
1
40
0.99988
41
1.57036733696494
42
2.34526706481742
0
ELLIPSE
5
B4
100
AcDbEntity
8
1
62
256
6
ByLayer
370
-1
48
1
60
0
100
AcDbEllipse
10
146.636512
20
11.742681
30
0
11
1.03484236448684
21
-0.0180632406625053
31
0
210
0
220
0
230
1
40
0.99988
41
2.09353810448738
42
-3.14073048519878
0
ELLIPSE
5
B5
100
AcDbEntity
8
1
62
256
6
ByLayer
370
-1
48
1
60
0
100
AcDbEllipse
10
146.636241
20
11.727188
30
0
11
0.747886075976965
21
-0.013054400015028
31
0
210
0
220
0
230
1
40
0.99988
41
2.58026546229461
42
2.65572844503318
0
ELLIPSE
5
B6
100
AcDbEntity
8
1
62
256
6
ByLayer
370
-1
48
1
60
0
100
AcDbEllipse
10
146.636512
20
11.742681
30
0
11
1.03484236448684
21
-0.0180632406625053
31
0
210
0
220
0
230
1
40
0.99988
41
0.00086216839119953
42
1.04719866261331
0
ELLIPSE
5
B7
100
AcDbEntity
8
1
62
256
6
ByLayer
370
-1
48
1
60
0
100
AcDbEllipse
10
145.634571
20
12.327829
30
0
11
-0.421935727355997
21
0.00736491551653305
31
0
210
0
220
0
230
1
40
0.99988
41
2.68490720030709
42
3.14158159038537
0
ELLIPSE
5
B8
100
AcDbEntity
8
1
62
256
6
ByLayer
370
-1
48
1
60
0
100
AcDbEllipse
10
146.636241
20
11.727188
30
0
11
-0.747886075976957
21
0.0130544000150866
31
0
210
0
220
0
230
1
40
0.99988
41
-0.484520152130907
42
0.465799620690459
0
ELLIPSE
5
B9
100
AcDbEntity
8
1
62
256
6
ByLayer
370
-1
48
1
60
0
100
AcDbEllipse
10
146.636512
20
11.742681
30
0
11
1.03484236448684
21
-0.0180632406625053
31
0
210
0
220
0
230
1
40
0.99988
41
1.04719866261331
42
2.09353810448738
0
ELLIPSE
5
BA
100
AcDbEntity
8
1
62
256
6
ByLayer
370
-1
48
1
60
0
100
AcDbEllipse
10
146.636241
20
11.727188
30
0
11
-0.747886075976957
21
0.0130544000150866
31
0
210
0
220
0
230
1
40
0.99988
41
-1.57122531528555
42
-0.561327191295253
0
ELLIPSE
5
BB
100
AcDbEntity
8
1
62
256
6
ByLayer
370
-1
48
1
60
0
100
AcDbEllipse
10
147.659253
20
12.293661
30
0
11
-0.421935727355997
21
0.00736491551653305
31
0
210
0
220
0
230
1
40
0.99988
41
0.524027765428188
42
1.29892749328062
0
ELLIPSE
5
BC
100
AcDbEntity
8
1
62
256
6
ByLayer
370
-1
48
1
60
0
100
AcDbEllipse
10
146.636512
20
11.742681
30
0
11
1.29980200370331
21
-0.0226881283683647
31
0
210
0
220
0
230
1
40
0.99988
41
0
42
6.28318530717959
0
ELLIPSE
5
BD
100
AcDbEntity
8
1
62
256
6
ByLayer
370
-1
48
1
60
0
100
AcDbEllipse
10
146.636465
20
11.739986
30
0
11
1.72473727414478
21
-0.0301054011041763
31
0
210
0
220
0
230
1
40
0.99988
41
0
42
6.28318530717959
0
ELLIPSE
5
BE
100
AcDbEntity
8
1
62
256
6
ByLayer
370
-1
48
1
60
0
100
AcDbEllipse
10
146.636268
20
11.728738
30
0
11
1.72473727414477
21
-0.0301054011041761
31
0
210
0
220
0
230
1
40
0.99988
41
-3.14095660852692
42
0
0
ELLIPSE
5
BF
100
AcDbEntity
8
1
62
256
6
ByLayer
370
-1
48
1
60
0
100
AcDbEllipse
10
146.636504
20
11.742237
30
0
11
1.90439934775036
21
-0.0332414142640856
31
0
210
0
220
0
230
1
40
0.99988
41
0
42
6.28318530717959
0
ELLIPSE
5
C0
100
AcDbEntity
8
1
62
256
6
ByLayer
370
-1
48
1
60
0
100
AcDbEllipse
10
146.636359
20
11.73391
30
0
11
1.88093516011928
21
-0.0328318453454991
31
0
210
0
220
0
230
1
40
0.99988
41
0
42
6.28318530717959
0
ELLIPSE
5
C1
100
AcDbEntity
8
1
62
256
6
ByLayer
370
-1
48
1
60
0
100
AcDbEllipse
10
146.636291
20
11.730038
30
0
11
-1.8011402762433
21
0.031439020466652
31
0
210
0
220
0
230
1
40
0.99988
41
0
42
6.28318530717959
0
POINT
5
41
100
AcDbEntity
8
80
62
256
6
ByLayer
370
-1
48
1
60
0
100
AcDbPoint
10
0
20
0
30
0
39
0
210
0
220
0
230
1
50
360
0
POINT
5
43
100
AcDbEntity
8
81
62
256
6
ByLayer
370
-1
48
1
60
0
100
AcDbPoint
10
149.895
20
16.9
30
0
39
0
210
0
220
0
230
1
50
360
0
POINT
5
45
100
AcDbEntity
8
1
62
256
6
ByLayer
370
-1
48
1
60
0
100
AcDbPoint
10
-121.355
20
0
30
0
39
0
210
0
220
0
230
1
50
360
0
POINT
5
47
100
AcDbEntity
8
2
62
256
6
ByLayer
370
-1
48
1
60
0
100
AcDbPoint
10
149.895
20
16.9
30
0
39
0
210
0
220
0
230
1
50
360
0
SPLINE
5
C2
100
AcDbEntity
8
1
62
256
6
ByLayer
370
-1
48
1
60
0
100
AcDbSpline
70
4
71
3
72
28
73
24
40
-0.124999999999982
40
-0.124999999999982
40
0
40
0
40
0.125000000000007
40
0.125000000000007
40
0.187500000000011
40
0.187500000000011
40
0.250000000000014
40
0.250000000000014
40
0.375000000000022
40
0.375000000000022
40
0.500000000000029
40
0.500000000000029
40
0.625000000000036
40
0.625000000000036
40
0.687500000000038
40
0.687500000000038
40
0.718750000000036
40
0.718750000000036
40
0.750000000000034
40
0.750000000000034
40
0.875000000000018
40
0.875000000000018
40
1
40
1
40
1.12500000000001
40
1.12500000000001
41
1
10
126.519642299407
20
4.66605710820241
30
0
41
1
10
124.905010702559
20
3.96932439134173
30
0
41
1
10
124.068222711617
20
3.71160856922481
30
0
41
1
10
122.804558846052
20
3.8463516392157
30
0
41
1
10
122.354380201812
20
3.99124063986147
30
0
41
1
10
121.750403723141
20
4.75640845426591
30
0
41
1
10
121.728004630868
20
5.33106145396087
30
0
41
1
10
122.166017416131
20
6.64853627253851
30
0
41
1
10
122.872271543355
20
7.22770523059611
30
0
41
1
10
124.335071789767
20
8.12984933997814
30
0
41
1
10
125.162451588842
20
8.45424225368041
30
0
41
1
10
126.874844836709
20
8.92355098844357
30
0
41
1
10
127.778799096222
20
9.08722239047313
30
0
41
1
10
129.187624329568
20
9.09587036890852
30
0
41
1
10
129.691162696239
20
9.09676145690779
30
0
41
1
10
130.317216347056
20
8.71282816295658
30
0
41
1
10
130.436111683395
20
8.44712920518501
30
0
41
1
10
130.33857075561
20
7.96370075815705
30
0
41
1
10
130.20718117426
20
7.75017376460187
30
0
41
1
10
129.510721177475
20
6.77107585011561
30
0
41
1
10
128.762636161799
20
6.18483303860302
30
0
41
1
10
127.284340467643
20
5.12051225504723
30
0
41
1
10
126.519642299407
20
4.66605710820241
30
0
41
1
10
124.905010702559
20
3.96932439134173
30
0
0
SPLINE
5
C3
100
AcDbEntity
8
1
62
256
6
ByLayer
370
-1
48
1
60
0
100
AcDbSpline
70
4
71
3
72
8
73
4
40
0
40
0
40
0
40
0
40
1
40
1
40
1
40
1
41
1
10
136.406558659291
20
12.5411737772907
30
0
41
1
10
137.139032850945
20
13.3280251086198
30
0
41
1
10
137.874381260735
20
14.1174595429371
30
0
41
1
10
138.609209261313
20
14.9070508399213
30
0
0
SPLINE
5
C4
100
AcDbEntity
8
1
62
256
6
ByLayer
370
-1
48
1
60
0
100
AcDbSpline
70
4
71
3
72
8
73
4
40
0
40
0
40
0
40
0
40
1
40
1
40
1
40
1
41
1
10
138.609209261313
20
14.9070508399213
30
0
41
1
10
138.874992368094
20
15.1926415194194
30
0
41
1
10
139.140775502409
20
15.4782321732987
30
0
41
1
10
139.40655866
20
15.7638228055212
30
0
0
SPLINE
5
C5
100
AcDbEntity
8
1
62
256
6
ByLayer
370
-1
48
1
60
0
100
AcDbSpline
70
4
71
3
72
16
73
12
40
0
40
0
40
0
40
0
40
0.250000000000002
40
0.250000000000002
40
0.500000000000002
40
0.500000000000002
40
0.750000000000001
40
0.750000000000001
40
0.875000000000001
40
0.875000000000001
40
1
40
1
40
1
40
1
41
1
10
136.406558659291
20
12.5411737772907
30
0
41
1
10
133.704149887209
20
12.5419417782562
30
0
41
1
10
131.079021380111
20
12.549855029511
30
0
41
1
10
125.993854489236
20
12.3444151805081
30
0
41
1
10
123.506092247641
20
12.139619950252
30
0
41
1
10
119.126163194504
20
10.8581525431845
30
0
41
1
10
117.250231092745
20
9.73817870619226
30
0
41
1
10
115.750872840428
20
6.72323326164943
30
0
41
1
10
115.493629412361
20
5.5431186540907
30
0
41
1
10
115.421676476404
20
2.99359690269577
30
0
41
1
10
115.60554299398
20
1.63666120319982
30
0
41
1
10
115.945828099502
20
0.325215046559606
30
0
0
SPLINE
5
C6
100
AcDbEntity
8
1
62
256
6
ByLayer
370
-1
48
1
60
0
100
AcDbSpline
70
4
71
3
72
8
73
4
40
0
40
0
40
0
40
0
40
1
40
1
40
1
40
1
41
1
10
146.114636878561
20
16.2253992271908
30
0
41
1
10
143.878610800226
20
16.0715404995982
30
0
41
1
10
141.642584727212
20
15.9176816947068
30
0
41
1
10
139.40655866
20
15.7638228055212
30
0
0
SPLINE
5
C7
100
AcDbEntity
8
1
62
256
6
ByLayer
370
-1
48
1
60
0
100
AcDbSpline
70
4
71
3
72
16
73
12
40
0
40
0
40
0
40
0
40
0.109048404510757
40
0.109048404510757
40
0.338946198949417
40
0.338946198949417
40
0.549622461944843
40
0.549622461944843
40
0.778010885448269
40
0.778010885448269
40
1
40
1
40
1
40
1
41
1
10
116.128247428643
20
-0.325215046559663
30
0
41
1
10
116.13352786398
20
-0.303362872514356
30
0
41
1
10
116.137481366369
20
-0.280274968873101
30
0
41
1
10
116.145128430879
20
-0.2062032201043
30
0
41
1
10
116.143606929766
20
-0.15119617861788
30
0
41
1
10
116.128196733001
20
-0.0466429424471073
30
0
41
1
10
116.115227999976
20
0.0042366591814016
30
0
41
1
10
116.0798214083
20
0.104792592749305
30
0
41
1
10
116.056346815912
20
0.155185631871575
30
0
41
1
10
116.004506776136
20
0.246105714261603
30
0
41
1
10
115.975950958869
20
0.287661998122815
30
0
41
1
10
115.945828099501
20
0.325215046559578
30
0
0
SPLINE
5
C8
100
AcDbEntity
8
1
62
256
6
ByLayer
370
-1
48
1
60
0
100
AcDbSpline
70
4
71
3
72
8
73
4
40
0
40
0
40
0
40
0
40
1
40
1
40
1
40
1
41
1
10
147.115991876041
20
16.2943001130729
30
0
41
1
10
146.78220686892
20
16.2713327034275
30
0
41
1
10
146.448421861915
20
16.2483652920834
30
0
41
1
10
146.114636855028
20
16.2253978790191
30
0
0
SPLINE
5
C9
100
AcDbEntity
8
1
62
256
6
ByLayer
370
-1
48
1
60
0
100
AcDbSpline
70
4
71
3
72
12
73
8
40
0
40
0
40
0
40
0
40
0.249999999999999
40
0.249999999999999
40
0.499999999999999
40
0.499999999999999
40
1
40
1
40
1
40
1
41
1
10
116.128247428643
20
-0.325215046559663
30
0
41
1
10
116.761438443138
20
-2.42560989679254
30
0
41
1
10
117.769673447574
20
-4.36499247759733
30
0
41
1
10
120.237151925572
20
-7.53445037945193
30
0
41
1
10
121.69926959935
20
-8.77153151249286
30
0
41
1
10
126.586454793795
20
-11.5371190065715
30
0
41
1
10
130.436940797675
20
-12.1198169138586
30
0
41
1
10
134.558990738954
20
-12.3598787630727
30
0
0
SPLINE
5
CA
100
AcDbEntity
8
1
62
256
6
ByLayer
370
-1
48
1
60
0
100
AcDbSpline
70
4
71
3
72
8
73
4
40
0
40
0
40
0
40
0
40
1
40
1
40
1
40
1
41
1
10
147.836060661466
20
16.035704552832
30
0
41
1
10
147.594238085612
20
16.0188054058696
30
0
41
1
10
147.352415566317
20
16.0019054498033
30
0
41
1
10
147.110593104123
20
15.9850046770053
30
0
0
SPLINE
5
CB
100
AcDbEntity
8
SK1
62
256
6
ByLayer
370
-1
48
1
60
0
100
AcDbSpline
70
4
71
3
72
34
73
30
40
0
40
0
40
0
40
0
40
0.21740153606692
40
0.21740153606692
40
0.435096189294327
40
0.435096189294327
40
0.48968271374116
40
0.48968271374116
40
0.49642475261299
40
0.49642475261299
40
0.499827716367704
40
0.499827716367704
40
0.501221335422932
40
0.501221335422932
40
0.502631422620208
40
0.502631422620208
40
0.503888875467978
40
0.503888875467978
40
0.506006326343299
40
0.506006326343299
40
0.511464845544167
40
0.511464845544167
40
0.532512938529041
40
0.532512938529041
40
0.616049656458355
40
0.616049656458355
40
0.949479024380069
40
0.949479024380069
40
1
40
1
40
1
40
1
41
1
10
-50.105
20
-0.234670284410242
30
0
41
1
10
-50.5050064432497
20
-0.234670284410242
30
0
41
1
10
-50.9051232442571
20
-0.227970241868832
30
0
41
1
10
-51.7047893156642
20
-0.195494684745
30
0
41
1
10
-52.1063370498954
20
-0.176891731587375
30
0
41
1
10
-52.6009938801155
20
-0.0996805507180909
30
0
41
1
10
-52.7032572401338
20
-0.0865193849705008
30
0
41
1
10
-52.8059539746012
20
-0.0396411306649043
30
0
41
1
10
-52.8172855192887
20
-0.0337382311875274
30
0
41
1
10
-52.8320213733804
20
-0.0219157473507039
30
0
41
1
10
-52.8367110837709
20
-0.0173068007107418
30
0
41
1
10
-52.8411192867084
20
-0.0095065790779927
30
0
41
1
10
-52.8421371751565
20
-0.0070152349105967
30
0
41
1
10
-52.8432348812663
20
-0.0018522115921371
30
0
41
1
10
-52.8433006989041
20
0.000888842752687
30
0
41
1
10
-52.8424703651861
20
0.0058452740894666
30
0
41
1
10
-52.8416797546009
20
0.0081402936266386
30
0
41
1
10
-52.8388722032764
20
0.0138466647667883
30
0
41
1
10
-52.8363741565861
20
0.0170720040325989
30
0
41
1
10
-52.8265694039989
20
0.0273045780350287
30
0
41
1
10
-52.8177295794322
20
0.0328902269627349
30
0
41
1
10
-52.7744809026145
20
0.0564798090617558
30
0
41
1
10
-52.7360509547037
20
0.0669596151259952
30
0
41
1
10
-52.5480753590554
20
0.115123589141433
30
0
41
1
10
-52.3930161696438
20
0.132424615810123
30
0
41
1
10
-51.6241558505591
20
0.214102141369466
30
0
41
1
10
-51.0043947302613
20
0.228220267773338
30
0
41
1
10
-50.2924713289033
20
0.234275218157563
30
0
41
1
10
-50.1987352330349
20
0.234670284410242
30
0
41
1
10
-50.105
20
0.234670284410242
30
0
0
SPLINE
5
CC
100
AcDbEntity
8
1
62
256
6
ByLayer
370
-1
48
1
60
0
100
AcDbSpline
70
4
71
3
72
18
73
14
40
0
40
0
40
0
40
0
40
0.21281017513167
40
0.21281017513167
40
0.388520798903629
40
0.388520798903629
40
0.565876537800031
40
0.565876537800031
40
0.720817867683706
40
0.720817867683706
40
0.926953673029763
40
0.926953673029763
40
1
40
1
40
1
40
1
41
1
10
146.356769251574
20
12.614026106945
30
0
41
1
10
146.387112245285
20
12.5828841190168
30
0
41
1
10
146.423294538792
20
12.5554519836907
30
0
41
1
10
146.497390555583
20
12.5167503457024
30
0
41
1
10
146.534785844574
20
12.5031498204226
30
0
41
1
10
146.612802727071
20
12.4871736002386
30
0
41
1
10
146.654620448557
20
12.4847821754043
30
0
41
1
10
146.729933781296
20
12.4915883239775
30
0
41
1
10
146.764715598266
20
12.4993842830921
30
0
41
1
10
146.839464647501
20
12.5259276810405
30
0
41
1
10
146.878697303132
20
12.547757682669
30
0
41
1
10
146.924715824685
20
12.583120495512
30
0
41
1
10
146.936265010821
20
12.5930432383752
30
0
41
1
10
146.947174744157
20
12.6034672141202
30
0
0
SPLINE
5
CD
100
AcDbEntity
8
1
62
256
6
ByLayer
370
-1
48
1
60
0
100
AcDbSpline
70
4
71
3
72
16
73
12
40
0
40
0
40
0
40
0
40
0.0644471894056158
40
0.0644471894056158
40
0.289035852542599
40
0.289035852542599
40
0.51646717807941
40
0.51646717807941
40
0.758349864523292
40
0.758349864523292
40
1
40
1
40
1
40
1
41
1
10
147.671320011978
20
11.7243823445315
30
0
41
1
10
147.671410027637
20
11.7298060418497
30
0
41
1
10
147.671260848751
20
11.7352383437717
30
0
41
1
10
147.669535388067
20
11.7593442644456
30
0
41
1
10
147.665245567239
20
11.7779983250977
30
0
41
1
10
147.651612431103
20
11.8124991588611
30
0
41
1
10
147.642046070076
20
11.8287523147476
30
0
41
1
10
147.618599266316
20
11.8578107983199
30
0
41
1
10
147.604205242751
20
11.8707081637795
30
0
41
1
10
147.573230699685
20
11.8910341626733
30
0
41
1
10
147.556337211383
20
11.8987051451387
30
0
41
1
10
147.53910771647
20
11.903689135334
30
0
0
SPLINE
5
CE
100
AcDbEntity
8
1
62
256
6
ByLayer
370
-1
48
1
60
0
100
AcDbSpline
70
4
71
3
72
14
73
10
40
0
40
0
40
0
40
0
40
0.0513112927498716
40
0.0513112927498716
40
0.388225694963382
40
0.388225694963382
40
0.836170336173496
40
0.836170336173496
40
1
40
1
40
1
40
1
41
1
10
146.010244588215
20
12.1481033813073
30
0
41
1
10
146.012730517025
20
12.1529518602937
30
0
41
1
10
146.015120860281
20
12.1578464830932
30
0
41
1
10
146.032330670647
20
12.1948889897416
30
0
41
1
10
146.043089337988
20
12.228956878739
30
0
41
1
10
146.057830427192
20
12.3070986094538
30
0
41
1
10
146.058816310922
20
12.3520963862088
30
0
41
1
10
146.051554829062
20
12.4102887353478
30
0
41
1
10
146.048737177826
20
12.4257732897118
30
0
41
1
10
146.045121929481
20
12.4409351352393
30
0
0
SPLINE
5
CF
100
AcDbEntity
8
1
62
256
6
ByLayer
370
-1
48
1
60
0
100
AcDbSpline
70
4
71
3
72
18
73
14
40
0
40
0
40
0
40
0
40
0.212043888543694
40
0.212043888543694
40
0.387887176593835
40
0.387887176593835
40
0.565384564473059
40
0.565384564473059
40
0.720350465382916
40
0.720350465382916
40
0.926348906094386
40
0.926348906094386
40
1
40
1
40
1
40
1
41
1
10
147.252605080428
20
12.4199677623588
30
0
41
1
10
147.241176752353
20
12.378086175432
30
0
41
1
10
147.235822736108
20
12.3330450204413
30
0
41
1
10
147.23972284528
20
12.2494427881727
30
0
41
1
10
147.246783092919
20
12.2101484070931
30
0
41
1
10
147.272127255016
20
12.1344482580286
30
0
41
1
10
147.290996383901
20
12.0969975323182
30
0
41
1
10
147.33447936556
20
12.0352094088776
30
0
41
1
10
147.358533377761
20
12.0090414275184
30
0
41
1
10
147.418581413951
20
11.9577886680651
30
0
41
1
10
147.456843163691
20
11.934890132672
30
0
41
1
10
147.510213683548
20
11.9128993855935
30
0
41
1
10
147.524604253672
20
11.9078845639726
30
0
41
1
10
147.53910771647
20
11.903689135334
30
0
0
SPLINE
5
D0
100
AcDbEntity
8
1
62
256
6
ByLayer
370
-1
48
1
60
0
100
AcDbSpline
70
4
71
3
72
14
73
10
40
0
40
0
40
0
40
0
40
0.280120626709311
40
0.280120626709311
40
0.567885011375106
40
0.567885011375106
40
0.828586536560802
40
0.828586536560802
40
1
40
1
40
1
40
1
41
1
10
146.020283232043
20
11.0610423271808
30
0
41
1
10
146.014762262824
20
11.0411208786862
30
0
41
1
10
146.012547180819
20
11.01961361162
30
0
41
1
10
146.015946130691
20
10.9761639127162
30
0
41
1
10
146.021870260875
20
10.9535529733995
30
0
41
1
10
146.041030283929
20
10.9138585232766
30
0
41
1
10
146.053848873777
20
10.8958729159161
30
0
41
1
10
146.079541458499
20
10.8708101252136
30
0
41
1
10
146.091080419598
20
10.8618987235287
30
0
41
1
10
146.103400002763
20
10.8544972427708
30
0
0
SPLINE
5
D1
100
AcDbEntity
8
1
62
256
6
ByLayer
370
-1
48
1
60
0
100
AcDbSpline
70
4
71
3
72
16
73
12
40
0
40
0
40
0
40
0
40
0.0651193497020017
40
0.0651193497020017
40
0.289656390236783
40
0.289656390236783
40
0.517074001977583
40
0.517074001977583
40
0.758971573009189
40
0.758971573009189
40
1
40
1
40
1
40
1
41
1
10
145.60160505272
20
11.7587332785536
30
0
41
1
10
145.601514087762
20
11.7532523832582
30
0
41
1
10
145.601667339655
20
11.7477590433207
30
0
41
1
10
145.603418675066
20
11.7235675999046
30
0
41
1
10
145.607724086801
20
11.7048517823385
30
0
41
1
10
145.621384175887
20
11.6701531578383
30
0
41
1
10
145.630963008186
20
11.653761203124
30
0
41
1
10
145.654431774002
20
11.6243575320431
30
0
41
1
10
145.668835723922
20
11.6112465447635
30
0
41
1
10
145.699773079616
20
11.5904873069007
30
0
41
1
10
145.716609697522
20
11.5825754791486
30
0
41
1
10
145.733780596004
20
11.5773209542148
30
0
0
SPLINE
5
D2
100
AcDbEntity
8
1
62
256
6
ByLayer
370
-1
48
1
60
0
100
AcDbSpline
70
4
71
3
72
18
73
14
40
0
40
0
40
0
40
0
40
0.213215582189053
40
0.213215582189053
40
0.38885590760444
40
0.38885590760444
40
0.566136587633719
40
0.566136587633719
40
0.721064926608821
40
0.721064926608821
40
0.927273371981848
40
0.927273371981848
40
1
40
1
40
1
40
1
41
1
10
146.916119060899
20
10.8669839826039
30
0
41
1
10
146.885706065129
20
10.8974938287283
30
0
41
1
10
146.849430560741
20
10.9243206893064
30
0
41
1
10
146.775220545511
20
10.9620640276577
30
0
41
1
10
146.73782165186
20
10.9752910761496
30
0
41
1
10
146.659815372861
20
10.9908232856437
30
0
41
1
10
146.61801331261
20
10.9931465524353
30
0
41
1
10
146.542729004973
20
10.98653421593
30
0
41
1
10
146.507960275043
20
10.978955859779
30
0
41
1
10
146.433228074559
20
10.9531119358229
30
0
41
1
10
146.394004695105
20
10.9318297071566
30
0
41
1
10
146.348062798317
20
10.8973311774534
30
0
41
1
10
146.336571246016
20
10.8876825903599
30
0
41
1
10
146.325713568317
20
10.8775428754287
30
0
0
SPLINE
5
D3
100
AcDbEntity
8
1
62
256
6
ByLayer
370
-1
48
1
60
0
100
AcDbSpline
70
4
71
3
72
18
73
14
40
0
40
0
40
0
40
0
40
0.194756307690173
40
0.194756307690173
40
0.373670155797954
40
0.373670155797954
40
0.554438954932902
40
0.554438954932902
40
0.71007688065478
40
0.71007688065478
40
0.913073358211795
40
0.913073358211795
40
1
40
1
40
1
40
1
41
1
10
146.020283232044
20
11.0610423271807
30
0
41
1
10
146.030768602878
20
11.0988769476378
30
0
41
1
10
146.036131564819
20
11.139349610028
30
0
41
1
10
146.034499252508
20
11.2186032374551
30
0
41
1
10
146.028347246157
20
11.2581813217268
30
0
41
1
10
146.004402296982
20
11.3351222630051
30
0
41
1
10
145.986002625566
20
11.3735915713802
30
0
41
1
10
145.943097783219
20
11.4371746304435
30
0
41
1
10
145.919323787221
20
11.4641888796556
30
0
41
1
10
145.860323196749
20
11.516965939567
30
0
41
1
10
145.822901015472
20
11.5408593000216
30
0
41
1
10
145.767845687504
20
11.5657152594356
30
0
41
1
10
145.750888947112
20
11.5720855696151
30
0
41
1
10
145.733780596004
20
11.5773209542148
30
0
0
SPLINE
5
D4
100
AcDbEntity
8
1
62
256
6
ByLayer
370
-1
48
1
60
0
100
AcDbSpline
70
4
71
3
72
14
73
10
40
0
40
0
40
0
40
0
40
0.0517195909457272
40
0.0517195909457272
40
0.388566479402397
40
0.388566479402397
40
0.836563139213511
40
0.836563139213511
40
1
40
1
40
1
40
1
41
1
10
147.262590860196
20
11.3298781281102
30
0
41
1
10
147.260085078458
20
11.3250008349893
30
0
41
1
10
147.257676475791
20
11.3200796082216
30
0
41
1
10
147.240463179261
20
11.2831150091835
30
0
41
1
10
147.229720068819
20
11.2492781030682
30
0
41
1
10
147.215012946748
20
11.1718570352744
30
0
41
1
10
147.214050933536
20
11.1274201499471
30
0
41
1
10
147.221342115127
20
11.0701289051625
30
0
41
1
10
147.224157746935
20
11.0549334247851
30
0
41
1
10
147.227766203797
20
11.0400646880137
30
0
0
SPLINE
5
D5
100
AcDbEntity
8
1
62
256
6
ByLayer
370
-1
48
1
60
0
100
AcDbSpline
70
4
71
3
72
14
73
10
40
0
40
0
40
0
40
0
40
0.28402158897986
40
0.28402158897986
40
0.571297683382843
40
0.571297683382843
40
0.831610329573792
40
0.831610329573792
40
1
40
1
40
1
40
1
41
1
10
146.356769251574
20
12.6140261069449
30
0
41
1
10
146.341945218261
20
12.6292404879288
30
0
41
1
10
146.324009594671
20
12.642319088826
30
0
41
1
10
146.284102973622
20
12.6614881561046
30
0
41
1
10
146.261454066293
20
12.6677573100261
30
0
41
1
10
146.217378569364
20
12.6711245419814
30
0
41
1
10
146.195370242779
20
12.6690415583551
30
0
41
1
10
146.161062680894
20
12.6593796872497
30
0
41
1
10
146.147814924469
20
12.6539457557906
30
0
41
1
10
146.135459551236
20
12.647111749767
30
0
0
SPLINE
5
D6
100
AcDbEntity
8
1
62
256
6
ByLayer
370
-1
48
1
60
0
100
AcDbSpline
70
4
71
3
72
14
73
10
40
0
40
0
40
0
40
0
40
0.28392666684438
40
0.28392666684438
40
0.570654173711101
40
0.570654173711101
40
0.830440299348905
40
0.830440299348905
40
1
40
1
40
1
40
1
41
1
10
145.740314714751
20
11.9337104734857
30
0
41
1
10
145.719818465869
20
11.9285880189732
30
0
41
1
10
145.69960499887
20
11.9196824153089
30
0
41
1
10
145.663219157566
20
11.8948490878019
30
0
41
1
10
145.646548485794
20
11.8784364875672
30
0
41
1
10
145.621710233921
20
11.8420386860163
30
0
41
1
10
145.61254758032
20
11.8219644187252
30
0
41
1
10
145.603759315895
20
11.7873136854648
30
0
41
1
10
145.601841625755
20
11.7729874711268
30
0
41
1
10
145.60160505272
20
11.7587332785536
30
0
0
SPLINE
5
D7
100
AcDbEntity
8
1
62
256
6
ByLayer
370
-1
48
1
60
0
100
AcDbSpline
70
4
71
3
72
16
73
12
40
0
40
0
40
0
40
0
40
0.065550756433031
40
0.065550756433031
40
0.289538479384387
40
0.289538479384387
40
0.516432869715435
40
0.516432869715435
40
0.757799221840244
40
0.757799221840244
40
1
40
1
40
1
40
1
41
1
10
147.137465513462
20
10.8360038733181
30
0
41
1
10
147.142305869352
20
10.8386811717437
30
0
41
1
10
147.147031677555
20
10.8415776225591
30
0
41
1
10
147.167147119823
20
10.8551747025076
30
0
41
1
10
147.181185267122
20
10.8681961655232
30
0
41
1
10
147.204341015744
20
10.8971940572209
30
0
41
1
10
147.213698943057
20
10.9135666554706
30
0
41
1
10
147.227302747179
20
10.9483093078868
30
0
41
1
10
147.231373704816
20
10.9671682119115
30
0
41
1
10
147.233708570368
20
11.0041361142766
30
0
41
1
10
147.231995828941
20
11.0226364117877
30
0
41
1
10
147.227766203797
20
11.0400646880137
30
0
0
SPLINE
5
D8
100
AcDbEntity
8
1
62
256
6
ByLayer
370
-1
48
1
60
0
100
AcDbSpline
70
4
71
3
72
14
73
10
40
0
40
0
40
0
40
0
40
0.224777847950414
40
0.224777847950414
40
0.519455711413021
40
0.519455711413021
40
0.785878105022741
40
0.785878105022741
40
1
40
1
40
1
40
1
41
1
10
147.252605080428
20
12.4199677623588
30
0
41
1
10
147.257043567761
20
12.4362335618566
30
0
41
1
10
147.259358428236
20
12.4534618812356
30
0
41
1
10
147.259052853537
20
12.493519731449
30
0
41
1
10
147.254601250889
20
12.517107396089
30
0
41
1
10
147.237764122831
20
12.5589815702795
30
0
41
1
10
147.225884730643
20
12.5781826840091
30
0
41
1
10
147.199076945044
20
12.607710333311
30
0
41
1
10
147.184899374531
20
12.6193816490616
30
0
41
1
10
147.169525061935
20
12.6286183803143
30
0
0
SPLINE
5
D9
100
AcDbEntity
8
1
62
256
6
ByLayer
370
-1
48
1
60
0
100
AcDbSpline
70
4
71
3
72
12
73
8
40
0
40
0
40
0
40
0
40
0.4638937185595
40
0.4638937185595
40
0.845393062409885
40
0.845393062409885
40
1
40
1
40
1
40
1
41
1
10
147.532573418524
20
11.5472893497776
30
0
41
1
10
147.490527774752
20
11.5360900452904
30
0
41
1
10
147.448753111457
20
11.5179530894092
30
0
41
1
10
147.37839467454
20
11.4723439575127
30
0
41
1
10
147.348045281868
20
11.4465056222427
30
0
41
1
10
147.311076479341
20
11.4045216991138
30
0
41
1
10
147.300976481016
20
11.3916516911536
30
0
41
1
10
147.291655752187
20
11.3782445357821
30
0
0
SPLINE
5
DA
100
AcDbEntity
8
1
62
256
6
ByLayer
370
-1
48
1
60
0
100
AcDbSpline
70
4
71
3
72
14
73
10
40
0
40
0
40
0
40
0
40
0.282708172778249
40
0.282708172778249
40
0.570148652701329
40
0.570148652701329
40
0.830592003532226
40
0.830592003532226
40
1
40
1
40
1
40
1
41
1
10
146.916119060899
20
10.8669839826038
30
0
41
1
10
146.930880609174
20
10.8521754260967
30
0
41
1
10
146.948722916682
20
10.8394670528991
30
0
41
1
10
146.988519800731
20
10.8208352505113
30
0
41
1
10
147.011172167466
20
10.8147767455495
30
0
41
1
10
147.055266226339
20
10.8117049399615
30
0
41
1
10
147.07728887641
20
10.8138864137018
30
0
41
1
10
147.111701609916
20
10.8236460997189
30
0
41
1
10
147.12503571487
20
10.8291287011281
30
0
41
1
10
147.137465513462
20
10.8360038733181
30
0
0
SPLINE
5
DB
100
AcDbEntity
8
1
62
256
6
ByLayer
370
-1
48
1
60
0
100
AcDbSpline
70
4
71
3
72
16
73
12
40
0
40
0
40
0
40
0
40
0.0664734495099832
40
0.0664734495099832
40
0.290371559431543
40
0.290371559431543
40
0.517228384344298
40
0.517228384344298
40
0.758595399258826
40
0.758595399258826
40
1
40
1
40
1
40
1
41
1
10
146.135459551236
20
12.647111749767
30
0
41
1
10
146.130549866324
20
12.6443961040613
30
0
41
1
10
146.125757892353
20
12.6414511566537
30
0
41
1
10
146.105595403157
20
12.6277525368399
30
0
41
1
10
146.091574739117
20
12.6146468734994
30
0
41
1
10
146.068452649591
20
12.5854093222369
30
0
41
1
10
146.059112562853
20
12.5688768273735
30
0
41
1
10
146.045544876891
20
12.5337481847593
30
0
41
1
10
146.041493716954
20
12.5146549135107
30
0
41
1
10
146.039203917905
20
12.4772671553119
30
0
41
1
10
146.040915456685
20
12.4585764933572
30
0
41
1
10
146.045121929481
20
12.4409351352394
30
0
0
SPLINE
5
DC
100
AcDbEntity
8
1
62
256
6
ByLayer
370
-1
48
1
60
0
100
AcDbSpline
70
4
71
3
72
14
73
10
40
0
40
0
40
0
40
0
40
0.282980725197473
40
0.282980725197473
40
0.56982654325089
40
0.56982654325089
40
0.82970695486706
40
0.82970695486706
40
1
40
1
40
1
40
1
41
1
10
147.532573418524
20
11.5472893497777
30
0
41
1
10
147.55300747251
20
11.5527321774281
30
0
41
1
10
147.573159255543
20
11.5619155586023
30
0
41
1
10
147.609527172316
20
11.58722923047
30
0
41
1
10
147.626226137863
20
11.6038774839557
30
0
41
1
10
147.651117885604
20
11.6406234434644
30
0
41
1
10
147.660306867997
20
11.6608245735769
30
0
41
1
10
147.66914848269
20
11.6956531991014
30
0
41
1
10
147.671082419689
20
11.7100667390189
30
0
41
1
10
147.671320011978
20
11.7243823445315
30
0
0
SPLINE
5
DD
100
AcDbEntity
8
1
62
256
6
ByLayer
370
-1
48
1
60
0
100
AcDbSpline
70
4
71
3
72
16
73
12
40
0
40
0
40
0
40
0
40
0.0638801706943634
40
0.0638801706943634
40
0.288564098903283
40
0.288564098903283
40
0.51605851624974
40
0.51605851624974
40
0.75798278701262
40
0.75798278701262
40
1
40
1
40
1
40
1
41
1
10
146.103400002763
20
10.8544972427708
30
0
41
1
10
146.108007815587
20
10.8517289155077
30
0
41
1
10
146.112741935564
20
10.8491570236919
30
0
41
1
10
146.134435649362
20
10.8385596603613
30
0
41
1
10
146.152758044009
20
10.8328653290575
30
0
41
1
10
146.189537450198
20
10.8272000228609
30
0
41
1
10
146.208459495999
20
10.8272147296468
30
0
41
1
10
146.245510948891
20
10.8326516815721
30
0
41
1
10
146.263981216065
20
10.8384651758365
30
0
41
1
10
146.297353358703
20
10.8547149940552
30
0
41
1
10
146.312615877837
20
10.8653112683212
30
0
41
1
10
146.325713568317
20
10.8775428754287
30
0
0
SPLINE
5
DE
100
AcDbEntity
8
1
62
256
6
ByLayer
370
-1
48
1
60
0
100
AcDbSpline
70
4
71
3
72
12
73
8
40
0
40
0
40
0
40
0
40
0.463252567062496
40
0.463252567062496
40
0.844858677700826
40
0.844858677700826
40
1
40
1
40
1
40
1
41
1
10
145.740314714751
20
11.9337104734857
30
0
41
1
10
145.78229045751
20
11.944201116634
30
0
41
1
10
145.823995548525
20
11.9616494758921
30
0
41
1
10
145.894307575722
20
12.0062406450002
30
0
41
1
10
145.924668113581
20
12.0317220320629
30
0
41
1
10
145.961690984186
20
12.0734592252496
30
0
41
1
10
145.971827480441
20
12.0863143534101
30
0
41
1
10
145.981179696224
20
12.0997369736343
30
0
0
SPLINE
5
DF
100
AcDbEntity
8
1
62
256
6
ByLayer
370
-1
48
1
60
0
100
AcDbSpline
70
4
71
3
72
16
73
12
40
0
40
0
40
0
40
0
40
0.0244055829663766
40
0.0244055829663766
40
0.249776112263603
40
0.249776112263603
40
0.475703963225005
40
0.475703963225005
40
0.714217187699341
40
0.714217187699341
40
1
40
1
40
1
40
1
41
1
10
147.169525061935
20
12.6286183803143
30
0
41
1
10
147.167755639016
20
12.6296814316782
30
0
41
1
10
147.165968106522
20
12.6307147876502
30
0
41
1
10
147.147691697947
20
12.6408734100836
30
0
41
1
10
147.129575077463
20
12.6475186461759
30
0
41
1
10
147.093033131813
20
12.6549043160657
30
0
41
1
10
147.074142196793
20
12.6557379960455
30
0
41
1
10
147.036986224903
20
12.6519032910572
30
0
41
1
10
147.018346551893
20
12.646897104035
30
0
41
1
10
146.981071816022
20
12.6306693093399
30
0
41
1
10
146.96259381441
20
12.6181997478473
30
0
41
1
10
146.947174744157
20
12.6034672141202
30
0
0
LINE
5
49
100
AcDbEntity
8
80
62
256
6
ByLayer
370
-1
48
1
60
0
100
AcDbLine
10
0
20
0
30
0
11
-10
21
0
31
0
39
0
210
0
220
0
230
1
0
LINE
5
4A
100
AcDbEntity
8
1
62
256
6
ByLayer
370
-1
48
1
60
0
100
AcDbLine
10
136.026731
20
12.54125
30
0
11
108.645
21
12.54125
31
0
39
0
210
0
220
0
230
1
0
LINE
5
4B
100
AcDbEntity
8
1
62
256
6
ByLayer
370
-1
48
1
60
0
100
AcDbLine
10
108.645
20
-12.54125
30
0
11
134.406559
21
-12.54125
31
0
39
0
210
0
220
0
230
1
0
LINE
5
4C
100
AcDbEntity
8
1
62
256
6
ByLayer
370
-1
48
1
60
0
100
AcDbLine
10
0
20
-12.49125
30
0
11
108.645
21
-12.49125
31
0
39
0
210
0
220
0
230
1
0
LINE
5
4D
100
AcDbEntity
8
1
62
256
6
ByLayer
370
-1
48
1
60
0
100
AcDbLine
10
108.645
20
12.49125
30
0
11
0
21
12.49125
31
0
39
0
210
0
220
0
230
1
0
LINE
5
4E
100
AcDbEntity
8
1
62
256
6
ByLayer
370
-1
48
1
60
0
100
AcDbLine
10
146.035067
20
11.151105
30
0
11
146.035306
21
11.164795
31
0
39
0
210
0
220
0
230
1
0
LINE
5
4F
100
AcDbEntity
8
1
62
256
6
ByLayer
370
-1
48
1
60
0
100
AcDbLine
10
147.216117
20
11.145373
30
0
11
147.215878
21
11.131667
31
0
39
0
210
0
220
0
230
1
0
LINE
5
50
100
AcDbEntity
8
1
62
256
6
ByLayer
370
-1
48
1
60
0
100
AcDbLine
10
147.237556
20
12.314727
30
0
11
147.237317
21
12.301026
31
0
39
0
210
0
220
0
230
1
0
LINE
5
51
100
AcDbEntity
8
1
62
256
6
ByLayer
370
-1
48
1
60
0
100
AcDbLine
10
146.056507
20
12.320464
30
0
11
146.056746
21
12.334171
31
0
39
0
210
0
220
0
230
1
0
LINE
5
52
100
AcDbEntity
8
1
62
256
6
ByLayer
370
-1
48
1
60
0
100
AcDbLine
10
148.360956
20
11.697509
30
0
11
148.361153
21
11.708758
31
0
39
0
210
0
220
0
230
1
0
LINE
5
53
100
AcDbEntity
8
1
62
256
6
ByLayer
370
-1
48
1
60
0
100
AcDbLine
10
144.911678
20
11.768969
30
0
11
144.911482
21
11.75772
31
0
39
0
210
0
220
0
230
1
0
LINE
5
54
100
AcDbEntity
8
SK1
62
256
6
ByLayer
370
-1
48
1
60
0
100
AcDbLine
10
-120.855
20
12.49125
30
0
11
-121.355
21
11.99125
31
0
39
0
210
0
220
0
230
1
0
LINE
5
56
100
AcDbEntity
8
SK1
62
256
6
ByLayer
370
-1
48
1
60
0
100
AcDbLine
10
-121.355
20
-11.99125
30
0
11
-120.855
21
-12.49125
31
0
39
0
210
0
220
0
230
1
0
LINE
5
57
100
AcDbEntity
8
SK1
62
256
6
ByLayer
370
-1
48
1
60
0
100
AcDbLine
10
-120.855
20
-12.49125
30
0
11
0
21
-12.49125
31
0
39
0
210
0
220
0
230
1
0
LINE
5
58
100
AcDbEntity
8
SK1
62
256
6
ByLayer
370
-1
48
1
60
0
100
AcDbLine
10
0
20
12.49125
30
0
11
-120.855
21
12.49125
31
0
39
0
210
0
220
0
230
1
0
LINE
5
59
100
AcDbEntity
8
81
62
256
6
ByLayer
370
-1
48
1
60
0
100
AcDbLine
10
149.895
20
16.9
30
0
11
159.895
21
16.9
31
0
39
0
210
0
220
0
230
1
0
LINE
5
5A
100
AcDbEntity
8
SK4
62
256
6
ByLayer
370
-1
48
0.05
60
0
100
AcDbLine
10
-126.355
20
0
30
0
11
154.223492
21
0
31
0
39
0
210
0
220
0
230
1
0
LINE
5
5C
100
AcDbEntity
8
4
62
256
6
ByLayer
370
-1
48
0.05
60
0
100
AcDbLine
10
0
20
0
30
0
11
154.223492
21
0
31
0
39
0
210
0
220
0
230
1
0
LINE
5
5E
100
AcDbEntity
8
1
62
256
6
ByLayer
370
-1
48
1
60
0
100
AcDbLine
10
0
20
-0.23467
30
0
11
0
21
0.23467
31
0
39
0
210
0
220
0
230
1
0
LINE
5
5F
100
AcDbEntity
8
1
62
256
6
ByLayer
370
-1
48
1
60
0
100
AcDbLine
10
108.645
20
0.23467
30
0
11
108.645
21
0.325215
31
0
39
0
210
0
220
0
230
1
0
LINE
5
60
100
AcDbEntity
8
1
62
256
6
ByLayer
370
-1
48
1
60
0
100
AcDbLine
10
141.038589
20
13.055542
30
0
11
141.039387
21
13.101246
31
0
39
0
210
0
220
0
230
1
0
LINE
5
61
100
AcDbEntity
8
1
62
256
6
ByLayer
370
-1
48
1
60
0
100
AcDbLine
10
138.609209
20
14.907051
30
0
11
143.170415
21
-2.113579
31
0
39
0
210
0
220
0
230
1
0
LINE
5
62
100
AcDbEntity
8
1
62
256
6
ByLayer
370
-1
48
1
60
0
100
AcDbLine
10
146.103798
20
15.604419
30
0
11
142.750219
21
13.764809
31
0
39
0
210
0
220
0
230
1
0
LINE
5
63
100
AcDbEntity
8
1
62
256
6
ByLayer
370
-1
48
1
60
0
100
AcDbLine
10
143.184582
20
13.457665
30
0
11
142.856852
21
13.654561
31
0
39
0
210
0
220
0
230
1
0
LINE
5
64
100
AcDbEntity
8
1
62
256
6
ByLayer
370
-1
48
1
60
0
100
AcDbLine
10
141.038589
20
13.055542
30
0
11
141.141597
21
13.226955
31
0
39
0
210
0
220
0
230
1
0
LINE
5
65
100
AcDbEntity
8
1
62
256
6
ByLayer
370
-1
48
1
60
0
100
AcDbLine
10
149.223492
20
5.929333
30
0
11
149.223492
21
6.499866
31
0
39
0
210
0
220
0
230
1
0
LINE
5
66
100
AcDbEntity
8
1
62
256
6
ByLayer
370
-1
48
1
60
0
100
AcDbLine
10
134.558991
20
-12.359879
30
0
11
143.170415
21
-2.113579
31
0
39
0
210
0
220
0
230
1
0
LINE
5
67
100
AcDbEntity
8
1
62
256
6
ByLayer
370
-1
48
1
60
0
100
AcDbLine
10
142.750219
20
13.764807
30
0
11
146.103798
21
15.604418
31
0
39
0
210
0
220
0
230
1
0
LINE
5
68
100
AcDbEntity
8
1
62
256
6
ByLayer
370
-1
48
1
60
0
100
AcDbLine
10
142.856852
20
13.654561
30
0
11
142.85765
21
13.700264
31
0
39
0
210
0
220
0
230
1
0
LINE
5
69
100
AcDbEntity
8
1
62
256
6
ByLayer
370
-1
48
1
60
0
100
AcDbLine
10
0
20
-0.23467
30
0
11
108.645
21
-0.23467
31
0
39
0
210
0
220
0
230
1
0
LINE
5
6A
100
AcDbEntity
8
1
62
256
6
ByLayer
370
-1
48
1
60
0
100
AcDbLine
10
146.103798
20
15.604419
30
0
11
146.114637
21
16.225399
31
0
39
0
210
0
220
0
230
1
0
LINE
5
6B
100
AcDbEntity
8
1
62
256
6
ByLayer
370
-1
48
1
60
0
100
AcDbLine
10
147.115992
20
16.2943
30
0
11
147.1044
21
15.630192
31
0
39
0
210
0
220
0
230
1
0
LINE
5
6C
100
AcDbEntity
8
1
62
256
6
ByLayer
370
-1
48
1
60
0
100
AcDbLine
10
108.645
20
-0.325215
30
0
11
108.645
21
-12.54125
31
0
39
0
210
0
220
0
230
1
0
LINE
5
6D
100
AcDbEntity
8
1
62
256
6
ByLayer
370
-1
48
1
60
0
100
AcDbLine
10
108.645
20
12.54125
30
0
11
108.645
21
0.325215
31
0
39
0
210
0
220
0
230
1
0
LINE
5
6E
100
AcDbEntity
8
1
62
256
6
ByLayer
370
-1
48
1
60
0
100
AcDbLine
10
140.933725
20
12.834575
30
0
11
140.934523
21
12.880279
31
0
39
0
210
0
220
0
230
1
0
LINE
5
6F
100
AcDbEntity
8
1
62
256
6
ByLayer
370
-1
48
1
60
0
100
AcDbLine
10
143.170415
20
-2.113579
30
0
11
149.223492
21
5.088671
31
0
39
0
210
0
220
0
230
1
0
LINE
5
70
100
AcDbEntity
8
1
62
256
6
ByLayer
370
-1
48
1
60
0
100
AcDbLine
10
149.223492
20
5.929334
30
0
11
141.133116
21
10.78995
31
0
39
0
210
0
220
0
230
1
0
LINE
5
71
100
AcDbEntity
8
1
62
256
6
ByLayer
370
-1
48
1
60
0
100
AcDbLine
10
146.103798
20
15.604419
30
0
11
146.103798
21
15.604418
31
0
39
0
210
0
220
0
230
1
0
LINE
5
72
100
AcDbEntity
8
1
62
256
6
ByLayer
370
-1
48
1
60
0
100
AcDbLine
10
108.645
20
0.23467
30
0
11
0
21
0.23467
31
0
39
0
210
0
220
0
230
1
0
LINE
5
73
100
AcDbEntity
8
1
62
256
6
ByLayer
370
-1
48
1
60
0
100
AcDbLine
10
142.85765
20
13.700265
30
0
11
142.750219
21
13.764809
31
0
39
0
210
0
220
0
230
1
0
LINE
5
74
100
AcDbEntity
8
1
62
256
6
ByLayer
370
-1
48
1
60
0
100
AcDbLine
10
149.223492
20
5.088671
30
0
11
149.223492
21
5.929334
31
0
39
0
210
0
220
0
230
1
0
LINE
5
75
100
AcDbEntity
8
1
62
256
6
ByLayer
370
-1
48
1
60
0
100
AcDbLine
10
108.645
20
-0.325215
30
0
11
108.645
21
-0.23467
31
0
39
0
210
0
220
0
230
1
0
LINE
5
76
100
AcDbEntity
8
1
62
256
6
ByLayer
370
-1
48
1
60
0
100
AcDbLine
10
108.645
20
0.325215
30
0
11
115.945828
21
0.325215
31
0
39
0
210
0
220
0
230
1
0
LINE
5
77
100
AcDbEntity
8
1
62
256
6
ByLayer
370
-1
48
1
60
0
100
AcDbLine
10
141.039387
20
13.101246
30
0
11
141.142394
21
13.272659
31
0
39
0
210
0
220
0
230
1
0
LINE
5
78
100
AcDbEntity
8
1
62
256
6
ByLayer
370
-1
48
1
60
0
100
AcDbLine
10
143.224562
20
13.479827
30
0
11
142.85765
21
13.700264
31
0
39
0
210
0
220
0
230
1
0
LINE
5
79
100
AcDbEntity
8
1
62
256
6
ByLayer
370
-1
48
1
60
0
100
AcDbLine
10
116.128247
20
-0.325215
30
0
11
108.645
21
-0.325215
31
0
39
0
210
0
220
0
230
1
0
LINE
5
7A
100
AcDbEntity
8
1
62
256
6
ByLayer
370
-1
48
1
60
0
100
AcDbLine
10
0
20
-12.49125
30
0
11
0
21
-0.23467
31
0
39
0
210
0
220
0
230
1
0
LINE
5
7B
100
AcDbEntity
8
1
62
256
6
ByLayer
370
-1
48
1
60
0
100
AcDbLine
10
0
20
0.23467
30
0
11
0
21
12.49125
31
0
39
0
210
0
220
0
230
1
0
LINE
5
7C
100
AcDbEntity
8
1
62
256
6
ByLayer
370
-1
48
1
60
0
100
AcDbLine
10
141.141597
20
13.226955
30
0
11
141.142394
21
13.272659
31
0
39
0
210
0
220
0
230
1
0
LINE
5
7D
100
AcDbEntity
8
1
62
256
6
ByLayer
370
-1
48
1
60
0
100
AcDbLine
10
134.406559
20
-12.54125
30
0
11
134.558991
21
-12.359879
31
0
39
0
210
0
220
0
230
1
0
LINE
5
7E
100
AcDbEntity
8
1
62
256
6
ByLayer
370
-1
48
1
60
0
100
AcDbLine
10
142.85765
20
13.700265
30
0
11
142.85765
21
13.700264
31
0
39
0
210
0
220
0
230
1
0
LINE
5
7F
100
AcDbEntity
8
SK1
62
256
6
ByLayer
370
-1
48
1
60
0
100
AcDbLine
10
-120.855
20
-12.49125
30
0
11
-120.855
21
12.49125
31
0
39
0
210
0
220
0
230
1
0
LINE
5
80
100
AcDbEntity
8
SK1
62
256
6
ByLayer
370
-1
48
1
60
0
100
AcDbLine
10
0
20
0.23467
30
0
11
-50.105
21
0.23467
31
0
39
0
210
0
220
0
230
1
0
LINE
5
81
100
AcDbEntity
8
SK1
62
256
6
ByLayer
370
-1
48
1
60
0
100
AcDbLine
10
-50.105
20
-0.23467
30
0
11
0
21
-0.23467
31
0
39
0
210
0
220
0
230
1
0
LINE
5
82
100
AcDbEntity
8
SK1
62
256
6
ByLayer
370
-1
48
1
60
0
100
AcDbLine
10
-121.355
20
-11.99125
30
0
11
-121.355
21
11.99125
31
0
39
0
210
0
220
0
230
1
0
LINE
5
83
100
AcDbEntity
8
SK1
62
256
6
ByLayer
370
-1
48
1
60
0
100
AcDbLine
10
0
20
-0.23467
30
0
11
0
21
0.23467
31
0
39
0
210
0
220
0
230
1
0
LINE
5
84
100
AcDbEntity
8
SK1
62
256
6
ByLayer
370
-1
48
1
60
0
100
AcDbLine
10
-50.105
20
-0.23467
30
0
11
-50.105
21
0.23467
31
0
39
0
210
0
220
0
230
1
0
LINE
5
85
100
AcDbEntity
8
SK1
62
256
6
ByLayer
370
-1
48
1
60
0
100
AcDbLine
10
0
20
-12.49125
30
0
11
0
21
-0.23467
31
0
39
0
210
0
220
0
230
1
0
LINE
5
86
100
AcDbEntity
8
SK1
62
256
6
ByLayer
370
-1
48
1
60
0
100
AcDbLine
10
0
20
0.23467
30
0
11
0
21
12.49125
31
0
39
0
210
0
220
0
230
1
0
LINE
5
87
100
AcDbEntity
8
1
62
256
6
ByLayer
370
-1
48
1
60
0
100
AcDbLine
10
140.876646
20
11.497937
30
0
11
149.125783
21
6.541939
31
0
39
0
210
0
220
0
230
1
0
LINE
5
88
100
AcDbEntity
8
1
62
256
6
ByLayer
370
-1
48
1
60
0
100
AcDbLine
10
149.305715
20
16.850246
30
0
11
140.888641
21
12.185158
31
0
39
0
210
0
220
0
230
1
0
LINE
5
89
100
AcDbEntity
8
1
62
256
6
ByLayer
370
-1
48
1
60
0
100
AcDbLine
10
149.727003
20
6.87516
30
0
11
149.89494
21
16.496246
31
0
39
0
210
0
220
0
230
1
0
LINE
5
8A
100
AcDbEntity
8
1
62
256
6
ByLayer
370
-1
48
1
60
0
100
AcDbLine
10
147.227514
20
11.02563
30
0
11
147.227766
21
11.040065
31
0
39
0
210
0
220
0
230
1
0
LINE
5
8B
100
AcDbEntity
8
1
62
256
6
ByLayer
370
-1
48
1
60
0
100
AcDbLine
10
147.538856
20
11.88925
30
0
11
147.539108
21
11.903689
31
0
39
0
210
0
220
0
230
1
0
LINE
5
8C
100
AcDbEntity
8
1
62
256
6
ByLayer
370
-1
48
1
60
0
100
AcDbLine
10
146.946923
20
12.589028
30
0
11
146.947175
21
12.603467
31
0
39
0
210
0
220
0
230
1
0
LINE
5
8D
100
AcDbEntity
8
1
62
256
6
ByLayer
370
-1
48
1
60
0
100
AcDbLine
10
146.356517
20
12.599587
30
0
11
146.356769
21
12.614026
31
0
39
0
210
0
220
0
230
1
0
LINE
5
8E
100
AcDbEntity
8
1
62
256
6
ByLayer
370
-1
48
1
60
0
100
AcDbLine
10
145.740063
20
11.919276
30
0
11
145.740315
21
11.93371
31
0
39
0
210
0
220
0
230
1
0
LINE
5
8F
100
AcDbEntity
8
1
62
256
6
ByLayer
370
-1
48
1
60
0
100
AcDbLine
10
146.020031
20
11.046603
30
0
11
146.020283
21
11.061042
31
0
39
0
210
0
220
0
230
1
0
LINE
5
90
100
AcDbEntity
8
1
62
256
6
ByLayer
370
-1
48
1
60
0
100
AcDbLine
10
145.98118
20
12.099737
30
0
11
145.980954
21
12.086812
31
0
39
0
210
0
220
0
230
1
0
LINE
5
91
100
AcDbEntity
8
1
62
256
6
ByLayer
370
-1
48
1
60
0
100
AcDbLine
10
146.010019
20
12.135178
30
0
11
146.010245
21
12.148103
31
0
39
0
210
0
220
0
230
1
0
LINE
5
92
100
AcDbEntity
8
2
62
256
6
ByLayer
370
-1
48
1
60
1
100
AcDbLine
10
149.895
20
0
30
0
11
149.896
21
0.001
31
0
39
0
210
0
220
0
230
1
0
MTEXT
5
E0
100
AcDbEntity
8
SK6
62
256
6
ByLayer
370
-1
48
1
60
0
100
AcDbMText
10
17.645
20
-25.084653
30
0
210
0
220
0
230
1
1
\W00.742;\fsimplex.shx,bigfont.shx;E25T-STFCR 11-RB1 
40
3.5
41
0
44
1.084337
50
0
71
7
72
5
7
DEFAULT
0
DIMENSION
5
113
100
AcDbEntity
8
2
62
256
6
ByLayer
370
-3
48
1
60
0
100
AcDbDimension
2
DimnDraft3D1
10
162.145
20
0
30
0
11
162.145
21
3.849342
31
0
70
32
71
5
72
1
41
1
210
0
220
0
230
1
3
Standard
100
AcDbAlignedDimension
13
151.895
23
16.9
33
0
14
151.895
24
0
34
0
50
90
100
AcDbRotatedDimension
1001
ACAD
1000
DSTYLE
1002
{
1070
    74
1070
     0
1070
   279
1070
     0
1070
   172
1070
     1
1070
   173
1070
     1
1070
   340
1005
E1
1070
    77
1070
     1
1070
    73
1070
     0
1070
   171
1070
     4
1070
   274
1070
     4
1070
   177
1070
     2
1070
   176
1070
     2
1070
   178
1070
     7
1070
    78
1070
     8
1070
    41
1041
3.175
1070
   147
1041
2.25
1070
    42
1041
2.0
1070
    44
1041
2.0
1070
   140
1041
4.5
1070
   343
1005
114
1070
   344
1005
114
1002
}
0
DIMENSION
5
129
100
AcDbEntity
8
SK2
62
256
6
ByLayer
370
-3
48
1
60
0
100
AcDbDimension
2
DimnDraft3D2
10
-131.105
20
12.49125
30
0
11
-131.105
21
-4.784211
31
0
70
32
71
5
72
1
41
1
210
0
220
0
230
1
3
Standard
100
AcDbAlignedDimension
13
-123.355
23
-12.49125
33
0
14
-123.355
24
12.49125
34
0
50
90
100
AcDbRotatedDimension
1001
ACAD
1000
DSTYLE
1002
{
1070
    74
1070
     0
1070
   279
1070
     0
1070
   172
1070
     1
1070
   173
1070
     1
1070
   340
1005
E1
1070
    77
1070
     1
1070
    73
1070
     0
1070
   171
1070
     4
1070
   274
1070
     4
1070
   177
1070
     2
1070
   176
1070
     2
1070
   178
1070
     7
1070
    78
1070
     8
1070
    41
1041
3.175
1070
   147
1041
2.25
1070
    42
1041
2.0
1070
    44
1041
2.0
1070
   140
1041
4.5
1070
   343
1005
114
1070
   344
1005
114
1002
}
0
DIMENSION
5
137
100
AcDbEntity
8
SK2
62
256
6
ByLayer
370
-3
48
1
60
0
100
AcDbDimension
2
DimnDraft3D3
10
-121.355
20
29.65
30
0
11
7.454868
21
29.65
31
0
70
32
71
5
72
1
41
1
210
0
220
0
230
1
3
Standard
100
AcDbAlignedDimension
13
149.895
23
18.9
33
0
14
-121.355
24
14.49125
34
0
50
0
100
AcDbRotatedDimension
1001
ACAD
1000
DSTYLE
1002
{
1070
   279
1070
     0
1070
   172
1070
     1
1070
   173
1070
     1
1070
   340
1005
E1
1070
    77
1070
     1
1070
    73
1070
     0
1070
   171
1070
     4
1070
   274
1070
     4
1070
   177
1070
     2
1070
   176
1070
     2
1070
   178
1070
     7
1070
    78
1070
     8
1070
    41
1041
3.175
1070
   147
1041
2.25
1070
    42
1041
2.0
1070
    44
1041
2.0
1070
   140
1041
4.5
1070
   343
1005
114
1070
   344
1005
114
1002
}
0
DIMENSION
5
145
100
AcDbEntity
8
2
62
256
6
ByLayer
370
-3
48
1
60
0
100
AcDbDimension
2
DimnDraft3D4
10
198.526416
20
0
30
0
11
176.771164
21
-35.936736
31
0
70
34
71
5
72
1
41
1
210
0
220
0
230
1
3
Standard
100
AcDb2LineAngularDimension
13
149.668119
23
3.90198
33
0
14
148.746126
24
-48.918955
34
0
15
151.895
25
0
35
0
16
179.337071
26
-30.260654
36
0
40
0
0
ENDSEC
0
SECTION
2
OBJECTS
0
DICTIONARY
5
176
330
0
100
AcDbDictionary
280
0
281
1
3
ACAD_GROUP
350
177
3
ACAD_MLINESTYLE
350
178
0
DICTIONARY
5
177
330
0
100
AcDbDictionary
280
0
281
1
0
DICTIONARY
5
178
330
0
100
AcDbDictionary
280
0
281
1
3
Standard
350
18
0
MLINESTYLE
5
18
330
178
100
AcDbMlineStyle
2
Standard
70
0
3

62
256
51
90
52
90
71
2
49
-0.5
62
256
6
ByLayer
49
0.5
62
256
6
ByLayer
0
RASTERVARIABLES
5
164
330

100
AcDbRasterVariables
90
0
70
1
71
1
72
1
0
ENDSEC
0
EOF
