  0
SECTION
  2
HEADER
  9
$ACADVER
  1
AC1015
  9
$ACADMAINTVER
 70
     6
  9
$DWGCODEPAGE
  3
ANSI_1252
  9
$INSBASE
 10
0.0
 20
0.0
 30
0.0
  9
$EXTMIN
 10
1.000000000000000E+20
 20
1.000000000000000E+20
 30
1.000000000000000E+20
  9
$EXTMAX
 10
-1.000000000000000E+20
 20
-1.000000000000000E+20
 30
-1.000000000000000E+20
  9
$LIMMIN
 10
-170.0
 20
-170.0
  9
$LIMMAX
 10
519.0
 20
260.0
  9
$ORTHOMODE
 70
     0
  9
$REGENMODE
 70
     1
  9
$FILLMODE
 70
     1
  9
$QTEXTMODE
 70
     0
  9
$MIRRTEXT
 70
     0
  9
$LTSCALE
 40
1.0
  9
$ATTMODE
 70
     1
  9
$TEXTSIZE
 40
3.5
  9
$TRACEWID
 40
1.0
  9
$TEXTSTYLE
  7
SIMPLEX
  9
$CLAYER
  8
1
  9
$CELTYPE
  6
BYLAYER
  9
$CECOLOR
 62
   256
  9
$CELTSCALE
 40
1.0
  9
$DISPSILH
 70
     0
  9
$DIMSCALE
 40
1.0
  9
$DIMASZ
 40
2.5
  9
$DIMEXO
 40
0.0
  9
$DIMDLI
 40
3.75
  9
$DIMRND
 40
0.0
  9
$DIMDLE
 40
0.0
  9
$DIMEXE
 40
1.25
  9
$DIMTP
 40
0.0
  9
$DIMTM
 40
0.0
  9
$DIMTXT
 40
3.5
  9
$DIMCEN
 40
0.0
  9
$DIMTSZ
 40
0.0
  9
$DIMTOL
 70
     0
  9
$DIMLIM
 70
     0
  9
$DIMTIH
 70
     0
  9
$DIMTOH
 70
     0
  9
$DIMSE1
 70
     0
  9
$DIMSE2
 70
     0
  9
$DIMTAD
 70
     1
  9
$DIMZIN
 70
     8
  9
$DIMBLK
  1

  9
$DIMASO
 70
     1
  9
$DIMSHO
 70
     1
  9
$DIMPOST
  1

  9
$DIMAPOST
  1

  9
$DIMALT
 70
     0
  9
$DIMALTD
 70
     3
  9
$DIMALTF
 40
0.039370078
  9
$DIMLFAC
 40
1.0
  9
$DIMTOFL
 70
     0
  9
$DIMTVP
 40
0.0
  9
$DIMTIX
 70
     0
  9
$DIMSOXD
 70
     0
  9
$DIMSAH
 70
     0
  9
$DIMBLK1
  1

  9
$DIMBLK2
  1

  9
$DIMSTYLE
  2
STANDARD
  9
$DIMCLRD
 70
     0
  9
$DIMCLRE
 70
     0
  9
$DIMCLRT
 70
     0
  9
$DIMTFAC
 40
1.0
  9
$DIMGAP
 40
0.625
  9
$DIMJUST
 70
     0
  9
$DIMSD1
 70
     0
  9
$DIMSD2
 70
     0
  9
$DIMTOLJ
 70
     0
  9
$DIMTZIN
 70
     8
  9
$DIMALTZ
 70
     0
  9
$DIMALTTZ
 70
     0
  9
$DIMUPT
 70
     0
  9
$DIMDEC
 70
     2
  9
$DIMTDEC
 70
     2
  9
$DIMALTU
 70
     2
  9
$DIMALTTD
 70
     3
  9
$DIMTXSTY
  7
SIMPLEX
  9
$DIMAUNIT
 70
     0
  9
$DIMADEC
 70
     2
  9
$DIMALTRND
 40
0.0
  9
$DIMAZIN
 70
     2
  9
$DIMDSEP
 70
    46
  9
$DIMATFIT
 70
     3
  9
$DIMFRAC
 70
     0
  9
$DIMLDRBLK
  1

  9
$DIMLUNIT
 70
     2
  9
$DIMLWD
 70
    -2
  9
$DIMLWE
 70
    -2
  9
$DIMTMOVE
 70
     0
  9
$LUNITS
 70
     2
  9
$LUPREC
 70
     4
  9
$SKETCHINC
 40
1.0
  9
$FILLETRAD
 40
0.0
  9
$AUNITS
 70
     0
  9
$AUPREC
 70
     0
  9
$MENU
  1
c:\tdm21\cad\caduti13\tdm13
  9
$ELEVATION
 40
0.0
  9
$PELEVATION
 40
0.0
  9
$THICKNESS
 40
0.0
  9
$LIMCHECK
 70
     0
  9
$CHAMFERA
 40
0.0
  9
$CHAMFERB
 40
0.0
  9
$CHAMFERC
 40
0.0
  9
$CHAMFERD
 40
0.0
  9
$SKPOLY
 70
     0
  9
$TDCREATE
 40
2454957.593642639
  9
$TDUCREATE
 40
2454957.510309306
  9
$TDUPDATE
 40
2456860.709759109
  9
$TDUUPDATE
 40
2456860.626425775
  9
$TDINDWG
 40
0.0009643519
  9
$TDUSRTIMER
 40
0.0009475231
  9
$USRTIMER
 70
     1
  9
$ANGBASE
 50
0.0
  9
$ANGDIR
 70
     0
  9
$PDMODE
 70
     1
  9
$PDSIZE
 40
0.0
  9
$PLINEWID
 40
0.0
  9
$SPLFRAME
 70
     0
  9
$SPLINETYPE
 70
     6
  9
$SPLINESEGS
 70
     8
  9
$HANDSEED
  5
665
  9
$SURFTAB1
 70
     6
  9
$SURFTAB2
 70
     6
  9
$SURFTYPE
 70
     6
  9
$SURFU
 70
     6
  9
$SURFV
 70
     6
  9
$UCSBASE
  2

  9
$UCSNAME
  2

  9
$UCSORG
 10
0.0
 20
0.0
 30
0.0
  9
$UCSXDIR
 10
1.0
 20
0.0
 30
0.0
  9
$UCSYDIR
 10
0.0
 20
1.0
 30
0.0
  9
$UCSORTHOREF
  2

  9
$UCSORTHOVIEW
 70
     0
  9
$UCSORGTOP
 10
0.0
 20
0.0
 30
0.0
  9
$UCSORGBOTTOM
 10
0.0
 20
0.0
 30
0.0
  9
$UCSORGLEFT
 10
0.0
 20
0.0
 30
0.0
  9
$UCSORGRIGHT
 10
0.0
 20
0.0
 30
0.0
  9
$UCSORGFRONT
 10
0.0
 20
0.0
 30
0.0
  9
$UCSORGBACK
 10
0.0
 20
0.0
 30
0.0
  9
$PUCSBASE
  2

  9
$PUCSNAME
  2

  9
$PUCSORG
 10
0.0
 20
0.0
 30
0.0
  9
$PUCSXDIR
 10
1.0
 20
0.0
 30
0.0
  9
$PUCSYDIR
 10
0.0
 20
1.0
 30
0.0
  9
$PUCSORTHOREF
  2

  9
$PUCSORTHOVIEW
 70
     0
  9
$PUCSORGTOP
 10
0.0
 20
0.0
 30
0.0
  9
$PUCSORGBOTTOM
 10
0.0
 20
0.0
 30
0.0
  9
$PUCSORGLEFT
 10
0.0
 20
0.0
 30
0.0
  9
$PUCSORGRIGHT
 10
0.0
 20
0.0
 30
0.0
  9
$PUCSORGFRONT
 10
0.0
 20
0.0
 30
0.0
  9
$PUCSORGBACK
 10
0.0
 20
0.0
 30
0.0
  9
$USERI1
 70
     0
  9
$USERI2
 70
     0
  9
$USERI3
 70
     0
  9
$USERI4
 70
     0
  9
$USERI5
 70
     0
  9
$USERR1
 40
0.0
  9
$USERR2
 40
0.0
  9
$USERR3
 40
0.0
  9
$USERR4
 40
0.0
  9
$USERR5
 40
0.0
  9
$WORLDVIEW
 70
     1
  9
$SHADEDGE
 70
     3
  9
$SHADEDIF
 70
    70
  9
$TILEMODE
 70
     1
  9
$MAXACTVP
 70
    64
  9
$PINSBASE
 10
0.0
 20
0.0
 30
0.0
  9
$PLIMCHECK
 70
     0
  9
$PEXTMIN
 10
0.0
 20
0.0
 30
0.0
  9
$PEXTMAX
 10
0.0
 20
0.0
 30
0.0
  9
$PLIMMIN
 10
0.0
 20
0.0
  9
$PLIMMAX
 10
12.0
 20
9.0
  9
$UNITMODE
 70
     0
  9
$VISRETAIN
 70
     0
  9
$PLINEGEN
 70
     0
  9
$PSLTSCALE
 70
     1
  9
$TREEDEPTH
 70
  3020
  9
$CMLSTYLE
  2
STANDARD
  9
$CMLJUST
 70
     0
  9
$CMLSCALE
 40
20.0
  9
$PROXYGRAPHICS
 70
     1
  9
$MEASUREMENT
 70
     1
  9
$CELWEIGHT
370
    -1
  9
$ENDCAPS
280
     0
  9
$JOINSTYLE
280
     0
  9
$LWDISPLAY
290
     0
  9
$INSUNITS
 70
     4
  9
$HYPERLINKBASE
  1

  9
$STYLESHEET
  1
MONOCHROME.CTB
  9
$XEDIT
290
     1
  9
$CEPSNTYPE
380
     0
  9
$PSTYLEMODE
290
     1
  9
$FINGERPRINTGUID
  2
{46B44192-1510-48B1-B61B-CBE2ADA013A7}
  9
$VERSIONGUID
  2
{6160D478-9A74-4C97-9D8A-D4A65CE74B12}
  9
$EXTNAMES
290
     1
  9
$PSVPSCALE
 40
0.0
  9
$OLESTARTUP
290
     0
  0
ENDSEC
  0
SECTION
  2
CLASSES
  0
CLASS
  1
ACDBDICTIONARYWDFLT
  2
AcDbDictionaryWithDefault
  3
ObjectDBX Classes
 90
        0
280
     0
281
     0
  0
CLASS
  1
ACDBPLACEHOLDER
  2
AcDbPlaceHolder
  3
ObjectDBX Classes
 90
        0
280
     0
281
     0
  0
CLASS
  1
LAYOUT
  2
AcDbLayout
  3
ObjectDBX Classes
 90
        0
280
     0
281
     0
  0
CLASS
  1
DICTIONARYVAR
  2
AcDbDictionaryVar
  3
ObjectDBX Classes
 90
        0
280
     0
281
     0
  0
CLASS
  1
TABLESTYLE
  2
AcDbTableStyle
  3
ObjectDBX Classes
 90
     4095
280
     0
281
     0
  0
CLASS
  1
SCALE
  2
AcDbScale
  3
ObjectDBX Classes
 90
     1153
280
     0
281
     0
  0
CLASS
  1
MATERIAL
  2
AcDbMaterial
  3
ObjectDBX Classes
 90
     1153
280
     0
281
     0
  0
CLASS
  1
VISUALSTYLE
  2
AcDbVisualStyle
  3
ObjectDBX Classes
 90
     4095
280
     0
281
     0
  0
ENDSEC
  0
SECTION
  2
TABLES
  0
TABLE
  2
VPORT
  5
8
330
0
100
AcDbSymbolTable
 70
     1
  0
VPORT
  5
39A
330
8
100
AcDbSymbolTableRecord
100
AcDbViewportTableRecord
  2
*Active
 70
     0
 10
0.0
 20
0.0
 11
1.0
 21
1.0
 12
218.9201881351169
 22
109.7549380673833
 13
0.0
 23
0.0
 14
5.0
 24
5.0
 15
5.0
 25
5.0
 16
0.0
 26
0.0
 36
1.0
 17
0.0
 27
0.0
 37
0.0
 40
564.6711112651689
 41
1.066073697585768
 42
50.0
 43
0.0
 44
0.0
 50
0.0
 51
0.0
 71
     0
 72
  2000
 73
     1
 74
     1
 75
     0
 76
     0
 77
     0
 78
     0
281
     0
 65
     1
110
0.0
120
0.0
130
0.0
111
1.0
121
0.0
131
0.0
112
0.0
122
1.0
132
0.0
 79
     0
146
0.0
  0
ENDTAB
  0
TABLE
  2
LTYPE
  5
5
330
0
100
AcDbSymbolTable
 70
     3
  0
LTYPE
  5
12
330
5
100
AcDbSymbolTableRecord
100
AcDbLinetypeTableRecord
  2
BYBLOCK
 70
     0
  3

 72
    65
 73
     0
 40
0.0
  0
LTYPE
  5
13
330
5
100
AcDbSymbolTableRecord
100
AcDbLinetypeTableRecord
  2
BYLAYER
 70
     0
  3

 72
    65
 73
     0
 40
0.0
  0
LTYPE
  5
14
330
5
100
AcDbSymbolTableRecord
100
AcDbLinetypeTableRecord
  2
CONTINUOUS
 70
     0
  3
Solid line
 72
    65
 73
     0
 40
0.0
  0
LTYPE
  5
20
330
5
100
AcDbSymbolTableRecord
100
AcDbLinetypeTableRecord
  2
HIDDEN
 70
     0
  3
Hidden __ __ __ __ __ __ __ __ __ __ __ __ __ _
 72
    65
 73
     2
 40
9.524999999999997
 49
6.349999999999998
 74
     0
 49
-3.174999999999998
 74
     0
  0
LTYPE
  5
351
330
5
100
AcDbSymbolTableRecord
100
AcDbLinetypeTableRecord
  2
CENTER
 70
     0
  3
Dash dot __ . __ . __ . __ . __ . __ . __ . __
 72
    65
 73
     4
 40
25.4
 49
12.7
 74
     0
 49
-6.349999999999998
 74
     0
 49
0.0
 74
     0
 49
-6.349999999999998
 74
     0
  0
ENDTAB
  0
TABLE
  2
LAYER
  5
2
330
0
100
AcDbSymbolTable
 70
    16
  0
LAYER
  5
F
330
2
100
AcDbSymbolTableRecord
100
AcDbLayerTableRecord
  2
0
 70
     0
 62
     7
  6
CONTINUOUS
370
    -3
390
300
  0
LAYER
  5
23
330
2
100
AcDbSymbolTableRecord
100
AcDbLayerTableRecord
  2
1
 70
     0
 62
     4
  6
CONTINUOUS
370
    -3
390
300
  0
LAYER
  5
24
330
2
100
AcDbSymbolTableRecord
100
AcDbLayerTableRecord
  2
SK1
 70
     0
 62
     4
  6
CONTINUOUS
370
    -3
390
300
  0
LAYER
  5
25
330
2
100
AcDbSymbolTableRecord
100
AcDbLayerTableRecord
  2
2
 70
     0
 62
     7
  6
CONTINUOUS
370
    -3
390
300
  0
LAYER
  5
26
330
2
100
AcDbSymbolTableRecord
100
AcDbLayerTableRecord
  2
2L
 70
     0
 62
     7
  6
CONTINUOUS
370
    -3
390
300
  0
LAYER
  5
27
330
2
100
AcDbSymbolTableRecord
100
AcDbLayerTableRecord
  2
SK2
 70
     0
 62
     7
  6
CONTINUOUS
370
    -3
390
300
  0
LAYER
  5
28
330
2
100
AcDbSymbolTableRecord
100
AcDbLayerTableRecord
  2
3
 70
     0
 62
     1
  6
HIDDEN
370
    -3
390
300
  0
LAYER
  5
29
330
2
100
AcDbSymbolTableRecord
100
AcDbLayerTableRecord
  2
SK3
 70
     0
 62
     1
  6
HIDDEN
370
    -3
390
300
  0
LAYER
  5
2A
330
2
100
AcDbSymbolTableRecord
100
AcDbLayerTableRecord
  2
4
 70
     0
 62
     2
  6
CENTER
370
    -3
390
300
  0
LAYER
  5
2B
330
2
100
AcDbSymbolTableRecord
100
AcDbLayerTableRecord
  2
SK4
 70
     0
 62
     2
  6
CENTER
370
    -3
390
300
  0
LAYER
  5
2C
330
2
100
AcDbSymbolTableRecord
100
AcDbLayerTableRecord
  2
5
 70
     0
 62
    -7
  6
CONTINUOUS
370
    -3
390
300
  0
LAYER
  5
2D
330
2
100
AcDbSymbolTableRecord
100
AcDbLayerTableRecord
  2
6
 70
     0
 62
     5
  6
CONTINUOUS
370
    -3
390
300
  0
LAYER
  5
2E
330
2
100
AcDbSymbolTableRecord
100
AcDbLayerTableRecord
  2
SK6
 70
     0
 62
     5
  6
CONTINUOUS
370
    -3
390
300
  0
LAYER
  5
2F
330
2
100
AcDbSymbolTableRecord
100
AcDbLayerTableRecord
  2
DEFPOINTS
 70
     0
 62
     7
  6
CONTINUOUS
290
     0
370
    -3
390
300
  0
LAYER
  5
375
330
2
100
AcDbSymbolTableRecord
100
AcDbLayerTableRecord
  2
CUT
 70
     0
 62
     1
  6
CONTINUOUS
370
    -3
390
300
  0
LAYER
  5
376
330
2
100
AcDbSymbolTableRecord
100
AcDbLayerTableRecord
  2
NOCUT
 70
     0
 62
     7
  6
CONTINUOUS
370
    -3
390
300
  0
ENDTAB
  0
TABLE
  2
STYLE
  5
3
330
0
100
AcDbSymbolTable
 70
     4
  0
STYLE
  5
10
330
3
100
AcDbSymbolTableRecord
100
AcDbTextStyleTableRecord
  2
STANDARD
 70
     0
 40
0.0
 41
1.0
 50
0.0
 71
     0
 42
5.0
  3
txt
  4

  0
STYLE
  5
1D
330
3
100
AcDbSymbolTableRecord
100
AcDbTextStyleTableRecord
  2
TXT
 70
     0
 40
8.0
 41
1.0
 50
0.0
 71
     0
 42
8.0
  3
txt
  4

  0
STYLE
  5
1E
330
3
100
AcDbSymbolTableRecord
100
AcDbTextStyleTableRecord
  2
SIMPLEX
 70
     0
 40
0.0
 41
1.0
 50
0.0
 71
     0
 42
3.5
  3
simplex
  4

  0
STYLE
  5
34C
330
3
100
AcDbSymbolTableRecord
100
AcDbTextStyleTableRecord
  2

 70
     1
 40
0.0
 41
1.0
 50
0.0
 71
     0
 42
2.5
  3
ltypeshp.shx
  4

  0
ENDTAB
  0
TABLE
  2
VIEW
  5
6
330
0
100
AcDbSymbolTable
 70
     0
  0
ENDTAB
  0
TABLE
  2
UCS
  5
7
330
0
100
AcDbSymbolTable
 70
     0
  0
ENDTAB
  0
TABLE
  2
APPID
  5
9
330
0
100
AcDbSymbolTable
 70
     1
  0
APPID
  5
11
330
9
100
AcDbSymbolTableRecord
100
AcDbRegAppTableRecord
  2
ACAD
 70
     0
  0
ENDTAB
  0
TABLE
  2
DIMSTYLE
  5
A
330
0
100
AcDbSymbolTable
 70
     1
100
AcDbDimStyleTable
  0
DIMSTYLE
105
3F
102
{ACAD_REACTORS
330
5F9
330
606
330
613
330
620
330
62D
102
}
330
A
100
AcDbSymbolTableRecord
100
AcDbDimStyleTableRecord
  2
STANDARD
 70
     0
 41
2.5
 42
0.0
 43
3.75
 44
1.25
 73
     0
 74
     0
 77
     1
 78
     8
 79
     2
140
3.5
141
0.0
143
0.039370078
147
0.625
171
     3
178
     0
179
     2
271
     2
272
     2
274
     3
283
     0
284
     8
340
1E
  0
ENDTAB
  0
TABLE
  2
BLOCK_RECORD
  5
1
330
0
100
AcDbSymbolTable
 70
     5
  0
BLOCK_RECORD
  5
18
330
1
100
AcDbSymbolTableRecord
100
AcDbBlockTableRecord
  2
*MODEL_SPACE
340
303
  0
BLOCK_RECORD
  5
338
330
1
100
AcDbSymbolTableRecord
100
AcDbBlockTableRecord
  2
*Paper_Space
340
33B
  0
BLOCK_RECORD
  5
5FA
330
1
100
AcDbSymbolTableRecord
100
AcDbBlockTableRecord
  2
*D0
340
0
  0
BLOCK_RECORD
  5
607
330
1
100
AcDbSymbolTableRecord
100
AcDbBlockTableRecord
  2
*D1
340
0
  0
BLOCK_RECORD
  5
614
330
1
100
AcDbSymbolTableRecord
100
AcDbBlockTableRecord
  2
*D2
340
0
  0
BLOCK_RECORD
  5
621
330
1
100
AcDbSymbolTableRecord
100
AcDbBlockTableRecord
  2
*D3
340
0
  0
BLOCK_RECORD
  5
62E
330
1
100
AcDbSymbolTableRecord
100
AcDbBlockTableRecord
  2
*D4
340
0
  0
ENDTAB
  0
ENDSEC
  0
SECTION
  2
BLOCKS
  0
BLOCK
  5
32
330
18
100
AcDbEntity
  8
0
100
AcDbBlockBegin
  2
*MODEL_SPACE
 70
     0
 10
0.0
 20
0.0
 30
0.0
  3
*MODEL_SPACE
  1

  0
ENDBLK
  5
33
330
18
100
AcDbEntity
  8
0
100
AcDbBlockEnd
  0
BLOCK
  5
339
330
338
100
AcDbEntity
 67
     1
  8
0
100
AcDbBlockBegin
  2
*Paper_Space
 70
     0
 10
0.0
 20
0.0
 30
0.0
  3
*Paper_Space
  1

  0
ENDBLK
  5
33A
330
338
100
AcDbEntity
 67
     1
  8
0
100
AcDbBlockEnd
  0
BLOCK
  5
5FB
330
5FA
100
AcDbEntity
  8
0
100
AcDbBlockBegin
  2
*D0
 70
     1
 10
0.0
 20
0.0
 30
0.0
  3
*D0
  1

  0
LINE
  5
5FD
330
5FA
100
AcDbEntity
  8
2
 62
     0
370
    -2
100
AcDbLine
 10
66.0
 20
4.0
 30
0.0
 11
82.25
 21
4.000000000000056
 31
0.0
  0
LINE
  5
5FE
330
5FA
100
AcDbEntity
  8
2
 62
     0
370
    -2
100
AcDbLine
 10
66.0
 20
-4.0
 30
0.0
 11
82.25000000000003
 21
-3.999999999999943
 31
0.0
  0
LINE
  5
5FF
330
5FA
100
AcDbEntity
  8
2
 62
     0
370
    -2
100
AcDbLine
 10
81.00000000000001
 20
1.500000000000052
 30
0.0
 11
81.00000000000001
 21
-1.499999999999948
 31
0.0
  0
SOLID
  5
600
330
5FA
100
AcDbEntity
  8
2
 62
     0
100
AcDbTrace
 10
81.41666666666669
 20
1.500000000000053
 30
0.0
 11
80.58333333333334
 21
1.50000000000005
 31
0.0
 12
81.0
 22
4.000000000000052
 32
0.0
 13
81.0
 23
4.000000000000052
 33
0.0
  0
SOLID
  5
601
330
5FA
100
AcDbEntity
  8
2
 62
     0
100
AcDbTrace
 10
80.58333333333334
 20
-1.499999999999949
 30
0.0
 11
81.41666666666669
 21
-1.499999999999946
 31
0.0
 12
81.00000000000003
 22
-3.999999999999948
 32
0.0
 13
81.00000000000003
 23
-3.999999999999948
 33
0.0
  0
MTEXT
  5
602
330
5FA
100
AcDbEntity
  8
2
 62
     0
100
AcDbMText
 10
78.60925000000002
 20
0.0000000000000435
 30
0.0
 40
3.5
 41
0.0
 71
     5
 72
     1
  1
M8
  7
SIMPLEX
 11
-3.552713678800502E-15
 21
1.0
 31
0.0
 73
     1
 44
1.0
  0
POINT
  5
603
330
5FA
100
AcDbEntity
  8
DEFPOINTS
 62
     0
100
AcDbPoint
 10
66.0
 20
4.0
 30
0.0
  0
POINT
  5
604
330
5FA
100
AcDbEntity
  8
DEFPOINTS
 62
     0
100
AcDbPoint
 10
66.0
 20
-4.0
 30
0.0
  0
POINT
  5
605
330
5FA
100
AcDbEntity
  8
DEFPOINTS
 62
     0
100
AcDbPoint
 10
81.00000000000003
 20
-3.999999999999948
 30
0.0
  0
ENDBLK
  5
5FC
330
5FA
100
AcDbEntity
  8
0
100
AcDbBlockEnd
  0
BLOCK
  5
608
330
607
100
AcDbEntity
  8
0
100
AcDbBlockBegin
  2
*D1
 70
     1
 10
0.0
 20
0.0
 30
0.0
  3
*D1
  1

  0
LINE
  5
60A
330
607
100
AcDbEntity
  8
2
 62
     0
370
    -2
100
AcDbLine
 10
0.0
 20
0.0
 30
0.0
 11
0.0
 21
76.25
 31
0.0
  0
LINE
  5
60B
330
607
100
AcDbEntity
  8
2
 62
     0
370
    -2
100
AcDbLine
 10
66.0
 20
0.0
 30
0.0
 11
66.0
 21
76.25
 31
0.0
  0
LINE
  5
60C
330
607
100
AcDbEntity
  8
2
 62
     0
370
    -2
100
AcDbLine
 10
2.5
 20
75.0
 30
0.0
 11
63.5
 21
75.0
 31
0.0
  0
SOLID
  5
60D
330
607
100
AcDbEntity
  8
2
 62
     0
100
AcDbTrace
 10
2.5
 20
75.41666666666667
 30
0.0
 11
2.5
 21
74.58333333333333
 31
0.0
 12
0.0
 22
75.0
 32
0.0
 13
0.0
 23
75.0
 33
0.0
  0
SOLID
  5
60E
330
607
100
AcDbEntity
  8
2
 62
     0
100
AcDbTrace
 10
63.5
 20
74.58333333333333
 30
0.0
 11
63.5
 21
75.41666666666667
 31
0.0
 12
66.0
 22
75.0
 32
0.0
 13
66.0
 23
75.0
 33
0.0
  0
MTEXT
  5
60F
330
607
100
AcDbEntity
  8
2
 62
     0
100
AcDbMText
 10
33.0
 20
77.39075
 30
0.0
 40
3.5
 41
0.0
 71
     5
 72
     1
  1
66
  7
SIMPLEX
 73
     1
 44
1.0
  0
POINT
  5
610
330
607
100
AcDbEntity
  8
DEFPOINTS
 62
     0
100
AcDbPoint
 10
0.0
 20
0.0
 30
0.0
  0
POINT
  5
611
330
607
100
AcDbEntity
  8
DEFPOINTS
 62
     0
100
AcDbPoint
 10
66.0
 20
0.0
 30
0.0
  0
POINT
  5
612
330
607
100
AcDbEntity
  8
DEFPOINTS
 62
     0
100
AcDbPoint
 10
66.0
 20
75.0
 30
0.0
  0
ENDBLK
  5
609
330
607
100
AcDbEntity
  8
0
100
AcDbBlockEnd
  0
BLOCK
  5
615
330
614
100
AcDbEntity
  8
0
100
AcDbBlockBegin
  2
*D2
 70
     1
 10
0.0
 20
0.0
 30
0.0
  3
*D2
  1

  0
LINE
  5
617
330
614
100
AcDbEntity
  8
SK2
 62
     0
370
    -2
100
AcDbLine
 10
-14.99999999999999
 20
4.0
 30
0.0
 11
-40.25000000002041
 21
3.999999999871139
 31
0.0
  0
LINE
  5
618
330
614
100
AcDbEntity
  8
SK2
 62
     0
370
    -2
100
AcDbLine
 10
-14.99999999999999
 20
-4.0
 30
0.0
 11
-40.24999999997958
 21
-4.00000000012886
 31
0.0
  0
LINE
  5
619
330
614
100
AcDbEntity
  8
SK2
 62
     0
370
    -2
100
AcDbLine
 10
-39.00000000000765
 20
1.499999999877518
 30
0.0
 11
-38.99999999999234
 21
-1.500000000122482
 31
0.0
  0
SOLID
  5
61A
330
614
100
AcDbEntity
  8
SK2
 62
     0
100
AcDbTrace
 10
-38.58333333334098
 20
1.499999999879645
 30
0.0
 11
-39.41666666667431
 21
1.499999999875392
 31
0.0
 12
-39.00000000002041
 22
3.999999999877518
 32
0.0
 13
-39.00000000002041
 23
3.999999999877518
 33
0.0
  0
SOLID
  5
61B
330
614
100
AcDbEntity
  8
SK2
 62
     0
100
AcDbTrace
 10
-39.416666666659
 20
-1.500000000124608
 30
0.0
 11
-38.58333333332568
 21
-1.500000000120355
 31
0.0
 12
-38.99999999997958
 22
-4.000000000122482
 32
0.0
 13
-38.99999999997958
 23
-4.000000000122482
 33
0.0
  0
MTEXT
  5
61C
330
614
100
AcDbEntity
  8
SK2
 62
     0
100
AcDbMText
 10
-41.39074999999999
 20
-0.0000000001346827
 30
0.0
 40
3.5
 41
0.0
 71
     5
 72
     1
  1
%%c8
  7
SIMPLEX
 11
-5.103473199596920E-12
 21
1.0
 31
0.0
 73
     1
 44
1.0
  0
POINT
  5
61D
330
614
100
AcDbEntity
  8
DEFPOINTS
 62
     0
100
AcDbPoint
 10
-14.99999999999999
 20
4.0
 30
0.0
  0
POINT
  5
61E
330
614
100
AcDbEntity
  8
DEFPOINTS
 62
     0
100
AcDbPoint
 10
-14.99999999999999
 20
-4.0
 30
0.0
  0
POINT
  5
61F
330
614
100
AcDbEntity
  8
DEFPOINTS
 62
     0
100
AcDbPoint
 10
-38.99999999997958
 20
-4.000000000122482
 30
0.0
  0
ENDBLK
  5
616
330
614
100
AcDbEntity
  8
0
100
AcDbBlockEnd
  0
BLOCK
  5
622
330
621
100
AcDbEntity
  8
0
100
AcDbBlockBegin
  2
*D3
 70
     1
 10
0.0
 20
0.0
 30
0.0
  3
*D3
  1

  0
LINE
  5
624
330
621
100
AcDbEntity
  8
2
 62
     0
370
    -2
100
AcDbLine
 10
46.70096189
 20
3.25
 30
0.0
 11
46.70096189
 21
61.25
 31
0.0
  0
LINE
  5
625
330
621
100
AcDbEntity
  8
2
 62
     0
370
    -2
100
AcDbLine
 10
66.0
 20
4.0
 30
0.0
 11
66.0
 21
61.25
 31
0.0
  0
LINE
  5
626
330
621
100
AcDbEntity
  8
2
 62
     0
370
    -2
100
AcDbLine
 10
49.20096189
 20
60.0
 30
0.0
 11
63.5
 21
60.0
 31
0.0
  0
SOLID
  5
627
330
621
100
AcDbEntity
  8
2
 62
     0
100
AcDbTrace
 10
49.20096189
 20
60.41666666666666
 30
0.0
 11
49.20096189
 21
59.58333333333334
 31
0.0
 12
46.70096189
 22
60.0
 32
0.0
 13
46.70096189
 23
60.0
 33
0.0
  0
SOLID
  5
628
330
621
100
AcDbEntity
  8
2
 62
     0
100
AcDbTrace
 10
63.5
 20
59.58333333333334
 30
0.0
 11
63.5
 21
60.41666666666666
 31
0.0
 12
66.0
 22
60.0
 32
0.0
 13
66.0
 23
60.0
 33
0.0
  0
MTEXT
  5
629
330
621
100
AcDbEntity
  8
2
 62
     0
100
AcDbMText
 10
56.350480945
 20
62.39775
 30
0.0
 40
3.5
 41
0.0
 71
     5
 72
     1
  1
19.3
  7
SIMPLEX
 73
     1
 44
1.0
  0
POINT
  5
62A
330
621
100
AcDbEntity
  8
DEFPOINTS
 62
     0
100
AcDbPoint
 10
46.70096189
 20
3.25
 30
0.0
  0
POINT
  5
62B
330
621
100
AcDbEntity
  8
DEFPOINTS
 62
     0
100
AcDbPoint
 10
66.0
 20
4.0
 30
0.0
  0
POINT
  5
62C
330
621
100
AcDbEntity
  8
DEFPOINTS
 62
     0
100
AcDbPoint
 10
66.0
 20
60.0
 30
0.0
  0
ENDBLK
  5
623
330
621
100
AcDbEntity
  8
0
100
AcDbBlockEnd
  0
BLOCK
  5
62F
330
62E
100
AcDbEntity
  8
0
100
AcDbBlockBegin
  2
*D4
 70
     1
 10
0.0
 20
0.0
 30
0.0
  3
*D4
  1

  0
LINE
  5
631
330
62E
100
AcDbEntity
  8
SK2
 62
     0
370
    -2
100
AcDbLine
 10
-24.0
 20
4.0
 30
0.0
 11
-24.0
 21
91.25
 31
0.0
  0
LINE
  5
632
330
62E
100
AcDbEntity
  8
SK2
 62
     0
370
    -2
100
AcDbLine
 10
66.1
 20
4.0
 30
0.0
 11
66.1
 21
91.25
 31
0.0
  0
LINE
  5
633
330
62E
100
AcDbEntity
  8
SK2
 62
     0
370
    -2
100
AcDbLine
 10
-21.5
 20
90.0
 30
0.0
 11
63.59999999999999
 21
90.0
 31
0.0
  0
SOLID
  5
634
330
62E
100
AcDbEntity
  8
SK2
 62
     0
100
AcDbTrace
 10
-21.5
 20
90.41666666666667
 30
0.0
 11
-21.5
 21
89.58333333333333
 31
0.0
 12
-24.0
 22
90.0
 32
0.0
 13
-24.0
 23
90.0
 33
0.0
  0
SOLID
  5
635
330
62E
100
AcDbEntity
  8
SK2
 62
     0
100
AcDbTrace
 10
63.59999999999999
 20
89.58333333333333
 30
0.0
 11
63.59999999999999
 21
90.41666666666667
 31
0.0
 12
66.1
 22
90.0
 32
0.0
 13
66.1
 23
90.0
 33
0.0
  0
MTEXT
  5
636
330
62E
100
AcDbEntity
  8
SK2
 62
     0
100
AcDbMText
 10
21.05
 20
92.39775
 30
0.0
 40
3.5
 41
0.0
 71
     5
 72
     1
  1
90.1
  7
SIMPLEX
 73
     1
 44
1.0
  0
POINT
  5
637
330
62E
100
AcDbEntity
  8
DEFPOINTS
 62
     0
100
AcDbPoint
 10
-24.0
 20
4.0
 30
0.0
  0
POINT
  5
638
330
62E
100
AcDbEntity
  8
DEFPOINTS
 62
     0
100
AcDbPoint
 10
66.1
 20
4.0
 30
0.0
  0
POINT
  5
639
330
62E
100
AcDbEntity
  8
DEFPOINTS
 62
     0
100
AcDbPoint
 10
66.1
 20
90.0
 30
0.0
  0
ENDBLK
  5
630
330
62E
100
AcDbEntity
  8
0
100
AcDbBlockEnd
  0
ENDSEC
  0
SECTION
  2
ENTITIES
  0
LINE
  5
3D6
330
18
100
AcDbEntity
  8
SK4
100
AcDbLine
 10
-25.99999999999999
 20
0.0
 30
0.0
 11
25.3
 21
0.0
 31
0.0
  0
LINE
  5
3D7
330
18
100
AcDbEntity
  8
4
100
AcDbLine
 10
23.3
 20
0.0
 30
0.0
 11
68.1
 21
0.0
 31
0.0
  0
LINE
  5
3D8
330
18
100
AcDbEntity
  8
SK4
100
AcDbLine
 10
23.3
 20
0.0
 30
0.0
 11
68.1
 21
0.0
 31
0.0
  0
LINE
  5
3D9
330
18
100
AcDbEntity
  8
1
100
AcDbLine
 10
25.3
 20
4.0
 30
0.0
 11
-0.0000000000000018
 21
4.0
 31
0.0
  0
LINE
  5
3DA
330
18
100
AcDbEntity
  8
1
100
AcDbLine
 10
25.3
 20
4.0
 30
0.0
 11
25.29999999999999
 21
3.996023226822679
 31
0.0
  0
LINE
  5
3DB
330
18
100
AcDbEntity
  8
1
100
AcDbLine
 10
25.29999999999999
 20
3.996023226822679
 30
0.0
 11
25.3
 21
3.641093551027013
 31
0.0
  0
LINE
  5
3DC
330
18
100
AcDbEntity
  8
1
100
AcDbLine
 10
25.3
 20
3.641093551027013
 30
0.0
 11
25.3
 21
-4.0
 31
0.0
  0
LINE
  5
3DD
330
18
100
AcDbEntity
  8
1
100
AcDbLine
 10
25.3
 20
4.0
 30
0.0
 11
29.55346136
 21
3.25
 31
0.0
  0
LINE
  5
3DE
330
18
100
AcDbEntity
  8
1
100
AcDbLine
 10
29.55346136
 20
3.25
 30
0.0
 11
29.55346136
 21
3.246768871793427
 31
0.0
  0
LINE
  5
3DF
330
18
100
AcDbEntity
  8
1
100
AcDbLine
 10
29.55346136
 20
3.246768871793427
 30
0.0
 11
29.55346136
 21
2.958388510209449
 31
0.0
  0
LINE
  5
3E0
330
18
100
AcDbEntity
  8
1
100
AcDbLine
 10
29.55346136
 20
2.958388510209449
 30
0.0
 11
29.55346136
 21
-3.25
 31
0.0
  0
LINE
  5
3E1
330
18
100
AcDbEntity
  8
1
100
AcDbLine
 10
46.70096189000001
 20
2.814970960692272
 30
0.0
 11
42.75548175872562
 21
3.139359250506254
 31
0.0
  0
LINE
  5
3E2
330
18
100
AcDbEntity
  8
1
100
AcDbLine
 10
42.75548175872562
 20
3.139359250506254
 30
0.0
 11
38.81001439509622
 21
3.25
 31
0.0
  0
LINE
  5
3E3
330
18
100
AcDbEntity
  8
1
100
AcDbLine
 10
29.55346136
 20
3.25
 30
0.0
 11
38.81001439509622
 21
3.25
 31
0.0
  0
LINE
  5
3E4
330
18
100
AcDbEntity
  8
1
100
AcDbLine
 10
34.0
 20
-0.6602539561513656
 30
0.0
 11
40.35048374582823
 21
-1.903592105817768
 31
0.0
  0
LINE
  5
3E5
330
18
100
AcDbEntity
  8
1
100
AcDbLine
 10
40.35048374582823
 20
-1.903592105817768
 30
0.0
 11
46.70096188999999
 21
-2.814194003048838
 31
0.0
  0
LINE
  5
3E6
330
18
100
AcDbEntity
  8
1
100
AcDbLine
 10
46.70096189
 20
-1.961979162670391
 30
0.0
 11
46.70096188999999
 21
1.013797593774803
 31
0.0
  0
LINE
  5
3E7
330
18
100
AcDbEntity
  8
1
100
AcDbLine
 10
34.0
 20
2.979105254351117
 30
0.0
 11
37.17524041602123
 21
2.641739291257034
 31
0.0
  0
LINE
  5
3E8
330
18
100
AcDbEntity
  8
1
100
AcDbLine
 10
37.17524041602123
 20
2.641739291257034
 30
0.0
 11
40.35048377221946
 21
2.187643639732372
 31
0.0
  0
LINE
  5
3E9
330
18
100
AcDbEntity
  8
1
100
AcDbLine
 10
40.35048377221946
 20
2.187643639732372
 30
0.0
 11
46.70096189
 21
1.013797593774801
 31
0.0
  0
LINE
  5
3EA
330
18
100
AcDbEntity
  8
1
100
AcDbLine
 10
33.99999999999999
 20
2.979105254351107
 30
0.0
 11
33.99999999999999
 21
-0.6602539561513663
 31
0.0
  0
LINE
  5
3EB
330
18
100
AcDbEntity
  8
1
100
AcDbLine
 10
33.99999999999999
 20
-2.614529921445607
 30
0.0
 11
38.79473748171664
 21
-3.087047062316028
 31
0.0
  0
LINE
  5
3EC
330
18
100
AcDbEntity
  8
1
100
AcDbLine
 10
38.79473748171664
 20
-3.087047062316028
 30
0.0
 11
43.58946754945221
 21
-3.249999999968452
 31
0.0
  0
LINE
  5
3ED
330
18
100
AcDbEntity
  8
1
100
AcDbLine
 10
34.0
 20
-2.614529921445629
 30
0.0
 11
33.99999999999999
 21
-3.25
 31
0.0
  0
LINE
  5
3EE
330
18
100
AcDbEntity
  8
1
100
AcDbLine
 10
46.70096189
 20
2.814970960692271
 30
0.0
 11
46.70096189000001
 21
1.013797593774823
 31
0.0
  0
LINE
  5
3EF
330
18
100
AcDbEntity
  8
1
100
AcDbLine
 10
46.70096189
 20
-2.814194003048838
 30
0.0
 11
46.70096189
 21
-1.961979162670392
 31
0.0
  0
LINE
  5
3F0
330
18
100
AcDbEntity
  8
1
100
AcDbLine
 10
46.70096189000001
 20
-2.814194003048837
 30
0.0
 11
46.70096189
 21
-3.25
 31
0.0
  0
LINE
  5
3F1
330
18
100
AcDbEntity
  8
1
100
AcDbLine
 10
-0.0000000000000013
 20
-4.0
 30
0.0
 11
25.29999999999999
 21
-4.0
 31
0.0
  0
LINE
  5
3F2
330
18
100
AcDbEntity
  8
1
100
AcDbLine
 10
25.3
 20
-4.0
 30
0.0
 11
29.55346136
 21
-3.25
 31
0.0
  0
LINE
  5
3F3
330
18
100
AcDbEntity
  8
1
100
AcDbLine
 10
29.55346136
 20
-3.25
 30
0.0
 11
34.0
 21
-3.25
 31
0.0
  0
LINE
  5
3F4
330
18
100
AcDbEntity
  8
1
100
AcDbLine
 10
43.58946754945218
 20
-3.25
 30
0.0
 11
46.70096189
 21
-3.25
 31
0.0
  0
LINE
  5
3F5
330
18
100
AcDbEntity
  8
1
 62
     1
100
AcDbLine
 10
66.0
 20
0.1
 30
0.0
 11
66.1
 21
0.0
 31
0.0
  0
LINE
  5
3F6
330
18
100
AcDbEntity
  8
1
 62
     1
100
AcDbLine
 10
60.36345298923244
 20
4.0
 30
0.0
 11
60.3865470107676
 21
4.0
 31
0.0
  0
LINE
  5
3F7
330
18
100
AcDbEntity
  8
1
 62
     1
100
AcDbLine
 10
62.86345298923243
 20
4.0
 30
0.0
 11
62.88654701076763
 21
4.0
 31
0.0
  0
LINE
  5
3F8
330
18
100
AcDbEntity
  8
1
 62
     1
100
AcDbLine
 10
59.11345298923242
 20
4.0
 30
0.0
 11
59.13654701076759
 21
4.0
 31
0.0
  0
LINE
  5
3F9
330
18
100
AcDbEntity
  8
1
 62
     1
100
AcDbLine
 10
48.5
 20
-2.937468749999999
 30
0.0
 11
47.91491026792317
 21
-3.950873420443675
 31
0.0
  0
LINE
  5
3FA
330
18
100
AcDbEntity
  8
1
 62
     1
100
AcDbLine
 10
51.61345298923241
 20
-3.999999999999989
 30
0.0
 11
51.00000000000001
 21
-2.937468749999999
 31
0.0
  0
LINE
  5
3FB
330
18
100
AcDbEntity
  8
1
 62
     1
100
AcDbLine
 10
52.25000000000001
 20
-2.937468749999999
 30
0.0
 11
51.63654701076761
 21
-3.999999999999953
 31
0.0
  0
ARC
  5
3FC
330
18
100
AcDbEntity
  8
1
 62
     1
100
AcDbCircle
 10
68.42895976470649
 20
27.84820141517525
 30
0.0
 40
28.69538905679063
100
AcDbArc
 50
263.2664423005597
 51
264.7327444306549
  0
LINE
  5
3FD
330
18
100
AcDbEntity
  8
1
 62
     1
100
AcDbLine
 10
65.79467951030632
 20
-2.678670608971878
 30
0.0
 11
65.06435619711971
 21
-2.744237408408486
 31
0.0
  0
LINE
  5
3FE
330
18
100
AcDbEntity
  8
1
 62
     1
100
AcDbLine
 10
65.79467951030632
 20
-0.7260162481405047
 30
0.0
 11
65.79467951030634
 21
-2.678670608971879
 31
0.0
  0
LINE
  5
3FF
330
18
100
AcDbEntity
  8
1
 62
     1
100
AcDbLine
 10
64.32530504827164
 20
-0.5523023131917811
 30
0.0
 11
63.97673562110332
 21
-0.4998426244862109
 31
0.0
  0
LINE
  5
400
330
18
100
AcDbEntity
  8
1
 62
     1
100
AcDbLine
 10
63.97673562110331
 20
-0.4998426244863413
 30
0.0
 11
63.97673562110332
 21
-2.830391465991787
 31
0.0
  0
LINE
  5
401
330
18
100
AcDbEntity
  8
1
 62
     1
100
AcDbLine
 10
64.32530504827164
 20
-2.804136279048369
 30
0.0
 11
63.97673562110331
 21
-2.830391465991787
 31
0.0
  0
LINE
  5
402
330
18
100
AcDbEntity
  8
1
 62
     1
100
AcDbLine
 10
64.75
 20
-2.345847865809046
 30
0.0
 11
64.90949087367382
 21
-2.497023598119007
 31
0.0
  0
ARC
  5
403
330
18
100
AcDbEntity
  8
1
 62
     1
100
AcDbCircle
 10
86.81290126335541
 20
-20.7028485637739
 30
0.0
 40
28.70105854071493
100
AcDbArc
 50
140.2385203410391
 51
141.5831786317694
  0
ARC
  5
404
330
18
100
AcDbEntity
  8
1
 62
     1
100
AcDbCircle
 10
73.21866494752373
 20
6.378817454830821
 30
0.0
 40
13.15315193748152
100
AcDbArc
 50
222.3635018386128
 51
225.360743781367
  0
LINE
  5
405
330
18
100
AcDbEntity
  8
1
 62
     1
100
AcDbLine
 10
62.86345298923243
 20
-0.2892523954986104
 30
0.0
 11
62.86345298923244
 21
-2.857784574138311
 31
0.0
  0
LINE
  5
406
330
18
100
AcDbEntity
  8
1
 62
     1
100
AcDbLine
 10
59.11345298923243
 20
0.7017058154120578
 30
0.0
 11
59.11345298923241
 21
-2.080909166268392
 31
0.0
  0
LINE
  5
407
330
18
100
AcDbEntity
  8
1
 62
     1
100
AcDbLine
 10
57.86345298923241
 20
1.025399512844406
 30
0.0
 11
57.86345298923241
 21
-1.790873327509581
 31
0.0
  0
LINE
  5
408
330
18
100
AcDbEntity
  8
1
 62
     1
100
AcDbLine
 10
49.11345298923241
 20
2.977449621880821
 30
0.0
 11
49.1134529892324
 21
0.4634509766692322
 31
0.0
  0
LINE
  5
409
330
18
100
AcDbEntity
  8
1
 62
     1
100
AcDbLine
 10
54.75000000000001
 20
-2.937024005849821
 30
0.0
 11
54.82650387788008
 21
-3.069977291682168
 31
0.0
  0
LINE
  5
40A
330
18
100
AcDbEntity
  8
1
 62
     1
100
AcDbLine
 10
54.75000000000001
 20
-2.937468749993373
 30
0.0
 11
54.75000000000001
 21
-2.937468748097937
 31
0.0
  0
LINE
  5
40B
330
18
100
AcDbEntity
  8
1
 62
     1
100
AcDbLine
 10
54.75000000000001
 20
-2.937468748097937
 30
0.0
 11
54.75000000000001
 21
-2.937468259574627
 31
0.0
  0
LINE
  5
40C
330
18
100
AcDbEntity
  8
1
 62
     1
100
AcDbLine
 10
54.75000000000001
 20
-2.937468259574627
 30
0.0
 11
54.75000000000001
 21
-2.937433238818641
 31
0.0
  0
LINE
  5
40D
330
18
100
AcDbEntity
  8
1
 62
     1
100
AcDbLine
 10
54.75000000000001
 20
-2.937433238818641
 30
0.0
 11
54.75000000000001
 21
-2.937024005849821
 31
0.0
  0
LINE
  5
40E
330
18
100
AcDbEntity
  8
1
 62
     1
100
AcDbLine
 10
54.82650387788007
 20
-3.069977291682171
 30
0.0
 11
54.75000000000001
 21
-2.937468749999999
 31
0.0
  0
ARC
  5
40F
330
18
100
AcDbEntity
  8
1
 62
     1
100
AcDbCircle
 10
105.846501994603
 20
26.4017710516423
 30
0.0
 40
58.92049363668495
100
AcDbArc
 50
210.0129174078916
 51
211.0409168900806
  0
ARC
  5
410
330
18
100
AcDbEntity
  8
1
 62
     1
100
AcDbCircle
 10
608.1240239442504
 20
-326.6131045225474
 30
0.0
 40
640.00848428222
100
AcDbArc
 50
149.6190957406004
 51
149.7278710733571
  0
ARC
  5
411
330
18
100
AcDbEntity
  8
1
 62
     1
100
AcDbCircle
 10
96.57791538234878
 20
21.19501336697252
 30
0.0
 40
47.20847788701149
100
AcDbArc
 50
210.7342080227282
 51
212.1613648939266
  0
ARC
  5
412
330
18
100
AcDbEntity
  8
1
 62
     1
100
AcDbCircle
 10
102.2618394263013
 20
-31.26497698233041
 30
0.0
 40
49.21698003380875
100
AcDbArc
 50
144.3869064264067
 51
145.6323675205845
  0
ARC
  5
413
330
18
100
AcDbEntity
  8
1
 62
     1
100
AcDbCircle
 10
77.34208176537736
 20
9.577420888702227
 30
0.0
 40
20.44544995656057
100
AcDbArc
 50
216.9365411279861
 51
219.709117445433
  0
ARC
  5
414
330
18
100
AcDbEntity
  8
1
 62
     1
100
AcDbCircle
 10
115.6134250934195
 20
-39.62975286062122
 30
0.0
 40
65.92247739901518
100
AcDbArc
 50
145.9397148070257
 51
146.903804152745
  0
ARC
  5
415
330
18
100
AcDbEntity
  8
1
 62
     1
100
AcDbCircle
 10
136.5796870185787
 20
-52.29173258218012
 30
0.0
 40
91.39394564871596
100
AcDbArc
 50
147.2080449924563
 51
147.9251743716468
  0
ARC
  5
416
330
18
100
AcDbEntity
  8
1
 62
     1
100
AcDbCircle
 10
80.5528168736357
 20
11.71899956105573
 30
0.0
 40
25.36481918286156
100
AcDbArc
 50
214.9007380111163
 51
217.2540250557276
  0
ARC
  5
417
330
18
100
AcDbEntity
  8
1
 62
     1
100
AcDbCircle
 10
84.68192969750365
 20
14.28775011030532
 30
0.0
 40
31.29716586674735
100
AcDbArc
 50
213.2214582068538
 51
215.2185631982477
  0
ARC
  5
418
330
18
100
AcDbEntity
  8
1
 62
     1
100
AcDbCircle
 10
89.92518071828738
 20
17.39089436419054
 30
0.0
 40
38.46554723978869
100
AcDbArc
 50
211.8463374511318
 51
213.5381882511072
  0
ARC
  5
419
330
18
100
AcDbEntity
  8
1
 62
     1
100
AcDbCircle
 10
93.20075299983725
 20
-25.27007999724469
 30
0.0
 40
37.4343395361455
100
AcDbArc
 50
142.5052289242084
 51
144.0760824627529
  0
ARC
  5
41A
330
18
100
AcDbEntity
  8
1
 62
     1
100
AcDbCircle
 10
256.1405108168091
 20
-122.2983303943764
 30
0.0
 40
231.9744267811471
100
AcDbArc
 50
149.0237805053042
 51
149.3194700502803
  0
ARC
  5
41B
330
18
100
AcDbEntity
  8
1
 62
     1
100
AcDbCircle
 10
173.5969184447232
 20
-74.14732351878897
 30
0.0
 40
135.3856674701302
100
AcDbArc
 50
148.2269837237375
 51
148.723549830971
  0
ARC
  5
41C
330
18
100
AcDbEntity
  8
1
 62
     1
100
AcDbCircle
 10
74.91008555705224
 20
7.791638165956181
 30
0.0
 40
16.38223756336045
100
AcDbArc
 50
219.3946149151363
 51
222.6633264536797
  0
LINE
  5
41D
330
18
100
AcDbEntity
  8
1
 62
     1
100
AcDbLine
 10
51.63654701076759
 20
-3.955894238208723
 30
0.0
 11
52.25000000000001
 21
-2.888306143461495
 31
0.0
  0
LINE
  5
41E
330
18
100
AcDbEntity
  8
1
 62
     1
100
AcDbLine
 10
51.63654701076761
 20
-3.955894238208732
 30
0.0
 11
51.63654701076761
 21
-4.0
 31
0.0
  0
ARC
  5
41F
330
18
100
AcDbEntity
  8
1
 62
     1
100
AcDbCircle
 10
131.859051972108
 20
40.68332050456059
 30
0.0
 40
90.75290207361277
100
AcDbArc
 50
208.6927697838576
 51
209.4894031778744
  0
LINE
  5
420
330
18
100
AcDbEntity
  8
1
 62
     1
100
AcDbLine
 10
52.25000000000001
 20
-2.937468749999999
 30
0.0
 11
52.25000000000001
 21
-2.937457504364485
 31
0.0
  0
LINE
  5
421
330
18
100
AcDbEntity
  8
1
 62
     1
100
AcDbLine
 10
52.25000000000001
 20
-2.937457504364485
 30
0.0
 11
52.25000000000001
 21
-2.934160189350987
 31
0.0
  0
LINE
  5
422
330
18
100
AcDbEntity
  8
1
 62
     1
100
AcDbLine
 10
52.25000000000001
 20
-2.934160189350987
 30
0.0
 11
52.25000000000001
 21
-2.888306143461495
 31
0.0
  0
LINE
  5
423
330
18
100
AcDbEntity
  8
1
 62
     1
100
AcDbLine
 10
52.86345298923241
 20
-3.999999999999989
 30
0.0
 11
52.25000000000001
 21
-2.937468749999999
 31
0.0
  0
LINE
  5
424
330
18
100
AcDbEntity
  8
1
 62
     1
100
AcDbLine
 10
52.86345298923241
 20
-3.990954117513023
 30
0.0
 11
52.86345298923241
 21
-4.0
 31
0.0
  0
LINE
  5
425
330
18
100
AcDbEntity
  8
1
 62
     1
100
AcDbLine
 10
52.88654701076759
 20
-3.991361244352484
 30
0.0
 11
53.50000000000001
 21
-2.922703552191389
 31
0.0
  0
LINE
  5
426
330
18
100
AcDbEntity
  8
1
 62
     1
100
AcDbLine
 10
52.88654701076758
 20
-3.991361244352483
 30
0.0
 11
52.88654701076759
 21
-4.0
 31
0.0
  0
LINE
  5
427
330
18
100
AcDbEntity
  8
1
 62
     1
100
AcDbLine
 10
53.50000000000001
 20
-2.937468749999999
 30
0.0
 11
52.88654701076759
 21
-4.000000000000002
 31
0.0
  0
ARC
  5
428
330
18
100
AcDbEntity
  8
1
 62
     1
100
AcDbCircle
 10
115.2887753038647
 20
31.57267921906077
 30
0.0
 40
70.76570420514766
100
AcDbArc
 50
209.1737107760353
 51
210.0188608071025
  0
LINE
  5
429
330
18
100
AcDbEntity
  8
1
 62
     1
100
AcDbLine
 10
53.50000000000001
 20
-2.937468749999999
 30
0.0
 11
53.5
 21
-2.937465279642666
 31
0.0
  0
LINE
  5
42A
330
18
100
AcDbEntity
  8
1
 62
     1
100
AcDbLine
 10
53.5
 20
-2.937465279642666
 30
0.0
 11
53.50000000000001
 21
-2.93645569505132
 31
0.0
  0
LINE
  5
42B
330
18
100
AcDbEntity
  8
1
 62
     1
100
AcDbLine
 10
53.50000000000001
 20
-2.93645569505132
 30
0.0
 11
53.50000000000001
 21
-2.922703552191389
 31
0.0
  0
LINE
  5
42C
330
18
100
AcDbEntity
  8
1
 62
     1
100
AcDbLine
 10
54.01550903483808
 20
-3.830356173791288
 30
0.0
 11
53.50000000000001
 21
-2.937468749999999
 31
0.0
  0
LINE
  5
42D
330
18
100
AcDbEntity
  8
1
 62
     1
100
AcDbLine
 10
54.01550903483808
 20
-3.830356173791288
 30
0.0
 11
54.11345298923243
 21
-3.999510818988874
 31
0.0
  0
LINE
  5
42E
330
18
100
AcDbEntity
  8
1
 62
     1
100
AcDbLine
 10
54.75000000000001
 20
-2.937024005849821
 30
0.0
 11
54.54090454911931
 21
-3.299632525691051
 31
0.0
  0
LINE
  5
42F
330
18
100
AcDbEntity
  8
1
 62
     1
100
AcDbLine
 10
54.54090454911931
 20
-3.299632525691051
 30
0.0
 11
54.54087372846055
 21
-3.299685908619894
 31
0.0
  0
LINE
  5
430
330
18
100
AcDbEntity
  8
1
 62
     1
100
AcDbLine
 10
54.75000000000001
 20
-2.937468749999999
 30
0.0
 11
54.54087372846055
 21
-3.299685908619899
 31
0.0
  0
LINE
  5
431
330
18
100
AcDbEntity
  8
1
 62
     1
100
AcDbLine
 10
54.13654701076759
 20
-3.999410311447988
 30
0.0
 11
54.54087372846055
 21
-3.299685908619894
 31
0.0
  0
ARC
  5
432
330
18
100
AcDbEntity
  8
1
 62
     1
100
AcDbCircle
 10
154.8240809180311
 20
53.26314824046771
 30
0.0
 40
118.0099124511347
100
AcDbArc
 50
208.3828078143532
 51
209.0032040319057
  0
LINE
  5
433
330
18
100
AcDbEntity
  8
1
 62
     1
100
AcDbLine
 10
51.6134529892324
 20
-3.954982275364815
 30
0.0
 11
51.61345298923241
 21
-4.0
 31
0.0
  0
ARC
  5
434
330
18
100
AcDbEntity
  8
1
 62
     1
100
AcDbCircle
 10
-51.54273208763104
 20
55.85641774008545
 30
0.0
 40
118.1507458520112
100
AcDbArc
 50
329.621700534416
 51
330.2152715246777
  0
LINE
  5
435
330
18
100
AcDbEntity
  8
1
 62
     1
100
AcDbLine
 10
50.3865470107676
 20
-3.89325292334348
 30
0.0
 11
50.38654701076759
 21
-4.0
 31
0.0
  0
LINE
  5
436
330
18
100
AcDbEntity
  8
1
 62
     1
100
AcDbLine
 10
51.00000000000001
 20
-2.937468749999999
 30
0.0
 11
50.38654701076759
 21
-3.99999999999999
 31
0.0
  0
LINE
  5
437
330
18
100
AcDbEntity
  8
1
 62
     1
100
AcDbLine
 10
51.00000000000001
 20
-2.937468749999999
 30
0.0
 11
51.00000000000001
 21
-2.937445644373443
 31
0.0
  0
LINE
  5
438
330
18
100
AcDbEntity
  8
1
 62
     1
100
AcDbLine
 10
51.00000000000001
 20
-2.937445644373443
 30
0.0
 11
51.00000000000001
 21
-2.930620139112725
 31
0.0
  0
LINE
  5
439
330
18
100
AcDbEntity
  8
1
 62
     1
100
AcDbLine
 10
51.00000000000001
 20
-2.930620139112725
 30
0.0
 11
51.00000000000001
 21
-2.834068092258655
 31
0.0
  0
LINE
  5
43A
330
18
100
AcDbEntity
  8
1
 62
     1
100
AcDbLine
 10
47.79517943644063
 20
3.119327013585314
 30
0.0
 11
47.79517943644063
 21
0.8217214324339731
 31
0.0
  0
LINE
  5
43B
330
18
100
AcDbEntity
  8
1
 62
     1
100
AcDbLine
 10
46.97741037642056
 20
2.900174775693316
 30
0.0
 11
46.70096189
 21
2.814970960692272
 31
0.0
  0
LINE
  5
43C
330
18
100
AcDbEntity
  8
1
 62
     1
100
AcDbLine
 10
47.25
 20
-2.556700576752631
 30
0.0
 11
47.79517943644062
 21
-3.560492799811929
 31
0.0
  0
LINE
  5
43D
330
18
100
AcDbEntity
  8
1
 62
     1
100
AcDbLine
 10
47.25
 20
-2.937468749999999
 30
0.0
 11
47.25
 21
-2.937387684991867
 31
0.0
  0
LINE
  5
43E
330
18
100
AcDbEntity
  8
1
 62
     1
100
AcDbLine
 10
47.25
 20
-2.937387684991867
 30
0.0
 11
47.24999999999999
 21
-2.91294585875773
 31
0.0
  0
LINE
  5
43F
330
18
100
AcDbEntity
  8
1
 62
     1
100
AcDbLine
 10
47.24999999999999
 20
-2.91294585875773
 30
0.0
 11
47.24999999999999
 21
-2.55670057675263
 31
0.0
  0
LINE
  5
440
330
18
100
AcDbEntity
  8
1
 62
     1
100
AcDbLine
 10
47.79517943644062
 20
-3.881746792886987
 30
0.0
 11
47.25
 21
-2.937468749999999
 31
0.0
  0
LINE
  5
441
330
18
100
AcDbEntity
  8
1
 62
     1
100
AcDbLine
 10
46.97741037642055
 20
-3.002764988242775
 30
0.0
 11
47.25
 21
-2.556700576752631
 31
0.0
  0
LINE
  5
442
330
18
100
AcDbEntity
  8
1
 62
     1
100
AcDbLine
 10
47.25
 20
-2.937468749999999
 30
0.0
 11
46.97741037642055
 21
-3.409607607520773
 31
0.0
  0
ARC
  5
443
330
18
100
AcDbEntity
  8
1
 62
     1
100
AcDbCircle
 10
193.2072327222012
 20
74.29240992223946
 30
0.0
 40
162.8407507300944
100
AcDbArc
 50
208.2408319439226
 51
208.6936939347409
  0
LINE
  5
444
330
18
100
AcDbEntity
  8
1
 62
     1
100
AcDbLine
 10
50.3634529892324
 20
-3.999999999999977
 30
0.0
 11
49.75
 21
-2.937468749999999
 31
0.0
  0
LINE
  5
445
330
18
100
AcDbEntity
  8
1
 62
     1
100
AcDbLine
 10
50.36345298923241
 20
-3.891842384808234
 30
0.0
 11
50.3634529892324
 21
-4.0
 31
0.0
  0
ARC
  5
446
330
18
100
AcDbEntity
  8
1
 62
     1
100
AcDbCircle
 10
-27.26496130215425
 20
41.81844274685751
 30
0.0
 40
88.98642594435434
100
AcDbArc
 50
329.1569328335639
 51
329.9363232665324
  0
LINE
  5
447
330
18
100
AcDbEntity
  8
1
 62
     1
100
AcDbLine
 10
49.13654701076757
 20
-3.803867698209694
 30
0.0
 11
49.13654701076759
 21
-4.0
 31
0.0
  0
LINE
  5
448
330
18
100
AcDbEntity
  8
1
 62
     1
100
AcDbLine
 10
49.75
 20
-2.937468749999999
 30
0.0
 11
49.13654701076759
 21
-4.000000000000002
 31
0.0
  0
LINE
  5
449
330
18
100
AcDbEntity
  8
1
 62
     1
100
AcDbLine
 10
49.75
 20
-2.937468749999999
 30
0.0
 11
49.74999999999999
 21
-2.937429946705952
 31
0.0
  0
LINE
  5
44A
330
18
100
AcDbEntity
  8
1
 62
     1
100
AcDbLine
 10
49.74999999999999
 20
-2.937429946705952
 30
0.0
 11
49.75000000000001
 21
-2.925885408380704
 31
0.0
  0
LINE
  5
44B
330
18
100
AcDbEntity
  8
1
 62
     1
100
AcDbLine
 10
49.75000000000001
 20
-2.925885408380704
 30
0.0
 11
49.75
 21
-2.760361898709395
 31
0.0
  0
ARC
  5
44C
330
18
100
AcDbEntity
  8
1
 62
     1
100
AcDbCircle
 10
-11.25340208073658
 20
32.55621398893958
 30
0.0
 40
69.36280890491308
100
AcDbArc
 50
328.5423765560591
 51
329.4811646432844
  0
LINE
  5
44D
330
18
100
AcDbEntity
  8
1
 62
     1
100
AcDbLine
 10
47.91491026792316
 20
-3.642006680332354
 30
0.0
 11
47.91491026792317
 21
-3.950873420443667
 31
0.0
  0
LINE
  5
44E
330
18
100
AcDbEntity
  8
1
 62
     1
100
AcDbLine
 10
48.5
 20
-2.667693825135189
 30
0.0
 11
49.11345298923241
 21
-3.801968272375308
 31
0.0
  0
LINE
  5
44F
330
18
100
AcDbEntity
  8
1
 62
     1
100
AcDbLine
 10
48.5
 20
-2.937468749999999
 30
0.0
 11
48.49999999999999
 21
-2.937410588457004
 31
0.0
  0
LINE
  5
450
330
18
100
AcDbEntity
  8
1
 62
     1
100
AcDbLine
 10
48.49999999999999
 20
-2.937410588457004
 30
0.0
 11
48.5
 21
-2.919988489625459
 31
0.0
  0
LINE
  5
451
330
18
100
AcDbEntity
  8
1
 62
     1
100
AcDbLine
 10
48.5
 20
-2.919988489625459
 30
0.0
 11
48.5
 21
-2.667693825135189
 31
0.0
  0
LINE
  5
452
330
18
100
AcDbEntity
  8
1
 62
     1
100
AcDbLine
 10
49.1134529892324
 20
-3.999999999999989
 30
0.0
 11
48.5
 21
-2.937468749999999
 31
0.0
  0
LINE
  5
453
330
18
100
AcDbEntity
  8
1
 62
     1
100
AcDbLine
 10
49.11345298923241
 20
-3.801968272375307
 30
0.0
 11
49.11345298923241
 21
-4.0
 31
0.0
  0
LINE
  5
454
330
18
100
AcDbEntity
  8
1
 62
     1
100
AcDbLine
 10
65.79467951030631
 20
2.998218787640052
 30
0.0
 11
65.06435619711972
 21
3.22814928294398
 31
0.0
  0
LINE
  5
455
330
18
100
AcDbEntity
  8
1
 62
     1
100
AcDbLine
 10
65.79467951030632
 20
3.293094104173935
 30
0.0
 11
65.79467951030632
 21
3.293030469984655
 31
0.0
  0
LINE
  5
456
330
18
100
AcDbEntity
  8
1
 62
     1
100
AcDbLine
 10
65.79467951030632
 20
3.293030469984655
 30
0.0
 11
65.79467951030631
 21
3.273977520562618
 31
0.0
  0
LINE
  5
457
330
18
100
AcDbEntity
  8
1
 62
     1
100
AcDbLine
 10
65.79467951030631
 20
3.273977520562618
 30
0.0
 11
65.79467951030632
 21
2.998218787640051
 31
0.0
  0
LINE
  5
458
330
18
100
AcDbEntity
  8
1
 62
     1
100
AcDbLine
 10
65.0643561971197
 20
3.481949401221176
 30
0.0
 11
65.79467951030632
 21
3.293094104173935
 31
0.0
  0
LINE
  5
459
330
18
100
AcDbEntity
  8
1
 62
     1
100
AcDbLine
 10
64.32530504827169
 20
3.456612167066519
 30
0.0
 11
63.97673562110333
 21
3.562964657970937
 31
0.0
  0
LINE
  5
45A
330
18
100
AcDbEntity
  8
1
 62
     1
100
AcDbLine
 10
63.97673562110332
 20
3.763198682531979
 30
0.0
 11
64.32530504827167
 21
3.673061641141045
 31
0.0
  0
ARC
  5
45B
330
18
100
AcDbEntity
  8
1
 62
     1
100
AcDbCircle
 10
62.41745924015751
 20
4.935855796996131
 30
0.0
 40
6.59260301687155
100
AcDbArc
 50
300.8154315326439
 51
302.916632226867
  0
ARC
  5
45C
330
18
100
AcDbEntity
  8
1
 62
     1
100
AcDbCircle
 10
71.96416163730322
 20
-7.222386869191699
 30
0.0
 40
7.66210364311865
100
AcDbArc
 50
141.1141816942519
 51
143.6290002975406
  0
ARC
  5
45D
330
18
100
AcDbEntity
  8
1
 62
     1
100
AcDbCircle
 10
57.24127144099805
 20
-8.365873107401997
 30
0.0
 40
10.3556846791332
100
AcDbArc
 50
49.42747094699828
 51
52.81601273726638
  0
LINE
  5
45E
330
18
100
AcDbEntity
  8
1
 62
     1
100
AcDbLine
 10
63.50000000000001
 20
-2.10262523541688
 30
0.0
 11
63.50000000000001
 21
-0.1155158433689135
 31
0.0
  0
ARC
  5
45F
330
18
100
AcDbEntity
  8
1
 62
     1
100
AcDbCircle
 10
58.79470783603232
 20
-5.69816062506626
 30
0.0
 40
5.92192820864262
100
AcDbArc
 50
28.96043797203018
 51
37.3851492440638
  0
ARC
  5
460
330
18
100
AcDbEntity
  8
1
 62
     1
100
AcDbCircle
 10
62.28190693084961
 20
4.479475004217154
 30
0.0
 40
5.430864261590384
100
AcDbArc
 50
292.1020060525735
 51
297.0299195094086
  0
LINE
  5
461
330
18
100
AcDbEntity
  8
1
 62
     1
100
AcDbLine
 10
64.32530504827167
 20
-0.5523023131917852
 30
0.0
 11
64.32530504827169
 21
-2.804136279048366
 31
0.0
  0
ARC
  5
462
330
18
100
AcDbEntity
  8
1
 62
     1
100
AcDbCircle
 10
69.58988041710286
 20
-6.514273595887878
 30
0.0
 40
6.440534229711635
100
AcDbArc
 50
138.7196108524504
 51
144.8262576083446
  0
LINE
  5
463
330
18
100
AcDbEntity
  8
1
 62
     1
100
AcDbLine
 10
64.74999999999999
 20
-2.265268975869031
 30
0.0
 11
64.75
 21
-0.3581836190915089
 31
0.0
  0
ARC
  5
464
330
18
100
AcDbEntity
  8
1
 62
     1
100
AcDbCircle
 10
55.837837965914
 20
-10.2983756982016
 30
0.0
 40
13.3504335974751
100
AcDbArc
 50
46.2825784139846
 51
48.12128147071219
  0
ARC
  5
465
330
18
100
AcDbEntity
  8
1
 62
     1
100
AcDbCircle
 10
59.48387800120342
 20
-6.061290094539663
 30
0.0
 40
6.491706873824174
100
AcDbArc
 50
30.72737453770418
 51
35.78549797267909
  0
LINE
  5
466
330
18
100
AcDbEntity
  8
1
 62
     1
100
AcDbLine
 10
65.0643561971197
 20
-0.6492515390979675
 30
0.0
 11
65.0643561971197
 21
-2.744237408408491
 31
0.0
  0
LINE
  5
467
330
18
100
AcDbEntity
  8
1
 62
     1
100
AcDbLine
 10
61.61345298923241
 20
4.0
 30
0.0
 11
61.6365470107676
 21
4.0
 31
0.0
  0
ARC
  5
468
330
18
100
AcDbEntity
  8
1
 62
     1
100
AcDbCircle
 10
55.99636433007859
 20
-2.634547406597515
 30
0.0
 40
4.330553501986974
100
AcDbArc
 50
98.40394124402086
 51
106.7267017801489
  0
LINE
  5
469
330
18
100
AcDbEntity
  8
1
 62
     1
100
AcDbLine
 10
54.75000000000001
 20
-0.6336627537606285
 30
0.0
 11
54.75
 21
1.512778070248799
 31
0.0
  0
LINE
  5
46A
330
18
100
AcDbEntity
  8
1
 62
     1
100
AcDbLine
 10
54.75000000000001
 20
-0.6336627537597848
 30
0.0
 11
54.78958924346073
 21
-0.6521981951977982
 31
0.0
  0
LINE
  5
46B
330
18
100
AcDbEntity
  8
1
 62
     1
100
AcDbLine
 10
54.78958924346073
 20
-0.6521981951977982
 30
0.0
 11
54.82911519873235
 21
-0.6729593643270495
 31
0.0
  0
LINE
  5
46C
330
18
100
AcDbEntity
  8
1
 62
     1
100
AcDbLine
 10
54.82911519873235
 20
-0.6729593643270495
 30
0.0
 11
54.86853882604715
 21
-0.6959049059656859
 31
0.0
  0
LINE
  5
46D
330
18
100
AcDbEntity
  8
1
 62
     1
100
AcDbLine
 10
54.86853882604715
 20
-0.6959049059656859
 30
0.0
 11
54.90784957894767
 21
-0.7210065902878712
 31
0.0
  0
LINE
  5
46E
330
18
100
AcDbEntity
  8
1
 62
     1
100
AcDbLine
 10
54.90784957894767
 20
-0.7210065902878712
 30
0.0
 11
54.94701405126681
 21
-0.7482198035095217
 31
0.0
  0
LINE
  5
46F
330
18
100
AcDbEntity
  8
1
 62
     1
100
AcDbLine
 10
54.94701405126681
 20
-0.7482198035095217
 30
0.0
 11
54.98601523372804
 21
-0.7775110518055244
 31
0.0
  0
LINE
  5
470
330
18
100
AcDbEntity
  8
1
 62
     1
100
AcDbLine
 10
54.98601523372804
 20
-0.7775110518055244
 30
0.0
 11
55.06345362608387
 21
-0.8421712666546511
 31
0.0
  0
LINE
  5
471
330
18
100
AcDbEntity
  8
1
 62
     1
100
AcDbLine
 10
55.06345362608387
 20
-0.8421712666546511
 30
0.0
 11
55.14002956659147
 21
-0.9146768768308053
 31
0.0
  0
LINE
  5
472
330
18
100
AcDbEntity
  8
1
 62
     1
100
AcDbLine
 10
55.14002956659147
 20
-0.9146768768308053
 30
0.0
 11
55.21562313575473
 21
-0.9947044337814233
 31
0.0
  0
LINE
  5
473
330
18
100
AcDbEntity
  8
1
 62
     1
100
AcDbLine
 10
55.21562313575473
 20
-0.9947044337814233
 30
0.0
 11
55.29012882068083
 21
-1.081918386453303
 31
0.0
  0
LINE
  5
474
330
18
100
AcDbEntity
  8
1
 62
     1
100
AcDbLine
 10
55.29012882068083
 20
-1.081918386453303
 30
0.0
 11
55.36345298923241
 21
-1.175971868152408
 31
0.0
  0
LINE
  5
475
330
18
100
AcDbEntity
  8
1
 62
     1
100
AcDbLine
 10
55.3634529892324
 20
1.649480641157508
 30
0.0
 11
55.3634529892324
 21
-1.175971868856876
 31
0.0
  0
ARC
  5
476
330
18
100
AcDbEntity
  8
1
 62
     1
100
AcDbCircle
 10
57.97781850052419
 20
-6.811361286406999
 30
0.0
 40
8.148974515626103
100
AcDbArc
 50
53.16355385955874
 51
58.38148436973553
  0
LINE
  5
477
330
18
100
AcDbEntity
  8
1
 62
     1
100
AcDbLine
 10
62.25000000000001
 20
-1.925538017191181
 30
0.0
 11
62.25
 21
0.1279449100519992
 31
0.0
  0
LINE
  5
478
330
18
100
AcDbEntity
  8
1
 62
     1
100
AcDbLine
 10
62.25
 20
-1.925538017191197
 30
0.0
 11
62.40784957893805
 21
-2.12663038975775
 31
0.0
  0
LINE
  5
479
330
18
100
AcDbEntity
  8
1
 62
     1
100
AcDbLine
 10
62.40784957893805
 20
-2.12663038975775
 30
0.0
 11
62.56345361894748
 21
-2.351488764622917
 31
0.0
  0
LINE
  5
47A
330
18
100
AcDbEntity
  8
1
 62
     1
100
AcDbLine
 10
62.56345361894748
 20
-2.351488764622917
 30
0.0
 11
62.71562312001181
 21
-2.596449278201503
 31
0.0
  0
LINE
  5
47B
330
18
100
AcDbEntity
  8
1
 62
     1
100
AcDbLine
 10
62.71562312001181
 20
-2.596449278201503
 30
0.0
 11
62.86345298923244
 21
-2.85778457464627
 31
0.0
  0
ARC
  5
47C
330
18
100
AcDbEntity
  8
1
 62
     1
100
AcDbCircle
 10
59.52310077519418
 20
5.643699203433265
 30
0.0
 40
4.905261011998173
100
AcDbArc
 50
250.5106741134372
 51
257.9611006640741
  0
LINE
  5
47D
330
18
100
AcDbEntity
  8
1
 62
     1
100
AcDbLine
 10
57.88654701076758
 20
1.019476292832493
 30
0.0
 11
57.88654701076758
 21
-1.796349604274465
 31
0.0
  0
LINE
  5
47E
330
18
100
AcDbEntity
  8
1
 62
     1
100
AcDbLine
 10
57.88654701076757
 20
-1.79634960427446
 30
0.0
 11
57.96273626631425
 21
-1.717183992424344
 31
0.0
  0
LINE
  5
47F
330
18
100
AcDbEntity
  8
1
 62
     1
100
AcDbLine
 10
57.96273626631425
 20
-1.717183992424344
 30
0.0
 11
58.03931030119696
 21
-1.643671958671
 31
0.0
  0
LINE
  5
480
330
18
100
AcDbEntity
  8
1
 62
     1
100
AcDbLine
 10
58.03931030119696
 20
-1.643671958671
 30
0.0
 11
58.11615420402644
 21
-1.575802665292813
 31
0.0
  0
LINE
  5
481
330
18
100
AcDbEntity
  8
1
 62
     1
100
AcDbLine
 10
58.11615420402644
 20
-1.575802665292813
 30
0.0
 11
58.19314109919202
 21
-1.513557149432068
 31
0.0
  0
LINE
  5
482
330
18
100
AcDbEntity
  8
1
 62
     1
100
AcDbLine
 10
58.19314109919202
 20
-1.513557149432068
 30
0.0
 11
58.2701481833964
 21
-1.456910415560768
 31
0.0
  0
LINE
  5
483
330
18
100
AcDbEntity
  8
1
 62
     1
100
AcDbLine
 10
58.2701481833964
 20
-1.456910415560768
 30
0.0
 11
58.34705299472083
 21
-1.405826576198808
 31
0.0
  0
LINE
  5
484
330
18
100
AcDbEntity
  8
1
 62
     1
100
AcDbLine
 10
58.34705299472083
 20
-1.405826576198808
 30
0.0
 11
58.42372009416849
 21
-1.360273934376323
 31
0.0
  0
LINE
  5
485
330
18
100
AcDbEntity
  8
1
 62
     1
100
AcDbLine
 10
58.42372009416849
 20
-1.360273934376323
 30
0.0
 11
58.5
 21
-1.320224351137725
 31
0.0
  0
ARC
  5
486
330
18
100
AcDbEntity
  8
1
 62
     1
100
AcDbCircle
 10
61.8838743175337
 20
4.259978721027807
 30
0.0
 40
4.664390900729688
100
AcDbArc
 50
282.4133877346461
 51
290.2721326929082
  0
LINE
  5
487
330
18
100
AcDbEntity
  8
1
 62
     1
100
AcDbLine
 10
62.88654701076764
 20
-0.295362759965959
 30
0.0
 11
62.88654701076764
 21
-2.862068042371555
 31
0.0
  0
ARC
  5
488
330
18
100
AcDbEntity
  8
1
 62
     1
100
AcDbCircle
 10
67.46941010323575
 20
-5.931142763058119
 30
0.0
 40
5.515480644726583
100
AcDbArc
 50
136.0351047188565
 51
146.1903726241093
  0
ARC
  5
489
330
18
100
AcDbEntity
  8
1
 62
     1
100
AcDbCircle
 10
57.21533566546875
 20
-3.047328571864682
 30
0.0
 40
4.123918872161493
100
AcDbArc
 50
80.95800203504506
 51
89.51838322287733
  0
LINE
  5
48A
330
18
100
AcDbEntity
  8
1
 62
     1
100
AcDbLine
 10
57.25000000000001
 20
-1.098390378109272
 30
0.0
 11
57.25000000000001
 21
1.076434104877242
 31
0.0
  0
LINE
  5
48B
330
18
100
AcDbEntity
  8
1
 62
     1
100
AcDbLine
 10
57.25
 20
-1.098390378108443
 30
0.0
 11
57.329115206097
 21
-1.158875039072636
 31
0.0
  0
LINE
  5
48C
330
18
100
AcDbEntity
  8
1
 62
     1
100
AcDbLine
 10
57.329115206097
 20
-1.158875039072636
 30
0.0
 11
57.40784959127865
 21
-1.227542972583401
 31
0.0
  0
LINE
  5
48D
330
18
100
AcDbEntity
  8
1
 62
     1
100
AcDbLine
 10
57.40784959127865
 20
-1.227542972583401
 30
0.0
 11
57.4860152470821
 21
-1.30403665588308
 31
0.0
  0
LINE
  5
48E
330
18
100
AcDbEntity
  8
1
 62
     1
100
AcDbLine
 10
57.4860152470821
 20
-1.30403665588308
 30
0.0
 11
57.56345363610194
 21
-1.387992445419043
 31
0.0
  0
LINE
  5
48F
330
18
100
AcDbEntity
  8
1
 62
     1
100
AcDbLine
 10
57.56345363610194
 20
-1.387992445419043
 30
0.0
 11
57.64002956971665
 21
-1.479040122066938
 31
0.0
  0
LINE
  5
490
330
18
100
AcDbEntity
  8
1
 62
     1
100
AcDbLine
 10
57.64002956971665
 20
-1.479040122066938
 30
0.0
 11
57.71562313243153
 21
-1.576798141059425
 31
0.0
  0
LINE
  5
491
330
18
100
AcDbEntity
  8
1
 62
     1
100
AcDbLine
 10
57.71562313243153
 20
-1.576798141059425
 30
0.0
 11
57.79012881557065
 21
-1.680875607326384
 31
0.0
  0
LINE
  5
492
330
18
100
AcDbEntity
  8
1
 62
     1
100
AcDbLine
 10
57.79012881557065
 20
-1.680875607326384
 30
0.0
 11
57.86345298923242
 21
-1.790873327684243
 31
0.0
  0
ARC
  5
493
330
18
100
AcDbEntity
  8
1
 62
     1
100
AcDbCircle
 10
57.80509141433614
 20
-3.439178809128804
 30
0.0
 40
4.341559670903187
100
AcDbArc
 50
78.03110762562805
 51
80.78963932636613
  0
LINE
  5
494
330
18
100
AcDbEntity
  8
1
 62
     1
100
AcDbLine
 10
58.49999999999999
 20
-1.320224351137725
 30
0.0
 11
58.5
 21
0.8464060107363368
 31
0.0
  0
LINE
  5
495
330
18
100
AcDbEntity
  8
1
 62
     1
100
AcDbLine
 10
58.5
 20
-1.320224351137725
 30
0.0
 11
58.5791152087629
 21
-1.390715564527401
 31
0.0
  0
LINE
  5
496
330
18
100
AcDbEntity
  8
1
 62
     1
100
AcDbLine
 10
58.5791152087629
 20
-1.390715564527401
 30
0.0
 11
58.65784959823534
 21
-1.469020958439693
 31
0.0
  0
LINE
  5
497
330
18
100
AcDbEntity
  8
1
 62
     1
100
AcDbLine
 10
58.65784959823534
 20
-1.469020958439693
 30
0.0
 11
58.7360152591496
 21
-1.5547545297437
 31
0.0
  0
LINE
  5
498
330
18
100
AcDbEntity
  8
1
 62
     1
100
AcDbLine
 10
58.7360152591496
 20
-1.5547545297437
 30
0.0
 11
58.81345365270735
 21
-1.647525211640988
 31
0.0
  0
LINE
  5
499
330
18
100
AcDbEntity
  8
1
 62
     1
100
AcDbLine
 10
58.81345365270735
 20
-1.647525211640988
 30
0.0
 11
58.89002958851615
 21
-1.746936582963725
 31
0.0
  0
LINE
  5
49A
330
18
100
AcDbEntity
  8
1
 62
     1
100
AcDbLine
 10
58.89002958851615
 20
-1.746936582963725
 30
0.0
 11
58.96562315003852
 21
-1.852581898368206
 31
0.0
  0
LINE
  5
49B
330
18
100
AcDbEntity
  8
1
 62
     1
100
AcDbLine
 10
58.96562315003852
 20
-1.852581898368206
 30
0.0
 11
59.11345298923243
 21
-2.080909166325708
 31
0.0
  0
ARC
  5
49C
330
18
100
AcDbEntity
  8
1
 62
     1
100
AcDbCircle
 10
58.16397467293812
 20
-4.396918143098109
 30
0.0
 40
5.252670902491121
100
AcDbArc
 50
65.24576645187123
 51
72.42538397840214
  0
LINE
  5
49D
330
18
100
AcDbEntity
  8
1
 62
     1
100
AcDbLine
 10
59.75
 20
-1.532989238960951
 30
0.0
 11
59.75
 21
0.6105633888923168
 31
0.0
  0
LINE
  5
49E
330
18
100
AcDbEntity
  8
1
 62
     1
100
AcDbLine
 10
59.74999999999999
 20
-1.532989238960908
 30
0.0
 11
59.82911520231093
 21
-1.613002836230603
 31
0.0
  0
LINE
  5
49F
330
18
100
AcDbEntity
  8
1
 62
     1
100
AcDbLine
 10
59.82911520231093
 20
-1.613002836230603
 30
0.0
 11
59.90784958657848
 21
-1.700407822180464
 31
0.0
  0
LINE
  5
4A0
330
18
100
AcDbEntity
  8
1
 62
     1
100
AcDbLine
 10
59.90784958657848
 20
-1.700407822180464
 30
0.0
 11
59.98601524533813
 21
-1.794792354592724
 31
0.0
  0
LINE
  5
4A1
330
18
100
AcDbEntity
  8
1
 62
     1
100
AcDbLine
 10
59.98601524533813
 20
-1.794792354592724
 30
0.0
 11
60.06345364044321
 21
-1.895740629679527
 31
0.0
  0
LINE
  5
4A2
330
18
100
AcDbEntity
  8
1
 62
     1
100
AcDbLine
 10
60.06345364044321
 20
-1.895740629679527
 30
0.0
 11
60.21562314692201
 21
-2.115639589419247
 31
0.0
  0
LINE
  5
4A3
330
18
100
AcDbEntity
  8
1
 62
     1
100
AcDbLine
 10
60.21562314692201
 20
-2.115639589419247
 30
0.0
 11
60.36345298923245
 21
-2.356650338674415
 31
0.0
  0
LINE
  5
4A4
330
18
100
AcDbEntity
  8
1
 62
     1
100
AcDbLine
 10
60.36345298923244
 20
0.373192081582883
 30
0.0
 11
60.36345298923244
 21
-2.356650338665495
 31
0.0
  0
ARC
  5
4A5
330
18
100
AcDbEntity
  8
1
 62
     1
100
AcDbCircle
 10
60.04543468715098
 20
4.989424044931766
 30
0.0
 40
4.388879634935515
100
AcDbArc
 50
258.0482331693779
 51
266.1401953865407
  0
LINE
  5
4A6
330
18
100
AcDbEntity
  8
1
 62
     1
100
AcDbLine
 10
59.13654701076759
 20
0.6956732389699858
 30
0.0
 11
59.13654701076759
 21
-2.086139155318249
 31
0.0
  0
LINE
  5
4A7
330
18
100
AcDbEntity
  8
1
 62
     1
100
AcDbLine
 10
59.13654701076759
 20
-2.086139155318254
 30
0.0
 11
59.28931030580559
 21
-1.91580002289895
 31
0.0
  0
LINE
  5
4A8
330
18
100
AcDbEntity
  8
1
 62
     1
100
AcDbLine
 10
59.28931030580559
 20
-1.91580002289895
 30
0.0
 11
59.36615420767862
 21
-1.838642637787389
 31
0.0
  0
LINE
  5
4A9
330
18
100
AcDbEntity
  8
1
 62
     1
100
AcDbLine
 10
59.36615420767862
 20
-1.838642637787389
 30
0.0
 11
59.44314110163043
 21
-1.766838487019238
 31
0.0
  0
LINE
  5
4AA
330
18
100
AcDbEntity
  8
1
 62
     1
100
AcDbLine
 10
59.44314110163043
 20
-1.766838487019238
 30
0.0
 11
59.52014818460513
 21
-1.700385629732108
 31
0.0
  0
LINE
  5
4AB
330
18
100
AcDbEntity
  8
1
 62
     1
100
AcDbLine
 10
59.52014818460513
 20
-1.700385629732108
 30
0.0
 11
59.59705299523429
 21
-1.639268268184589
 31
0.0
  0
LINE
  5
4AC
330
18
100
AcDbEntity
  8
1
 62
     1
100
AcDbLine
 10
59.59705299523429
 20
-1.639268268184589
 30
0.0
 11
59.67372009450265
 21
-1.583473293916556
 31
0.0
  0
LINE
  5
4AD
330
18
100
AcDbEntity
  8
1
 62
     1
100
AcDbLine
 10
59.67372009450265
 20
-1.583473293916556
 30
0.0
 11
59.75
 21
-1.532989238960909
 31
0.0
  0
ARC
  5
4AE
330
18
100
AcDbEntity
  8
1
 62
     1
100
AcDbCircle
 10
60.67015409754481
 20
4.54543362657498
 30
0.0
 40
4.187949646871344
100
AcDbArc
 50
266.1169757007659
 51
274.5173706250478
  0
LINE
  5
4AF
330
18
100
AcDbEntity
  8
1
 62
     1
100
AcDbLine
 10
60.38654701076759
 20
0.367091602717063
 30
0.0
 11
60.38654701076759
 21
-2.361598097041154
 31
0.0
  0
LINE
  5
4B0
330
18
100
AcDbEntity
  8
1
 62
     1
100
AcDbLine
 10
60.3865470107676
 20
-2.361598097041172
 30
0.0
 11
60.5393103101105
 21
-2.174767603479145
 31
0.0
  0
LINE
  5
4B1
330
18
100
AcDbEntity
  8
1
 62
     1
100
AcDbLine
 10
60.5393103101105
 20
-2.174767603479145
 30
0.0
 11
60.69314110416096
 21
-2.00798265958941
 31
0.0
  0
LINE
  5
4B2
330
18
100
AcDbEntity
  8
1
 62
     1
100
AcDbLine
 10
60.69314110416096
 20
-2.00798265958941
 30
0.0
 11
60.84705299455921
 21
-1.86144916174146
 31
0.0
  0
LINE
  5
4B3
330
18
100
AcDbEntity
  8
1
 62
     1
100
AcDbLine
 10
60.84705299455921
 20
-1.86144916174146
 30
0.0
 11
60.92372009344496
 21
-1.795795133434094
 31
0.0
  0
LINE
  5
4B4
330
18
100
AcDbEntity
  8
1
 62
     1
100
AcDbLine
 10
60.92372009344496
 20
-1.795795133434094
 30
0.0
 11
61.0
 21
-1.735223383770601
 31
0.0
  0
ARC
  5
4B5
330
18
100
AcDbEntity
  8
1
 62
     1
100
AcDbCircle
 10
56.59030443593346
 20
-2.72840228545648
 30
0.0
 40
4.070503373233383
100
AcDbArc
 50
89.67416391542763
 51
98.3384436531765
  0
LINE
  5
4B6
330
18
100
AcDbEntity
  8
1
 62
     1
100
AcDbLine
 10
56.0
 20
-0.8690112975046658
 30
0.0
 11
56.03958924326151
 21
-0.8929590703256637
 31
0.0
  0
LINE
  5
4B7
330
18
100
AcDbEntity
  8
1
 62
     1
100
AcDbLine
 10
56.03958924326151
 20
-0.8929590703256637
 30
0.0
 11
56.07911519798411
 21
-0.9190739089545841
 31
0.0
  0
LINE
  5
4B8
330
18
100
AcDbEntity
  8
1
 62
     1
100
AcDbLine
 10
56.07911519798411
 20
-0.9190739089545841
 30
0.0
 11
56.11853882424375
 21
-0.9473086147960599
 31
0.0
  0
LINE
  5
4B9
330
18
100
AcDbEntity
  8
1
 62
     1
100
AcDbLine
 10
56.11853882424375
 20
-0.9473086147960599
 30
0.0
 11
56.19701404583165
 21
-1.009995764663737
 31
0.0
  0
LINE
  5
4BA
330
18
100
AcDbEntity
  8
1
 62
     1
100
AcDbLine
 10
56.19701404583165
 20
-1.009995764663737
 30
0.0
 11
56.27483776195369
 21
-1.080687851783143
 31
0.0
  0
LINE
  5
4BB
330
18
100
AcDbEntity
  8
1
 62
     1
100
AcDbLine
 10
56.27483776195369
 20
-1.080687851783143
 30
0.0
 11
56.35185940182967
 21
-1.159041996540732
 31
0.0
  0
LINE
  5
4BC
330
18
100
AcDbEntity
  8
1
 62
     1
100
AcDbLine
 10
56.35185940182967
 20
-1.159041996540732
 30
0.0
 11
56.42795434221497
 21
-1.244711428339407
 31
0.0
  0
LINE
  5
4BD
330
18
100
AcDbEntity
  8
1
 62
     1
100
AcDbLine
 10
56.42795434221497
 20
-1.244711428339407
 30
0.0
 11
56.50301450242439
 21
-1.337341781809821
 31
0.0
  0
LINE
  5
4BE
330
18
100
AcDbEntity
  8
1
 62
     1
100
AcDbLine
 10
56.50301450242439
 20
-1.337341781809821
 30
0.0
 11
56.61345298923241
 21
-1.488535107929357
 31
0.0
  0
LINE
  5
4BF
330
18
100
AcDbEntity
  8
1
 62
     1
100
AcDbLine
 10
56.61345298923241
 20
1.342049609221507
 30
0.0
 11
56.61345298923241
 21
-1.488535107532953
 31
0.0
  0
ARC
  5
4C0
330
18
100
AcDbEntity
  8
1
 62
     1
100
AcDbCircle
 10
59.16186150843152
 20
7.640019584871847
 30
0.0
 40
7.085636703699384
100
AcDbArc
 50
237.8044156832052
 51
243.4972530406648
  0
LINE
  5
4C1
330
18
100
AcDbEntity
  8
1
 62
     1
100
AcDbLine
 10
55.38654701076759
 20
1.643897126401408
 30
0.0
 11
55.38654701076759
 21
-1.181826500736939
 31
0.0
  0
LINE
  5
4C2
330
18
100
AcDbEntity
  8
1
 62
     1
100
AcDbLine
 10
55.38654701076757
 20
-1.181826500736933
 30
0.0
 11
55.46273627292726
 21
-1.121568212189956
 31
0.0
  0
LINE
  5
4C3
330
18
100
AcDbEntity
  8
1
 62
     1
100
AcDbLine
 10
55.46273627292726
 20
-1.121568212189956
 30
0.0
 11
55.53931031040617
 21
-1.067490086758372
 31
0.0
  0
LINE
  5
4C4
330
18
100
AcDbEntity
  8
1
 62
     1
100
AcDbLine
 10
55.53931031040617
 20
-1.067490086758372
 30
0.0
 11
55.61615421335642
 21
-1.019528725238266
 31
0.0
  0
LINE
  5
4C5
330
18
100
AcDbEntity
  8
1
 62
     1
100
AcDbLine
 10
55.61615421335642
 20
-1.019528725238266
 30
0.0
 11
55.69314110580389
 21
-0.9776146714248184
 31
0.0
  0
LINE
  5
4C6
330
18
100
AcDbEntity
  8
1
 62
     1
100
AcDbLine
 10
55.69314110580389
 20
-0.9776146714248184
 30
0.0
 11
55.7701481870585
 21
-0.9416775016184197
 31
0.0
  0
LINE
  5
4C7
330
18
100
AcDbEntity
  8
1
 62
     1
100
AcDbLine
 10
55.7701481870585
 20
-0.9416775016184197
 30
0.0
 11
55.84705299605817
 21
-0.9116420431849737
 31
0.0
  0
LINE
  5
4C8
330
18
100
AcDbEntity
  8
1
 62
     1
100
AcDbLine
 10
55.84705299605817
 20
-0.9116420431849737
 30
0.0
 11
55.92372009436136
 21
-0.8874402272938682
 31
0.0
  0
LINE
  5
4C9
330
18
100
AcDbEntity
  8
1
 62
     1
100
AcDbLine
 10
55.92372009436136
 20
-0.8874402272938682
 30
0.0
 11
56.0
 21
-0.8690112975046658
 31
0.0
  0
LINE
  5
4CA
330
18
100
AcDbEntity
  8
1
 62
     1
100
AcDbLine
 10
56.0
 20
-0.8690112975046655
 30
0.0
 11
56.00000000000001
 21
1.299067833491235
 31
0.0
  0
ARC
  5
4CB
330
18
100
AcDbEntity
  8
1
 62
     1
100
AcDbCircle
 10
61.31042833831377
 20
4.30367352928077
 30
0.0
 40
4.280127888578495
100
AcDbArc
 50
274.3698114102031
 51
282.6808108445857
  0
LINE
  5
4CC
330
18
100
AcDbEntity
  8
1
 62
     1
100
AcDbLine
 10
61.63654701076761
 20
0.0359881131072869
 30
0.0
 11
61.63654701076761
 21
-2.620834663601882
 31
0.0
  0
ARC
  5
4CD
330
18
100
AcDbEntity
  8
1
 62
     1
100
AcDbCircle
 10
65.21950047524876
 20
-5.157823975637662
 30
0.0
 40
4.39004697294944
100
AcDbArc
 50
132.5736833276561
 51
144.6987553954588
  0
ARC
  5
4CE
330
18
100
AcDbEntity
  8
1
 62
     1
100
AcDbCircle
 10
58.2726035539709
 20
-5.458779986015686
 30
0.0
 40
6.435818227085664
100
AcDbArc
 50
58.72850181050858
 51
64.9262039151248
  0
LINE
  5
4CF
330
18
100
AcDbEntity
  8
1
 62
     1
100
AcDbLine
 10
60.99999999999999
 20
-1.735223383770602
 30
0.0
 11
61.00000000000001
 21
0.3705266306257077
 31
0.0
  0
LINE
  5
4D0
330
18
100
AcDbEntity
  8
1
 62
     1
100
AcDbLine
 10
61.0
 20
-1.735223383770601
 30
0.0
 11
61.07911519847967
 21
-1.824209751122216
 31
0.0
  0
LINE
  5
4D1
330
18
100
AcDbEntity
  8
1
 62
     1
100
AcDbLine
 10
61.07911519847967
 20
-1.824209751122216
 30
0.0
 11
61.15784957652725
 21
-1.920113978042402
 31
0.0
  0
LINE
  5
4D2
330
18
100
AcDbEntity
  8
1
 62
     1
100
AcDbLine
 10
61.15784957652725
 20
-1.920113978042402
 30
0.0
 11
61.31345361464883
 21
-2.130933720353451
 31
0.0
  0
LINE
  5
4D3
330
18
100
AcDbEntity
  8
1
 62
     1
100
AcDbLine
 10
61.31345361464883
 20
-2.130933720353451
 30
0.0
 11
61.46562311797422
 21
-2.364164523341169
 31
0.0
  0
LINE
  5
4D4
330
18
100
AcDbEntity
  8
1
 62
     1
100
AcDbLine
 10
61.46562311797422
 20
-2.364164523341169
 30
0.0
 11
61.61345298923241
 21
-2.616203157857507
 31
0.0
  0
LINE
  5
4D5
330
18
100
AcDbEntity
  8
1
 62
     1
100
AcDbLine
 10
61.6134529892324
 20
0.0421145677189718
 30
0.0
 11
61.61345298923241
 21
-2.61620315785547
 31
0.0
  0
ARC
  5
4D6
330
18
100
AcDbEntity
  8
1
 62
     1
100
AcDbCircle
 10
59.19542789848933
 20
6.520972620998506
 30
0.0
 40
5.781759397192621
100
AcDbArc
 50
243.7315874693608
 51
250.33731133284
  0
LINE
  5
4D7
330
18
100
AcDbEntity
  8
1
 62
     1
100
AcDbLine
 10
56.63654701076761
 20
1.336276425874602
 30
0.0
 11
56.6365470107676
 21
-1.49422006761791
 31
0.0
  0
LINE
  5
4D8
330
18
100
AcDbEntity
  8
1
 62
     1
100
AcDbLine
 10
56.6365470107676
 20
-1.494220067617903
 30
0.0
 11
56.71273626764828
 21
-1.424267830390789
 31
0.0
  0
LINE
  5
4D9
330
18
100
AcDbEntity
  8
1
 62
     1
100
AcDbLine
 10
56.71273626764828
 20
-1.424267830390789
 30
0.0
 11
56.78931030395587
 21
-1.360252881741248
 31
0.0
  0
LINE
  5
4DA
330
18
100
AcDbEntity
  8
1
 62
     1
100
AcDbLine
 10
56.78931030395587
 20
-1.360252881741248
 30
0.0
 11
56.86615420770489
 21
-1.30213797205621
 31
0.0
  0
LINE
  5
4DB
330
18
100
AcDbEntity
  8
1
 62
     1
100
AcDbLine
 10
56.86615420770489
 20
-1.30213797205621
 30
0.0
 11
56.9431411022001
 21
-1.249878727254073
 31
0.0
  0
LINE
  5
4DC
330
18
100
AcDbEntity
  8
1
 62
     1
100
AcDbLine
 10
56.9431411022001
 20
-1.249878727254073
 30
0.0
 11
57.0201481848642
 21
-1.203427260510363
 31
0.0
  0
LINE
  5
4DD
330
18
100
AcDbEntity
  8
1
 62
     1
100
AcDbLine
 10
57.0201481848642
 20
-1.203427260510363
 30
0.0
 11
57.09705299465222
 21
-1.162727842309695
 31
0.0
  0
LINE
  5
4DE
330
18
100
AcDbEntity
  8
1
 62
     1
100
AcDbLine
 10
57.09705299465222
 20
-1.162727842309695
 30
0.0
 11
57.17372009347422
 21
-1.127730414724399
 31
0.0
  0
LINE
  5
4DF
330
18
100
AcDbEntity
  8
1
 62
     1
100
AcDbLine
 10
57.17372009347422
 20
-1.127730414724399
 30
0.0
 11
57.25
 21
-1.098390378108443
 31
0.0
  0
ARC
  5
4E0
330
18
100
AcDbEntity
  8
1
 62
     1
100
AcDbCircle
 10
64.46616994050544
 20
15.30224217652628
 30
0.0
 40
18.86812368607533
100
AcDbArc
 50
221.7366960330846
 51
224.4632263321591
  0
LINE
  5
4E1
330
18
100
AcDbEntity
  8
1
 62
     1
100
AcDbLine
 10
50.38654701076759
 20
2.74157064597531
 30
0.0
 11
50.3865470107676
 21
0.126726206591927
 31
0.0
  0
ARC
  5
4E2
330
18
100
AcDbEntity
  8
1
 62
     1
100
AcDbCircle
 10
50.63689847939764
 20
-0.7656693065148144
 30
0.0
 40
0.9268956714337883
100
AcDbArc
 50
77.3610179756234
 51
105.6708632706118
  0
ARC
  5
4E3
330
18
100
AcDbEntity
  8
1
 62
     1
100
AcDbCircle
 10
55.29537803163826
 20
-3.680090025822841
 30
0.0
 40
7.190166582034436
100
AcDbArc
 50
120.802661737422
 51
126.6835670116181
  0
LINE
  5
4E4
330
18
100
AcDbEntity
  8
1
 62
     1
100
AcDbLine
 10
51.00000000000001
 20
0.091895173638389
 30
0.0
 11
51.0
 21
2.086052378651659
 31
0.0
  0
ARC
  5
4E5
330
18
100
AcDbEntity
  8
1
 62
     1
100
AcDbCircle
 10
50.99034051399985
 20
-0.5969623562679981
 30
0.0
 40
0.6889280321385792
100
AcDbArc
 50
78.03416658788286
 51
89.19662414133043
  0
LINE
  5
4E6
330
18
100
AcDbEntity
  8
1
 62
     1
100
AcDbLine
 10
51.61345298923241
 20
2.495744357662458
 30
0.0
 11
51.61345298923241
 21
-0.1986645866713572
 31
0.0
  0
ARC
  5
4E7
330
18
100
AcDbEntity
  8
1
 62
     1
100
AcDbCircle
 10
59.53235167339852
 20
9.028328418213354
 30
0.0
 40
8.90817955567899
100
AcDbArc
 50
232.7198668253767
 51
237.5302797357431
  0
LINE
  5
4E8
330
18
100
AcDbEntity
  8
1
 62
     1
100
AcDbLine
 10
54.13654701076761
 20
1.940225154777606
 30
0.0
 11
54.13654701076761
 21
-0.8613149645474345
 31
0.0
  0
LINE
  5
4E9
330
18
100
AcDbEntity
  8
1
 62
     1
100
AcDbLine
 10
54.13654701076759
 20
-0.861314964547435
 30
0.0
 11
54.21273627057385
 21
-0.8111644162074524
 31
0.0
  0
LINE
  5
4EA
330
18
100
AcDbEntity
  8
1
 62
     1
100
AcDbLine
 10
54.21273627057385
 20
-0.8111644162074524
 30
0.0
 11
54.28931030591113
 21
-0.7673944794156301
 31
0.0
  0
LINE
  5
4EB
330
18
100
AcDbEntity
  8
1
 62
     1
100
AcDbLine
 10
54.28931030591113
 20
-0.7673944794156301
 30
0.0
 11
54.36615420857135
 21
-0.7299160532332205
 31
0.0
  0
LINE
  5
4EC
330
18
100
AcDbEntity
  8
1
 62
     1
100
AcDbLine
 10
54.36615420857135
 20
-0.7299160532332205
 30
0.0
 11
54.44314110145773
 21
-0.6986350729583629
 31
0.0
  0
LINE
  5
4ED
330
18
100
AcDbEntity
  8
1
 62
     1
100
AcDbLine
 10
54.44314110145773
 20
-0.6986350729583629
 30
0.0
 11
54.48164903625337
 21
-0.6852903073055014
 31
0.0
  0
LINE
  5
4EE
330
18
100
AcDbEntity
  8
1
 62
     1
100
AcDbLine
 10
54.48164903625337
 20
-0.6852903073055014
 30
0.0
 11
54.5201481842213
 21
-0.6734590542203147
 31
0.0
  0
LINE
  5
4EF
330
18
100
AcDbEntity
  8
1
 62
     1
100
AcDbLine
 10
54.5201481842213
 20
-0.6734590542203147
 30
0.0
 11
54.5586196943412
 21
-0.6631311245087279
 31
0.0
  0
LINE
  5
4F0
330
18
100
AcDbEntity
  8
1
 62
     1
100
AcDbLine
 10
54.5586196943412
 20
-0.6631311245087279
 30
0.0
 11
54.59705299494806
 21
-0.6542938888389926
 31
0.0
  0
LINE
  5
4F1
330
18
100
AcDbEntity
  8
1
 62
     1
100
AcDbLine
 10
54.59705299494806
 20
-0.6542938888389926
 30
0.0
 11
54.63542438396318
 21
-0.6469383698276208
 31
0.0
  0
LINE
  5
4F2
330
18
100
AcDbEntity
  8
1
 62
     1
100
AcDbLine
 10
54.63542438396318
 20
-0.6469383698276208
 30
0.0
 11
54.67372009441313
 21
-0.6410539565104096
 31
0.0
  0
LINE
  5
4F3
330
18
100
AcDbEntity
  8
1
 62
     1
100
AcDbLine
 10
54.67372009441313
 20
-0.6410539565104096
 30
0.0
 11
54.71192037096634
 21
-0.636631423854981
 31
0.0
  0
LINE
  5
4F4
330
18
100
AcDbEntity
  8
1
 62
     1
100
AcDbLine
 10
54.71192037096634
 20
-0.636631423854981
 30
0.0
 11
54.75000000000001
 21
-0.6336627537597848
 31
0.0
  0
ARC
  5
4F5
330
18
100
AcDbEntity
  8
1
 62
     1
100
AcDbCircle
 10
55.52524264010802
 20
-2.761711053211076
 30
0.0
 40
4.914496372601725
100
AcDbArc
 50
106.6948014072826
 51
114.3364982482613
  0
LINE
  5
4F6
330
18
100
AcDbEntity
  8
1
 62
     1
100
AcDbLine
 10
53.50000000000001
 20
-0.3939613433080897
 30
0.0
 11
53.5
 21
1.716096653229256
 31
0.0
  0
LINE
  5
4F7
330
18
100
AcDbEntity
  8
1
 62
     1
100
AcDbLine
 10
53.50000000000001
 20
-0.3939613433074811
 30
0.0
 11
53.53958924731615
 21
-0.4069571127201499
 31
0.0
  0
LINE
  5
4F8
330
18
100
AcDbEntity
  8
1
 62
     1
100
AcDbLine
 10
53.53958924731615
 20
-0.4069571127201499
 30
0.0
 11
53.57911520666904
 21
-0.4222219911198126
 31
0.0
  0
LINE
  5
4F9
330
18
100
AcDbEntity
  8
1
 62
     1
100
AcDbLine
 10
53.57911520666904
 20
-0.4222219911198126
 30
0.0
 11
53.61853883805857
 21
-0.4397207521152177
 31
0.0
  0
LINE
  5
4FA
330
18
100
AcDbEntity
  8
1
 62
     1
100
AcDbLine
 10
53.61853883805857
 20
-0.4397207521152177
 30
0.0
 11
53.65784959483693
 21
-0.4594276754777953
 31
0.0
  0
LINE
  5
4FB
330
18
100
AcDbEntity
  8
1
 62
     1
100
AcDbLine
 10
53.65784959483693
 20
-0.4594276754777953
 30
0.0
 11
53.69701407044978
 21
-0.4813040693984638
 31
0.0
  0
LINE
  5
4FC
330
18
100
AcDbEntity
  8
1
 62
     1
100
AcDbLine
 10
53.69701407044978
 20
-0.4813040693984638
 30
0.0
 11
53.73601525538301
 21
-0.5053202326448629
 31
0.0
  0
LINE
  5
4FD
330
18
100
AcDbEntity
  8
1
 62
     1
100
AcDbLine
 10
53.73601525538301
 20
-0.5053202326448629
 30
0.0
 11
53.77483779596001
 21
-0.5314432544151959
 31
0.0
  0
LINE
  5
4FE
330
18
100
AcDbEntity
  8
1
 62
     1
100
AcDbLine
 10
53.77483779596001
 20
-0.5314432544151959
 30
0.0
 11
53.81345364950962
 21
-0.5596324744568831
 31
0.0
  0
LINE
  5
4FF
330
18
100
AcDbEntity
  8
1
 62
     1
100
AcDbLine
 10
53.81345364950962
 20
-0.5596324744568831
 30
0.0
 11
53.85185944087299
 21
-0.5898620471459213
 31
0.0
  0
LINE
  5
500
330
18
100
AcDbEntity
  8
1
 62
     1
100
AcDbLine
 10
53.85185944087299
 20
-0.5898620471459213
 30
0.0
 11
53.92795437966655
 21
-0.65627653976733
 31
0.0
  0
LINE
  5
501
330
18
100
AcDbEntity
  8
1
 62
     1
100
AcDbLine
 10
53.92795437966655
 20
-0.65627653976733
 30
0.0
 11
54.00301453073152
 21
-0.7303927186572834
 31
0.0
  0
LINE
  5
502
330
18
100
AcDbEntity
  8
1
 62
     1
100
AcDbLine
 10
54.00301453073152
 20
-0.7303927186572834
 30
0.0
 11
54.05857573550598
 21
-0.7908545916929848
 31
0.0
  0
LINE
  5
503
330
18
100
AcDbEntity
  8
1
 62
     1
100
AcDbLine
 10
54.05857573550598
 20
-0.7908545916929848
 30
0.0
 11
54.1134529892324
 21
-0.8553309057598271
 31
0.0
  0
LINE
  5
504
330
18
100
AcDbEntity
  8
1
 62
     1
100
AcDbLine
 10
54.11345298923241
 20
1.945580630714728
 30
0.0
 11
54.1134529892324
 21
-0.8553309068607708
 31
0.0
  0
ARC
  5
505
330
18
100
AcDbEntity
  8
1
 62
     1
100
AcDbCircle
 10
60.43265303666495
 20
10.72538577659382
 30
0.0
 40
11.36794620515452
100
AcDbArc
 50
228.4092917159806
 51
232.4216977417747
  0
LINE
  5
506
330
18
100
AcDbEntity
  8
1
 62
     1
100
AcDbLine
 10
52.88654701076759
 20
2.223225261336889
 30
0.0
 11
52.88654701076759
 21
-0.5348865885765381
 31
0.0
  0
ARC
  5
507
330
18
100
AcDbEntity
  8
1
 62
     1
100
AcDbCircle
 10
53.42015156772072
 20
-1.447733263660161
 30
0.0
 40
1.057243791991593
100
AcDbArc
 50
85.66675473874119
 51
120.3084226728631
  0
ARC
  5
508
330
18
100
AcDbEntity
  8
1
 62
     1
100
AcDbCircle
 10
55.26395492270229
 20
-3.109283535939068
 30
0.0
 40
5.852620781140304
100
AcDbArc
 50
114.2150876709741
 51
120.9957303828668
  0
LINE
  5
509
330
18
100
AcDbEntity
  8
1
 62
     1
100
AcDbLine
 10
52.25000000000001
 20
-0.1515535958532048
 30
0.0
 11
52.25000000000001
 21
1.907626597567834
 31
0.0
  0
LINE
  5
50A
330
18
100
AcDbEntity
  8
1
 62
     1
100
AcDbLine
 10
52.25
 20
-0.1515535958530082
 30
0.0
 11
52.27766970856336
 21
-0.1564584702016337
 31
0.0
  0
LINE
  5
50B
330
18
100
AcDbEntity
  8
1
 62
     1
100
AcDbLine
 10
52.8634529892324
 20
2.228315895350992
 30
0.0
 11
52.86345298923241
 21
-0.5288142365599496
 31
0.0
  0
ARC
  5
50C
330
18
100
AcDbEntity
  8
1
 62
     1
100
AcDbCircle
 10
62.01351953989901
 20
12.78853210910906
 30
0.0
 40
14.61921557207291
100
AcDbArc
 50
224.7799750949586
 51
228.0981289966322
  0
LINE
  5
50D
330
18
100
AcDbEntity
  8
1
 62
     1
100
AcDbLine
 10
51.63654701076761
 20
2.490953534347119
 30
0.0
 11
51.63654701076761
 21
-0.2047835241015499
 31
0.0
  0
ARC
  5
50E
330
18
100
AcDbEntity
  8
1
 62
     1
100
AcDbCircle
 10
52.02249114628485
 20
-1.098453425858857
 30
0.0
 40
0.9734510689926635
100
AcDbArc
 50
78.49322350346337
 51
113.3577924034381
  0
ARC
  5
50F
330
18
100
AcDbEntity
  8
1
 62
     1
100
AcDbCircle
 10
57.97374630629379
 20
-6.858045165784311
 30
0.0
 40
14.25313450717973
100
AcDbArc
 50
135.5719020957348
 51
138.7967818948779
  0
ARC
  5
510
330
18
100
AcDbEntity
  8
1
 62
     1
100
AcDbCircle
 10
47.53687088076223
 20
0.1505124026587857
 30
0.0
 40
0.7207295361810416
100
AcDbArc
 50
77.17168461824893
 51
113.4515890676395
  0
ARC
  5
511
330
18
100
AcDbEntity
  8
1
 62
     1
100
AcDbCircle
 10
81.39678635835548
 20
28.02640935890337
 30
0.0
 40
42.61479984972767
100
AcDbArc
 50
216.1295420041163
 51
216.7466017447043
  0
LINE
  5
512
330
18
100
AcDbEntity
  8
1
 62
     1
100
AcDbLine
 10
46.97741037642056
 20
2.900174775693317
 30
0.0
 11
46.97741037642056
 21
0.9901555901826591
 31
0.0
  0
ARC
  5
513
330
18
100
AcDbEntity
  8
1
 62
     1
100
AcDbCircle
 10
46.17941002996059
 20
-0.5249362324031738
 30
0.0
 40
1.712431506363718
100
AcDbArc
 50
51.30876807270021
 51
62.22417976272823
  0
LINE
  5
514
330
18
100
AcDbEntity
  8
1
 62
     1
100
AcDbLine
 10
47.24999999999999
 20
0.8117976597269458
 30
0.0
 11
47.25000000000001
 21
2.530949032405895
 31
0.0
  0
ARC
  5
515
330
18
100
AcDbEntity
  8
1
 62
     1
100
AcDbCircle
 10
55.69920707449174
 20
-4.480900574173942
 30
0.0
 40
8.983311998410262
100
AcDbArc
 50
126.4390274096505
 51
131.4717107817231
  0
LINE
  5
516
330
18
100
AcDbEntity
  8
1
 62
     1
100
AcDbLine
 10
49.74999999999999
 20
0.3347126063732597
 30
0.0
 11
49.75
 21
2.250148554518831
 31
0.0
  0
ARC
  5
517
330
18
100
AcDbEntity
  8
1
 62
     1
100
AcDbCircle
 10
49.8386957063425
 20
-0.3446783153763645
 30
0.0
 40
0.6851613802042056
100
AcDbArc
 50
77.37002615712885
 51
97.43800020035575
  0
LINE
  5
518
330
18
100
AcDbEntity
  8
1
 62
     1
100
AcDbLine
 10
49.98851803719925
 20
0.3239450357246338
 30
0.0
 11
49.98851959874114
 21
0.3239446903308289
 31
0.0
  0
LINE
  5
519
330
18
100
AcDbEntity
  8
1
 62
     1
100
AcDbLine
 10
50.36345298923239
 20
2.746028771842192
 30
0.0
 11
50.36345298923241
 21
0.132849741710704
 31
0.0
  0
ARC
  5
51A
330
18
100
AcDbEntity
  8
1
 62
     1
100
AcDbCircle
 10
68.0514043791726
 20
18.39580326393645
 30
0.0
 40
24.40540273332126
100
AcDbArc
 50
219.1924811479158
 51
221.4190124868501
  0
LINE
  5
51B
330
18
100
AcDbEntity
  8
1
 62
     1
100
AcDbLine
 10
49.13654701076758
 20
2.973354822134068
 30
0.0
 11
49.13654701076759
 21
0.4573649210160519
 31
0.0
  0
ARC
  5
51C
330
18
100
AcDbEntity
  8
1
 62
     1
100
AcDbCircle
 10
49.25577096831633
 20
-0.4376470215529361
 30
0.0
 40
0.9029549339106493
100
AcDbArc
 50
76.71197078860436
 51
97.58766352663822
  0
ARC
  5
51D
330
18
100
AcDbEntity
  8
1
 62
     1
100
AcDbCircle
 10
73.14349134810938
 20
22.26698995381667
 30
0.0
 40
31.65511666603532
100
AcDbArc
 50
217.1570647026057
 51
218.8766328462233
  0
LINE
  5
51E
330
18
100
AcDbEntity
  8
1
 62
     1
100
AcDbLine
 10
47.91491026792317
 20
3.147235255626887
 30
0.0
 11
47.91491026792318
 21
0.7841330967578218
 31
0.0
  0
ARC
  5
51F
330
18
100
AcDbEntity
  8
1
 62
     1
100
AcDbCircle
 10
47.87410180280249
 20
-0.1295219159564106
 30
0.0
 40
0.9145745652627959
100
AcDbArc
 50
76.44844709537269
 51
87.44257974977236
  0
LINE
  5
520
330
18
100
AcDbEntity
  8
1
 62
     1
100
AcDbLine
 10
48.08841602876007
 20
0.7596358578465133
 30
0.0
 11
48.08841817862395
 21
0.7596353487443709
 31
0.0
  0
LINE
  5
521
330
18
100
AcDbEntity
  8
1
 62
     1
100
AcDbLine
 10
48.49999999999999
 20
0.5752308056492025
 30
0.0
 11
48.50000000000001
 21
2.398787866058254
 31
0.0
  0
ARC
  5
522
330
18
100
AcDbEntity
  8
1
 62
     1
100
AcDbCircle
 10
56.55351014178469
 20
-5.523276057396513
 30
0.0
 40
11.29681066644475
100
AcDbArc
 50
131.1932620939017
 51
135.4714161484831
  0
ARC
  5
523
330
18
100
AcDbEntity
  8
1
 62
     1
100
AcDbCircle
 10
48.68700378633941
 20
-0.0948448325162382
 30
0.0
 40
0.6956656639757514
100
AcDbArc
 50
77.02401205990586
 51
105.5932816589766
  0
LINE
  5
524
330
18
100
AcDbEntity
  8
1
 62
     1
100
AcDbLine
 10
64.75
 20
2.752189779717995
 30
0.0
 11
64.75
 21
2.937468749999999
 31
0.0
  0
ARC
  5
525
330
18
100
AcDbEntity
  8
1
 62
     1
100
AcDbCircle
 10
74.06777030393796
 20
-3.057156340674019
 30
0.0
 40
10.9803878366796
100
AcDbArc
 50
145.0810116305801
 51
148.0577166684822
  0
LINE
  5
526
330
18
100
AcDbEntity
  8
1
 62
     1
100
AcDbLine
 10
65.0643561971197
 20
3.481949401221175
 30
0.0
 11
65.0643561971197
 21
3.481894197465548
 31
0.0
  0
LINE
  5
527
330
18
100
AcDbEntity
  8
1
 62
     1
100
AcDbLine
 10
65.0643561971197
 20
3.481894197465548
 30
0.0
 11
65.06435619711968
 21
3.465422223388878
 31
0.0
  0
LINE
  5
528
330
18
100
AcDbEntity
  8
1
 62
     1
100
AcDbLine
 10
65.06435619711968
 20
3.465422223388878
 30
0.0
 11
65.06435619711968
 21
3.228149282943983
 31
0.0
  0
LINE
  5
529
330
18
100
AcDbEntity
  8
1
 62
     1
100
AcDbLine
 10
64.32530504827167
 20
3.673061641141044
 30
0.0
 11
64.32530504827167
 21
3.673014176785889
 31
0.0
  0
LINE
  5
52A
330
18
100
AcDbEntity
  8
1
 62
     1
100
AcDbLine
 10
64.32530504827167
 20
3.673014176785889
 30
0.0
 11
64.32530504827169
 21
3.658897603062312
 31
0.0
  0
LINE
  5
52B
330
18
100
AcDbEntity
  8
1
 62
     1
100
AcDbLine
 10
64.32530504827169
 20
3.658897603062312
 30
0.0
 11
64.32530504827169
 21
3.45661216706652
 31
0.0
  0
ARC
  5
52C
330
18
100
AcDbEntity
  8
1
 62
     1
100
AcDbCircle
 10
47.0646079227898
 20
-7.429140616247143
 30
0.0
 40
20.40665529234623
100
AcDbArc
 50
29.9286696701461
 51
32.23827910344441
  0
LINE
  5
52D
330
18
100
AcDbEntity
  8
1
 62
     1
100
AcDbLine
 10
63.50000000000001
 20
2.827760571480519
 30
0.0
 11
63.50000000000001
 21
2.937468749999999
 31
0.0
  0
ARC
  5
52E
330
18
100
AcDbEntity
  8
1
 62
     1
100
AcDbCircle
 10
75.04502963803021
 20
-4.128037475197798
 30
0.0
 40
13.47846421777268
100
AcDbArc
 50
145.2058037137103
 51
148.9313361980482
  0
LINE
  5
52F
330
18
100
AcDbEntity
  8
1
 62
     1
100
AcDbLine
 10
63.97673562110331
 20
3.763198682531979
 30
0.0
 11
63.97673562110332
 21
3.763154604265281
 31
0.0
  0
LINE
  5
530
330
18
100
AcDbEntity
  8
1
 62
     1
100
AcDbLine
 10
63.97673562110332
 20
3.763154604265281
 30
0.0
 11
63.97673562110331
 21
3.75006428535217
 31
0.0
  0
LINE
  5
531
330
18
100
AcDbEntity
  8
1
 62
     1
100
AcDbLine
 10
63.97673562110331
 20
3.75006428535217
 30
0.0
 11
63.97673562110332
 21
3.56296465797089
 31
0.0
  0
ARC
  5
532
330
18
100
AcDbEntity
  8
1
 62
     1
100
AcDbCircle
 10
51.71973424937457
 20
-5.720917348270336
 30
0.0
 40
16.55679406676451
100
AcDbArc
 50
30.40133847555824
 51
31.77735449054248
  0
LINE
  5
533
330
18
100
AcDbEntity
  8
1
 62
     1
100
AcDbLine
 10
66.0
 20
2.657713238690851
 30
0.0
 11
66.0
 21
2.937468749999999
 31
0.0
  0
LINE
  5
534
330
18
100
AcDbEntity
  8
1
 62
     1
100
AcDbLine
 10
66.00000000000001
 20
-2.412352004008163
 30
0.0
 11
65.99999999999999
 21
-0.5983858075451214
 31
0.0
  0
LINE
  5
535
330
18
100
AcDbEntity
  8
1
 62
     1
100
AcDbLine
 10
64.32530504827169
 20
-2.868647403065536
 30
0.0
 11
63.97673562110332
 21
-2.980228259559706
 31
0.0
  0
ARC
  5
536
330
18
100
AcDbEntity
  8
1
 62
     1
100
AcDbCircle
 10
99.78775039679883
 20
28.42446291418853
 30
0.0
 40
49.6035815927191
100
AcDbArc
 50
209.5505157686438
 51
210.9570538856707
  0
LINE
  5
537
330
18
100
AcDbEntity
  8
1
 62
     1
100
AcDbLine
 10
61.0
 20
2.920242162581792
 30
0.0
 11
61.0
 21
2.937468749999999
 31
0.0
  0
ARC
  5
538
330
18
100
AcDbEntity
  8
1
 62
     1
100
AcDbCircle
 10
84.89531071299555
 20
-10.90630914932526
 30
0.0
 40
27.60712044009091
100
AcDbArc
 50
147.4953554036447
 51
149.9450243074528
  0
LINE
  5
539
330
18
100
AcDbEntity
  8
1
 62
     1
100
AcDbLine
 10
61.61345298923241
 20
4.0
 30
0.0
 11
61.61345298923242
 21
3.999983680446576
 31
0.0
  0
LINE
  5
53A
330
18
100
AcDbEntity
  8
1
 62
     1
100
AcDbLine
 10
61.61345298923242
 20
3.999983680446576
 30
0.0
 11
61.61345298923241
 21
3.99519595453651
 31
0.0
  0
LINE
  5
53B
330
18
100
AcDbEntity
  8
1
 62
     1
100
AcDbLine
 10
61.61345298923241
 20
3.99519595453651
 30
0.0
 11
61.61345298923242
 21
3.928523449093514
 31
0.0
  0
LINE
  5
53C
330
18
100
AcDbEntity
  8
1
 62
     1
100
AcDbLine
 10
61.6365470107676
 20
4.0
 30
0.0
 11
61.63654701076759
 21
3.99998342376752
 31
0.0
  0
LINE
  5
53D
330
18
100
AcDbEntity
  8
1
 62
     1
100
AcDbLine
 10
61.63654701076759
 20
3.99998342376752
 30
0.0
 11
61.6365470107676
 21
3.995119710746123
 31
0.0
  0
LINE
  5
53E
330
18
100
AcDbEntity
  8
1
 62
     1
100
AcDbLine
 10
61.6365470107676
 20
3.995119710746123
 30
0.0
 11
61.63654701076759
 21
3.927365793186402
 31
0.0
  0
ARC
  5
53F
330
18
100
AcDbEntity
  8
1
 62
     1
100
AcDbCircle
 10
28.25212258046497
 20
-16.39964467234445
 30
0.0
 40
39.08590988428944
100
AcDbArc
 50
29.56185013727274
 51
31.33627655803622
  0
ARC
  5
540
330
18
100
AcDbEntity
  8
1
 62
     1
100
AcDbCircle
 10
82.38943027020456
 20
19.19410701162334
 30
0.0
 40
31.03311696223725
100
AcDbArc
 50
209.5261071043226
 51
211.74885960037
  0
LINE
  5
541
330
18
100
AcDbEntity
  8
1
 62
     1
100
AcDbLine
 10
62.25000000000001
 20
2.883906562542081
 30
0.0
 11
62.25000000000001
 21
2.937468749999999
 31
0.0
  0
ARC
  5
542
330
18
100
AcDbEntity
  8
1
 62
     1
100
AcDbCircle
 10
77.18464931467788
 20
-5.877681739716863
 30
0.0
 40
17.31485858299836
100
AcDbArc
 50
145.8063009962422
 51
149.6014795775708
  0
LINE
  5
543
330
18
100
AcDbEntity
  8
1
 62
     1
100
AcDbLine
 10
62.86345298923243
 20
4.0
 30
0.0
 11
62.86345298923243
 21
3.999967134678386
 31
0.0
  0
LINE
  5
544
330
18
100
AcDbEntity
  8
1
 62
     1
100
AcDbLine
 10
62.86345298923243
 20
3.999967134678386
 30
0.0
 11
62.86345298923244
 21
3.990253362757257
 31
0.0
  0
LINE
  5
545
330
18
100
AcDbEntity
  8
1
 62
     1
100
AcDbLine
 10
62.86345298923244
 20
3.990253362757257
 30
0.0
 11
62.86345298923244
 21
3.852691060868735
 31
0.0
  0
ARC
  5
546
330
18
100
AcDbEntity
  8
1
 62
     1
100
AcDbCircle
 10
34.44707530269459
 20
14.85045452057784
 30
0.0
 40
23.60944431815252
100
AcDbArc
 50
329.3112671487037
 51
332.364222495305
  0
ARC
  5
547
330
18
100
AcDbEntity
  8
1
 62
     1
100
AcDbCircle
 10
156.5346232925666
 20
60.34583336667239
 30
0.0
 40
113.6092039374262
100
AcDbArc
 50
209.7370856349096
 51
210.3550399696899
  0
LINE
  5
548
330
18
100
AcDbEntity
  8
1
 62
     1
100
AcDbLine
 10
62.88654701076763
 20
4.0
 30
0.0
 11
62.88654701076763
 21
3.999966779165081
 31
0.0
  0
LINE
  5
549
330
18
100
AcDbEntity
  8
1
 62
     1
100
AcDbLine
 10
62.88654701076763
 20
3.999966779165081
 30
0.0
 11
62.88654701076764
 21
3.990146614549324
 31
0.0
  0
LINE
  5
54A
330
18
100
AcDbEntity
  8
1
 62
     1
100
AcDbLine
 10
62.88654701076764
 20
3.990146614549324
 30
0.0
 11
62.88654701076762
 21
3.851039163871757
 31
0.0
  0
ARC
  5
54B
330
18
100
AcDbEntity
  8
1
 62
     1
100
AcDbCircle
 10
41.04520921154848
 20
-9.93495846928721
 30
0.0
 40
25.82826534575031
100
AcDbArc
 50
29.61277361066944
 51
32.25964278996778
  0
ARC
  5
54C
330
18
100
AcDbEntity
  8
1
 62
     1
100
AcDbCircle
 10
-6.460646402900139
 20
39.63064483804306
 30
0.0
 40
73.5361712413611
100
AcDbArc
 50
330.0413589668956
 51
331.0120850715689
  0
ARC
  5
54D
330
18
100
AcDbEntity
  8
1
 62
     1
100
AcDbCircle
 10
-408.8094019154194
 20
271.6354507838745
 30
0.0
 40
539.0541076166148
100
AcDbArc
 50
330.1011052215441
 51
330.2073797397629
  0
LINE
  5
54E
330
18
100
AcDbEntity
  8
1
 62
     1
100
AcDbLine
 10
59.11345298923242
 20
4.0
 30
0.0
 11
59.11345298923242
 21
3.998893830660443
 31
0.0
  0
LINE
  5
54F
330
18
100
AcDbEntity
  8
1
 62
     1
100
AcDbLine
 10
59.75000000000001
 20
2.936517658031534
 30
0.0
 11
59.75
 21
2.937468749999999
 31
0.0
  0
ARC
  5
550
330
18
100
AcDbEntity
  8
1
 62
     1
100
AcDbCircle
 10
108.5312285004484
 20
-25.0779398645104
 30
0.0
 40
56.25306468027786
100
AcDbArc
 50
148.9011777992221
 51
150.1317805037333
  0
LINE
  5
551
330
18
100
AcDbEntity
  8
1
 62
     1
100
AcDbLine
 10
60.36345298923244
 20
4.0
 30
0.0
 11
60.36345298923244
 21
3.999994692352001
 31
0.0
  0
LINE
  5
552
330
18
100
AcDbEntity
  8
1
 62
     1
100
AcDbLine
 10
60.36345298923244
 20
3.999994692352001
 30
0.0
 11
60.36345298923244
 21
3.998449693352062
 31
0.0
  0
LINE
  5
553
330
18
100
AcDbEntity
  8
1
 62
     1
100
AcDbLine
 10
60.36345298923244
 20
3.998449693352062
 30
0.0
 11
60.36345298923243
 21
3.97736953944779
 31
0.0
  0
LINE
  5
554
330
18
100
AcDbEntity
  8
1
 62
     1
100
AcDbLine
 10
59.13654701076759
 20
4.0
 30
0.0
 11
59.13654701076759
 21
3.998745061958111
 31
0.0
  0
ARC
  5
555
330
18
100
AcDbEntity
  8
1
 62
     1
100
AcDbCircle
 10
-315.5420809585626
 20
-213.1113971754397
 30
0.0
 40
433.0368191402218
100
AcDbArc
 50
29.92814714606833
 51
30.09044618750236
  0
LINE
  5
556
330
18
100
AcDbEntity
  8
1
 62
     1
100
AcDbLine
 10
60.38654701076759
 20
4.0
 30
0.0
 11
60.38654701076759
 21
3.99999454151967
 31
0.0
  0
LINE
  5
557
330
18
100
AcDbEntity
  8
1
 62
     1
100
AcDbLine
 10
60.38654701076759
 20
3.99999454151967
 30
0.0
 11
60.38654701076759
 21
3.998405401439525
 31
0.0
  0
LINE
  5
558
330
18
100
AcDbEntity
  8
1
 62
     1
100
AcDbLine
 10
60.38654701076759
 20
3.998405401439525
 30
0.0
 11
60.38654701076759
 21
3.976714072450791
 31
0.0
  0
ARC
  5
559
330
18
100
AcDbEntity
  8
1
 62
     1
100
AcDbCircle
 10
-2.805416999185077
 20
-33.42347893232117
 30
0.0
 40
73.43023560259681
100
AcDbArc
 50
29.66594453594707
 51
30.61918783366255
  0
ARC
  5
55A
330
18
100
AcDbEntity
  8
1
 62
     1
100
AcDbCircle
 10
25.1388607618922
 20
20.85536655462203
 30
0.0
 40
35.72233305555284
100
AcDbArc
 50
329.7595273485379
 51
331.7727699252499
  0
ARC
  5
55B
330
18
100
AcDbEntity
  8
1
 62
     1
100
AcDbCircle
 10
73.23279073036818
 20
14.6894501703169
 30
0.0
 40
21.97618313278717
100
AcDbArc
 50
209.6629684369687
 51
212.7501320091472
  0
ARC
  5
55C
330
18
100
AcDbEntity
  8
1
 62
     1
100
AcDbCircle
 10
38.58270542942392
 20
11.79298365910976
 30
0.0
 40
17.4609908433549
100
AcDbArc
 50
328.685403814423
 51
332.8011084484289
  0
ARC
  5
55D
330
18
100
AcDbEntity
  8
1
 62
     1
100
AcDbCircle
 10
67.18291788179394
 20
11.94245183913885
 30
0.0
 40
16.50201617412688
100
AcDbArc
 50
209.9639315792074
 51
213.9864327611599
  0
ARC
  5
55E
330
18
100
AcDbEntity
  8
1
 62
     1
100
AcDbCircle
 10
40.70467000593685
 20
9.868117554517358
 30
0.0
 40
13.63403277427785
100
AcDbArc
 50
327.8664137032115
 51
333.0943337746516
  0
ARC
  5
55F
330
18
100
AcDbEntity
  8
1
 62
     1
100
AcDbCircle
 10
62.65640480058987
 20
10.03649255512048
 30
0.0
 40
12.78108609640722
100
AcDbArc
 50
210.4356868957696
 51
215.4903826893582
  0
ARC
  5
560
330
18
100
AcDbEntity
  8
1
 62
     1
100
AcDbCircle
 10
41.82755884282919
 20
8.49131419172205
 30
0.0
 40
10.95774392250105
100
AcDbArc
 50
326.8336591686781
 51
333.2515934466642
  0
ARC
  5
561
330
18
100
AcDbEntity
  8
1
 62
     1
100
AcDbCircle
 10
59.00596807516592
 20
8.596333628419979
 30
0.0
 40
10.0650730940619
100
AcDbArc
 50
211.0891148908777
 51
217.3031268624318
  0
ARC
  5
562
330
18
100
AcDbEntity
  8
1
 62
     1
100
AcDbCircle
 10
40.5168347252753
 20
7.691179340555558
 30
0.0
 40
9.694836595368603
100
AcDbArc
 50
329.3116515535303
 51
332.4632164387569
  0
LINE
  5
563
330
18
100
AcDbEntity
  8
1
 62
     1
100
AcDbLine
 10
47.79517943644063
 20
-3.56049279981193
 30
0.0
 11
47.79517943644063
 21
-3.881746792886985
 31
0.0
  0
LINE
  5
564
330
18
100
AcDbEntity
  8
1
 62
     1
100
AcDbLine
 10
46.97741037642055
 20
-3.002764989867218
 30
0.0
 11
46.97741037642056
 21
-3.409607607520781
 31
0.0
  0
LINE
  5
565
330
18
100
AcDbEntity
  8
1
 62
     1
100
AcDbLine
 10
46.97741037498029
 20
-3.002764992064203
 30
0.0
 11
46.70096188999999
 21
-2.814194003048838
 31
0.0
  0
LINE
  5
566
330
18
100
AcDbEntity
  8
1
 62
     1
100
AcDbLine
 10
49.74999999999999
 20
2.359997569200663
 30
0.0
 11
49.90784957872273
 21
2.596861846804573
 31
0.0
  0
LINE
  5
567
330
18
100
AcDbEntity
  8
1
 62
     1
100
AcDbLine
 10
49.90784957872273
 20
2.596861846804573
 30
0.0
 11
50.06345362347044
 21
2.851062123629494
 31
0.0
  0
LINE
  5
568
330
18
100
AcDbEntity
  8
1
 62
     1
100
AcDbLine
 10
50.06345362347044
 20
2.851062123629494
 30
0.0
 11
50.36345298923241
 21
3.395765651152538
 31
0.0
  0
ARC
  5
569
330
18
100
AcDbEntity
  8
1
 62
     1
100
AcDbCircle
 10
55.91872390139936
 20
7.4407817930903
 30
0.0
 40
7.992085615582813
100
AcDbArc
 50
211.9398560751217
 51
219.47610504229
  0
LINE
  5
56A
330
18
100
AcDbEntity
  8
1
 62
     1
100
AcDbLine
 10
66.00000000000011
 20
-0.3374013411994196
 30
0.0
 11
65.99999999999999
 21
2.657713238690854
 31
0.0
  0
LINE
  5
56B
330
18
100
AcDbEntity
  8
1
 62
     1
100
AcDbLine
 10
62.88654701076763
 20
3.851039163871756
 30
0.0
 11
62.86345298923244
 21
3.852691057847087
 31
0.0
  0
LINE
  5
56C
330
18
100
AcDbEntity
  8
1
 62
     1
100
AcDbLine
 10
61.6365470107676
 20
3.927365793186403
 30
0.0
 11
61.61345298923241
 21
3.928523448912884
 31
0.0
  0
LINE
  5
56D
330
18
100
AcDbEntity
  8
1
 62
     1
100
AcDbLine
 10
60.38654701076761
 20
3.97671407245079
 30
0.0
 11
60.36345298923245
 21
3.977369538931065
 31
0.0
  0
LINE
  5
56E
330
18
100
AcDbEntity
  8
1
 62
     1
100
AcDbLine
 10
59.13654701076759
 20
3.998745061958112
 30
0.0
 11
59.11345298923241
 21
3.998893830215206
 31
0.0
  0
LINE
  5
56F
330
18
100
AcDbEntity
  8
1
 62
     1
100
AcDbLine
 10
57.88654701076759
 20
3.993307442844033
 30
0.0
 11
57.86345298923243
 21
3.992948494835165
 31
0.0
  0
LINE
  5
570
330
18
100
AcDbEntity
  8
1
 62
     1
100
AcDbLine
 10
56.63654701076762
 20
3.960438492756186
 30
0.0
 11
56.61345298923239
 21
3.959574292729473
 31
0.0
  0
LINE
  5
571
330
18
100
AcDbEntity
  8
1
 62
     1
100
AcDbLine
 10
55.38654701076758
 20
3.900364048707188
 30
0.0
 11
55.36345298923243
 21
3.899000525404006
 31
0.0
  0
LINE
  5
572
330
18
100
AcDbEntity
  8
1
 62
     1
100
AcDbLine
 10
54.13654701076761
 20
3.813496880839895
 30
0.0
 11
54.1134529892324
 21
3.811643405118815
 31
0.0
  0
LINE
  5
573
330
18
100
AcDbEntity
  8
1
 62
     1
100
AcDbLine
 10
52.8865470107676
 20
3.700433572896805
 30
0.0
 11
52.86345298923241
 21
3.698102886313104
 31
0.0
  0
LINE
  5
574
330
18
100
AcDbEntity
  8
1
 62
     1
100
AcDbLine
 10
51.63654701076757
 20
3.56195066185179
 30
0.0
 11
51.61345298923242
 21
3.559158775478671
 31
0.0
  0
LINE
  5
575
330
18
100
AcDbEntity
  8
1
 62
     1
100
AcDbLine
 10
50.38654701076759
 20
3.398999577388218
 30
0.0
 11
50.36345298923241
 21
3.395765651152528
 31
0.0
  0
LINE
  5
576
330
18
100
AcDbEntity
  8
1
 62
     1
100
AcDbLine
 10
49.13654701076759
 20
3.212699963652182
 30
0.0
 11
49.11345298923241
 21
3.209046212050098
 31
0.0
  0
LINE
  5
577
330
18
100
AcDbEntity
  8
1
 62
     1
100
AcDbLine
 10
47.91491026792317
 20
3.147235255626887
 30
0.0
 11
47.79517943644061
 21
3.119327013585302
 31
0.0
  0
LINE
  5
578
330
18
100
AcDbEntity
  8
1
 62
     1
100
AcDbLine
 10
49.13654701076759
 20
2.973354820691013
 30
0.0
 11
49.1134529892324
 21
2.97744962188082
 31
0.0
  0
LINE
  5
579
330
18
100
AcDbEntity
  8
1
 62
     1
100
AcDbLine
 10
50.38654701076757
 20
2.741570645975313
 30
0.0
 11
50.36345298923239
 21
2.74602877166041
 31
0.0
  0
LINE
  5
57A
330
18
100
AcDbEntity
  8
1
 62
     1
100
AcDbLine
 10
51.63654701076758
 20
2.490953534347119
 30
0.0
 11
51.61345298923242
 21
2.495744354063314
 31
0.0
  0
LINE
  5
57B
330
18
100
AcDbEntity
  8
1
 62
     1
100
AcDbLine
 10
52.88654701076758
 20
2.223225261336893
 30
0.0
 11
52.86345298923242
 21
2.228315893491151
 31
0.0
  0
LINE
  5
57C
330
18
100
AcDbEntity
  8
1
 62
     1
100
AcDbLine
 10
54.13654701076759
 20
1.940225154777613
 30
0.0
 11
54.11345298923243
 21
1.94558062948798
 31
0.0
  0
LINE
  5
57D
330
18
100
AcDbEntity
  8
1
 62
     1
100
AcDbLine
 10
55.38654701076758
 20
1.643897126401408
 30
0.0
 11
55.36345298923243
 21
1.649480640408263
 31
0.0
  0
LINE
  5
57E
330
18
100
AcDbEntity
  8
1
 62
     1
100
AcDbLine
 10
56.63654701076759
 20
1.33627642587461
 30
0.0
 11
56.6134529892324
 21
1.34204960880142
 31
0.0
  0
LINE
  5
57F
330
18
100
AcDbEntity
  8
1
 62
     1
100
AcDbLine
 10
57.88654701076757
 20
1.019476292832476
 30
0.0
 11
57.86345298923241
 21
1.025399512645739
 31
0.0
  0
LINE
  5
580
330
18
100
AcDbEntity
  8
1
 62
     1
100
AcDbLine
 10
59.13654701076759
 20
0.6956732389699888
 30
0.0
 11
59.11345298923243
 21
0.701705815344567
 31
0.0
  0
LINE
  5
581
330
18
100
AcDbEntity
  8
1
 62
     1
100
AcDbLine
 10
60.38654701076759
 20
0.367091602717064
 30
0.0
 11
60.36345298923242
 21
0.3731920815828824
 31
0.0
  0
LINE
  5
582
330
18
100
AcDbEntity
  8
1
 62
     1
100
AcDbLine
 10
61.63654701076759
 20
0.0359881131072878
 30
0.0
 11
61.61345298923242
 21
0.0421145677189701
 31
0.0
  0
LINE
  5
583
330
18
100
AcDbEntity
  8
1
 62
     1
100
AcDbLine
 10
62.88654701076763
 20
-0.295362759965959
 30
0.0
 11
62.86345298923242
 21
-0.2892523953731066
 31
0.0
  0
LINE
  5
584
330
18
100
AcDbEntity
  8
1
 62
     1
100
AcDbLine
 10
66.00000000000013
 20
-0.3374013411994214
 30
0.0
 11
66.00000000000014
 21
-0.5983858075451214
 31
0.0
  0
LINE
  5
585
330
18
100
AcDbEntity
  8
1
 62
     1
100
AcDbLine
 10
46.70096189
 20
-1.961979162670391
 30
0.0
 11
46.70096188999999
 21
1.013797593774803
 31
0.0
  0
LINE
  5
586
330
18
100
AcDbEntity
  8
1
 62
     1
100
AcDbLine
 10
62.8865470107676
 20
-2.862068042371551
 30
0.0
 11
62.86345298923242
 21
-2.8577845718312
 31
0.0
  0
LINE
  5
587
330
18
100
AcDbEntity
  8
1
 62
     1
100
AcDbLine
 10
61.63654701076759
 20
-2.620834661700602
 30
0.0
 11
61.6134529892324
 21
-2.616203157849779
 31
0.0
  0
LINE
  5
588
330
18
100
AcDbEntity
  8
1
 62
     1
100
AcDbLine
 10
60.3865470107676
 20
-2.361598097041155
 30
0.0
 11
60.36345298923245
 21
-2.356650338534536
 31
0.0
  0
LINE
  5
589
330
18
100
AcDbEntity
  8
1
 62
     1
100
AcDbLine
 10
59.13654701076759
 20
-2.086139155318249
 30
0.0
 11
59.11345298923244
 21
-2.080909165974666
 31
0.0
  0
LINE
  5
58A
330
18
100
AcDbEntity
  8
1
 62
     1
100
AcDbLine
 10
57.88654701076758
 20
-1.796349604274459
 30
0.0
 11
57.86345298923244
 21
-1.790873327062942
 31
0.0
  0
LINE
  5
58B
330
18
100
AcDbEntity
  8
1
 62
     1
100
AcDbLine
 10
56.63654701076761
 20
-1.494220067617908
 30
0.0
 11
56.61345298923244
 21
-1.488535106972211
 31
0.0
  0
LINE
  5
58C
330
18
100
AcDbEntity
  8
1
 62
     1
100
AcDbLine
 10
55.38654701076759
 20
-1.181826500736928
 30
0.0
 11
55.3634529892324
 21
-1.175971868239921
 31
0.0
  0
LINE
  5
58D
330
18
100
AcDbEntity
  8
1
 62
     1
100
AcDbLine
 10
54.1365470107676
 20
-0.8613149645474218
 30
0.0
 11
54.11345298923241
 21
-0.8553309062491381
 31
0.0
  0
LINE
  5
58E
330
18
100
AcDbEntity
  8
1
 62
     1
100
AcDbLine
 10
52.88654701076756
 20
-0.5348865885765337
 30
0.0
 11
52.86345298923239
 21
-0.5288142365599448
 31
0.0
  0
LINE
  5
58F
330
18
100
AcDbEntity
  8
1
 62
     1
100
AcDbLine
 10
51.63654701076759
 20
-0.2047835241015435
 30
0.0
 11
51.61345298923241
 21
-0.1986645866655278
 31
0.0
  0
LINE
  5
590
330
18
100
AcDbEntity
  8
1
 62
     1
100
AcDbLine
 10
50.3865470107676
 20
0.1267262065919034
 30
0.0
 11
50.36345298923239
 21
0.1328497416014601
 31
0.0
  0
LINE
  5
591
330
18
100
AcDbEntity
  8
1
 62
     1
100
AcDbLine
 10
49.13654701076759
 20
0.4573649206399579
 30
0.0
 11
49.1134529892324
 21
0.4634509766692212
 31
0.0
  0
LINE
  5
592
330
18
100
AcDbEntity
  8
1
 62
     1
100
AcDbLine
 10
47.91491026792318
 20
0.7841330967578222
 30
0.0
 11
47.79517943644062
 21
0.8217214324339717
 31
0.0
  0
ARC
  5
593
330
18
100
AcDbEntity
  8
1
 62
     1
100
AcDbCircle
 10
46.4354470742678
 20
-3.719257210788156
 30
0.0
 40
4.740495242828539
100
AcDbArc
 50
83.43523085227328
 51
86.78918778536891
  0
LINE
  5
594
330
18
100
AcDbEntity
  8
1
 62
     1
100
AcDbLine
 10
47.91491026792317
 20
-3.642006680332469
 30
0.0
 11
47.79517943644063
 21
-3.560492799811931
 31
0.0
  0
LINE
  5
595
330
18
100
AcDbEntity
  8
1
 62
     1
100
AcDbLine
 10
49.13654701076759
 20
-3.803867697976304
 30
0.0
 11
49.11345298923241
 21
-3.801968272375313
 31
0.0
  0
LINE
  5
596
330
18
100
AcDbEntity
  8
1
 62
     1
100
AcDbLine
 10
50.38654701076761
 20
-3.893252923343484
 30
0.0
 11
50.36345298923239
 21
-3.891842383080443
 31
0.0
  0
LINE
  5
597
330
18
100
AcDbEntity
  8
1
 62
     1
100
AcDbLine
 10
51.63654701076759
 20
-3.955894238208733
 30
0.0
 11
51.61345298923241
 21
-3.954982274157101
 31
0.0
  0
LINE
  5
598
330
18
100
AcDbEntity
  8
1
 62
     1
100
AcDbLine
 10
52.88654701076759
 20
-3.991361244352483
 30
0.0
 11
52.86345298923242
 21
-3.990954116768163
 31
0.0
  0
LINE
  5
599
330
18
100
AcDbEntity
  8
1
 62
     1
100
AcDbLine
 10
54.13654701076763
 20
-3.999410304088163
 30
0.0
 11
54.1134529892324
 21
-3.999510812323549
 31
0.0
  0
LINE
  5
59A
330
18
100
AcDbEntity
  8
1
 62
     1
100
AcDbLine
 10
55.38654701076759
 20
-3.97998619346201
 30
0.0
 11
55.36345298923242
 21
-3.980593645925972
 31
0.0
  0
LINE
  5
59B
330
18
100
AcDbEntity
  8
1
 62
     1
100
AcDbLine
 10
56.6365470107676
 20
-3.933222281894446
 30
0.0
 11
56.61345298923241
 21
-3.934332503024464
 31
0.0
  0
LINE
  5
59C
330
18
100
AcDbEntity
  8
1
 62
     1
100
AcDbLine
 10
57.88654701076759
 20
-3.859439784810979
 30
0.0
 11
57.86345298923242
 21
-3.861045149734447
 31
0.0
  0
LINE
  5
59D
330
18
100
AcDbEntity
  8
1
 62
     1
100
AcDbLine
 10
59.1365470107676
 20
-3.759145614348367
 30
0.0
 11
59.11345298923242
 21
-3.76123510152166
 31
0.0
  0
LINE
  5
59E
330
18
100
AcDbEntity
  8
1
 62
     1
100
AcDbLine
 10
60.38654701076759
 20
-3.633028779488872
 30
0.0
 11
60.36345298923246
 21
-3.635588031403775
 31
0.0
  0
LINE
  5
59F
330
18
100
AcDbEntity
  8
1
 62
     1
100
AcDbLine
 10
61.6365470107676
 20
-3.481955462887032
 30
0.0
 11
61.61345298923243
 21
-3.484966891849173
 31
0.0
  0
LINE
  5
5A0
330
18
100
AcDbEntity
  8
1
 62
     1
100
AcDbLine
 10
62.8865470107676
 20
-3.306963410732702
 30
0.0
 11
62.86345298923244
 21
-3.310406330414853
 31
0.0
  0
LINE
  5
5A1
330
18
100
AcDbEntity
  8
1
 62
     1
100
AcDbLine
 10
46.70096189000001
 20
-2.814194003048837
 30
0.0
 11
46.70096189
 21
-3.25
 31
0.0
  0
LINE
  5
5A2
330
18
100
AcDbEntity
  8
1
 62
     1
100
AcDbLine
 10
46.70096189
 20
-2.814194003048838
 30
0.0
 11
46.70096189
 21
-1.961979162670392
 31
0.0
  0
LINE
  5
5A3
330
18
100
AcDbEntity
  8
1
 62
     1
100
AcDbLine
 10
46.70096189
 20
2.814970960692271
 30
0.0
 11
46.70096189000001
 21
1.013797593774823
 31
0.0
  0
LINE
  5
5A4
330
18
100
AcDbEntity
  8
1
 62
     1
100
AcDbLine
 10
66.0
 20
-0.1
 30
0.0
 11
66.1
 21
0.0
 31
0.0
  0
LINE
  5
5A5
330
18
100
AcDbEntity
  8
1
 62
     1
100
AcDbLine
 10
65.06435619711971
 20
3.481949401221173
 30
0.0
 11
64.75
 21
2.937468749999999
 31
0.0
  0
LINE
  5
5A6
330
18
100
AcDbEntity
  8
1
 62
     1
100
AcDbLine
 10
64.75
 20
2.937468749999999
 30
0.0
 11
64.32530504827169
 21
3.673061641141049
 31
0.0
  0
LINE
  5
5A7
330
18
100
AcDbEntity
  8
1
 62
     1
100
AcDbLine
 10
63.97673562110331
 20
3.76319868253198
 30
0.0
 11
63.50000000000001
 21
2.937468749999999
 31
0.0
  0
LINE
  5
5A8
330
18
100
AcDbEntity
  8
1
 62
     1
100
AcDbLine
 10
66.0
 20
2.937468749999999
 30
0.0
 11
65.79467951030632
 21
3.293094104173934
 31
0.0
  0
LINE
  5
5A9
330
18
100
AcDbEntity
  8
1
 62
     1
100
AcDbLine
 10
52.86345298923241
 20
-4.0
 30
0.0
 11
52.88654701076759
 21
-4.0
 31
0.0
  0
LINE
  5
5AA
330
18
100
AcDbEntity
  8
1
 62
     1
100
AcDbLine
 10
51.61345298923241
 20
-4.0
 30
0.0
 11
51.63654701076762
 21
-4.0
 31
0.0
  0
LINE
  5
5AB
330
18
100
AcDbEntity
  8
1
 62
     1
100
AcDbLine
 10
50.3634529892324
 20
-4.0
 30
0.0
 11
50.38654701076759
 21
-4.0
 31
0.0
  0
LINE
  5
5AC
330
18
100
AcDbEntity
  8
1
 62
     1
100
AcDbLine
 10
49.11345298923241
 20
-4.0
 30
0.0
 11
49.13654701076759
 21
-4.0
 31
0.0
  0
LINE
  5
5AD
330
18
100
AcDbEntity
  8
1
 62
     1
100
AcDbLine
 10
61.61345298923242
 20
3.999999999999998
 30
0.0
 11
61.0
 21
2.937468749999999
 31
0.0
  0
LINE
  5
5AE
330
18
100
AcDbEntity
  8
1
 62
     1
100
AcDbLine
 10
62.25
 20
2.937468749999999
 30
0.0
 11
61.63654701076759
 21
3.999999999999997
 31
0.0
  0
LINE
  5
5AF
330
18
100
AcDbEntity
  8
1
 62
     1
100
AcDbLine
 10
62.86345298923242
 20
4.000000000000014
 30
0.0
 11
62.25000000000001
 21
2.937468749999999
 31
0.0
  0
LINE
  5
5B0
330
18
100
AcDbEntity
  8
1
 62
     1
100
AcDbLine
 10
63.50000000000001
 20
2.937468749999999
 30
0.0
 11
62.88654701076761
 21
3.999999999999988
 31
0.0
  0
LINE
  5
5B1
330
18
100
AcDbEntity
  8
1
 62
     1
100
AcDbLine
 10
58.99782936226015
 20
3.799734096967221
 30
0.0
 11
58.99783416259098
 21
3.799742411378669
 31
0.0
  0
LINE
  5
5B2
330
18
100
AcDbEntity
  8
1
 62
     1
100
AcDbLine
 10
58.99783416259098
 20
3.799742411378669
 30
0.0
 11
59.11345298923243
 21
3.998893830659119
 31
0.0
  0
LINE
  5
5B3
330
18
100
AcDbEntity
  8
1
 62
     1
100
AcDbLine
 10
59.11345298923242
 20
4.000000000000003
 30
0.0
 11
58.99782936228809
 21
3.799734096951089
 31
0.0
  0
LINE
  5
5B4
330
18
100
AcDbEntity
  8
1
 62
     1
100
AcDbLine
 10
60.36345298923244
 20
4.000000000000027
 30
0.0
 11
59.74999999999999
 21
2.937468749999999
 31
0.0
  0
LINE
  5
5B5
330
18
100
AcDbEntity
  8
1
 62
     1
100
AcDbLine
 10
59.74999999999999
 20
2.937468749999999
 30
0.0
 11
59.13654701076759
 21
4.000000000000002
 31
0.0
  0
LINE
  5
5B6
330
18
100
AcDbEntity
  8
1
 62
     1
100
AcDbLine
 10
61.0
 20
2.937468749999999
 30
0.0
 11
60.38654701076759
 21
4.000000000000002
 31
0.0
  0
LINE
  5
5B7
330
18
100
AcDbEntity
  8
1
 62
     1
100
AcDbLine
 10
47.79517943644063
 20
-3.881746792886985
 30
0.0
 11
47.91491026792317
 21
-3.950873420443667
 31
0.0
  0
LINE
  5
5B8
330
18
100
AcDbEntity
  8
1
 62
     1
100
AcDbLine
 10
46.70096189
 20
-3.25
 30
0.0
 11
46.97741037642056
 21
-3.409607607520781
 31
0.0
  0
ARC
  5
5B9
330
18
100
AcDbEntity
  8
1
 62
     1
100
AcDbCircle
 10
57.74787686026018
 20
-3.702442421265501
 30
0.0
 40
4.610973480826237
100
AcDbArc
 50
72.77311980733354
 51
78.01402234801499
  0
LINE
  5
5BA
330
18
100
AcDbEntity
  8
1
 62
     1
100
AcDbLine
 10
52.27766970856336
 20
-0.1564584702016337
 30
0.0
 11
52.31549372141132
 21
-0.1649938765981989
 31
0.0
  0
LINE
  5
5BB
330
18
100
AcDbEntity
  8
1
 62
     1
100
AcDbLine
 10
52.31549372141132
 20
-0.1649938765981989
 30
0.0
 11
52.35323348890381
 21
-0.1756118267511664
 31
0.0
  0
LINE
  5
5BC
330
18
100
AcDbEntity
  8
1
 62
     1
100
AcDbLine
 10
52.35323348890381
 20
-0.1756118267511664
 30
0.0
 11
52.390874304196
 21
-0.188291845802591
 31
0.0
  0
LINE
  5
5BD
330
18
100
AcDbEntity
  8
1
 62
     1
100
AcDbLine
 10
52.390874304196
 20
-0.188291845802591
 30
0.0
 11
52.4283964392564
 21
-0.2030087850171826
 31
0.0
  0
LINE
  5
5BE
330
18
100
AcDbEntity
  8
1
 62
     1
100
AcDbLine
 10
52.4283964392564
 20
-0.2030087850171826
 30
0.0
 11
52.46577147057808
 21
-0.2197349504407572
 31
0.0
  0
LINE
  5
5BF
330
18
100
AcDbEntity
  8
1
 62
     1
100
AcDbLine
 10
52.46577147057808
 20
-0.2197349504407572
 30
0.0
 11
52.50299500477451
 21
-0.2384507500175825
 31
0.0
  0
LINE
  5
5C0
330
18
100
AcDbEntity
  8
1
 62
     1
100
AcDbLine
 10
52.50299500477451
 20
-0.2384507500175825
 30
0.0
 11
52.5400418095463
 21
-0.259124985410338
 31
0.0
  0
LINE
  5
5C1
330
18
100
AcDbEntity
  8
1
 62
     1
100
AcDbLine
 10
52.5400418095463
 20
-0.259124985410338
 30
0.0
 11
52.57689760852241
 21
-0.2817326936022479
 31
0.0
  0
LINE
  5
5C2
330
18
100
AcDbEntity
  8
1
 62
     1
100
AcDbLine
 10
52.57689760852241
 20
-0.2817326936022479
 30
0.0
 11
52.61355541758198
 21
-0.306249794944966
 31
0.0
  0
LINE
  5
5C3
330
18
100
AcDbEntity
  8
1
 62
     1
100
AcDbLine
 10
52.61355541758198
 20
-0.306249794944966
 30
0.0
 11
52.64999106494667
 21
-0.3326412761724628
 31
0.0
  0
LINE
  5
5C4
330
18
100
AcDbEntity
  8
1
 62
     1
100
AcDbLine
 10
52.64999106494667
 20
-0.3326412761724628
 30
0.0
 11
52.72217564015077
 21
-0.3909531467040683
 31
0.0
  0
LINE
  5
5C5
330
18
100
AcDbEntity
  8
1
 62
     1
100
AcDbLine
 10
52.72217564015077
 20
-0.3909531467040683
 30
0.0
 11
52.79335696263394
 21
-0.4564279346443111
 31
0.0
  0
LINE
  5
5C6
330
18
100
AcDbEntity
  8
1
 62
     1
100
AcDbLine
 10
52.79335696263394
 20
-0.4564279346443111
 30
0.0
 11
52.86345298923241
 21
-0.528814236559945
 31
0.0
  0
LINE
  5
5C7
330
18
100
AcDbEntity
  8
1
 62
     1
100
AcDbLine
 10
52.21671611750368
 20
-0.1443847895841456
 30
0.0
 11
52.25
 21
-0.1515535958530082
 31
0.0
  0
LINE
  5
5C8
330
18
100
AcDbEntity
  8
1
 62
     1
100
AcDbLine
 10
51.13317806506585
 20
0.0770114725562925
 30
0.0
 11
51.16417755077753
 21
0.0697898034514421
 31
0.0
  0
LINE
  5
5C9
330
18
100
AcDbEntity
  8
1
 62
     1
100
AcDbLine
 10
51.16417755077753
 20
0.0697898034514421
 30
0.0
 11
51.19508206487097
 21
0.0611752322799272
 31
0.0
  0
LINE
  5
5CA
330
18
100
AcDbEntity
  8
1
 62
     1
100
AcDbLine
 10
51.19508206487097
 20
0.0611752322799272
 30
0.0
 11
51.22588447988
 21
0.0511779008175252
 31
0.0
  0
LINE
  5
5CB
330
18
100
AcDbEntity
  8
1
 62
     1
100
AcDbLine
 10
51.22588447988
 20
0.0511779008175252
 30
0.0
 11
51.25658100722796
 21
0.0398087242673932
 31
0.0
  0
LINE
  5
5CC
330
18
100
AcDbEntity
  8
1
 62
     1
100
AcDbLine
 10
51.25658100722796
 20
0.0398087242673932
 30
0.0
 11
51.28715523229149
 21
0.0270829093321122
 31
0.0
  0
LINE
  5
5CD
330
18
100
AcDbEntity
  8
1
 62
     1
100
AcDbLine
 10
51.28715523229149
 20
0.0270829093321122
 30
0.0
 11
51.31759653922288
 21
0.0130136673831631
 31
0.0
  0
LINE
  5
5CE
330
18
100
AcDbEntity
  8
1
 62
     1
100
AcDbLine
 10
51.31759653922288
 20
0.0130136673831631
 30
0.0
 11
51.3479017315612
 21
-0.0023874483312211
 31
0.0
  0
LINE
  5
5CF
330
18
100
AcDbEntity
  8
1
 62
     1
100
AcDbLine
 10
51.3479017315612
 20
-0.0023874483312211
 30
0.0
 11
51.37806391740181
 21
-0.0191074286563607
 31
0.0
  0
LINE
  5
5D0
330
18
100
AcDbEntity
  8
1
 62
     1
100
AcDbLine
 10
51.37806391740181
 20
-0.0191074286563607
 30
0.0
 11
51.43794041246842
 21
-0.056455842603825
 31
0.0
  0
LINE
  5
5D1
330
18
100
AcDbEntity
  8
1
 62
     1
100
AcDbLine
 10
51.43794041246842
 20
-0.056455842603825
 30
0.0
 11
51.49715942281772
 21
-0.0989096246013988
 31
0.0
  0
LINE
  5
5D2
330
18
100
AcDbEntity
  8
1
 62
     1
100
AcDbLine
 10
51.49715942281772
 20
-0.0989096246013988
 30
0.0
 11
51.55568318502223
 21
-0.146358028271548
 31
0.0
  0
LINE
  5
5D3
330
18
100
AcDbEntity
  8
1
 62
     1
100
AcDbLine
 10
51.55568318502223
 20
-0.146358028271548
 30
0.0
 11
51.61345298923241
 21
-0.1986645866827156
 31
0.0
  0
ARC
  5
5D4
330
18
100
AcDbEntity
  8
1
 62
     1
100
AcDbCircle
 10
50.60751760183162
 20
-0.9444902575962193
 30
0.0
 40
1.10818904864819
100
AcDbArc
 50
69.25816671988827
 51
77.90174932542088
  0
LINE
  5
5D5
330
18
100
AcDbEntity
  8
1
 62
     1
100
AcDbLine
 10
49.98851959874115
 20
0.3239446903308288
 30
0.0
 11
50.03668882532908
 21
0.3115573056185124
 31
0.0
  0
LINE
  5
5D6
330
18
100
AcDbEntity
  8
1
 62
     1
100
AcDbLine
 10
50.03668882532908
 20
0.3115573056185124
 30
0.0
 11
50.08453778463527
 21
0.2957953448224334
 31
0.0
  0
LINE
  5
5D7
330
18
100
AcDbEntity
  8
1
 62
     1
100
AcDbLine
 10
50.08453778463527
 20
0.2957953448224334
 30
0.0
 11
50.13204340388905
 21
0.2766999630340307
 31
0.0
  0
LINE
  5
5D8
330
18
100
AcDbEntity
  8
1
 62
     1
100
AcDbLine
 10
50.13204340388905
 20
0.2766999630340307
 30
0.0
 11
50.17917067948002
 21
0.2543163488706504
 31
0.0
  0
LINE
  5
5D9
330
18
100
AcDbEntity
  8
1
 62
     1
100
AcDbLine
 10
50.17917067948002
 20
0.2543163488706504
 30
0.0
 11
50.22590121465724
 21
0.2286889410894535
 31
0.0
  0
LINE
  5
5DA
330
18
100
AcDbEntity
  8
1
 62
     1
100
AcDbLine
 10
50.22590121465724
 20
0.2286889410894535
 30
0.0
 11
50.27220455744715
 21
0.1998681553006689
 31
0.0
  0
LINE
  5
5DB
330
18
100
AcDbEntity
  8
1
 62
     1
100
AcDbLine
 10
50.27220455744715
 20
0.1998681553006689
 30
0.0
 11
50.31806584298822
 21
0.1679017147218049
 31
0.0
  0
LINE
  5
5DC
330
18
100
AcDbEntity
  8
1
 62
     1
100
AcDbLine
 10
50.31806584298822
 20
0.1679017147218049
 30
0.0
 11
50.3634529892324
 21
0.1328497414141762
 31
0.0
  0
LINE
  5
5DD
330
18
100
AcDbEntity
  8
1
 62
     1
100
AcDbLine
 10
49.4633613765474
 20
0.4413424569550044
 30
0.0
 11
49.46336295965217
 21
0.4413420993899273
 31
0.0
  0
ARC
  5
5DE
330
18
100
AcDbEntity
  8
1
 62
     1
100
AcDbCircle
 10
49.19630985097344
 20
-0.7126805722136803
 30
0.0
 40
1.184553688553361
100
AcDbArc
 50
62.13744015852792
 51
76.97049699113303
  0
LINE
  5
5DF
330
18
100
AcDbEntity
  8
1
 62
     1
100
AcDbLine
 10
48.84320596379554
 20
0.5830371363396045
 30
0.0
 11
48.84320717969766
 21
0.583036855421624
 31
0.0
  0
ARC
  5
5E0
330
18
100
AcDbEntity
  8
1
 62
     1
100
AcDbCircle
 10
48.65411903219429
 20
-0.2067478484832871
 30
0.0
 40
0.8121639027353019
100
AcDbArc
 50
55.57444242858945
 51
76.5358370366512
  0
ARC
  5
5E1
330
18
100
AcDbEntity
  8
1
 62
     1
100
AcDbCircle
 10
47.77795875889585
 20
-0.4794499230741575
 30
0.0
 40
1.277508648716304
100
AcDbArc
 50
55.60420638553268
 51
75.93381400901504
  0
LINE
  5
5E2
330
18
100
AcDbEntity
  8
1
 62
     1
100
AcDbLine
 10
47.69681766473397
 20
0.8529138823998127
 30
0.0
 11
47.69682316042135
 21
0.8529125658443817
 31
0.0
  0
ARC
  5
5E3
330
18
100
AcDbEntity
  8
1
 62
     1
100
AcDbCircle
 10
47.52751541655301
 20
0.1486586927226884
 30
0.0
 40
0.7243214103178535
100
AcDbArc
 50
68.31324209246411
 51
76.48220534206112
  0
LINE
  5
5E4
330
18
100
AcDbEntity
  8
1
 62
     1
100
AcDbLine
 10
47.69682325162557
 20
0.8529129465506464
 30
0.0
 11
47.69681775594337
 21
0.8529142631284153
 31
0.0
  0
LINE
  5
5E5
330
18
100
AcDbEntity
  8
SK1
100
AcDbLine
 10
0.0000000000000018
 20
4.0
 30
0.0
 11
-14.99999999999999
 21
4.0
 31
0.0
  0
LINE
  5
5E6
330
18
100
AcDbEntity
  8
SK1
100
AcDbLine
 10
-14.99999999999999
 20
-3.099999999999976
 30
0.0
 11
-14.99999999999999
 21
-4.0
 31
0.0
  0
LINE
  5
5E7
330
18
100
AcDbEntity
  8
SK1
100
AcDbLine
 10
-23.59999999999999
 20
2.527844931952908
 30
0.0
 11
-14.99999999999999
 21
2.527844931952908
 31
0.0
  0
LINE
  5
5E8
330
18
100
AcDbEntity
  8
SK1
100
AcDbLine
 10
-23.59999999999999
 20
3.100000000000001
 30
0.0
 11
-14.99999999999999
 21
3.100000000000001
 31
0.0
  0
ARC
  5
5E9
330
18
100
AcDbEntity
  8
SK1
100
AcDbCircle
 10
-16.45660051049831
 20
-2.035705256952035
 30
0.0
 40
8.47642294949604
100
AcDbArc
 50
147.4275854344566
 51
152.8647789262298
  0
LINE
  5
5EA
330
18
100
AcDbEntity
  8
SK1
100
AcDbLine
 10
-23.59999999999999
 20
3.099999999999976
 30
0.0
 11
-23.59999999999999
 21
2.527844931952908
 31
0.0
  0
LINE
  5
5EB
330
18
100
AcDbEntity
  8
SK1
100
AcDbLine
 10
-23.99999999999999
 20
3.100000000000001
 30
0.0
 11
-23.59999999999999
 21
3.100000000000001
 31
0.0
  0
LINE
  5
5EC
330
18
100
AcDbEntity
  8
SK1
100
AcDbLine
 10
-14.99999999999999
 20
4.0
 30
0.0
 11
-14.99999999999999
 21
3.999811216513347
 31
0.0
  0
LINE
  5
5ED
330
18
100
AcDbEntity
  8
SK1
100
AcDbLine
 10
-14.99999999999999
 20
3.999811216513347
 30
0.0
 11
-14.99999999999999
 21
3.942171026145378
 31
0.0
  0
LINE
  5
5EE
330
18
100
AcDbEntity
  8
SK1
100
AcDbLine
 10
-14.99999999999999
 20
3.942171026145378
 30
0.0
 11
-14.99999999999999
 21
3.099999999999976
 31
0.0
  0
LINE
  5
5EF
330
18
100
AcDbEntity
  8
SK1
100
AcDbLine
 10
-23.59999999999999
 20
-2.527844931952906
 30
0.0
 11
-14.99999999999999
 21
-2.527844931952906
 31
0.0
  0
LINE
  5
5F0
330
18
100
AcDbEntity
  8
SK1
100
AcDbLine
 10
-23.59999999999999
 20
-2.527844931952936
 30
0.0
 11
-23.6
 21
-3.099999999999976
 31
0.0
  0
LINE
  5
5F1
330
18
100
AcDbEntity
  8
SK1
100
AcDbLine
 10
-23.59999999999999
 20
-3.100000000000001
 30
0.0
 11
-14.99999999999999
 21
-3.100000000000001
 31
0.0
  0
LINE
  5
5F2
330
18
100
AcDbEntity
  8
SK1
100
AcDbLine
 10
-23.99999999999999
 20
3.099999999999997
 30
0.0
 11
-23.99999999999999
 21
1.830300521772314
 31
0.0
  0
LINE
  5
5F3
330
18
100
AcDbEntity
  8
SK1
100
AcDbLine
 10
-23.99999999999999
 20
-1.830300521772311
 30
0.0
 11
-23.99999999999999
 21
-3.100000000000001
 31
0.0
  0
ARC
  5
5F4
330
18
100
AcDbEntity
  8
SK1
100
AcDbCircle
 10
-16.45660051049509
 20
2.035705256953829
 30
0.0
 40
8.476422949499725
100
AcDbArc
 50
207.1352210737711
 51
212.5724145655419
  0
LINE
  5
5F5
330
18
100
AcDbEntity
  8
SK1
100
AcDbLine
 10
-23.99999999999999
 20
-3.100000000000001
 30
0.0
 11
-23.59999999999999
 21
-3.1
 31
0.0
  0
LINE
  5
5F6
330
18
100
AcDbEntity
  8
SK1
100
AcDbLine
 10
-14.99999999999999
 20
2.52784493195291
 30
0.0
 11
-14.99999999999999
 21
-2.527844931952906
 31
0.0
  0
LINE
  5
5F7
330
18
100
AcDbEntity
  8
SK1
100
AcDbLine
 10
-23.99999999999999
 20
1.830300521772313
 30
0.0
 11
-23.99999999999999
 21
-1.830300521772312
 31
0.0
  0
LINE
  5
5F8
330
18
100
AcDbEntity
  8
SK1
100
AcDbLine
 10
-14.99999999999999
 20
-4.0
 30
0.0
 11
0.0000000000000004
 21
-4.0
 31
0.0
  0
DIMENSION
  5
5F9
330
18
100
AcDbEntity
  8
2
100
AcDbDimension
  2
*D0
 10
81.00000000000003
 20
-3.999999999999948
 30
0.0
 11
78.60925000000002
 21
0.0000000000000435
 31
0.0
 70
    32
  1
M8
 71
     5
 42
8.0
  3
STANDARD
100
AcDbAlignedDimension
 13
66.0
 23
4.0
 33
0.0
 14
66.0
 24
-4.0
 34
0.0
 50
90.0000000000002
100
AcDbRotatedDimension
  0
DIMENSION
  5
606
330
18
100
AcDbEntity
  8
2
100
AcDbDimension
  2
*D1
 10
66.0
 20
75.0
 30
0.0
 11
33.0
 21
77.39075
 31
0.0
 70
    32
  1
<>
 71
     5
 42
66.0
  3
STANDARD
100
AcDbAlignedDimension
 13
0.0
 23
0.0
 33
0.0
 14
66.0
 24
0.0
 34
0.0
100
AcDbRotatedDimension
  0
DIMENSION
  5
613
330
18
100
AcDbEntity
  8
SK2
100
AcDbDimension
  2
*D2
 10
-38.99999999997958
 20
-4.000000000122482
 30
0.0
 11
-41.39074999999999
 21
-0.0000000001346827
 31
0.0
 70
    32
  1
%%c<>
 71
     5
 42
8.0
  3
STANDARD
100
AcDbAlignedDimension
 13
-14.99999999999999
 23
4.0
 33
0.0
 14
-14.99999999999999
 24
-4.0
 34
0.0
 50
90.0000000002924
100
AcDbRotatedDimension
  0
DIMENSION
  5
620
330
18
100
AcDbEntity
  8
2
100
AcDbDimension
  2
*D3
 10
66.0
 20
60.0
 30
0.0
 11
56.350480945
 21
62.39775
 31
0.0
 70
    32
  1
<>
 71
     5
 42
19.29903811
  3
STANDARD
100
AcDbAlignedDimension
 13
46.70096189
 23
3.25
 33
0.0
 14
66.0
 24
4.0
 34
0.0
100
AcDbRotatedDimension
  0
DIMENSION
  5
62D
330
18
100
AcDbEntity
  8
SK2
100
AcDbDimension
  2
*D4
 10
66.1
 20
90.0
 30
0.0
 11
21.05
 21
92.39775
 31
0.0
 70
    32
  1
<>
 71
     5
 42
90.1
  3
STANDARD
100
AcDbAlignedDimension
 13
-24.0
 23
4.0
 33
0.0
 14
66.1
 24
4.0
 34
0.0
100
AcDbRotatedDimension
  0
ENDSEC
  0
SECTION
  2
OBJECTS
  0
DICTIONARY
  5
C
330
0
100
AcDbDictionary
281
     1
  3
ACAD_COLOR
350
387
  3
ACAD_GROUP
350
D
  3
ACAD_LAYOUT
350
301
  3
ACAD_MATERIAL
350
386
  3
ACAD_MLEADERSTYLE
350
63A
  3
ACAD_MLINESTYLE
350
E
  3
ACAD_PLOTSETTINGS
350
302
  3
ACAD_PLOTSTYLENAME
350
2FF
  3
ACAD_SCALELIST
350
3A0
  3
ACAD_TABLESTYLE
350
388
  3
ACAD_VISUALSTYLE
350
3C5
  3
ACDBHEADERROUNDTRIPXREC
350
63B
  3
AcDbVariableDictionary
350
357
  0
DICTIONARY
  5
387
102
{ACAD_REACTORS
330
C
102
}
330
C
100
AcDbDictionary
281
     1
  0
DICTIONARY
  5
D
102
{ACAD_REACTORS
330
C
102
}
330
C
100
AcDbDictionary
281
     1
  0
DICTIONARY
  5
301
102
{ACAD_REACTORS
330
C
102
}
330
C
100
AcDbDictionary
281
     1
  3
Layout1
350
33B
  3
Model
350
303
  0
DICTIONARY
  5
386
102
{ACAD_REACTORS
330
C
102
}
330
C
100
AcDbDictionary
281
     1
  3
ByBlock
350
3C3
  3
ByLayer
350
3C2
  3
Global
350
3C4
  0
DICTIONARY
  5
63A
102
{ACAD_REACTORS
330
C
102
}
330
C
100
AcDbDictionary
281
     1
  0
DICTIONARY
  5
E
102
{ACAD_REACTORS
330
C
102
}
330
C
100
AcDbDictionary
281
     1
  3
STANDARD
350
1B
  0
DICTIONARY
  5
302
102
{ACAD_REACTORS
330
C
102
}
330
C
100
AcDbDictionary
281
     1
  0
ACDBDICTIONARYWDFLT
  5
2FF
102
{ACAD_REACTORS
330
C
102
}
330
C
100
AcDbDictionary
281
     1
  3
Normal
350
300
100
AcDbDictionaryWithDefault
340
300
  0
DICTIONARY
  5
3A0
102
{ACAD_REACTORS
330
C
102
}
330
C
100
AcDbDictionary
281
     1
  3
A0
350
3A1
  3
A1
350
3A2
  3
A2
350
3A3
  3
A3
350
3A4
  3
A4
350
3A5
  3
A5
350
3A6
  3
A6
350
3A7
  3
A7
350
3A8
  3
A8
350
3A9
  3
A9
350
3AA
  3
B0
350
3AB
  3
B1
350
3AC
  3
B2
350
3AD
  3
B3
350
3AE
  3
B4
350
3AF
  3
B5
350
3B0
  3
B6
350
3B1
  3
B7
350
3B2
  3
B8
350
3B3
  3
B9
350
3B4
  3
C0
350
3B5
  3
C1
350
3B6
  3
C2
350
3B7
  3
C3
350
3B8
  3
C4
350
3B9
  3
C5
350
3BA
  3
C6
350
3BB
  3
C7
350
3BC
  3
C8
350
3BD
  3
C9
350
3BE
  3
D0
350
3BF
  3
D1
350
3C0
  3
D2
350
3C1
  0
DICTIONARY
  5
388
102
{ACAD_REACTORS
330
C
102
}
330
C
100
AcDbDictionary
281
     1
  3
Standard
350
389
  0
DICTIONARY
  5
3C5
102
{ACAD_REACTORS
330
C
102
}
330
C
100
AcDbDictionary
281
     1
  3
2dWireframe
350
3CA
  3
3D Hidden
350
3CC
  3
3dWireframe
350
3CB
  3
Basic
350
3CD
  3
Brighten
350
3D1
  3
ColorChange
350
3D5
  3
Conceptual
350
3CF
  3
Dim
350
3D0
  3
Facepattern
350
3D4
  3
Flat
350
3C6
  3
FlatWithEdges
350
3C7
  3
Gouraud
350
3C8
  3
GouraudWithEdges
350
3C9
  3
Linepattern
350
3D3
  3
Realistic
350
3CE
  3
Thicken
350
3D2
  0
DICTIONARY
  5
63B
102
{ACAD_REACTORS
330
C
102
}
330
C
100
AcDbDictionary
281
     1
  3
COLORDICT
350
63C
  3
MATERIALDICT
350
63D
  0
DICTIONARY
  5
357
102
{ACAD_REACTORS
330
C
102
}
330
C
100
AcDbDictionary
281
     1
  3
CANNOSCALE
350
63E
  3
CTABLESTYLE
350
38D
  3
DIMASSOC
350
359
  3
HIDETEXT
350
358
  3
PROJECTNAME
350
38E
  0
LAYOUT
  5
33B
102
{ACAD_REACTORS
330
301
102
}
330
301
100
AcDbPlotSettings
  1

  2
Lexmark Optra PS2
  4

  6

 40
0.0
 41
0.0
 42
0.0
 43
0.0
 44
0.0
 45
0.0
 46
0.0
 47
0.0
 48
0.0
 49
0.0
140
0.0
141
0.0
142
1.0
143
1.0
 70
   688
 72
     0
 73
     0
 74
     5
  7
monochrome.ctb
 75
    16
147
1.0
148
0.0
149
0.0
100
AcDbLayout
  1
Layout1
 70
     1
 71
     1
 10
0.0
 20
0.0
 11
12.0
 21
9.0
 12
0.0
 22
0.0
 32
0.0
 14
0.0
 24
0.0
 34
0.0
 15
0.0
 25
0.0
 35
0.0
146
0.0
 13
0.0
 23
0.0
 33
0.0
 16
1.0
 26
0.0
 36
0.0
 17
0.0
 27
1.0
 37
0.0
 76
     0
330
338
  0
LAYOUT
  5
303
102
{ACAD_REACTORS
330
301
102
}
330
301
100
AcDbPlotSettings
  1

  2
Lexmark Optra Rx
  4
A4
  6

 40
6.805083274841307
 41
5.535083293914794
 42
6.974411010742187
 43
7.14373779296875
 44
209.9733276367186
 45
296.9259948730469
 46
0.0
 47
0.0
 48
0.0
 49
0.0
140
0.0
141
0.0
142
1.0
143
2.976565420630886
 70
 11952
 72
     1
 73
     1
 74
     0
  7
monochrome.ctb
 75
     0
147
0.335957675604539
148
204.1199660668592
149
172.3933209647495
100
AcDbLayout
  1
Model
 70
     1
 71
     0
 10
0.0
 20
0.0
 11
12.0
 21
9.0
 12
0.0
 22
0.0
 32
0.0
 14
0.0
 24
0.0
 34
0.0
 15
0.0
 25
0.0
 35
0.0
146
0.0
 13
0.0
 23
0.0
 33
0.0
 16
1.0
 26
0.0
 36
0.0
 17
0.0
 27
1.0
 37
0.0
 76
     0
330
18
331
39A
  0
MATERIAL
  5
3C3
102
{ACAD_REACTORS
330
386
102
}
102
{ACAD_XDICTIONARY
360
641
102
}
330
386
100
AcDbMaterial
  1
ByBlock
  0
MATERIAL
  5
3C2
102
{ACAD_REACTORS
330
386
102
}
102
{ACAD_XDICTIONARY
360
63F
102
}
330
386
100
AcDbMaterial
  1
ByLayer
  0
MATERIAL
  5
3C4
102
{ACAD_REACTORS
330
386
102
}
102
{ACAD_XDICTIONARY
360
643
102
}
330
386
100
AcDbMaterial
  1
Global
  0
MLINESTYLE
  5
1B
102
{ACAD_REACTORS
330
E
102
}
330
E
100
AcDbMlineStyle
  2
STANDARD
 70
     0
  3

 62
     0
 51
90.0
 52
90.0
 71
     2
 49
0.5
 62
   256
  6
BYLAYER
 49
-0.5
 62
   256
  6
BYLAYER
  0
ACDBPLACEHOLDER
  5
300
102
{ACAD_REACTORS
330
2FF
102
}
330
2FF
  0
SCALE
  5
3A1
102
{ACAD_REACTORS
330
3A0
102
}
330
3A0
100
AcDbScale
 70
     0
300
1:1
140
1.0
141
1.0
290
     1
  0
SCALE
  5
3A2
102
{ACAD_REACTORS
330
3A0
102
}
330
3A0
100
AcDbScale
 70
     0
300
1:2
140
1.0
141
2.0
290
     0
  0
SCALE
  5
3A3
102
{ACAD_REACTORS
330
3A0
102
}
330
3A0
100
AcDbScale
 70
     0
300
1:4
140
1.0
141
4.0
290
     0
  0
SCALE
  5
3A4
102
{ACAD_REACTORS
330
3A0
102
}
330
3A0
100
AcDbScale
 70
     0
300
1:5
140
1.0
141
5.0
290
     0
  0
SCALE
  5
3A5
102
{ACAD_REACTORS
330
3A0
102
}
330
3A0
100
AcDbScale
 70
     0
300
1:8
140
1.0
141
8.0
290
     0
  0
SCALE
  5
3A6
102
{ACAD_REACTORS
330
3A0
102
}
330
3A0
100
AcDbScale
 70
     0
300
1:10
140
1.0
141
10.0
290
     0
  0
SCALE
  5
3A7
102
{ACAD_REACTORS
330
3A0
102
}
330
3A0
100
AcDbScale
 70
     0
300
1:16
140
1.0
141
16.0
290
     0
  0
SCALE
  5
3A8
102
{ACAD_REACTORS
330
3A0
102
}
330
3A0
100
AcDbScale
 70
     0
300
1:20
140
1.0
141
20.0
290
     0
  0
SCALE
  5
3A9
102
{ACAD_REACTORS
330
3A0
102
}
330
3A0
100
AcDbScale
 70
     0
300
1:30
140
1.0
141
30.0
290
     0
  0
SCALE
  5
3AA
102
{ACAD_REACTORS
330
3A0
102
}
330
3A0
100
AcDbScale
 70
     0
300
1:40
140
1.0
141
40.0
290
     0
  0
SCALE
  5
3AB
102
{ACAD_REACTORS
330
3A0
102
}
330
3A0
100
AcDbScale
 70
     0
300
1:50
140
1.0
141
50.0
290
     0
  0
SCALE
  5
3AC
102
{ACAD_REACTORS
330
3A0
102
}
330
3A0
100
AcDbScale
 70
     0
300
1:100
140
1.0
141
100.0
290
     0
  0
SCALE
  5
3AD
102
{ACAD_REACTORS
330
3A0
102
}
330
3A0
100
AcDbScale
 70
     0
300
2:1
140
2.0
141
1.0
290
     0
  0
SCALE
  5
3AE
102
{ACAD_REACTORS
330
3A0
102
}
330
3A0
100
AcDbScale
 70
     0
300
4:1
140
4.0
141
1.0
290
     0
  0
SCALE
  5
3AF
102
{ACAD_REACTORS
330
3A0
102
}
330
3A0
100
AcDbScale
 70
     0
300
8:1
140
8.0
141
1.0
290
     0
  0
SCALE
  5
3B0
102
{ACAD_REACTORS
330
3A0
102
}
330
3A0
100
AcDbScale
 70
     0
300
10:1
140
10.0
141
1.0
290
     0
  0
SCALE
  5
3B1
102
{ACAD_REACTORS
330
3A0
102
}
330
3A0
100
AcDbScale
 70
     0
300
100:1
140
100.0
141
1.0
290
     0
  0
SCALE
  5
3B2
102
{ACAD_REACTORS
330
3A0
102
}
330
3A0
100
AcDbScale
 70
     0
300
1/128" = 1'-0"
140
0.0078125
141
12.0
290
     0
  0
SCALE
  5
3B3
102
{ACAD_REACTORS
330
3A0
102
}
330
3A0
100
AcDbScale
 70
     0
300
1/64" = 1'-0"
140
0.015625
141
12.0
290
     0
  0
SCALE
  5
3B4
102
{ACAD_REACTORS
330
3A0
102
}
330
3A0
100
AcDbScale
 70
     0
300
1/32" = 1'-0"
140
0.03125
141
12.0
290
     0
  0
SCALE
  5
3B5
102
{ACAD_REACTORS
330
3A0
102
}
330
3A0
100
AcDbScale
 70
     0
300
1/16" = 1'-0"
140
0.0625
141
12.0
290
     0
  0
SCALE
  5
3B6
102
{ACAD_REACTORS
330
3A0
102
}
330
3A0
100
AcDbScale
 70
     0
300
3/32" = 1'-0"
140
0.09375
141
12.0
290
     0
  0
SCALE
  5
3B7
102
{ACAD_REACTORS
330
3A0
102
}
330
3A0
100
AcDbScale
 70
     0
300
1/8" = 1'-0"
140
0.125
141
12.0
290
     0
  0
SCALE
  5
3B8
102
{ACAD_REACTORS
330
3A0
102
}
330
3A0
100
AcDbScale
 70
     0
300
3/16" = 1'-0"
140
0.1875
141
12.0
290
     0
  0
SCALE
  5
3B9
102
{ACAD_REACTORS
330
3A0
102
}
330
3A0
100
AcDbScale
 70
     0
300
1/4" = 1'-0"
140
0.25
141
12.0
290
     0
  0
SCALE
  5
3BA
102
{ACAD_REACTORS
330
3A0
102
}
330
3A0
100
AcDbScale
 70
     0
300
3/8" = 1'-0"
140
0.375
141
12.0
290
     0
  0
SCALE
  5
3BB
102
{ACAD_REACTORS
330
3A0
102
}
330
3A0
100
AcDbScale
 70
     0
300
1/2" = 1'-0"
140
0.5
141
12.0
290
     0
  0
SCALE
  5
3BC
102
{ACAD_REACTORS
330
3A0
102
}
330
3A0
100
AcDbScale
 70
     0
300
3/4" = 1'-0"
140
0.75
141
12.0
290
     0
  0
SCALE
  5
3BD
102
{ACAD_REACTORS
330
3A0
102
}
330
3A0
100
AcDbScale
 70
     0
300
1" = 1'-0"
140
1.0
141
12.0
290
     0
  0
SCALE
  5
3BE
102
{ACAD_REACTORS
330
3A0
102
}
330
3A0
100
AcDbScale
 70
     0
300
1-1/2" = 1'-0"
140
1.5
141
12.0
290
     0
  0
SCALE
  5
3BF
102
{ACAD_REACTORS
330
3A0
102
}
330
3A0
100
AcDbScale
 70
     0
300
3" = 1'-0"
140
3.0
141
12.0
290
     0
  0
SCALE
  5
3C0
102
{ACAD_REACTORS
330
3A0
102
}
330
3A0
100
AcDbScale
 70
     0
300
6" = 1'-0"
140
6.0
141
12.0
290
     0
  0
SCALE
  5
3C1
102
{ACAD_REACTORS
330
3A0
102
}
330
3A0
100
AcDbScale
 70
     0
300
1'-0" = 1'-0"
140
12.0
141
12.0
290
     0
  0
TABLESTYLE
  5
389
102
{ACAD_REACTORS
330
388
102
}
330
388
100
AcDbTableStyle
  3
Standard
 70
     0
 71
     0
 40
1.5
 41
1.5
280
     0
281
     0
  7
STANDARD
140
4.5
170
     2
 62
     0
 63
   257
283
     0
274
    -2
284
     1
 64
     0
275
    -2
285
     1
 65
     0
276
    -2
286
     1
 66
     0
277
    -2
287
     1
 67
     0
278
    -2
288
     1
 68
     0
279
    -2
289
     1
 69
     0
  7
STANDARD
140
6.0
170
     5
 62
     0
 63
   257
283
     0
274
    -2
284
     1
 64
     0
275
    -2
285
     1
 65
     0
276
    -2
286
     1
 66
     0
277
    -2
287
     1
 67
     0
278
    -2
288
     1
 68
     0
279
    -2
289
     1
 69
     0
  7
STANDARD
140
4.5
170
     5
 62
     0
 63
   257
283
     0
274
    -2
284
     1
 64
     0
275
    -2
285
     1
 65
     0
276
    -2
286
     1
 66
     0
277
    -2
287
     1
 67
     0
278
    -2
288
     1
 68
     0
279
    -2
289
     1
 69
     0
  0
VISUALSTYLE
  5
3CA
102
{ACAD_REACTORS
330
3C5
102
}
102
{ACAD_XDICTIONARY
360
64D
102
}
330
3C5
100
AcDbVisualStyle
  2
2dWireframe
 70
     4
 71
     0
 72
     2
 73
     0
 90
        0
 40
-0.6
 41
-30.0
 62
     5
 63
     7
 74
     1
 91
        4
 64
     7
 65
   257
 75
     1
175
     1
 42
1.0
 92
        0
 66
   257
 43
1.0
 76
     1
 77
     6
 78
     2
 67
     7
 79
     5
170
     0
171
     0
290
     0
174
     0
 93
        1
 44
0.0
173
     0
291
     0
 45
0.0
1001
ACAD
1000
AcDbSavedByObjectVersion
1070
     0
  0
VISUALSTYLE
  5
3CC
102
{ACAD_REACTORS
330
3C5
102
}
102
{ACAD_XDICTIONARY
360
651
102
}
330
3C5
100
AcDbVisualStyle
  2
3D Hidden
 70
     6
 71
     1
 72
     2
 73
     2
 90
        0
 40
-0.6
 41
-30.0
 62
     5
 63
     7
 74
     2
 91
        2
 64
     7
 65
   257
 75
     2
175
     1
 42
40.0
 92
        0
 66
   257
 43
1.0
 76
     1
 77
     6
 78
     2
 67
     7
 79
     3
170
     0
171
     0
290
     0
174
     0
 93
        1
 44
0.0
173
     0
291
     0
 45
0.0
1001
ACAD
1000
AcDbSavedByObjectVersion
1070
     0
  0
VISUALSTYLE
  5
3CB
102
{ACAD_REACTORS
330
3C5
102
}
102
{ACAD_XDICTIONARY
360
64F
102
}
330
3C5
100
AcDbVisualStyle
  2
3dWireframe
 70
     5
 71
     0
 72
     2
 73
     0
 90
        0
 40
-0.6
 41
-30.0
 62
     5
 63
     7
 74
     1
 91
        4
 64
     7
 65
   257
 75
     1
175
     1
 42
1.0
 92
        0
 66
   257
 43
1.0
 76
     1
 77
     6
 78
     2
 67
     7
 79
     5
170
     0
171
     0
290
     0
174
     0
 93
        1
 44
0.0
173
     0
291
     0
 45
0.0
1001
ACAD
1000
AcDbSavedByObjectVersion
1070
     0
  0
VISUALSTYLE
  5
3CD
102
{ACAD_REACTORS
330
3C5
102
}
102
{ACAD_XDICTIONARY
360
653
102
}
330
3C5
100
AcDbVisualStyle
  2
Basic
 70
     7
 71
     1
 72
     0
 73
     1
 90
        0
 40
-0.6
 41
-30.0
 62
     5
 63
     7
 74
     0
 91
        4
 64
     7
 65
   257
 75
     1
175
     1
 42
1.0
 92
        8
 66
     7
 43
1.0
 76
     1
 77
     6
 78
     2
 67
     7
 79
     5
170
     0
171
     0
290
     0
174
     0
 93
        1
 44
0.0
173
     0
291
     1
 45
0.0
1001
ACAD
1000
AcDbSavedByObjectVersion
1070
     0
  0
VISUALSTYLE
  5
3D1
102
{ACAD_REACTORS
330
3C5
102
}
102
{ACAD_XDICTIONARY
360
65B
102
}
330
3C5
100
AcDbVisualStyle
  2
Brighten
 70
    12
 71
     2
 72
     2
 73
     0
 90
        0
 40
-0.6
 41
-30.0
 62
     5
 63
     7
 74
     1
 91
        4
 64
     7
 65
   257
 75
     1
175
     1
 42
1.0
 92
        8
 66
     7
 43
1.0
 76
     1
 77
     6
 78
     2
 67
     7
 79
     5
170
     0
171
     0
290
     0
174
     0
 93
        1
 44
50.0
173
     0
291
     1
 45
0.0
1001
ACAD
1000
AcDbSavedByObjectVersion
1070
     0
  0
VISUALSTYLE
  5
3D5
102
{ACAD_REACTORS
330
3C5
102
}
102
{ACAD_XDICTIONARY
360
663
102
}
330
3C5
100
AcDbVisualStyle
  2
ColorChange
 70
    16
 71
     2
 72
     2
 73
     3
 90
        0
 40
-0.6
 41
-30.0
 62
     5
 63
     8
 74
     1
 91
        4
 64
     7
 65
   257
 75
     1
175
     1
 42
1.0
 92
        8
 66
     8
 43
1.0
 76
     1
 77
     6
 78
     2
 67
     7
 79
     5
170
     0
171
     0
290
     0
174
     0
 93
        1
 44
0.0
173
     0
291
     1
 45
0.0
1001
ACAD
1000
AcDbSavedByObjectVersion
1070
     0
  0
VISUALSTYLE
  5
3CF
102
{ACAD_REACTORS
330
3C5
102
}
102
{ACAD_XDICTIONARY
360
657
102
}
330
3C5
100
AcDbVisualStyle
  2
Conceptual
 70
     9
 71
     3
 72
     2
 73
     0
 90
        0
 40
-0.6
 41
-30.0
 62
     5
 63
     7
 74
     2
 91
        2
 64
     7
 65
   257
 75
     1
175
     1
 42
40.0
 92
        8
 66
     7
 43
1.0
 76
     1
 77
     6
 78
     2
 67
     7
 79
     3
170
     0
171
     0
290
     0
174
     0
 93
        1
 44
0.0
173
     0
291
     0
 45
0.0
1001
ACAD
1000
AcDbSavedByObjectVersion
1070
     0
  0
VISUALSTYLE
  5
3D0
102
{ACAD_REACTORS
330
3C5
102
}
102
{ACAD_XDICTIONARY
360
659
102
}
330
3C5
100
AcDbVisualStyle
  2
Dim
 70
    11
 71
     2
 72
     2
 73
     0
 90
        0
 40
-0.6
 41
-30.0
 62
     5
 63
     7
 74
     1
 91
        4
 64
     7
 65
   257
 75
     1
175
     1
 42
1.0
 92
        8
 66
     7
 43
1.0
 76
     1
 77
     6
 78
     2
 67
     7
 79
     5
170
     0
171
     0
290
     0
174
     0
 93
        1
 44
-50.0
173
     0
291
     1
 45
0.0
1001
ACAD
1000
AcDbSavedByObjectVersion
1070
     0
  0
VISUALSTYLE
  5
3D4
102
{ACAD_REACTORS
330
3C5
102
}
102
{ACAD_XDICTIONARY
360
661
102
}
330
3C5
100
AcDbVisualStyle
  2
Facepattern
 70
    15
 71
     2
 72
     2
 73
     0
 90
        0
 40
-0.6
 41
-30.0
 62
     5
 63
     7
 74
     1
 91
        4
 64
     7
 65
   257
 75
     1
175
     1
 42
1.0
 92
        8
 66
     7
 43
1.0
 76
     1
 77
     6
 78
     2
 67
     7
 79
     5
170
     0
171
     0
290
     0
174
     0
 93
        1
 44
0.0
173
     0
291
     1
 45
0.0
1001
ACAD
1000
AcDbSavedByObjectVersion
1070
     0
  0
VISUALSTYLE
  5
3C6
102
{ACAD_REACTORS
330
3C5
102
}
102
{ACAD_XDICTIONARY
360
645
102
}
330
3C5
100
AcDbVisualStyle
  2
Flat
 70
     0
 71
     2
 72
     1
 73
     1
 90
        2
 40
-0.6
 41
30.0
 62
     5
 63
     7
 74
     0
 91
        4
 64
     7
 65
   257
 75
     1
175
     1
 42
1.0
 92
        8
 66
     7
 43
1.0
 76
     1
 77
     6
 78
     2
 67
     7
 79
     5
170
     0
171
     0
290
     0
174
     0
 93
       13
 44
0.0
173
     0
291
     1
 45
0.0
1001
ACAD
1000
AcDbSavedByObjectVersion
1070
     0
  0
VISUALSTYLE
  5
3C7
102
{ACAD_REACTORS
330
3C5
102
}
102
{ACAD_XDICTIONARY
360
647
102
}
330
3C5
100
AcDbVisualStyle
  2
FlatWithEdges
 70
     1
 71
     2
 72
     1
 73
     1
 90
        2
 40
-0.6
 41
30.0
 62
     5
 63
     7
 74
     1
 91
        4
 64
     7
 65
   257
 75
     1
175
     1
 42
1.0
 92
        0
 66
   257
 43
1.0
 76
     1
 77
     6
 78
     2
 67
     7
 79
     5
170
     0
171
     0
290
     0
174
     0
 93
       13
 44
0.0
173
     0
291
     1
 45
0.0
1001
ACAD
1000
AcDbSavedByObjectVersion
1070
     0
  0
VISUALSTYLE
  5
3C8
102
{ACAD_REACTORS
330
3C5
102
}
102
{ACAD_XDICTIONARY
360
649
102
}
330
3C5
100
AcDbVisualStyle
  2
Gouraud
 70
     2
 71
     2
 72
     2
 73
     1
 90
        2
 40
-0.6
 41
30.0
 62
     5
 63
     7
 74
     0
 91
        4
 64
     7
 65
   257
 75
     1
175
     1
 42
1.0
 92
        0
 66
     7
 43
1.0
 76
     1
 77
     6
 78
     2
 67
     7
 79
     5
170
     0
171
     0
290
     0
174
     0
 93
       13
 44
0.0
173
     0
291
     1
 45
0.0
1001
ACAD
1000
AcDbSavedByObjectVersion
1070
     0
  0
VISUALSTYLE
  5
3C9
102
{ACAD_REACTORS
330
3C5
102
}
102
{ACAD_XDICTIONARY
360
64B
102
}
330
3C5
100
AcDbVisualStyle
  2
GouraudWithEdges
 70
     3
 71
     2
 72
     2
 73
     1
 90
        2
 40
-0.6
 41
30.0
 62
     5
 63
     7
 74
     1
 91
        4
 64
     7
 65
   257
 75
     1
175
     1
 42
1.0
 92
        0
 66
   257
 43
1.0
 76
     1
 77
     6
 78
     2
 67
     7
 79
     5
170
     0
171
     0
290
     0
174
     0
 93
       13
 44
0.0
173
     0
291
     1
 45
0.0
1001
ACAD
1000
AcDbSavedByObjectVersion
1070
     0
  0
VISUALSTYLE
  5
3D3
102
{ACAD_REACTORS
330
3C5
102
}
102
{ACAD_XDICTIONARY
360
65F
102
}
330
3C5
100
AcDbVisualStyle
  2
Linepattern
 70
    14
 71
     2
 72
     2
 73
     0
 90
        0
 40
-0.6
 41
-30.0
 62
     5
 63
     7
 74
     1
 91
        4
 64
     7
 65
   257
 75
     7
175
     7
 42
1.0
 92
        8
 66
     7
 43
1.0
 76
     1
 77
     6
 78
     2
 67
     7
 79
     5
170
     0
171
     0
290
     0
174
     0
 93
        1
 44
0.0
173
     0
291
     1
 45
0.0
1001
ACAD
1000
AcDbSavedByObjectVersion
1070
     0
  0
VISUALSTYLE
  5
3CE
102
{ACAD_REACTORS
330
3C5
102
}
102
{ACAD_XDICTIONARY
360
655
102
}
330
3C5
100
AcDbVisualStyle
  2
Realistic
 70
     8
 71
     2
 72
     2
 73
     0
 90
        0
 40
-0.6
 41
-30.0
 62
     5
 63
     7
 74
     1
 91
        0
 64
     7
 65
   257
 75
     1
175
     1
 42
1.0
 92
        8
 66
     8
 43
1.0
 76
     1
 77
     6
 78
     2
 67
     7
 79
     5
170
     0
171
     0
290
     0
174
     0
 93
       13
 44
0.0
173
     0
291
     0
 45
0.0
1001
ACAD
1000
AcDbSavedByObjectVersion
1070
     0
  0
VISUALSTYLE
  5
3D2
102
{ACAD_REACTORS
330
3C5
102
}
102
{ACAD_XDICTIONARY
360
65D
102
}
330
3C5
100
AcDbVisualStyle
  2
Thicken
 70
    13
 71
     2
 72
     2
 73
     0
 90
        0
 40
-0.6
 41
-30.0
 62
     5
 63
     7
 74
     1
 91
        4
 64
     7
 65
   257
 75
     1
175
     1
 42
1.0
 92
       12
 66
     7
 43
1.0
 76
     1
 77
     6
 78
     2
 67
     7
 79
     5
170
     0
171
     0
290
     0
174
     0
 93
        1
 44
0.0
173
     0
291
     1
 45
0.0
1001
ACAD
1000
AcDbSavedByObjectVersion
1070
     0
  0
XRECORD
  5
63C
102
{ACAD_REACTORS
330
63B
102
}
330
63B
100
AcDbXrecord
280
     1
340
387
  0
XRECORD
  5
63D
102
{ACAD_REACTORS
330
63B
102
}
330
63B
100
AcDbXrecord
280
     1
340
386
  0
DICTIONARYVAR
  5
63E
102
{ACAD_REACTORS
330
357
102
}
330
357
100
DictionaryVariables
280
     0
  1
1:1
  0
DICTIONARYVAR
  5
38D
102
{ACAD_REACTORS
330
357
102
}
330
357
100
DictionaryVariables
280
     0
  1
Standard
  0
DICTIONARYVAR
  5
359
102
{ACAD_REACTORS
330
357
102
}
330
357
100
DictionaryVariables
280
     0
  1
2
  0
DICTIONARYVAR
  5
358
102
{ACAD_REACTORS
330
357
102
}
330
357
100
DictionaryVariables
280
     0
  1
1
  0
DICTIONARYVAR
  5
38E
102
{ACAD_REACTORS
330
357
102
}
330
357
100
DictionaryVariables
280
     0
  1

  0
DICTIONARY
  5
641
330
3C3
100
AcDbDictionary
280
     1
281
     1
  3
ACAD_XREC_ROUNDTRIP
360
642
  0
DICTIONARY
  5
63F
330
3C2
100
AcDbDictionary
280
     1
281
     1
  3
ACAD_XREC_ROUNDTRIP
360
640
  0
DICTIONARY
  5
643
330
3C4
100
AcDbDictionary
280
     1
281
     1
  3
ACAD_XREC_ROUNDTRIP
360
644
  0
DICTIONARY
  5
64D
330
3CA
100
AcDbDictionary
280
     1
281
     1
  3
ACAD_XREC_ROUNDTRIP
360
64E
  0
DICTIONARY
  5
651
330
3CC
100
AcDbDictionary
280
     1
281
     1
  3
ACAD_XREC_ROUNDTRIP
360
652
  0
DICTIONARY
  5
64F
330
3CB
100
AcDbDictionary
280
     1
281
     1
  3
ACAD_XREC_ROUNDTRIP
360
650
  0
DICTIONARY
  5
653
330
3CD
100
AcDbDictionary
280
     1
281
     1
  3
ACAD_XREC_ROUNDTRIP
360
654
  0
DICTIONARY
  5
65B
330
3D1
100
AcDbDictionary
280
     1
281
     1
  3
ACAD_XREC_ROUNDTRIP
360
65C
  0
DICTIONARY
  5
663
330
3D5
100
AcDbDictionary
280
     1
281
     1
  3
ACAD_XREC_ROUNDTRIP
360
664
  0
DICTIONARY
  5
657
330
3CF
100
AcDbDictionary
280
     1
281
     1
  3
ACAD_XREC_ROUNDTRIP
360
658
  0
DICTIONARY
  5
659
330
3D0
100
AcDbDictionary
280
     1
281
     1
  3
ACAD_XREC_ROUNDTRIP
360
65A
  0
DICTIONARY
  5
661
330
3D4
100
AcDbDictionary
280
     1
281
     1
  3
ACAD_XREC_ROUNDTRIP
360
662
  0
DICTIONARY
  5
645
330
3C6
100
AcDbDictionary
280
     1
281
     1
  3
ACAD_XREC_ROUNDTRIP
360
646
  0
DICTIONARY
  5
647
330
3C7
100
AcDbDictionary
280
     1
281
     1
  3
ACAD_XREC_ROUNDTRIP
360
648
  0
DICTIONARY
  5
649
330
3C8
100
AcDbDictionary
280
     1
281
     1
  3
ACAD_XREC_ROUNDTRIP
360
64A
  0
DICTIONARY
  5
64B
330
3C9
100
AcDbDictionary
280
     1
281
     1
  3
ACAD_XREC_ROUNDTRIP
360
64C
  0
DICTIONARY
  5
65F
330
3D3
100
AcDbDictionary
280
     1
281
     1
  3
ACAD_XREC_ROUNDTRIP
360
660
  0
DICTIONARY
  5
655
330
3CE
100
AcDbDictionary
280
     1
281
     1
  3
ACAD_XREC_ROUNDTRIP
360
656
  0
DICTIONARY
  5
65D
330
3D2
100
AcDbDictionary
280
     1
281
     1
  3
ACAD_XREC_ROUNDTRIP
360
65E
  0
XRECORD
  5
642
102
{ACAD_REACTORS
330
641
102
}
330
641
100
AcDbXrecord
280
     1
102
MATERIAL
148
0.0
149
0.0
149
0.0
 93
        0
 94
      127
282
     0
 72
     1
 77
     1
171
     1
175
     1
179
     1
273
     0
  0
XRECORD
  5
640
102
{ACAD_REACTORS
330
63F
102
}
330
63F
100
AcDbXrecord
280
     1
102
MATERIAL
148
0.0
149
0.0
149
0.0
 93
        0
 94
      127
282
     0
 72
     1
 77
     1
171
     1
175
     1
179
     1
273
     0
  0
XRECORD
  5
644
102
{ACAD_REACTORS
330
643
102
}
330
643
100
AcDbXrecord
280
     1
102
MATERIAL
148
0.0
149
0.0
149
0.0
 93
        0
 94
      127
282
     0
 72
     1
 77
     1
171
     1
175
     1
179
     1
273
     0
  0
XRECORD
  5
64E
102
{ACAD_REACTORS
330
64D
102
}
330
64D
100
AcDbXrecord
280
     1
102
RTVSPropertyOp0
 70
     1
102
RTVSPropertyOp1
 70
     1
102
RTVSPropertyOp2
 70
     1
102
RTVSPropertyOp3
 70
     1
102
RTVSPropertyOp4
 70
     1
102
RTVSPropertyOp5
 70
     1
102
RTVSPropertyOp6
 70
     1
102
RTVSPropertyOp7
 70
     1
102
RTVSPropertyOp8
 70
     1
102
RTVSPropertyOp9
 70
     1
102
RTVSPropertyOp10
 70
     1
102
RTVSPropertyOp11
 70
     1
102
RTVSPropertyOp12
 70
     1
102
RTVSPropertyOp13
 70
     1
102
RTVSPropertyOp14
 70
     1
102
RTVSPropertyOp15
 70
     1
102
RTVSPropertyOp16
 70
     1
102
RTVSPropertyOp17
 70
     1
102
RTVSPropertyOp18
 70
     1
102
RTVSPropertyOp19
 70
     1
102
RTVSPropertyOp20
 70
     1
102
RTVSPropertyOp21
 70
     1
102
RTVSPropertyOp22
 70
     1
102
RTVSPropertyOp23
 70
     1
102
RTVSPropertyOp24
 70
     1
102
RTVSPropertyOp25
 70
     1
102
RTVSPropertyOp26
 70
     1
102
RTVSPropertyOp27
 70
     1
102
RTVSPropertyOp28
 70
     1
102
RTVSPropertyOp29
 70
     1
102
RTVSPropertyOp30
 70
     1
102
RTVSPropertyOp31
 70
     1
102
RTVSPropertyOp32
 70
     1
  0
XRECORD
  5
652
102
{ACAD_REACTORS
330
651
102
}
330
651
100
AcDbXrecord
280
     1
102
RTVSPropertyOp0
 70
     1
102
RTVSPropertyOp1
 70
     1
102
RTVSPropertyOp2
 70
     1
102
RTVSPropertyOp3
 70
     1
102
RTVSPropertyOp4
 70
     1
102
RTVSPropertyOp5
 70
     1
102
RTVSPropertyOp6
 70
     1
102
RTVSPropertyOp7
 70
     1
102
RTVSPropertyOp8
 70
     1
102
RTVSPropertyOp9
 70
     1
102
RTVSPropertyOp10
 70
     1
102
RTVSPropertyOp11
 70
     1
102
RTVSPropertyOp12
 70
     1
102
RTVSPropertyOp13
 70
     1
102
RTVSPropertyOp14
 70
     1
102
RTVSPropertyOp15
 70
     1
102
RTVSPropertyOp16
 70
     1
102
RTVSPropertyOp17
 70
     1
102
RTVSPropertyOp18
 70
     1
102
RTVSPropertyOp19
 70
     1
102
RTVSPropertyOp20
 70
     1
102
RTVSPropertyOp21
 70
     1
102
RTVSPropertyOp22
 70
     1
102
RTVSPropertyOp23
 70
     1
102
RTVSPropertyOp24
 70
     1
102
RTVSPropertyOp25
 70
     1
102
RTVSPropertyOp26
 70
     1
102
RTVSPropertyOp27
 70
     1
102
RTVSPropertyOp28
 70
     1
102
RTVSPropertyOp29
 70
     1
102
RTVSPropertyOp30
 70
     1
102
RTVSPropertyOp31
 70
     1
102
RTVSPropertyOp32
 70
     1
  0
XRECORD
  5
650
102
{ACAD_REACTORS
330
64F
102
}
330
64F
100
AcDbXrecord
280
     1
102
RTVSPropertyOp0
 70
     1
102
RTVSPropertyOp1
 70
     1
102
RTVSPropertyOp2
 70
     1
102
RTVSPropertyOp3
 70
     1
102
RTVSPropertyOp4
 70
     1
102
RTVSPropertyOp5
 70
     1
102
RTVSPropertyOp6
 70
     1
102
RTVSPropertyOp7
 70
     1
102
RTVSPropertyOp8
 70
     1
102
RTVSPropertyOp9
 70
     1
102
RTVSPropertyOp10
 70
     1
102
RTVSPropertyOp11
 70
     1
102
RTVSPropertyOp12
 70
     1
102
RTVSPropertyOp13
 70
     1
102
RTVSPropertyOp14
 70
     1
102
RTVSPropertyOp15
 70
     1
102
RTVSPropertyOp16
 70
     1
102
RTVSPropertyOp17
 70
     1
102
RTVSPropertyOp18
 70
     1
102
RTVSPropertyOp19
 70
     1
102
RTVSPropertyOp20
 70
     1
102
RTVSPropertyOp21
 70
     1
102
RTVSPropertyOp22
 70
     1
102
RTVSPropertyOp23
 70
     1
102
RTVSPropertyOp24
 70
     1
102
RTVSPropertyOp25
 70
     1
102
RTVSPropertyOp26
 70
     1
102
RTVSPropertyOp27
 70
     1
102
RTVSPropertyOp28
 70
     1
102
RTVSPropertyOp29
 70
     1
102
RTVSPropertyOp30
 70
     1
102
RTVSPropertyOp31
 70
     1
102
RTVSPropertyOp32
 70
     1
  0
XRECORD
  5
654
102
{ACAD_REACTORS
330
653
102
}
330
653
100
AcDbXrecord
280
     1
102
RTVSPropertyOp0
 70
     1
102
RTVSPropertyOp1
 70
     1
102
RTVSPropertyOp2
 70
     1
102
RTVSPropertyOp3
 70
     1
102
RTVSPropertyOp4
 70
     1
102
RTVSPropertyOp5
 70
     1
102
RTVSPropertyOp6
 70
     1
102
RTVSPropertyOp7
 70
     1
102
RTVSPropertyOp8
 70
     1
102
RTVSPropertyOp9
 70
     1
102
RTVSPropertyOp10
 70
     1
102
RTVSPropertyOp11
 70
     1
102
RTVSPropertyOp12
 70
     1
102
RTVSPropertyOp13
 70
     1
102
RTVSPropertyOp14
 70
     1
102
RTVSPropertyOp15
 70
     1
102
RTVSPropertyOp16
 70
     1
102
RTVSPropertyOp17
 70
     1
102
RTVSPropertyOp18
 70
     1
102
RTVSPropertyOp19
 70
     1
102
RTVSPropertyOp20
 70
     1
102
RTVSPropertyOp21
 70
     1
102
RTVSPropertyOp22
 70
     1
102
RTVSPropertyOp23
 70
     1
102
RTVSPropertyOp24
 70
     1
102
RTVSPropertyOp25
 70
     1
102
RTVSPropertyOp26
 70
     1
102
RTVSPropertyOp27
 70
     1
102
RTVSPropertyOp28
 70
     1
102
RTVSPropertyOp29
 70
     1
102
RTVSPropertyOp30
 70
     1
102
RTVSPropertyOp31
 70
     1
102
RTVSPropertyOp32
 70
     1
  0
XRECORD
  5
65C
102
{ACAD_REACTORS
330
65B
102
}
330
65B
100
AcDbXrecord
280
     1
102
RTVSPropertyOp0
 70
     1
102
RTVSPropertyOp1
 70
     1
102
RTVSPropertyOp2
 70
     1
102
RTVSPropertyOp3
 70
     1
102
RTVSPropertyOp4
 70
     1
102
RTVSPropertyOp5
 70
     1
102
RTVSPropertyOp6
 70
     1
102
RTVSPropertyOp7
 70
     1
102
RTVSPropertyOp8
 70
     1
102
RTVSPropertyOp9
 70
     1
102
RTVSPropertyOp10
 70
     1
102
RTVSPropertyOp11
 70
     1
102
RTVSPropertyOp12
 70
     1
102
RTVSPropertyOp13
 70
     1
102
RTVSPropertyOp14
 70
     1
102
RTVSPropertyOp15
 70
     1
102
RTVSPropertyOp16
 70
     1
102
RTVSPropertyOp17
 70
     1
102
RTVSPropertyOp18
 70
     1
102
RTVSPropertyOp19
 70
     1
102
RTVSPropertyOp20
 70
     1
102
RTVSPropertyOp21
 70
     1
102
RTVSPropertyOp22
 70
     1
102
RTVSPropertyOp23
 70
     1
102
RTVSPropertyOp24
 70
     1
102
RTVSPropertyOp25
 70
     1
102
RTVSPropertyOp26
 70
     1
102
RTVSPropertyOp27
 70
     1
102
RTVSPropertyOp28
 70
     1
102
RTVSPropertyOp29
 70
     1
102
RTVSPropertyOp30
 70
     1
102
RTVSPropertyOp31
 70
     1
102
RTVSPropertyOp32
 70
     1
  0
XRECORD
  5
664
102
{ACAD_REACTORS
330
663
102
}
330
663
100
AcDbXrecord
280
     1
102
RTVSPropertyOp0
 70
     1
102
RTVSPropertyOp1
 70
     1
102
RTVSPropertyOp2
 70
     1
102
RTVSPropertyOp3
 70
     1
102
RTVSPropertyOp4
 70
     1
102
RTVSPropertyOp5
 70
     1
102
RTVSPropertyOp6
 70
     1
102
RTVSPropertyOp7
 70
     1
102
RTVSPropertyOp8
 70
     1
102
RTVSPropertyOp9
 70
     1
102
RTVSPropertyOp10
 70
     1
102
RTVSPropertyOp11
 70
     1
102
RTVSPropertyOp12
 70
     1
102
RTVSPropertyOp13
 70
     1
102
RTVSPropertyOp14
 70
     1
102
RTVSPropertyOp15
 70
     1
102
RTVSPropertyOp16
 70
     1
102
RTVSPropertyOp17
 70
     1
102
RTVSPropertyOp18
 70
     1
102
RTVSPropertyOp19
 70
     1
102
RTVSPropertyOp20
 70
     1
102
RTVSPropertyOp21
 70
     1
102
RTVSPropertyOp22
 70
     1
102
RTVSPropertyOp23
 70
     1
102
RTVSPropertyOp24
 70
     1
102
RTVSPropertyOp25
 70
     1
102
RTVSPropertyOp26
 70
     1
102
RTVSPropertyOp27
 70
     1
102
RTVSPropertyOp28
 70
     1
102
RTVSPropertyOp29
 70
     1
102
RTVSPropertyOp30
 70
     1
102
RTVSPropertyOp31
 70
     1
102
RTVSPropertyOp32
 70
     1
  0
XRECORD
  5
658
102
{ACAD_REACTORS
330
657
102
}
330
657
100
AcDbXrecord
280
     1
102
RTVSPropertyOp0
 70
     1
102
RTVSPropertyOp1
 70
     1
102
RTVSPropertyOp2
 70
     1
102
RTVSPropertyOp3
 70
     1
102
RTVSPropertyOp4
 70
     1
102
RTVSPropertyOp5
 70
     1
102
RTVSPropertyOp6
 70
     1
102
RTVSPropertyOp7
 70
     1
102
RTVSPropertyOp8
 70
     1
102
RTVSPropertyOp9
 70
     1
102
RTVSPropertyOp10
 70
     1
102
RTVSPropertyOp11
 70
     1
102
RTVSPropertyOp12
 70
     1
102
RTVSPropertyOp13
 70
     1
102
RTVSPropertyOp14
 70
     1
102
RTVSPropertyOp15
 70
     1
102
RTVSPropertyOp16
 70
     1
102
RTVSPropertyOp17
 70
     1
102
RTVSPropertyOp18
 70
     1
102
RTVSPropertyOp19
 70
     1
102
RTVSPropertyOp20
 70
     1
102
RTVSPropertyOp21
 70
     1
102
RTVSPropertyOp22
 70
     1
102
RTVSPropertyOp23
 70
     1
102
RTVSPropertyOp24
 70
     1
102
RTVSPropertyOp25
 70
     1
102
RTVSPropertyOp26
 70
     1
102
RTVSPropertyOp27
 70
     1
102
RTVSPropertyOp28
 70
     1
102
RTVSPropertyOp29
 70
     1
102
RTVSPropertyOp30
 70
     1
102
RTVSPropertyOp31
 70
     1
102
RTVSPropertyOp32
 70
     1
  0
XRECORD
  5
65A
102
{ACAD_REACTORS
330
659
102
}
330
659
100
AcDbXrecord
280
     1
102
RTVSPropertyOp0
 70
     1
102
RTVSPropertyOp1
 70
     1
102
RTVSPropertyOp2
 70
     1
102
RTVSPropertyOp3
 70
     1
102
RTVSPropertyOp4
 70
     1
102
RTVSPropertyOp5
 70
     1
102
RTVSPropertyOp6
 70
     1
102
RTVSPropertyOp7
 70
     1
102
RTVSPropertyOp8
 70
     1
102
RTVSPropertyOp9
 70
     1
102
RTVSPropertyOp10
 70
     1
102
RTVSPropertyOp11
 70
     1
102
RTVSPropertyOp12
 70
     1
102
RTVSPropertyOp13
 70
     1
102
RTVSPropertyOp14
 70
     1
102
RTVSPropertyOp15
 70
     1
102
RTVSPropertyOp16
 70
     1
102
RTVSPropertyOp17
 70
     1
102
RTVSPropertyOp18
 70
     1
102
RTVSPropertyOp19
 70
     1
102
RTVSPropertyOp20
 70
     1
102
RTVSPropertyOp21
 70
     1
102
RTVSPropertyOp22
 70
     1
102
RTVSPropertyOp23
 70
     1
102
RTVSPropertyOp24
 70
     1
102
RTVSPropertyOp25
 70
     1
102
RTVSPropertyOp26
 70
     1
102
RTVSPropertyOp27
 70
     1
102
RTVSPropertyOp28
 70
     1
102
RTVSPropertyOp29
 70
     1
102
RTVSPropertyOp30
 70
     1
102
RTVSPropertyOp31
 70
     1
102
RTVSPropertyOp32
 70
     1
  0
XRECORD
  5
662
102
{ACAD_REACTORS
330
661
102
}
330
661
100
AcDbXrecord
280
     1
102
RTVSPropertyOp0
 70
     1
102
RTVSPropertyOp1
 70
     1
102
RTVSPropertyOp2
 70
     1
102
RTVSPropertyOp3
 70
     1
102
RTVSPropertyOp4
 70
     1
102
RTVSPropertyOp5
 70
     1
102
RTVSPropertyOp6
 70
     1
102
RTVSPropertyOp7
 70
     1
102
RTVSPropertyOp8
 70
     1
102
RTVSPropertyOp9
 70
     1
102
RTVSPropertyOp10
 70
     1
102
RTVSPropertyOp11
 70
     1
102
RTVSPropertyOp12
 70
     1
102
RTVSPropertyOp13
 70
     1
102
RTVSPropertyOp14
 70
     1
102
RTVSPropertyOp15
 70
     1
102
RTVSPropertyOp16
 70
     1
102
RTVSPropertyOp17
 70
     1
102
RTVSPropertyOp18
 70
     1
102
RTVSPropertyOp19
 70
     1
102
RTVSPropertyOp20
 70
     1
102
RTVSPropertyOp21
 70
     1
102
RTVSPropertyOp22
 70
     1
102
RTVSPropertyOp23
 70
     1
102
RTVSPropertyOp24
 70
     1
102
RTVSPropertyOp25
 70
     1
102
RTVSPropertyOp26
 70
     1
102
RTVSPropertyOp27
 70
     1
102
RTVSPropertyOp28
 70
     1
102
RTVSPropertyOp29
 70
     1
102
RTVSPropertyOp30
 70
     1
102
RTVSPropertyOp31
 70
     1
102
RTVSPropertyOp32
 70
     1
  0
XRECORD
  5
646
102
{ACAD_REACTORS
330
645
102
}
330
645
100
AcDbXrecord
280
     1
102
RTVSPropertyOp0
 70
     1
102
RTVSPropertyOp1
 70
     1
102
RTVSPropertyOp2
 70
     1
102
RTVSPropertyOp3
 70
     1
102
RTVSPropertyOp4
 70
     1
102
RTVSPropertyOp5
 70
     1
102
RTVSPropertyOp6
 70
     1
102
RTVSPropertyOp7
 70
     1
102
RTVSPropertyOp8
 70
     1
102
RTVSPropertyOp9
 70
     1
102
RTVSPropertyOp10
 70
     1
102
RTVSPropertyOp11
 70
     1
102
RTVSPropertyOp12
 70
     1
102
RTVSPropertyOp13
 70
     1
102
RTVSPropertyOp14
 70
     1
102
RTVSPropertyOp15
 70
     1
102
RTVSPropertyOp16
 70
     1
102
RTVSPropertyOp17
 70
     1
102
RTVSPropertyOp18
 70
     1
102
RTVSPropertyOp19
 70
     1
102
RTVSPropertyOp20
 70
     1
102
RTVSPropertyOp21
 70
     1
102
RTVSPropertyOp22
 70
     1
102
RTVSPropertyOp23
 70
     1
102
RTVSPropertyOp24
 70
     1
102
RTVSPropertyOp25
 70
     1
102
RTVSPropertyOp26
 70
     1
102
RTVSPropertyOp27
 70
     1
102
RTVSPropertyOp28
 70
     1
102
RTVSPropertyOp29
 70
     1
102
RTVSPropertyOp30
 70
     1
102
RTVSPropertyOp31
 70
     1
102
RTVSPropertyOp32
 70
     1
  0
XRECORD
  5
648
102
{ACAD_REACTORS
330
647
102
}
330
647
100
AcDbXrecord
280
     1
102
RTVSPropertyOp0
 70
     1
102
RTVSPropertyOp1
 70
     1
102
RTVSPropertyOp2
 70
     1
102
RTVSPropertyOp3
 70
     1
102
RTVSPropertyOp4
 70
     1
102
RTVSPropertyOp5
 70
     1
102
RTVSPropertyOp6
 70
     1
102
RTVSPropertyOp7
 70
     1
102
RTVSPropertyOp8
 70
     1
102
RTVSPropertyOp9
 70
     1
102
RTVSPropertyOp10
 70
     1
102
RTVSPropertyOp11
 70
     1
102
RTVSPropertyOp12
 70
     1
102
RTVSPropertyOp13
 70
     1
102
RTVSPropertyOp14
 70
     1
102
RTVSPropertyOp15
 70
     1
102
RTVSPropertyOp16
 70
     1
102
RTVSPropertyOp17
 70
     1
102
RTVSPropertyOp18
 70
     1
102
RTVSPropertyOp19
 70
     1
102
RTVSPropertyOp20
 70
     1
102
RTVSPropertyOp21
 70
     1
102
RTVSPropertyOp22
 70
     1
102
RTVSPropertyOp23
 70
     1
102
RTVSPropertyOp24
 70
     1
102
RTVSPropertyOp25
 70
     1
102
RTVSPropertyOp26
 70
     1
102
RTVSPropertyOp27
 70
     1
102
RTVSPropertyOp28
 70
     1
102
RTVSPropertyOp29
 70
     1
102
RTVSPropertyOp30
 70
     1
102
RTVSPropertyOp31
 70
     1
102
RTVSPropertyOp32
 70
     1
  0
XRECORD
  5
64A
102
{ACAD_REACTORS
330
649
102
}
330
649
100
AcDbXrecord
280
     1
102
RTVSPropertyOp0
 70
     1
102
RTVSPropertyOp1
 70
     1
102
RTVSPropertyOp2
 70
     1
102
RTVSPropertyOp3
 70
     1
102
RTVSPropertyOp4
 70
     1
102
RTVSPropertyOp5
 70
     1
102
RTVSPropertyOp6
 70
     1
102
RTVSPropertyOp7
 70
     1
102
RTVSPropertyOp8
 70
     1
102
RTVSPropertyOp9
 70
     1
102
RTVSPropertyOp10
 70
     1
102
RTVSPropertyOp11
 70
     1
102
RTVSPropertyOp12
 70
     1
102
RTVSPropertyOp13
 70
     1
102
RTVSPropertyOp14
 70
     1
102
RTVSPropertyOp15
 70
     1
102
RTVSPropertyOp16
 70
     1
102
RTVSPropertyOp17
 70
     1
102
RTVSPropertyOp18
 70
     1
102
RTVSPropertyOp19
 70
     1
102
RTVSPropertyOp20
 70
     1
102
RTVSPropertyOp21
 70
     1
102
RTVSPropertyOp22
 70
     1
102
RTVSPropertyOp23
 70
     1
102
RTVSPropertyOp24
 70
     1
102
RTVSPropertyOp25
 70
     1
102
RTVSPropertyOp26
 70
     1
102
RTVSPropertyOp27
 70
     1
102
RTVSPropertyOp28
 70
     1
102
RTVSPropertyOp29
 70
     1
102
RTVSPropertyOp30
 70
     1
102
RTVSPropertyOp31
 70
     1
102
RTVSPropertyOp32
 70
     1
  0
XRECORD
  5
64C
102
{ACAD_REACTORS
330
64B
102
}
330
64B
100
AcDbXrecord
280
     1
102
RTVSPropertyOp0
 70
     1
102
RTVSPropertyOp1
 70
     1
102
RTVSPropertyOp2
 70
     1
102
RTVSPropertyOp3
 70
     1
102
RTVSPropertyOp4
 70
     1
102
RTVSPropertyOp5
 70
     1
102
RTVSPropertyOp6
 70
     1
102
RTVSPropertyOp7
 70
     1
102
RTVSPropertyOp8
 70
     1
102
RTVSPropertyOp9
 70
     1
102
RTVSPropertyOp10
 70
     1
102
RTVSPropertyOp11
 70
     1
102
RTVSPropertyOp12
 70
     1
102
RTVSPropertyOp13
 70
     1
102
RTVSPropertyOp14
 70
     1
102
RTVSPropertyOp15
 70
     1
102
RTVSPropertyOp16
 70
     1
102
RTVSPropertyOp17
 70
     1
102
RTVSPropertyOp18
 70
     1
102
RTVSPropertyOp19
 70
     1
102
RTVSPropertyOp20
 70
     1
102
RTVSPropertyOp21
 70
     1
102
RTVSPropertyOp22
 70
     1
102
RTVSPropertyOp23
 70
     1
102
RTVSPropertyOp24
 70
     1
102
RTVSPropertyOp25
 70
     1
102
RTVSPropertyOp26
 70
     1
102
RTVSPropertyOp27
 70
     1
102
RTVSPropertyOp28
 70
     1
102
RTVSPropertyOp29
 70
     1
102
RTVSPropertyOp30
 70
     1
102
RTVSPropertyOp31
 70
     1
102
RTVSPropertyOp32
 70
     1
  0
XRECORD
  5
660
102
{ACAD_REACTORS
330
65F
102
}
330
65F
100
AcDbXrecord
280
     1
102
RTVSPropertyOp0
 70
     1
102
RTVSPropertyOp1
 70
     1
102
RTVSPropertyOp2
 70
     1
102
RTVSPropertyOp3
 70
     1
102
RTVSPropertyOp4
 70
     1
102
RTVSPropertyOp5
 70
     1
102
RTVSPropertyOp6
 70
     1
102
RTVSPropertyOp7
 70
     1
102
RTVSPropertyOp8
 70
     1
102
RTVSPropertyOp9
 70
     1
102
RTVSPropertyOp10
 70
     1
102
RTVSPropertyOp11
 70
     1
102
RTVSPropertyOp12
 70
     1
102
RTVSPropertyOp13
 70
     1
102
RTVSPropertyOp14
 70
     1
102
RTVSPropertyOp15
 70
     1
102
RTVSPropertyOp16
 70
     1
102
RTVSPropertyOp17
 70
     1
102
RTVSPropertyOp18
 70
     1
102
RTVSPropertyOp19
 70
     1
102
RTVSPropertyOp20
 70
     1
102
RTVSPropertyOp21
 70
     1
102
RTVSPropertyOp22
 70
     1
102
RTVSPropertyOp23
 70
     1
102
RTVSPropertyOp24
 70
     1
102
RTVSPropertyOp25
 70
     1
102
RTVSPropertyOp26
 70
     1
102
RTVSPropertyOp27
 70
     1
102
RTVSPropertyOp28
 70
     1
102
RTVSPropertyOp29
 70
     1
102
RTVSPropertyOp30
 70
     1
102
RTVSPropertyOp31
 70
     1
102
RTVSPropertyOp32
 70
     1
  0
XRECORD
  5
656
102
{ACAD_REACTORS
330
655
102
}
330
655
100
AcDbXrecord
280
     1
102
RTVSPropertyOp0
 70
     1
102
RTVSPropertyOp1
 70
     1
102
RTVSPropertyOp2
 70
     1
102
RTVSPropertyOp3
 70
     1
102
RTVSPropertyOp4
 70
     1
102
RTVSPropertyOp5
 70
     1
102
RTVSPropertyOp6
 70
     1
102
RTVSPropertyOp7
 70
     1
102
RTVSPropertyOp8
 70
     1
102
RTVSPropertyOp9
 70
     1
102
RTVSPropertyOp10
 70
     1
102
RTVSPropertyOp11
 70
     1
102
RTVSPropertyOp12
 70
     1
102
RTVSPropertyOp13
 70
     1
102
RTVSPropertyOp14
 70
     1
102
RTVSPropertyOp15
 70
     1
102
RTVSPropertyOp16
 70
     1
102
RTVSPropertyOp17
 70
     1
102
RTVSPropertyOp18
 70
     1
102
RTVSPropertyOp19
 70
     1
102
RTVSPropertyOp20
 70
     1
102
RTVSPropertyOp21
 70
     1
102
RTVSPropertyOp22
 70
     1
102
RTVSPropertyOp23
 70
     1
102
RTVSPropertyOp24
 70
     1
102
RTVSPropertyOp25
 70
     1
102
RTVSPropertyOp26
 70
     1
102
RTVSPropertyOp27
 70
     1
102
RTVSPropertyOp28
 70
     1
102
RTVSPropertyOp29
 70
     1
102
RTVSPropertyOp30
 70
     1
102
RTVSPropertyOp31
 70
     1
102
RTVSPropertyOp32
 70
     1
  0
XRECORD
  5
65E
102
{ACAD_REACTORS
330
65D
102
}
330
65D
100
AcDbXrecord
280
     1
102
RTVSPropertyOp0
 70
     1
102
RTVSPropertyOp1
 70
     1
102
RTVSPropertyOp2
 70
     1
102
RTVSPropertyOp3
 70
     1
102
RTVSPropertyOp4
 70
     1
102
RTVSPropertyOp5
 70
     1
102
RTVSPropertyOp6
 70
     1
102
RTVSPropertyOp7
 70
     1
102
RTVSPropertyOp8
 70
     1
102
RTVSPropertyOp9
 70
     1
102
RTVSPropertyOp10
 70
     1
102
RTVSPropertyOp11
 70
     1
102
RTVSPropertyOp12
 70
     1
102
RTVSPropertyOp13
 70
     1
102
RTVSPropertyOp14
 70
     1
102
RTVSPropertyOp15
 70
     1
102
RTVSPropertyOp16
 70
     1
102
RTVSPropertyOp17
 70
     1
102
RTVSPropertyOp18
 70
     1
102
RTVSPropertyOp19
 70
     1
102
RTVSPropertyOp20
 70
     1
102
RTVSPropertyOp21
 70
     1
102
RTVSPropertyOp22
 70
     1
102
RTVSPropertyOp23
 70
     1
102
RTVSPropertyOp24
 70
     1
102
RTVSPropertyOp25
 70
     1
102
RTVSPropertyOp26
 70
     1
102
RTVSPropertyOp27
 70
     1
102
RTVSPropertyOp28
 70
     1
102
RTVSPropertyOp29
 70
     1
102
RTVSPropertyOp30
 70
     1
102
RTVSPropertyOp31
 70
     1
102
RTVSPropertyOp32
 70
     1
  0
ENDSEC
  0
EOF
