0
SECTION
2
HEADER
9
$ACADVER
1
AC1015
9
$DWGCODEPAGE
3
ANSI_1252
9
$HANDSEED
5
182
9
$ANGBASE
50
0
9
$ANGDIR
70
0
9
$ATTMODE
70
1
9
$AUNITS
70
0
9
$AUPREC
70
0
9
$CECOLOR
62
256
9
$CELTSCALE
40
1
9
$CELTYPE
6
ByLayer
9
$CELWEIGHT
370
-1
9
$CLAYER
8
0
9
$CMLJUST
70
0
9
$CMLSCALE
40
1
9
$CMLSTYLE
2
Standard
9
$DIMSTYLE
2
Standard
9
$TEXTSIZE
40
0.2
9
$TEXTSTYLE
7
Standard
9
$LUNITS
70
2
9
$LUPREC
70
4
9
$EXTNAMES
290
1
9
$INSUNITS
70
4
9
$LTSCALE
40
1
9
$LWDISPLAY
290
0
9
$PDMODE
70
0
9
$PDSIZE
40
0
9
$PLINEGEN
70
0
0
ENDSEC
0
SECTION
2
CLASSES
0
CLASS
1
RASTERVARIABLES
2
AcDbRasterVariables
3
ISM
90
0
280
0
281
0
0
ENDSEC
0
SECTION
2
TABLES
0
TABLE
2
VPORT
5
178
100
AcDbSymbolTable
0
VPORT
5
1
100
AcDbSymbolTableRecord
100
AcDbViewportTableRecord
2
*Active
70
0
10
0
20
0
11
1
21
1
12
-1
22
1
13
0
23
0
14
0.5
24
0.5
15
10
25
10
16
0
26
0
36
1
17
0
27
0
37
0
0
ENDTAB
0
TABLE
2
LTYPE
5
179
100
AcDbSymbolTable
0
LTYPE
5
14
100
AcDbSymbolTableRecord
100
AcDbLinetypeTableRecord
70
0
2
ByBlock
3

72
65
73
0
40
0
0
LTYPE
5
15
100
AcDbSymbolTableRecord
100
AcDbLinetypeTableRecord
70
0
2
ByLayer
3

72
65
73
0
40
0
0
LTYPE
5
16
100
AcDbSymbolTableRecord
100
AcDbLinetypeTableRecord
70
0
2
CONTINUOUS
3
Solid line
72
65
73
0
40
0
0
LTYPE
5
3B
100
AcDbSymbolTableRecord
100
AcDbLinetypeTableRecord
70
0
2
DASHED
3
__ __ __ __ __ __ __ __ __
72
65
73
2
40
25.72
49
12.86
74
0
49
-12.86
74
0
0
LTYPE
5
3C
100
AcDbSymbolTableRecord
100
AcDbLinetypeTableRecord
70
0
2
HIDDEN
3
_ _ _ _ _ _ _ _ _ _ _ _ _ _ _
72
65
73
2
40
0.5
49
0.25
74
0
49
-0.25
74
0
0
LTYPE
5
3D
100
AcDbSymbolTableRecord
100
AcDbLinetypeTableRecord
70
0
2
PHANTOM
3
____ _ _ ____ _ _ _____ _ _ ____
72
65
73
6
40
50.5
49
18
74
0
49
-6.5
74
0
49
6.5
74
0
49
-6.5
74
0
49
6.5
74
0
49
-6.5
74
0
0
LTYPE
5
3E
100
AcDbSymbolTableRecord
100
AcDbLinetypeTableRecord
70
0
2
CENTER
3
____ _ ____ _ ____ _ ____
72
65
73
4
40
47.5
49
22
74
0
49
-8.5
74
0
49
8.5
74
0
49
-8.5
74
0
0
LTYPE
5
3F
100
AcDbSymbolTableRecord
100
AcDbLinetypeTableRecord
70
0
2
DOT
3
.........................
72
65
73
2
40
10
49
0
74
0
49
-10
74
0
0
LTYPE
5
40
100
AcDbSymbolTableRecord
100
AcDbLinetypeTableRecord
70
0
2
DASHDOT
3
_._._._._._._._._._._._._._._._.
72
65
73
4
40
70
49
31
74
0
49
-13
74
0
49
13
74
0
49
-13
74
0
0
ENDTAB
0
TABLE
2
LAYER
5
17a
100
AcDbSymbolTable
0
LAYER
5
10
100
AcDbSymbolTableRecord
100
AcDbLayerTableRecord
2
0
70
0
62
7
6
CONTINUOUS
290
1
370
-3
390
0
0
LAYER
5
42
100
AcDbSymbolTableRecord
100
AcDbLayerTableRecord
2
80
70
0
62
-6
6
CONTINUOUS
290
1
370
-3
390
0
0
LAYER
5
44
100
AcDbSymbolTableRecord
100
AcDbLayerTableRecord
2
81
70
0
62
-3
6
CONTINUOUS
290
1
370
-3
390
0
0
LAYER
5
46
100
AcDbSymbolTableRecord
100
AcDbLayerTableRecord
2
1
70
0
62
4
6
CONTINUOUS
290
1
370
-3
390
0
0
LAYER
5
48
100
AcDbSymbolTableRecord
100
AcDbLayerTableRecord
2
2
70
0
62
7
6
CONTINUOUS
290
1
370
-3
390
0
0
LAYER
5
4F
100
AcDbSymbolTableRecord
100
AcDbLayerTableRecord
2
4
70
0
62
-2
6
CENTER
290
1
370
-3
390
0
0
LAYER
5
164
100
AcDbSymbolTableRecord
100
AcDbLayerTableRecord
2
SK4
70
0
62
2
6
CENTER
290
1
370
-3
390
0
0
LAYER
5
165
100
AcDbSymbolTableRecord
100
AcDbLayerTableRecord
2
SK1
70
0
62
4
6
CONTINUOUS
290
1
370
-3
390
0
0
LAYER
5
166
100
AcDbSymbolTableRecord
100
AcDbLayerTableRecord
2
SK6
70
0
62
5
6
CONTINUOUS
290
1
370
-3
390
0
0
LAYER
5
167
100
AcDbSymbolTableRecord
100
AcDbLayerTableRecord
2
SK2
70
0
62
7
6
CONTINUOUS
290
1
370
-3
390
0
0
ENDTAB
0
TABLE
2
STYLE
5
17b
100
AcDbSymbolTable
0
STYLE
5
11
100
AcDbSymbolTableRecord
100
AcDbTextStyleTableRecord
2
Standard
3
txt
70
0
71
0
40
0
41
1
42
0
50
0
0
STYLE
5
E0
100
AcDbSymbolTableRecord
100
AcDbTextStyleTableRecord
2
DEFAULT
3
simplex.shx
70
0
71
0
40
0
41
1
42
0
50
0
0
STYLE
5
103
100
AcDbSymbolTableRecord
100
AcDbTextStyleTableRecord
2
DWGDirectTextStyle
3
SIMPLEX
70
0
71
0
40
0
41
1
42
0
50
0
0
ENDTAB
0
TABLE
2
DIMSTYLE
5
17c
100
AcDbSymbolTable
100
AcDbDimStyleTable
0
DIMSTYLE
105
27
100
AcDbSymbolTableRecord
100
AcDbDimStyleTableRecord
2
Standard
70
0
3
<>
41
0.18
42
0.0625
44
0.18
140
0.18
147
0.09
73
0
74
0
77
1
271
2
275
0
278
52
280
0
340
11
0
ENDTAB
0
TABLE
2
VIEW
5
17d
100
AcDbSymbolTable
0
ENDTAB
0
TABLE
2
UCS
5
17e
100
AcDbSymbolTable
0
ENDTAB
0
TABLE
2
APPID
5
17f
100
AcDbSymbolTable
0
APPID
5
12
100
AcDbSymbolTableRecord
100
AcDbRegAppTableRecord
2
ACAD
70
0
0
ENDTAB
0
TABLE
2
BLOCK_RECORD
5
180
100
AcDbSymbolTable
0
BLOCK_RECORD
5
1F
100
AcDbSymbolTableRecord
100
AcDbBlockTableRecord
2
*Model_Space
340
0
70
0
0
BLOCK_RECORD
5
1B
100
AcDbSymbolTableRecord
100
AcDbBlockTableRecord
2
*Paper_Space
340
0
70
0
0
BLOCK_RECORD
5
23
100
AcDbSymbolTableRecord
100
AcDbBlockTableRecord
2
*Paper_Space0
340
0
70
0
0
BLOCK_RECORD
5
105
100
AcDbSymbolTableRecord
100
AcDbBlockTableRecord
2
DimnDraft3D1
340
0
70
0
0
BLOCK_RECORD
5
113
100
AcDbSymbolTableRecord
100
AcDbBlockTableRecord
2
_CLOSED
340
0
70
0
0
BLOCK_RECORD
5
11A
100
AcDbSymbolTableRecord
100
AcDbBlockTableRecord
2
DimnDraft3D2
340
0
70
0
0
BLOCK_RECORD
5
129
100
AcDbSymbolTableRecord
100
AcDbBlockTableRecord
2
DimnDraft3D3
340
0
70
0
0
BLOCK_RECORD
5
137
100
AcDbSymbolTableRecord
100
AcDbBlockTableRecord
2
DimnDraft3D4
340
0
70
0
0
ENDTAB
0
ENDSEC
0
SECTION
2
BLOCKS
0
BLOCK
5
20
100
AcDbEntity
8
0
100
AcDbBlockBegin
2
*Model_Space
70
0
10
0
20
0
30
0
3
*Model_Space
0
ENDBLK
5
21
100
AcDbEntity
8
0
100
AcDbBlockEnd
0
BLOCK
5
1C
100
AcDbEntity
8
0
100
AcDbBlockBegin
2
*Paper_Space
70
0
10
0
20
0
30
0
3
*Paper_Space
0
ENDBLK
5
1D
100
AcDbEntity
8
0
100
AcDbBlockEnd
0
BLOCK
5
24
100
AcDbEntity
8
0
100
AcDbBlockBegin
2
*Paper_Space0
70
0
10
0
20
0
30
0
3
*Paper_Space0
0
ENDBLK
5
25
100
AcDbEntity
8
0
100
AcDbBlockEnd
0
BLOCK
5
110
100
AcDbEntity
8
0
100
AcDbBlockBegin
2
DimnDraft3D1
70
0
10
0
20
0
30
0
3
DimnDraft3D1
0
MTEXT
5
106
100
AcDbEntity
8
2
62
256
6
ByLayer
370
-1
48
1
60
0
100
AcDbMText
10
107.035
20
-31.231316
30
0
210
0
220
0
230
1
1
\W01.000;\fsimplex.shx,bigfont.shx;13.0 
40
4.5
41
0
44
1.084337
50
90
71
7
72
5
7
DEFAULT
0
LINE
5
107
100
AcDbEntity
8
2
62
256
6
ByLayer
370
-1
48
1
60
0
100
AcDbLine
10
97.91
20
-12.9
30
0
11
110.16
21
-12.9
31
0
39
0
210
0
220
0
230
1
0
LINE
5
108
100
AcDbEntity
8
2
62
256
6
ByLayer
370
-1
48
1
60
0
100
AcDbLine
10
97.91
20
0
30
0
11
110.16
21
0
31
0
39
0
210
0
220
0
230
1
0
LINE
5
109
100
AcDbEntity
8
2
62
256
6
ByLayer
370
-1
48
1
60
0
100
AcDbLine
10
108.16
20
0
30
0
11
108.16
21
-32.356316
31
0
39
0
210
0
220
0
230
1
0
LINE
5
10A
100
AcDbEntity
8
2
62
256
6
ByLayer
370
-1
48
1
60
0
100
AcDbLine
10
108.16
20
-12.9
30
0
11
107.742003
21
-9.725002
31
0
39
0
210
0
220
0
230
1
0
LINE
5
10B
100
AcDbEntity
8
2
62
256
6
ByLayer
370
-1
48
1
60
0
100
AcDbLine
10
108.16
20
-12.9
30
0
11
108.577997
21
-9.724998
31
0
39
0
210
0
220
0
230
1
0
LINE
5
10C
100
AcDbEntity
8
2
62
256
6
ByLayer
370
-1
48
1
60
0
100
AcDbLine
10
107.742003
20
-9.725002
30
0
11
108.577997
21
-9.724998
31
0
39
0
210
0
220
0
230
1
0
LINE
5
10D
100
AcDbEntity
8
2
62
256
6
ByLayer
370
-1
48
1
60
0
100
AcDbLine
10
108.16
20
0
30
0
11
108.577997
21
-3.174998
31
0
39
0
210
0
220
0
230
1
0
LINE
5
10E
100
AcDbEntity
8
2
62
256
6
ByLayer
370
-1
48
1
60
0
100
AcDbLine
10
108.16
20
0
30
0
11
107.742003
21
-3.175002
31
0
39
0
210
0
220
0
230
1
0
LINE
5
10F
100
AcDbEntity
8
2
62
256
6
ByLayer
370
-1
48
1
60
0
100
AcDbLine
10
108.577997
20
-3.174998
30
0
11
107.742003
21
-3.175002
31
0
39
0
210
0
220
0
230
1
0
ENDBLK
5
111
100
AcDbEntity
8
0
100
AcDbBlockEnd
0
BLOCK
5
114
100
AcDbEntity
8
0
100
AcDbBlockBegin
2
_CLOSED
70
0
10
0
20
0
30
0
3
_CLOSED
0
LINE
5
116
100
AcDbEntity
8
0
62
256
6
ByLayer
370
-2
48
1
60
0
100
AcDbLine
10
-1
20
0.166667
30
0
11
0
21
0
31
0
39
0
210
0
220
0
230
1
0
LINE
5
117
100
AcDbEntity
8
0
62
256
6
ByLayer
370
-2
48
1
60
0
100
AcDbLine
10
0
20
0
30
0
11
-1
21
-0.166667
31
0
39
0
210
0
220
0
230
1
0
LINE
5
118
100
AcDbEntity
8
0
62
256
6
ByLayer
370
-2
48
1
60
0
100
AcDbLine
10
-1
20
0.166667
30
0
11
-1
21
-0.166667
31
0
39
0
210
0
220
0
230
1
0
LINE
5
119
100
AcDbEntity
8
0
62
256
6
ByLayer
370
-2
48
1
60
0
100
AcDbLine
10
0
20
0
30
0
11
-1
21
0
31
0
39
0
210
0
220
0
230
1
0
ENDBLK
5
115
100
AcDbEntity
8
0
100
AcDbBlockEnd
0
BLOCK
5
126
100
AcDbEntity
8
0
100
AcDbBlockBegin
2
DimnDraft3D2
70
0
10
0
20
0
30
0
3
DimnDraft3D2
0
MTEXT
5
11B
100
AcDbEntity
8
SK2
62
256
6
ByLayer
370
-1
48
1
60
0
100
AcDbMText
10
-116.215
20
-3.096711
30
0
210
0
220
0
230
1
1
\W01.000;\fsimplex.shx,bigfont.shx;%%c16 
40
4.5
41
0
44
1.084337
50
90
71
7
72
5
7
DEFAULT
0
LINE
5
11D
100
AcDbEntity
8
SK2
62
256
6
ByLayer
370
-1
48
1
60
0
100
AcDbLine
10
-107.34
20
-7.9925
30
0
11
-117.09
21
-7.9925
31
0
39
0
210
0
220
0
230
1
0
LINE
5
11E
100
AcDbEntity
8
SK2
62
256
6
ByLayer
370
-1
48
1
60
0
100
AcDbLine
10
-107.34
20
7.9925
30
0
11
-117.09
21
7.9925
31
0
39
0
210
0
220
0
230
1
0
LINE
5
11F
100
AcDbEntity
8
SK2
62
256
6
ByLayer
370
-1
48
1
60
0
100
AcDbLine
10
-115.09
20
-19.2425
30
0
11
-115.09
21
19.2425
31
0
39
0
210
0
220
0
230
1
0
LINE
5
120
100
AcDbEntity
8
SK2
62
256
6
ByLayer
370
-1
48
1
60
0
100
AcDbLine
10
-115.09
20
-7.9925
30
0
11
-114.672003
21
-11.167498
31
0
39
0
210
0
220
0
230
1
0
LINE
5
121
100
AcDbEntity
8
SK2
62
256
6
ByLayer
370
-1
48
1
60
0
100
AcDbLine
10
-115.09
20
-7.9925
30
0
11
-115.507997
21
-11.167502
31
0
39
0
210
0
220
0
230
1
0
LINE
5
122
100
AcDbEntity
8
SK2
62
256
6
ByLayer
370
-1
48
1
60
0
100
AcDbLine
10
-114.672003
20
-11.167498
30
0
11
-115.507997
21
-11.167502
31
0
39
0
210
0
220
0
230
1
0
LINE
5
123
100
AcDbEntity
8
SK2
62
256
6
ByLayer
370
-1
48
1
60
0
100
AcDbLine
10
-115.09
20
7.9925
30
0
11
-115.507997
21
11.167498
31
0
39
0
210
0
220
0
230
1
0
LINE
5
124
100
AcDbEntity
8
SK2
62
256
6
ByLayer
370
-1
48
1
60
0
100
AcDbLine
10
-115.09
20
7.9925
30
0
11
-114.672003
21
11.167502
31
0
39
0
210
0
220
0
230
1
0
LINE
5
125
100
AcDbEntity
8
SK2
62
256
6
ByLayer
370
-1
48
1
60
0
100
AcDbLine
10
-115.507997
20
11.167498
30
0
11
-114.672003
21
11.167502
31
0
39
0
210
0
220
0
230
1
0
ENDBLK
5
127
100
AcDbEntity
8
0
100
AcDbBlockEnd
0
BLOCK
5
134
100
AcDbEntity
8
0
100
AcDbBlockBegin
2
DimnDraft3D3
70
0
10
0
20
0
30
0
3
DimnDraft3D3
0
MTEXT
5
12A
100
AcDbEntity
8
SK2
62
256
6
ByLayer
370
-1
48
1
60
0
100
AcDbMText
10
-10.405132
20
-29.025
30
0
210
0
220
0
230
1
1
\W01.000;\fsimplex.shx,bigfont.shx;200.0 
40
4.5
41
0
44
1.084337
50
0
71
7
72
5
7
DEFAULT
0
LINE
5
12B
100
AcDbEntity
8
SK2
62
256
6
ByLayer
370
-1
48
1
60
0
100
AcDbLine
10
-105.34
20
-9.9925
30
0
11
-105.34
21
-32.15
31
0
39
0
210
0
220
0
230
1
0
LINE
5
12C
100
AcDbEntity
8
SK2
62
256
6
ByLayer
370
-1
48
1
60
0
100
AcDbLine
10
95.91
20
-14.9
30
0
11
95.91
21
-32.15
31
0
39
0
210
0
220
0
230
1
0
LINE
5
12D
100
AcDbEntity
8
SK2
62
256
6
ByLayer
370
-1
48
1
60
0
100
AcDbLine
10
-105.34
20
-30.15
30
0
11
95.91
21
-30.15
31
0
39
0
210
0
220
0
230
1
0
LINE
5
12E
100
AcDbEntity
8
SK2
62
256
6
ByLayer
370
-1
48
1
60
0
100
AcDbLine
10
-105.34
20
-30.15
30
0
11
-102.165002
21
-29.732003
31
0
39
0
210
0
220
0
230
1
0
LINE
5
12F
100
AcDbEntity
8
SK2
62
256
6
ByLayer
370
-1
48
1
60
0
100
AcDbLine
10
-105.34
20
-30.15
30
0
11
-102.164998
21
-30.567997
31
0
39
0
210
0
220
0
230
1
0
LINE
5
130
100
AcDbEntity
8
SK2
62
256
6
ByLayer
370
-1
48
1
60
0
100
AcDbLine
10
-102.165002
20
-29.732003
30
0
11
-102.164998
21
-30.567997
31
0
39
0
210
0
220
0
230
1
0
LINE
5
131
100
AcDbEntity
8
SK2
62
256
6
ByLayer
370
-1
48
1
60
0
100
AcDbLine
10
95.91
20
-30.15
30
0
11
92.735002
21
-30.567997
31
0
39
0
210
0
220
0
230
1
0
LINE
5
132
100
AcDbEntity
8
SK2
62
256
6
ByLayer
370
-1
48
1
60
0
100
AcDbLine
10
95.91
20
-30.15
30
0
11
92.734998
21
-29.732003
31
0
39
0
210
0
220
0
230
1
0
LINE
5
133
100
AcDbEntity
8
SK2
62
256
6
ByLayer
370
-1
48
1
60
0
100
AcDbLine
10
92.735002
20
-30.567997
30
0
11
92.734998
21
-29.732003
31
0
39
0
210
0
220
0
230
1
0
ENDBLK
5
135
100
AcDbEntity
8
0
100
AcDbBlockEnd
0
BLOCK
5
142
100
AcDbEntity
8
0
100
AcDbBlockBegin
2
DimnDraft3D4
70
0
10
0
20
0
30
0
3
DimnDraft3D4
0
MTEXT
5
138
100
AcDbEntity
8
2
62
256
6
ByLayer
370
-1
48
1
60
0
100
AcDbMText
10
118.309802
20
31.938034
30
0
210
0
220
0
230
1
1
\W01.000;\fsimplex.shx,bigfont.shx;93%%d0' 
40
4.5
41
0
44
1.084337
50
316.5
71
7
72
5
7
DEFAULT
0
LINE
5
139
100
AcDbEntity
8
2
62
256
6
ByLayer
370
-1
48
1
60
0
100
AcDbLine
10
95.229633
20
0.082184
30
0
11
93.144353
21
39.871689
31
0
39
0
210
0
220
0
230
1
0
LINE
5
13A
100
AcDbEntity
8
2
62
256
6
ByLayer
370
-1
48
1
60
0
100
AcDbLine
10
97.91
20
0
30
0
11
135.160346
21
0
31
0
39
0
210
0
220
0
230
1
0
ARC
5
13B
100
AcDbEntity
8
2
62
256
6
ByLayer
370
-1
48
1
60
0
100
AcDbCircle
39
0
10
95.23394
20
0
30
0
40
37.9264068640928
210
0
220
0
230
1
100
AcDbArc
50
0
51
93
0
LINE
5
13C
100
AcDbEntity
8
2
62
256
6
ByLayer
370
-1
48
1
60
0
100
AcDbLine
10
93.249025
20
37.87443
30
0
11
96.409313
21
38.392036
31
0
39
0
210
0
220
0
230
1
0
LINE
5
13D
100
AcDbEntity
8
2
62
256
6
ByLayer
370
-1
48
1
60
0
100
AcDbLine
10
93.249025
20
37.87443
30
0
11
96.435598
21
37.556456
31
0
39
0
210
0
220
0
230
1
0
LINE
5
13E
100
AcDbEntity
8
2
62
256
6
ByLayer
370
-1
48
1
60
0
100
AcDbLine
10
96.409313
20
38.392036
30
0
11
96.435598
21
37.556456
31
0
39
0
210
0
220
0
230
1
0
LINE
5
13F
100
AcDbEntity
8
2
62
256
6
ByLayer
370
-1
48
1
60
0
100
AcDbLine
10
133.160347
20
0
30
0
11
132.676036
21
3.165562
31
0
39
0
210
0
220
0
230
1
0
LINE
5
140
100
AcDbEntity
8
2
62
256
6
ByLayer
370
-1
48
1
60
0
100
AcDbLine
10
133.160347
20
0
30
0
11
133.511847
21
3.183049
31
0
39
0
210
0
220
0
230
1
0
LINE
5
141
100
AcDbEntity
8
2
62
256
6
ByLayer
370
-1
48
1
60
0
100
AcDbLine
10
132.676036
20
3.165562
30
0
11
133.511847
21
3.183049
31
0
39
0
210
0
220
0
230
1
0
ENDBLK
5
143
100
AcDbEntity
8
0
100
AcDbBlockEnd
0
ENDSEC
0
SECTION
2
ENTITIES
0
ELLIPSE
5
90
100
AcDbEntity
8
1
62
256
6
ByLayer
370
-1
48
1
60
0
100
AcDbEllipse
10
88.232941
20
4.902375
30
0
11
1.36294992272428
21
-0.626392455371136
31
0
210
0
220
0
230
1
40
0.997187
41
-1.5978687891844
42
-0.811824559684297
0
ELLIPSE
5
91
100
AcDbEntity
8
1
62
256
6
ByLayer
370
-1
48
1
60
0
100
AcDbEllipse
10
75.220101
20
-0.000999
30
0
11
260.008068734731
21
-0.555374854544842
31
0
210
0
220
0
230
-1
40
0.031243
41
-1.5256194166842
42
-1.50627030711257
0
ELLIPSE
5
92
100
AcDbEntity
8
1
62
256
6
ByLayer
370
-1
48
1
60
0
100
AcDbEllipse
10
88.769512
20
-5.099455
30
0
11
0.908633281816188
21
-0.417594970247426
31
0
210
0
220
0
230
1
40
0.997187
41
2.3582276524652
42
2.56822597094288
0
ELLIPSE
5
93
100
AcDbEntity
8
1
62
256
6
ByLayer
370
-1
48
1
60
0
100
AcDbEllipse
10
88.540927
20
5.572515
30
0
11
1.41520281517998
21
2.01967572755105
31
0
210
0
220
0
230
-1
40
0.590756
41
2.71815240245855
42
2.99101072007552
0
ELLIPSE
5
94
100
AcDbEntity
8
1
62
256
6
ByLayer
370
-1
48
1
60
0
100
AcDbEllipse
10
88.1406
20
4.701453
30
0
11
-1.36294992272429
21
0.626392455371112
31
0
210
0
220
0
230
1
40
0.997187
41
-2.11456053075002
42
1.42192696069902
0
ELLIPSE
5
95
100
AcDbEntity
8
1
62
256
6
ByLayer
370
-1
48
1
60
0
100
AcDbEllipse
10
88.046838
20
-7.04892
30
0
11
2.81676905308503
21
-1.0366973093156
31
0
210
0
220
0
230
-1
40
0.996803
41
-1.74374095561045
42
-1.55539455417386
0
ELLIPSE
5
96
100
AcDbEntity
8
1
62
256
6
ByLayer
370
-1
48
1
60
0
100
AcDbEllipse
10
97.892794
20
-3.398373
30
0
11
2.81676905365607
21
-1.03669730788782
31
0
210
0
220
0
230
-1
40
0.996803
41
-3.12582626857105
42
-2.97211902846711
0
ELLIPSE
5
97
100
AcDbEntity
8
1
62
256
6
ByLayer
370
-1
48
1
60
0
100
AcDbEllipse
10
88.140603
20
4.70146
30
0
11
-1.36294992272429
21
0.626392455371112
31
0
210
0
220
0
230
1
40
0.997187
41
-2.74924983098867
42
-2.11447180887458
0
ELLIPSE
5
98
100
AcDbEntity
8
1
62
256
6
ByLayer
370
-1
48
1
60
0
100
AcDbEllipse
10
88.057098
20
-7.244703
30
0
11
2.81676905301016
21
-1.03669730953649
31
0
210
0
220
0
230
-1
40
0.996803
41
-2.70741021001235
42
-1.86406505429487
0
ELLIPSE
5
99
100
AcDbEntity
8
1
62
256
6
ByLayer
370
-1
48
1
60
0
100
AcDbEllipse
10
88.242331
20
4.922808
30
0
11
1.36294992272428
21
-0.626392455371136
31
0
210
0
220
0
230
1
40
0.997187
41
-2.7097258990219
42
-0.818977874372297
0
ELLIPSE
5
9A
100
AcDbEntity
8
1
62
256
6
ByLayer
370
-1
48
1
60
0
100
AcDbEllipse
10
88.242331
20
4.922808
30
0
11
1.36294992272428
21
-0.626392455371136
31
0
210
0
220
0
230
1
40
0.997187
41
-3.06011189462684
42
-2.7097258990219
0
ELLIPSE
5
9B
100
AcDbEntity
8
1
62
256
6
ByLayer
370
-1
48
1
60
0
100
AcDbEllipse
10
87.749909
20
3.851361
30
0
11
1.09976724834147
21
-1.18639376751198
31
0
210
0
220
0
230
-1
40
0.203284
41
1.36285572531597
42
1.51391713922217
0
ELLIPSE
5
9C
100
AcDbEntity
8
1
62
256
6
ByLayer
370
-1
48
1
60
0
100
AcDbEllipse
10
89.04714
20
4.777338
30
0
11
-0.360613833720782
21
0.165733003816931
31
0
210
0
220
0
230
1
40
0.997187
41
-2.0487287088203
42
0.481998706571393
0
ELLIPSE
5
9D
100
AcDbEntity
8
1
62
256
6
ByLayer
370
-1
48
1
60
0
100
AcDbEllipse
10
92.297054
20
-3.826747
30
0
11
-1.70934062827969
21
0.785588711193105
31
0
210
0
220
0
230
1
40
0.997187
41
-0.619683106036875
42
-2.36730185323964E-16
0
ELLIPSE
5
9E
100
AcDbEntity
8
1
62
256
6
ByLayer
370
-1
48
1
60
0
100
AcDbEllipse
10
92.297054
20
-3.826747
30
0
11
-1.70934062827969
21
0.785588711193105
31
0
210
0
220
0
230
1
40
0.997187
41
0
42
-2.7097259121299
0
ELLIPSE
5
9F
100
AcDbEntity
8
1
62
256
6
ByLayer
370
-1
48
1
60
0
100
AcDbEllipse
10
92.297054
20
-3.826747
30
0
11
-1.70934062827969
21
0.785588711193105
31
0
210
0
220
0
230
1
40
0.997187
41
-2.70972607587595
42
-2.52172136883353
0
ELLIPSE
5
A0
100
AcDbEntity
8
1
62
256
6
ByLayer
370
-1
48
1
60
0
100
AcDbEllipse
10
95.513319
20
-12.504047
30
0
11
-0.360613833720731
21
0.165733003816908
31
0
210
0
220
0
230
1
40
0.997187
41
1.0928639447695
42
-2.65959394701836
0
ELLIPSE
5
A1
100
AcDbEntity
8
1
62
256
6
ByLayer
370
-1
48
1
60
0
100
AcDbEllipse
10
89.553
20
-4.875053
30
0
11
-0.360613833720759
21
0.165733003816921
31
0
210
0
220
0
230
1
40
0.997187
41
0.481998706571546
42
1.0928639447695
0
ELLIPSE
5
A2
100
AcDbEntity
8
1
62
256
6
ByLayer
370
-1
48
1
60
0
100
AcDbEllipse
10
92.28023
20
-3.863354
30
0
11
1.73066421777798
21
-0.795388730519208
31
0
210
0
220
0
230
1
40
0.997187
41
0
42
6.28318530717959
0
ELLIPSE
5
A3
100
AcDbEntity
8
1
62
256
6
ByLayer
370
-1
48
1
60
0
100
AcDbEllipse
10
95.007459
20
-2.851655
30
0
11
-0.360613833720755
21
0.165733003816919
31
0
210
0
220
0
230
1
40
0.997187
41
-2.65959394701835
42
-2.0487287088203
0
ELLIPSE
5
A4
100
AcDbEntity
8
1
62
256
6
ByLayer
370
-1
48
1
60
0
100
AcDbEllipse
10
92.304877
20
-3.809725
30
0
11
1.63682529663507
21
-0.752261693168784
31
0
210
0
220
0
230
1
40
0.997187
41
0
42
6.28318530717959
0
ELLIPSE
5
A5
100
AcDbEntity
8
1
62
256
6
ByLayer
370
-1
48
1
60
0
100
AcDbEllipse
10
92.280645
20
-3.862449
30
0
11
1.18122326636104
21
-0.542873461321653
31
0
210
0
220
0
230
1
40
0.997187
41
0
42
6.28318530717959
0
ELLIPSE
5
A6
100
AcDbEntity
8
1
62
256
6
ByLayer
370
-1
48
1
60
0
100
AcDbEllipse
10
92.308816
20
-3.801153
30
0
11
1.56739241113292
21
-0.720351323676806
31
0
210
0
220
0
230
1
40
0.997187
41
0
42
3.14149467394625
0
ELLIPSE
5
A7
100
AcDbEntity
8
1
62
256
6
ByLayer
370
-1
48
1
60
0
100
AcDbEllipse
10
92.280645
20
-3.862449
30
0
11
0.940435446679747
21
-0.432210794206081
31
0
210
0
220
0
230
1
40
0.997187
41
-1.82970457266117
42
-0.783365001124506
0
ELLIPSE
5
A8
100
AcDbEntity
8
1
62
256
6
ByLayer
370
-1
48
1
60
0
100
AcDbEllipse
10
92.119326
20
-4.945269
30
0
11
-0.383443244926434
21
0.176225077444406
31
0
210
0
220
0
230
1
40
0.997187
41
-2.08143451474536
42
-1.30653478689288
0
ELLIPSE
5
A9
100
AcDbEntity
8
1
62
256
6
ByLayer
370
-1
48
1
60
0
100
AcDbEllipse
10
91.217923
20
-4.200184
30
0
11
-0.383443244926434
21
0.176225077444406
31
0
210
0
220
0
230
1
40
0.997187
41
-2.28724800560193
42
-1.5770751280275
0
ELLIPSE
5
AA
100
AcDbEntity
8
1
62
256
6
ByLayer
370
-1
48
1
60
0
100
AcDbEllipse
10
92.311946
20
-3.794342
30
0
11
-0.679657694798515
21
0.312361037745063
31
0
210
0
220
0
230
1
40
0.997187
41
0.825162677588121
42
1.83505786669687
0
ELLIPSE
5
AB
100
AcDbEntity
8
1
62
256
6
ByLayer
370
-1
48
1
60
0
100
AcDbEllipse
10
92.28609
20
-3.850604
30
0
11
1.56739241113292
21
-0.720351323676807
31
0
210
0
220
0
230
1
40
0.997187
41
0
42
6.28318530717959
0
ELLIPSE
5
AC
100
AcDbEntity
8
1
62
256
6
ByLayer
370
-1
48
1
60
0
100
AcDbEllipse
10
92.311946
20
-3.794342
30
0
11
0.679657694798507
21
-0.312361037745073
31
0
210
0
220
0
230
1
40
0.997187
41
-2.3918926798372
42
-2.31642997600171
0
ELLIPSE
5
AD
100
AcDbEntity
8
1
62
256
6
ByLayer
370
-1
48
1
60
0
100
AcDbEllipse
10
92.311946
20
-3.794342
30
0
11
0.679657694798507
21
-0.312361037745073
31
0
210
0
220
0
230
1
40
0.997187
41
-0.260195215356165
42
0.548604936099863
0
ELLIPSE
5
AE
100
AcDbEntity
8
1
62
256
6
ByLayer
370
-1
48
1
60
0
100
AcDbEllipse
10
92.311946
20
-3.794342
30
0
11
-0.679657694798515
21
0.312361037745063
31
0
210
0
220
0
230
1
40
0.997187
41
-1.05529917957897
42
-0.325951579612128
0
ELLIPSE
5
AF
100
AcDbEntity
8
1
62
256
6
ByLayer
370
-1
48
1
60
0
100
AcDbEllipse
10
92.280645
20
-3.862449
30
0
11
0.940435446679747
21
-0.432210794206081
31
0
210
0
220
0
230
1
40
0.997187
41
-0.783365001124506
42
0.262974570412062
0
ELLIPSE
5
B0
100
AcDbEntity
8
1
62
256
6
ByLayer
370
-1
48
1
60
0
100
AcDbEllipse
10
92.119326
20
-4.945269
30
0
11
-0.383443244926434
21
0.176225077444406
31
0
210
0
220
0
230
1
40
0.997187
41
-1.30653478689288
42
-0.531635059040604
0
ELLIPSE
5
B1
100
AcDbEntity
8
1
62
256
6
ByLayer
370
-1
48
1
60
0
100
AcDbEllipse
10
91.772048
20
-4.447961
30
0
11
-0.168097157135996
21
0.0772550694957706
31
0
210
0
220
0
230
1
40
0.997187
41
0.0103451257784246
42
2.60995759454926
0
ELLIPSE
5
B2
100
AcDbEntity
8
1
62
256
6
ByLayer
370
-1
48
1
60
0
100
AcDbEllipse
10
92.280645
20
-3.862449
30
0
11
0.940435446679747
21
-0.432210794206081
31
0
210
0
220
0
230
1
40
0.997187
41
1.31188808092851
42
2.3582276524651
0
ELLIPSE
5
B3
100
AcDbEntity
8
1
62
256
6
ByLayer
370
-1
48
1
60
0
100
AcDbEllipse
10
92.609405
20
-4.589325
30
0
11
-0.168097157135996
21
0.0772550694957706
31
0
210
0
220
0
230
1
40
0.997187
41
1.06015813884443
42
2.93939971666153
0
ELLIPSE
5
B4
100
AcDbEntity
8
1
62
256
6
ByLayer
370
-1
48
1
60
0
100
AcDbEllipse
10
92.311946
20
-3.794342
30
0
11
-0.679657694798515
21
0.312361037745063
31
0
210
0
220
0
230
1
40
0.997187
41
-2.1997711469299
42
-1.4972787296727
0
ELLIPSE
5
B5
100
AcDbEntity
8
1
62
256
6
ByLayer
370
-1
48
1
60
0
100
AcDbEllipse
10
92.280645
20
-3.862449
30
0
11
0.940435446679747
21
-0.432210794206081
31
0
210
0
220
0
230
1
40
0.997187
41
-2.87861808317771
42
-1.82970457266117
0
ELLIPSE
5
B6
100
AcDbEntity
8
1
62
256
6
ByLayer
370
-1
48
1
60
0
100
AcDbEllipse
10
91.409974
20
-3.049469
30
0
11
-0.383443244926434
21
0.176225077444406
31
0
210
0
220
0
230
1
40
0.997187
41
-3.14159143490332
42
-2.62688814109355
0
ELLIPSE
5
B7
100
AcDbEntity
8
1
62
256
6
ByLayer
370
-1
48
1
60
0
100
AcDbEllipse
10
93.213919
20
-4.539216
30
0
11
-0.383443244926434
21
0.176225077444406
31
0
210
0
220
0
230
1
40
0.997187
41
-0.260195215356038
42
1.47138825459192E-06
0
ELLIPSE
5
B8
100
AcDbEntity
8
1
62
256
6
ByLayer
370
-1
48
1
60
0
100
AcDbEllipse
10
92.311946
20
-3.794342
30
0
11
-0.679657694798515
21
0.312361037745063
31
0
210
0
220
0
230
1
40
0.997187
41
1.83505786669687
42
2.88139743823361
0
ELLIPSE
5
B9
100
AcDbEntity
8
1
62
256
6
ByLayer
370
-1
48
1
60
0
100
AcDbEllipse
10
92.285832
20
-3.851164
30
0
11
0.679657694798514
21
-0.312361037745076
31
0
210
0
220
0
230
1
40
0.997187
41
-2.39189267983727
42
-2.31642997600159
0
ELLIPSE
5
BA
100
AcDbEntity
8
1
62
256
6
ByLayer
370
-1
48
1
60
0
100
AcDbEllipse
10
93.213919
20
-4.539216
30
0
11
-0.383443244926434
21
0.176225077444406
31
0
210
0
220
0
230
1
40
0.997187
41
-1.03509494320853
42
-0.260195215356038
0
ELLIPSE
5
BB
100
AcDbEntity
8
1
62
256
6
ByLayer
370
-1
48
1
60
0
100
AcDbEllipse
10
91.217923
20
-4.200184
30
0
11
-0.383443244926434
21
0.176225077444406
31
0
210
0
220
0
230
1
40
0.997187
41
-3.13124752781139
42
-2.42107465023688
0
ELLIPSE
5
BC
100
AcDbEntity
8
1
62
256
6
ByLayer
370
-1
48
1
60
0
100
AcDbEllipse
10
93.149745
20
-3.936887
30
0
11
-0.168097157135996
21
0.0772550694957706
31
0
210
0
220
0
230
1
40
0.997187
41
2.10649771038124
42
2.97375130774397
0
ELLIPSE
5
BD
100
AcDbEntity
8
1
62
256
6
ByLayer
370
-1
48
1
60
0
100
AcDbEllipse
10
92.311946
20
-3.794342
30
0
11
-0.679657694798515
21
0.312361037745063
31
0
210
0
220
0
230
1
40
0.997187
41
-0.123069903319554
42
0.74969997375262
0
ELLIPSE
5
BE
100
AcDbEntity
8
1
62
256
6
ByLayer
370
-1
48
1
60
0
100
AcDbEllipse
10
92.280645
20
-3.862449
30
0
11
0.940435446679747
21
-0.432210794206081
31
0
210
0
220
0
230
1
40
0.997187
41
0.262974570412062
42
1.31188808092851
0
ELLIPSE
5
BF
100
AcDbEntity
8
1
62
256
6
ByLayer
370
-1
48
1
60
0
100
AcDbEllipse
10
92.285832
20
-3.851164
30
0
11
0.679657694798514
21
-0.312361037745076
31
0
210
0
220
0
230
1
40
0.997187
41
0.749699973753717
42
0.825162677586909
0
ELLIPSE
5
C0
100
AcDbEntity
8
1
62
256
6
ByLayer
370
-1
48
1
60
0
100
AcDbEllipse
10
92.280645
20
-3.862449
30
0
11
0.940435446679747
21
-0.432210794206081
31
0
210
0
220
0
230
1
40
0.997187
41
2.3582276524651
42
-2.87861808317771
0
ELLIPSE
5
C1
100
AcDbEntity
8
1
62
256
6
ByLayer
370
-1
48
1
60
0
100
AcDbEllipse
10
91.474148
20
-3.651797
30
0
11
-0.168097157135996
21
0.0772550694957706
31
0
210
0
220
0
230
1
40
0.997187
41
0.184568184559571
42
1.56451752556216
0
POINT
5
41
100
AcDbEntity
8
80
62
256
6
ByLayer
370
-1
48
1
60
0
100
AcDbPoint
10
0
20
0
30
0
39
0
210
0
220
0
230
1
50
360
0
POINT
5
43
100
AcDbEntity
8
81
62
256
6
ByLayer
370
-1
48
1
60
0
100
AcDbPoint
10
95.91
20
-12.9
30
0
39
0
210
0
220
0
230
1
50
360
0
POINT
5
45
100
AcDbEntity
8
1
62
256
6
ByLayer
370
-1
48
1
60
0
100
AcDbPoint
10
-105.34
20
0
30
0
39
0
210
0
220
0
230
1
50
360
0
POINT
5
47
100
AcDbEntity
8
2
62
256
6
ByLayer
370
-1
48
1
60
0
100
AcDbPoint
10
95.91
20
12.9
30
0
39
0
210
0
220
0
230
1
50
360
0
POINT
5
49
100
AcDbEntity
8
2
62
256
6
ByLayer
370
-1
48
1
60
0
100
AcDbPoint
10
95.79288
20
11.485656
30
0
39
0
210
0
220
0
230
1
50
360
0
SPLINE
5
C2
100
AcDbEntity
8
1
62
256
6
ByLayer
370
-1
48
1
60
0
100
AcDbSpline
70
4
71
3
72
14
73
10
40
0
40
0
40
0
40
0
40
0.25
40
0.25
40
0.5
40
0.5
40
0.75
40
0.75
40
1
40
1
40
1
40
1
41
1
10
74.1084295925048
20
-0.306445238600702
30
0
41
1
10
73.6955501824533
20
-1.78943795017733
30
0
41
1
10
73.3512343281048
20
-3.30617509399772
30
0
41
1
10
73.2643774437416
20
-5.85373052407834
30
0
41
1
10
73.6108473911064
20
-6.84417882368908
30
0
41
1
10
75.3629026626951
20
-7.87605008062835
30
0
41
1
10
76.6860394151189
20
-7.98849340645967
30
0
41
1
10
79.5290880664759
20
-8.06417411638969
30
0
41
1
10
81.0885496315509
20
-8.03443121183861
30
0
41
1
10
82.6485583960471
20
-8.03634323819651
30
0
0
SPLINE
5
C3
100
AcDbEntity
8
1
62
256
6
ByLayer
370
-1
48
1
60
0
100
AcDbSpline
70
4
71
3
72
12
73
8
40
0
40
0
40
0
40
0
40
0.294561703220359
40
0.294561703220359
40
0.589123406440702
40
0.589123406440702
40
1
40
1
40
1
40
1
41
1
10
83.0070993128843
20
-8.03677485435128
30
0
41
1
10
82.9718951709185
20
-8.03673324398096
30
0
41
1
10
82.9366910292197
20
-8.0366914071343
30
0
41
1
10
82.8662827463647
20
-8.03660728050536
30
0
41
1
10
82.831078605207
20
-8.03656499072309
30
0
41
1
10
82.7467691076974
20
-8.03646316966208
30
0
41
1
10
82.6976637516013
20
-8.03640342422639
30
0
41
1
10
82.6485583960472
20
-8.03634323819648
30
0
0
SPLINE
5
C4
100
AcDbEntity
8
1
62
256
6
ByLayer
370
-1
48
1
60
0
100
AcDbSpline
70
4
71
3
72
12
73
8
40
0
40
0
40
0
40
0
40
0.499999999999998
40
0.499999999999998
40
0.749999999999999
40
0.749999999999999
40
1
40
1
40
1
40
1
41
1
10
83.899216855
20
7.94653642741528
30
0
41
1
10
81.3813532266134
20
7.8499410160812
30
0
41
1
10
79.1846584927811
20
7.5681745010088
30
0
41
1
10
76.7776121040905
20
5.67130509503701
30
0
41
1
10
76.1441934587232
20
4.817684552185
30
0
41
1
10
75.0795360137844
20
2.73711053975319
30
0
41
1
10
74.6516100777656
20
1.5346396955419
30
0
41
1
10
74.2851272337959
20
0.306445238600787
30
0
0
SPLINE
5
C5
100
AcDbEntity
8
1
62
256
6
ByLayer
370
-1
48
1
60
0
100
AcDbSpline
70
4
71
3
72
14
73
10
40
0
40
0
40
0
40
0
40
0.114261551093313
40
0.114261551093313
40
0.402335222754565
40
0.402335222754565
40
0.703191532301131
40
0.703191532301131
40
1
40
1
40
1
40
1
41
1
10
74.2851272337959
20
0.306445238600816
30
0
41
1
10
74.2822018120398
20
0.284677679282424
30
0
41
1
10
74.2787019290541
20
0.262097262377694
30
0
41
1
10
74.2645480005208
20
0.181071903175536
30
0
41
1
10
74.2508081640842
20
0.118879165400386
30
0
41
1
10
74.2176252332334
20
-0.0070567214525852
30
0
41
1
10
74.1975447850455
20
-0.0723686203327247
30
0
41
1
10
74.1547953703018
20
-0.194813547608817
30
0
41
1
10
74.1316983015904
20
-0.253459190619367
30
0
41
1
10
74.1084295925048
20
-0.30644523860073
30
0
0
SPLINE
5
C6
100
AcDbEntity
8
1
62
256
6
ByLayer
370
-1
48
1
60
0
100
AcDbSpline
70
4
71
3
72
8
73
4
40
0
40
0
40
0
40
0
40
1
40
1
40
1
40
1
41
1
10
86.9798010393542
20
8.08916765746557
30
0
41
1
10
85.9649606298998
20
8.0927687607049
30
0
41
1
10
84.9714729256399
20
8.08392375873703
30
0
41
1
10
83.9983791439832
20
8.04841324712635
30
0
0
SPLINE
5
C7
100
AcDbEntity
8
1
62
256
6
ByLayer
370
-1
48
1
60
0
100
AcDbSpline
70
4
71
3
72
51
73
47
40
-0.0648420643289832
40
-0.0648420643289832
40
0
40
0
40
0.0857185359637688
40
0.0857185359637688
40
0.0857185359637688
40
0.12830456507887
40
0.12830456507887
40
0.164147050688074
40
0.164147050688074
40
0.194256559695779
40
0.194256559695779
40
0.224477951993393
40
0.224477951993393
40
0.253086675657688
40
0.253086675657688
40
0.283463551662148
40
0.283463551662148
40
0.327038598205821
40
0.327038598205821
40
0.38594272698178
40
0.38594272698178
40
0.46942261339443
40
0.46942261339443
40
0.581539673882623
40
0.581539673882623
40
0.581539673882623
40
0.637961118871304
40
0.637961118871304
40
0.678065729911353
40
0.678065729911353
40
0.69718801685793
40
0.69718801685793
40
0.71314962488464
40
0.71314962488464
40
0.729317057294279
40
0.729317057294279
40
0.74295681225597
40
0.74295681225597
40
0.767589957856195
40
0.767589957856195
40
0.819184295737287
40
0.819184295737287
40
0.935157935671017
40
0.935157935671017
40
0.935157935671017
40
1
40
1
40
1.08571853596377
40
1.08571853596377
41
1
10
77.3051649461153
20
-3.64136852073025
30
0
41
1
10
76.8259289360017
20
-3.4415623340272
30
0
41
1
10
76.5407919548823
20
-3.37556655465266
30
0
41
1
10
76.2617151312
20
-3.39927824260553
30
0
41
1
10
76.1214984419622
20
-3.41119171624021
30
0
41
1
10
75.9802543710427
20
-3.44654956703616
30
0
41
1
10
75.7325565337623
20
-3.56623515074838
30
0
41
1
10
75.6216785915426
20
-3.64357147009446
30
0
41
1
10
75.4380334734349
20
-3.8256949095636
30
0
41
1
10
75.360086544439
20
-3.92630611869333
30
0
41
1
10
75.2290272472769
20
-4.14898894739875
30
0
41
1
10
75.1742466614796
20
-4.27419349150333
30
0
41
1
10
75.097297617858
20
-4.52229507113478
30
0
41
1
10
75.0724994394448
20
-4.64799979590259
30
0
41
1
10
75.0486503237866
20
-4.8984952428174
30
0
41
1
10
75.0508832006149
20
-5.02571272894687
30
0
41
1
10
75.0869842845027
20
-5.31378649448072
30
0
41
1
10
75.1344621109557
20
-5.47038973890938
30
0
41
1
10
75.2895006098976
20
-5.79165443104796
30
0
41
1
10
75.4145847539706
20
-5.94637531053411
30
0
41
1
10
75.7666608536852
20
-6.24846560589299
30
0
41
1
10
76.0204004939992
20
-6.37318530867961
30
0
41
1
10
76.6642785682596
20
-6.56908639119052
30
0
41
1
10
77.0834838144528
20
-6.61423994128421
30
0
41
1
10
77.5162272685444
20
-6.59496225675517
30
0
41
1
10
77.7360217804457
20
-6.58517093762237
30
0
41
1
10
77.9624391080846
20
-6.55871623458478
30
0
41
1
10
78.3473536050601
20
-6.46717514799801
30
0
41
1
10
78.5093595363627
20
-6.41541423441623
30
0
41
1
10
78.7324384218496
20
-6.29744378646402
30
0
41
1
10
78.8028556701856
20
-6.25199534483178
30
0
41
1
10
78.9177344272057
20
-6.15100223602389
30
0
41
1
10
78.9653654663991
20
-6.09715602324863
30
0
41
1
10
79.0388313826809
20
-5.97634963579381
30
0
41
1
10
79.0649511189573
20
-5.90735727743828
30
0
41
1
10
79.0882935410215
20
-5.77869951435727
30
0
41
1
10
79.0899995328422
20
-5.71790762266485
30
0
41
1
10
79.0760668699407
20
-5.55299830199522
30
0
41
1
10
79.0462886375505
20
-5.4500756919667
30
0
41
1
10
78.9273841275808
20
-5.15336272952632
30
0
41
1
10
78.8085139553311
20
-4.97321271279472
30
0
41
1
10
78.3971919297683
20
-4.44099668727273
30
0
41
1
10
78.0562708203088
20
-4.13428644650725
30
0
41
1
10
77.7062790117263
20
-3.89296763768692
30
0
41
1
10
77.5091435864136
20
-3.75704306789368
30
0
41
1
10
77.3051649461153
20
-3.64136852073025
30
0
41
1
10
76.8259289360017
20
-3.4415623340272
30
0
0
SPLINE
5
C8
100
AcDbEntity
8
1
62
256
6
ByLayer
370
-1
48
1
60
0
100
AcDbSpline
70
4
71
3
72
8
73
4
40
0
40
0
40
0
40
0
40
1
40
1
40
1
40
1
41
1
10
83.8992168549996
20
7.94653642741562
30
0
41
1
10
83.9322537729118
20
7.98050408279607
30
0
41
1
10
83.9653081753652
20
8.01446292039944
30
0
41
1
10
83.9983791439832
20
8.04841324712632
30
0
0
SPLINE
5
C9
100
AcDbEntity
8
1
62
256
6
ByLayer
370
-1
48
1
60
0
100
AcDbSpline
70
4
71
3
72
8
73
4
40
0
40
0
40
0
40
0
40
1
40
1
40
1
40
1
41
1
10
83.9982169164138
20
8.14150000000001
30
0
41
1
10
83.9982673258844
20
8.14150000000001
30
0
41
1
10
83.9983217113571
20
8.11029346360249
30
0
41
1
10
83.9983791439832
20
8.04841324712635
30
0
0
SPLINE
5
CA
100
AcDbEntity
8
1
62
256
6
ByLayer
370
-1
48
1
60
0
100
AcDbSpline
70
4
71
3
72
14
73
10
40
0
40
0
40
0
40
0
40
0.0477900550174163
40
0.0477900550174163
40
0.384888787326154
40
0.384888787326154
40
0.831870097804514
40
0.831870097804514
40
1
40
1
40
1
40
1
41
1
10
91.5958937554268
20
-4.13715810421238
30
0
41
1
10
91.5973378250267
20
-4.14203039119326
30
0
41
1
10
91.5986906833211
20
-4.14693091790551
30
0
41
1
10
91.6087630917178
20
-4.18626180484532
30
0
41
1
10
91.6130108587461
20
-4.22206513964608
30
0
41
1
10
91.6127744522497
20
-4.30260381772717
30
0
41
1
10
91.6051461831687
20
-4.3478283908542
30
0
41
1
10
91.5866621828209
20
-4.40541168515011
30
0
41
1
10
91.5807154474493
20
-4.42089456342507
30
0
41
1
10
91.5739997751145
20
-4.43590016615124
30
0
0
SPLINE
5
CB
100
AcDbEntity
8
1
62
256
6
ByLayer
370
-1
48
1
60
0
100
AcDbSpline
70
4
71
3
72
18
73
14
40
0
40
0
40
0
40
0
40
0.0269712990582443
40
0.0269712990582443
40
0.252424541102367
40
0.252424541102367
40
0.478583142611229
40
0.478583142611229
40
0.717456099926216
40
0.717456099926216
40
0.97859681473911
40
0.97859681473911
40
1
40
1
40
1
40
1
41
1
10
91.2605023977436
20
-3.68887980512125
30
0
41
1
10
91.2608804929789
20
-3.68663841098416
30
0
41
1
10
91.261300822145
20
-3.68440225397106
30
0
41
1
10
91.2655833401683
20
-3.66374941395847
30
0
41
1
10
91.2724024993509
20
-3.64561647110958
30
0
41
1
10
91.2907618213202
20
-3.61276527174644
30
0
41
1
10
91.3025395378905
20
-3.59763113434525
30
0
41
1
10
91.329902870775
20
-3.57124407427338
30
0
41
1
10
91.3459950827153
20
-3.55991232730673
30
0
41
1
10
91.3812291288912
20
-3.54195504345486
30
0
41
1
10
91.4009478231328
20
-3.53562129156163
30
0
41
1
10
91.4221676268021
20
-3.53216590796117
30
0
41
1
10
91.4237913102515
20
-3.53192247788036
30
0
41
1
10
91.4254152081642
20
-3.53169980549396
30
0
0
SPLINE
5
CC
100
AcDbEntity
8
1
62
256
6
ByLayer
370
-1
48
1
60
0
100
AcDbSpline
70
4
71
3
72
14
73
10
40
0
40
0
40
0
40
0
40
0.230593667685361
40
0.230593667685361
40
0.523981841596789
40
0.523981841596789
40
0.789259709094358
40
0.789259709094358
40
1
40
1
40
1
40
1
41
1
10
91.3668925596317
20
-3.88238949312151
30
0
41
1
10
91.3510248475512
20
-3.875710848344
30
0
41
1
10
91.3358396695526
20
-3.86663593889193
30
0
41
1
10
91.3050282482972
20
-3.84126373903044
30
0
41
1
10
91.2899322356785
20
-3.82319487811648
30
0
41
1
10
91.2690028088961
20
-3.78420181911929
30
0
41
1
10
91.2621385168556
20
-3.76310310775634
30
0
41
1
10
91.2572098332404
20
-3.72426538291305
30
0
41
1
10
91.257565188222
20
-3.70629193726916
30
0
41
1
10
91.2605023977436
20
-3.68887980512125
30
0
0
SPLINE
5
CD
100
AcDbEntity
8
1
62
256
6
ByLayer
370
-1
48
1
60
0
100
AcDbSpline
70
4
71
3
72
16
73
12
40
0
40
0
40
0
40
0
40
0.115648642562698
40
0.115648642562698
40
0.339836779519869
40
0.339836779519869
40
0.569690433061646
40
0.569690433061646
40
0.816283250255961
40
0.816283250255961
40
1
40
1
40
1
40
1
41
1
10
92.6428452215686
20
-4.83045730951395
30
0
41
1
10
92.6337709131927
20
-4.83382353453072
30
0
41
1
10
92.624405372867
20
-4.83645876920966
30
0
41
1
10
92.5966941002544
20
-4.84189004737223
30
0
41
1
10
92.5777627069288
20
-4.84254677474169
30
0
41
1
10
92.5410814298984
20
-4.83817409790331
30
0
41
1
10
92.5229070673487
20
-4.83296170947125
30
0
41
1
10
92.4886229521654
20
-4.81725231457486
30
0
41
1
10
92.4723224524514
20
-4.80622089143287
30
0
41
1
10
92.4479838270626
20
-4.78366904903237
30
0
41
1
10
92.4387313225651
20
-4.77284662945522
30
0
41
1
10
92.4308661771557
20
-4.76128729671598
30
0
0
SPLINE
5
CE
100
AcDbEntity
8
1
62
256
6
ByLayer
370
-1
48
1
60
0
100
AcDbSpline
70
4
71
3
72
18
73
14
40
0
40
0
40
0
40
0
40
0.207900415666067
40
0.207900415666067
40
0.384436705865051
40
0.384436705865051
40
0.562674993081719
40
0.562674993081719
40
0.717759129580008
40
0.717759129580008
40
0.92299789071723
40
0.92299789071723
40
1
40
1
40
1
40
1
41
1
10
92.7644733963082
20
-4.63753164280058
30
0
41
1
10
92.7615707904247
20
-4.59404440085382
30
0
41
1
10
92.7649223486968
20
-4.54873524190427
30
0
41
1
10
92.7841730492448
20
-4.46653529415721
30
0
41
1
10
92.7984185232588
20
-4.42849820295464
30
0
41
1
10
92.8372509559276
20
-4.3577634781
30
0
41
1
10
92.8626087082675
20
-4.32414080847957
30
0
41
1
10
92.9163372947692
20
-4.27151342543405
30
0
41
1
10
92.9444952705093
20
-4.25050475844065
30
0
41
1
10
93.0119663203983
20
-4.21228011215228
30
0
41
1
10
93.0530403310347
20
-4.19768204174756
30
0
41
1
10
93.1091989828083
20
-4.18700955753116
30
0
41
1
10
93.1246888330327
20
-4.1850214885041
30
0
41
1
10
93.1401298235318
20
-4.18394262145068
30
0
0
SPLINE
5
CF
100
AcDbEntity
8
1
62
256
6
ByLayer
370
-1
48
1
60
0
100
AcDbSpline
70
4
71
3
72
12
73
8
40
0
40
0
40
0
40
0
40
0.435573004738191
40
0.435573004738191
40
0.821891607718953
40
0.821891607718953
40
1
40
1
40
1
40
1
41
1
10
93.1986732143765
20
-3.83320780120289
30
0
41
1
10
93.1623836191346
20
-3.8145125519367
30
0
41
1
10
93.1274479849967
20
-3.78995361359137
30
0
41
1
10
93.0683114704993
20
-3.73362727109699
30
0
41
1
10
93.0427253765129
20
-3.70226633787752
30
0
41
1
10
93.0120317992083
20
-3.65184127213706
30
0
41
1
10
93.0032168393288
20
-3.63511680227552
30
0
41
1
10
92.9955190193187
20
-3.6179500960348
30
0
0
SPLINE
5
D0
100
AcDbEntity
8
1
62
256
6
ByLayer
370
-1
48
1
60
0
100
AcDbSpline
70
4
71
3
72
16
73
12
40
0
40
0
40
0
40
0
40
0.0255958524344624
40
0.0255958524344624
40
0.341869048912475
40
0.341869048912475
40
0.630045700079101
40
0.630045700079101
40
0.884073233921688
40
0.884073233921688
40
1
40
1
40
1
40
1
41
1
10
92.7644733963082
20
-4.63753164280058
30
0
41
1
10
92.7646056614888
20
-4.63951325799056
30
0
41
1
10
92.7647084308821
20
-4.64150005518059
30
0
41
1
10
92.7656696817635
20
-4.66773905179076
30
0
41
1
10
92.7620033304024
20
-4.69308412256083
30
0
41
1
10
92.7458202072083
20
-4.7385702109388
30
0
41
1
10
92.73381507014
20
-4.759673832787
30
0
41
1
10
92.7046594095007
20
-4.79360710614938
30
0
41
1
10
92.6878291507242
20
-4.80760187308968
30
0
41
1
10
92.6608832064225
20
-4.82291603098153
30
0
41
1
10
92.6519774632959
20
-4.82706959341613
30
0
41
1
10
92.6428452215686
20
-4.83045730951395
30
0
0
SPLINE
5
D1
100
AcDbEntity
8
1
62
256
6
ByLayer
370
-1
48
1
60
0
100
AcDbSpline
70
4
71
3
72
14
73
10
40
0
40
0
40
0
40
0
40
0.033573376030776
40
0.033573376030776
40
0.37127238895941
40
0.37127238895941
40
0.814068481315238
40
0.814068481315238
40
1
40
1
40
1
40
1
41
1
10
92.9757703107656
20
-3.56517008575247
30
0
41
1
10
92.9747401926899
20
-3.56176929441207
30
0
41
1
10
92.9737527842411
20
-3.55836023454177
30
0
41
1
10
92.9634068591553
20
-3.52094182712386
30
0
41
1
10
92.9583224685125
20
-3.48600706052622
30
0
41
1
10
92.9563532363144
20
-3.40876627056105
30
0
41
1
10
92.9623354630233
20
-3.3662090549571
30
0
41
1
10
92.9788193751961
20
-3.31090713352702
30
0
41
1
10
92.9847347485594
20
-3.29499403562545
30
0
41
1
10
92.9915659988937
20
-3.27969712817281
30
0
0
SPLINE
5
D2
100
AcDbEntity
8
1
62
256
6
ByLayer
370
-1
48
1
60
0
100
AcDbSpline
70
4
71
3
72
16
73
12
40
0
40
0
40
0
40
0
40
0.0591678910087725
40
0.0591678910087725
40
0.283155900810881
40
0.283155900810881
40
0.509691682629367
40
0.509691682629367
40
0.750402072188393
40
0.750402072188393
40
1
40
1
40
1
40
1
41
1
10
92.9380506844346
20
-3.0665728726708
30
0
41
1
10
92.941908166697
20
-3.06975016883683
30
0
41
1
10
92.9456435458453
20
-3.07308023491248
30
0
41
1
10
92.9627332464768
20
-3.08955782970006
30
0
41
1
10
92.9743598494952
20
-3.10471667620405
30
0
41
1
10
92.9923037864424
20
-3.13692746745829
30
0
41
1
10
92.9988007123565
20
-3.15440272705644
30
0
41
1
10
93.0064777638111
20
-3.19027874676001
30
0
41
1
10
93.0074154846743
20
-3.20911500818494
30
0
41
1
10
93.0037034872638
20
-3.24551347949625
30
0
41
1
10
92.9988341710766
20
-3.26342184154336
30
0
41
1
10
92.9915659988937
20
-3.27969712817281
30
0
0
SPLINE
5
D3
100
AcDbEntity
8
1
62
256
6
ByLayer
370
-1
48
1
60
0
100
AcDbSpline
70
4
71
3
72
16
73
12
40
0
40
0
40
0
40
0
40
0.186947723982546
40
0.186947723982546
40
0.410806756112392
40
0.410806756112392
40
0.644094218330405
40
0.644094218330405
40
0.897073406693141
40
0.897073406693141
40
1
40
1
40
1
40
1
41
1
10
91.6232402639019
20
-4.65832589594305
30
0
41
1
10
91.6111400847259
20
-4.64835932959485
30
0
41
1
10
91.6002510248463
20
-4.63666497015112
30
0
41
1
10
91.5802915503847
20
-4.60870734510749
30
0
41
1
10
91.5717656560678
20
-4.59163078631045
30
0
41
1
10
91.5601199810324
20
-4.55583174026594
30
0
41
1
10
91.5570790736793
20
-4.53662550772751
30
0
41
1
10
91.5566353852644
20
-4.49756380494398
30
0
41
1
10
91.5597027103141
20
-4.47730187156608
30
0
41
1
10
91.5678967958136
20
-4.45071918258353
30
0
41
1
10
91.5707386925777
20
-4.44318677969429
30
0
41
1
10
91.5739997751135
20
-4.43590016615062
30
0
0
SPLINE
5
D4
100
AcDbEntity
8
1
62
256
6
ByLayer
370
-1
48
1
60
0
100
AcDbSpline
70
4
71
3
72
14
73
10
40
0
40
0
40
0
40
0
40
0.273856248371934
40
0.273856248371934
40
0.562404984580664
40
0.562404984580664
40
0.823735202305465
40
0.823735202305465
40
1
40
1
40
1
40
1
41
1
10
92.716828013412
20
-3.05263452449
30
0
41
1
10
92.7331952019679
20
-3.04175151964526
30
0
41
1
10
92.7520468084707
20
-3.03330835505386
30
0
41
1
10
92.7932739657447
20
-3.02300885892168
30
0
41
1
10
92.8164441776444
20
-3.02141196100726
30
0
41
1
10
92.860154592054
20
-3.02671219981619
30
0
41
1
10
92.8813930809736
20
-3.03293951146353
30
0
41
1
10
92.9140249703871
20
-3.04903799514139
30
0
41
1
10
92.9266463546684
20
-3.05717945728253
30
0
41
1
10
92.9380506844346
20
-3.0665728726708
30
0
0
SPLINE
5
D5
100
AcDbEntity
8
1
62
256
6
ByLayer
370
-1
48
1
60
0
100
AcDbSpline
70
4
71
3
72
16
73
12
40
0
40
0
40
0
40
0
40
0.132402311884141
40
0.132402311884141
40
0.438108602610944
40
0.438108602610944
40
0.714648183119429
40
0.714648183119429
40
0.959836658149795
40
0.959836658149795
40
1
40
1
40
1
40
1
41
1
10
91.8487170182879
20
-4.66300790245566
30
0
41
1
10
91.8404572692018
20
-4.66898170762607
30
0
41
1
10
91.8316599762684
20
-4.67435434088947
30
0
41
1
10
91.8013401519969
20
-4.6896530884826
30
0
41
1
10
91.7774709506321
20
-4.6966380614015
30
0
41
1
10
91.7310747772167
20
-4.70048227423908
30
0
41
1
10
91.7079137168126
20
-4.6982559770459
30
0
41
1
10
91.6667277825479
20
-4.68600550842987
30
0
41
1
10
91.647828940969
20
-4.67669194491452
30
0
41
1
10
91.6285517877388
20
-4.66257535125598
30
0
41
1
10
91.6258649024509
20
-4.66048773452894
30
0
41
1
10
91.6232402639019
20
-4.65832589594305
30
0
0
SPLINE
5
D6
100
AcDbEntity
8
1
62
256
6
ByLayer
370
-1
48
1
60
0
100
AcDbSpline
70
4
71
3
72
16
73
12
40
0
40
0
40
0
40
0
40
0.0533186851415433
40
0.0533186851415433
40
0.278118322826869
40
0.278118322826869
40
0.505132438067109
40
0.505132438067109
40
0.746087958799708
40
0.746087958799708
40
1
40
1
40
1
40
1
41
1
10
91.918445726768
20
-2.89444145909988
30
0
41
1
10
91.9226523061591
20
-2.89288097733152
30
0
41
1
10
91.9269221153256
20
-2.89146731800341
30
0
41
1
10
91.9492752279616
20
-2.88493461943852
30
0
41
1
10
91.9683760180379
20
-2.88234129005821
30
0
41
1
10
92.0057773490053
20
-2.88269565476432
30
0
41
1
10
92.0245452699339
20
-2.88568845316607
30
0
41
1
10
92.0604248637758
20
-2.8967252612822
30
0
41
1
10
92.0778198813593
20
-2.90518795042078
30
0
41
1
10
92.1091593890945
20
-2.92649372105615
30
0
41
1
10
92.123249643862
20
-2.93977780268293
30
0
41
1
10
92.1346788545401
20
-2.95435513022881
30
0
0
SPLINE
5
D7
100
AcDbEntity
8
1
62
256
6
ByLayer
370
-1
48
1
60
0
100
AcDbSpline
70
4
71
3
72
18
73
14
40
0
40
0
40
0
40
0
40
0.210243350524295
40
0.210243350524295
40
0.386394243247356
40
0.386394243247356
40
0.564220218861553
40
0.564220218861553
40
0.719241620322966
40
0.719241620322966
40
0.924914575233207
40
0.924914575233207
40
1
40
1
40
1
40
1
41
1
10
91.8487170182862
20
-4.66300790245319
30
0
41
1
10
91.8844173381994
20
-4.63718789830338
30
0
41
1
10
91.925011885396
20
-4.61603804578894
30
0
41
1
10
92.0051715797537
20
-4.58993187053528
30
0
41
1
10
92.0447727667457
20
-4.58271371211237
30
0
41
1
10
92.1248960281838
20
-4.58042977957311
30
0
41
1
10
92.1666030914348
20
-4.58557339687471
30
0
41
1
10
92.239366209915
20
-4.60631682942534
30
0
41
1
10
92.2719873448125
20
-4.62067986802541
30
0
41
1
10
92.3399985147146
20
-4.66151042661701
30
0
41
1
10
92.3740717162106
20
-4.69096284335475
30
0
41
1
10
92.4124263389702
20
-4.73571725927354
30
0
41
1
10
92.4220293447594
20
-4.74829988444156
30
0
41
1
10
92.4308661771557
20
-4.76128729671598
30
0
0
SPLINE
5
D8
100
AcDbEntity
8
1
62
256
6
ByLayer
370
-1
48
1
60
0
100
AcDbSpline
70
4
71
3
72
16
73
12
40
0
40
0
40
0
40
0
40
0.0227537274190597
40
0.0227537274190597
40
0.338598598864876
40
0.338598598864876
40
0.626554494348094
40
0.626554494348094
40
0.880350885430869
40
0.880350885430869
40
1
40
1
40
1
40
1
41
1
10
93.1986732143765
20
-3.83320780120286
30
0
41
1
10
93.2002003330269
20
-3.8339945243294
30
0
41
1
10
93.201719709513
20
-3.83480355572018
30
0
41
1
10
93.2238983730222
20
-3.84700445760967
30
0
41
1
10
93.2433218071228
20
-3.86287066502169
30
0
41
1
10
93.2736011882
20
-3.89968160311747
30
0
41
1
10
93.2855019278222
20
-3.92066861019785
30
0
41
1
10
93.2998880555541
20
-3.96296586036988
30
0
41
1
10
93.3035047070352
20
-3.98458174081407
30
0
41
1
10
93.3033347328327
20
-4.01595799413056
30
0
41
1
10
93.302463132975
20
-4.02609183724732
30
0
41
1
10
93.3007885505929
20
-4.03601896349258
30
0
0
SPLINE
5
D9
100
AcDbEntity
8
1
62
256
6
ByLayer
370
-1
48
1
60
0
100
AcDbSpline
70
4
71
3
72
18
73
14
40
0
40
0
40
0
40
0
40
0.166809051933462
40
0.166809051933462
40
0.351118303063863
40
0.351118303063863
40
0.537600923582014
40
0.537600923582014
40
0.694865869135972
40
0.694865869135972
40
0.85714649142678
40
0.85714649142678
40
1
40
1
40
1
40
1
41
1
10
92.7168280134119
20
-3.05263452449
30
0
41
1
10
92.6896029266034
20
-3.07073725182332
30
0
41
1
10
92.6593461676491
20
-3.08597867586016
30
0
41
1
10
92.5908966751352
20
-3.1101047139837
30
0
41
1
10
92.5513214626358
20
-3.11835286718272
30
0
41
1
10
92.469406705805
20
-3.12332699191177
30
0
41
1
10
92.4257119843114
20
-3.11985890718344
30
0
41
1
10
92.3492431223086
20
-3.10254777827319
30
0
41
1
10
92.314900728615
20
-3.09023763548623
30
0
41
1
10
92.2514781797238
20
-3.05887021028363
30
0
41
1
10
92.2218245449636
20
-3.03930124646314
30
0
41
1
10
92.1728601393282
20
-2.99821378104335
30
0
41
1
10
92.152381625789
20
-2.97693403810226
30
0
41
1
10
92.13467885454
20
-2.95435513022886
30
0
0
SPLINE
5
DA
100
AcDbEntity
8
1
62
256
6
ByLayer
370
-1
48
1
60
0
100
AcDbSpline
70
4
71
3
72
14
73
10
40
0
40
0
40
0
40
0
40
0.265443941278463
40
0.265443941278463
40
0.555046039571486
40
0.555046039571486
40
0.817228489143899
40
0.817228489143899
40
1
40
1
40
1
40
1
41
1
10
91.8010716353877
20
-3.07811078414423
30
0
41
1
10
91.7990779465589
20
-3.05916955785807
30
0
41
1
10
91.8002687359755
20
-3.03937019464439
30
0
41
1
10
91.8099643590554
20
-2.99917739168888
30
0
41
1
10
91.8193284595916
20
-2.97826609833856
30
0
41
1
10
91.8445415506341
20
-2.94292156352913
30
0
41
1
10
91.8601058633734
20
-2.92754957093672
30
0
41
1
10
91.8903376576226
20
-2.90688807867659
30
0
41
1
10
91.904101763072
20
-2.89976252682573
30
0
41
1
10
91.918445726768
20
-2.89444145909988
30
0
0
SPLINE
5
DB
100
AcDbEntity
8
1
62
256
6
ByLayer
370
-1
48
1
60
0
100
AcDbSpline
70
4
71
3
72
12
73
8
40
0
40
0
40
0
40
0
40
0.457803523692391
40
0.457803523692391
40
0.840321441662897
40
0.840321441662897
40
1
40
1
40
1
40
1
41
1
10
91.3668925596318
20
-3.88238949312119
30
0
41
1
10
91.4064078674685
20
-3.89902129882697
30
0
41
1
10
91.4443805435079
20
-3.92232861128897
30
0
41
1
10
91.5060876924588
20
-3.97678819841934
30
0
41
1
10
91.5317649780023
20
-4.00672003768014
30
0
41
1
10
91.5612524665911
20
-4.05433608634524
30
0
41
1
10
91.5691752023495
20
-4.06911509506139
30
0
41
1
10
91.576145046873
20
-4.08437809392828
30
0
0
SPLINE
5
DC
100
AcDbEntity
8
1
62
256
6
ByLayer
370
-1
48
1
60
0
100
AcDbSpline
70
4
71
3
72
16
73
12
40
0
40
0
40
0
40
0
40
0.111831975493346
40
0.111831975493346
40
0.336052087695784
40
0.336052087695784
40
0.565730855876692
40
0.565730855876692
40
0.811983326337931
40
0.811983326337931
40
1
40
1
40
1
40
1
41
1
10
93.3007885505929
20
-4.03601896349258
30
0
41
1
10
93.2992334196564
20
-4.04523796716737
30
0
41
1
10
93.2969754688908
20
-4.05434539133691
30
0
41
1
10
93.2882519274733
20
-4.0807611175486
30
0
41
1
10
93.279665985873
20
-4.09748434089215
30
0
41
1
10
93.2583151486607
20
-4.1270423857475
30
0
41
1
10
93.2451961472274
20
-4.14015692741958
30
0
41
1
10
93.2155609156511
20
-4.16194367028064
30
0
41
1
10
93.1985093202887
20
-4.17051664150526
30
0
41
1
10
93.167676796548
20
-4.18037686345826
30
0
41
1
10
93.1538646833918
20
-4.18298296230287
30
0
41
1
10
93.1401298235318
20
-4.18394262145085
30
0
0
SPLINE
5
DD
100
AcDbEntity
8
1
62
256
6
ByLayer
370
-1
48
1
60
0
100
AcDbSpline
70
4
71
3
72
18
73
14
40
0
40
0
40
0
40
0
40
0.128692379640801
40
0.128692379640801
40
0.320706773653693
40
0.320706773653693
40
0.480650160328243
40
0.480650160328243
40
0.640996254383097
40
0.640996254383097
40
0.79719921473727
40
0.79719921473727
40
1
40
1
40
1
40
1
41
1
10
91.8010716353876
20
-3.07811078414423
30
0
41
1
10
91.8037147447566
20
-3.10322189071891
30
0
41
1
10
91.8039401867744
20
-3.12899778048535
30
0
41
1
10
91.7978936586962
20
-3.19361992235812
30
0
41
1
10
91.7881868248219
20
-3.23351618663742
30
0
41
1
10
91.7584398845643
20
-3.30391532003779
30
0
41
1
10
91.7399757830506
20
-3.33562729511402
30
0
41
1
10
91.695284579783
20
-3.39322049740414
30
0
41
1
10
91.6684709690546
20
-3.41979132925354
30
0
41
1
10
91.6115490288607
20
-3.46372495589563
30
0
41
1
10
91.5809244767614
20
-3.48187280510439
30
0
41
1
10
91.5093714833793
20
-3.51413076745735
30
0
41
1
10
91.4670896832782
20
-3.52598531152685
30
0
41
1
10
91.4254152081642
20
-3.53169980549399
30
0
0
SPLINE
5
DE
100
AcDbEntity
8
SK1
62
256
6
ByLayer
370
-1
48
1
60
0
100
AcDbSpline
70
4
71
3
72
24
73
20
40
0
40
0
40
0
40
0
40
0.249999999999995
40
0.249999999999995
40
0.374999999999993
40
0.374999999999993
40
0.437499999999996
40
0.437499999999996
40
0.499999999999999
40
0.499999999999999
40
0.531250000000004
40
0.531250000000004
40
0.562500000000009
40
0.562500000000009
40
0.62500000000001
40
0.62500000000001
40
0.750000000000004
40
0.750000000000004
40
1
40
1
40
1
40
1
41
1
10
-32.09
20
0.208217351629059
30
0
41
1
10
-32.4988420209809
20
0.208217351629059
30
0
41
1
10
-32.9075700421796
20
0.200628106757222
30
0
41
1
10
-33.5201123303113
20
0.171073275450823
30
0
41
1
10
-33.723960835833
20
0.158342940298155
30
0
41
1
10
-34.0285633625019
20
0.129106778533128
30
0
41
1
10
-34.1299152849477
20
0.117782088577599
30
0
41
1
10
-34.3316559370228
20
0.0867855292195827
30
0
41
1
10
-34.4476642593234
20
0.0899171685781255
30
0
41
1
10
-34.5669313789905
20
-0.0136458934178734
30
0
41
1
10
-34.4784711277951
20
-0.0489364234134655
30
0
41
1
10
-34.3778903856424
20
-0.0766629766364701
30
0
41
1
10
-34.3266456087825
20
-0.0864424784147104
30
0
41
1
10
-34.1721535471284
20
-0.112538835792264
30
0
41
1
10
-34.0685119130175
20
-0.124684589520342
30
0
41
1
10
-33.7573848627505
20
-0.156042093009745
30
0
41
1
10
-33.549279040374
20
-0.169368026065086
30
0
41
1
10
-32.9242101016124
20
-0.20037077189474
30
0
41
1
10
-32.5071903882065
20
-0.208217351629059
30
0
41
1
10
-32.09
20
-0.208217351629059
30
0
0
LINE
5
4A
100
AcDbEntity
8
80
62
256
6
ByLayer
370
-1
48
1
60
0
100
AcDbLine
10
0
20
0
30
0
11
-10
21
0
31
0
39
0
210
0
220
0
230
1
0
LINE
5
4B
100
AcDbEntity
8
81
62
256
6
ByLayer
370
-1
48
1
60
0
100
AcDbLine
10
95.91
20
-12.9
30
0
11
105.91
21
-12.9
31
0
39
0
210
0
220
0
230
1
0
LINE
5
4C
100
AcDbEntity
8
SK4
62
256
6
ByLayer
370
-1
48
0.05
60
0
100
AcDbLine
10
-110.34
20
0
30
0
11
100.79288
21
0
31
0
39
0
210
0
220
0
230
1
0
LINE
5
4E
100
AcDbEntity
8
4
62
256
6
ByLayer
370
-1
48
0.05
60
0
100
AcDbLine
10
0
20
0
30
0
11
100.79288
21
0
31
0
39
0
210
0
220
0
230
1
0
LINE
5
50
100
AcDbEntity
8
1
62
256
6
ByLayer
370
-1
48
1
60
0
100
AcDbLine
10
91.766869
20
-3.28346
30
0
11
91.793418
21
-3.225694
31
0
39
0
210
0
220
0
230
1
0
LINE
5
51
100
AcDbEntity
8
1
62
256
6
ByLayer
370
-1
48
1
60
0
100
AcDbLine
10
92.830475
20
-4.362991
30
0
11
92.803891
21
-4.420835
31
0
39
0
210
0
220
0
230
1
0
LINE
5
52
100
AcDbEntity
8
1
62
256
6
ByLayer
370
-1
48
1
60
0
100
AcDbLine
10
90.741424
20
-3.080802
30
0
11
90.718697
21
-3.130252
31
0
39
0
210
0
220
0
230
1
0
LINE
5
53
100
AcDbEntity
8
1
62
256
6
ByLayer
370
-1
48
1
60
0
100
AcDbLine
10
93.853482
20
-4.570955
30
0
11
93.876209
21
-4.521504
31
0
39
0
210
0
220
0
230
1
0
LINE
5
54
100
AcDbEntity
8
SK1
62
256
6
ByLayer
370
-1
48
1
60
0
100
AcDbLine
10
-104.84
20
-7.9925
30
0
11
0
21
-7.9925
31
0
39
0
210
0
220
0
230
1
0
LINE
5
56
100
AcDbEntity
8
SK1
62
256
6
ByLayer
370
-1
48
1
60
0
100
AcDbLine
10
0
20
7.9925
30
0
11
-104.84
21
7.9925
31
0
39
0
210
0
220
0
230
1
0
LINE
5
57
100
AcDbEntity
8
SK1
62
256
6
ByLayer
370
-1
48
1
60
0
100
AcDbLine
10
-104.84
20
7.9925
30
0
11
-105.34
21
7.4925
31
0
39
0
210
0
220
0
230
1
0
LINE
5
58
100
AcDbEntity
8
SK1
62
256
6
ByLayer
370
-1
48
1
60
0
100
AcDbLine
10
-105.34
20
-7.4925
30
0
11
-104.84
21
-7.9925
31
0
39
0
210
0
220
0
230
1
0
LINE
5
59
100
AcDbEntity
8
1
62
256
6
ByLayer
370
-1
48
1
60
0
100
AcDbLine
10
62.66
20
-8.0425
30
0
11
79.655489
21
-8.0425
31
0
39
0
210
0
220
0
230
1
0
LINE
5
5A
100
AcDbEntity
8
1
62
256
6
ByLayer
370
-1
48
1
60
0
100
AcDbLine
10
83.899217
20
8.0425
30
0
11
62.66
21
8.0425
31
0
39
0
210
0
220
0
230
1
0
LINE
5
5B
100
AcDbEntity
8
1
62
256
6
ByLayer
370
-1
48
1
60
0
100
AcDbLine
10
0
20
-7.9925
30
0
11
62.66
21
-7.9925
31
0
39
0
210
0
220
0
230
1
0
LINE
5
5C
100
AcDbEntity
8
1
62
256
6
ByLayer
370
-1
48
1
60
0
100
AcDbLine
10
62.66
20
7.9925
30
0
11
0
21
7.9925
31
0
39
0
210
0
220
0
230
1
0
LINE
5
5D
100
AcDbEntity
8
1
62
256
6
ByLayer
370
-1
48
1
60
0
100
AcDbLine
10
83.998202
20
8.141485
30
0
11
83.899217
21
8.0425
31
0
39
0
210
0
220
0
230
1
0
LINE
5
5E
100
AcDbEntity
8
1
62
256
6
ByLayer
370
-1
48
1
60
0
100
AcDbLine
10
88.793365
20
2.040662
30
0
11
87.740972
21
3.387687
31
0
39
0
210
0
220
0
230
1
0
LINE
5
5F
100
AcDbEntity
8
1
62
256
6
ByLayer
370
-1
48
1
60
0
100
AcDbLine
10
62.66
20
-0.208217
30
0
11
0
21
-0.208217
31
0
39
0
210
0
220
0
230
1
0
LINE
5
60
100
AcDbEntity
8
1
62
256
6
ByLayer
370
-1
48
1
60
0
100
AcDbLine
10
83.899217
20
8.0425
30
0
11
83.899217
21
7.946536
31
0
39
0
210
0
220
0
230
1
0
LINE
5
61
100
AcDbEntity
8
1
62
256
6
ByLayer
370
-1
48
1
60
0
100
AcDbLine
10
91.95677
20
8.1415
30
0
11
83.998217
21
8.1415
31
0
39
0
210
0
220
0
230
1
0
LINE
5
62
100
AcDbEntity
8
1
62
256
6
ByLayer
370
-1
48
1
60
0
100
AcDbLine
10
95.042722
20
-1.707234
30
0
11
94.711787
21
-1.829998
31
0
39
0
210
0
220
0
230
1
0
LINE
5
63
100
AcDbEntity
8
1
62
256
6
ByLayer
370
-1
48
1
60
0
100
AcDbLine
10
95.04271
20
-1.707244
30
0
11
89.380275
21
5.540469
31
0
39
0
210
0
220
0
230
1
0
LINE
5
64
100
AcDbEntity
8
1
62
256
6
ByLayer
370
-1
48
1
60
0
100
AcDbLine
10
74.10843
20
-0.306445
30
0
11
62.66
21
-0.306445
31
0
39
0
210
0
220
0
230
1
0
LINE
5
65
100
AcDbEntity
8
1
62
256
6
ByLayer
370
-1
48
1
60
0
100
AcDbLine
10
95.275882
20
-1.620745
30
0
11
95.012207
21
3.410477
31
0
39
0
210
0
220
0
230
1
0
LINE
5
66
100
AcDbEntity
8
1
62
256
6
ByLayer
370
-1
48
1
60
0
100
AcDbLine
10
62.66
20
-0.306445
30
0
11
62.66
21
-0.208217
31
0
39
0
210
0
220
0
230
1
0
LINE
5
67
100
AcDbEntity
8
1
62
256
6
ByLayer
370
-1
48
1
60
0
100
AcDbLine
10
95.290672
20
-1.90296
30
0
11
95.275882
21
-1.620746
31
0
39
0
210
0
220
0
230
1
0
LINE
5
68
100
AcDbEntity
8
1
62
256
6
ByLayer
370
-1
48
1
60
0
100
AcDbLine
10
0
20
0.208217
30
0
11
62.66
21
0.208217
31
0
39
0
210
0
220
0
230
1
0
LINE
5
69
100
AcDbEntity
8
1
62
256
6
ByLayer
370
-1
48
1
60
0
100
AcDbLine
10
92.003063
20
8.069821
30
0
11
91.95677
21
8.1415
31
0
39
0
210
0
220
0
230
1
0
LINE
5
6A
100
AcDbEntity
8
1
62
256
6
ByLayer
370
-1
48
1
60
0
100
AcDbLine
10
85.936397
20
-5.123058
30
0
11
83.007099
21
-8.036775
31
0
39
0
210
0
220
0
230
1
0
LINE
5
6B
100
AcDbEntity
8
1
62
256
6
ByLayer
370
-1
48
1
60
0
100
AcDbLine
10
88.455206
20
1.998181
30
0
11
88.455199
21
1.99822
31
0
39
0
210
0
220
0
230
1
0
LINE
5
6C
100
AcDbEntity
8
1
62
256
6
ByLayer
370
-1
48
1
60
0
100
AcDbLine
10
62.66
20
0.306445
30
0
11
74.285127
21
0.306445
31
0
39
0
210
0
220
0
230
1
0
LINE
5
6D
100
AcDbEntity
8
1
62
256
6
ByLayer
370
-1
48
1
60
0
100
AcDbLine
10
0
20
-7.9925
30
0
11
0
21
-0.208217
31
0
39
0
210
0
220
0
230
1
0
LINE
5
6E
100
AcDbEntity
8
1
62
256
6
ByLayer
370
-1
48
1
60
0
100
AcDbLine
10
0
20
0.208217
30
0
11
0
21
7.9925
31
0
39
0
210
0
220
0
230
1
0
LINE
5
6F
100
AcDbEntity
8
1
62
256
6
ByLayer
370
-1
48
1
60
0
100
AcDbLine
10
95.04271
20
-1.707244
30
0
11
95.275882
21
-1.620745
31
0
39
0
210
0
220
0
230
1
0
LINE
5
70
100
AcDbEntity
8
1
62
256
6
ByLayer
370
-1
48
1
60
0
100
AcDbLine
10
88.455206
20
1.998181
30
0
11
88.797218
21
-4.024085
31
0
39
0
210
0
220
0
230
1
0
LINE
5
71
100
AcDbEntity
8
1
62
256
6
ByLayer
370
-1
48
1
60
0
100
AcDbLine
10
89.105231
20
-3.909818
30
0
11
88.797212
21
-4.024081
31
0
39
0
210
0
220
0
230
1
0
LINE
5
72
100
AcDbEntity
8
1
62
256
6
ByLayer
370
-1
48
1
60
0
100
AcDbLine
10
88.41956
20
-4.164181
30
0
11
88.797218
21
-4.024085
31
0
39
0
210
0
220
0
230
1
0
LINE
5
73
100
AcDbEntity
8
1
62
256
6
ByLayer
370
-1
48
1
60
0
100
AcDbLine
10
62.66
20
-0.306445
30
0
11
62.66
21
-8.0425
31
0
39
0
210
0
220
0
230
1
0
LINE
5
74
100
AcDbEntity
8
1
62
256
6
ByLayer
370
-1
48
1
60
0
100
AcDbLine
10
62.66
20
8.0425
30
0
11
62.66
21
0.306445
31
0
39
0
210
0
220
0
230
1
0
LINE
5
75
100
AcDbEntity
8
1
62
256
6
ByLayer
370
-1
48
1
60
0
100
AcDbLine
10
92.003063
20
8.069821
30
0
11
95.012207
21
3.410477
31
0
39
0
210
0
220
0
230
1
0
LINE
5
76
100
AcDbEntity
8
1
62
256
6
ByLayer
370
-1
48
1
60
0
100
AcDbLine
10
62.66
20
0.208217
30
0
11
62.66
21
0.306445
31
0
39
0
210
0
220
0
230
1
0
LINE
5
77
100
AcDbEntity
8
1
62
256
6
ByLayer
370
-1
48
1
60
0
100
AcDbLine
10
88.820082
20
1.531183
30
0
11
88.455199
21
1.99822
31
0
39
0
210
0
220
0
230
1
0
LINE
5
78
100
AcDbEntity
8
1
62
256
6
ByLayer
370
-1
48
1
60
0
100
AcDbLine
10
82.648558
20
-8.036343
30
0
11
86.979801
21
8.089168
31
0
39
0
210
0
220
0
230
1
0
LINE
5
79
100
AcDbEntity
8
1
62
256
6
ByLayer
370
-1
48
1
60
0
100
AcDbLine
10
87.320725
20
3.450277
30
0
11
88.455206
21
1.998181
31
0
39
0
210
0
220
0
230
1
0
LINE
5
7A
100
AcDbEntity
8
1
62
256
6
ByLayer
370
-1
48
1
60
0
100
AcDbLine
10
0
20
-0.208217
30
0
11
0
21
0.208217
31
0
39
0
210
0
220
0
230
1
0
LINE
5
7B
100
AcDbEntity
8
1
62
256
6
ByLayer
370
-1
48
1
60
0
100
AcDbLine
10
95.909458
20
-12.484205
30
0
11
95.403598
21
-2.831814
31
0
39
0
210
0
220
0
230
1
0
LINE
5
7C
100
AcDbEntity
8
1
62
256
6
ByLayer
370
-1
48
1
60
0
100
AcDbLine
10
89.24039
20
-5.118131
30
0
11
95.200709
21
-12.747124
31
0
39
0
210
0
220
0
230
1
0
LINE
5
7D
100
AcDbEntity
8
1
62
256
6
ByLayer
370
-1
48
1
60
0
100
AcDbLine
10
95.32007
20
-2.608578
30
0
11
89.35975
21
5.020416
31
0
39
0
210
0
220
0
230
1
0
LINE
5
7E
100
AcDbEntity
8
1
62
256
6
ByLayer
370
-1
48
1
60
0
100
AcDbLine
10
88.651001
20
4.757497
30
0
11
89.156861
21
-4.894895
31
0
39
0
210
0
220
0
230
1
0
LINE
5
7F
100
AcDbEntity
8
1
62
256
6
ByLayer
370
-1
48
1
60
0
100
AcDbLine
10
91.603163
20
-4.372444
30
0
11
91.574
21
-4.4359
31
0
39
0
210
0
220
0
230
1
0
LINE
5
80
100
AcDbEntity
8
1
62
256
6
ByLayer
370
-1
48
1
60
0
100
AcDbLine
10
91.877891
20
-4.599529
30
0
11
91.848717
21
-4.663008
31
0
39
0
210
0
220
0
230
1
0
LINE
5
81
100
AcDbEntity
8
1
62
256
6
ByLayer
370
-1
48
1
60
0
100
AcDbLine
10
91.830246
20
-3.014632
30
0
11
91.801072
21
-3.078111
31
0
39
0
210
0
220
0
230
1
0
LINE
5
82
100
AcDbEntity
8
1
62
256
6
ByLayer
370
-1
48
1
60
0
100
AcDbLine
10
93.169304
20
-4.120464
30
0
11
93.14013
21
-4.183943
31
0
39
0
210
0
220
0
230
1
0
LINE
5
83
100
AcDbEntity
8
1
62
256
6
ByLayer
370
-1
48
1
60
0
100
AcDbLine
10
92.46004
20
-4.697809
30
0
11
92.430866
21
-4.761287
31
0
39
0
210
0
220
0
230
1
0
LINE
5
84
100
AcDbEntity
8
1
62
256
6
ByLayer
370
-1
48
1
60
0
100
AcDbLine
10
91.622008
20
-4.080336
30
0
11
91.595894
21
-4.137158
31
0
39
0
210
0
220
0
230
1
0
LINE
5
85
100
AcDbEntity
8
1
62
256
6
ByLayer
370
-1
48
1
60
0
100
AcDbLine
10
91.576145
20
-4.084378
30
0
11
91.602259
21
-4.027556
31
0
39
0
210
0
220
0
230
1
0
LINE
5
86
100
AcDbEntity
8
1
62
256
6
ByLayer
370
-1
48
1
60
0
100
AcDbLine
10
91.396056
20
-3.818933
30
0
11
91.366893
21
-3.882389
31
0
39
0
210
0
220
0
230
1
0
LINE
5
87
100
AcDbEntity
8
SK1
62
256
6
ByLayer
370
-1
48
1
60
0
100
AcDbLine
10
0
20
-0.208217
30
0
11
0
21
0.208217
31
0
39
0
210
0
220
0
230
1
0
LINE
5
88
100
AcDbEntity
8
SK1
62
256
6
ByLayer
370
-1
48
1
60
0
100
AcDbLine
10
-32.09
20
0.208217
30
0
11
-32.09
21
-0.208217
31
0
39
0
210
0
220
0
230
1
0
LINE
5
89
100
AcDbEntity
8
SK1
62
256
6
ByLayer
370
-1
48
1
60
0
100
AcDbLine
10
0
20
-7.9925
30
0
11
0
21
-0.208217
31
0
39
0
210
0
220
0
230
1
0
LINE
5
8A
100
AcDbEntity
8
SK1
62
256
6
ByLayer
370
-1
48
1
60
0
100
AcDbLine
10
0
20
0.208217
30
0
11
0
21
7.9925
31
0
39
0
210
0
220
0
230
1
0
LINE
5
8B
100
AcDbEntity
8
SK1
62
256
6
ByLayer
370
-1
48
1
60
0
100
AcDbLine
10
0
20
-0.208217
30
0
11
-32.09
21
-0.208217
31
0
39
0
210
0
220
0
230
1
0
LINE
5
8C
100
AcDbEntity
8
SK1
62
256
6
ByLayer
370
-1
48
1
60
0
100
AcDbLine
10
-105.34
20
7.4925
30
0
11
-105.34
21
-7.4925
31
0
39
0
210
0
220
0
230
1
0
LINE
5
8D
100
AcDbEntity
8
SK1
62
256
6
ByLayer
370
-1
48
1
60
0
100
AcDbLine
10
-104.84
20
7.9925
30
0
11
-104.84
21
-7.9925
31
0
39
0
210
0
220
0
230
1
0
LINE
5
8E
100
AcDbEntity
8
SK1
62
256
6
ByLayer
370
-1
48
1
60
0
100
AcDbLine
10
-32.09
20
0.208217
30
0
11
0
21
0.208217
31
0
39
0
210
0
220
0
230
1
0
LINE
5
8F
100
AcDbEntity
8
2
62
256
6
ByLayer
370
-1
48
1
60
1
100
AcDbLine
10
95.91
20
0
30
0
11
95.911
21
0.001
31
0
39
0
210
0
220
0
230
1
0
MTEXT
5
DF
100
AcDbEntity
8
SK6
62
256
6
ByLayer
370
-1
48
1
60
0
100
AcDbMText
10
-1.34
20
15.07653
30
0
210
0
220
0
230
1
1
\W00.716;\fsimplex.shx,bigfont.shx;E16R-SVUCL 11-ER 
40
3.5
41
0
44
1.084337
50
0
71
7
72
5
7
DEFAULT
0
DIMENSION
5
112
100
AcDbEntity
8
2
62
256
6
ByLayer
370
-3
48
1
60
0
100
AcDbDimension
2
DimnDraft3D1
10
108.16
20
0
30
0
11
108.16
21
-32.356316
31
0
70
32
71
5
72
1
41
1
210
0
220
0
230
1
3
Standard
100
AcDbAlignedDimension
13
97.91
23
-12.9
33
0
14
97.91
24
0
34
0
50
90
100
AcDbRotatedDimension
1001
ACAD
1000
DSTYLE
1002
{
1070
    74
1070
     0
1070
   279
1070
     0
1070
   172
1070
     1
1070
   173
1070
     1
1070
   340
1005
E0
1070
    77
1070
     1
1070
    73
1070
     0
1070
   171
1070
     4
1070
   274
1070
     4
1070
   177
1070
     2
1070
   176
1070
     2
1070
   178
1070
     7
1070
    78
1070
     8
1070
    41
1041
3.175
1070
   147
1041
2.25
1070
    42
1041
2.0
1070
    44
1041
2.0
1070
   140
1041
4.5
1070
   343
1005
113
1070
   344
1005
113
1002
}
0
DIMENSION
5
128
100
AcDbEntity
8
SK2
62
256
6
ByLayer
370
-3
48
1
60
0
100
AcDbDimension
2
DimnDraft3D2
10
-115.09
20
7.9925
30
0
11
-115.09
21
-4.221711
31
0
70
32
71
5
72
1
41
1
210
0
220
0
230
1
3
Standard
100
AcDbAlignedDimension
13
-107.34
23
-7.9925
33
0
14
-107.34
24
7.9925
34
0
50
90
100
AcDbRotatedDimension
1001
ACAD
1000
DSTYLE
1002
{
1070
    74
1070
     0
1070
   279
1070
     0
1070
   172
1070
     1
1070
   173
1070
     1
1070
   340
1005
E0
1070
    77
1070
     1
1070
    73
1070
     0
1070
   171
1070
     4
1070
   274
1070
     4
1070
   177
1070
     2
1070
   176
1070
     2
1070
   178
1070
     7
1070
    78
1070
     8
1070
    41
1041
3.175
1070
   147
1041
2.25
1070
    42
1041
2.0
1070
    44
1041
2.0
1070
   140
1041
4.5
1070
   343
1005
113
1070
   344
1005
113
1002
}
0
DIMENSION
5
136
100
AcDbEntity
8
SK2
62
256
6
ByLayer
370
-3
48
1
60
0
100
AcDbDimension
2
DimnDraft3D3
10
95.91
20
-30.15
30
0
11
-11.530132
21
-30.15
31
0
70
32
71
5
72
1
41
1
210
0
220
0
230
1
3
Standard
100
AcDbAlignedDimension
13
-105.34
23
-9.9925
33
0
14
95.91
24
-14.9
34
0
50
0
100
AcDbRotatedDimension
1001
ACAD
1000
DSTYLE
1002
{
1070
   279
1070
     0
1070
   172
1070
     1
1070
   173
1070
     1
1070
   340
1005
E0
1070
    77
1070
     1
1070
    73
1070
     0
1070
   171
1070
     4
1070
   274
1070
     4
1070
   177
1070
     2
1070
   176
1070
     2
1070
   178
1070
     7
1070
    78
1070
     8
1070
    41
1041
3.175
1070
   147
1041
2.25
1070
    42
1041
2.0
1070
    44
1041
2.0
1070
   140
1041
4.5
1070
   343
1005
113
1070
   344
1005
113
1002
}
0
DIMENSION
5
144
100
AcDbEntity
8
2
62
256
6
ByLayer
370
-3
48
1
60
0
100
AcDbDimension
2
DimnDraft3D4
10
135.160346
20
0
30
0
11
118.268155
21
33.528479
31
0
70
34
71
5
72
1
41
1
210
0
220
0
230
1
3
Standard
100
AcDb2LineAngularDimension
13
95.229633
23
0.082184
33
0
14
93.144353
24
39.871689
34
0
15
97.91
25
0
35
0
16
124.438351
26
30.775028
36
0
40
0
0
ENDSEC
0
SECTION
2
OBJECTS
0
DICTIONARY
5
175
330
0
100
AcDbDictionary
280
0
281
1
3
ACAD_GROUP
350
176
3
ACAD_MLINESTYLE
350
177
0
DICTIONARY
5
176
330
0
100
AcDbDictionary
280
0
281
1
0
DICTIONARY
5
177
330
0
100
AcDbDictionary
280
0
281
1
3
Standard
350
18
0
MLINESTYLE
5
18
330
177
100
AcDbMlineStyle
2
Standard
70
0
3

62
256
51
90
52
90
71
2
49
-0.5
62
256
6
ByLayer
49
0.5
62
256
6
ByLayer
0
RASTERVARIABLES
5
163
330

100
AcDbRasterVariables
90
0
70
1
71
1
72
1
0
ENDSEC
0
EOF
